0
SECTION
2
HEADER
9
$ACADVER
1
AC1015
9
$DWGCODEPAGE
3
ANSI_1252
9
$HANDSEED
5
183
9
$ANGBASE
50
0
9
$ANGDIR
70
0
9
$ATTMODE
70
1
9
$AUNITS
70
0
9
$AUPREC
70
0
9
$CECOLOR
62
256
9
$CELTSCALE
40
1
9
$CELTYPE
6
ByLayer
9
$CELWEIGHT
370
18
9
$CLAYER
8
0
9
$CMLJUST
70
0
9
$CMLSCALE
40
1
9
$CMLSTYLE
2
Standard
9
$DIMSTYLE
2
Standard
9
$TEXTSIZE
40
0.2
9
$TEXTSTYLE
7
Standard
9
$LUNITS
70
2
9
$LUPREC
70
4
9
$EXTNAMES
290
1
9
$INSUNITS
70
4
9
$LTSCALE
40
1
9
$LWDISPLAY
290
1
9
$PDMODE
70
0
9
$PDSIZE
40
0
9
$PLINEGEN
70
0
0
ENDSEC
0
SECTION
2
CLASSES
0
CLASS
1
RASTERVARIABLES
2
AcDbRasterVariables
3
ISM
90
0
280
0
281
0
0
ENDSEC
0
SECTION
2
TABLES
0
TABLE
2
VPORT
5
179
100
AcDbSymbolTable
0
VPORT
5
1
100
AcDbSymbolTableRecord
100
AcDbViewportTableRecord
2
*Active
70
0
10
0
20
0
11
1
21
1
12
-1
22
1
13
0
23
0
14
0.5
24
0.5
15
10
25
10
16
0
26
0
36
1
17
0
27
0
37
0
0
ENDTAB
0
TABLE
2
LTYPE
5
17a
100
AcDbSymbolTable
0
LTYPE
5
14
100
AcDbSymbolTableRecord
100
AcDbLinetypeTableRecord
70
0
2
ByBlock
3

72
65
73
0
40
0
0
LTYPE
5
15
100
AcDbSymbolTableRecord
100
AcDbLinetypeTableRecord
70
0
2
ByLayer
3

72
65
73
0
40
0
0
LTYPE
5
16
100
AcDbSymbolTableRecord
100
AcDbLinetypeTableRecord
70
0
2
CONTINUOUS
3
Solid line
72
65
73
0
40
0
0
LTYPE
5
6A
100
AcDbSymbolTableRecord
100
AcDbLinetypeTableRecord
70
0
2
CENTER
3
____ _ ____ _ ____ _ ____
72
65
73
4
40
47.5
49
22
74
0
49
-8.5
74
0
49
8.5
74
0
49
-8.5
74
0
0
LTYPE
5
6B
100
AcDbSymbolTableRecord
100
AcDbLinetypeTableRecord
70
0
2
DASHED
3
__ __ __ __ __ __ __ __ __
72
65
73
2
40
25.72
49
12.86
74
0
49
-12.86
74
0
0
ENDTAB
0
TABLE
2
LAYER
5
17b
100
AcDbSymbolTable
0
LAYER
5
10
100
AcDbSymbolTableRecord
100
AcDbLayerTableRecord
2
0
70
0
62
7
6
CONTINUOUS
290
1
370
-3
390
0
0
LAYER
5
6D
100
AcDbSymbolTableRecord
100
AcDbLayerTableRecord
2
80
70
0
62
-6
6
CONTINUOUS
290
1
370
-3
390
0
0
LAYER
5
6F
100
AcDbSymbolTableRecord
100
AcDbLayerTableRecord
2
81
70
0
62
-3
6
CONTINUOUS
290
1
370
-3
390
0
0
LAYER
5
71
100
AcDbSymbolTableRecord
100
AcDbLayerTableRecord
2
1
70
0
62
4
6
CONTINUOUS
290
1
370
-3
390
0
0
LAYER
5
B5
100
AcDbSymbolTableRecord
100
AcDbLayerTableRecord
2
4
70
0
62
-2
6
CENTER
290
1
370
-3
390
0
0
LAYER
5
F8
100
AcDbSymbolTableRecord
100
AcDbLayerTableRecord
2
2
70
0
62
7
6
CONTINUOUS
290
1
370
-3
390
0
0
LAYER
5
165
100
AcDbSymbolTableRecord
100
AcDbLayerTableRecord
2
SK1
70
0
62
4
6
CONTINUOUS
290
1
370
-3
390
0
0
LAYER
5
166
100
AcDbSymbolTableRecord
100
AcDbLayerTableRecord
2
SK4
70
0
62
2
6
CENTER
290
1
370
-3
390
0
0
LAYER
5
167
100
AcDbSymbolTableRecord
100
AcDbLayerTableRecord
2
SK6
70
0
62
5
6
CONTINUOUS
290
1
370
-3
390
0
0
LAYER
5
168
100
AcDbSymbolTableRecord
100
AcDbLayerTableRecord
2
SK2
70
0
62
7
6
CONTINUOUS
290
1
370
-3
390
0
0
ENDTAB
0
TABLE
2
STYLE
5
17c
100
AcDbSymbolTable
0
STYLE
5
11
100
AcDbSymbolTableRecord
100
AcDbTextStyleTableRecord
2
Standard
3
txt
70
0
71
0
40
0
41
1
42
0
50
0
0
STYLE
5
DD
100
AcDbSymbolTableRecord
100
AcDbTextStyleTableRecord
2
iso_b_vert
3
simplex.shx
70
0
71
0
40
0
41
1
42
0
50
0
0
STYLE
5
DE
100
AcDbSymbolTableRecord
100
AcDbTextStyleTableRecord
2
DWGDirectTextStyle
3
simplex
70
0
71
0
40
0
41
1
42
0
50
0
0
ENDTAB
0
TABLE
2
DIMSTYLE
5
17d
100
AcDbSymbolTable
100
AcDbDimStyleTable
0
DIMSTYLE
105
27
100
AcDbSymbolTableRecord
100
AcDbDimStyleTableRecord
2
Standard
70
0
3
<>
41
0.18
42
0.0625
44
0.18
140
0.18
147
0.09
73
0
74
0
77
1
271
2
275
0
278
52
280
0
340
11
0
ENDTAB
0
TABLE
2
VIEW
5
17e
100
AcDbSymbolTable
0
ENDTAB
0
TABLE
2
UCS
5
17f
100
AcDbSymbolTable
0
ENDTAB
0
TABLE
2
APPID
5
180
100
AcDbSymbolTable
0
APPID
5
12
100
AcDbSymbolTableRecord
100
AcDbRegAppTableRecord
2
ACAD
70
0
0
ENDTAB
0
TABLE
2
BLOCK_RECORD
5
181
100
AcDbSymbolTable
0
BLOCK_RECORD
5
1F
100
AcDbSymbolTableRecord
100
AcDbBlockTableRecord
2
*Model_Space
340
0
70
0
0
BLOCK_RECORD
5
1B
100
AcDbSymbolTableRecord
100
AcDbBlockTableRecord
2
*Paper_Space
340
0
70
0
0
BLOCK_RECORD
5
23
100
AcDbSymbolTableRecord
100
AcDbBlockTableRecord
2
*Paper_Space0
340
0
70
0
0
BLOCK_RECORD
5
E0
100
AcDbSymbolTableRecord
100
AcDbBlockTableRecord
2
DimnDraft3D1
340
0
70
0
0
BLOCK_RECORD
5
EC
100
AcDbSymbolTableRecord
100
AcDbBlockTableRecord
2
DimnDraft3D2
340
0
70
0
0
BLOCK_RECORD
5
F6
100
AcDbSymbolTableRecord
100
AcDbBlockTableRecord
2
DimnDraft3D3
340
0
70
0
0
BLOCK_RECORD
5
101
100
AcDbSymbolTableRecord
100
AcDbBlockTableRecord
2
DimnDraft3D4
340
0
70
0
0
ENDTAB
0
ENDSEC
0
SECTION
2
BLOCKS
0
BLOCK
5
20
100
AcDbEntity
8
0
100
AcDbBlockBegin
2
*Model_Space
70
0
10
0
20
0
30
0
3
*Model_Space
0
ENDBLK
5
21
100
AcDbEntity
8
0
100
AcDbBlockEnd
0
BLOCK
5
1C
100
AcDbEntity
8
0
100
AcDbBlockBegin
2
*Paper_Space
70
0
10
0
20
0
30
0
3
*Paper_Space
0
ENDBLK
5
1D
100
AcDbEntity
8
0
100
AcDbBlockEnd
0
BLOCK
5
24
100
AcDbEntity
8
0
100
AcDbBlockBegin
2
*Paper_Space0
70
0
10
0
20
0
30
0
3
*Paper_Space0
0
ENDBLK
5
25
100
AcDbEntity
8
0
100
AcDbBlockEnd
0
BLOCK
5
E9
100
AcDbEntity
8
0
100
AcDbBlockBegin
2
DimnDraft3D1
70
0
10
0
20
0
30
0
3
DimnDraft3D1
0
MTEXT
5
E1
100
AcDbEntity
8
SK2
62
256
6
ByLayer
370
18
48
1
60
0
100
AcDbMText
10
-35
20
2.739474
30
0
210
0
220
0
230
1
1
\W0.7183;40
40
3
41
0
44
1.084337
50
90
71
7
72
5
7
iso_b_vert
0
MTEXT
5
E3
100
AcDbEntity
8
SK2
62
256
6
ByLayer
370
18
48
1
60
0
100
AcDbMText
10
-35
20
-3.537089
30
0
210
0
220
0
230
1
1
%%c
40
3
41
0
44
1.084337
50
90
71
7
72
5
7
iso_b_vert
0
LINE
5
E4
100
AcDbEntity
8
SK2
62
256
6
ByLayer
370
13
48
1
60
0
100
AcDbLine
10
-1.7
20
-20
30
0
11
-35.5
21
-20
31
0
39
0
210
0
220
0
230
1
0
LINE
5
E5
100
AcDbEntity
8
SK2
62
256
6
ByLayer
370
13
48
1
60
0
100
AcDbLine
10
-1.7
20
20
30
0
11
-35.5
21
20
31
0
39
0
210
0
220
0
230
1
0
LINE
5
E6
100
AcDbEntity
8
SK2
62
256
6
ByLayer
370
13
48
1
60
0
100
AcDbLine
10
-33.5
20
-20
30
0
11
-33.5
21
20
31
0
39
0
210
0
220
0
230
1
0
SOLID
5
E7
100
AcDbEntity
8
SK2
62
256
6
ByLayer
370
13
48
1
60
0
100
AcDbTrace
10
-33.5
20
-20
30
0
11
-33.833706
21
-16.825001
31
0
12
-33.166294
22
-16.824999
32
0
13
-33.5
23
-20
33
0
39
0
210
0
220
0
230
1
0
SOLID
5
E8
100
AcDbEntity
8
SK2
62
256
6
ByLayer
370
13
48
1
60
0
100
AcDbTrace
10
-33.5
20
20
30
0
11
-33.166294
21
16.825001
31
0
12
-33.833706
22
16.824999
32
0
13
-33.5
23
20
33
0
39
0
210
0
220
0
230
1
0
ENDBLK
5
EA
100
AcDbEntity
8
0
100
AcDbBlockEnd
0
BLOCK
5
F3
100
AcDbEntity
8
0
100
AcDbBlockBegin
2
DimnDraft3D2
70
0
10
0
20
0
30
0
3
DimnDraft3D2
0
MTEXT
5
ED
100
AcDbEntity
8
SK2
62
256
6
ByLayer
370
18
48
1
60
0
100
AcDbMText
10
65.75
20
-7.127632
30
0
210
0
220
0
230
1
1
\W0.5144;13
40
3
41
0
44
1.084337
50
90
71
7
72
5
7
iso_b_vert
0
LINE
5
EE
100
AcDbEntity
8
SK2
62
256
6
ByLayer
370
13
48
1
60
0
100
AcDbLine
10
49.53252
20
0
30
0
11
68.5
21
0
31
0
39
0
210
0
220
0
230
1
0
LINE
5
EF
100
AcDbEntity
8
SK2
62
256
6
ByLayer
370
13
48
1
60
0
100
AcDbLine
10
39
20
-13
30
0
11
68.5
21
-13
31
0
39
0
210
0
220
0
230
1
0
LINE
5
F0
100
AcDbEntity
8
SK2
62
256
6
ByLayer
370
13
48
1
60
0
100
AcDbLine
10
66.5
20
7.5
30
0
11
66.5
21
-20.5
31
0
39
0
210
0
220
0
230
1
0
SOLID
5
F1
100
AcDbEntity
8
SK2
62
256
6
ByLayer
370
13
48
1
60
0
100
AcDbTrace
10
66.5
20
0
30
0
11
66.166294
21
3.174999
31
0
12
66.833706
22
3.175001
32
0
13
66.5
23
0
33
0
39
0
210
0
220
0
230
1
0
SOLID
5
F2
100
AcDbEntity
8
SK2
62
256
6
ByLayer
370
13
48
1
60
0
100
AcDbTrace
10
66.5
20
-13
30
0
11
66.833706
21
-16.174999
31
0
12
66.166294
22
-16.175001
32
0
13
66.5
23
-13
33
0
39
0
210
0
220
0
230
1
0
ENDBLK
5
F4
100
AcDbEntity
8
0
100
AcDbBlockEnd
0
BLOCK
5
FE
100
AcDbEntity
8
0
100
AcDbBlockBegin
2
DimnDraft3D3
70
0
10
0
20
0
30
0
3
DimnDraft3D3
0
MTEXT
5
F7
100
AcDbEntity
8
2
62
256
6
ByLayer
370
18
48
1
60
0
100
AcDbMText
10
17.457895
20
33.255576
30
0
210
0
220
0
230
1
1
\W0.6740;37
40
3
41
0
44
1.084337
50
0
71
7
72
5
7
iso_b_vert
0
LINE
5
F9
100
AcDbEntity
8
2
62
256
6
ByLayer
370
13
48
1
60
0
100
AcDbLine
10
0
20
21.7
30
0
11
0
21
34.505576
31
0
39
0
210
0
220
0
230
1
0
LINE
5
FA
100
AcDbEntity
8
2
62
256
6
ByLayer
370
13
48
1
60
0
100
AcDbLine
10
37
20
-11
30
0
11
37
21
34.505576
31
0
39
0
210
0
220
0
230
1
0
LINE
5
FB
100
AcDbEntity
8
2
62
256
6
ByLayer
370
13
48
1
60
0
100
AcDbLine
10
0
20
32.505576
30
0
11
37
21
32.505576
31
0
39
0
210
0
220
0
230
1
0
SOLID
5
FC
100
AcDbEntity
8
2
62
256
6
ByLayer
370
13
48
1
60
0
100
AcDbTrace
10
0
20
32.505576
30
0
11
3.174999
21
32.839282
31
0
12
3.175001
22
32.17187
32
0
13
0
23
32.505576
33
0
39
0
210
0
220
0
230
1
0
SOLID
5
FD
100
AcDbEntity
8
2
62
256
6
ByLayer
370
13
48
1
60
0
100
AcDbTrace
10
37
20
32.505576
30
0
11
33.825001
21
32.17187
31
0
12
33.824999
22
32.839282
32
0
13
37
23
32.505576
33
0
39
0
210
0
220
0
230
1
0
ENDBLK
5
FF
100
AcDbEntity
8
0
100
AcDbBlockEnd
0
BLOCK
5
109
100
AcDbEntity
8
0
100
AcDbBlockBegin
2
DimnDraft3D4
70
0
10
0
20
0
30
0
3
DimnDraft3D4
0
MTEXT
5
102
100
AcDbEntity
8
SK2
62
256
6
ByLayer
370
18
48
1
60
0
100
AcDbMText
10
40.357895
20
-33.054252
30
0
210
0
220
0
230
1
1
\W0.6740;25
40
3
41
0
44
1.084337
50
0
71
7
72
5
7
iso_b_vert
0
MTEXT
5
103
100
AcDbEntity
8
SK2
62
256
6
ByLayer
370
18
48
1
60
0
100
AcDbMText
10
34.081332
20
-33.054252
30
0
210
0
220
0
230
1
1
%%c
40
3
41
0
44
1.084337
50
0
71
7
72
5
7
iso_b_vert
0
LINE
5
104
100
AcDbEntity
8
SK2
62
256
6
ByLayer
370
13
48
1
60
0
100
AcDbLine
10
25.5
20
-14.548766
30
0
11
25.5
21
-36.554252
31
0
39
0
210
0
220
0
230
1
0
LINE
5
105
100
AcDbEntity
8
SK2
62
256
6
ByLayer
370
13
48
1
60
0
100
AcDbLine
10
49.5
20
-14.548766
30
0
11
49.5
21
-36.554252
31
0
39
0
210
0
220
0
230
1
0
LINE
5
106
100
AcDbEntity
8
SK2
62
256
6
ByLayer
370
13
48
1
60
0
100
AcDbLine
10
25.5
20
-34.554252
30
0
11
49.5
21
-34.554252
31
0
39
0
210
0
220
0
230
1
0
SOLID
5
107
100
AcDbEntity
8
SK2
62
256
6
ByLayer
370
13
48
1
60
0
100
AcDbTrace
10
25.5
20
-34.554252
30
0
11
28.674999
21
-34.220547
31
0
12
28.675001
22
-34.887958
32
0
13
25.5
23
-34.554252
33
0
39
0
210
0
220
0
230
1
0
SOLID
5
108
100
AcDbEntity
8
SK2
62
256
6
ByLayer
370
13
48
1
60
0
100
AcDbTrace
10
49.5
20
-34.554252
30
0
11
46.325001
21
-34.887958
31
0
12
46.324999
22
-34.220547
32
0
13
49.5
23
-34.554252
33
0
39
0
210
0
220
0
230
1
0
ENDBLK
5
10A
100
AcDbEntity
8
0
100
AcDbBlockEnd
0
ENDSEC
0
SECTION
2
ENTITIES
0
ARC
5
BA
100
AcDbEntity
8
1
62
256
6
ByLayer
370
18
48
1
60
0
100
AcDbCircle
39
0
10
-41.330442
20
0.903724
30
0
40
7.99999999968833
210
0
220
0
230
-1
100
AcDbArc
50
98
51
110.49399
0
CIRCLE
5
B8
100
AcDbEntity
8
1
62
256
6
ByLayer
370
18
48
1
60
0
100
AcDbCircle
10
-37
20
2.5
30
0
40
3.17170746233157
39
0
210
0
220
0
230
-1
0
CIRCLE
5
B9
100
AcDbEntity
8
1
62
256
6
ByLayer
370
18
48
1
60
0
100
AcDbCircle
10
-37
20
2.5
30
0
40
4.14143307609568
39
0
210
0
220
0
230
-1
0
ELLIPSE
5
BB
100
AcDbEntity
8
1
62
256
6
ByLayer
370
18
48
1
60
0
100
AcDbEllipse
10
-0.948929
20
0
30
0
11
-9.36741787978187
21
19.74174915275
31
0
210
0
220
0
230
-1
40
0.341999
41
2.04527312608989
42
2.98886640869145
0
ELLIPSE
5
BC
100
AcDbEntity
8
1
62
256
6
ByLayer
370
18
48
1
60
0
100
AcDbEllipse
10
-0.948929
20
0
30
0
11
-9.36741787978183
21
-19.74174915275
31
0
210
0
220
0
230
-1
40
0.341999
41
-2.98886640869145
42
-2.04527312608989
0
ELLIPSE
5
BD
100
AcDbEntity
8
1
62
256
6
ByLayer
370
18
48
1
60
0
100
AcDbEllipse
10
16.948929
20
0
30
0
11
-9.36741787978176
21
-19.7417491527499
31
0
210
0
220
0
230
-1
40
0.341999
41
0.152726244898346
42
1.09631952749991
0
ELLIPSE
5
BE
100
AcDbEntity
8
1
62
256
6
ByLayer
370
18
48
1
60
0
100
AcDbEllipse
10
16.948929
20
0
30
0
11
-9.36741787978207
21
19.7417491527502
31
0
210
0
220
0
230
-1
40
0.341999
41
-1.0963195274999
42
-0.152726244898338
0
ELLIPSE
5
BF
100
AcDbEntity
8
1
62
256
6
ByLayer
370
18
48
1
60
0
100
AcDbEllipse
10
28.768802
20
1.739475
30
0
11
-5.85175315506804
21
6.27736713868959
31
0
210
0
220
0
230
-1
40
0.868994
41
0.724225229951051
42
0.820474035853731
0
ELLIPSE
5
C0
100
AcDbEntity
8
1
62
256
6
ByLayer
370
18
48
1
60
0
100
AcDbEllipse
10
34.3
20
21.762153
30
0
11
-11.337771730054
21
12.162398910495
31
0
210
0
220
0
230
-1
40
0.868994
41
-3.00819342163016
42
-2.92028424558845
0
ELLIPSE
5
C1
100
AcDbEntity
8
1
62
256
6
ByLayer
370
18
48
1
60
0
100
AcDbEllipse
10
31.540083
20
0
30
0
11
3.67381906146721E-15
21
-20.0000000000004
31
0
210
0
220
0
230
-1
40
0.57735
41
0.997283222371811
42
2.14430943121798
0
POINT
5
6C
100
AcDbEntity
8
80
62
256
6
ByLayer
370
18
48
1
60
0
100
AcDbPoint
10
0
20
0
30
0
39
0
210
0
220
0
230
1
50
360
0
POINT
5
6E
100
AcDbEntity
8
81
62
256
6
ByLayer
370
18
48
1
60
0
100
AcDbPoint
10
37
20
-13
30
0
39
0
210
0
220
0
230
1
50
360
0
SPLINE
5
C2
100
AcDbEntity
8
1
62
256
6
ByLayer
370
18
48
1
60
0
100
AcDbSpline
70
4
71
3
72
13
73
9
40
0
40
0
40
0
40
0
40
0.0076032659670073
40
0.117695821508583
40
0.259929979044513
40
0.484696993414037
40
0.914227471159985
40
1
40
1
40
1
40
1
41
1
10
9.07679491924312
20
-19.1222825906926
30
0
41
1
10
9.0779165683736
20
-19.1222824818149
30
0
41
1
10
9.09524690692502
20
-19.1222238234749
30
0
41
1
10
9.13361485617011
20
-19.1199368878565
30
0
41
1
10
9.19462779634861
20
-19.1089570197387
30
0
41
1
10
9.2707857603667
20
-19.0818012839434
30
0
41
1
10
9.31257902055504
20
-19.0507737102901
30
0
41
1
10
9.33345251254607
20
-19.0283578482605
30
0
41
1
10
9.33660254037844
20
-19.0245744101322
30
0
0
SPLINE
5
C3
100
AcDbEntity
8
1
62
256
6
ByLayer
370
18
48
1
60
0
100
AcDbSpline
70
4
71
3
72
13
73
9
40
0
40
0
40
0
40
0
40
0.0076032659669176
40
0.117695821508536
40
0.259929979044415
40
0.484696993413919
40
0.914227471159632
40
1
40
1
40
1
40
1
41
1
10
6.9232050807569
20
-5.8598898045693
30
0
41
1
10
6.92208343162644
20
-5.85989017094226
30
0
41
1
10
6.90475309307502
20
-5.86008143011455
30
0
41
1
10
6.86638514382994
20
-5.8675487658006
30
0
41
1
10
6.80537220365141
20
-5.90327508738741
30
0
41
1
10
6.72921423963341
20
-5.99082752985901
30
0
41
1
10
6.68742097944501
20
-6.08874001225087
30
0
41
1
10
6.66654748745395
20
-6.15805995337823
30
0
41
1
10
6.66339745962156
20
-6.16973001948566
30
0
0
SPLINE
5
C4
100
AcDbEntity
8
1
62
256
6
ByLayer
370
18
48
1
60
0
100
AcDbSpline
70
4
71
3
72
13
73
9
40
0
40
0
40
0
40
0
40
0.0076032659670082
40
0.117695821508584
40
0.259929979044517
40
0.484696993414058
40
0.914227471160009
40
1
40
1
40
1
40
1
41
1
10
9.07679491924312
20
-5.8598898045693
30
0
41
1
10
9.0779165683736
20
-5.85989017094226
30
0
41
1
10
9.09524690692503
20
-5.86008143011455
30
0
41
1
10
9.13361485617011
20
-5.86754876580059
30
0
41
1
10
9.19462779634861
20
-5.90327508738749
30
0
41
1
10
9.27078576036669
20
-5.99082752985906
30
0
41
1
10
9.31257902055504
20
-6.08874001225094
30
0
41
1
10
9.33345251254607
20
-6.15805995337827
30
0
41
1
10
9.33660254037844
20
-6.16973001948565
30
0
0
SPLINE
5
C5
100
AcDbEntity
8
1
62
256
6
ByLayer
370
18
48
1
60
0
100
AcDbSpline
70
4
71
3
72
13
73
9
40
0
40
0
40
0
40
0
40
0.0076032659669164
40
0.117695821508531
40
0.259929979044431
40
0.484696993413861
40
0.914227471159576
40
1
40
1
40
1
40
1
41
1
10
6.9232050807569
20
-19.1222825906926
30
0
41
1
10
6.92208343162644
20
-19.1222824818149
30
0
41
1
10
6.90475309307503
20
-19.1222238234749
30
0
41
1
10
6.86638514382993
20
-19.1199368878565
30
0
41
1
10
6.80537220365143
20
-19.1089570197387
30
0
41
1
10
6.72921423963337
20
-19.0818012839434
30
0
41
1
10
6.68742097944506
20
-19.0507737102901
30
0
41
1
10
6.66654748745395
20
-19.0283578482605
30
0
41
1
10
6.66339745962156
20
-19.0245744101322
30
0
0
SPLINE
5
C6
100
AcDbEntity
8
1
62
256
6
ByLayer
370
18
48
1
60
0
100
AcDbSpline
70
4
71
3
72
13
73
9
40
0
40
0
40
0
40
0
40
0.0076032659670077
40
0.117695821508625
40
0.259929979044524
40
0.484696993414064
40
0.914227471160039
40
1
40
1
40
1
40
1
41
1
10
9.07679491924312
20
19.1222825906926
30
0
41
1
10
9.0779165683736
20
19.122282481815
30
0
41
1
10
9.09524690692504
20
19.1222238234747
30
0
41
1
10
9.13361485617012
20
19.1199368878567
30
0
41
1
10
9.19462779634861
20
19.1089570197386
30
0
41
1
10
9.27078576036673
20
19.0818012839435
30
0
41
1
10
9.31257902055504
20
19.0507737102902
30
0
41
1
10
9.33345251254607
20
19.0283578482605
30
0
41
1
10
9.33660254037844
20
19.0245744101322
30
0
0
SPLINE
5
C7
100
AcDbEntity
8
1
62
256
6
ByLayer
370
18
48
1
60
0
100
AcDbSpline
70
4
71
3
72
13
73
9
40
0
40
0
40
0
40
0
40
0.0076032659669159
40
0.117695821508528
40
0.259929979044409
40
0.484696993413858
40
0.914227471159511
40
1
40
1
40
1
40
1
41
1
10
6.9232050807569
20
5.85988980456935
30
0
41
1
10
6.92208343162644
20
5.85989017094229
30
0
41
1
10
6.904753093075
20
5.86008143011429
30
0
41
1
10
6.86638514382994
20
5.86754876580071
30
0
41
1
10
6.80537220365146
20
5.90327508738742
30
0
41
1
10
6.72921423963336
20
5.990827529859
30
0
41
1
10
6.68742097944509
20
6.0887400122509
30
0
41
1
10
6.66654748745396
20
6.15805995337825
30
0
41
1
10
6.66339745962156
20
6.1697300194857
30
0
0
SPLINE
5
C8
100
AcDbEntity
8
1
62
256
6
ByLayer
370
18
48
1
60
0
100
AcDbSpline
70
4
71
3
72
12
73
8
40
0
40
0
40
0
40
0
40
0.26571994221729
40
0.599036009118064
40
0.761657831218627
40
0.897560774262825
40
1
40
1
40
1
40
1
41
1
10
9.33660254037844
20
6.1697300194857
30
0
41
1
10
9.3273998115192
20
6.1330121365146
30
0
41
1
10
9.29891794835862
20
6.05402946027792
30
0
41
1
10
9.2458654836379
20
5.9573757123208
30
0
41
1
10
9.18004381265053
20
5.89343195669856
30
0
41
1
10
9.12695767963685
20
5.86526993273041
30
0
41
1
10
9.09237493297185
20
5.86026502058234
30
0
41
1
10
9.07679491924312
20
5.85988980456935
30
0
0
SPLINE
5
C9
100
AcDbEntity
8
1
62
256
6
ByLayer
370
18
48
1
60
0
100
AcDbSpline
70
4
71
3
72
13
73
9
40
0
40
0
40
0
40
0
40
0.0076032659670068
40
0.117695821508582
40
0.259929979044468
40
0.484696993413962
40
0.914227471159873
40
1
40
1
40
1
40
1
41
1
10
6.9232050807569
20
19.1222825906926
30
0
41
1
10
6.92208343162642
20
19.122282481815
30
0
41
1
10
6.90475309307499
20
19.1222238234746
30
0
41
1
10
6.86638514382992
20
19.1199368878567
30
0
41
1
10
6.80537220365143
20
19.1089570197386
30
0
41
1
10
6.7292142396333
20
19.0818012839435
30
0
41
1
10
6.68742097944504
20
19.0507737102901
30
0
41
1
10
6.66654748745394
20
19.0283578482605
30
0
41
1
10
6.66339745962156
20
19.0245744101322
30
0
0
SPLINE
5
CA
100
AcDbEntity
8
SK1
62
256
6
ByLayer
370
18
48
1
60
0
100
AcDbSpline
70
4
71
2
72
6
73
3
40
0
40
0
40
0
40
1
40
1
40
1
41
1
10
-24
20
-12.5792497938497
30
0
41
1
10
-23.2502022102615
20
-13.0377782396152
30
0
41
1
10
-22.5004044652876
20
-13.4963063088984
30
0
0
SPLINE
5
CB
100
AcDbEntity
8
SK1
62
256
6
ByLayer
370
18
48
1
60
0
100
AcDbSpline
70
4
71
2
72
6
73
3
40
0
40
0
40
0
40
1
40
1
40
1
41
1
10
-22.5003908339724
20
13.4978821830651
30
0
41
1
10
-23.2501954183652
20
13.0391711291607
30
0
41
1
10
-24
20
12.5804568955075
30
0
0
SPLINE
5
CC
100
AcDbEntity
8
SK1
62
256
6
ByLayer
370
18
48
1
60
0
100
AcDbSpline
70
4
71
2
72
6
73
3
40
0
40
0
40
0
40
1
40
1
40
1
41
1
10
-22.5004731679057
20
-13.4975184982324
30
0
41
1
10
-12.1000849164641
20
-13.7588124518229
30
0
41
1
10
-1.6996966650224
20
-14.0201064054133
30
0
0
SPLINE
5
CD
100
AcDbEntity
8
SK1
62
256
6
ByLayer
370
18
48
1
60
0
100
AcDbSpline
70
4
71
2
72
6
73
3
40
0
40
0
40
0
40
1
40
1
40
1
41
1
10
-1.7001974408282
20
14.020093824208
30
0
41
1
10
-12.100335304367
20
13.7588061612327
30
0
41
1
10
-22.5004731679057
20
13.4975184982574
30
0
0
SPLINE
5
CE
100
AcDbEntity
8
SK1
62
256
6
ByLayer
370
18
48
1
60
0
100
AcDbSpline
70
4
71
3
72
28
73
24
40
0
40
0
40
0
40
0
40
0.135761604367414
40
0.171393453920926
40
0.207013399897749
40
0.242626361604989
40
0.27823494329286
40
0.31390832860647
40
0.349584187522073
40
0.385186569077601
40
0.420788041797325
40
0.459394668871367
40
0.498001770629949
40
0.510451995856266
40
0.560286350705111
40
0.610122130581079
40
0.659960864488943
40
0.709804772522138
40
0.759657503608692
40
0.809525762807934
40
0.834490367187038
40
0.859450952034394
40
1
40
1
40
1
40
1
41
1
10
-1.69968986264464
20
14.0200937890883
30
0
41
1
10
-1.69976034727379
20
12.9935052306126
30
0
41
1
10
-1.69980112056069
20
11.8025468809912
30
0
41
1
10
-1.69984920911925
20
9.99922692389706
30
0
41
1
10
-1.69987049333829
20
9.01390199709131
30
0
41
1
10
-1.69988814682154
20
7.98625494242402
30
0
41
1
10
-1.69990238266623
20
6.92526240371217
30
0
41
1
10
-1.69991365359892
20
5.83786022482686
30
0
41
1
10
-1.69992232358784
20
4.7304347200597
30
0
41
1
10
-1.69992876461603
20
3.60852101839104
30
0
41
1
10
-1.69993335571259
20
2.44444429914822
30
0
41
1
10
-1.69993618105338
20
1.24040176779017
30
0
41
1
10
-1.69993705779558
20
0.280068910638832
30
0
41
1
10
-1.69993655718765
20
-0.8002385376355
30
0
41
1
10
-1.699934872982
20
-2.00021167707732
30
0
41
1
10
-1.69992917167315
20
-3.58855965479478
30
0
41
1
10
-1.69991968360342
20
-5.15557402967945
30
0
41
1
10
-1.69990559197047
20
-6.68969804201428
30
0
41
1
10
-1.69988583653807
20
-8.17648465184412
30
0
41
1
10
-1.69986366555418
20
-9.36063593999962
30
0
41
1
10
-1.69984230050957
20
-10.2594393288995
30
0
41
1
10
-1.69979804266859
20
-11.9005467432782
30
0
41
1
10
-1.69975833973289
20
-13.0466561665981
30
0
41
1
10
-1.6996966648194
20
-14.020106397333
30
0
0
SPLINE
5
CF
100
AcDbEntity
8
1
62
256
6
ByLayer
370
18
48
1
60
0
100
AcDbSpline
70
4
71
2
72
6
73
3
40
0
40
0
40
0
40
1
40
1
40
1
41
1
10
21.9427507610238
20
12.2421611562357
30
0
41
1
10
21.9844042958469
20
11.8081420640146
30
0
41
1
10
22.0470967316605
20
11.3580014174604
30
0
0
SPLINE
5
D0
100
AcDbEntity
8
1
62
256
6
ByLayer
370
18
48
1
60
0
100
AcDbSpline
70
4
71
1
72
4
73
2
40
0
40
0
40
1
40
1
41
1
10
21.8405989232415
20
10.8517279730004
30
0
41
1
10
22.0470967316605
20
11.3580014174604
30
0
0
SPLINE
5
D1
100
AcDbEntity
8
1
62
256
6
ByLayer
370
18
48
1
60
0
100
AcDbSpline
70
4
71
3
72
11
73
7
40
0
40
0
40
0
40
0
40
0.18472065341566
40
0.370979339293788
40
0.682045395310604
40
1
40
1
40
1
40
1
41
1
10
21.9427507610238
20
12.2421611562357
30
0
41
1
10
22.0645155726799
20
12.1736454110944
30
0
41
1
10
22.3283051250745
20
12.0374818633787
30
0
41
1
10
22.8856585005811
20
11.7867457478276
30
0
41
1
10
23.6615680942845
20
11.5137666285156
30
0
41
1
10
24.3391267496041
20
11.3748035753437
30
0
41
1
10
24.7041561586068
20
11.3190165966728
30
0
0
SPLINE
5
D2
100
AcDbEntity
8
1
62
256
6
ByLayer
370
18
48
1
60
0
100
AcDbSpline
70
4
71
3
72
16
73
12
40
0
40
0
40
0
40
0
40
0.114186599583865
40
0.228364932100645
40
0.360450268403526
40
0.492998984712804
40
0.625023441841628
40
0.747480884361221
40
0.87037087513251
40
0.992798278013797
40
1
40
1
40
1
40
1
41
1
10
22.0470967316605
20
11.3580014174605
30
0
41
1
10
22.1911795415399
20
11.2619664782739
30
0
41
1
10
22.5015230138948
20
11.0768902526257
30
0
41
1
10
23.0624589488275
20
10.8055727235737
30
0
41
1
10
23.7289691860666
20
10.5482591456583
30
0
41
1
10
24.5035631230275
20
10.3132742279687
30
0
41
1
10
25.3251681772684
20
10.1212633345027
30
0
41
1
10
26.1796831833515
20
9.97424434054858
30
0
41
1
10
27.0494140376921
20
9.86965471191056
30
0
41
1
10
27.6645158308745
20
9.82568718246351
30
0
41
1
10
27.9823326931868
20
9.81126808738217
30
0
41
1
10
28
20
9.8104912775085
30
0
0
SPLINE
5
D3
100
AcDbEntity
8
1
62
256
6
ByLayer
370
18
48
1
60
0
100
AcDbSpline
70
4
71
3
72
19
73
15
40
0
40
0
40
0
40
0
40
0.003905508181154
40
0.0499865632429011
40
0.0962041729436036
40
0.189709968398545
40
0.28369113138371
40
0.377592272853282
40
0.489744569963082
40
0.602320355406063
40
0.714798801810566
40
0.826817841092874
40
0.913418257310798
40
1
40
1
40
1
40
1
41
1
10
49.3
20
1.60096980999329
30
0
41
1
10
49.298689671175
20
1.61590933865437
30
0
41
1
10
49.2814971309757
20
1.80647283362266
30
0
41
1
10
49.2366063831891
20
2.1582110664037
30
0
41
1
10
49.1183413029102
20
2.77708633171145
30
0
41
1
10
48.9214672287754
20
3.48394324059882
30
0
41
1
10
48.6172761805942
20
4.24345597906518
30
0
41
1
10
48.2258360111952
20
4.9888828789309
30
0
41
1
10
47.7309105515282
20
5.73589663534847
30
0
41
1
10
47.1142297962346
20
6.46080409436216
30
0
41
1
10
46.402361916131
20
7.11755029112765
30
0
41
1
10
45.6544380717461
20
7.65416379023526
30
0
41
1
10
44.8933759967099
20
8.08213078686503
30
0
41
1
10
44.3919043250971
20
8.29897616511793
30
0
41
1
10
44.1313154085609
20
8.39739522959655
30
0
0
SPLINE
5
D4
100
AcDbEntity
8
1
62
256
6
ByLayer
370
18
48
1
60
0
100
AcDbSpline
70
4
71
2
72
6
73
3
40
0
40
0
40
0
40
1
40
1
40
1
41
1
10
21.8405989232415
20
-10.8517279730005
30
0
41
1
10
22.0583401302152
20
-11.4400541134913
30
0
41
1
10
22.3558820357269
20
-11.9769316599435
30
0
0
SPLINE
5
D5
100
AcDbEntity
8
1
62
256
6
ByLayer
370
18
48
1
60
0
100
AcDbSpline
70
4
71
1
72
4
73
2
40
0
40
0
40
1
40
1
41
1
10
25.6317748972093
20
-12.6805748972093
30
0
41
1
10
25.4999658773652
20
-12.5487658773653
30
0
0
SPLINE
5
D6
100
AcDbEntity
8
1
62
256
6
ByLayer
370
18
48
1
60
0
100
AcDbSpline
70
4
71
3
72
10
73
6
40
0
40
0
40
0
40
0
40
0.381803029586227
40
0.769714819559373
40
1
40
1
40
1
40
1
41
1
10
23.870253441421
20
-12.25
30
0
41
1
10
23.6538579141011
20
-12.1907509591151
30
0
41
1
10
23.2360595160053
20
-12.0898916636155
30
0
41
1
10
22.7360252774264
20
-12.0137814059052
30
0
41
1
10
22.4563964540916
20
-11.9847505242177
30
0
41
1
10
22.3558820357269
20
-11.9769316599435
30
0
0
SPLINE
5
D7
100
AcDbEntity
8
1
62
256
6
ByLayer
370
18
48
1
60
0
100
AcDbSpline
70
2053
71
3
72
14
73
10
40
0
40
0
40
0
40
0
40
0.213750915522889
40
0.341476878453127
40
0.449641373243963
40
0.558186757422289
40
0.658764722968814
40
0.794136926722895
40
1
40
1
40
1
40
1
41
1
10
49.3945204506176
20
-12.6537341226347
30
0
41
1
10
49.4099171956441
20
-12.6384288868395
30
0
41
1
10
49.430593153105
20
-12.6178899795869
30
0
41
1
10
49.4518136642462
20
-12.5968682873043
30
0
41
1
10
49.4605303648929
20
-12.5882405413745
30
0
41
1
10
49.4602005514739
20
-12.5885668722477
30
0
41
1
10
49.4512230569018
20
-12.5974531621259
30
0
41
1
10
49.4300406777812
20
-12.6184376358332
30
0
41
1
10
49.4092951459072
20
-12.6390467711853
30
0
41
1
10
49.3945204506176
20
-12.6537341226347
30
0
0
SPLINE
5
D8
100
AcDbEntity
8
1
62
256
6
ByLayer
370
18
48
1
60
0
100
AcDbSpline
70
4
71
3
72
11
73
7
40
0
40
0
40
0
40
0
40
0.422338683251099
40
0.686463440170611
40
0.907095066955856
40
1
40
1
40
1
40
1
41
1
10
48.8014102329851
20
-13.2387658773652
30
0
41
1
10
48.7871691796997
20
-13.2527283087712
30
0
41
1
10
48.7673749906694
20
-13.2718222527669
30
0
41
1
10
48.7463876415936
20
-13.2913879788097
30
0
41
1
10
48.7386368864238
20
-13.2979535704305
30
0
41
1
10
48.7371488430248
20
-13.2987481722938
30
0
41
1
10
48.7369195139371
20
-13.2987658773653
30
0
0
SPLINE
5
D9
100
AcDbEntity
8
1
62
256
6
ByLayer
370
18
48
1
60
0
100
AcDbSpline
70
4
71
1
72
4
73
2
40
0
40
0
40
1
40
1
41
1
10
49.3945204506176
20
-12.6537341226347
30
0
41
1
10
48.8014102329851
20
-13.2387658773652
30
0
0
SPLINE
5
DA
100
AcDbEntity
8
1
62
256
6
ByLayer
370
18
48
1
60
0
100
AcDbSpline
70
4
71
3
72
14
73
10
40
0
40
0
40
0
40
0
40
0.064283552143861
40
0.221952899993268
40
0.379710888361267
40
0.522568325519786
40
0.665963431100424
40
0.80902142007142
40
1
40
1
40
1
40
1
41
1
10
21.9427507610238
20
12.2421611562357
30
0
41
1
10
21.8126658683968
20
12.3144633929487
30
0
41
1
10
21.3750444918522
20
12.5723107757257
30
0
41
1
10
20.6918180622144
20
13.0716796455901
30
0
41
1
10
19.9903294110444
20
13.7339642891946
30
0
41
1
10
19.4289090239303
20
14.4038979173498
30
0
41
1
10
18.9855280507119
20
15.0561715801284
30
0
41
1
10
18.5953612666838
20
15.769841125769
30
0
41
1
10
18.3920581565726
20
16.2421144986905
30
0
41
1
10
18.3
20
16.505
30
0
0
SPLINE
5
DB
100
AcDbEntity
8
1
62
256
6
ByLayer
370
18
48
1
60
0
100
AcDbSpline
70
2053
71
3
72
46
73
42
40
0
40
0
40
0
40
0
40
0.010208147240924
40
0.0336893824826855
40
0.0571726289239898
40
0.0804906038438438
40
0.103815774325538
40
0.128120740558769
40
0.152439469817695
40
0.174540431707573
40
0.19672455762928
40
0.218856559227322
40
0.250110510130328
40
0.281484838727468
40
0.312795552751283
40
0.346500537401495
40
0.380326359278189
40
0.414169753571453
40
0.447898784185524
40
0.489125079976504
40
0.530351393058089
40
0.56627500305945
40
0.602332698769365
40
0.638375430604896
40
0.674278557570152
40
0.705536580754738
40
0.736852535680545
40
0.768062994706251
40
0.790733605247424
40
0.813453421493018
40
0.836092449995044
40
0.854382925360986
40
0.872721851045141
40
0.89099647271174
40
0.909390014224099
40
0.92785370938843
40
0.946237360818943
40
0.962572337098871
40
0.978964302563091
40
0.995298008867529
40
1
40
1
40
1
40
1
41
1
10
22.3558820357269
20
-11.9769316599435
30
0
41
1
10
22.1978900096722
20
-11.963915214032
30
0
41
1
10
21.6769546827663
20
-11.9364355424682
30
0
41
1
10
20.7862859614559
20
-11.9786096620543
30
0
41
1
10
19.7187943896321
20
-12.1737905028752
30
0
41
1
10
18.7105319551972
20
-12.5063640884118
30
0
41
1
10
17.7706202097204
20
-12.9556812914532
30
0
41
1
10
16.9240455901501
20
-13.5073775549357
30
0
41
1
10
16.2056776309896
20
-14.1119596091671
30
0
41
1
10
15.6210492986798
20
-14.729830876628
30
0
41
1
10
15.150816834122
20
-15.3364462509057
30
0
41
1
10
14.7164248280599
20
-16.0182474709414
30
0
41
1
10
14.3518891111143
20
-16.7477677800886
30
0
41
1
10
14.0750628387707
20
-17.4896332490555
30
0
41
1
10
13.8927991816515
20
-18.1671185666527
30
0
41
1
10
13.7810450955147
20
-18.7565040613932
30
0
41
1
10
13.7229432201029
20
-19.2471701081727
30
0
41
1
10
13.7027337334187
20
-19.6211954900857
30
0
41
1
10
13.7002035128222
20
-19.8927570273012
30
0
41
1
10
13.6990854613955
20
-20.0237483009055
30
0
41
1
10
13.7008549888881
20
-19.9830352300876
30
0
41
1
10
13.6977462974719
20
-19.7837101058122
30
0
41
1
10
13.7067813465172
20
-19.4551157779565
30
0
41
1
10
13.7489543732052
20
-18.992571440056
30
0
41
1
10
13.8391823471392
20
-18.424785699571
30
0
41
1
10
13.9909892787425
20
-17.7719983495751
30
0
41
1
10
14.2235534201965
20
-17.0644018708201
30
0
41
1
10
14.538871751533
20
-16.3545420256227
30
0
41
1
10
14.924859108134
20
-15.6758097705442
30
0
41
1
10
15.3549509478354
20
-15.057165635913
30
0
41
1
10
15.847698749384
20
-14.4774249141509
30
0
41
1
10
16.3905446203291
20
-13.9523797548776
30
0
41
1
10
16.9615506147257
20
-13.490625967496
30
0
41
1
10
17.6002619796396
20
-13.0649572908046
30
0
41
1
10
18.3059679478851
20
-12.6918291928829
30
0
41
1
10
19.0674479134698
20
-12.3816165868023
30
0
41
1
10
19.8434209846641
20
-12.1542150293731
30
0
41
1
10
20.6179433425796
20
-12.0123422988773
30
0
41
1
10
21.3759879763626
20
-11.9453034681532
30
0
41
1
10
21.9582594072638
20
-11.9486378548993
30
0
41
1
10
22.2832668997514
20
-11.970941796674
30
0
41
1
10
22.3558820357269
20
-11.9769316599435
30
0
0
LINE
5
70
100
AcDbEntity
8
1
62
256
6
ByLayer
370
18
48
1
60
0
100
AcDbLine
10
9.076795
20
-5.85989
30
0
11
6.923205
21
-5.85989
31
0
39
0
210
0
220
0
230
1
0
LINE
5
72
100
AcDbEntity
8
1
62
256
6
ByLayer
370
18
48
1
60
0
100
AcDbLine
10
6.923205
20
-19.122283
30
0
11
9.076795
21
-19.122283
31
0
39
0
210
0
220
0
230
1
0
LINE
5
73
100
AcDbEntity
8
1
62
256
6
ByLayer
370
18
48
1
60
0
100
AcDbLine
10
9.076795
20
5.85989
30
0
11
6.923205
21
5.85989
31
0
39
0
210
0
220
0
230
1
0
LINE
5
74
100
AcDbEntity
8
1
62
256
6
ByLayer
370
18
48
1
60
0
100
AcDbLine
10
6.923205
20
19.122283
30
0
11
9.076795
21
19.122283
31
0
39
0
210
0
220
0
230
1
0
LINE
5
75
100
AcDbEntity
8
SK1
62
256
6
ByLayer
370
18
48
1
60
0
100
AcDbLine
10
-22.500473
20
13.497518
30
0
11
-22.500473
21
-13.497518
31
0
39
0
210
0
220
0
230
1
0
LINE
5
77
100
AcDbEntity
8
SK1
62
256
6
ByLayer
370
18
48
1
60
0
100
AcDbLine
10
-24
20
-12.579541
30
0
11
-24
21
12.580508
31
0
39
0
210
0
220
0
230
1
0
LINE
5
78
100
AcDbEntity
8
1
62
256
6
ByLayer
370
18
48
1
60
0
100
AcDbLine
10
9.076795
20
-5.85989
30
0
11
9.076795
21
-19.122283
31
0
39
0
210
0
220
0
230
1
0
LINE
5
79
100
AcDbEntity
8
1
62
256
6
ByLayer
370
18
48
1
60
0
100
AcDbLine
10
6.923205
20
-5.85989
30
0
11
6.923205
21
-19.122283
31
0
39
0
210
0
220
0
230
1
0
LINE
5
7A
100
AcDbEntity
8
1
62
256
6
ByLayer
370
18
48
1
60
0
100
AcDbLine
10
9.076795
20
5.85989
30
0
11
9.076795
21
19.122283
31
0
39
0
210
0
220
0
230
1
0
LINE
5
7B
100
AcDbEntity
8
1
62
256
6
ByLayer
370
18
48
1
60
0
100
AcDbLine
10
6.923205
20
5.85989
30
0
11
6.923205
21
19.122283
31
0
39
0
210
0
220
0
230
1
0
LINE
5
7C
100
AcDbEntity
8
1
62
256
6
ByLayer
370
18
48
1
60
0
100
AcDbLine
10
0
20
19.7
30
0
11
0.3
21
20
31
0
39
0
210
0
220
0
230
1
0
LINE
5
7D
100
AcDbEntity
8
1
62
256
6
ByLayer
370
18
48
1
60
0
100
AcDbLine
10
0.3
20
-20
30
0
11
0
21
-19.7
31
0
39
0
210
0
220
0
230
1
0
LINE
5
7E
100
AcDbEntity
8
1
62
256
6
ByLayer
370
18
48
1
60
0
100
AcDbLine
10
0.3
20
20
30
0
11
1.3
21
20
31
0
39
0
210
0
220
0
230
1
0
LINE
5
7F
100
AcDbEntity
8
1
62
256
6
ByLayer
370
18
48
1
60
0
100
AcDbLine
10
1.3
20
-20
30
0
11
0.3
21
-20
31
0
39
0
210
0
220
0
230
1
0
LINE
5
80
100
AcDbEntity
8
1
62
256
6
ByLayer
370
18
48
1
60
0
100
AcDbLine
10
0
20
19.7
30
0
11
0
21
-19.7
31
0
39
0
210
0
220
0
230
1
0
LINE
5
81
100
AcDbEntity
8
1
62
256
6
ByLayer
370
18
48
1
60
0
100
AcDbLine
10
0.3
20
20
30
0
11
17.027924
21
20
31
0
39
0
210
0
220
0
230
1
0
LINE
5
82
100
AcDbEntity
8
1
62
256
6
ByLayer
370
18
48
1
60
0
100
AcDbLine
10
13.699699
20
-20
30
0
11
0.3
21
-20
31
0
39
0
210
0
220
0
230
1
0
LINE
5
83
100
AcDbEntity
8
1
62
256
6
ByLayer
370
18
48
1
60
0
100
AcDbLine
10
35.845299
20
4.5
30
0
11
34.690599
21
2.5
31
0
39
0
210
0
220
0
230
1
0
LINE
5
84
100
AcDbEntity
8
1
62
256
6
ByLayer
370
18
48
1
60
0
100
AcDbLine
10
35.845299
20
4.5
30
0
11
38.154701
21
4.5
31
0
39
0
210
0
220
0
230
1
0
LINE
5
85
100
AcDbEntity
8
1
62
256
6
ByLayer
370
18
48
1
60
0
100
AcDbLine
10
38.154701
20
4.5
30
0
11
39.309401
21
2.5
31
0
39
0
210
0
220
0
230
1
0
LINE
5
86
100
AcDbEntity
8
1
62
256
6
ByLayer
370
18
48
1
60
0
100
AcDbLine
10
38.154701
20
0.5
30
0
11
35.845299
21
0.5
31
0
39
0
210
0
220
0
230
1
0
LINE
5
87
100
AcDbEntity
8
1
62
256
6
ByLayer
370
18
48
1
60
0
100
AcDbLine
10
39.309401
20
2.5
30
0
11
38.154701
21
0.5
31
0
39
0
210
0
220
0
230
1
0
LINE
5
88
100
AcDbEntity
8
1
62
256
6
ByLayer
370
18
48
1
60
0
100
AcDbLine
10
35.845299
20
0.5
30
0
11
34.690599
21
2.5
31
0
39
0
210
0
220
0
230
1
0
LINE
5
89
100
AcDbEntity
8
1
62
256
6
ByLayer
370
18
48
1
60
0
100
AcDbLine
10
24.704156
20
11.319017
30
0
11
28
21
10.855816
31
0
39
0
210
0
220
0
230
1
0
LINE
5
8A
100
AcDbEntity
8
1
62
256
6
ByLayer
370
18
48
1
60
0
100
AcDbLine
10
28
20
10.855816
30
0
11
42.443827
21
8.825868
31
0
39
0
210
0
220
0
230
1
0
LINE
5
8B
100
AcDbEntity
8
1
62
256
6
ByLayer
370
18
48
1
60
0
100
AcDbLine
10
28.768802
20
9.739475
30
0
11
43.041281
21
7.733705
31
0
39
0
210
0
220
0
230
1
0
LINE
5
8C
100
AcDbEntity
8
1
62
256
6
ByLayer
370
18
48
1
60
0
100
AcDbLine
10
49.8
20
-4.114056
30
0
11
49.3
21
1.60097
31
0
39
0
210
0
220
0
230
1
0
LINE
5
8D
100
AcDbEntity
8
1
62
256
6
ByLayer
370
18
48
1
60
0
100
AcDbLine
10
49.3
20
1.60097
30
0
11
49.527555
21
-1
31
0
39
0
210
0
220
0
230
1
0
LINE
5
8E
100
AcDbEntity
8
1
62
256
6
ByLayer
370
18
48
1
60
0
100
AcDbLine
10
26.189966
20
-13.238766
30
0
11
25.631775
21
-12.680575
31
0
39
0
210
0
220
0
230
1
0
LINE
5
8F
100
AcDbEntity
8
1
62
256
6
ByLayer
370
18
48
1
60
0
100
AcDbLine
10
26.249966
20
-13.298766
30
0
11
26.189966
21
-13.238766
31
0
39
0
210
0
220
0
230
1
0
LINE
5
90
100
AcDbEntity
8
1
62
256
6
ByLayer
370
18
48
1
60
0
100
AcDbLine
10
25.5
20
-12.25
30
0
11
25.5
21
-12.548766
31
0
39
0
210
0
220
0
230
1
0
LINE
5
91
100
AcDbEntity
8
1
62
256
6
ByLayer
370
18
48
1
60
0
100
AcDbLine
10
23.870253
20
-12.25
30
0
11
28.768802
21
-12.25
31
0
39
0
210
0
220
0
230
1
0
LINE
5
92
100
AcDbEntity
8
1
62
256
6
ByLayer
370
18
48
1
60
0
100
AcDbLine
10
33.310524
20
-13.298766
30
0
11
26.249966
21
-13.298766
31
0
39
0
210
0
220
0
230
1
0
LINE
5
93
100
AcDbEntity
8
1
62
256
6
ByLayer
370
18
48
1
60
0
100
AcDbLine
10
28.193146
20
-22
30
0
11
34.493146
21
-22
31
0
39
0
210
0
220
0
230
1
0
LINE
5
94
100
AcDbEntity
8
1
62
256
6
ByLayer
370
18
48
1
60
0
100
AcDbLine
10
27.843146
20
-18
30
0
11
34.843146
21
-18
31
0
39
0
210
0
220
0
230
1
0
LINE
5
95
100
AcDbEntity
8
1
62
256
6
ByLayer
370
18
48
1
60
0
100
AcDbLine
10
34.843146
20
-18
30
0
11
34.843146
21
-21.65
31
0
39
0
210
0
220
0
230
1
0
LINE
5
96
100
AcDbEntity
8
1
62
256
6
ByLayer
370
18
48
1
60
0
100
AcDbLine
10
27.843146
20
-21.65
30
0
11
27.843146
21
-18
31
0
39
0
210
0
220
0
230
1
0
LINE
5
97
100
AcDbEntity
8
1
62
256
6
ByLayer
370
18
48
1
60
0
100
AcDbLine
10
28.193146
20
-22
30
0
11
27.843146
21
-21.65
31
0
39
0
210
0
220
0
230
1
0
LINE
5
98
100
AcDbEntity
8
1
62
256
6
ByLayer
370
18
48
1
60
0
100
AcDbLine
10
34.843146
20
-21.65
30
0
11
34.493146
21
-22
31
0
39
0
210
0
220
0
230
1
0
LINE
5
99
100
AcDbEntity
8
1
62
256
6
ByLayer
370
18
48
1
60
0
100
AcDbLine
10
49.5
20
-12.548766
30
0
11
49.458957
21
-12.589808
31
0
39
0
210
0
220
0
230
1
0
LINE
5
9A
100
AcDbEntity
8
1
62
256
6
ByLayer
370
18
48
1
60
0
100
AcDbLine
10
49.5
20
-12.25
30
0
11
49.5
21
-12.548766
31
0
39
0
210
0
220
0
230
1
0
LINE
5
9B
100
AcDbEntity
8
1
62
256
6
ByLayer
370
18
48
1
60
0
100
AcDbLine
10
48.729385
20
-13.298766
30
0
11
48.73692
21
-13.298766
31
0
39
0
210
0
220
0
230
1
0
LINE
5
9C
100
AcDbEntity
8
1
62
256
6
ByLayer
370
18
48
1
60
0
100
AcDbLine
10
48.729385
20
-13.298766
30
0
11
40.689476
21
-13.298766
31
0
39
0
210
0
220
0
230
1
0
LINE
5
9D
100
AcDbEntity
8
1
62
256
6
ByLayer
370
18
48
1
60
0
100
AcDbLine
10
39.506854
20
-22
30
0
11
45.806854
21
-22
31
0
39
0
210
0
220
0
230
1
0
LINE
5
9E
100
AcDbEntity
8
1
62
256
6
ByLayer
370
18
48
1
60
0
100
AcDbLine
10
39.156854
20
-18
30
0
11
46.156854
21
-18
31
0
39
0
210
0
220
0
230
1
0
LINE
5
9F
100
AcDbEntity
8
1
62
256
6
ByLayer
370
18
48
1
60
0
100
AcDbLine
10
46.156854
20
-18
30
0
11
46.156854
21
-21.65
31
0
39
0
210
0
220
0
230
1
0
LINE
5
A0
100
AcDbEntity
8
1
62
256
6
ByLayer
370
18
48
1
60
0
100
AcDbLine
10
39.156854
20
-21.65
30
0
11
39.156854
21
-18
31
0
39
0
210
0
220
0
230
1
0
LINE
5
A1
100
AcDbEntity
8
1
62
256
6
ByLayer
370
18
48
1
60
0
100
AcDbLine
10
39.506854
20
-22
30
0
11
39.156854
21
-21.65
31
0
39
0
210
0
220
0
230
1
0
LINE
5
A2
100
AcDbEntity
8
1
62
256
6
ByLayer
370
18
48
1
60
0
100
AcDbLine
10
46.156854
20
-21.65
30
0
11
45.806854
21
-22
31
0
39
0
210
0
220
0
230
1
0
LINE
5
A3
100
AcDbEntity
8
1
62
256
6
ByLayer
370
18
48
1
60
0
100
AcDbLine
10
43.041281
20
-12.25
30
0
11
49.8
21
-12.25
31
0
39
0
210
0
220
0
230
1
0
LINE
5
A4
100
AcDbEntity
8
1
62
256
6
ByLayer
370
18
48
1
60
0
100
AcDbLine
10
43.988617
20
-13.298766
30
0
11
30.011383
21
-13.298766
31
0
39
0
210
0
220
0
230
1
0
LINE
5
A5
100
AcDbEntity
8
1
62
256
6
ByLayer
370
18
48
1
60
0
100
AcDbLine
10
25.5
20
-12.25
30
0
11
49.5
21
-12.25
31
0
39
0
210
0
220
0
230
1
0
LINE
5
A6
100
AcDbEntity
8
1
62
256
6
ByLayer
370
18
48
1
60
0
100
AcDbLine
10
18.3
20
16.505
30
0
11
17.027924
21
20
31
0
39
0
210
0
220
0
230
1
0
LINE
5
A7
100
AcDbEntity
8
1
62
256
6
ByLayer
370
18
48
1
60
0
100
AcDbLine
10
28.768802
20
-12.25
30
0
11
28.768802
21
9.739475
31
0
39
0
210
0
220
0
230
1
0
LINE
5
A8
100
AcDbEntity
8
1
62
256
6
ByLayer
370
18
48
1
60
0
100
AcDbLine
10
28.768802
20
9.739475
30
0
11
28.768802
21
-12.25
31
0
39
0
210
0
220
0
230
1
0
LINE
5
A9
100
AcDbEntity
8
1
62
256
6
ByLayer
370
18
48
1
60
0
100
AcDbLine
10
43.041281
20
7.733705
30
0
11
43.041281
21
-12.25
31
0
39
0
210
0
220
0
230
1
0
LINE
5
AA
100
AcDbEntity
8
1
62
256
6
ByLayer
370
18
48
1
60
0
100
AcDbLine
10
43.041281
20
7.733705
30
0
11
43.041281
21
-12.25
31
0
39
0
210
0
220
0
230
1
0
LINE
5
AB
100
AcDbEntity
8
1
62
256
6
ByLayer
370
18
48
1
60
0
100
AcDbLine
10
33.343146
20
-13.298766
30
0
11
33.343146
21
-18
31
0
39
0
210
0
220
0
230
1
0
LINE
5
AC
100
AcDbEntity
8
1
62
256
6
ByLayer
370
18
48
1
60
0
100
AcDbLine
10
49.8
20
-4.114056
30
0
11
49.8
21
-12.25
31
0
39
0
210
0
220
0
230
1
0
LINE
5
AD
100
AcDbEntity
8
1
62
256
6
ByLayer
370
18
48
1
60
0
100
AcDbLine
10
40.656854
20
-18
30
0
11
40.656854
21
-13.298766
31
0
39
0
210
0
220
0
230
1
0
LINE
5
AE
100
AcDbEntity
8
1
62
256
6
ByLayer
370
18
48
1
60
0
100
AcDbLine
10
44.656854
20
-13.298766
30
0
11
44.656854
21
-18
31
0
39
0
210
0
220
0
230
1
0
LINE
5
AF
100
AcDbEntity
8
1
62
256
6
ByLayer
370
18
48
1
60
0
100
AcDbLine
10
29.343146
20
-18
30
0
11
29.343146
21
-13.298766
31
0
39
0
210
0
220
0
230
1
0
LINE
5
B0
100
AcDbEntity
8
SK1
62
256
6
ByLayer
370
18
48
1
60
0
100
AcDbLine
10
0
20
-13.9
30
0
11
-1.699704
21
-13.9
31
0
39
0
210
0
220
0
230
1
0
LINE
5
B1
100
AcDbEntity
8
SK1
62
256
6
ByLayer
370
18
48
1
60
0
100
AcDbLine
10
0
20
13.9
30
0
11
-1.699704
21
13.9
31
0
39
0
210
0
220
0
230
1
0
LINE
5
B2
100
AcDbEntity
8
80
62
256
6
ByLayer
370
13
48
1
60
0
100
AcDbLine
10
0
20
0
30
0
11
-8
21
0
31
0
39
0
210
0
220
0
230
1
0
LINE
5
B3
100
AcDbEntity
8
81
62
256
6
ByLayer
370
13
48
1
60
0
100
AcDbLine
10
37
20
-13
30
0
11
37
21
-18
31
0
39
0
210
0
220
0
230
1
0
LINE
5
B4
100
AcDbEntity
8
4
62
256
6
ByLayer
370
13
48
0.05
60
0
100
AcDbLine
10
0
20
0
30
0
11
47.53252
21
0
31
0
39
0
210
0
220
0
230
1
0
LINE
5
B6
100
AcDbEntity
8
SK4
62
256
6
ByLayer
370
13
48
0.05
60
0
100
AcDbLine
10
51.924775
20
0
30
0
11
-27
21
0
31
0
39
0
210
0
220
0
230
1
0
MTEXT
5
DC
100
AcDbEntity
8
SK6
62
256
6
ByLayer
370
18
48
1
60
0
100
AcDbMText
10
-5.273261
20
-34.196523
30
0
210
0
220
0
230
1
1
\W0.7146;C4-570-25-LF
40
3
41
0
44
1.084337
50
0
71
7
72
5
7
iso_b_vert
0
DIMENSION
5
EB
100
AcDbEntity
8
SK2
62
256
6
ByLayer
370
13
48
1
60
0
100
AcDbDimension
2
DimnDraft3D1
10
-35.5
20
20
30
0
11
-35.75
21
1.989474
31
0
70
33
71
5
72
1
41
1
210
0
220
0
230
1
3
Standard
100
AcDbAlignedDimension
13
-1.7
23
-20
33
0
14
-1.7
24
20
34
0
1001
ACAD
1000
DSTYLE
1002
{
1070
   279
1070
     0
1070
    74
1070
     0
1070
   173
1070
     1
1070
   340
1005
DD
1070
   271
1070
     3
1070
   272
1070
     3
1070
    77
1070
     1
1070
    73
1070
     0
1070
   171
1070
     3
1070
   274
1070
     3
1070
   177
1070
   254
1070
   176
1070
   254
1070
   178
1070
   254
1070
    78
1070
     8
1070
    41
1041
3.175
1070
   147
1041
1.5
1070
    42
1041
2.0
1070
    44
1041
2.0
1070
   140
1041
3.0
1070
   343
1005
0
1070
   344
1005
0
1002
}
0
DIMENSION
5
F5
100
AcDbEntity
8
SK2
62
256
6
ByLayer
370
13
48
1
60
0
100
AcDbDimension
2
DimnDraft3D2
10
-13
20
-66.5
30
0
11
-7.877632
21
-66.5
31
0
70
32
71
5
72
1
41
1
210
0
220
0
230
1
3
Standard
100
AcDbAlignedDimension
13
0
23
-49.53252
33
0
14
-13
24
-39
34
0
50
0
100
AcDbRotatedDimension
1001
ACAD
1000
DSTYLE
1002
{
1070
   279
1070
     0
1070
   172
1070
     1
1070
   173
1070
     1
1070
   340
1005
DD
1070
   271
1070
     3
1070
   272
1070
     3
1070
    77
1070
     1
1070
    73
1070
     0
1070
   171
1070
     3
1070
   274
1070
     3
1070
   177
1070
   254
1070
   176
1070
   254
1070
   178
1070
   254
1070
    78
1070
     8
1070
    41
1041
3.175
1070
   147
1041
1.5
1070
    42
1041
2.0
1070
    44
1041
2.0
1070
   140
1041
3.0
1070
   343
1005
0
1070
   344
1005
0
1002
}
0
DIMENSION
5
100
100
AcDbEntity
8
2
62
256
6
ByLayer
370
13
48
1
60
0
100
AcDbDimension
2
DimnDraft3D3
10
37
20
32.505576
30
0
11
16.707895
21
32.505576
31
0
70
32
71
5
72
1
41
1
210
0
220
0
230
1
3
Standard
100
AcDbAlignedDimension
13
0
23
21.7
33
0
14
37
24
-11
34
0
50
0
100
AcDbRotatedDimension
1001
ACAD
1000
DSTYLE
1002
{
1070
   279
1070
     0
1070
   172
1070
     1
1070
   173
1070
     1
1070
   340
1005
DD
1070
   271
1070
     3
1070
   272
1070
     3
1070
    77
1070
     1
1070
    73
1070
     0
1070
   171
1070
     3
1070
   274
1070
     3
1070
   177
1070
   254
1070
   176
1070
   254
1070
   178
1070
   254
1070
    78
1070
     8
1070
    41
1041
3.175
1070
   147
1041
1.5
1070
    42
1041
2.0
1070
    44
1041
2.0
1070
   140
1041
3.0
1070
   343
1005
0
1070
   344
1005
0
1002
}
0
DIMENSION
5
10B
100
AcDbEntity
8
SK2
62
256
6
ByLayer
370
13
48
1
60
0
100
AcDbDimension
2
DimnDraft3D4
10
49.5
20
-36.554252
30
0
11
39.607895
21
-32.304252
31
0
70
33
71
5
72
1
41
1
210
0
220
0
230
1
3
Standard
100
AcDbAlignedDimension
13
25.5
23
-14.548766
33
0
14
49.5
24
-14.548766
34
0
1001
ACAD
1000
DSTYLE
1002
{
1070
   279
1070
     0
1070
    74
1070
     0
1070
   173
1070
     1
1070
   340
1005
DD
1070
   271
1070
     3
1070
   272
1070
     3
1070
    77
1070
     1
1070
    73
1070
     0
1070
   171
1070
     3
1070
   274
1070
     3
1070
   177
1070
   254
1070
   176
1070
   254
1070
   178
1070
   254
1070
    78
1070
     8
1070
    41
1041
3.175
1070
   147
1041
1.5
1070
    42
1041
2.0
1070
    44
1041
2.0
1070
   140
1041
3.0
1070
   343
1005
0
1070
   344
1005
0
1002
}
0
ENDSEC
0
SECTION
2
OBJECTS
0
DICTIONARY
5
176
330
0
100
AcDbDictionary
280
0
281
1
3
ACAD_GROUP
350
177
3
ACAD_MLINESTYLE
350
178
0
DICTIONARY
5
177
330
0
100
AcDbDictionary
280
0
281
1
0
DICTIONARY
5
178
330
0
100
AcDbDictionary
280
0
281
1
3
Standard
350
18
0
MLINESTYLE
5
18
330
178
100
AcDbMlineStyle
2
Standard
70
0
3

62
256
51
90
52
90
71
2
49
-0.5
62
256
6
ByLayer
49
0.5
62
256
6
ByLayer
0
RASTERVARIABLES
5
164
330

100
AcDbRasterVariables
90
0
70
1
71
1
72
1
0
ENDSEC
0
EOF
