0
SECTION
2
HEADER
9
$ACADVER
1
AC1015
9
$DWGCODEPAGE
3
ANSI_1252
9
$HANDSEED
5
294
9
$ANGBASE
50
0
9
$ANGDIR
70
0
9
$ATTMODE
70
1
9
$AUNITS
70
0
9
$AUPREC
70
0
9
$CECOLOR
62
256
9
$CELTSCALE
40
1
9
$CELTYPE
6
ByLayer
9
$CELWEIGHT
370
18
9
$CLAYER
8
0
9
$CMLJUST
70
0
9
$CMLSCALE
40
1
9
$CMLSTYLE
2
Standard
9
$DIMSTYLE
2
Standard
9
$TEXTSIZE
40
0.2
9
$TEXTSTYLE
7
Standard
9
$LUNITS
70
2
9
$LUPREC
70
4
9
$EXTNAMES
290
1
9
$INSUNITS
70
4
9
$LTSCALE
40
1
9
$LWDISPLAY
290
1
9
$PDMODE
70
0
9
$PDSIZE
40
0
9
$PLINEGEN
70
0
0
ENDSEC
0
SECTION
2
CLASSES
0
CLASS
1
RASTERVARIABLES
2
AcDbRasterVariables
3
ISM
90
0
280
0
281
0
0
ENDSEC
0
SECTION
2
TABLES
0
TABLE
2
VPORT
5
28a
100
AcDbSymbolTable
0
VPORT
5
1
100
AcDbSymbolTableRecord
100
AcDbViewportTableRecord
2
*Active
70
0
10
0
20
0
11
1
21
1
12
-1
22
1
13
0
23
0
14
0.5
24
0.5
15
10
25
10
16
0
26
0
36
1
17
0
27
0
37
0
0
ENDTAB
0
TABLE
2
LTYPE
5
28b
100
AcDbSymbolTable
0
LTYPE
5
14
100
AcDbSymbolTableRecord
100
AcDbLinetypeTableRecord
70
0
2
ByBlock
3

72
65
73
0
40
0
0
LTYPE
5
15
100
AcDbSymbolTableRecord
100
AcDbLinetypeTableRecord
70
0
2
ByLayer
3

72
65
73
0
40
0
0
LTYPE
5
16
100
AcDbSymbolTableRecord
100
AcDbLinetypeTableRecord
70
0
2
CONTINUOUS
3
Solid line
72
65
73
0
40
0
0
LTYPE
5
6A
100
AcDbSymbolTableRecord
100
AcDbLinetypeTableRecord
70
0
2
CENTER
3
____ _ ____ _ ____ _ ____
72
65
73
4
40
47.5
49
22
74
0
49
-8.5
74
0
49
8.5
74
0
49
-8.5
74
0
0
LTYPE
5
6B
100
AcDbSymbolTableRecord
100
AcDbLinetypeTableRecord
70
0
2
DASHED
3
__ __ __ __ __ __ __ __ __
72
65
73
2
40
25.72
49
12.86
74
0
49
-12.86
74
0
0
ENDTAB
0
TABLE
2
LAYER
5
28c
100
AcDbSymbolTable
0
LAYER
5
10
100
AcDbSymbolTableRecord
100
AcDbLayerTableRecord
2
0
70
0
62
7
6
CONTINUOUS
290
1
370
-3
390
0
0
LAYER
5
6D
100
AcDbSymbolTableRecord
100
AcDbLayerTableRecord
2
80
70
0
62
-6
6
CONTINUOUS
290
1
370
-3
390
0
0
LAYER
5
6F
100
AcDbSymbolTableRecord
100
AcDbLayerTableRecord
2
1
70
0
62
4
6
CONTINUOUS
290
1
370
-3
390
0
0
LAYER
5
71
100
AcDbSymbolTableRecord
100
AcDbLayerTableRecord
2
81
70
0
62
-3
6
CONTINUOUS
290
1
370
-3
390
0
0
LAYER
5
73
100
AcDbSymbolTableRecord
100
AcDbLayerTableRecord
2
4
70
0
62
-2
6
CENTER
290
1
370
-3
390
0
0
LAYER
5
F5
100
AcDbSymbolTableRecord
100
AcDbLayerTableRecord
2
2
70
0
62
7
6
CONTINUOUS
290
1
370
-3
390
0
0
LAYER
5
277
100
AcDbSymbolTableRecord
100
AcDbLayerTableRecord
2
SK1
70
0
62
4
6
CONTINUOUS
290
1
370
-3
390
0
0
LAYER
5
278
100
AcDbSymbolTableRecord
100
AcDbLayerTableRecord
2
SK6
70
0
62
5
6
CONTINUOUS
290
1
370
-3
390
0
0
LAYER
5
279
100
AcDbSymbolTableRecord
100
AcDbLayerTableRecord
2
SK2
70
0
62
7
6
CONTINUOUS
290
1
370
-3
390
0
0
ENDTAB
0
TABLE
2
STYLE
5
28d
100
AcDbSymbolTable
0
STYLE
5
11
100
AcDbSymbolTableRecord
100
AcDbTextStyleTableRecord
2
Standard
3
txt
70
0
71
0
40
0
41
1
42
0
50
0
0
STYLE
5
1DA
100
AcDbSymbolTableRecord
100
AcDbTextStyleTableRecord
2
iso_b_vert
3
simplex.shx
70
0
71
0
40
0
41
1
42
0
50
0
0
STYLE
5
1DB
100
AcDbSymbolTableRecord
100
AcDbTextStyleTableRecord
2
DWGDirectTextStyle
3
simplex
70
0
71
0
40
0
41
1
42
0
50
0
0
ENDTAB
0
TABLE
2
DIMSTYLE
5
28e
100
AcDbSymbolTable
100
AcDbDimStyleTable
0
DIMSTYLE
105
27
100
AcDbSymbolTableRecord
100
AcDbDimStyleTableRecord
2
Standard
70
0
3
<>
41
0.18
42
0.0625
44
0.18
140
0.18
147
0.09
73
0
74
0
77
1
271
2
275
0
278
52
280
0
340
11
0
ENDTAB
0
TABLE
2
VIEW
5
28f
100
AcDbSymbolTable
0
ENDTAB
0
TABLE
2
UCS
5
290
100
AcDbSymbolTable
0
ENDTAB
0
TABLE
2
APPID
5
291
100
AcDbSymbolTable
0
APPID
5
12
100
AcDbSymbolTableRecord
100
AcDbRegAppTableRecord
2
ACAD
70
0
0
ENDTAB
0
TABLE
2
BLOCK_RECORD
5
292
100
AcDbSymbolTable
0
BLOCK_RECORD
5
1F
100
AcDbSymbolTableRecord
100
AcDbBlockTableRecord
2
*Model_Space
340
0
70
0
0
BLOCK_RECORD
5
1B
100
AcDbSymbolTableRecord
100
AcDbBlockTableRecord
2
*Paper_Space
340
0
70
0
0
BLOCK_RECORD
5
23
100
AcDbSymbolTableRecord
100
AcDbBlockTableRecord
2
*Paper_Space0
340
0
70
0
0
BLOCK_RECORD
5
1DE
100
AcDbSymbolTableRecord
100
AcDbBlockTableRecord
2
DimnDraft3D1
340
0
70
0
0
BLOCK_RECORD
5
1EC
100
AcDbSymbolTableRecord
100
AcDbBlockTableRecord
2
_CLOSED
340
0
70
0
0
BLOCK_RECORD
5
1F3
100
AcDbSymbolTableRecord
100
AcDbBlockTableRecord
2
DimnDraft3D2
340
0
70
0
0
BLOCK_RECORD
5
202
100
AcDbSymbolTableRecord
100
AcDbBlockTableRecord
2
DimnDraft3D3
340
0
70
0
0
BLOCK_RECORD
5
210
100
AcDbSymbolTableRecord
100
AcDbBlockTableRecord
2
DimnDraft3D4
340
0
70
0
0
ENDTAB
0
ENDSEC
0
SECTION
2
BLOCKS
0
BLOCK
5
20
100
AcDbEntity
8
0
100
AcDbBlockBegin
2
*Model_Space
70
0
10
0
20
0
30
0
3
*Model_Space
0
ENDBLK
5
21
100
AcDbEntity
8
0
100
AcDbBlockEnd
0
BLOCK
5
1C
100
AcDbEntity
8
0
100
AcDbBlockBegin
2
*Paper_Space
70
0
10
0
20
0
30
0
3
*Paper_Space
0
ENDBLK
5
1D
100
AcDbEntity
8
0
100
AcDbBlockEnd
0
BLOCK
5
24
100
AcDbEntity
8
0
100
AcDbBlockBegin
2
*Paper_Space0
70
0
10
0
20
0
30
0
3
*Paper_Space0
0
ENDBLK
5
25
100
AcDbEntity
8
0
100
AcDbBlockEnd
0
BLOCK
5
1E9
100
AcDbEntity
8
0
100
AcDbBlockBegin
2
DimnDraft3D1
70
0
10
0
20
0
30
0
3
DimnDraft3D1
0
MTEXT
5
1DF
100
AcDbEntity
8
2
62
256
6
ByLayer
370
13
48
1
60
0
100
AcDbMText
10
39.875907
20
-35.285525
30
0
210
0
220
0
230
1
1
\W0.8531;95%%d
40
4.5
41
0
44
1.084337
50
308.710593267763
71
7
72
5
7
iso_b_vert
0
LINE
5
1E0
100
AcDbEntity
8
2
62
256
6
ByLayer
370
13
48
1
60
0
100
AcDbLine
10
48.434651
20
-26.46023
30
0
11
33.788354
21
-25.256085
31
0
39
0
210
0
220
0
230
1
0
LINE
5
1E1
100
AcDbEntity
8
2
62
256
6
ByLayer
370
13
48
1
60
0
100
AcDbLine
10
55
20
-1.5875
30
0
11
55
21
-48.283213
31
0
39
0
210
0
220
0
230
1
0
ARC
5
1E2
100
AcDbEntity
8
2
62
256
6
ByLayer
370
13
48
1
60
0
100
AcDbCircle
39
0
10
55
20
-27
30
0
40
18.1082127867948
210
0
220
0
230
1
100
AcDbArc
50
175.3
51
270
0
LINE
5
1E3
100
AcDbEntity
8
2
62
256
6
ByLayer
370
13
48
1
60
0
100
AcDbLine
10
36.952678
20
-25.51624
30
0
11
37.681193
21
-28.72149
31
0
39
0
210
0
220
0
230
1
0
LINE
5
1E4
100
AcDbEntity
8
2
62
256
6
ByLayer
370
13
48
1
60
0
100
AcDbLine
10
36.952678
20
-25.51624
30
0
11
35.980964
21
-28.656331
31
0
39
0
210
0
220
0
230
1
0
LINE
5
1E5
100
AcDbEntity
8
2
62
256
6
ByLayer
370
13
48
1
60
0
100
AcDbLine
10
37.681193
20
-28.72149
30
0
11
35.980964
21
-28.656331
31
0
39
0
210
0
220
0
230
1
0
LINE
5
1E6
100
AcDbEntity
8
2
62
256
6
ByLayer
370
13
48
1
60
0
100
AcDbLine
10
55
20
-45.108213
30
0
11
51.790853
21
-45.819366
31
0
39
0
210
0
220
0
230
1
0
LINE
5
1E7
100
AcDbEntity
8
2
62
256
6
ByLayer
370
13
48
1
60
0
100
AcDbLine
10
55
20
-45.108213
30
0
11
51.865215
21
-44.119514
31
0
39
0
210
0
220
0
230
1
0
LINE
5
1E8
100
AcDbEntity
8
2
62
256
6
ByLayer
370
13
48
1
60
0
100
AcDbLine
10
51.790853
20
-45.819366
30
0
11
51.865215
21
-44.119514
31
0
39
0
210
0
220
0
230
1
0
ENDBLK
5
1EA
100
AcDbEntity
8
0
100
AcDbBlockEnd
0
BLOCK
5
1ED
100
AcDbEntity
8
0
100
AcDbBlockBegin
2
_CLOSED
70
0
10
0
20
0
30
0
3
_CLOSED
0
LINE
5
1EF
100
AcDbEntity
8
0
62
256
6
ByLayer
370
-2
48
1
60
0
100
AcDbLine
10
-1
20
0.166667
30
0
11
0
21
0
31
0
39
0
210
0
220
0
230
1
0
LINE
5
1F0
100
AcDbEntity
8
0
62
256
6
ByLayer
370
-2
48
1
60
0
100
AcDbLine
10
0
20
0
30
0
11
-1
21
-0.166667
31
0
39
0
210
0
220
0
230
1
0
LINE
5
1F1
100
AcDbEntity
8
0
62
256
6
ByLayer
370
-2
48
1
60
0
100
AcDbLine
10
-1
20
0.166667
30
0
11
-1
21
-0.166667
31
0
39
0
210
0
220
0
230
1
0
LINE
5
1F2
100
AcDbEntity
8
0
62
256
6
ByLayer
370
-2
48
1
60
0
100
AcDbLine
10
0
20
0
30
0
11
-1
21
0
31
0
39
0
210
0
220
0
230
1
0
ENDBLK
5
1EE
100
AcDbEntity
8
0
100
AcDbBlockEnd
0
BLOCK
5
1FF
100
AcDbEntity
8
0
100
AcDbBlockBegin
2
DimnDraft3D2
70
0
10
0
20
0
30
0
3
DimnDraft3D2
0
MTEXT
5
1F4
100
AcDbEntity
8
SK2
62
256
6
ByLayer
370
13
48
1
60
0
100
AcDbMText
10
25.210618
20
39.578878
30
0
210
0
220
0
230
1
1
\W0.6927;79
40
4.5
41
0
44
1.084337
50
0
71
7
72
5
7
iso_b_vert
0
LINE
5
1F6
100
AcDbEntity
8
SK2
62
256
6
ByLayer
370
13
48
1
60
0
100
AcDbLine
10
-24
20
1.5875
30
0
11
-24
21
41.628878
31
0
39
0
210
0
220
0
230
1
0
LINE
5
1F7
100
AcDbEntity
8
SK2
62
256
6
ByLayer
370
13
48
1
60
0
100
AcDbLine
10
55
20
1.5875
30
0
11
55
21
41.628878
31
0
39
0
210
0
220
0
230
1
0
LINE
5
1F8
100
AcDbEntity
8
SK2
62
256
6
ByLayer
370
13
48
1
60
0
100
AcDbLine
10
-24
20
38.453878
30
0
11
55
21
38.453878
31
0
39
0
210
0
220
0
230
1
0
LINE
5
1F9
100
AcDbEntity
8
SK2
62
256
6
ByLayer
370
13
48
1
60
0
100
AcDbLine
10
-24
20
38.453878
30
0
11
-20.825003
21
39.304616
31
0
39
0
210
0
220
0
230
1
0
LINE
5
1FA
100
AcDbEntity
8
SK2
62
256
6
ByLayer
370
13
48
1
60
0
100
AcDbLine
10
-24
20
38.453878
30
0
11
-20.824997
21
37.603139
31
0
39
0
210
0
220
0
230
1
0
LINE
5
1FB
100
AcDbEntity
8
SK2
62
256
6
ByLayer
370
13
48
1
60
0
100
AcDbLine
10
-20.825003
20
39.304616
30
0
11
-20.824997
21
37.603139
31
0
39
0
210
0
220
0
230
1
0
LINE
5
1FC
100
AcDbEntity
8
SK2
62
256
6
ByLayer
370
13
48
1
60
0
100
AcDbLine
10
55
20
38.453878
30
0
11
51.825003
21
37.603139
31
0
39
0
210
0
220
0
230
1
0
LINE
5
1FD
100
AcDbEntity
8
SK2
62
256
6
ByLayer
370
13
48
1
60
0
100
AcDbLine
10
55
20
38.453878
30
0
11
51.824997
21
39.304616
31
0
39
0
210
0
220
0
230
1
0
LINE
5
1FE
100
AcDbEntity
8
SK2
62
256
6
ByLayer
370
13
48
1
60
0
100
AcDbLine
10
51.825003
20
37.603139
30
0
11
51.824997
21
39.304616
31
0
39
0
210
0
220
0
230
1
0
ENDBLK
5
200
100
AcDbEntity
8
0
100
AcDbBlockEnd
0
BLOCK
5
20D
100
AcDbEntity
8
0
100
AcDbBlockBegin
2
DimnDraft3D3
70
0
10
0
20
0
30
0
3
DimnDraft3D3
0
MTEXT
5
203
100
AcDbEntity
8
2
62
256
6
ByLayer
370
13
48
1
60
0
100
AcDbMText
10
85.993938
20
-17.296965
30
0
210
0
220
0
230
1
1
\W0.6740;27
40
4.5
41
0
44
1.084337
50
90
71
7
72
5
7
iso_b_vert
0
LINE
5
204
100
AcDbEntity
8
2
62
256
6
ByLayer
370
13
48
1
60
0
100
AcDbLine
10
56.5875
20
0
30
0
11
90.293938
21
0
31
0
39
0
210
0
220
0
230
1
0
LINE
5
205
100
AcDbEntity
8
2
62
256
6
ByLayer
370
13
48
1
60
0
100
AcDbLine
10
66.5875
20
-27
30
0
11
90.293938
21
-27
31
0
39
0
210
0
220
0
230
1
0
LINE
5
206
100
AcDbEntity
8
2
62
256
6
ByLayer
370
13
48
1
60
0
100
AcDbLine
10
87.118938
20
0
30
0
11
87.118938
21
-27
31
0
39
0
210
0
220
0
230
1
0
LINE
5
207
100
AcDbEntity
8
2
62
256
6
ByLayer
370
13
48
1
60
0
100
AcDbLine
10
87.118938
20
0
30
0
11
87.969677
21
-3.174997
31
0
39
0
210
0
220
0
230
1
0
LINE
5
208
100
AcDbEntity
8
2
62
256
6
ByLayer
370
13
48
1
60
0
100
AcDbLine
10
87.118938
20
0
30
0
11
86.268199
21
-3.175003
31
0
39
0
210
0
220
0
230
1
0
LINE
5
209
100
AcDbEntity
8
2
62
256
6
ByLayer
370
13
48
1
60
0
100
AcDbLine
10
87.969677
20
-3.174997
30
0
11
86.268199
21
-3.175003
31
0
39
0
210
0
220
0
230
1
0
LINE
5
20A
100
AcDbEntity
8
2
62
256
6
ByLayer
370
13
48
1
60
0
100
AcDbLine
10
87.118938
20
-27
30
0
11
86.268199
21
-23.825003
31
0
39
0
210
0
220
0
230
1
0
LINE
5
20B
100
AcDbEntity
8
2
62
256
6
ByLayer
370
13
48
1
60
0
100
AcDbLine
10
87.118938
20
-27
30
0
11
87.969677
21
-23.824997
31
0
39
0
210
0
220
0
230
1
0
LINE
5
20C
100
AcDbEntity
8
2
62
256
6
ByLayer
370
13
48
1
60
0
100
AcDbLine
10
86.268199
20
-23.825003
30
0
11
87.969677
21
-23.824997
31
0
39
0
210
0
220
0
230
1
0
ENDBLK
5
20E
100
AcDbEntity
8
0
100
AcDbBlockEnd
0
BLOCK
5
21B
100
AcDbEntity
8
0
100
AcDbBlockBegin
2
DimnDraft3D4
70
0
10
0
20
0
30
0
3
DimnDraft3D4
0
MTEXT
5
211
100
AcDbEntity
8
SK2
62
256
6
ByLayer
370
13
48
1
60
0
100
AcDbMText
10
-36.210109
20
-1.330659
30
0
210
0
220
0
230
1
1
\W0.7361;40
40
4.5
41
0
44
1.084337
50
90
71
7
72
5
7
iso_b_vert
0
LINE
5
212
100
AcDbEntity
8
SK2
62
256
6
ByLayer
370
13
48
1
60
0
100
AcDbLine
10
-1.5875
20
20
30
0
11
-38.260109
21
20
31
0
39
0
210
0
220
0
230
1
0
LINE
5
213
100
AcDbEntity
8
SK2
62
256
6
ByLayer
370
13
48
1
60
0
100
AcDbLine
10
-1.5875
20
-20
30
0
11
-38.260109
21
-20
31
0
39
0
210
0
220
0
230
1
0
LINE
5
214
100
AcDbEntity
8
SK2
62
256
6
ByLayer
370
13
48
1
60
0
100
AcDbLine
10
-35.085109
20
20
30
0
11
-35.085109
21
-20
31
0
39
0
210
0
220
0
230
1
0
LINE
5
215
100
AcDbEntity
8
SK2
62
256
6
ByLayer
370
13
48
1
60
0
100
AcDbLine
10
-35.085109
20
20
30
0
11
-34.23437
21
16.825003
31
0
39
0
210
0
220
0
230
1
0
LINE
5
216
100
AcDbEntity
8
SK2
62
256
6
ByLayer
370
13
48
1
60
0
100
AcDbLine
10
-35.085109
20
20
30
0
11
-35.935848
21
16.824997
31
0
39
0
210
0
220
0
230
1
0
LINE
5
217
100
AcDbEntity
8
SK2
62
256
6
ByLayer
370
13
48
1
60
0
100
AcDbLine
10
-34.23437
20
16.825003
30
0
11
-35.935848
21
16.824997
31
0
39
0
210
0
220
0
230
1
0
LINE
5
218
100
AcDbEntity
8
SK2
62
256
6
ByLayer
370
13
48
1
60
0
100
AcDbLine
10
-35.085109
20
-20
30
0
11
-35.935848
21
-16.825003
31
0
39
0
210
0
220
0
230
1
0
LINE
5
219
100
AcDbEntity
8
SK2
62
256
6
ByLayer
370
13
48
1
60
0
100
AcDbLine
10
-35.085109
20
-20
30
0
11
-34.23437
21
-16.824997
31
0
39
0
210
0
220
0
230
1
0
LINE
5
21A
100
AcDbEntity
8
SK2
62
256
6
ByLayer
370
13
48
1
60
0
100
AcDbLine
10
-35.935848
20
-16.825003
30
0
11
-34.23437
21
-16.824997
31
0
39
0
210
0
220
0
230
1
0
ENDBLK
5
21C
100
AcDbEntity
8
0
100
AcDbBlockEnd
0
ENDSEC
0
SECTION
2
ENTITIES
0
ARC
5
FE
100
AcDbEntity
8
1
62
256
6
ByLayer
370
13
48
1
60
0
100
AcDbCircle
39
0
10
-21.908259
20
-30.1
30
0
40
10
210
0
220
0
230
-1
100
AcDbArc
50
90
51
124.360513
0
ARC
5
FF
100
AcDbEntity
8
1
62
256
6
ByLayer
370
13
48
1
60
0
100
AcDbCircle
39
0
10
-20.279208
20
-21.2
30
0
40
1.2
210
0
220
0
230
-1
100
AcDbArc
50
90
51
113.556464
0
ELLIPSE
5
100
100
AcDbEntity
8
1
62
256
6
ByLayer
370
13
48
1
60
0
100
AcDbEllipse
10
53.779168
20
-8.956867
30
0
11
-0.130280672292675
21
2.02548050799127
31
0
210
0
220
0
230
-1
40
0.006276
41
1.30334400188246
42
1.87748198343633
0
ELLIPSE
5
101
100
AcDbEntity
8
1
62
256
6
ByLayer
370
13
48
1
60
0
100
AcDbEllipse
10
54.276124
20
-17.548467
30
0
11
-0.0314355446150711
21
0.544658899108722
31
0
210
0
220
0
230
-1
40
0.016469
41
-0.80583576955991
42
-0.270309115469823
0
ELLIPSE
5
102
100
AcDbEntity
8
1
62
256
6
ByLayer
370
13
48
1
60
0
100
AcDbEllipse
10
47.624927
20
-15.639874
30
0
11
-2.1905328473917
21
0.203877032786969
31
0
210
0
220
0
230
1
40
0.094636
41
-1.28879281587186
42
-0.208550834003393
0
ELLIPSE
5
103
100
AcDbEntity
8
1
62
256
6
ByLayer
370
13
48
1
60
0
100
AcDbEllipse
10
29.228318
20
-66.034501
30
0
11
-15.7181536810302
21
-43.8944020653565
31
0
210
0
220
0
230
-1
40
0.036583
41
-2.79949696795466
42
-2.74686079011771
0
ELLIPSE
5
104
100
AcDbEntity
8
1
62
256
6
ByLayer
370
13
48
1
60
0
100
AcDbEllipse
10
51.325544
20
-17.240667
30
0
11
-0.804729116758415
21
-0.204760331067409
31
0
210
0
220
0
230
-1
40
0.245253
41
2.52203066466597
42
3.05755731899685
0
ELLIPSE
5
105
100
AcDbEntity
8
1
62
256
6
ByLayer
370
13
48
1
60
0
100
AcDbEllipse
10
51.175253
20
-15.163375
30
0
11
-0.439952917150733
21
3.08384281763608
31
0
210
0
220
0
230
-1
40
0.962276
41
1.65336021965703
42
1.83845716092372
0
ELLIPSE
5
106
100
AcDbEntity
8
1
62
256
6
ByLayer
370
13
48
1
60
0
100
AcDbEllipse
10
37.29871
20
-18.784128
30
0
11
1.1971546933949
21
1.84575747054768
31
0
210
0
220
0
230
1
40
0.991822
41
1.47401179935712
42
-0.0150934144409126
0
ELLIPSE
5
107
100
AcDbEntity
8
1
62
256
6
ByLayer
370
13
48
1
60
0
100
AcDbEllipse
10
37.191633
20
-18.714678
30
0
11
1.1971546933949
21
1.84575747054768
31
0
210
0
220
0
230
1
40
0.991822
41
-0.999150016744407
42
-0.0158317313404631
0
ELLIPSE
5
108
100
AcDbEntity
8
1
62
256
6
ByLayer
370
13
48
1
60
0
100
AcDbEllipse
10
37.191633
20
-18.714678
30
0
11
1.1971546933949
21
1.84575747054768
31
0
210
0
220
0
230
1
40
0.991822
41
-3.11236175087524
42
-0.999150016744412
0
ELLIPSE
5
109
100
AcDbEntity
8
1
62
256
6
ByLayer
370
13
48
1
60
0
100
AcDbEllipse
10
43.36586
20
-22.288171
30
0
11
-0.470673712251987
21
-0.778983310411042
31
0
210
0
220
0
230
-1
40
0.99144
41
-2.88641693487536
42
-2.14108878672813
0
ELLIPSE
5
10A
100
AcDbEntity
8
1
62
256
6
ByLayer
370
13
48
1
60
0
100
AcDbEllipse
10
51.883118
20
-114.355022
30
0
11
-54.4856562398967
21
-84.005273167574
31
0
210
0
220
0
230
1
40
0.991822
41
-2.436587557418
42
-2.39397356231902
0
ELLIPSE
5
10B
100
AcDbEntity
8
1
62
256
6
ByLayer
370
13
48
1
60
0
100
AcDbEllipse
10
-76.950212
20
-94.399976
30
0
11
81.5546498277056
21
125.739893940117
31
0
210
0
220
0
230
1
40
0.991822
41
-0.380814989925384
42
-0.2191431493688
0
ELLIPSE
5
10C
100
AcDbEntity
8
1
62
256
6
ByLayer
370
13
48
1
60
0
100
AcDbEllipse
10
45.360282
20
-20.410221
30
0
11
-0.369069837022277
21
-2.66786306298302
31
0
210
0
220
0
230
-1
40
0.245166
41
0.585118225939014
42
0.881733831752993
0
ELLIPSE
5
10D
100
AcDbEntity
8
1
62
256
6
ByLayer
370
13
48
1
60
0
100
AcDbEllipse
10
45.84931
20
-19.859732
30
0
11
-1.32658274768915
21
-2.19554606988832
31
0
210
0
220
0
230
-1
40
0.99144
41
0.255175718206107
42
0.948069014275364
0
ELLIPSE
5
10E
100
AcDbEntity
8
1
62
256
6
ByLayer
370
13
48
1
60
0
100
AcDbEllipse
10
38.871584
20
-12.414626
30
0
11
-2.43029470239597
21
-3.74699663070202
31
0
210
0
220
0
230
1
40
0.991822
41
0.705005096171799
42
1.20185838264146
0
ELLIPSE
5
10F
100
AcDbEntity
8
1
62
256
6
ByLayer
370
13
48
1
60
0
100
AcDbEllipse
10
39.027976
20
-12.516061
30
0
11
1.56294985995549
21
2.40973568079451
31
0
210
0
220
0
230
1
40
0.991822
41
-2.436587557418
42
-2.40761472757383
0
ELLIPSE
5
110
100
AcDbEntity
8
1
62
256
6
ByLayer
370
13
48
1
60
0
100
AcDbEllipse
10
39.027976
20
-12.516061
30
0
11
1.56294985995549
21
2.40973568079451
31
0
210
0
220
0
230
1
40
0.991822
41
-2.40761473265202
42
-2.3939747057179
0
ELLIPSE
5
111
100
AcDbEntity
8
1
62
256
6
ByLayer
370
13
48
1
60
0
100
AcDbEllipse
10
45.580758
20
-16.707235
30
0
11
-1.31039940235971
21
-2.16876200460538
31
0
210
0
220
0
230
-1
40
0.99144
41
0.948069014479461
42
2.51072566377075
0
ELLIPSE
5
112
100
AcDbEntity
8
1
62
256
6
ByLayer
370
13
48
1
60
0
100
AcDbEllipse
10
16.948929
20
0
30
0
11
-9.36741787978094
21
19.7417491527496
31
0
210
0
220
0
230
-1
40
0.341999
41
-1.09631952749993
42
-0.152726244898381
0
ELLIPSE
5
113
100
AcDbEntity
8
1
62
256
6
ByLayer
370
13
48
1
60
0
100
AcDbEllipse
10
16.948929
20
0
30
0
11
-9.36741787978131
21
-19.7417491527503
31
0
210
0
220
0
230
-1
40
0.341999
41
0.152726244898379
42
1.0963195274999
0
ELLIPSE
5
114
100
AcDbEntity
8
1
62
256
6
ByLayer
370
13
48
1
60
0
100
AcDbEllipse
10
42.775188
20
-9.392894
30
0
11
1.56294985995549
21
2.40973568079451
31
0
210
0
220
0
230
1
40
0.991822
41
-0.747636365191137
42
-0.734370907895552
0
ELLIPSE
5
115
100
AcDbEntity
8
1
62
256
6
ByLayer
370
13
48
1
60
0
100
AcDbEllipse
10
42.775188
20
-9.392894
30
0
11
1.56294985995549
21
2.40973568079451
31
0
210
0
220
0
230
1
40
0.991822
41
-0.734370907895552
42
-0.38081498992539
0
ELLIPSE
5
116
100
AcDbEntity
8
1
62
256
6
ByLayer
370
13
48
1
60
0
100
AcDbEllipse
10
44.235244
20
-15.069353
30
0
11
-2.21756931169387
21
1.33578288990702
31
0
210
0
220
0
230
-1
40
0.84059
41
2.22084833564178
42
2.28862120141992
0
ELLIPSE
5
117
100
AcDbEntity
8
1
62
256
6
ByLayer
370
13
48
1
60
0
100
AcDbEllipse
10
41.632766
20
-16.125232
30
0
11
-0.941626738444149
21
1.29357608413538
31
0
210
0
220
0
230
1
40
0.046026
41
0.441387022005551
42
1.45134649164799
0
ELLIPSE
5
118
100
AcDbEntity
8
1
62
256
6
ByLayer
370
13
48
1
60
0
100
AcDbEllipse
10
41.752823
20
68.533563
30
0
11
-2.30057782931085
21
99.572969503508
31
0
210
0
220
0
230
-1
40
0.020765
41
2.72699783398851
42
2.77354144332008
0
ELLIPSE
5
119
100
AcDbEntity
8
1
62
256
6
ByLayer
370
13
48
1
60
0
100
AcDbEllipse
10
44.116778
20
-17.842077
30
0
11
-0.273653448421902
21
-2.7526031879737
31
0
210
0
220
0
230
-1
40
0.246006
41
0.675933994923169
42
1.53261753379924
0
ELLIPSE
5
11A
100
AcDbEntity
8
1
62
256
6
ByLayer
370
13
48
1
60
0
100
AcDbEllipse
10
44.303899
20
-15.136561
30
0
11
-2.5043740015672
21
-0.592144887731132
31
0
210
0
220
0
230
-1
40
0.240275
41
2.03877397767037
42
2.26575730788095
0
ELLIPSE
5
11B
100
AcDbEntity
8
1
62
256
6
ByLayer
370
13
48
1
60
0
100
AcDbEllipse
10
-0.948929
20
0
30
0
11
-9.3674178797826
21
-19.7417491527504
31
0
210
0
220
0
230
-1
40
0.341999
41
-2.98886640869144
42
-2.04527312608994
0
ELLIPSE
5
11C
100
AcDbEntity
8
1
62
256
6
ByLayer
370
13
48
1
60
0
100
AcDbEllipse
10
51.726727
20
-114.253587
30
0
11
53.6183113974561
21
82.6680122176666
31
0
210
0
220
0
230
1
40
0.991822
41
0.705005096171797
42
0.714328647041275
0
ELLIPSE
5
11D
100
AcDbEntity
8
1
62
256
6
ByLayer
370
13
48
1
60
0
100
AcDbEllipse
10
12.499983
20
630.60601
30
0
11
-42.4991761461168
21
659.188055882023
31
0
210
0
220
0
230
-1
40
0.000406
41
2.90861196905756
42
2.93724436424398
0
ELLIPSE
5
11E
100
AcDbEntity
8
1
62
256
6
ByLayer
370
13
48
1
60
0
100
AcDbEllipse
10
17.415697
20
17.405595
30
0
11
-22.5642600004011
21
-34.7892813626403
31
0
210
0
220
0
230
1
40
0.991822
41
1.20185838264146
42
1.33389021766878
0
ELLIPSE
5
11F
100
AcDbEntity
8
1
62
256
6
ByLayer
370
13
48
1
60
0
100
AcDbEllipse
10
-77.106604
20
-94.29854
30
0
11
-82.4219946701462
21
-127.077154890024
31
0
210
0
220
0
230
1
40
0.991822
41
2.76077766366441
42
2.89828849470024
0
ELLIPSE
5
120
100
AcDbEntity
8
1
62
256
6
ByLayer
370
13
48
1
60
0
100
AcDbEllipse
10
53.790254
20
-9.224903
30
0
11
-0.195421008355563
21
3.03822076071227
31
0
210
0
220
0
230
-1
40
0.006276
41
-0.094740071253483
42
1.30334400168694
0
ELLIPSE
5
121
100
AcDbEntity
8
1
62
256
6
ByLayer
370
13
48
1
60
0
100
AcDbEllipse
10
53.789494
20
-9.668213
30
0
11
-0.195421008356103
21
3.0382207607166
31
0
210
0
220
0
230
-1
40
0.006276
41
-1.66553639803837
42
-0.0947400712553082
0
ELLIPSE
5
122
100
AcDbEntity
8
1
62
256
6
ByLayer
370
13
48
1
60
0
100
AcDbEllipse
10
43.4412
20
-24.585457
30
0
11
-0.458829443009238
21
-0.759380582153397
31
0
210
0
220
0
230
-1
40
0.99144
41
-2.14108878773532
42
-1.7574014973801
0
ELLIPSE
5
123
100
AcDbEntity
8
1
62
256
6
ByLayer
370
13
48
1
60
0
100
AcDbEllipse
10
47.652603
20
-15.342505
30
0
11
-2.1905328473917
21
0.203877032786969
31
0
210
0
220
0
230
1
40
0.094636
41
-1.16941203388117
42
-0.106865600745893
0
ELLIPSE
5
124
100
AcDbEntity
8
1
62
256
6
ByLayer
370
13
48
1
60
0
100
AcDbEllipse
10
46.07608
20
-16.660938
30
0
11
-1.30994953718962
21
-2.16801746024292
31
0
210
0
220
0
230
-1
40
0.99144
41
2.51072566377068
42
-2.61611448322873
0
ELLIPSE
5
125
100
AcDbEntity
8
1
62
256
6
ByLayer
370
13
48
1
60
0
100
AcDbEllipse
10
-0.948929
20
0
30
0
11
-9.36741787978301
21
19.7417491527508
31
0
210
0
220
0
230
-1
40
0.341999
41
2.04527312608996
42
2.98886640869143
0
ELLIPSE
5
126
100
AcDbEntity
8
1
62
256
6
ByLayer
370
13
48
1
60
0
100
AcDbEllipse
10
37.13274
20
-18.676481
30
0
11
0.897866020046175
21
1.38431810291076
31
0
210
0
220
0
230
1
40
0.991822
41
0
42
6.28318530717959
0
ELLIPSE
5
127
100
AcDbEntity
8
1
62
256
6
ByLayer
370
13
48
1
60
0
100
AcDbEllipse
10
36.442093
20
-18.228528
30
0
11
0.897866020046173
21
1.38431810291076
31
0
210
0
220
0
230
1
40
0.991822
41
-0.999150016744402
42
-0.254199886323747
0
ELLIPSE
5
128
100
AcDbEntity
8
1
62
256
6
ByLayer
370
13
48
1
60
0
100
AcDbEllipse
10
36.442093
20
-18.228528
30
0
11
0.897866020046173
21
1.38431810291076
31
0
210
0
220
0
230
1
40
0.991822
41
-2.88744335066461
42
-0.999150016744417
0
ELLIPSE
5
129
100
AcDbEntity
8
1
62
256
6
ByLayer
370
13
48
1
60
0
100
AcDbEllipse
10
46.427597
20
-6.819908
30
0
11
-1.3098303270087
21
-0.91888220923483
31
0
210
0
220
0
230
1
40
0.118485
41
-1.52300533274817
42
-0.0394754685529489
0
ELLIPSE
5
12A
100
AcDbEntity
8
1
62
256
6
ByLayer
370
13
48
1
60
0
100
AcDbEllipse
10
45.83229
20
-12.625079
30
0
11
-1.1027007001899
21
1.15933220683319
31
0
210
0
220
0
230
1
40
0.029954
41
0.511687024277339
42
1.44635687224201
0
ELLIPSE
5
12B
100
AcDbEntity
8
1
62
256
6
ByLayer
370
13
48
1
60
0
100
AcDbEllipse
10
39.600313
20
-16.941532
30
0
11
-0.213237984708873
21
1.58572682448059
31
0
210
0
220
0
230
1
40
0.097202
41
0.00406947635809081
42
1.48759934055328
0
ELLIPSE
5
12C
100
AcDbEntity
8
1
62
256
6
ByLayer
370
13
48
1
60
0
100
AcDbEllipse
10
50.467712
20
-14.230165
30
0
11
-1.29143527807257
21
-2.13737564094123
31
0
210
0
220
0
230
-1
40
0.99144
41
-0.458064379399047
42
0.5254781703635
0
ELLIPSE
5
12D
100
AcDbEntity
8
1
62
256
6
ByLayer
370
13
48
1
60
0
100
AcDbEllipse
10
-213.685276
20
283.833155
30
0
11
244.438345460697
21
-284.964994124866
31
0
210
1.56891026653722E-15
220
-1.53495323016166E-16
230
1
40
0.399531
41
-0.0457340587045267
42
-0.0357808648625698
0
ELLIPSE
5
12E
100
AcDbEntity
8
1
62
256
6
ByLayer
370
13
48
1
60
0
100
AcDbEllipse
10
44.823404
20
-15.170614
30
0
11
-1.27680210832802
21
-0.0901326060577838
31
0
210
0
220
0
230
-1
40
0.369996
41
1.10363606262604
42
2.0220831337877
0
ELLIPSE
5
12F
100
AcDbEntity
8
1
62
256
6
ByLayer
370
13
48
1
60
0
100
AcDbEllipse
10
42.618796
20
-9.291459
30
0
11
-2.43029470239597
21
-3.74699663070202
31
0
210
0
220
0
230
1
40
0.991822
41
1.33389021766878
42
2.7607776636644
0
ELLIPSE
5
130
100
AcDbEntity
8
1
62
256
6
ByLayer
370
13
48
1
60
0
100
AcDbEllipse
10
51.726727
20
-114.253587
30
0
11
53.6183113974561
21
82.6680122176666
31
0
210
0
220
0
230
1
40
0.991822
41
0.744589737875029
42
0.848799032268165
0
ELLIPSE
5
131
100
AcDbEntity
8
1
62
256
6
ByLayer
370
13
48
1
60
0
100
AcDbEllipse
10
49.681941
20
-13.827314
30
0
11
-3.02395815229945
21
1.82152212260654
31
0
210
0
220
0
230
-1
40
0.84059
41
-1.29611922108906
42
-0.852971452172413
0
ELLIPSE
5
132
100
AcDbEntity
8
1
62
256
6
ByLayer
370
18
48
1
60
0
100
AcDbEllipse
10
44.874463
20
-23.223853
30
0
11
-0.0819385086300396
21
-0.996637386818037
31
0
210
0
220
0
230
1
40
0.112614
41
-3.14158478311434
42
-1.49164959339925
0
ELLIPSE
5
133
100
AcDbEntity
8
1
62
256
6
ByLayer
370
18
48
1
60
0
100
AcDbEllipse
10
49.320151
20
-14.678769
30
0
11
-11.4505126113657
21
1.06572085320461
31
0
210
0
220
0
230
1
40
0.094636
41
1.30562211285112
42
1.39114035580863
0
ELLIPSE
5
134
100
AcDbEntity
8
1
62
256
6
ByLayer
370
18
48
1
60
0
100
AcDbEllipse
10
55.006235
20
-31.132143
30
0
11
-5.39398803169984
21
65.5951729130907
31
0
210
0
220
0
230
-1
40
0.016609
41
-1.4772214282195
42
-1.45915447420728
0
ELLIPSE
5
135
100
AcDbEntity
8
1
62
256
6
ByLayer
370
13
48
1
60
0
100
AcDbEllipse
10
49.234949
20
-21.689033
30
0
11
0.78966966662693
21
-0.128147639889749
31
0
210
0
220
0
230
1
40
0.051128
41
-1.66363114510428
42
-0.997369540866063
0
ELLIPSE
5
136
100
AcDbEntity
8
1
62
256
6
ByLayer
370
18
48
1
60
0
100
AcDbEllipse
10
55.279927
20
-28.191219
30
0
11
11.4505126113657
21
-1.06572085320461
31
0
210
0
220
0
230
1
40
0.094636
41
2.20203458961204
42
2.28959123704847
0
ELLIPSE
5
137
100
AcDbEntity
8
1
62
256
6
ByLayer
370
13
48
1
60
0
100
AcDbEllipse
10
54.676678
20
-36.374611
30
0
11
-5.6916165608801
21
14.3558624509126
31
0
210
0
220
0
230
-1
40
0.73479
41
-0.161845757147954
42
-0.0249930530156062
0
ELLIPSE
5
138
100
AcDbEntity
8
1
62
256
6
ByLayer
370
18
48
1
60
0
100
AcDbEllipse
10
48.196462
20
-17.709813
30
0
11
-11.4505126113657
21
1.06572085320461
31
0
210
0
220
0
230
1
40
0.094636
41
-1.83597054073867
42
-1.74841389330225
0
ELLIPSE
5
139
100
AcDbEntity
8
1
62
256
6
ByLayer
370
18
48
1
60
0
100
AcDbEllipse
10
48.058079
20
-19.196655
30
0
11
11.4505126113657
21
-1.06572085320461
31
0
210
0
220
0
230
1
40
0.094636
41
1.39317876028755
42
1.81130894479898
0
ELLIPSE
5
13A
100
AcDbEntity
8
1
62
256
6
ByLayer
370
13
48
1
60
0
100
AcDbEllipse
10
48.52177
20
-22.590412
30
0
11
0.319961464140763
21
-0.733228928415198
31
0
210
0
220
0
230
1
40
0.511668
41
1.21145077635437
42
2.01456606920446
0
ELLIPSE
5
13B
100
AcDbEntity
8
1
62
256
6
ByLayer
370
18
48
1
60
0
100
AcDbEllipse
10
45.379075
20
-18.179689
30
0
11
-0.103998703345399
21
-0.281396996612394
31
0
210
0
220
0
230
1
40
0.938438
41
-2.8640931581274
42
-1.11876390613303
0
ELLIPSE
5
13C
100
AcDbEntity
8
1
62
256
6
ByLayer
370
18
48
1
60
0
100
AcDbEllipse
10
51.259998
20
-26.951917
30
0
11
1.99139349762882
21
-0.185342757079063
31
0
210
0
220
0
230
1
40
0.094636
41
1.68416027357016
42
1.72647772290173
0
ELLIPSE
5
13D
100
AcDbEntity
8
1
62
256
6
ByLayer
370
18
48
1
60
0
100
AcDbEllipse
10
32.914665
20
-28.407018
30
0
11
-4.80364097648924
21
-65.8463334758763
31
0
210
0
220
0
230
-1
40
0.173071
41
-1.66122548998096
42
-1.64315845104143
0
ELLIPSE
5
13E
100
AcDbEntity
8
1
62
256
6
ByLayer
370
13
48
1
60
0
100
AcDbEllipse
10
49.24984
20
-21.600878
30
0
11
0.788002768293782
21
-0.13802766810077
31
0
210
0
220
0
230
1
40
0.103523
41
-1.67764683359543
42
-1.01138522935722
0
ELLIPSE
5
13F
100
AcDbEntity
8
1
62
256
6
ByLayer
370
13
48
1
60
0
100
AcDbEllipse
10
48.711059
20
-16.701931
30
0
11
2.72608623207489
21
-0.253721998635456
31
0
210
0
220
0
230
1
40
0.094636
41
1.83979532329476
42
2.06598998245228
0
ELLIPSE
5
140
100
AcDbEntity
8
1
62
256
6
ByLayer
370
18
48
1
60
0
100
AcDbEllipse
10
54.210548
20
-26.210563
30
0
11
-0.56176769790402
21
-0.560763868389911
31
0
210
0
220
0
230
1
40
0.989122
41
2.15127958480508
42
2.44419909137277
0
ELLIPSE
5
141
100
AcDbEntity
8
1
62
256
6
ByLayer
370
18
48
1
60
0
100
AcDbEllipse
10
44.665568
20
-25.622114
30
0
11
0.0650386912250938
21
0.791080925786817
31
0
210
0
220
0
230
1
40
0.112614
41
3.04620646178598
42
-1.49164959339926
0
ELLIPSE
5
142
100
AcDbEntity
8
1
62
256
6
ByLayer
370
18
48
1
60
0
100
AcDbEllipse
10
47.85897
20
-18.228965
30
0
11
1.99139349762882
21
-0.185342757079063
31
0
210
0
220
0
230
1
40
0.094636
41
1.24782796057159
42
1.91105307632944
0
ELLIPSE
5
143
100
AcDbEntity
8
1
62
256
6
ByLayer
370
13
48
1
60
0
100
AcDbEllipse
10
54.475222
20
-36.837277
30
0
11
-4.54988718992773
21
14.5073715542718
31
0
210
0
220
0
230
-1
40
0.704986
41
-0.238714916946002
42
-0.0939955853103247
0
ELLIPSE
5
144
100
AcDbEntity
8
1
62
256
6
ByLayer
370
18
48
1
60
0
100
AcDbEllipse
10
42.283427
20
-15.524474
30
0
11
-1.99139349762882
21
0.185342757079063
31
0
210
0
220
0
230
1
40
0.094636
41
2.81862428736646
42
-2.80133590405527
0
ELLIPSE
5
145
100
AcDbEntity
8
1
62
256
6
ByLayer
370
18
48
1
60
0
100
AcDbEllipse
10
42.287991
20
-25.921733
30
0
11
1.99139349762882
21
-0.185342757079063
31
0
210
0
220
0
230
1
40
0.094636
41
0.113363946775266
42
0.222038618699371
0
ELLIPSE
5
146
100
AcDbEntity
8
1
62
256
6
ByLayer
370
18
48
1
60
0
100
AcDbEllipse
10
50.827437
20
-76.030469
30
0
11
-4.80363468829388
21
-65.8462716322571
31
0
210
0
220
0
230
-1
40
0.173071
41
2.42695239444523
42
2.48166693473422
0
ELLIPSE
5
147
100
AcDbEntity
8
1
62
256
6
ByLayer
370
18
48
1
60
0
100
AcDbEllipse
10
44.633778
20
-24.499845
30
0
11
0.0245815525890118
21
0.298991216045411
31
0
210
0
220
0
230
1
40
0.112614
41
-3.14158182314032
42
-1.49164959339926
0
ELLIPSE
5
148
100
AcDbEntity
8
1
62
256
6
ByLayer
370
13
48
1
60
0
100
AcDbEllipse
10
56.697401
20
-11.783269
30
0
11
-8.87475544863024
21
-7.7570021811506
31
0
210
0
220
0
230
-1
40
0.81568
41
-0.747003656983092
42
-0.305441472066425
0
ELLIPSE
5
149
100
AcDbEntity
8
1
62
256
6
ByLayer
370
13
48
1
60
0
100
AcDbEllipse
10
56.751541
20
-12.379638
30
0
11
-10.5794159990923
21
-6.18041617688704
31
0
210
0
220
0
230
-1
40
0.805524
41
-0.88958575024561
42
-0.479058203287805
0
ELLIPSE
5
14A
100
AcDbEntity
8
1
62
256
6
ByLayer
370
13
48
1
60
0
100
AcDbEllipse
10
46.523392
20
-33.984061
30
0
11
-4.95124367326659
21
12.488433186274
31
0
210
0
220
0
230
-1
40
0.73479
41
0.265807610418515
42
0.707369795334504
0
ELLIPSE
5
14B
100
AcDbEntity
8
1
62
256
6
ByLayer
370
13
48
1
60
0
100
AcDbEllipse
10
35.291723
20
-9.167157
30
0
11
-9.55888970141389
21
12.5892102871588
31
0
210
0
220
0
230
-1
40
0.049557
41
-3.08131494777383
42
-2.93022486534046
0
ELLIPSE
5
14C
100
AcDbEntity
8
1
62
256
6
ByLayer
370
18
48
1
60
0
100
AcDbEllipse
10
48.758306
20
-16.194291
30
0
11
-3.23601443364683
21
0.301181980253477
31
0
210
0
220
0
230
1
40
0.094636
41
0
42
1.36080062670603
0
ELLIPSE
5
14D
100
AcDbEntity
8
1
62
256
6
ByLayer
370
18
48
1
60
0
100
AcDbEllipse
10
48.758306
20
-16.194291
30
0
11
-3.23601443364683
21
0.301181980253477
31
0
210
0
220
0
230
1
40
0.094636
41
-1.12783162721771
42
0
0
ELLIPSE
5
14E
100
AcDbEntity
8
1
62
256
6
ByLayer
370
18
48
1
60
0
100
AcDbEllipse
10
44.342811
20
-17.115217
30
0
11
-0.275163235934701
21
-0.744529553536959
31
0
210
0
220
0
230
1
40
0.938438
41
-2.86409315812735
42
-1.11876390613304
0
ELLIPSE
5
14F
100
AcDbEntity
8
1
62
256
6
ByLayer
370
13
48
1
60
0
100
AcDbEllipse
10
49.001167
20
-9.063755
30
0
11
-8.32451433820375
21
-10.2993973140526
31
0
210
0
220
0
230
-1
40
0.80331
41
-1.01284822017233
42
-0.868128888575302
0
ELLIPSE
5
150
100
AcDbEntity
8
1
62
256
6
ByLayer
370
13
48
1
60
0
100
AcDbEllipse
10
34.660011
20
-9.65458
30
0
11
-10.3589668959273
21
12.6561533734607
31
0
210
0
220
0
230
-1
40
0.046498
41
-3.03074726613307
42
-2.91601761748749
0
ELLIPSE
5
151
100
AcDbEntity
8
1
62
256
6
ByLayer
370
18
48
1
60
0
100
AcDbEllipse
10
52.648951
20
30.129436
30
0
11
-9.91812331518114
21
-63.2516219530022
31
0
210
0
220
0
230
-1
40
0.168655
41
-0.732511301595933
42
-0.677796760792955
0
ELLIPSE
5
152
100
AcDbEntity
8
1
62
256
6
ByLayer
370
18
48
1
60
0
100
AcDbEllipse
10
47.997353
20
-16.742123
30
0
11
-1.99139349762882
21
0.185342757079063
31
0
210
0
220
0
230
1
40
0.094636
41
-1.89376469301821
42
-1.23053957726036
0
ELLIPSE
5
153
100
AcDbEntity
8
1
62
256
6
ByLayer
370
18
48
1
60
0
100
AcDbEllipse
10
51.259998
20
-26.951917
30
0
11
1.99139349762882
21
-0.185342757079063
31
0
210
0
220
0
230
1
40
0.094636
41
1.72647772290173
42
2.34738538932802
0
ELLIPSE
5
154
100
AcDbEntity
8
1
62
256
6
ByLayer
370
18
48
1
60
0
100
AcDbEllipse
10
32.337434
20
-14.626148
30
0
11
-11.4505126113657
21
1.06572085320461
31
0
210
0
220
0
230
1
40
0.094636
41
2.89154254899232
42
2.96397508708244
0
ELLIPSE
5
155
100
AcDbEntity
8
1
62
256
6
ByLayer
370
18
48
1
60
0
100
AcDbEllipse
10
54.210548
20
-26.210563
30
0
11
-0.56176769790402
21
-0.560763868389911
31
0
210
0
220
0
230
1
40
0.989122
41
0.991789345946149
42
2.15127958480508
0
ELLIPSE
5
156
100
AcDbEntity
8
1
62
256
6
ByLayer
370
13
48
1
60
0
100
AcDbEllipse
10
46.724848
20
-33.521395
30
0
11
-6.30996846818387
21
12.1910348343348
31
0
210
0
220
0
230
-1
40
0.760982
41
0.404775992184372
42
0.815303539143928
0
ELLIPSE
5
157
100
AcDbEntity
8
1
62
256
6
ByLayer
370
18
48
1
60
0
100
AcDbEllipse
10
48.470193
20
-14.768939
30
0
11
-4.90332298131536
21
65.3047900221347
31
0
210
0
220
0
230
-1
40
0.055184
41
-1.637586054997
42
-1.61951905682495
0
ELLIPSE
5
158
100
AcDbEntity
8
1
62
256
6
ByLayer
370
13
48
1
60
0
100
AcDbEllipse
10
50.08197
20
-20.761722
30
0
11
0.213226534690156
21
-0.771060597426706
31
0
210
0
220
0
230
1
40
0.197315
41
-1.54598273020943
42
-0.742867437359324
0
ELLIPSE
5
159
100
AcDbEntity
8
1
62
256
6
ByLayer
370
18
48
1
60
0
100
AcDbEllipse
10
54.210548
20
-26.210563
30
0
11
-0.56176769790402
21
-0.560763868389911
31
0
210
0
220
0
230
1
40
0.989122
41
0.698869839378451
42
0.991789345946149
0
ELLIPSE
5
15A
100
AcDbEntity
8
1
62
256
6
ByLayer
370
18
48
1
60
0
100
AcDbEllipse
10
54.286346
20
-17.912151
30
0
11
-0.0470525403363313
21
-0.79235416383578
31
0
210
0
220
0
230
1
40
0.332231
41
1.2957592846866
42
3.04108853668089
0
ELLIPSE
5
15B
100
AcDbEntity
8
1
62
256
6
ByLayer
370
13
48
1
60
0
100
AcDbEllipse
10
49.055306
20
-9.660124
30
0
11
-10.2018216839809
21
-8.91692774054985
31
0
210
0
220
0
230
-1
40
0.81568
41
-1.17465702462077
42
-1.03780432046992
0
ELLIPSE
5
15C
100
AcDbEntity
8
1
62
256
6
ByLayer
370
18
48
1
60
0
100
AcDbEllipse
10
55.41831
20
-26.704377
30
0
11
-11.4505126113657
21
1.06572085320461
31
0
210
0
220
0
230
1
40
0.094636
41
-1.35768824848918
42
-0.939558063977751
0
ELLIPSE
5
15D
100
AcDbEntity
8
1
62
256
6
ByLayer
370
18
48
1
60
0
100
AcDbEllipse
10
44.23946
20
-19.507404
30
0
11
0.346662344484664
21
0.93798998870798
31
0
210
0
220
0
230
1
40
0.938438
41
-2.86409315812736
42
-1.11876390613303
0
POINT
5
6C
100
AcDbEntity
8
80
62
256
6
ByLayer
370
18
48
1
60
0
100
AcDbPoint
10
0
20
0
30
0
39
0
210
0
220
0
230
1
50
360
0
POINT
5
6E
100
AcDbEntity
8
1
62
256
6
ByLayer
370
18
48
1
60
0
100
AcDbPoint
10
0
20
0
30
0
39
0
210
0
220
0
230
1
50
360
0
POINT
5
70
100
AcDbEntity
8
81
62
256
6
ByLayer
370
18
48
1
60
0
100
AcDbPoint
10
55
20
-27
30
0
39
0
210
0
220
0
230
1
50
360
0
SPLINE
5
15E
100
AcDbEntity
8
1
62
256
6
ByLayer
370
13
48
1
60
0
100
AcDbSpline
70
4
71
3
72
8
73
4
40
0
40
0
40
0
40
0
40
1
40
1
40
1
40
1
41
1
10
39.5597539271804
20
-15.3268668342135
30
0
41
1
10
39.5294401438881
20
-15.3327391077322
30
0
41
1
10
39.4990185206583
20
-15.3380900148281
30
0
41
1
10
39.4684820772099
20
-15.3429295419676
30
0
0
SPLINE
5
15F
100
AcDbEntity
8
SK1
62
256
6
ByLayer
370
13
48
1
60
0
100
AcDbSpline
70
4
71
2
72
6
73
3
40
0
40
0
40
0
40
1
40
1
40
1
41
1
10
-22.5
20
-13.493617102966
30
0
41
1
10
-11.9999999937702
20
-13.7572106057466
30
0
41
1
10
-1.50000000000003
20
-14.0208013164368
30
0
0
SPLINE
5
160
100
AcDbEntity
8
SK1
62
256
6
ByLayer
370
13
48
1
60
0
100
AcDbSpline
70
4
71
2
72
6
73
3
40
0
40
0
40
0
40
1
40
1
40
1
41
1
10
-1.5
20
14.0208011084547
30
0
41
1
10
-11.9999999937704
20
13.757210398744
30
0
41
1
10
-22.5
20
13.4936168969067
30
0
0
SPLINE
5
161
100
AcDbEntity
8
SK1
62
256
6
ByLayer
370
13
48
1
60
0
100
AcDbSpline
70
4
71
2
72
6
73
3
40
0
40
0
40
0
40
1
40
1
40
1
41
1
10
-24
20
-12.6320309398721
30
0
41
1
10
-23.2499998168889
20
-13.0648590511813
30
0
41
1
10
-22.5
20
-13.4976867350597
30
0
0
SPLINE
5
162
100
AcDbEntity
8
SK1
62
256
6
ByLayer
370
13
48
1
60
0
100
AcDbSpline
70
4
71
2
72
6
73
3
40
0
40
0
40
0
40
1
40
1
40
1
41
1
10
-22.5
20
13.497686621304
30
0
41
1
10
-23.2499998168933
20
13.0648589361279
30
0
41
1
10
-24
20
12.632030823528
30
0
0
SPLINE
5
163
100
AcDbEntity
8
SK1
62
256
6
ByLayer
370
13
48
1
60
0
100
AcDbSpline
70
4
71
3
72
13
73
9
40
0
40
0
40
0
40
0
40
0.239503433739459
40
0.368423147403747
40
0.50006856828824
40
0.631702599544532
40
0.760590896706863
40
1
40
1
40
1
40
1
41
1
10
-1.29503997793932
20
13.8302939701715
30
0
41
1
10
-1.32110931868445
20
13.8298918808819
30
0
41
1
10
-1.35883875168582
20
13.8360616243457
30
0
41
1
10
-1.40627575244252
20
13.8590955459819
30
0
41
1
10
-1.43886250823712
20
13.884252105951
30
0
41
1
10
-1.46563495916581
20
13.9155205133756
30
0
41
1
10
-1.49103211526611
20
13.9617198002383
30
0
41
1
10
-1.49909125765836
20
13.9990778949976
30
0
41
1
10
-1.5
20
14.0251256210924
30
0
0
SPLINE
5
164
100
AcDbEntity
8
SK1
62
256
6
ByLayer
370
13
48
1
60
0
100
AcDbSpline
70
4
71
3
72
13
73
9
40
0
40
0
40
0
40
0
40
0.239409102954414
40
0.368297400007567
40
0.499931431229517
40
0.631576852162207
40
0.760496565942996
40
1
40
1
40
1
40
1
41
1
10
-1.50000000000003
20
-14.0251257319826
30
0
41
1
10
-1.49909125765305
20
-13.9990780059591
30
0
41
1
10
-1.49103211526085
20
-13.9617199113056
30
0
41
1
10
-1.46563495915865
20
-13.9155206245877
30
0
41
1
10
-1.43886250822774
20
-13.8842522172588
30
0
41
1
10
-1.40627575243272
20
-13.859095657368
30
0
41
1
10
-1.3588387516748
20
-13.8360617358029
30
0
41
1
10
-1.32110931867851
20
-13.8298919923551
30
0
41
1
10
-1.2950399779393
20
-13.8302940816453
30
0
0
SPLINE
5
165
100
AcDbEntity
8
SK1
62
256
6
ByLayer
370
13
48
1
60
0
100
AcDbSpline
70
4
71
2
72
6
73
3
40
0
40
0
40
0
40
1
40
1
40
1
41
1
10
-0.194976888875317
20
13.838416962554
30
0
41
1
10
-0.745008433404564
20
13.8246217879161
30
0
41
1
10
-1.29503997793932
20
13.8108266076194
30
0
0
SPLINE
5
166
100
AcDbEntity
8
SK1
62
256
6
ByLayer
370
13
48
1
60
0
100
AcDbSpline
70
4
71
2
72
6
73
3
40
0
40
0
40
0
40
1
40
1
40
1
41
1
10
-1.2950399779393
20
-13.8108269416025
30
0
41
1
10
-0.745008433404536
20
-13.8246221219964
30
0
41
1
10
-0.194976888875317
20
-13.8384172967316
30
0
0
SPLINE
5
167
100
AcDbEntity
8
SK1
62
256
6
ByLayer
370
13
48
1
60
0
100
AcDbSpline
70
4
71
3
72
10
73
6
40
0
40
0
40
0
40
0
40
0.610187530009378
40
0.916877276059066
40
1
40
1
40
1
40
1
41
1
10
-0.194976888875317
20
-13.8101782617655
30
0
41
1
10
-0.15352439613963
20
-13.8278608376398
30
0
41
1
10
-0.10108416171991
20
-13.8639449534021
30
0
41
1
10
-0.0461543577393115
20
-13.9224415952774
30
0
41
1
10
-0.0342900566040782
20
-13.9460698290259
30
0
41
1
10
-0.0320106367444453
20
-13.9511927825265
30
0
0
SPLINE
5
168
100
AcDbEntity
8
SK1
62
256
6
ByLayer
370
13
48
1
60
0
100
AcDbSpline
70
4
71
3
72
10
73
6
40
0
40
0
40
0
40
0
40
0.0797705319903619
40
0.387581597321632
40
1
40
1
40
1
40
1
41
1
10
-0.032347415559741
20
13.9505356323686
30
0
41
1
10
-0.0345371759917441
20
13.9456394352677
30
0
41
1
10
-0.0462967143972151
20
13.9222283396163
30
0
41
1
10
-0.101125634376587
20
13.8639560383986
30
0
41
1
10
-0.153522448145651
20
13.8278655019389
30
0
41
1
10
-0.194976888875317
20
13.8101828913628
30
0
0
SPLINE
5
169
100
AcDbEntity
8
1
62
256
6
ByLayer
370
13
48
1
60
0
100
AcDbSpline
70
4
71
3
72
8
73
4
40
0
40
0
40
0
40
0
40
1
40
1
40
1
40
1
41
1
10
20.3350938391648
20
-0.228220186731733
30
0
41
1
10
20.4796453432447
20
-0.818858811902032
30
0
41
1
10
20.623331138105
20
-1.40970282139008
30
0
41
1
10
20.7587907667616
20
-2.00249843944945
30
0
0
SPLINE
5
16A
100
AcDbEntity
8
1
62
256
6
ByLayer
370
13
48
1
60
0
100
AcDbSpline
70
4
71
3
72
10
73
6
40
0
40
0
40
0
40
0
40
0.862663713406589
40
0.862663713406589
40
1
40
1
40
1
40
1
41
1
10
20.2792076144254
20
-0.0950790591520558
30
0
41
1
10
20.1989202565166
20
-0.0677386642010163
30
0
41
1
10
20.1186327997398
20
-0.0403982355777543
30
0
41
1
10
20.025563566432
20
-0.0087052061646489
30
0
41
1
10
20.0127817831811
20
-0.0043526030691794
30
0
41
1
10
20.0000000000002
20
-2.84E-14
30
0
0
SPLINE
5
16B
100
AcDbEntity
8
1
62
256
6
ByLayer
370
13
48
1
60
0
100
AcDbSpline
70
4
71
3
72
27
73
23
40
0
40
0
40
0
40
0
40
0.03125
40
0.03125
40
0.0625
40
0.0937500000000001
40
0.0937500000000001
40
0.125
40
0.125
40
0.1875
40
0.1875
40
0.25
40
0.25
40
0.375
40
0.375
40
0.5
40
0.5
40
0.625
40
0.625
40
0.749999999999999
40
0.749999999999999
40
1
40
1
40
1
40
1
41
1
10
50.1742304959912
20
-16.8132395448791
30
0
41
1
10
50.1430711282305
20
-16.8106777785256
30
0
41
1
10
50.1113692080572
20
-16.8078808069473
30
0
41
1
10
50.048053163227
20
-16.801917550734
30
0
41
1
10
49.9854060898146
20
-16.795644928654
30
0
41
1
10
49.9239641541277
20
-16.7888149905709
30
0
41
1
10
49.8630669301416
20
-16.7817331505337
30
0
41
1
10
49.8327752842676
20
-16.7780515351926
30
0
41
1
10
49.7434802830554
20
-16.7667710145958
30
0
41
1
10
49.6865379395556
20
-16.7590088859131
30
0
41
1
10
49.5763813542159
20
-16.7431362878111
30
0
41
1
10
49.5229942804482
20
-16.7349951676751
30
0
41
1
10
49.3683543100299
20
-16.7103749171353
30
0
41
1
10
49.2738628394211
20
-16.6939473496162
30
0
41
1
10
49.0943154515288
20
-16.6610767839975
30
0
41
1
10
49.0094153931991
20
-16.6446335310114
30
0
41
1
10
48.8458734162953
20
-16.6117367906921
30
0
41
1
10
48.7672758759316
20
-16.5952832307842
30
0
41
1
10
48.6145332529408
20
-16.5623688295715
30
0
41
1
10
48.5407553878905
20
-16.5459838078864
30
0
41
1
10
48.325525430599
20
-16.4970943786098
30
0
41
1
10
48.1897923558048
20
-16.4647933162832
30
0
41
1
10
48.0586215277705
20
-16.4326640042256
30
0
0
SPLINE
5
16C
100
AcDbEntity
8
1
62
256
6
ByLayer
370
13
48
1
60
0
100
AcDbSpline
70
4
71
3
72
12
73
8
40
0
40
0
40
0
40
0
40
0.250000000000001
40
0.250000000000001
40
0.500000000000002
40
0.500000000000002
40
1
40
1
40
1
40
1
41
1
10
47.3665596463834
20
-15.5192838791976
30
0
41
1
10
47.4089163200628
20
-15.6059257617888
30
0
41
1
10
47.4558895254591
20
-15.6907970435485
30
0
41
1
10
47.5571189701202
20
-15.8544365573461
30
0
41
1
10
47.6114384759289
20
-15.9333919846236
30
0
41
1
10
47.7849877255374
20
-16.1618498217626
30
0
41
1
10
47.914702817537
20
-16.3030149459861
30
0
41
1
10
48.0586215277705
20
-16.4326640042256
30
0
0
SPLINE
5
16D
100
AcDbEntity
8
1
62
256
6
ByLayer
370
13
48
1
60
0
100
AcDbSpline
70
4
71
3
72
10
73
6
40
0
40
0
40
0
40
0
40
0.5
40
0.5
40
1
40
1
40
1
40
1
41
1
10
33.2517351829973
20
9.34188021074505
30
0
41
1
10
36.6204077740811
20
7.26693482962642
30
0
41
1
10
39.978260501545
20
5.17437290327871
30
0
41
1
10
46.6742564136125
20
0.957158622695999
30
0
41
1
10
50.0121176367471
20
-1.16733098078765
30
0
41
1
10
53.3405164891148
20
-3.30662411225433
30
0
0
SPLINE
5
16E
100
AcDbEntity
8
1
62
256
6
ByLayer
370
13
48
1
60
0
100
AcDbSpline
70
4
71
3
72
19
73
15
40
0
40
0
40
0
40
0
40
0.125000000000002
40
0.125000000000002
40
0.250000000000004
40
0.375000000000006
40
0.375000000000006
40
0.500000000000008
40
0.500000000000008
40
0.750000000000012
40
0.750000000000012
40
0.875000000000006
40
0.875000000000006
40
1
40
1
40
1
40
1
41
1
10
44.6432526124062
20
-24.3538458217244
30
0
41
1
10
44.6425326569315
20
-24.3772935832512
30
0
41
1
10
44.6415162753155
20
-24.401015236359
30
0
41
1
10
44.6388913743516
20
-24.4481992159932
30
0
41
1
10
44.6356685536892
20
-24.495347847492
30
0
41
1
10
44.6312019451503
20
-24.5424231908725
30
0
41
1
10
44.6260862805704
20
-24.5894602812497
30
0
41
1
10
44.6232335393944
20
-24.6126457419674
30
0
41
1
10
44.6140571204897
20
-24.6798016137876
30
0
41
1
10
44.6070482797129
20
-24.7220623833019
30
0
41
1
10
44.5954299271432
20
-24.7825915619857
30
0
41
1
10
44.5913611406237
20
-24.8023255513073
30
0
41
1
10
44.5830233995721
20
-24.8403270700263
30
0
41
1
10
44.5787382153687
20
-24.85868536762
30
0
41
1
10
44.5743470947679
20
-24.8765140329145
30
0
0
SPLINE
5
16F
100
AcDbEntity
8
1
62
256
6
ByLayer
370
13
48
1
60
0
100
AcDbSpline
70
4
71
3
72
17
73
13
40
0
40
0
40
0
40
0
40
0.125000000000003
40
0.125000000000003
40
0.250000000000007
40
0.250000000000007
40
0.500000000000027
40
0.625000000000021
40
0.625000000000021
40
0.750000000000014
40
0.750000000000014
40
1
40
1
40
1
40
1
41
1
10
43.8437833715957
20
-20.6529815193066
30
0
41
1
10
43.8559460715627
20
-20.6703773139484
30
0
41
1
10
43.8685086726052
20
-20.6881945285281
30
0
41
1
10
43.8945481772701
20
-20.7247924593133
30
0
41
1
10
43.9080948746789
20
-20.7436682701506
30
0
41
1
10
43.9493969695492
20
-20.8007002650962
30
0
41
1
10
43.9922966139651
20
-20.8589347980626
30
0
41
1
10
44.0377857902764
20
-20.9191185729597
30
0
41
1
10
44.0687084603609
20
-20.9596901379877
30
0
41
1
10
44.0843321610526
20
-20.9800201986525
30
0
41
1
10
44.1308313862192
20
-21.0400604832404
30
0
41
1
10
44.1616820283292
20
-21.0792784599799
30
0
41
1
10
44.1924085997087
20
-21.1178221731513
30
0
0
SPLINE
5
170
100
AcDbEntity
8
1
62
256
6
ByLayer
370
13
48
1
60
0
100
AcDbSpline
70
4
71
3
72
34
73
30
40
0
40
0
40
0
40
0
40
0.0624999999999995
40
0.0624999999999995
40
0.124999999999999
40
0.124999999999999
40
0.187499999999999
40
0.187499999999999
40
0.218749999999998
40
0.218749999999998
40
0.249999999999998
40
0.249999999999998
40
0.312499999999998
40
0.312499999999998
40
0.374999999999997
40
0.374999999999997
40
0.499999999999998
40
0.499999999999998
40
0.562499999999998
40
0.562499999999998
40
0.624999999999998
40
0.624999999999998
40
0.749999999999999
40
0.749999999999999
40
0.874999999999999
40
0.874999999999999
40
0.9375
40
0.9375
40
1
40
1
40
1
40
1
41
1
10
26.5237432954912
20
-4.44308351661547
30
0
41
1
10
26.7894313288176
20
-4.253551251304
30
0
41
1
10
27.0633763934813
20
-4.08360425382944
30
0
41
1
10
27.6245004308097
20
-3.77514965801265
30
0
41
1
10
27.9116975064822
20
-3.6366846554794
30
0
41
1
10
28.4971167577222
20
-3.38598467385168
30
0
41
1
10
28.7953485268077
20
-3.27377227158127
30
0
41
1
10
29.2497698867522
20
-3.1223056643455
30
0
41
1
10
29.4027352787977
20
-3.07454685199087
30
0
41
1
10
29.7092725906776
20
-2.98474469853019
30
0
41
1
10
29.8626576668079
20
-2.94274006487282
30
0
41
1
10
30.3231243817863
20
-2.82458053976481
30
0
41
1
10
30.6305159466983
20
-2.75624673718698
30
0
41
1
10
31.2459731688603
20
-2.63702590624899
30
0
41
1
10
31.5540394649721
20
-2.58615234762422
30
0
41
1
10
32.4790861908005
20
-2.45598144273308
30
0
41
1
10
33.096905953805
20
-2.39894948134403
30
0
41
1
10
34.0248888841295
20
-2.34795725334098
30
0
41
1
10
34.3345640569566
20
-2.33677140516639
30
0
41
1
10
34.9537162785612
20
-2.32486641864276
30
0
41
1
10
35.2622856285994
20
-2.32415898476555
30
0
41
1
10
36.1852979147661
20
-2.33603901903018
30
0
41
1
10
36.7970592227882
20
-2.36255133566485
30
0
41
1
10
38.0146915439298
20
-2.44605046907415
30
0
41
1
10
38.6205559008972
20
-2.5030740407033
30
0
41
1
10
39.5255873879699
20
-2.60807566336288
30
0
41
1
10
39.8266346556178
20
-2.64633362296783
30
0
41
1
10
40.4275561213501
20
-2.72891968194912
30
0
41
1
10
40.7273149308339
20
-2.77323475816436
30
0
41
1
10
41.0260360089619
20
-2.82030880423824
30
0
0
SPLINE
5
171
100
AcDbEntity
8
1
62
256
6
ByLayer
370
13
48
1
60
0
100
AcDbSpline
70
4
71
3
72
8
73
4
40
0
40
0
40
0
40
0
40
1
40
1
40
1
40
1
41
1
10
44.3552676363358
20
-25.7367211963443
30
0
41
1
10
44.2941015215256
20
-25.8989483429583
30
0
41
1
10
44.2329352973562
20
-26.0611754594103
30
0
41
1
10
44.1717689594003
20
-26.2234025444676
30
0
0
SPLINE
5
172
100
AcDbEntity
8
1
62
256
6
ByLayer
370
13
48
1
60
0
100
AcDbSpline
70
4
71
3
72
15
73
11
40
0
40
0
40
0
40
0
40
0.124999999999994
40
0.124999999999994
40
0.249999999999988
40
0.249999999999988
40
0.499999999999992
40
0.749999999999996
40
0.749999999999996
40
1
40
1
40
1
40
1
41
1
10
39.9357697971119
20
-15.2584876550827
30
0
41
1
10
39.9832660035898
20
-15.2521253703653
30
0
41
1
10
40.0307662589466
20
-15.2442525510245
30
0
41
1
10
40.1257740108135
20
-15.2254145750833
30
0
41
1
10
40.1734582707385
20
-15.214399632784
30
0
41
1
10
40.3150281331955
20
-15.1769610360568
30
0
41
1
10
40.4995558253678
20
-15.1155580422611
30
0
41
1
10
40.675832860853
20
-15.0317847846987
30
0
41
1
10
40.8478901069109
20
-14.9365777548465
30
0
41
1
10
40.9321068609072
20
-14.8829483796305
30
0
41
1
10
41.0119115566609
20
-14.8249320993288
30
0
0
SPLINE
5
173
100
AcDbEntity
8
1
62
256
6
ByLayer
370
13
48
1
60
0
100
AcDbSpline
70
4
71
3
72
8
73
4
40
0
40
0
40
0
40
0
40
1
40
1
40
1
40
1
41
1
10
53.4862439425805
20
-4.20343880431611
30
0
41
1
10
53.4843618881757
20
-4.1745116295468
30
0
41
1
10
53.4822286196108
20
-4.14583672340029
30
0
41
1
10
53.4798414276756
20
-4.11740999401957
30
0
0
SPLINE
5
174
100
AcDbEntity
8
1
62
256
6
ByLayer
370
13
48
1
60
0
100
AcDbSpline
70
4
71
3
72
8
73
4
40
0
40
0
40
0
40
0
40
1
40
1
40
1
40
1
41
1
10
27.5522407959976
20
-15.0680992940732
30
0
41
1
10
27.9429121696237
20
-15.8699941490538
30
0
41
1
10
28.3786734534304
20
-16.6443753832948
30
0
41
1
10
28.8500460219208
20
-17.3972062712764
30
0
0
SPLINE
5
175
100
AcDbEntity
8
1
62
256
6
ByLayer
370
13
48
1
60
0
100
AcDbSpline
70
4
71
3
72
28
73
24
40
0
40
0
40
0
40
0
40
0.125000000000004
40
0.125000000000004
40
0.187500000000005
40
0.187500000000005
40
0.250000000000005
40
0.250000000000005
40
0.375000000000006
40
0.375000000000006
40
0.437500000000005
40
0.437500000000005
40
0.500000000000004
40
0.500000000000004
40
0.625000000000004
40
0.625000000000004
40
0.750000000000003
40
0.750000000000003
40
0.812500000000002
40
0.812500000000002
40
0.875000000000001
40
0.875000000000001
40
1
40
1
40
1
40
1
41
1
10
45.0050845048935
20
-11.5017344911441
30
0
41
1
10
45.1085332186145
20
-11.4035033242961
30
0
41
1
10
45.2023173674876
20
-11.2971579458963
30
0
41
1
10
45.3286983222779
20
-11.1256388353566
30
0
41
1
10
45.3685437750454
20
-11.0662597231431
30
0
41
1
10
45.4427715673828
20
-10.9442048754254
30
0
41
1
10
45.476834624088
20
-10.8820957650771
30
0
41
1
10
45.5702156695092
20
-10.6926479340238
30
0
41
1
10
45.6207958579298
20
-10.5622134769595
30
0
41
1
10
45.679162894885
20
-10.3603729813862
30
0
41
1
10
45.6956761970106
20
-10.2919149595097
30
0
41
1
10
45.7222011335327
20
-10.1556477972432
30
0
41
1
10
45.7323234717706
20
-10.087509286044
30
0
41
1
10
45.7535331151828
20
-9.88308480075889
30
0
41
1
10
45.7555360960803
20
-9.74678990651731
30
0
41
1
10
45.7348553461975
20
-9.47420501455093
30
0
41
1
10
45.7124679827341
20
-9.34183054238179
30
0
41
1
10
45.6618713797377
20
-9.14894355300609
30
0
41
1
10
45.6421508513178
20
-9.08559316096199
30
0
41
1
10
45.596963778806
20
-8.96079818145611
30
0
41
1
10
45.5713750816218
20
-8.89910576946318
30
0
41
1
10
45.4866904712342
20
-8.71895482005823
30
0
41
1
10
45.4200735361305
20
-8.60580817580552
30
0
41
1
10
45.343521339561
20
-8.49946922463585
30
0
0
SPLINE
5
176
100
AcDbEntity
8
1
62
256
6
ByLayer
370
13
48
1
60
0
100
AcDbSpline
70
4
71
3
72
18
73
14
40
0
40
0
40
0
40
0
40
0.249999999999994
40
0.249999999999994
40
0.499999999999988
40
0.499999999999988
40
0.624999999999991
40
0.624999999999991
40
0.749999999999994
40
0.749999999999994
40
0.874999999999997
40
0.874999999999997
40
1
40
1
40
1
40
1
41
1
10
9.33660254037855
20
-19.0245744101321
30
0
41
1
10
9.32721186043491
20
-19.0356144845434
30
0
41
1
10
9.31597445228977
20
-19.0463346141652
30
0
41
1
10
9.28852371889994
20
-19.0670039094874
30
0
41
1
10
9.27226224655618
20
-19.0770249518317
30
0
41
1
10
9.24217730798264
20
-19.0910025433168
30
0
41
1
10
9.2312633214068
20
-19.0954500347065
30
0
41
1
10
9.20699632571433
20
-19.103785616833
30
0
41
1
10
9.19372453113985
20
-19.1076382714244
30
0
41
1
10
9.16468775446987
20
-19.1142934541628
30
0
41
1
10
9.1485295600186
20
-19.1171636549362
30
0
41
1
10
9.11408210674722
20
-19.1211519083815
30
0
41
1
10
9.0955561358237
20
-19.1222825906925
30
0
41
1
10
9.07679491924324
20
-19.1222825906925
30
0
0
SPLINE
5
177
100
AcDbEntity
8
1
62
256
6
ByLayer
370
13
48
1
60
0
100
AcDbSpline
70
4
71
3
72
31
73
27
40
0
40
0
40
0
40
0
40
0.125000000000009
40
0.125000000000009
40
0.187500000000012
40
0.187500000000012
40
0.250000000000015
40
0.250000000000015
40
0.375000000000016
40
0.375000000000016
40
0.437500000000019
40
0.437500000000019
40
0.500000000000022
40
0.562500000000025
40
0.562500000000025
40
0.593750000000023
40
0.593750000000023
40
0.625000000000021
40
0.625000000000021
40
0.750000000000014
40
0.750000000000014
40
0.81250000000001
40
0.81250000000001
40
0.875000000000006
40
0.875000000000006
40
1
40
1
40
1
40
1
41
1
10
35.5922993776394
20
-17.4239587491167
30
0
41
1
10
35.6777067801391
20
-17.3164623591117
30
0
41
1
10
35.7727450429407
20
-17.2187169606895
30
0
41
1
10
35.9289934026
20
-17.0857824457324
30
0
41
1
10
35.9836217303387
20
-17.043603149497
30
0
41
1
10
36.0963416084741
20
-16.9647305339719
30
0
41
1
10
36.1541929914037
20
-16.9281649356145
30
0
41
1
10
36.3320694780378
20
-16.8267148663102
30
0
41
1
10
36.4563726500956
20
-16.7699895423199
30
0
41
1
10
36.6516239204518
20
-16.7014462840631
30
0
41
1
10
36.7175552907196
20
-16.6816215165265
30
0
41
1
10
36.8497721985019
20
-16.6482132592243
30
0
41
1
10
36.9827408212971
20
-16.6209055653811
30
0
41
1
10
37.1171698057192
20
-16.6056505563979
30
0
41
1
10
37.218557963121
20
-16.5988051166218
30
0
41
1
10
37.2524487819806
20
-16.5972906409712
30
0
41
1
10
37.3204276135145
20
-16.5958263178996
30
0
41
1
10
37.35457818571
20
-16.5958816982129
30
0
41
1
10
37.5240337676353
20
-16.6000941472408
30
0
41
1
10
37.6567248593866
20
-16.6158603353592
30
0
41
1
10
37.8523602411004
20
-16.6578481790491
30
0
41
1
10
37.9170037589069
20
-16.6749242028717
30
0
41
1
10
38.0452937918214
20
-16.7154926097358
30
0
41
1
10
38.1084516672792
20
-16.7388570680706
30
0
41
1
10
38.2930974498584
20
-16.8173159480906
30
0
41
1
10
38.4106967886601
20
-16.8809698729022
30
0
41
1
10
38.5233580791759
20
-16.9565019394691
30
0
0
SPLINE
5
178
100
AcDbEntity
8
1
62
256
6
ByLayer
370
13
48
1
60
0
100
AcDbSpline
70
4
71
3
72
8
73
4
40
0
40
0
40
0
40
0
40
1
40
1
40
1
40
1
41
1
10
44.6188049471685
20
-22.0065956768288
30
0
41
1
10
44.6195080698747
20
-22.0166636355157
30
0
41
1
10
44.6201711463465
20
-22.0267465556439
30
0
41
1
10
44.6207838656323
20
-22.0366467094403
30
0
0
SPLINE
5
179
100
AcDbEntity
8
1
62
256
6
ByLayer
370
13
48
1
60
0
100
AcDbSpline
70
4
71
3
72
16
73
12
40
0
40
0
40
0
40
0
40
0.125
40
0.125
40
0.249999999999999
40
0.249999999999999
40
0.5
40
0.5
40
0.75
40
0.75
40
1
40
1
40
1
40
1
41
1
10
9.07679491924316
20
19.1222825906924
30
0
41
1
10
9.09558095295714
20
19.1222825906924
30
0
41
1
10
9.11384906187905
20
19.1211757542146
30
0
41
1
10
9.14859952398731
20
19.1171586755842
30
0
41
1
10
9.16442417341884
20
19.1143521510702
30
0
41
1
10
9.20863486580114
20
19.1042242696214
30
0
41
1
10
9.23213528231523
20
19.0956673725613
30
0
41
1
10
9.27225845989855
20
19.0770274497581
30
0
41
1
10
9.2883804503779
20
19.0670986798898
30
0
41
1
10
9.31588453947563
20
19.0464153092311
30
0
41
1
10
9.3272084215682
20
19.0356185274182
30
0
41
1
10
9.33660254037849
20
19.024574410132
30
0
0
SPLINE
5
17A
100
AcDbEntity
8
1
62
256
6
ByLayer
370
13
48
1
60
0
100
AcDbSpline
70
4
71
3
72
10
73
6
40
0
40
0
40
0
40
0
40
0.5
40
0.5
40
1
40
1
40
1
40
1
41
1
10
53.3322012938746
20
-2.70134605751247
30
0
41
1
10
53.3267233520784
20
-2.69761523123722
30
0
41
1
10
53.3247705465644
20
-2.74761060097995
30
0
41
1
10
53.327595238554
20
-2.95017711349618
30
0
41
1
10
53.3323739550316
20
-3.10276683451153
30
0
41
1
10
53.3405164891201
20
-3.30662411225742
30
0
0
SPLINE
5
17B
100
AcDbEntity
8
1
62
256
6
ByLayer
370
13
48
1
60
0
100
AcDbSpline
70
4
71
3
72
10
73
6
40
0
40
0
40
0
40
0
40
0.5
40
0.5
40
1
40
1
40
1
40
1
41
1
10
25.6283363110444
20
-19.7087600279212
30
0
41
1
10
25.9700656056076
20
-19.8698061211209
30
0
41
1
10
26.3009475820993
20
-20.0486151790018
30
0
41
1
10
26.9420517780501
20
-20.4400645636613
30
0
41
1
10
27.2522704704862
20
-20.6527106660965
30
0
41
1
10
27.552240795997
20
-20.8821389241333
30
0
0
SPLINE
5
17C
100
AcDbEntity
8
1
62
256
6
ByLayer
370
13
48
1
60
0
100
AcDbSpline
70
4
71
3
72
14
73
10
40
0
40
0
40
0
40
0
40
0.25
40
0.25
40
0.5
40
0.5
40
0.75
40
0.75
40
1
40
1
40
1
40
1
41
1
10
44.4190282008729
20
-21.4189755826714
30
0
41
1
10
44.4028865112262
20
-21.3960640656093
30
0
41
1
10
44.3856227649422
20
-21.3719468465466
30
0
41
1
10
44.3498519441254
20
-21.3228305524982
30
0
41
1
10
44.3312019503583
20
-21.2976261729646
30
0
41
1
10
44.2921900195226
20
-21.2457704645191
30
0
41
1
10
44.2723582276691
20
-21.2198273552925
30
0
41
1
10
44.2325564160541
20
-21.1685113569605
30
0
41
1
10
44.2123445081932
20
-21.1428299727181
30
0
41
1
10
44.1924085997087
20
-21.1178221731513
30
0
0
SPLINE
5
17D
100
AcDbEntity
8
1
62
256
6
ByLayer
370
13
48
1
60
0
100
AcDbSpline
70
4
71
3
72
18
73
14
40
0
40
0
40
0
40
0
40
0.249999999999999
40
0.249999999999999
40
0.499999999999997
40
0.499999999999997
40
0.624999999999998
40
0.624999999999998
40
0.749999999999999
40
0.749999999999999
40
0.874999999999999
40
0.874999999999999
40
1
40
1
40
1
40
1
41
1
10
6.66339745962168
20
19.0245744101321
30
0
41
1
10
6.67278813956531
20
19.0356144845434
30
0
41
1
10
6.68402554771049
20
19.0463346141652
30
0
41
1
10
6.71147628110029
20
19.0670039094875
30
0
41
1
10
6.72773775344408
20
19.0770249518317
30
0
41
1
10
6.75782269201758
20
19.0910025433168
30
0
41
1
10
6.76873667859343
20
19.0954500347065
30
0
41
1
10
6.7930036742859
20
19.103785616833
30
0
41
1
10
6.80627546886041
20
19.1076382714244
30
0
41
1
10
6.83531224553036
20
19.1142934541628
30
0
41
1
10
6.8514704399816
20
19.1171636549362
30
0
41
1
10
6.88591789325298
20
19.1211519083816
30
0
41
1
10
6.90444386417656
20
19.1222825906925
30
0
41
1
10
6.92320508075699
20
19.1222825906925
30
0
0
SPLINE
5
17E
100
AcDbEntity
8
1
62
256
6
ByLayer
370
13
48
1
60
0
100
AcDbSpline
70
4
71
3
72
37
73
33
40
0
40
0
40
0
40
0
40
0.125000000000002
40
0.125000000000002
40
0.250000000000004
40
0.250000000000004
40
0.375000000000007
40
0.375000000000007
40
0.437500000000006
40
0.437500000000006
40
0.500000000000006
40
0.500000000000006
40
0.562500000000006
40
0.562500000000006
40
0.625000000000005
40
0.625000000000005
40
0.656250000000005
40
0.656250000000005
40
0.687500000000005
40
0.687500000000005
40
0.750000000000003
40
0.750000000000003
40
0.781250000000003
40
0.781250000000003
40
0.812500000000003
40
0.843750000000003
40
0.843750000000003
40
0.875000000000003
40
0.875000000000003
40
0.937500000000002
40
0.937500000000002
40
1
40
1
40
1
40
1
41
1
10
25.6283363110445
20
-19.7087600279214
30
0
41
1
10
25.519031697095
20
-19.6572482572734
30
0
41
1
10
25.4093817729669
20
-19.6058450688735
30
0
41
1
10
25.194653878544
20
-19.5049518065375
30
0
41
1
10
25.0890487412664
20
-19.455224634998
30
0
41
1
10
24.8822781381
20
-19.3562325908072
30
0
41
1
10
24.7810795909338
20
-19.3069903035622
30
0
41
1
10
24.6341718561698
20
-19.2322154623166
30
0
41
1
10
24.5860719497277
20
-19.2071451803722
30
0
41
1
10
24.4933936529558
20
-19.1570766716938
30
0
41
1
10
24.4486461108895
20
-19.1319981696913
30
0
41
1
10
24.3632029964189
20
-19.0813976700169
30
0
41
1
10
24.3223055704161
20
-19.0557323348743
30
0
41
1
10
24.247622100865
20
-19.0046177701513
30
0
41
1
10
24.2136662687801
20
-18.9790912549851
30
0
41
1
10
24.1692434570881
20
-18.9405826500945
30
0
41
1
10
24.1555273569689
20
-18.9277094457435
30
0
41
1
10
24.1306242051965
20
-18.9018365945994
30
0
41
1
10
24.1193766587733
20
-18.8887480380714
30
0
41
1
10
24.0906568493114
20
-18.849995598886
30
0
41
1
10
24.0781145899917
20
-18.8248570188222
30
0
41
1
10
24.070373756334
20
-18.7881803978049
30
0
41
1
10
24.0696700472958
20
-18.7760704144691
30
0
41
1
10
24.0720504832594
20
-18.7528414786109
30
0
41
1
10
24.078149676087
20
-18.7304588106239
30
0
41
1
10
24.0912481269684
20
-18.7096869174809
30
0
41
1
10
24.1076571939258
20
-18.6896968013976
30
0
41
1
10
24.1175308821578
20
-18.6801082716651
30
0
41
1
10
24.1509561332526
20
-18.653084064479
30
0
41
1
10
24.1784575809116
20
-18.6371239500818
30
0
41
1
10
24.2414844085298
20
-18.6086322975348
30
0
41
1
10
24.2771778612423
20
-18.5960795252471
30
0
41
1
10
24.3154995134631
20
-18.5852308450623
30
0
0
SPLINE
5
17F
100
AcDbEntity
8
1
62
256
6
ByLayer
370
13
48
1
60
0
100
AcDbSpline
70
4
71
3
72
14
73
10
40
0
40
0
40
0
40
0
40
0.25
40
0.25
40
0.5
40
0.5
40
0.75
40
0.75
40
1
40
1
40
1
40
1
41
1
10
44.6188049471685
20
-22.0065956768288
30
0
41
1
10
44.6149758083175
20
-21.951766539014
30
0
41
1
10
44.6076321014015
20
-21.8971347983318
30
0
41
1
10
44.5864396639601
20
-21.7914112425115
30
0
41
1
10
44.5726003308841
20
-21.7400351869201
30
0
41
1
10
44.5385841962414
20
-21.6404583978106
30
0
41
1
10
44.5182241129644
20
-21.5919649949421
30
0
41
1
10
44.4723853050725
20
-21.5011048436384
30
0
41
1
10
44.4468689761692
20
-21.4584927839174
30
0
41
1
10
44.419028200873
20
-21.4189755826715
30
0
0
SPLINE
5
180
100
AcDbEntity
8
1
62
256
6
ByLayer
370
13
48
1
60
0
100
AcDbSpline
70
4
71
3
72
28
73
24
40
0
40
0
40
0
40
0
40
0.124999999999998
40
0.124999999999998
40
0.156249999999998
40
0.156249999999998
40
0.187499999999997
40
0.187499999999997
40
0.249999999999997
40
0.249999999999997
40
0.374999999999998
40
0.374999999999998
40
0.499999999999998
40
0.499999999999998
40
0.624999999999998
40
0.624999999999998
40
0.687499999999999
40
0.687499999999999
40
0.749999999999999
40
0.749999999999999
40
0.875
40
0.875
40
1
40
1
40
1
40
1
41
1
10
25.2923610857286
20
-5.29874038171641
30
0
41
1
10
25.2234430027449
20
-5.73165471076632
30
0
41
1
10
25.1758889761816
20
-6.16691392823628
30
0
41
1
10
25.1485432453272
20
-6.71471481785963
30
0
41
1
10
25.1446793422946
20
-6.82451196012249
30
0
41
1
10
25.1402592750209
20
-7.04282612857736
30
0
41
1
10
25.1396902558951
20
-7.15154792402222
30
0
41
1
10
25.1428648935374
20
-7.47642561331989
30
0
41
1
10
25.1514996421425
20
-7.6912916165048
30
0
41
1
10
25.1962690550583
20
-8.33096243716946
30
0
41
1
10
25.2513668865264
20
-8.75081854567009
30
0
41
1
10
25.4053284253927
20
-9.57927560499888
30
0
41
1
10
25.5041165550515
20
-9.98789515318776
30
0
41
1
10
25.7364066053823
20
-10.7962945285607
30
0
41
1
10
25.8698576211889
20
-11.1960862973732
30
0
41
1
10
26.0891465897663
20
-11.7909343565443
30
0
41
1
10
26.165497464622
20
-11.9885656324897
30
0
41
1
10
26.3229887306253
20
-12.381225569764
30
0
41
1
10
26.4041667184294
20
-12.5763730203393
30
0
41
1
10
26.6535436534487
20
-13.1589744010633
30
0
41
1
10
26.8275407547091
20
-13.5436097271374
30
0
41
1
10
27.1844805943938
20
-14.3085102492924
30
0
41
1
10
27.3674365322687
20
-14.6887687409099
30
0
41
1
10
27.5522407959976
20
-15.0680992940732
30
0
0
SPLINE
5
181
100
AcDbEntity
8
1
62
256
6
ByLayer
370
13
48
1
60
0
100
AcDbSpline
70
4
71
3
72
33
73
29
40
0
40
0
40
0
40
0
40
0.0156250000000009
40
0.0156250000000009
40
0.0312500000000018
40
0.0625000000000014
40
0.0625000000000014
40
0.0937500000000011
40
0.0937500000000011
40
0.125000000000001
40
0.125000000000001
40
0.1875
40
0.1875
40
0.218750000000001
40
0.218750000000001
40
0.250000000000001
40
0.250000000000001
40
0.3125
40
0.3125
40
0.374999999999999
40
0.374999999999999
40
0.5
40
0.5
40
0.625
40
0.625
40
0.75
40
0.75
40
1
40
1
40
1
40
1
41
1
10
21.9082585491977
20
-2.0024984394496
30
0
41
1
10
21.9338636118246
20
-2.00249843944957
30
0
41
1
10
21.9595782219805
20
-2.00349665025325
30
0
41
1
10
22.0104152885163
20
-2.00740681555664
30
0
41
1
10
22.0861173297197
20
-2.01613585810597
30
0
41
1
10
22.1602476128859
20
-2.03299627494343
30
0
41
1
10
22.2578580406015
20
-2.06183988551163
30
0
41
1
10
22.3062171729919
20
-2.07954236007367
30
0
41
1
10
22.3997694101884
20
-2.11943396528343
30
0
41
1
10
22.4452484549731
20
-2.14168225395312
30
0
41
1
10
22.5786335792387
20
-2.2138448615159
30
0
41
1
10
22.6635334450061
20
-2.26909562704029
30
0
41
1
10
22.7870177561988
20
-2.35883355213025
30
0
41
1
10
22.8274272361503
20
-2.38984981655173
30
0
41
1
10
22.9065156387446
20
-2.4532230168862
30
0
41
1
10
22.9452861996253
20
-2.48564817362956
30
0
41
1
10
23.0597324467058
20
-2.58470448373305
30
0
41
1
10
23.1335664101289
20
-2.65309383953343
30
0
41
1
10
23.2778835374986
20
-2.79307139511386
30
0
41
1
10
23.348352904656
20
-2.86467276601209
30
0
41
1
10
23.5561071012351
20
-3.08296508256723
30
0
41
1
10
23.6898153686201
20
-3.23307039665147
30
0
41
1
10
23.9516042610371
20
-3.53865345906647
30
0
41
1
10
24.0796371263254
20
-3.69420995157984
30
0
41
1
10
24.3317677210078
20
-4.00894455654543
30
0
41
1
10
24.4555543599211
20
-4.1677788928933
30
0
41
1
10
24.8218614644273
20
-4.64753497689085
30
0
41
1
10
25.0594283344333
20
-4.9716459223558
30
0
41
1
10
25.2923610857287
20
-5.29874038171636
30
0
0
SPLINE
5
182
100
AcDbEntity
8
1
62
256
6
ByLayer
370
13
48
1
60
0
100
AcDbSpline
70
4
71
3
72
63
73
59
40
0
40
0
40
0
40
0
40
0.0019533527538953
40
0.0019533527538953
40
0.0039067055077907
40
0.0078134110155814
40
0.0156268220311629
40
0.0312536440623258
40
0.0312536440623258
40
0.0625072881246517
40
0.0625072881246517
40
0.125014576249303
40
0.125014576249303
40
0.156268220311629
40
0.156268220311629
40
0.187521864373955
40
0.218775508436281
40
0.218775508436281
40
0.250029152498607
40
0.250029152498607
40
0.312536440623259
40
0.312536440623259
40
0.343790084685584
40
0.343790084685584
40
0.359416906716747
40
0.359416906716747
40
0.37504372874791
40
0.37504372874791
40
0.437551016872561
40
0.437551016872561
40
0.453177838903724
40
0.453177838903724
40
0.468804660934887
40
0.468804660934887
40
0.500058304997212
40
0.500058304997212
40
0.562565593121864
40
0.562565593121864
40
0.593819237184189
40
0.593819237184189
40
0.625072881246515
40
0.65632652530884
40
0.65632652530884
40
0.687580169371166
40
0.687580169371166
40
0.750087457495816
40
0.750087457495816
40
0.765714279526979
40
0.765714279526979
40
0.781341101558142
40
0.781341101558142
40
0.812594745620467
40
0.812594745620467
40
0.875102033745118
40
0.875102033745118
40
0.937609321869768
40
0.937609321869768
40
1
40
1
40
1
40
1
41
1
10
20.0000000000002
20
-2.84E-14
30
0
41
1
10
20.000000000002
20
0.0202308330269716
30
0
41
1
10
20.0000000000026
20
0.0404621161396221
30
0
41
1
10
20.0000000000014
20
0.0815413232930098
30
0
41
1
10
20.000000000001
20
0.143149335113861
30
0
41
1
10
20.0000000000008
20
0.286825846576278
30
0
41
1
10
20.0000000000003
20
0.573877385536292
30
0
41
1
10
20.0000000000004
20
0.819406620362372
30
0
41
1
10
20.0000000000003
20
1.30978237805354
30
0
41
1
10
20.0000000000003
20
1.63578967734412
30
0
41
1
10
20.0000000000002
20
2.61109783878771
30
0
41
1
10
20.0000000000002
20
3.25769152277118
30
0
41
1
10
20.0000000000002
20
4.2221099858134
30
0
41
1
10
20.0000000000002
20
4.54313957803339
30
0
41
1
10
20.0000000000002
20
5.1797990401258
30
0
41
1
10
20.0000000000002
20
5.81155867866946
30
0
41
1
10
20.0000000000001
20
6.43357293065918
30
0
41
1
10
20.0000000000002
20
7.05070616840982
30
0
41
1
10
20.0000000000002
20
7.35693583909463
30
0
41
1
10
20.0000000000002
20
8.26759405842643
30
0
41
1
10
20.0000000000002
20
8.85989960496056
30
0
41
1
10
20.0000000000001
20
9.72636535804367
30
0
41
1
10
20.0000000000002
20
10.0115151657101
30
0
41
1
10
20.0000000000002
20
10.4336974479835
30
0
41
1
10
20.0000000000002
20
10.5735952467344
30
0
41
1
10
20.0000000000002
20
10.8509691489074
30
0
41
1
10
20.0000000000002
20
10.9884443692782
30
0
41
1
10
20.0000000000001
20
11.6697898576999
30
0
41
1
10
20.0000000000002
20
12.1956118938431
30
0
41
1
10
20.0000000000001
20
12.8288305661871
30
0
41
1
10
20.0000000000001
20
12.9542686321697
30
0
41
1
10
20.0000000000001
20
13.2027226760161
30
0
41
1
10
20.0000000000001
20
13.3257789912805
30
0
41
1
10
20.0000000000002
20
13.6903248783092
30
0
41
1
10
20.0000000000001
20
13.9275087470292
30
0
41
1
10
20.0000000000001
20
14.621635215978
30
0
41
1
10
20.0000000000001
20
15.061194886186
30
0
41
1
10
20.0000000000002
20
15.6854460139715
30
0
41
1
10
20.0000000000001
20
15.8871133565741
30
0
41
1
10
20.0000000000001
20
16.2768436646125
30
0
41
1
10
20.0000000000001
20
16.6532524820236
30
0
41
1
10
20.0000000000001
20
17.0030736186562
30
0
41
1
10
20.0000000000001
20
17.3395319929227
30
0
41
1
10
20.0000000000001
20
17.5012070118033
30
0
41
1
10
20.0000000000001
20
17.963609650311
30
0
41
1
10
20.0000000000001
20
18.2425729969262
30
0
41
1
10
20.0000000000001
20
18.554734473137
30
0
41
1
10
20.0000000000001
20
18.6153354912281
30
0
41
1
10
20.0000000000001
20
18.7328605382229
30
0
41
1
10
20.0000000000001
20
18.7898409862547
30
0
41
1
10
20.0000000000001
20
18.9547670429926
30
0
41
1
10
20.0000000000001
20
19.056650648031
30
0
41
1
10
20.0000000000001
20
19.3386067174057
30
0
41
1
10
20.0000000000001
20
19.4950401397993
30
0
41
1
10
20.0000000000001
20
19.7461031846754
30
0
41
1
10
20.0000000000001
20
19.8407310049822
30
0
41
1
10
20.0000000000001
20
19.9675575903493
30
0
41
1
10
20.0000000000002
20
19.9998902481083
30
0
41
1
10
20
20
19.9999949999226
30
0
0
SPLINE
5
183
100
AcDbEntity
8
1
62
256
6
ByLayer
370
13
48
1
60
0
100
AcDbSpline
70
4
71
3
72
16
73
12
40
0
40
0
40
0
40
0
40
0.124999999999999
40
0.124999999999999
40
0.249999999999997
40
0.249999999999997
40
0.499999999999998
40
0.499999999999998
40
0.749999999999999
40
0.749999999999999
40
1
40
1
40
1
40
1
41
1
10
9.07679491924321
20
-5.85988980456997
30
0
41
1
10
9.09558095295719
20
-5.85988980456997
30
0
41
1
10
9.11384906187914
20
-5.8635044647279
30
0
41
1
10
9.14859952398737
20
-5.87658838136429
30
0
41
1
10
9.16442417341889
20
-5.88571770958652
30
0
41
1
10
9.2086348658012
20
-5.91854200832123
30
0
41
1
10
9.23213528231526
20
-5.94612987812232
30
0
41
1
10
9.27225845989861
20
-6.0056637112126
30
0
41
1
10
9.28838045037796
20
-6.03712755983082
30
0
41
1
10
9.31588453947569
20
-6.10206728171792
30
0
41
1
10
9.32720842156829
20
-6.1356751045318
30
0
41
1
10
9.33660254037858
20
-6.16973001948634
30
0
0
SPLINE
5
184
100
AcDbEntity
8
1
62
256
6
ByLayer
370
13
48
1
60
0
100
AcDbSpline
70
4
71
3
72
16
73
12
40
0
40
0
40
0
40
0
40
0.124999999999998
40
0.124999999999998
40
0.249999999999997
40
0.249999999999997
40
0.499999999999998
40
0.499999999999998
40
0.749999999999999
40
0.749999999999999
40
1
40
1
40
1
40
1
41
1
10
6.92320508075707
20
-19.1222825906925
30
0
41
1
10
6.90441904704309
20
-19.1222825906925
30
0
41
1
10
6.88615093812112
20
-19.1211757542147
30
0
41
1
10
6.85140047601286
20
-19.1171586755843
30
0
41
1
10
6.83557582658133
20
-19.1143521510703
30
0
41
1
10
6.79136513419903
20
-19.1042242696215
30
0
41
1
10
6.767864717685
20
-19.0956673725614
30
0
41
1
10
6.72774154010165
20
-19.0770274497583
30
0
41
1
10
6.71161954962233
20
-19.0670986798899
30
0
41
1
10
6.68411546052457
20
-19.0464153092312
30
0
41
1
10
6.67279157843203
20
-19.0356185274184
30
0
41
1
10
6.66339745962173
20
-19.0245744101322
30
0
0
SPLINE
5
185
100
AcDbEntity
8
1
62
256
6
ByLayer
370
13
48
1
60
0
100
AcDbSpline
70
4
71
3
72
46
73
42
40
0
40
0
40
0
40
0
40
0.249999999999998
40
0.249999999999998
40
0.374999999999997
40
0.374999999999997
40
0.499999999999997
40
0.499999999999997
40
0.562499999999997
40
0.562499999999997
40
0.624999999999998
40
0.624999999999998
40
0.687499999999999
40
0.687499999999999
40
0.75
40
0.75
40
0.781250000000001
40
0.781250000000001
40
0.812500000000002
40
0.812500000000002
40
0.828125000000003
40
0.828125000000003
40
0.843750000000003
40
0.843750000000003
40
0.859375000000003
40
0.859375000000003
40
0.867187500000003
40
0.867187500000003
40
0.875000000000003
40
0.875000000000003
40
0.890625000000002
40
0.890625000000002
40
0.906250000000002
40
0.906250000000002
40
0.921875000000001
40
0.921875000000001
40
0.9375
40
0.9375
40
0.96875
40
0.96875
40
1
40
1
40
1
40
1
41
1
10
33.2517351829972
20
9.34188021074505
30
0
41
1
10
32.8798631465173
20
9.57093606096439
30
0
41
1
10
32.5079922582622
20
9.79454599264054
30
0
41
1
10
31.9498776212402
20
10.1190268192166
30
0
41
1
10
31.7637866006533
20
10.225342339366
30
0
41
1
10
31.3914042402855
20
10.4331777466187
30
0
41
1
10
31.2051154107204
20
10.5347347354556
30
0
41
1
10
30.9254049488687
20
10.6818158931616
30
0
41
1
10
30.8321212226771
20
10.7299568600802
30
0
41
1
10
30.6454197644131
20
10.8239081238499
30
0
41
1
10
30.5517715281009
20
10.8698383272545
30
0
41
1
10
30.3654143204974
20
10.9578547756117
30
0
41
1
10
30.2729303414787
20
10.9998667586513
30
0
41
1
10
30.0900829977688
20
11.0777298032531
30
0
41
1
10
29.9996698024543
20
11.1137269426235
30
0
41
1
10
29.8669800395046
20
11.1591536651391
30
0
41
1
10
29.823092113478
20
11.1728653448758
30
0
41
1
10
29.7389690305003
20
11.1950836278927
30
0
41
1
10
29.6984228278811
20
11.203745673398
30
0
41
1
10
29.6419803166383
20
11.2102864891644
30
0
41
1
10
29.6241871453013
20
11.2113340867246
30
0
41
1
10
29.5912364632684
20
11.2105059106955
30
0
41
1
10
29.575950523059
20
11.208597239022
30
0
41
1
10
29.5495676512622
20
11.2010084977561
30
0
41
1
10
29.5385628143781
20
11.1953888388296
30
0
41
1
10
29.5259052906374
20
11.1837474526944
30
0
41
1
10
29.522322225692
20
11.1792975512254
30
0
41
1
10
29.5166890611469
20
11.169524438677
30
0
41
1
10
29.5146074974118
20
11.1641846013851
30
0
41
1
10
29.5104803279249
20
11.1468597616642
30
0
41
1
10
29.5105971039124
20
11.1333835367758
30
0
41
1
10
29.515835512699
20
11.1042152106492
30
0
41
1
10
29.5208537437546
20
11.088622073663
30
0
41
1
10
29.534586023512
20
11.0558838000726
30
0
41
1
10
29.5433737022076
20
11.0386398291879
30
0
41
1
10
29.5633596824184
20
11.0038195747521
30
0
41
1
10
29.5745893992166
20
10.9861454515586
30
0
41
1
10
29.6110705101832
20
10.9325293505306
30
0
41
1
10
29.6391734841891
20
10.8958777653253
30
0
41
1
10
29.6995919379264
20
10.8221974794948
30
0
41
1
10
29.7318332504544
20
10.7852691202052
30
0
41
1
10
29.7654575489
20
10.7482836632951
30
0
0
SPLINE
5
186
100
AcDbEntity
8
1
62
256
6
ByLayer
370
13
48
1
60
0
100
AcDbSpline
70
4
71
3
72
20
73
16
40
0
40
0
40
0
40
0
40
0.177960496201319
40
0.177960496201319
40
0.266940744301972
40
0.266940744301972
40
0.355920992402626
40
0.355920992402626
40
0.444901240503279
40
0.444901240503279
40
0.533881488603932
40
0.533881488603932
40
0.711841984805239
40
0.711841984805239
40
1
40
1
40
1
40
1
41
1
10
45.473948463387
20
-15.163387313765
30
0
41
1
10
45.477614542435
20
-15.1239975577639
30
0
41
1
10
45.4862000191343
20
-15.086493240959
30
0
41
1
10
45.5059536106537
20
-15.0328556418373
30
0
41
1
10
45.5137315663964
20
-15.0154073381409
30
0
41
1
10
45.5310366704984
20
-14.9824473315164
30
0
41
1
10
45.5406129063814
20
-14.9667831342336
30
0
41
1
10
45.561498810486
20
-14.9369692190051
30
0
41
1
10
45.572889074415
20
-14.9227371017286
30
0
41
1
10
45.5969306516151
20
-14.8961929856968
30
0
41
1
10
45.6095464280988
20
-14.8838921661128
30
0
41
1
10
45.6490169304066
20
-14.849588155602
30
0
41
1
10
45.6776343264607
20
-14.8300798578844
30
0
41
1
10
45.7568862443585
20
-14.7873632121678
30
0
41
1
10
45.8086130779673
20
-14.7698330636909
30
0
41
1
10
45.8625890476518
20
-14.759329000039
30
0
0
SPLINE
5
187
100
AcDbEntity
8
1
62
256
6
ByLayer
370
13
48
1
60
0
100
AcDbSpline
70
4
71
3
72
30
73
26
40
0
40
0
40
0
40
0
40
0.124999999999996
40
0.124999999999996
40
0.187499999999993
40
0.187499999999993
40
0.249999999999992
40
0.249999999999992
40
0.374999999999993
40
0.374999999999993
40
0.437499999999994
40
0.437499999999994
40
0.499999999999995
40
0.499999999999995
40
0.624999999999996
40
0.624999999999996
40
0.687499999999997
40
0.687499999999997
40
0.749999999999997
40
0.749999999999997
40
0.874999999999998
40
0.874999999999998
40
0.937499999999999
40
0.937499999999999
40
1
40
1
40
1
40
1
41
1
10
45.7983080223587
20
-14.2951956143382
30
0
41
1
10
45.901961583468
20
-14.2916204878812
30
0
41
1
10
46.0039014443212
20
-14.2961454052791
30
0
41
1
10
46.1538187158051
20
-14.3146682236168
30
0
41
1
10
46.2032895424726
20
-14.322805876957
30
0
41
1
10
46.3011139193131
20
-14.3430243027406
30
0
41
1
10
46.3493841502912
20
-14.3551095041669
30
0
41
1
10
46.4899106656221
20
-14.3965121004424
30
0
41
1
10
46.5787434990905
20
-14.431116549912
30
0
41
1
10
46.7040557854322
20
-14.4925622921316
30
0
41
1
10
46.7444968726994
20
-14.5146385748814
30
0
41
1
10
46.8225131573262
20
-14.5618542760803
30
0
41
1
10
46.8599016555175
20
-14.586899442894
30
0
41
1
10
46.9657552208304
20
-14.6650203921945
30
0
41
1
10
47.0284868919222
20
-14.7214159097365
30
0
41
1
10
47.1099138937426
20
-14.81038288456
30
0
41
1
10
47.1350484002488
20
-14.8409266269951
30
0
41
1
10
47.1802032542364
20
-14.9021893597305
30
0
41
1
10
47.2002037113509
20
-14.9328353140873
30
0
41
1
10
47.2526794940572
20
-15.0240515118965
30
0
41
1
10
47.277624477367
20
-15.0838921461067
30
0
41
1
10
47.3007133711331
20
-15.1692387540809
30
0
41
1
10
47.3060316411529
20
-15.1970536609207
30
0
41
1
10
47.3119955133699
20
-15.2503101645167
30
0
41
1
10
47.3126364327095
20
-15.275509502958
30
0
41
1
10
47.3112496216913
20
-15.2992371188519
30
0
0
SPLINE
5
188
100
AcDbEntity
8
1
62
256
6
ByLayer
370
13
48
1
60
0
100
AcDbSpline
70
4
71
3
72
9
73
5
40
0
40
0
40
0
40
0
40
0.5
40
1
40
1
40
1
40
1
41
1
10
45.0050845048935
20
-11.5017344911441
30
0
41
1
10
44.3755900686779
20
-12.0994797000456
30
0
41
1
10
43.0804321340555
20
-13.2509270168067
30
0
41
1
10
41.7134567150923
20
-14.3149240080573
30
0
41
1
10
41.0119115566609
20
-14.8249320993288
30
0
0
SPLINE
5
189
100
AcDbEntity
8
1
62
256
6
ByLayer
370
13
48
1
60
0
100
AcDbSpline
70
4
71
3
72
16
73
12
40
0
40
0
40
0
40
0
40
0.125000000000001
40
0.125000000000001
40
0.250000000000001
40
0.250000000000001
40
0.500000000000001
40
0.500000000000001
40
0.75
40
0.75
40
1
40
1
40
1
40
1
41
1
10
6.92320508075704
20
5.85988980456952
30
0
41
1
10
6.90441904704306
20
5.85988980456952
30
0
41
1
10
6.88615093812109
20
5.86350446472747
30
0
41
1
10
6.85140047601283
20
5.87658838136386
30
0
41
1
10
6.83557582658131
20
5.88571770958612
30
0
41
1
10
6.791365134199
20
5.91854200832083
30
0
41
1
10
6.76786471768497
20
5.94612987812195
30
0
41
1
10
6.72774154010162
20
6.00566371121224
30
0
41
1
10
6.71161954962233
20
6.03712755983045
30
0
41
1
10
6.68411546052457
20
6.10206728171755
30
0
41
1
10
6.672791578432
20
6.13567510453134
30
0
41
1
10
6.66339745962171
20
6.16973001948588
30
0
0
SPLINE
5
18A
100
AcDbEntity
8
1
62
256
6
ByLayer
370
13
48
1
60
0
100
AcDbSpline
70
4
71
3
72
16
73
12
40
0
40
0
40
0
40
0
40
0.0625000000000071
40
0.0625000000000071
40
0.125000000000014
40
0.125000000000014
40
0.250000000000028
40
0.250000000000028
40
0.500000000000026
40
0.500000000000026
40
1
40
1
40
1
40
1
41
1
10
20.2792076144254
20
-0.0950790591531643
30
0
41
1
10
20.2821884212632
20
-0.0960941185391277
30
0
41
1
10
20.2846795727598
20
-0.0980326386477088
30
0
41
1
10
20.2890760721721
20
-0.102367985048971
30
0
41
1
10
20.2909699316224
20
-0.104784974722037
30
0
41
1
10
20.2962293479394
20
-0.112381724337609
30
0
41
1
10
20.2991249281846
20
-0.117847920187501
30
0
41
1
10
20.3070066544481
20
-0.13440655574442
30
0
41
1
10
20.3112452734053
20
-0.14587593823083
30
0
41
1
10
20.3229591907664
20
-0.18070851983984
30
0
41
1
10
20.3292672520047
20
-0.204412704231316
30
0
41
1
10
20.3350938391273
20
-0.2282201867406
30
0
0
SPLINE
5
18B
100
AcDbEntity
8
1
62
256
6
ByLayer
370
13
48
1
60
0
100
AcDbSpline
70
4
71
3
72
10
73
6
40
0
40
0
40
0
40
0
40
0.5
40
0.5
40
1
40
1
40
1
40
1
41
1
10
39.9357697971119
20
-15.2584876550828
30
0
41
1
10
38.0774993302387
20
-15.5074095515669
30
0
41
1
10
36.2248750712368
20
-15.8101877280624
30
0
41
1
10
32.5299382544874
20
-16.5230277052477
30
0
41
1
10
30.6876265735998
20
-16.9330886610488
30
0
41
1
10
28.8500460219208
20
-17.3972062712764
30
0
0
SPLINE
5
18C
100
AcDbEntity
8
1
62
256
6
ByLayer
370
13
48
1
60
0
100
AcDbSpline
70
4
71
3
72
10
73
6
40
0
40
0
40
0
40
0
40
0.5
40
0.5
40
1
40
1
40
1
40
1
41
1
10
43.3219308968312
20
-16.4642390577946
30
0
41
1
10
43.3220120896498
20
-16.5065167707162
30
0
41
1
10
43.3229723303854
20
-16.5501865279167
30
0
41
1
10
43.3267453043785
20
-16.6379610926067
30
0
41
1
10
43.3295406466093
20
-16.6820372551752
30
0
41
1
10
43.3332407879737
20
-16.7263014550194
30
0
0
SPLINE
5
18D
100
AcDbEntity
8
1
62
256
6
ByLayer
370
13
48
1
60
0
100
AcDbSpline
70
4
71
3
72
8
73
4
40
0
40
0
40
0
40
0
40
1
40
1
40
1
40
1
41
1
10
27.552240795997
20
-17.7187523316922
30
0
41
1
10
27.9676200399478
20
-17.6138724963802
30
0
41
1
10
28.4011513090512
20
-17.5062369326022
30
0
41
1
10
28.8500460219208
20
-17.3972062712764
30
0
0
SPLINE
5
18E
100
AcDbEntity
8
1
62
256
6
ByLayer
370
13
48
1
60
0
100
AcDbSpline
70
4
71
3
72
14
73
10
40
0
40
0
40
0
40
0
40
0.25
40
0.25
40
0.5
40
0.5
40
0.75
40
0.75
40
1
40
1
40
1
40
1
41
1
10
43.4796480705074
20
-19.9473282957823
30
0
41
1
10
43.4951811914817
20
-20.0245292011285
30
0
41
1
10
43.5157477882094
20
-20.0987701436168
30
0
41
1
10
43.5647791762107
20
-20.2373615954965
30
0
41
1
10
43.5932312440395
20
-20.3019180179621
30
0
41
1
10
43.6564719671672
20
-20.42105499187
30
0
41
1
10
43.6912674563493
20
-20.4756344776686
30
0
41
1
10
43.7656725498926
20
-20.5739597532637
30
0
41
1
10
43.8045257606104
20
-20.6166877444797
30
0
41
1
10
43.8437833715958
20
-20.6529815193067
30
0
0
SPLINE
5
18F
100
AcDbEntity
8
1
62
256
6
ByLayer
370
13
48
1
60
0
100
AcDbSpline
70
4
71
3
72
18
73
14
40
0
40
0
40
0
40
0
40
0.249999999999999
40
0.249999999999999
40
0.499999999999997
40
0.499999999999997
40
0.624999999999998
40
0.624999999999998
40
0.749999999999999
40
0.749999999999999
40
0.874999999999999
40
0.874999999999999
40
1
40
1
40
1
40
1
41
1
10
6.66339745962173
20
-6.16973001948608
30
0
41
1
10
6.67278813956537
20
-6.13568757087504
30
0
41
1
10
6.68402554771055
20
-6.10231901184986
30
0
41
1
10
6.71147628110035
20
-6.03742672607467
30
0
41
1
10
6.72773775344413
20
-6.00567161829645
30
0
41
1
10
6.75782269201761
20
-5.96102885758646
30
0
41
1
10
6.76873667859348
20
-5.94676259304887
30
0
41
1
10
6.79300367428593
20
-5.91993010703195
30
0
41
1
10
6.80627546886043
20
-5.9074772169607
30
0
41
1
10
6.83531224553042
20
-5.88590801224933
30
0
41
1
10
6.85147043998165
20
-5.87657212596517
30
0
41
1
10
6.88591789325304
20
-5.86358216944902
30
0
41
1
10
6.90444386417661
20
-5.85988980456969
30
0
41
1
10
6.92320508075704
20
-5.85988980456969
30
0
0
SPLINE
5
190
100
AcDbEntity
8
1
62
256
6
ByLayer
370
13
48
1
60
0
100
AcDbSpline
70
4
71
3
72
10
73
6
40
0
40
0
40
0
40
0
40
0.5
40
0.5
40
1
40
1
40
1
40
1
41
1
10
24.3154995134632
20
-18.5852308450623
30
0
41
1
10
24.889984414409
20
-18.4225968613958
30
0
41
1
10
25.4489582853009
20
-18.2691421592759
30
0
41
1
10
26.5308488100255
20
-17.9801400964348
30
0
41
1
10
27.0535769200571
20
-17.8446608501035
30
0
41
1
10
27.552240795997
20
-17.7187523316922
30
0
0
SPLINE
5
191
100
AcDbEntity
8
1
62
256
6
ByLayer
370
13
48
1
60
0
100
AcDbSpline
70
4
71
3
72
16
73
12
40
0
40
0
40
0
40
0
40
0.25
40
0.25
40
0.375
40
0.375
40
0.5
40
0.5
40
0.75
40
0.75
40
1
40
1
40
1
40
1
41
1
10
53.4798414276757
20
-4.11740999401965
30
0
41
1
10
53.4602868167434
20
-3.8845532953533
30
0
41
1
10
53.4425662906665
20
-3.68090798264259
30
0
41
1
10
53.4186622104432
20
-3.41807183418396
30
0
41
1
10
53.4111410563675
20
-3.33757710528766
30
0
41
1
10
53.3969887791148
20
-3.19076312907691
30
0
41
1
10
53.39035266528
20
-3.12440022637549
30
0
41
1
10
53.3718526590457
20
-2.94726957315416
30
0
41
1
10
53.3613703747956
20
-2.85814911689724
30
0
41
1
10
53.3440471887807
20
-2.73689124233888
30
0
41
1
10
53.3372063497296
20
-2.70475480542964
30
0
41
1
10
53.3322012938746
20
-2.70134605751249
30
0
0
SPLINE
5
192
100
AcDbEntity
8
1
62
256
6
ByLayer
370
13
48
1
60
0
100
AcDbSpline
70
4
71
3
72
20
73
16
40
0
40
0
40
0
40
0
40
0.125
40
0.125
40
0.25
40
0.25
40
0.375
40
0.375
40
0.5
40
0.5
40
0.625
40
0.625
40
0.75
40
0.75
40
1
40
1
40
1
40
1
41
1
10
29.7654575488999
20
10.7482836632951
30
0
41
1
10
30.2384489120206
20
10.2280110483033
30
0
41
1
10
30.7133078008498
20
9.70087781675795
30
0
41
1
10
31.6641627342087
20
8.63424851541154
30
0
41
1
10
32.1401778501125
20
8.09474050435838
30
0
41
1
10
33.0917390140325
20
7.0040852844005
30
0
41
1
10
33.5673723229782
20
6.45284089844375
30
0
41
1
10
34.5167502068427
20
5.33948820934671
30
0
41
1
10
34.9901840803148
20
4.7777494431744
30
0
41
1
10
35.9338510023917
20
3.6442976903275
30
0
41
1
10
36.4040867407071
20
3.0725832913507
30
0
41
1
10
37.3408640946073
20
1.91919527377772
30
0
41
1
10
37.8075517306377
20
1.33733788033521
30
0
41
1
10
39.2004859743902
20
-0.421986060416742
30
0
41
1
10
40.1188349188861
20
-1.61221700415106
30
0
41
1
10
41.0260360089619
20
-2.82030880423829
30
0
0
SPLINE
5
193
100
AcDbEntity
8
1
62
256
6
ByLayer
370
13
48
1
60
0
100
AcDbSpline
70
4
71
3
72
10
73
6
40
0
40
0
40
0
40
0
40
0.409169261777193
40
0.409169261777193
40
1
40
1
40
1
40
1
41
1
10
54.1754229937698
20
-15.06635262046
30
0
41
1
10
54.1754731960923
20
-15.0381299877975
30
0
41
1
10
54.1751288823038
20
-15.0100084573494
30
0
41
1
10
54.1733959484497
20
-14.9420562294485
30
0
41
1
10
54.1716028873495
20
-14.9021710690099
30
0
41
1
10
54.1691615581318
20
-14.8631139840033
30
0
0
SPLINE
5
194
100
AcDbEntity
8
1
62
256
6
ByLayer
370
13
48
1
60
0
100
AcDbSpline
70
4
71
3
72
8
73
4
40
0
40
0
40
0
40
0
40
1
40
1
40
1
40
1
41
1
10
44.2186172974774
20
-14.7894119362201
30
0
41
1
10
44.202659667563
20
-14.7935713250356
30
0
41
1
10
44.1866925389989
20
-14.7973358238143
30
0
41
1
10
44.1706997979399
20
-14.8006130610984
30
0
0
SPLINE
5
195
100
AcDbEntity
8
1
62
256
6
ByLayer
370
13
48
1
60
0
100
AcDbSpline
70
4
71
3
72
8
73
4
40
0
40
0
40
0
40
0
40
1
40
1
40
1
40
1
41
1
10
41.0260360089619
20
-2.82030880423829
30
0
41
1
10
42.5135331154607
20
-4.67444225795043
30
0
41
1
10
43.9527485807004
20
-6.56754142739248
30
0
41
1
10
45.3435213395611
20
-8.49946922463593
30
0
0
SPLINE
5
196
100
AcDbEntity
8
1
62
256
6
ByLayer
370
13
48
1
60
0
100
AcDbSpline
70
4
71
3
72
16
73
12
40
0
40
0
40
0
40
0
40
0.124999999999997
40
0.124999999999997
40
0.249999999999995
40
0.249999999999995
40
0.499999999999997
40
0.499999999999997
40
0.749999999999998
40
0.749999999999998
40
1
40
1
40
1
40
1
41
1
10
47.3665596463834
20
-15.5192838791976
30
0
41
1
10
47.3603212507533
20
-15.5065230484998
30
0
41
1
10
47.3545139452438
20
-15.49379852172
30
0
41
1
10
47.3442956065464
20
-15.4696549751632
30
0
41
1
10
47.3398063917898
20
-15.4580871782869
30
0
41
1
10
47.3279671923692
20
-15.424665302401
30
0
41
1
10
47.3225743390538
20
-15.4051072632431
30
0
41
1
10
47.314952566878
20
-15.3694961091397
30
0
41
1
10
47.3127758723651
20
-15.3535992772467
30
0
41
1
10
47.3105688817506
20
-15.3246379462211
30
0
41
1
10
47.310536130063
20
-15.3114445898593
30
0
41
1
10
47.3112496216912
20
-15.2992371188519
30
0
0
SPLINE
5
197
100
AcDbEntity
8
1
62
256
6
ByLayer
370
13
48
1
60
0
100
AcDbSpline
70
4
71
3
72
14
73
10
40
0
40
0
40
0
40
0
40
0.487818967281772
40
0.487818967281772
40
0.731728450922659
40
0.731728450922659
40
0.975637934563545
40
0.975637934563545
40
1
40
1
40
1
40
1
41
1
10
33.8963365602802
20
-25.6201022405009
30
0
41
1
10
33.4789883811875
20
-25.5024322672443
30
0
41
1
10
33.1092873138569
20
-25.3870749118182
30
0
41
1
10
32.6490550625342
20
-25.2186167975023
30
0
41
1
10
32.5114373905463
20
-25.1632306314245
30
0
41
1
10
32.2726139913122
20
-25.0542256028795
30
0
41
1
10
32.1731644822199
20
-25.0013853515367
30
0
41
1
10
32.0869694265584
20
-24.9452484993041
30
0
41
1
10
32.0793524807862
20
-24.9401684855689
30
0
41
1
10
32.0719467637237
20
-24.9351063729249
30
0
0
SPLINE
5
198
100
AcDbEntity
8
1
62
256
6
ByLayer
370
13
48
1
60
0
100
AcDbSpline
70
4
71
3
72
10
73
6
40
0
40
0
40
0
40
0
40
0.5
40
0.5
40
1
40
1
40
1
40
1
41
1
10
27.552240795997
20
-20.8821389241333
30
0
41
1
10
28.6005700889989
20
-21.6839394460113
30
0
41
1
10
29.6543349173095
20
-22.4784243112025
30
0
41
1
10
31.7698274685692
20
-24.0566768260579
30
0
41
1
10
32.8315712864341
20
-24.8404228136646
30
0
41
1
10
33.8963365602802
20
-25.6201022405009
30
0
0
SPLINE
5
199
100
AcDbEntity
8
1
62
256
6
ByLayer
370
13
48
1
60
0
100
AcDbSpline
70
4
71
3
72
8
73
4
40
0
40
0
40
0
40
0
40
1
40
1
40
1
40
1
41
1
10
53.8692884169878
20
-10.0893977058956
30
0
41
1
10
53.8840023096233
20
-10.3156094117214
30
0
41
1
10
53.8984625362522
20
-10.5419707936448
30
0
41
1
10
53.9126772335588
20
-10.7684798423909
30
0
0
SPLINE
5
19A
100
AcDbEntity
8
1
62
256
6
ByLayer
370
13
48
1
60
0
100
AcDbSpline
70
4
71
3
72
18
73
14
40
0
40
0
40
0
40
0
40
0.249999999999997
40
0.249999999999997
40
0.499999999999994
40
0.499999999999994
40
0.624999999999996
40
0.624999999999996
40
0.749999999999997
40
0.749999999999997
40
0.874999999999999
40
0.874999999999999
40
1
40
1
40
1
40
1
41
1
10
9.33660254037852
20
6.16973001948614
30
0
41
1
10
9.32721186043489
20
6.13568757087509
30
0
41
1
10
9.31597445228974
20
6.10231901184991
30
0
41
1
10
9.28852371889991
20
6.03742672607476
30
0
41
1
10
9.27226224655615
20
6.0056716182965
30
0
41
1
10
9.24217730798264
20
5.96102885758651
30
0
41
1
10
9.23126332140677
20
5.94676259304893
30
0
41
1
10
9.2069963257143
20
5.91993010703203
30
0
41
1
10
9.19372453113982
20
5.90747721696076
30
0
41
1
10
9.16468775446984
20
5.88590801224939
30
0
41
1
10
9.14852956001857
20
5.87657212596523
30
0
41
1
10
9.11408210674722
20
5.8635821694491
30
0
41
1
10
9.09555613582367
20
5.85988980456978
30
0
41
1
10
9.07679491924321
20
5.85988980456978
30
0
0
SPLINE
5
19B
100
AcDbEntity
8
1
62
256
6
ByLayer
370
13
48
1
60
0
100
AcDbSpline
70
4
71
3
72
32
73
28
40
0
40
0
40
0
40
0
40
0.0624999999999978
40
0.0624999999999978
40
0.124999999999996
40
0.124999999999996
40
0.249999999999988
40
0.249999999999988
40
0.312499999999986
40
0.312499999999986
40
0.343749999999986
40
0.343749999999986
40
0.374999999999987
40
0.374999999999987
40
0.499999999999989
40
0.499999999999989
40
0.562499999999993
40
0.562499999999993
40
0.624999999999996
40
0.624999999999996
40
0.749999999999998
40
0.749999999999998
40
0.812499999999998
40
0.812499999999998
40
0.874999999999999
40
0.874999999999999
40
1
40
1
40
1
40
1
41
1
10
43.3219308968312
20
-16.4642390577946
30
0
41
1
10
43.3218094183541
20
-16.4009842986146
30
0
41
1
10
43.3247334398635
20
-16.3374347985877
30
0
41
1
10
43.3368168185487
20
-16.2097689285059
30
0
41
1
10
43.3460548204071
20
-16.1453253005055
30
0
41
1
10
43.3828342022894
20
-15.9546085808741
30
0
41
1
10
43.4192724724118
20
-15.830413855347
30
0
41
1
10
43.4915668770228
20
-15.6486767143322
30
0
41
1
10
43.5186228939283
20
-15.5888614419638
30
0
41
1
10
43.563785116627
20
-15.5003463262047
30
0
41
1
10
43.5796308517713
20
-15.471002972168
30
0
41
1
10
43.612526272782
20
-15.4133405456831
30
0
41
1
10
43.6296107027865
20
-15.3849480991738
30
0
41
1
10
43.7181648770465
20
-15.2451530750976
30
0
41
1
10
43.7989540392785
20
-15.1401980317008
30
0
41
1
10
43.9350181769882
20
-14.9932394925362
30
0
41
1
10
43.9830046811156
20
-14.9458875271427
30
0
41
1
10
44.0835561859325
20
-14.8553869728165
30
0
41
1
10
44.135582968106
20
-14.8126992881747
30
0
41
1
10
44.2967320502189
20
-14.6920941081107
30
0
41
1
10
44.4108853648845
20
-14.6215773167598
30
0
41
1
10
44.592201269774
20
-14.5308161992949
30
0
41
1
10
44.6546641498495
20
-14.502957122964
30
0
41
1
10
44.7812228437654
20
-14.4531855682094
30
0
41
1
10
44.8452305455852
20
-14.4312648328509
30
0
41
1
10
45.0393642693297
20
-14.3741379013101
30
0
41
1
10
45.1715870049191
20
-14.3475077089097
30
0
41
1
10
45.3065973835964
20
-14.3324144107146
30
0
0
SPLINE
5
19C
100
AcDbEntity
8
1
62
256
6
ByLayer
370
18
48
1
60
0
100
AcDbSpline
70
4
71
3
72
8
73
4
40
0
40
0
40
0
40
0
40
1
40
1
40
1
40
1
41
1
10
54.0525272397651
20
-21.3139411529261
30
0
41
1
10
54.0479196883987
20
-21.3123019208681
30
0
41
1
10
54.0433362827154
20
-21.3106641195912
30
0
41
1
10
54.0387767285251
20
-21.3090277316629
30
0
0
SPLINE
5
19D
100
AcDbEntity
8
1
62
256
6
ByLayer
370
18
48
1
60
0
100
AcDbSpline
70
4
71
3
72
8
73
4
40
0
40
0
40
0
40
0
40
1
40
1
40
1
40
1
41
1
10
43.8399676473988
20
-20.4818690254142
30
0
41
1
10
43.9433963253501
20
-20.4878329312243
30
0
41
1
10
44.0473763714288
20
-20.4940000225696
30
0
41
1
10
44.1518531692671
20
-20.5003501726865
30
0
0
SPLINE
5
19E
100
AcDbEntity
8
1
62
256
6
ByLayer
370
13
48
1
60
0
100
AcDbSpline
70
4
71
1
72
4
73
2
40
0
40
0
40
1
40
1
41
1
10
54.0439291799765
20
-23.0329609073756
30
0
41
1
10
54.3125416305316
20
-26.3125872674314
30
0
0
SPLINE
5
19F
100
AcDbEntity
8
1
62
256
6
ByLayer
370
18
48
1
60
0
100
AcDbSpline
70
4
71
3
72
28
73
24
40
0
40
0
40
0
40
0
40
0.0624999999999976
40
0.0624999999999976
40
0.124999999999995
40
0.124999999999995
40
0.187499999999993
40
0.187499999999993
40
0.249999999999991
40
0.249999999999991
40
0.312499999999988
40
0.312499999999988
40
0.374999999999986
40
0.374999999999986
40
0.437499999999983
40
0.437499999999983
40
0.499999999999981
40
0.499999999999981
40
0.624999999999988
40
0.624999999999988
40
0.749999999999996
40
0.749999999999996
40
1
40
1
40
1
40
1
41
1
10
52.4087452316316
20
-18.0166019478139
30
0
41
1
10
52.4211890402885
20
-17.9815235747974
30
0
41
1
10
52.430085702125
20
-17.9454747235004
30
0
41
1
10
52.4405555866566
20
-17.8713675370751
30
0
41
1
10
52.442041474343
20
-17.8328603689857
30
0
41
1
10
52.4373800124717
20
-17.7573700537991
30
0
41
1
10
52.4313620634768
20
-17.7200784278795
30
0
41
1
10
52.412385639044
20
-17.6463493270552
30
0
41
1
10
52.3995491983184
20
-17.6105342687321
30
0
41
1
10
52.3685412764049
20
-17.5419925488697
30
0
41
1
10
52.3501452043882
20
-17.5088118081109
30
0
41
1
10
52.3092435348287
20
-17.4460410027575
30
0
41
1
10
52.286848347106
20
-17.4165233011975
30
0
41
1
10
52.2387886806606
20
-17.3606008867091
30
0
41
1
10
52.2131192445359
20
-17.3342010339742
30
0
41
1
10
52.1588707428623
20
-17.2841461017371
30
0
41
1
10
52.1303264692353
20
-17.2605576269237
30
0
41
1
10
52.0426260941655
20
-17.1948169899435
30
0
41
1
10
51.9808232510964
20
-17.1570477966633
30
0
41
1
10
51.8518895074958
20
-17.0909100215762
30
0
41
1
10
51.7843072686614
20
-17.0624635525276
30
0
41
1
10
51.5792493332514
20
-16.9908990273854
30
0
41
1
10
51.4386039847475
20
-16.9604941918043
30
0
41
1
10
51.2947124730515
20
-16.943362919058
30
0
0
SPLINE
5
1A0
100
AcDbEntity
8
1
62
256
6
ByLayer
370
18
48
1
60
0
100
AcDbSpline
70
4
71
3
72
22
73
18
40
0
40
0
40
0
40
0
40
0.125
40
0.125
40
0.25
40
0.25
40
0.375
40
0.375
40
0.5
40
0.5
40
0.625
40
0.625
40
0.75
40
0.75
40
0.875
40
0.875
40
1
40
1
40
1
40
1
41
1
10
53.0951153494979
20
-25.4198642473371
30
0
41
1
10
53.1166222514443
20
-25.4214225340188
30
0
41
1
10
53.1379668843754
20
-25.4206003200455
30
0
41
1
10
53.1803416789983
20
-25.4143670400284
30
0
41
1
10
53.2015930792872
20
-25.4088376438378
30
0
41
1
10
53.2419423834981
20
-25.3935104475426
30
0
41
1
10
53.2612062888836
20
-25.3837397667971
30
0
41
1
10
53.2978564659883
20
-25.3598663229582
30
0
41
1
10
53.3148185671242
20
-25.3459997031626
30
0
41
1
10
53.3453613899119
20
-25.3151021276837
30
0
41
1
10
53.3592047658526
20
-25.2977432691098
30
0
41
1
10
53.3826202378075
20
-25.2608633909702
30
0
41
1
10
53.3922630787254
20
-25.2413750605321
30
0
41
1
10
53.4073697825914
20
-25.2002761092744
30
0
41
1
10
53.41269448837
20
-25.1788809185923
30
0
41
1
10
53.4186047167
20
-25.1359540611312
30
0
41
1
10
53.4192602469924
20
-25.1140496215237
30
0
41
1
10
53.4175005831438
20
-25.0922344436709
30
0
0
SPLINE
5
1A1
100
AcDbEntity
8
1
62
256
6
ByLayer
370
18
48
1
60
0
100
AcDbSpline
70
4
71
3
72
24
73
20
40
0
40
0
40
0
40
0
40
0.250000000000006
40
0.250000000000006
40
0.375000000000014
40
0.375000000000014
40
0.500000000000022
40
0.500000000000022
40
0.56250000000002
40
0.56250000000002
40
0.625000000000018
40
0.625000000000018
40
0.750000000000024
40
0.750000000000024
40
0.812500000000018
40
0.812500000000018
40
0.875000000000012
40
0.875000000000012
40
1
40
1
40
1
40
1
41
1
10
51.6126382116595
20
-20.1897456814212
30
0
41
1
10
51.5901019230351
20
-20.2492475626668
30
0
41
1
10
51.5728565059989
20
-20.3098403700048
30
0
41
1
10
51.5610337618664
20
-20.4027079735602
30
0
41
1
10
51.5595737541285
20
-20.4333911746361
30
0
41
1
10
51.5629762847555
20
-20.49406269049
30
0
41
1
10
51.5679948142491
20
-20.52443456814
30
0
41
1
10
51.5811523166647
20
-20.5671737357351
30
0
41
1
10
51.5864584926948
20
-20.5809951315083
30
0
41
1
10
51.5990081799979
20
-20.6077433047086
30
0
41
1
10
51.6063167097866
20
-20.620761645644
30
0
41
1
10
51.6308173721091
20
-20.6576499578063
30
0
41
1
10
51.6503951530287
20
-20.6792482486536
30
0
41
1
10
51.6840857814716
20
-20.707655072843
30
0
41
1
10
51.6960297555396
20
-20.7164281835938
30
0
41
1
10
51.7206032331908
20
-20.7323193606267
30
0
41
1
10
51.7333106280172
20
-20.7395065578051
30
0
41
1
10
51.7725337653857
20
-20.7590832658884
30
0
41
1
10
51.8001420277679
20
-20.7695030970979
30
0
41
1
10
51.8289294972086
20
-20.7777969621564
30
0
0
SPLINE
5
1A2
100
AcDbEntity
8
1
62
256
6
ByLayer
370
13
48
1
60
0
100
AcDbSpline
70
4
71
3
72
8
73
4
40
0
40
0
40
0
40
0
40
1
40
1
40
1
40
1
41
1
10
49.155221219716
20
-21.7173534075658
30
0
41
1
10
49.1538109304642
20
-21.700652149653
30
0
41
1
10
49.1526112685284
20
-21.6839563448171
30
0
41
1
10
49.1515942594203
20
-21.6672689242106
30
0
0
SPLINE
5
1A3
100
AcDbEntity
8
1
62
256
6
ByLayer
370
18
48
1
60
0
100
AcDbSpline
70
4
71
3
72
24
73
20
40
0
40
0
40
0
40
0
40
0.125000000000004
40
0.125000000000004
40
0.187500000000002
40
0.187500000000002
40
0.249999999999999
40
0.249999999999999
40
0.375
40
0.375
40
0.5
40
0.5
40
0.625
40
0.625
40
0.75
40
0.75
40
0.875
40
0.875
40
1
40
1
40
1
40
1
41
1
10
44.5782502572086
20
-20.4245093545275
30
0
41
1
10
44.6263497286685
20
-20.404092217683
30
0
41
1
10
44.6729083309346
20
-20.3798819152057
30
0
41
1
10
44.7403672127494
20
-20.3377778559397
30
0
41
1
10
44.7625520635479
20
-20.3226989392011
30
0
41
1
10
44.8055378040401
20
-20.2909456982092
30
0
41
1
10
44.8263256964808
20
-20.2742959456455
30
0
41
1
10
44.8866174151416
20
-20.2220800192301
30
0
41
1
10
44.9240624995238
20
-20.1842616115636
30
0
41
1
10
44.9933551902079
20
-20.1025309669689
30
0
41
1
10
45.0252948382329
20
-20.0583372583164
30
0
41
1
10
45.0811925439985
20
-19.9668119221203
30
0
41
1
10
45.1054742140191
20
-19.9191642773231
30
0
41
1
10
45.1466512877992
20
-19.8200736373709
30
0
41
1
10
45.16360448361
20
-19.7681938895062
30
0
41
1
10
45.1888113288128
20
-19.6639330812289
30
0
41
1
10
45.1972482390525
20
-19.6112813853941
30
0
41
1
10
45.2058346420032
20
-19.5049390447917
30
0
41
1
10
45.205944691473
20
-19.4509530991541
30
0
41
1
10
45.2017222044247
20
-19.397365988693
30
0
0
SPLINE
5
1A4
100
AcDbEntity
8
1
62
256
6
ByLayer
370
13
48
1
60
0
100
AcDbSpline
70
4
71
3
72
22
73
18
40
0
40
0
40
0
40
0
40
0.124999999999994
40
0.124999999999994
40
0.249999999999987
40
0.249999999999987
40
0.312499999999984
40
0.312499999999984
40
0.37499999999998
40
0.37499999999998
40
0.499999999999981
40
0.499999999999981
40
0.624999999999981
40
0.624999999999981
40
0.749999999999982
40
0.749999999999982
40
1
40
1
40
1
40
1
41
1
10
49.6578513548568
20
-21.7924706437384
30
0
41
1
10
49.6497785136401
20
-21.8436392892661
30
0
41
1
10
49.6387737815242
20
-21.8945381407156
30
0
41
1
10
49.61104721347
20
-21.9935190990777
30
0
41
1
10
49.5943251522303
20
-22.0417623384772
30
0
41
1
10
49.564800092516
20
-22.1121829351797
30
0
41
1
10
49.5542169082304
20
-22.1353318784
30
0
41
1
10
49.5315265536794
20
-22.1809611793987
30
0
41
1
10
49.519355793545
20
-22.2035467304622
30
0
41
1
10
49.4809999872752
20
-22.2693922810705
30
0
41
1
10
49.4530858505086
20
-22.3106403041097
30
0
41
1
10
49.3929866576424
20
-22.3882375414204
30
0
41
1
10
49.360800193977
20
-22.4245852152679
30
0
41
1
10
49.2924415963401
20
-22.492627227055
30
0
41
1
10
49.256062873155
20
-22.5244335865791
30
0
41
1
10
49.1446223209316
20
-22.6107250666235
30
0
41
1
10
49.0664361672492
20
-22.6572092190058
30
0
41
1
10
48.9854946395249
20
-22.6950034399882
30
0
0
SPLINE
5
1A5
100
AcDbEntity
8
1
62
256
6
ByLayer
370
18
48
1
60
0
100
AcDbSpline
70
4
71
3
72
12
73
8
40
0
40
0
40
0
40
0
40
0.499999999999979
40
0.499999999999979
40
0.749999999999989
40
0.749999999999989
40
1
40
1
40
1
40
1
41
1
10
44.1518531692671
20
-20.5003501726865
30
0
41
1
10
44.2241386336534
20
-20.5047437180442
30
0
41
1
10
44.2959206220153
20
-20.5004539472979
30
0
41
1
10
44.4030408529009
20
-20.4813497342334
30
0
41
1
10
44.4388048112642
20
-20.4728000032416
30
0
41
1
10
44.5092036607221
20
-20.4516641420269
30
0
41
1
10
44.5439215691026
20
-20.4390811055567
30
0
41
1
10
44.5782502572086
20
-20.4245093545275
30
0
0
SPLINE
5
1A6
100
AcDbEntity
8
1
62
256
6
ByLayer
370
13
48
1
60
0
100
AcDbSpline
70
4
71
3
72
8
73
4
40
0
40
0
40
0
40
0
40
1
40
1
40
1
40
1
41
1
10
51.0331323885587
20
-26.0431418542978
30
0
41
1
10
51.0116061131321
20
-26.2744283938335
30
0
41
1
10
50.9900798377054
20
-26.5057149333692
30
0
41
1
10
50.9685535622787
20
-26.7370014729048
30
0
0
SPLINE
5
1A7
100
AcDbEntity
8
1
62
256
6
ByLayer
370
18
48
1
60
0
100
AcDbSpline
70
4
71
3
72
8
73
4
40
0
40
0
40
0
40
0
40
1
40
1
40
1
40
1
41
1
10
54.729713008235
20
-22.8524487045649
30
0
41
1
10
54.6201405153205
20
-22.8432709489529
30
0
41
1
10
54.510742249316
20
-22.8342695689548
30
0
41
1
10
54.4015009519858
20
-22.8254270934928
30
0
0
SPLINE
5
1A8
100
AcDbEntity
8
1
62
256
6
ByLayer
370
18
48
1
60
0
100
AcDbSpline
70
4
71
3
72
12
73
8
40
0
40
0
40
0
40
0
40
0.500000000000021
40
0.500000000000021
40
0.75000000000001
40
0.75000000000001
40
1
40
1
40
1
40
1
41
1
10
44.1565607645785
20
-20.9785204957853
30
0
41
1
10
44.1066480316966
20
-20.9173295367867
30
0
41
1
10
44.0559550613032
20
-20.853696276334
30
0
41
1
10
43.9789429494245
20
-20.755201774452
30
0
41
1
10
43.9531052504027
20
-20.7218454586425
30
0
41
1
10
43.9023264943432
20
-20.655713372039
30
0
41
1
10
43.8772248936699
20
-20.6227331314995
30
0
41
1
10
43.8523973222365
20
-20.5898345946284
30
0
0
SPLINE
5
1A9
100
AcDbEntity
8
1
62
256
6
ByLayer
370
18
48
1
60
0
100
AcDbSpline
70
4
71
3
72
12
73
8
40
0
40
0
40
0
40
0
40
0.500000000000007
40
0.500000000000007
40
0.750000000000004
40
0.750000000000004
40
1
40
1
40
1
40
1
41
1
10
54.484740244608
20
-22.3932620765521
30
0
41
1
10
54.5147672879255
20
-22.4440507659756
30
0
41
1
10
54.5504116103544
20
-22.4998120292135
30
0
41
1
10
54.6108806820211
20
-22.5896528123839
30
0
41
1
10
54.6322465418701
20
-22.6206698944232
30
0
41
1
10
54.676236054972
20
-22.6832505057194
30
0
41
1
10
54.6989827951306
20
-22.7149989109833
30
0
41
1
10
54.722445594047
20
-22.7471835308647
30
0
0
SPLINE
5
1AA
100
AcDbEntity
8
1
62
256
6
ByLayer
370
18
48
1
60
0
100
AcDbSpline
70
4
71
3
72
8
73
4
40
0
40
0
40
0
40
0
40
1
40
1
40
1
40
1
41
1
10
54.722445594047
20
-22.7471835308648
30
0
41
1
10
54.7245814236399
20
-22.7815837776379
30
0
41
1
10
54.727002014346
20
-22.8166676538763
30
0
41
1
10
54.729713008235
20
-22.8524487045649
30
0
0
SPLINE
5
1AB
100
AcDbEntity
8
1
62
256
6
ByLayer
370
13
48
1
60
0
100
AcDbSpline
70
4
71
3
72
22
73
18
40
0
40
0
40
0
40
0
40
0.249999999999986
40
0.249999999999986
40
0.499999999999971
40
0.499999999999971
40
0.562499999999972
40
0.562499999999972
40
0.624999999999972
40
0.624999999999972
40
0.687499999999973
40
0.687499999999973
40
0.749999999999973
40
0.749999999999973
40
0.874999999999987
40
0.874999999999987
40
1
40
1
40
1
40
1
41
1
10
50.1361090535433
20
-21.3580911393324
30
0
41
1
10
50.0777448574826
20
-21.3607532891485
30
0
41
1
10
50.020096220203
20
-21.3674026692322
30
0
41
1
10
49.9072226148942
20
-21.3942842549193
30
0
41
1
10
49.8511910202023
20
-21.4148858383035
30
0
41
1
10
49.7898574834743
20
-21.4548137854026
30
0
41
1
10
49.7779394107351
20
-21.4635903490189
30
0
41
1
10
49.7555988512964
20
-21.482400758766
30
0
41
1
10
49.7451154180661
20
-21.4924643916928
30
0
41
1
10
49.7256291285075
20
-21.5140096803976
30
0
41
1
10
49.7165632351234
20
-21.5255918784915
30
0
41
1
10
49.7003854864924
20
-21.5497668330036
30
0
41
1
10
49.6932864605282
20
-21.5623028445475
30
0
41
1
10
49.6748071818098
20
-21.6011864317186
30
0
41
1
10
49.6662271261577
20
-21.6291313712796
30
0
41
1
10
49.6562732862623
20
-21.685684769236
30
0
41
1
10
49.6547529952649
20
-21.7145591903545
30
0
41
1
10
49.6559121990719
20
-21.7432690564706
30
0
0
SPLINE
5
1AC
100
AcDbEntity
8
1
62
256
6
ByLayer
370
18
48
1
60
0
100
AcDbSpline
70
4
71
3
72
34
73
30
40
0
40
0
40
0
40
0
40
0.0625000000000014
40
0.0625000000000014
40
0.0937500000000021
40
0.0937500000000021
40
0.125000000000003
40
0.125000000000003
40
0.187500000000004
40
0.187500000000004
40
0.218750000000002
40
0.218750000000002
40
0.25
40
0.25
40
0.312500000000001
40
0.312500000000001
40
0.375000000000001
40
0.375000000000001
40
0.437500000000001
40
0.437500000000001
40
0.500000000000002
40
0.500000000000002
40
0.625000000000006
40
0.625000000000006
40
0.687500000000008
40
0.687500000000008
40
0.75000000000001
40
0.75000000000001
40
1
40
1
40
1
40
1
41
1
10
46.9873817440312
20
-25.7500325686886
30
0
41
1
10
46.9772551288035
20
-25.7866633257024
30
0
41
1
10
46.9698166941933
20
-25.8236179985054
30
0
41
1
10
46.9627017286557
20
-25.8795359033392
30
0
41
1
10
46.9610068715829
20
-25.8982565673782
30
0
41
1
10
46.9590113572198
20
-25.9358655073384
30
0
41
1
10
46.9587237296983
20
-25.9547085627501
30
0
41
1
10
46.9599412029797
20
-26.0100913802012
30
0
41
1
10
46.9634809364333
20
-26.0459622779123
30
0
41
1
10
46.9726024145251
20
-26.098318205363
30
0
41
1
10
46.9763032898431
20
-26.1155969651358
30
0
41
1
10
46.9848077262292
20
-26.1490996453285
30
0
41
1
10
46.9896150234835
20
-26.1653787722489
30
0
41
1
10
47.0055797790188
20
-26.2129167259453
30
0
41
1
10
47.0183251579706
20
-26.2429845166901
30
0
41
1
10
47.0472920543244
20
-26.2996347011025
30
0
41
1
10
47.0632822253536
20
-26.325813895056
30
0
41
1
10
47.0978114428848
20
-26.374651926161
30
0
41
1
10
47.1163545044905
20
-26.397304619602
30
0
41
1
10
47.1557295155439
20
-26.4395491949671
30
0
41
1
10
47.1766642156449
20
-26.4592069551781
30
0
41
1
10
47.2414060766315
20
-26.5130686100153
30
0
41
1
10
47.2873871519957
20
-26.542602674867
30
0
41
1
10
47.3598516808927
20
-26.5796518079379
30
0
41
1
10
47.3845955417092
20
-26.5907735761654
30
0
41
1
10
47.4351979331671
20
-26.6107795906449
30
0
41
1
10
47.4611223845932
20
-26.6196785296974
30
0
41
1
10
47.5921008683953
20
-26.6586004555895
30
0
41
1
10
47.7018216047344
20
-26.6727641928399
30
0
41
1
10
47.8159174702431
20
-26.6739271613884
30
0
0
SPLINE
5
1AD
100
AcDbEntity
8
1
62
256
6
ByLayer
370
13
48
1
60
0
100
AcDbSpline
70
4
71
3
72
22
73
18
40
0
40
0
40
0
40
0
40
0.125000000000011
40
0.125000000000011
40
0.250000000000022
40
0.250000000000022
40
0.31250000000002
40
0.31250000000002
40
0.375000000000019
40
0.375000000000019
40
0.500000000000012
40
0.500000000000012
40
0.625000000000005
40
0.625000000000005
40
0.749999999999999
40
0.749999999999999
40
1
40
1
40
1
40
1
41
1
10
49.1515942594203
20
-21.6672689242106
30
0
41
1
10
49.1602315435861
20
-21.6163955406449
30
0
41
1
10
49.172305069351
20
-21.5660557786662
30
0
41
1
10
49.203209467839
20
-21.4687371538495
30
0
41
1
10
49.2220379270375
20
-21.421595778146
30
0
41
1
10
49.2555572545249
20
-21.3532645960447
30
0
41
1
10
49.2676113546682
20
-21.3308850937445
30
0
41
1
10
49.2935373490473
20
-21.2869483665754
30
0
41
1
10
49.3074823874467
20
-21.2652909463043
30
0
41
1
10
49.351551649676
20
-21.2024341232885
30
0
41
1
10
49.3837764173837
20
-21.1634410054636
30
0
41
1
10
49.4534870051085
20
-21.0908715203959
30
0
41
1
10
49.4909744801519
20
-21.0572968230246
30
0
41
1
10
49.5709460915108
20
-20.9953296168873
30
0
41
1
10
49.6136762440985
20
-20.9668457109607
30
0
41
1
10
49.7451383072908
20
-20.8910275491146
30
0
41
1
10
49.8380928571629
20
-20.8522687933227
30
0
41
1
10
49.9351654686795
20
-20.8229127952946
30
0
0
SPLINE
5
1AE
100
AcDbEntity
8
1
62
256
6
ByLayer
370
18
48
1
60
0
100
AcDbSpline
70
4
71
3
72
28
73
24
40
0
40
0
40
0
40
0
40
0.0702979228870697
40
0.0702979228870697
40
0.14059584577414
40
0.14059584577414
40
0.210893768661209
40
0.210893768661209
40
0.281191691548279
40
0.281191691548279
40
0.351489614435349
40
0.351489614435349
40
0.421787537322418
40
0.421787537322418
40
0.492085460209488
40
0.492085460209488
40
0.562383383096558
40
0.562383383096558
40
0.702979228870696
40
0.702979228870696
40
0.843575074644834
40
0.843575074644834
40
1
40
1
40
1
40
1
41
1
10
54.4795809737328
20
-17.2966787189645
30
0
41
1
10
54.4866287494285
20
-17.2598865565572
30
0
41
1
10
54.4922792216834
20
-17.222803041812
30
0
41
1
10
54.5006552496593
20
-17.1480288158342
30
0
41
1
10
54.5033689461477
20
-17.1099133778887
30
0
41
1
10
54.5055651508841
20
-17.0366052266221
30
0
41
1
10
54.5051184422122
20
-17.0010852340187
30
0
41
1
10
54.5013813663701
20
-16.9321803081569
30
0
41
1
10
54.4981084562786
20
-16.8993841888958
30
0
41
1
10
54.4893425639605
20
-16.8378225434569
30
0
41
1
10
54.4837847939077
20
-16.808652756992
30
0
41
1
10
54.4710077956755
20
-16.7546083896558
30
0
41
1
10
54.4638275171456
20
-16.7297843040114
30
0
41
1
10
54.4482388755972
20
-16.6838049789542
30
0
41
1
10
54.4398281239743
20
-16.6626554409867
30
0
41
1
10
54.4220105930443
20
-16.6235961441534
30
0
41
1
10
54.4126152710832
20
-16.60574533547
30
0
41
1
10
54.3838285904308
20
-16.5575155922842
30
0
41
1
10
54.3636522693695
20
-16.5319367838663
30
0
41
1
10
54.3222531068365
20
-16.4910086319807
30
0
41
1
10
54.300889048959
20
-16.4756669602251
30
0
41
1
10
54.256220632106
20
-16.4530893000173
30
0
41
1
10
54.2328821230921
20
-16.4466871165072
30
0
41
1
10
54.2098406815429
20
-16.445068921664
30
0
0
SPLINE
5
1AF
100
AcDbEntity
8
1
62
256
6
ByLayer
370
13
48
1
60
0
100
AcDbSpline
70
4
71
1
72
4
73
2
40
0
40
0
40
1
40
1
41
1
10
51.1167350454799
20
-26.0498441384733
30
0
41
1
10
54.3125416305316
20
-26.3125872674314
30
0
0
SPLINE
5
1B0
100
AcDbEntity
8
1
62
256
6
ByLayer
370
13
48
1
60
0
100
AcDbSpline
70
4
71
3
72
8
73
4
40
0
40
0
40
0
40
0
40
1
40
1
40
1
40
1
41
1
10
51.1167350454799
20
-26.0498441384733
30
0
41
1
10
51.0887971321868
20
-26.0475472238886
30
0
41
1
10
51.0609212622516
20
-26.0453124623532
30
0
41
1
10
51.0331323885587
20
-26.0431418542978
30
0
0
SPLINE
5
1B1
100
AcDbEntity
8
1
62
256
6
ByLayer
370
18
48
1
60
0
100
AcDbSpline
70
4
71
3
72
24
73
20
40
0
40
0
40
0
40
0
40
0.124999999999986
40
0.124999999999986
40
0.187499999999984
40
0.187499999999984
40
0.249999999999982
40
0.249999999999982
40
0.374999999999985
40
0.374999999999985
40
0.499999999999988
40
0.499999999999988
40
0.624999999999991
40
0.624999999999991
40
0.749999999999994
40
0.749999999999994
40
0.874999999999997
40
0.874999999999997
40
1
40
1
40
1
40
1
41
1
10
53.9566573690015
20
-22.8916184894616
30
0
41
1
10
53.9071324566345
20
-22.9112899734822
30
0
41
1
10
53.8593389784973
20
-22.9348543083323
30
0
41
1
10
53.7902666661977
20
-22.9761143768084
30
0
41
1
10
53.7675819319671
20
-22.9909318028805
30
0
41
1
10
53.7236809296186
20
-23.0222062673869
30
0
41
1
10
53.7024775703301
20
-23.038638687877
30
0
41
1
10
53.6410483842682
20
-23.090259601356
30
0
41
1
10
53.6029896017288
20
-23.1277569814993
30
0
41
1
10
53.5326843725116
20
-23.2089579638591
30
0
41
1
10
53.5003458522787
20
-23.2529430211485
30
0
41
1
10
53.4438268842055
20
-23.3441433729895
30
0
41
1
10
53.4193177324074
20
-23.3916720213212
30
0
41
1
10
53.3777975165013
20
-23.4905831624993
30
0
41
1
10
53.3607286362576
20
-23.5424023954569
30
0
41
1
10
53.3353774120693
20
-23.6465876786123
30
0
41
1
10
53.3269100874124
20
-23.6992234645655
30
0
41
1
10
53.3183353410498
20
-23.8055719027675
30
0
41
1
10
53.3182679171071
20
-23.8595801459584
30
0
41
1
10
53.3225776926598
20
-23.9132129173232
30
0
0
SPLINE
5
1B2
100
AcDbEntity
8
1
62
256
6
ByLayer
370
18
48
1
60
0
100
AcDbSpline
70
4
71
3
72
8
73
4
40
0
40
0
40
0
40
0
40
1
40
1
40
1
40
1
41
1
10
44.9803500792385
20
-22.1576012160959
30
0
41
1
10
44.9848427133369
20
-22.1934670031453
30
0
41
1
10
44.9869285568244
20
-22.2295732311121
30
0
41
1
10
44.986559923133
20
-22.2659246639348
30
0
0
SPLINE
5
1B3
100
AcDbEntity
8
1
62
256
6
ByLayer
370
13
48
1
60
0
100
AcDbSpline
70
4
71
1
72
4
73
2
40
0
40
0
40
1
40
1
41
1
10
54.3125416305316
20
-26.3125872674314
30
0
41
1
10
54.3674095373279
20
-26.9824975157409
30
0
0
SPLINE
5
1B4
100
AcDbEntity
8
1
62
256
6
ByLayer
370
18
48
1
60
0
100
AcDbSpline
70
4
71
3
72
22
73
18
40
0
40
0
40
0
40
0
40
0.125
40
0.125
40
0.25
40
0.25
40
0.375
40
0.375
40
0.5
40
0.5
40
0.625
40
0.625
40
0.75
40
0.75
40
0.875
40
0.875
40
1
40
1
40
1
40
1
41
1
10
45.4285128635749
20
-17.8903632985646
30
0
41
1
10
45.4071361374365
20
-17.888873107276
30
0
41
1
10
45.3859466021621
20
-17.8897764533434
30
0
41
1
10
45.3439262572782
20
-17.896195147184
30
0
41
1
10
45.3228768691558
20
-17.9018302166029
30
0
41
1
10
45.2829493229118
20
-17.9173780358769
30
0
41
1
10
45.2639061130631
20
-17.9272641631831
30
0
41
1
10
45.2277017917142
20
-17.9513708356334
30
0
41
1
10
45.210959713251
20
-17.9653525500123
30
0
41
1
10
45.1808247218792
20
-17.9964634634453
30
0
41
1
10
45.1671726758878
20
-18.0139224073447
30
0
41
1
10
45.1440793155741
20
-18.0509707831425
30
0
41
1
10
45.1345681302984
20
-18.0705279830798
30
0
41
1
10
45.1196533828355
20
-18.1117273473629
30
0
41
1
10
45.1143869142459
20
-18.13315300211
30
0
41
1
10
45.1085099943961
20
-18.1760972833466
30
0
41
1
10
45.1078301349986
20
-18.1979889963192
30
0
41
1
10
45.1095244844137
20
-18.2197700079772
30
0
0
SPLINE
5
1B5
100
AcDbEntity
8
1
62
256
6
ByLayer
370
18
48
1
60
0
100
AcDbSpline
70
4
71
3
72
8
73
4
40
0
40
0
40
0
40
0
40
1
40
1
40
1
40
1
41
1
10
44.986559923133
20
-22.2659246639348
30
0
41
1
10
44.976834790127
20
-22.2545692135482
30
0
41
1
10
44.965430143286
20
-22.2430754892354
30
0
41
1
10
44.9525123486747
20
-22.2314571878701
30
0
0
SPLINE
5
1B6
100
AcDbEntity
8
1
62
256
6
ByLayer
370
18
48
1
60
0
100
AcDbSpline
70
4
71
3
72
8
73
4
40
0
40
0
40
0
40
0
40
1
40
1
40
1
40
1
41
1
10
43.8523973222365
20
-20.5898345946285
30
0
41
1
10
43.8475039450813
20
-20.5539918656614
30
0
41
1
10
43.8433557983004
20
-20.5180042991619
30
0
41
1
10
43.8399676473988
20
-20.4818690254142
30
0
0
SPLINE
5
1B7
100
AcDbEntity
8
1
62
256
6
ByLayer
370
18
48
1
60
0
100
AcDbSpline
70
4
71
3
72
8
73
4
40
0
40
0
40
0
40
0
40
1
40
1
40
1
40
1
41
1
10
46.0909975186553
20
-15.4333712256064
30
0
41
1
10
46.1345605888764
20
-15.4360281379428
30
0
41
1
10
46.1781941962564
20
-15.4400163492928
30
0
41
1
10
46.2219002071473
20
-15.445219850072
30
0
0
SPLINE
5
1B8
100
AcDbEntity
8
1
62
256
6
ByLayer
370
18
48
1
60
0
100
AcDbSpline
70
4
71
3
72
24
73
20
40
0
40
0
40
0
40
0
40
0.250000000000027
40
0.250000000000027
40
0.375000000000042
40
0.375000000000042
40
0.500000000000056
40
0.500000000000056
40
0.562500000000052
40
0.562500000000052
40
0.625000000000048
40
0.625000000000048
40
0.75000000000004
40
0.75000000000004
40
0.812500000000036
40
0.812500000000036
40
0.875000000000032
40
0.875000000000032
40
1
40
1
40
1
40
1
41
1
10
47.6360228061543
20
-23.4997489078122
30
0
41
1
10
47.6545559090789
20
-23.4381529469687
30
0
41
1
10
47.6674581407445
20
-23.3752882050872
30
0
41
1
10
47.6719415094376
20
-23.278581350115
30
0
41
1
10
47.6708622741536
20
-23.246569862668
30
0
41
1
10
47.6621447977724
20
-23.1831180812199
30
0
41
1
10
47.6543106791443
20
-23.1512733596389
30
0
41
1
10
47.6369061951451
20
-23.1063125820176
30
0
41
1
10
47.6301774586839
20
-23.091747040207
30
0
41
1
10
47.6147681261055
20
-23.0635029771635
30
0
41
1
10
47.6060116914097
20
-23.0497272324119
30
0
41
1
10
47.5772310859214
20
-23.0106000679116
30
0
41
1
10
47.5549028122919
20
-22.9875629852868
30
0
41
1
10
47.5172234712267
20
-22.9570696524139
30
0
41
1
10
47.503975697633
20
-22.9476145198456
30
0
41
1
10
47.4769032267212
20
-22.930416111224
30
0
41
1
10
47.4629911227754
20
-22.9225987267453
30
0
41
1
10
47.4202710771998
20
-22.9011927744847
30
0
41
1
10
47.3904869370091
20
-22.8896347344414
30
0
41
1
10
47.3596491406821
20
-22.8802683366494
30
0
0
SPLINE
5
1B9
100
AcDbEntity
8
1
62
256
6
ByLayer
370
18
48
1
60
0
100
AcDbSpline
70
4
71
3
72
8
73
4
40
0
40
0
40
0
40
0
40
1
40
1
40
1
40
1
41
1
10
54.0500349969461
20
-21.4177125106016
30
0
41
1
10
54.0485279810329
20
-21.3834085102386
30
0
41
1
10
54.0493433903037
20
-21.3488199371259
30
0
41
1
10
54.0525272397651
20
-21.3139411529261
30
0
0
SPLINE
5
1BA
100
AcDbEntity
8
1
62
256
6
ByLayer
370
18
48
1
60
0
100
AcDbSpline
70
4
71
3
72
12
73
8
40
0
40
0
40
0
40
0
40
0.499999999999998
40
0.499999999999998
40
0.749999999999999
40
0.749999999999999
40
1
40
1
40
1
40
1
41
1
10
54.1002587774838
20
-21.742937979824
30
0
41
1
10
54.0702317341663
20
-21.6921492904005
30
0
41
1
10
54.0522240240739
20
-21.6390874923293
30
0
41
1
10
54.0401959477772
20
-21.5566611024193
30
0
41
1
10
54.0387766405421
20
-21.5286970456974
30
0
41
1
10
54.0408374301053
20
-21.47316490752
30
0
41
1
10
54.0442852468402
20
-21.44542584898
30
0
41
1
10
54.050034996946
20
-21.4177125106016
30
0
0
SPLINE
5
1BB
100
AcDbEntity
8
1
62
256
6
ByLayer
370
18
48
1
60
0
100
AcDbSpline
70
4
71
3
72
12
73
8
40
0
40
0
40
0
40
0
40
0.5
40
0.5
40
0.75
40
0.75
40
1
40
1
40
1
40
1
41
1
10
54.4015009519858
20
-22.8254270934928
30
0
41
1
10
54.325919023069
20
-22.8193091567038
30
0
41
1
10
54.2507612306982
20
-22.8218330332769
30
0
41
1
10
54.1387148509126
20
-22.8383603616597
30
0
41
1
10
54.1013386633645
20
-22.8460667302654
30
0
41
1
10
54.0280266483565
20
-22.8656787050054
30
0
41
1
10
53.9920033971079
20
-22.8775789123306
30
0
41
1
10
53.9566573690015
20
-22.8916184894616
30
0
0
SPLINE
5
1BC
100
AcDbEntity
8
1
62
256
6
ByLayer
370
13
48
1
60
0
100
AcDbSpline
70
4
71
1
72
4
73
2
40
0
40
0
40
1
40
1
41
1
10
54.3125416305316
20
-26.3125872674314
30
0
41
1
10
54.9824455368411
20
-26.3676633941496
30
0
0
SPLINE
5
1BD
100
AcDbEntity
8
1
62
256
6
ByLayer
370
18
48
1
60
0
100
AcDbSpline
70
4
71
3
72
24
73
20
40
0
40
0
40
0
40
0
40
0.124999999999996
40
0.124999999999996
40
0.187499999999996
40
0.187499999999996
40
0.249999999999996
40
0.249999999999996
40
0.374999999999997
40
0.374999999999997
40
0.499999999999997
40
0.499999999999997
40
0.624999999999998
40
0.624999999999998
40
0.749999999999999
40
0.749999999999999
40
0.874999999999999
40
0.874999999999999
40
1
40
1
40
1
40
1
41
1
10
44.8903074169135
20
-22.2863430011188
30
0
41
1
10
44.8810192418058
20
-22.3045270011649
30
0
41
1
10
44.8713951469894
20
-22.3266121541247
30
0
41
1
10
44.8565649223733
20
-22.3656880488592
30
0
41
1
10
44.8515326508868
20
-22.3797800349964
30
0
41
1
10
44.8414841831509
20
-22.4096381206407
30
0
41
1
10
44.8364728924463
20
-22.4253801140414
30
0
41
1
10
44.82150987868
20
-22.4749879029186
30
0
41
1
10
44.8116284215602
20
-22.5112203457728
30
0
41
1
10
44.7922308437871
20
-22.5900801093826
30
0
41
1
10
44.7826736718547
20
-22.6329859679579
30
0
41
1
10
44.7647607515548
20
-22.7223257234037
30
0
41
1
10
44.7563199247284
20
-22.7690619126923
30
0
41
1
10
44.7405972854588
20
-22.8666879472402
30
0
41
1
10
44.7332709904922
20
-22.9180137794012
30
0
41
1
10
44.7203658559834
20
-23.0215667679092
30
0
41
1
10
44.7147297218006
20
-23.0740573117942
30
0
41
1
10
44.7051041734302
20
-23.1804594430786
30
0
41
1
10
44.7011012442467
20
-23.2346693784758
30
0
41
1
10
44.6980123594041
20
-23.2886771729942
30
0
0
SPLINE
5
1BE
100
AcDbEntity
8
1
62
256
6
ByLayer
370
13
48
1
60
0
100
AcDbSpline
70
4
71
1
72
4
73
2
40
0
40
0
40
1
40
1
41
1
10
54.7378201267351
20
-22.9685997112191
30
0
41
1
10
54.0439291799765
20
-23.0329609073756
30
0
0
SPLINE
5
1BF
100
AcDbEntity
8
1
62
256
6
ByLayer
370
18
48
1
60
0
100
AcDbSpline
70
4
71
3
72
12
73
8
40
0
40
0
40
0
40
0
40
0.500000000000007
40
0.500000000000007
40
0.750000000000003
40
0.750000000000003
40
1
40
1
40
1
40
1
41
1
10
44.7956686701993
20
-21.7620405194442
30
0
41
1
10
44.8455814030812
20
-21.8232314784428
30
0
41
1
10
44.8850345576629
20
-21.8875114590171
30
0
41
1
10
44.9311752155852
20
-21.9877822525031
30
0
41
1
10
44.9443009734937
20
-22.0218699920512
30
0
41
1
10
44.9657318644331
20
-22.0896907055163
30
0
41
1
10
44.9741396698846
20
-22.1236314789912
30
0
41
1
10
44.9803500792387
20
-22.1576012160959
30
0
0
SPLINE
5
1C0
100
AcDbEntity
8
1
62
256
6
ByLayer
370
13
48
1
60
0
100
AcDbSpline
70
4
71
3
72
8
73
4
40
0
40
0
40
0
40
0
40
1
40
1
40
1
40
1
41
1
10
49.655912199072
20
-21.7432690564706
30
0
41
1
10
49.6565706578833
20
-21.7595770294088
30
0
41
1
10
49.6572060903053
20
-21.7759776839314
30
0
41
1
10
49.6578513548568
20
-21.7924706437384
30
0
0
SPLINE
5
1C1
100
AcDbEntity
8
1
62
256
6
ByLayer
370
13
48
1
60
0
100
AcDbSpline
70
4
71
3
72
22
73
18
40
0
40
0
40
0
40
0
40
0.249999999999973
40
0.249999999999973
40
0.499999999999947
40
0.499999999999947
40
0.562499999999953
40
0.562499999999953
40
0.62499999999996
40
0.62499999999996
40
0.687499999999967
40
0.687499999999967
40
0.749999999999973
40
0.749999999999973
40
0.874999999999987
40
0.874999999999987
40
1
40
1
40
1
40
1
41
1
10
48.7232259801424
20
-22.1277457478951
30
0
41
1
10
48.7775438272344
20
-22.1229669396331
30
0
41
1
10
48.8311314945612
20
-22.1141932528189
30
0
41
1
10
48.9356083961954
20
-22.0829193238396
30
0
41
1
10
48.9872430371812
20
-22.0600176795191
30
0
41
1
10
49.0430103070738
20
-22.0171779999422
30
0
41
1
10
49.0538021255896
20
-22.0078122890396
30
0
41
1
10
49.0739238744867
20
-21.987841212205
30
0
41
1
10
49.0833096530358
20
-21.9772033925065
30
0
41
1
10
49.1006222761702
20
-21.9545210517503
30
0
41
1
10
49.1086036556855
20
-21.9423715408869
30
0
41
1
10
49.1226783103701
20
-21.9170964510186
30
0
41
1
10
49.1287621939576
20
-21.9040294151608
30
0
41
1
10
49.1442967935476
20
-21.8636054566584
30
0
41
1
10
49.1510309744239
20
-21.8346949339348
30
0
41
1
10
49.1576718132678
20
-21.7764084942387
30
0
41
1
10
49.1577040062497
20
-21.7467556441569
30
0
41
1
10
49.155221219716
20
-21.7173534075658
30
0
0
SPLINE
5
1C2
100
AcDbEntity
8
1
62
256
6
ByLayer
370
18
48
1
60
0
100
AcDbSpline
70
4
71
3
72
8
73
4
40
0
40
0
40
0
40
0
40
1
40
1
40
1
40
1
41
1
10
44.9525123486747
20
-22.2314571878701
30
0
41
1
10
44.9487640105777
20
-22.2280859218809
30
0
41
1
10
44.9449559897244
20
-22.2262504845146
30
0
41
1
10
44.9410600013819
20
-22.2259344518089
30
0
0
SPLINE
5
1C3
100
AcDbEntity
8
1
62
256
6
ByLayer
370
18
48
1
60
0
100
AcDbSpline
70
4
71
3
72
12
73
8
40
0
40
0
40
0
40
0
40
0.267591030147206
40
0.267591030147206
40
0.633795515073603
40
0.633795515073603
40
1
40
1
40
1
40
1
41
1
10
44.9349878403554
20
-22.226646360693
30
0
41
1
10
44.9315086504022
20
-22.2277259929251
30
0
41
1
10
44.9279516826395
20
-22.2299523377527
30
0
41
1
10
44.9192984120452
20
-22.2379157830648
30
0
41
1
10
44.9140640985341
20
-22.2447088895742
30
0
41
1
10
44.9028876268638
20
-22.2624371946505
30
0
41
1
10
44.8969364058955
20
-22.2733650442483
30
0
41
1
10
44.8903074169135
20
-22.2863430011188
30
0
0
SPLINE
5
1C4
100
AcDbEntity
8
SK1
62
256
6
ByLayer
370
13
48
1
60
0
100
AcDbSpline
70
4
71
3
72
8
73
4
40
0
40
0
40
0
40
0
40
1
40
1
40
1
40
1
41
1
10
-1.31543506509499
20
3.62586927327746
30
0
41
1
10
-1.30850489189845
20
3.65726626185159
30
0
41
1
10
-1.30170669836539
20
3.68878446662461
30
0
41
1
10
-1.29503997793927
20
3.72040136697774
30
0
0
SPLINE
5
1C5
100
AcDbEntity
8
SK1
62
256
6
ByLayer
370
13
48
1
60
0
100
AcDbSpline
70
4
71
3
72
8
73
4
40
0
40
0
40
0
40
0
40
1
40
1
40
1
40
1
41
1
10
-1.29503997793932
20
-3.72039904785817
30
0
41
1
10
-1.30170669741997
20
-3.68878214845063
30
0
41
1
10
-1.30850489094851
20
-3.65726394513936
30
0
41
1
10
-1.31543506509493
20
-3.62586695867569
30
0
0
SPLINE
5
1C6
100
AcDbEntity
8
SK1
62
256
6
ByLayer
370
13
48
1
60
0
100
AcDbSpline
70
4
71
3
72
30
73
26
40
0
40
0
40
0
40
0
40
0.228691830075152
40
0.228691830075152
40
0.485794553383438
40
0.485794553383438
40
0.61434591503758
40
0.61434591503758
40
0.678621595864649
40
0.678621595864649
40
0.710759436278184
40
0.710759436278184
40
0.742897276691719
40
0.742897276691719
40
0.775035117105253
40
0.775035117105253
40
0.807172957518788
40
0.807172957518788
40
0.839310797932323
40
0.839310797932323
40
0.871448638345857
40
0.871448638345857
40
0.935724319172929
40
0.935724319172929
40
1
40
1
40
1
40
1
41
1
10
-3.85934444864E-05
20
-5.17940063584791
30
0
41
1
10
-0.0002483324020091
20
-5.12666565303573
30
0
41
1
10
-0.0013340295733997
20
-5.07366125625796
30
0
41
1
10
-0.0065891270069471
20
-4.96031235327959
30
0
41
1
10
-0.0108817796352696
20
-4.89990724368673
30
0
41
1
10
-0.0237620514060097
20
-4.80805784488891
30
0
41
1
10
-0.0290907213673677
20
-4.77727429401668
30
0
41
1
10
-0.0409398492329558
20
-4.73154031330464
30
0
41
1
10
-0.0455700272007959
20
-4.71625292098039
30
0
41
1
10
-0.0544341560852502
20
-4.69410229291989
30
0
41
1
10
-0.0577134952937399
20
-4.68683899819078
30
0
41
1
10
-0.0654016172369154
20
-4.67273255588489
30
0
41
1
10
-0.0697786680178183
20
-4.66593494073931
30
0
41
1
10
-0.0801994904742003
20
-4.65394546278461
30
0
41
1
10
-0.0862619725799334
20
-4.648849794597
30
0
41
1
10
-0.099696225572103
20
-4.64277718642498
30
0
41
1
10
-0.106908299943115
20
-4.64200850997932
30
0
41
1
10
-0.120320590680251
20
-4.6442686207989
30
0
41
1
10
-0.126437311435495
20
-4.64704757069069
30
0
41
1
10
-0.137775602820312
20
-4.65415578564142
30
0
41
1
10
-0.142913624927274
20
-4.658442154439
30
0
41
1
10
-0.15743850541412
20
-4.67252807805514
30
0
41
1
10
-0.165892378694025
20
-4.6835044974778
30
0
41
1
10
-0.181337728270819
20
-4.70640775215523
30
0
41
1
10
-0.188367958685205
20
-4.71847769476432
30
0
41
1
10
-0.194976888875288
20
-4.73091688957567
30
0
0
SPLINE
5
1C7
100
AcDbEntity
8
SK1
62
256
6
ByLayer
370
13
48
1
60
0
100
AcDbSpline
70
4
71
3
72
19
73
15
40
0
40
0
40
0
40
0
40
0.0657479444849014
40
0.131638804454117
40
0.197529664423332
40
0.263420524392547
40
0.395202244330978
40
0.526983964269409
40
0.65876568420784
40
0.79054740414627
40
0.856438264115486
40
0.922329124084701
40
0.988219984053916
40
1
40
1
40
1
40
1
41
1
10
-1.5
20
-14.0207801245671
30
0
41
1
10
-1.50000000000003
20
-14.0323118146522
30
0
41
1
10
-1.50000000000003
20
-14.008934883382
30
0
41
1
10
-1.5
20
-13.8526759849258
30
0
41
1
10
-1.50000000000003
20
-13.5878912371466
30
0
41
1
10
-1.5
20
-13.1031845097078
30
0
41
1
10
-1.50000000000003
20
-12.2683610406491
30
0
41
1
10
-1.5
20
-10.941105094373
30
0
41
1
10
-1.5
20
-9.31264866297755
30
0
41
1
10
-1.49999999999997
20
-7.71718790760855
30
0
41
1
10
-1.49999999999997
20
-6.30227096604659
30
0
41
1
10
-1.49999999999997
20
-5.172095550785
30
0
41
1
10
-1.49999999999997
20
-4.30166817802072
30
0
41
1
10
-1.49999999999997
20
-3.815177446398
30
0
41
1
10
-1.49999999999997
20
-3.74103849234589
30
0
0
SPLINE
5
1C8
100
AcDbEntity
8
SK1
62
256
6
ByLayer
370
13
48
1
60
0
100
AcDbSpline
70
4
71
3
72
18
73
14
40
0
40
0
40
0
40
0
40
0.0450403682495727
40
0.116876138148501
40
0.18871190804743
40
0.260547677946359
40
0.404219217744216
40
0.547890757542073
40
0.691562297339931
40
0.835233837137788
40
0.907069607036717
40
0.978905376935645
40
1
40
1
40
1
40
1
41
1
10
-0.194976888875317
20
-13.8569758473159
30
0
41
1
10
-0.194976888875317
20
-13.8536749771327
30
0
41
1
10
-0.194976888875317
20
-13.8227688123762
30
0
41
1
10
-0.194976888875288
20
-13.6872374766449
30
0
41
1
10
-0.194976888875317
20
-13.4249207366667
30
0
41
1
10
-0.194976888875288
20
-12.944151395321
30
0
41
1
10
-0.194976888875317
20
-12.1164719810225
30
0
41
1
10
-0.194976888875288
20
-10.7996944875049
30
0
41
1
10
-0.194976888875317
20
-9.18432410849505
30
0
41
1
10
-0.194976888875288
20
-7.60326991175296
30
0
41
1
10
-0.194976888875288
20
-6.20093243629222
30
0
41
1
10
-0.194976888875288
20
-5.34600749760216
30
0
41
1
10
-0.194976888875288
20
-4.8454706271861
30
0
41
1
10
-0.194976888875288
20
-4.73091688957567
30
0
0
SPLINE
5
1C9
100
AcDbEntity
8
SK1
62
256
6
ByLayer
370
13
48
1
60
0
100
AcDbSpline
70
4
71
3
72
34
73
30
40
0
40
0
40
0
40
0
40
0.125000000000009
40
0.125000000000009
40
0.250000000000019
40
0.250000000000019
40
0.312500000000025
40
0.312500000000025
40
0.375000000000031
40
0.375000000000031
40
0.406250000000036
40
0.406250000000036
40
0.437500000000041
40
0.437500000000041
40
0.468750000000045
40
0.468750000000045
40
0.484375000000046
40
0.484375000000046
40
0.500000000000046
40
0.500000000000046
40
0.531250000000043
40
0.531250000000043
40
0.562500000000041
40
0.562500000000041
40
0.625000000000035
40
0.625000000000035
40
0.750000000000024
40
0.750000000000024
40
1
40
1
40
1
40
1
41
1
10
-1.31543506509493
20
-3.62586695867555
30
0
41
1
10
-1.32263676021452
20
-3.59323985300574
30
0
41
1
10
-1.33019534426799
20
-3.56079722534281
30
0
41
1
10
-1.34640449527572
20
-3.49654739810489
30
0
41
1
10
-1.35503407085298
20
-3.46469756458424
30
0
41
1
10
-1.36948862898413
20
-3.41797828457382
30
0
41
1
10
-1.37455695889338
20
-3.40259876036367
30
0
41
1
10
-1.38552672703264
20
-3.37250932806757
30
0
41
1
10
-1.39141265594262
20
-3.35774150373462
30
0
41
1
10
-1.40147524655006
20
-3.33684390920993
30
0
41
1
10
-1.40504419882498
20
-3.33007837807244
30
0
41
1
10
-1.41287350176873
20
-3.31746147234935
30
0
41
1
10
-1.41715094800358
20
-3.31149841282974
30
0
41
1
10
-1.42709086562505
20
-3.30203700524723
30
0
41
1
10
-1.43303261010044
20
-3.29830471378162
30
0
41
1
10
-1.44288776528597
20
-3.29995654998368
30
0
41
1
10
-1.44620001899929
20
-3.30184440237755
30
0
41
1
10
-1.45198664061826
20
-3.30740158071305
30
0
41
1
10
-1.45451671418888
20
-3.31099866255465
30
0
41
1
10
-1.46109088365168
20
-3.32248631353937
30
0
41
1
10
-1.46434665647169
20
-3.33121736968343
30
0
41
1
10
-1.46983176423524
20
-3.34861987333625
30
0
41
1
10
-1.47206917708948
20
-3.35748802859186
30
0
41
1
10
-1.47801081226805
20
-3.38434778204913
30
0
41
1
10
-1.48091665333692
20
-3.40246996731679
30
0
41
1
10
-1.48821399872423
20
-3.45636655777409
30
0
41
1
10
-1.49121809397036
20
-3.49215025079801
30
0
41
1
10
-1.49809832208177
20
-3.59929217377743
30
0
41
1
10
-1.49965908970862
20
-3.67044323146331
30
0
41
1
10
-1.5
20
-3.74103849235181
30
0
0
SPLINE
5
1CA
100
AcDbEntity
8
SK1
62
256
6
ByLayer
370
13
48
1
60
0
100
AcDbSpline
70
4
71
3
72
42
73
38
40
0
40
0
40
0
40
0
40
0.0624999999999983
40
0.0624999999999983
40
0.124999999999997
40
0.124999999999997
40
0.156249999999996
40
0.156249999999996
40
0.187499999999995
40
0.187499999999995
40
0.203124999999995
40
0.203124999999995
40
0.218749999999994
40
0.218749999999994
40
0.249999999999994
40
0.249999999999994
40
0.265624999999994
40
0.265624999999994
40
0.281249999999993
40
0.281249999999993
40
0.312499999999993
40
0.312499999999993
40
0.343749999999993
40
0.343749999999993
40
0.374999999999993
40
0.374999999999993
40
0.406249999999992
40
0.406249999999992
40
0.437499999999992
40
0.437499999999992
40
0.499999999999993
40
0.499999999999993
40
0.624999999999995
40
0.624999999999995
40
0.749999999999996
40
0.749999999999996
40
1
40
1
40
1
40
1
41
1
10
-0.194976888875288
20
-4.73091688957567
30
0
41
1
10
-0.215341623339697
20
-4.76924698113552
30
0
41
1
10
-0.237218316180815
20
-4.80674995850583
30
0
41
1
10
-0.285637627819995
20
-4.87936236943094
30
0
41
1
10
-0.312256841613362
20
-4.91463801970454
30
0
41
1
10
-0.357314872189733
20
-4.96326033895093
30
0
41
1
10
-0.373222216218352
20
-4.97878077240594
30
0
41
1
10
-0.407620214482421
20
-5.00785490213431
30
0
41
1
10
-0.426278333479075
20
-5.02154025866272
30
0
41
1
10
-0.456728973232401
20
-5.03929581041609
30
0
41
1
10
-0.467221462481177
20
-5.04470971733861
30
0
41
1
10
-0.489046579629047
20
-5.05430336020359
30
0
41
1
10
-0.500481090897239
20
-5.05851097121612
30
0
41
1
10
-0.535557037706866
20
-5.06857604589337
30
0
41
1
10
-0.559985369554994
20
-5.07188206831177
30
0
41
1
10
-0.597392769915729
20
-5.07058983818601
30
0
41
1
10
-0.609650288010954
20
-5.06914300940412
30
0
41
1
10
-0.633782022172682
20
-5.0644080693034
30
0
41
1
10
-0.64575518603516
20
-5.0610813517562
30
0
41
1
10
-0.680359739746336
20
-5.0488699282956
30
0
41
1
10
-0.701564618709256
20
-5.03794098162751
30
0
41
1
10
-0.741527280043584
20
-5.01240263270302
30
0
41
1
10
-0.759884387516991
20
-4.99801673779945
30
0
41
1
10
-0.794046350406518
20
-4.96754313754619
30
0
41
1
10
-0.809941062305398
20
-4.95136754594435
30
0
41
1
10
-0.840062162217038
20
-4.91767567327176
30
0
41
1
10
-0.854269712065729
20
-4.90015466380902
30
0
41
1
10
-0.881036873904776
20
-4.86462395354314
30
0
41
1
10
-0.893662560981085
20
-4.84653541178713
30
0
41
1
10
-0.929821127453039
20
-4.79151423164063
30
0
41
1
10
-0.951663085997581
20
-4.75383674896293
30
0
41
1
10
-1.01277889125282
20
-4.63872353662987
30
0
41
1
10
-1.04776623358583
20
-4.5591249727598
30
0
41
1
10
-1.11108036995955
20
-4.39684201238123
30
0
41
1
10
-1.13915549199024
20
-4.31450710122508
30
0
41
1
10
-1.21629932824638
20
-4.06459314915696
30
0
41
1
10
-1.25840637569814
20
-3.89413380906427
30
0
41
1
10
-1.2950399779393
20
-3.72039904785853
30
0
0
SPLINE
5
1CB
100
AcDbEntity
8
SK1
62
256
6
ByLayer
370
13
48
1
60
0
100
AcDbSpline
70
4
71
3
72
18
73
14
40
0
40
0
40
0
40
0
40
0.0210945701136953
40
0.0929303409070446
40
0.164766111700394
40
0.308437653287092
40
0.452109194873791
40
0.59578073646049
40
0.739452278047188
40
0.811288048840538
40
0.883123819633887
40
0.954959590427236
40
1
40
1
40
1
40
1
41
1
10
-0.194976888875288
20
4.73091779437272
30
0
41
1
10
-0.194976888875288
20
4.84547122060712
30
0
41
1
10
-0.194976888875288
20
5.34600773234192
30
0
41
1
10
-0.194976888875288
20
6.20093257911884
30
0
41
1
10
-0.194976888875288
20
7.60327005928423
30
0
41
1
10
-0.194976888875288
20
9.18432423990018
30
0
41
1
10
-0.194976888875317
20
10.7996941469075
30
0
41
1
10
-0.194976888875317
20
12.1164723003589
30
0
41
1
10
-0.194976888875288
20
12.9441507808103
30
0
41
1
10
-0.194976888875317
20
13.4249208368688
30
0
41
1
10
-0.194976888875317
20
13.6872372258342
30
0
41
1
10
-0.194976888875317
20
13.8227683771156
30
0
41
1
10
-0.194976888875317
20
13.8536747842007
30
0
41
1
10
-0.194976888875317
20
13.8569757097873
30
0
0
SPLINE
5
1CC
100
AcDbEntity
8
SK1
62
256
6
ByLayer
370
13
48
1
60
0
100
AcDbSpline
70
4
71
3
72
19
73
15
40
0
40
0
40
0
40
0
40
0.0117798903382228
40
0.0776706952649159
40
0.143561500191609
40
0.209452305118302
40
0.341233914971688
40
0.473015524825074
40
0.604797134678461
40
0.736578744531847
40
0.80246954945854
40
0.868360354385233
40
0.934251159311926
40
1
40
1
40
1
40
1
41
1
10
-1.49999999999997
20
3.74104084360133
30
0
41
1
10
-1.49999999999997
20
3.81517906515174
30
0
41
1
10
-1.49999999999997
20
4.30166905260077
30
0
41
1
10
-1.5
20
5.17209546861977
30
0
41
1
10
-1.5
20
6.3022710896997
30
0
41
1
10
-1.5
20
7.71718805595961
30
0
41
1
10
-1.5
20
9.31264880772019
30
0
41
1
10
-1.5
20
10.9411047485551
30
0
41
1
10
-1.5
20
12.2683613692996
30
0
41
1
10
-1.5
20
13.1031838925468
30
0
41
1
10
-1.5
20
13.5878913365204
30
0
41
1
10
-1.50000000000003
20
13.8526757395093
30
0
41
1
10
-1.50000000000006
20
14.0089351371222
30
0
41
1
10
-1.5
20
14.0323120730506
30
0
41
1
10
-1.49999999999997
20
14.020779551658
30
0
0
SPLINE
5
1CD
100
AcDbEntity
8
SK1
62
256
6
ByLayer
370
13
48
1
60
0
100
AcDbSpline
70
4
71
3
72
37
73
33
40
0
40
0
40
0
40
0
40
0.0163154640373648
40
0.0447674548356346
40
0.0732194456339044
40
0.101671436432174
40
0.158575418028714
40
0.215479399625254
40
0.272383381221793
40
0.329287362818333
40
0.357739353616603
40
0.386191344414873
40
0.414643335213142
40
0.443095326011412
40
0.471547316809682
40
0.485773312208817
40
0.499999307607952
40
0.514225303007087
40
0.528451298406222
40
0.556903289204492
40
0.585355280002761
40
0.613807270801031
40
0.642259261599301
40
0.670711252397571
40
0.72761523399411
40
0.78451921559065
40
0.84142319718719
40
0.898327178783729
40
0.926779169581999
40
0.955231160380269
40
0.983683151178539
40
1
40
1
40
1
40
1
41
1
10
-22.5
20
-13.4958045384925
30
0
41
1
10
-22.5
20
-13.4915323206353
30
0
41
1
10
-22.5
20
-13.46069835217
30
0
41
1
10
-22.5
20
-13.3308795934982
30
0
41
1
10
-22.5
20
-13.0738789920944
30
0
41
1
10
-22.4999999999999
20
-12.6015908597962
30
0
41
1
10
-22.5
20
-11.7892998835215
30
0
41
1
10
-22.4999999999999
20
-10.4950931885592
30
0
41
1
10
-22.5
20
-8.90791043028716
30
0
41
1
10
-22.4999999999999
20
-7.35788825135677
30
0
41
1
10
-22.4999999999999
20
-5.9826471995616
30
0
41
1
10
-22.4999999999999
20
-4.89022238185561
30
0
41
1
10
-22.5
20
-3.73751305004353
30
0
41
1
10
-22.4999999999999
20
-2.52988134516511
30
0
41
1
10
-22.5
20
-1.48826022368647
30
0
41
1
10
-22.5
20
-0.637225639727347
30
0
41
1
10
-22.4999999999999
20
1.01300202E-07
30
0
41
1
10
-22.5
20
0.637225663005211
30
0
41
1
10
-22.4999999999999
20
1.48826017841191
30
0
41
1
10
-22.5
20
2.52988151772925
30
0
41
1
10
-22.4999999999999
20
3.73751327283384
30
0
41
1
10
-22.5
20
4.89022224945143
30
0
41
1
10
-22.5
20
5.98264738368823
30
0
41
1
10
-22.5
20
7.35788839712225
30
0
41
1
10
-22.5
20
8.90791053296306
30
0
41
1
10
-22.5
20
10.4950928592068
30
0
41
1
10
-22.5
20
11.7893001827952
30
0
41
1
10
-22.5
20
12.6015902509941
30
0
41
1
10
-22.5
20
13.0738790940805
30
0
41
1
10
-22.5
20
13.3308793310681
30
0
41
1
10
-22.5
20
13.4607003528928
30
0
41
1
10
-22.5
20
13.491533998625
30
0
41
1
10
-22.5
20
13.4958054613644
30
0
0
SPLINE
5
1CE
100
AcDbEntity
8
SK1
62
256
6
ByLayer
370
13
48
1
60
0
100
AcDbSpline
70
4
71
3
72
28
73
24
40
0
40
0
40
0
40
0
40
0.0625
40
0.0625
40
0.125
40
0.125
40
0.156250000000002
40
0.156250000000002
40
0.187500000000003
40
0.187500000000003
40
0.218750000000005
40
0.218750000000005
40
0.250000000000007
40
0.250000000000007
40
0.312500000000008
40
0.312500000000008
40
0.375000000000009
40
0.375000000000009
40
0.500000000000008
40
0.500000000000008
40
0.750000000000004
40
0.750000000000004
40
1
40
1
40
1
40
1
41
1
10
-0.194976888875288
20
4.73091779437263
30
0
41
1
10
-0.188350845705742
20
4.71844641149866
30
0
41
1
10
-0.181308268441939
20
4.70636093833292
30
0
41
1
10
-0.165866205730794
20
4.68347076940361
30
0
41
1
10
-0.157525370579549
20
4.67261038955854
30
0
41
1
10
-0.142848645674348
20
4.65838165404361
30
0
41
1
10
-0.13759992047801
20
4.6540177930747
30
0
41
1
10
-0.126165447467344
20
4.64690826032438
30
0
41
1
10
-0.119977699727286
20
4.64414539798236
30
0
41
1
10
-0.10649632522825
20
4.64201052202733
30
0
41
1
10
-0.0992037219356803
20
4.64289220420636
30
0
41
1
10
-0.0857681371261094
20
4.64919107473352
30
0
41
1
10
-0.0796782376326632
20
4.65443343635874
30
0
41
1
10
-0.0640862050534565
20
4.67272837366284
30
0
41
1
10
-0.0569788741583181
20
4.68758735524895
30
0
41
1
10
-0.0452441619234207
20
4.71723533436463
30
0
41
1
10
-0.0407066717547195
20
4.73234677078074
30
0
41
1
10
-0.0289368824645919
20
4.77806566229938
30
0
41
1
10
-0.023620074128047
20
4.80894339253319
30
0
41
1
10
-0.0108643267253115
20
4.90029254217191
30
0
41
1
10
-0.0065757548345573
20
4.96054151539425
30
0
41
1
10
-0.0010271982272911
20
5.08034000512171
30
0
41
1
10
2.84E-14
20
5.13991849012453
30
0
41
1
10
2.84E-14
20
5.19904292539411
30
0
0
SPLINE
5
1CF
100
AcDbEntity
8
SK1
62
256
6
ByLayer
370
13
48
1
60
0
100
AcDbSpline
70
4
71
3
72
28
73
24
40
0
40
0
40
0
40
0
40
0.125
40
0.125
40
0.25
40
0.25
40
0.375
40
0.375
40
0.40625
40
0.40625
40
0.4375
40
0.4375
40
0.5
40
0.5
40
0.625
40
0.625
40
0.6875
40
0.6875
40
0.75
40
0.75
40
0.875
40
0.875
40
1
40
1
40
1
40
1
41
1
10
-1.49999999999997
20
-3.74103849235164
30
0
41
1
10
-1.55705665122127
20
-3.44902737793703
30
0
41
1
10
-1.61183227397027
20
-3.15316802788345
30
0
41
1
10
-1.71334364539356
20
-2.55239927064764
30
0
41
1
10
-1.76021803723418
20
-2.24754964501903
30
0
41
1
10
-1.84079971603685
20
-1.62657309953059
30
0
41
1
10
-1.87452156029124
20
-1.31045683466405
30
0
41
1
10
-1.90418891433225
20
-0.906244230956389
30
0
41
1
10
-1.90949218736284
20
-0.824944898973484
30
0
41
1
10
-1.91870170090181
20
-0.661364974637252
30
0
41
1
10
-1.92259318535335
20
-0.579178054842515
30
0
41
1
10
-1.93196301225206
20
-0.333578349339433
30
0
41
1
10
-1.93519459436698
20
-0.170339620394401
30
0
41
1
10
-1.93548821772259
20
0.317869702203439
30
0
41
1
10
-1.92308572509452
20
0.641328989531246
30
0
41
1
10
-1.88846455145884
20
1.12380915181197
30
0
41
1
10
-1.8743132004237
20
1.2841899111684
30
0
41
1
10
-1.84152563733511
20
1.60413216506745
30
0
41
1
10
-1.82284954358479
20
1.76387975456618
30
0
41
1
10
-1.76189713752146
20
2.23650557622514
30
0
41
1
10
-1.71458359922826
20
2.54473243081725
30
0
41
1
10
-1.61233074922367
20
3.15054348245263
30
0
41
1
10
-1.55724747857241
20
3.44805305826657
30
0
41
1
10
-1.49999999999997
20
3.74104084360707
30
0
0
SPLINE
5
1D0
100
AcDbEntity
8
SK1
62
256
6
ByLayer
370
13
48
1
60
0
100
AcDbSpline
70
4
71
3
72
37
73
33
40
0
40
0
40
0
40
0
40
0.0157239525049691
40
0.0442099559968011
40
0.0726959594886331
40
0.101181962980465
40
0.158153969964129
40
0.215125976947793
40
0.272097983931457
40
0.329069990915121
40
0.357555994406953
40
0.386041997898785
40
0.414528001390617
40
0.443014004882449
40
0.47150000837428
40
0.485743010120196
40
0.499986011866112
40
0.514229013612028
40
0.528472015357944
40
0.556958018849776
40
0.585444022341608
40
0.61393002583344
40
0.642416029325272
40
0.670902032817104
40
0.727874039800768
40
0.784846046784432
40
0.841818053768096
40
0.89879006075176
40
0.927276064243592
40
0.955762067735424
40
0.984248071227256
40
1
40
1
40
1
40
1
41
1
10
-24
20
12.6297262512393
30
0
41
1
10
-24
20
12.6253456338598
30
0
41
1
10
-24
20
12.5960749839315
30
0
41
1
10
-24
20
12.4743689830171
30
0
41
1
10
-24
20
12.2301461791879
30
0
41
1
10
-23.9999999999999
20
11.7782420302007
30
0
41
1
10
-24
20
11.0029381899705
30
0
41
1
10
-23.9999999999999
20
9.76298011868084
30
0
41
1
10
-23.9999999999999
20
8.24354697090368
30
0
41
1
10
-24
20
6.76811071589077
30
0
41
1
10
-23.9999999999999
20
5.4579963756465
30
0
41
1
10
-23.9999999999999
20
4.42753733029446
30
0
41
1
10
-23.9999999999999
20
3.35000222974918
30
0
41
1
10
-23.9999999999999
20
2.2377174198941
30
0
41
1
10
-23.9999999999999
20
1.30515932004781
30
0
41
1
10
-23.9999999999999
20
0.551100854738706
30
0
41
1
10
-23.9999999999999
20
2.454147534E-07
30
0
41
1
10
-23.9999999999999
20
-0.551100895559529
30
0
41
1
10
-23.9999999999999
20
-1.30515943417149
30
0
41
1
10
-23.9999999999999
20
-2.23771697460677
30
0
41
1
10
-23.9999999999999
20
-3.35000208235886
30
0
41
1
10
-23.9999999999999
20
-4.42753754516374
30
0
41
1
10
-23.9999999999999
20
-5.45799609225469
30
0
41
1
10
-23.9999999999999
20
-6.76811057436947
30
0
41
1
10
-23.9999999999999
20
-8.24354693727892
30
0
41
1
10
-23.9999999999999
20
-9.76298042100555
30
0
41
1
10
-24
20
-11.0029379389179
30
0
41
1
10
-23.9999999999999
20
-11.778242625282
30
0
41
1
10
-24
20
-12.2301460729139
30
0
41
1
10
-24
20
-12.4743692733745
30
0
41
1
10
-24
20
-12.5961222608763
30
0
41
1
10
-24
20
-12.6253828938111
30
0
41
1
10
-23.9999999999999
20
-12.6297497483948
30
0
0
SPLINE
5
1D1
100
AcDbEntity
8
SK1
62
256
6
ByLayer
370
13
48
1
60
0
100
AcDbSpline
70
4
71
3
72
36
73
32
40
0
40
0
40
0
40
0
40
0.249999999999983
40
0.249999999999983
40
0.374999999999974
40
0.374999999999974
40
0.437499999999969
40
0.437499999999969
40
0.468749999999967
40
0.468749999999967
40
0.499999999999966
40
0.499999999999966
40
0.515624999999967
40
0.515624999999967
40
0.531249999999967
40
0.531249999999967
40
0.546874999999968
40
0.546874999999968
40
0.562499999999969
40
0.562499999999969
40
0.593749999999971
40
0.593749999999971
40
0.624999999999972
40
0.624999999999972
40
0.687499999999977
40
0.687499999999977
40
0.749999999999982
40
0.749999999999982
40
0.874999999999991
40
0.874999999999991
40
1
40
1
40
1
40
1
41
1
10
-1.49999999999997
20
3.7410408436071
30
0
41
1
10
-1.49965682502594
20
3.66997660564786
30
0
41
1
10
-1.4980911629726
20
3.59862258306282
30
0
41
1
10
-1.49110958441466
20
3.49074976384807
30
0
41
1
10
-1.48806463950547
20
3.45465981264252
30
0
41
1
10
-1.48054425092295
20
3.40005252225166
30
0
41
1
10
-1.47757548195295
20
3.38191226747128
30
0
41
1
10
-1.47146220125026
20
3.35503233329624
30
0
41
1
10
-1.46915042188718
20
3.34612395963688
30
0
41
1
10
-1.46335637122462
20
3.32852809768667
30
0
41
1
10
-1.45990212264522
20
3.31976878151653
30
0
41
1
10
-1.45292409904343
20
3.30871960615065
30
0
41
1
10
-1.45020581571316
20
3.30532606961464
30
0
41
1
10
-1.44409287567311
20
3.3005368948811
30
0
41
1
10
-1.44068428130427
20
3.29923986190013
30
0
41
1
10
-1.43413523647516
20
3.29919679659992
30
0
41
1
10
-1.43104956173801
20
3.30032677120744
30
0
41
1
10
-1.42541547888914
20
3.30370041603354
30
0
41
1
10
-1.42284057103728
20
3.30593974544848
30
0
41
1
10
-1.41557128415064
20
3.3135315916644
30
0
41
1
10
-1.41146845881636
20
3.3195405075773
30
0
41
1
10
-1.40383962153038
20
3.33228650842381
30
0
41
1
10
-1.40034253825792
20
3.33907898772415
30
0
41
1
10
-1.39043979400557
20
3.36007307041805
30
0
41
1
10
-1.38467398441034
20
3.37472195070697
30
0
41
1
10
-1.3738882123142
20
3.40458338792683
30
0
41
1
10
-1.3688979929438
20
3.41981973710486
30
0
41
1
10
-1.35465907818698
20
3.46606350352312
30
0
41
1
10
-1.34613026372884
20
3.49759609439306
30
0
41
1
10
-1.33007380337833
20
3.56132286451032
30
0
41
1
10
-1.32257634167774
20
3.59351588570445
30
0
41
1
10
-1.315435065092
20
3.62586927327692
30
0
0
SPLINE
5
1D2
100
AcDbEntity
8
SK1
62
256
6
ByLayer
370
13
48
1
60
0
100
AcDbSpline
70
4
71
3
72
19
73
15
40
0
40
0
40
0
40
0
40
0.0089183591454546
40
0.0786994100179402
40
0.148480460890426
40
0.218261511762911
40
0.357823613507882
40
0.497385715252853
40
0.636947816997824
40
0.776509918742795
40
0.846290969615281
40
0.916072020487766
40
0.985853071360252
40
1
40
1
40
1
40
1
41
1
10
-1.29503997793927
20
3.72040136699599
30
0
41
1
10
-1.29503997793927
20
3.77241274608161
30
0
41
1
10
-1.29503997793927
20
4.22989838674079
30
0
41
1
10
-1.2950399779393
20
5.06796032972639
30
0
41
1
10
-1.2950399779393
20
6.18418942476774
30
0
41
1
10
-1.2950399779393
20
7.58444852154136
30
0
41
1
10
-1.2950399779393
20
9.16312244767198
30
0
41
1
10
-1.2950399779393
20
10.776330279443
30
0
41
1
10
-1.2950399779393
20
12.0913771799458
30
0
41
1
10
-1.2950399779393
20
12.9178753212493
30
0
41
1
10
-1.2950399779393
20
13.3979948418577
30
0
41
1
10
-1.29503997793932
20
13.6599034654089
30
0
41
1
10
-1.29503997793932
20
13.773352719105
30
0
41
1
10
-1.29503997793935
20
13.8063646013773
30
0
41
1
10
-1.29503997793935
20
13.8110823668469
30
0
0
SPLINE
5
1D3
100
AcDbEntity
8
SK1
62
256
6
ByLayer
370
13
48
1
60
0
100
AcDbSpline
70
4
71
3
72
8
73
4
40
0
40
0
40
0
40
0
40
1
40
1
40
1
40
1
41
1
10
-1.29503997793935
20
13.8110826933339
30
0
41
1
10
-1.29503997793932
20
13.8236786824483
30
0
41
1
10
-1.29503997793932
20
13.8302387503456
30
0
41
1
10
-1.29503997793932
20
13.8302936933339
30
0
0
SPLINE
5
1D4
100
AcDbEntity
8
SK1
62
256
6
ByLayer
370
13
48
1
60
0
100
AcDbSpline
70
4
71
3
72
28
73
24
40
0
40
0
40
0
40
0
40
0.0624999999999987
40
0.0624999999999987
40
0.124999999999997
40
0.124999999999997
40
0.156249999999997
40
0.156249999999997
40
0.187499999999997
40
0.187499999999997
40
0.218749999999997
40
0.218749999999997
40
0.249999999999997
40
0.249999999999997
40
0.312499999999998
40
0.312499999999998
40
0.374999999999999
40
0.374999999999999
40
0.499999999999999
40
0.499999999999999
40
0.75
40
0.75
40
1
40
1
40
1
40
1
41
1
10
-0.194976888875203
20
-13.8569758473157
30
0
41
1
10
-0.188351307952388
20
-13.8573117323789
30
0
41
1
10
-0.181309175350975
20
-13.8579484870214
30
0
41
1
10
-0.16586779684647
20
-13.8602426287932
30
0
41
1
10
-0.157527236762178
20
-13.8618553235834
30
0
41
1
10
-0.142850290878727
20
-13.8659339723793
30
0
41
1
10
-0.137601672143433
20
-13.8675768397125
30
0
41
1
10
-0.126166420890542
20
-13.8717647351611
30
0
41
1
10
-0.119978510861358
20
-13.8743068871857
30
0
41
1
10
-0.106494357335521
20
-13.8808184874113
30
0
41
1
10
-0.0992004653267031
20
-13.8848499971243
30
0
41
1
10
-0.0857628116787907
20
-13.8934061076404
30
0
41
1
10
-0.0796728217332259
20
-13.8978567346473
30
0
41
1
10
-0.0640798416254427
20
-13.9103676557614
30
0
41
1
10
-0.056974788823851
20
-13.9175501330993
30
0
41
1
10
-0.0452421040683646
20
-13.9304538084542
30
0
41
1
10
-0.0407051360541288
20
-13.936208848626
30
0
41
1
10
-0.0289365850622119
20
-13.9524111179771
30
0
41
1
10
-0.0236207641357282
20
-13.9617299511273
30
0
41
1
10
-0.0108663076175617
20
-13.9871269814753
30
0
41
1
10
-0.00657732334966
20
-14.0009064119354
30
0
41
1
10
-0.0010278129472283
20
-14.0254304342075
30
0
41
1
10
0
20
-14.0360501755464
30
0
41
1
10
0
20
-14.0454720888129
30
0
0
SPLINE
5
1D5
100
AcDbEntity
8
SK1
62
256
6
ByLayer
370
13
48
1
60
0
100
AcDbSpline
70
4
71
3
72
30
73
26
40
0
40
0
40
0
40
0
40
0.10618608071139
40
0.10618608071139
40
0.404124053807597
40
0.404124053807597
40
0.553093040355699
40
0.553093040355699
40
0.627577533629749
40
0.627577533629749
40
0.664819780266775
40
0.664819780266775
40
0.7020620269038
40
0.7020620269038
40
0.739304273540825
40
0.739304273540825
40
0.776546520177851
40
0.776546520177851
40
0.813788766814876
40
0.813788766814876
40
0.851031013451902
40
0.851031013451902
40
0.925515506725951
40
0.925515506725951
40
1
40
1
40
1
40
1
41
1
10
-0.0014704185113885
20
14.0256587795169
30
0
41
1
10
-0.0020490448292492
20
14.0216830059432
30
0
41
1
10
-0.002817603511545
20
14.017517442122
30
0
41
1
10
-0.0065907101869414
20
14.0008569200327
30
0
41
1
10
-0.0108837243337803
20
13.9870452296753
30
0
41
1
10
-0.0237634687058232
20
13.9614695252629
30
0
41
1
10
-0.0290916036468616
20
13.9521591433916
30
0
41
1
10
-0.0409399229533278
20
13.9359054567894
30
0
41
1
10
-0.0455695709164274
20
13.9300599405606
30
0
41
1
10
-0.054433201675721
20
13.9203636885907
30
0
41
1
10
-0.0577124690514381
20
13.9169723244121
30
0
41
1
10
-0.0654012651602613
20
13.909661477725
30
0
41
1
10
-0.0697787622016506
20
13.9057688273068
30
0
41
1
10
-0.0801979203901908
20
13.8974642447389
30
0
41
1
10
-0.0862618006025286
20
13.8930618461962
30
0
41
1
10
-0.0996979906041133
20
13.8845615523474
30
0
41
1
10
-0.106913252025237
20
13.8805993478294
30
0
41
1
10
-0.120325117001926
20
13.8741571067577
30
0
41
1
10
-0.12644361059688
20
13.8716556980321
30
0
41
1
10
-0.137780665138877
20
13.8675188728153
30
0
41
1
10
-0.142918591831375
20
13.8659144147311
30
0
41
1
10
-0.157443675710567
20
13.8618793304948
30
0
41
1
10
-0.165896072117391
20
13.8602372333928
30
0
41
1
10
-0.181339339602658
20
13.8579449434456
30
0
41
1
10
-0.188368716115832
20
13.8573107148221
30
0
41
1
10
-0.194976888875317
20
13.8569757097873
30
0
0
SPLINE
5
1D6
100
AcDbEntity
8
SK1
62
256
6
ByLayer
370
13
48
1
60
0
100
AcDbSpline
70
4
71
3
72
8
73
4
40
0
40
0
40
0
40
0
40
1
40
1
40
1
40
1
41
1
10
-1.2950399779393
20
-13.8302940478953
30
0
41
1
10
-1.29503997793932
20
-13.8302638259063
30
0
41
1
10
-1.2950399779393
20
-13.823702883487
30
0
41
1
10
-1.29503997793927
20
-13.8110830478953
30
0
0
SPLINE
5
1D7
100
AcDbEntity
8
SK1
62
256
6
ByLayer
370
13
48
1
60
0
100
AcDbSpline
70
4
71
3
72
19
73
15
40
0
40
0
40
0
40
0
40
0.0141473054053987
40
0.0839283209106353
40
0.153709336415872
40
0.223490351921108
40
0.363052382931581
40
0.502614413942055
40
0.642176444952528
40
0.781738475963001
40
0.851519491468237
40
0.921300506973474
40
0.991081522478711
40
1
40
1
40
1
40
1
41
1
10
-1.2950399779393
20
-13.8110830478951
30
0
41
1
10
-1.2950399779393
20
-13.806365222119
30
0
41
1
10
-1.2950399779393
20
-13.7733534322555
30
0
41
1
10
-1.29503997793932
20
-13.6599037171108
30
0
41
1
10
-1.29503997793932
20
-13.3979947415187
30
0
41
1
10
-1.2950399779393
20
-12.9178759353221
30
0
41
1
10
-1.29503997793932
20
-12.0913768621482
30
0
41
1
10
-1.2950399779393
20
-10.7763306191778
30
0
41
1
10
-1.2950399779393
20
-9.16312231847047
30
0
41
1
10
-1.2950399779393
20
-7.58444837414552
30
0
41
1
10
-1.2950399779393
20
-6.18418927877329
30
0
41
1
10
-1.2950399779393
20
-5.06796043045182
30
0
41
1
10
-1.2950399779393
20
-4.22989754380626
30
0
41
1
10
-1.2950399779393
20
-3.77241114920614
30
0
41
1
10
-1.2950399779393
20
-3.72039904787644
30
0
0
SPLINE
5
1D8
100
AcDbEntity
8
SK1
62
256
6
ByLayer
370
13
48
1
60
0
100
AcDbSpline
70
4
71
3
72
38
73
34
40
0
40
0
40
0
40
0
40
0.250000000000001
40
0.250000000000001
40
0.375000000000002
40
0.375000000000002
40
0.500000000000002
40
0.500000000000002
40
0.562500000000002
40
0.562500000000002
40
0.625000000000002
40
0.625000000000002
40
0.687500000000002
40
0.687500000000002
40
0.718750000000002
40
0.718750000000002
40
0.750000000000002
40
0.750000000000002
40
0.765625000000002
40
0.765625000000002
40
0.781250000000002
40
0.781250000000002
40
0.796875000000002
40
0.796875000000002
40
0.812500000000002
40
0.812500000000002
40
0.843750000000002
40
0.843750000000002
40
0.875000000000002
40
0.875000000000002
40
0.937500000000001
40
0.937500000000001
40
1
40
1
40
1
40
1
41
1
10
-1.29503997793927
20
3.72040136697811
30
0
41
1
10
-1.25851769783338
20
3.89360816386889
30
0
41
1
10
-1.2166042096211
20
4.06324182423811
30
0
41
1
10
-1.14019760930742
20
4.31131135424857
30
0
41
1
10
-1.11244318978274
20
4.39292915744622
30
0
41
1
10
-1.05011157661977
20
4.55351168985194
30
0
41
1
10
-1.01567625051001
20
4.63251185882277
30
0
41
1
10
-0.954906322753885
20
4.74806453945007
30
0
41
1
10
-0.93311014388118
20
4.78608587328023
30
0
41
1
10
-0.88460887790913
20
4.86068549224689
30
0
41
1
10
-0.858124251574708
20
4.8969929898237
30
0
41
1
10
-0.798207796677502
20
4.96492418557969
30
0
41
1
10
-0.764549925793887
20
4.99705560543072
30
0
41
1
10
-0.705160744616791
20
5.03592142592782
30
0
41
1
10
-0.683666530951172
20
5.04731829495907
30
0
41
1
10
-0.638001912938279
20
5.06414753606717
30
0
41
1
10
-0.613311005041226
20
5.06961717078832
30
0
41
1
10
-0.576165066812678
20
5.07149193672342
30
0
41
1
10
-0.563538801961357
20
5.07108810696491
30
0
41
1
10
-0.538925162451392
20
5.06828696943566
30
0
41
1
10
-0.52689775167886
20
5.06591791573783
30
0
41
1
10
-0.503336668151292
20
5.05946603241364
30
0
41
1
10
-0.491780537185434
20
5.05535826116616
30
0
41
1
10
-0.469788291442825
20
5.04595412642391
30
0
41
1
10
-0.459247468798395
20
5.04063431396332
30
0
41
1
10
-0.428720600851705
20
5.02318308218938
30
0
41
1
10
-0.409727348497086
20
5.00947594843257
30
0
41
1
10
-0.374783528828772
20
4.9802454397489
30
0
41
1
10
-0.358663217237279
20
4.9646244983486
30
0
41
1
10
-0.31305887711514
20
4.9156767950864
30
0
41
1
10
-0.286230000384279
20
4.88019396413065
30
0
41
1
10
-0.237480248834203
20
4.80719997429424
30
0
41
1
10
-0.215465258732536
20
4.76948052305036
30
0
41
1
10
-0.194976888875288
20
4.73091779437269
30
0
0
LINE
5
72
100
AcDbEntity
8
4
62
256
6
ByLayer
370
18
48
0.05
60
0
100
AcDbLine
10
-24
20
0
30
0
11
55
21
0
31
0
39
0
210
0
220
0
230
1
0
LINE
5
74
100
AcDbEntity
8
81
62
256
6
ByLayer
370
18
48
1
60
0
100
AcDbLine
10
55
20
-27
30
0
11
65
21
-27
31
0
39
0
210
0
220
0
230
1
0
LINE
5
75
100
AcDbEntity
8
1
62
256
6
ByLayer
370
13
48
1
60
0
100
AcDbLine
10
20.758791
20
-20.1
30
0
11
21.908259
21
-20.1
31
0
39
0
210
0
220
0
230
1
0
LINE
5
76
100
AcDbEntity
8
1
62
256
6
ByLayer
370
13
48
1
60
0
100
AcDbLine
10
0.3
20
-20
30
0
11
20.279208
21
-20
31
0
39
0
210
0
220
0
230
1
0
LINE
5
77
100
AcDbEntity
8
1
62
256
6
ByLayer
370
13
48
1
60
0
100
AcDbLine
10
20
20
20
30
0
11
0.3
21
20
31
0
39
0
210
0
220
0
230
1
0
LINE
5
78
100
AcDbEntity
8
1
62
256
6
ByLayer
370
13
48
1
60
0
100
AcDbLine
10
0.3
20
20
30
0
11
0
21
19.7
31
0
39
0
210
0
220
0
230
1
0
LINE
5
79
100
AcDbEntity
8
1
62
256
6
ByLayer
370
13
48
1
60
0
100
AcDbLine
10
0
20
-19.7
30
0
11
0.3
21
-20
31
0
39
0
210
0
220
0
230
1
0
LINE
5
7A
100
AcDbEntity
8
1
62
256
6
ByLayer
370
13
48
1
60
0
100
AcDbLine
10
45.685748
20
-9.240683
30
0
11
45.546281
21
-8.679758
31
0
39
0
210
0
220
0
230
1
0
LINE
5
7B
100
AcDbEntity
8
1
62
256
6
ByLayer
370
13
48
1
60
0
100
AcDbLine
10
47.387992
20
-15.779885
30
0
11
47.965505
21
-16.345219
31
0
39
0
210
0
220
0
230
1
0
LINE
5
7C
100
AcDbEntity
8
1
62
256
6
ByLayer
370
13
48
1
60
0
100
AcDbLine
10
54.175191
20
-15.202387
30
0
11
54.175425
21
-15.065906
31
0
39
0
210
0
220
0
230
1
0
LINE
5
7D
100
AcDbEntity
8
1
62
256
6
ByLayer
370
13
48
1
60
0
100
AcDbLine
10
53.86936
20
-10.090502
30
0
11
53.48627
21
-4.203847
31
0
39
0
210
0
220
0
230
1
0
LINE
5
7E
100
AcDbEntity
8
1
62
256
6
ByLayer
370
18
48
1
60
0
100
AcDbLine
10
44.600529
20
-26.413195
30
0
11
47.718877
21
-26.669569
31
0
39
0
210
0
220
0
230
1
0
LINE
5
7F
100
AcDbEntity
8
1
62
256
6
ByLayer
370
18
48
1
60
0
100
AcDbLine
10
44.592138
20
-24.797434
30
0
11
44.609196
21
-24.798837
31
0
39
0
210
0
220
0
230
1
0
LINE
5
80
100
AcDbEntity
8
1
62
256
6
ByLayer
370
18
48
1
60
0
100
AcDbLine
10
54.259858
20
-16.456228
30
0
11
54.209732
21
-16.437702
31
0
39
0
210
0
220
0
230
1
0
LINE
5
81
100
AcDbEntity
8
1
62
256
6
ByLayer
370
18
48
1
60
0
100
AcDbLine
10
46.090635
20
-15.433412
30
0
11
43.699279
21
-15.291406
31
0
39
0
210
0
220
0
230
1
0
LINE
5
82
100
AcDbEntity
8
80
62
256
6
ByLayer
370
18
48
1
60
0
100
AcDbLine
10
0
20
0
30
0
11
-6.6
21
0
31
0
39
0
210
0
220
0
230
1
0
LINE
5
83
100
AcDbEntity
8
1
62
256
6
ByLayer
370
13
48
1
60
0
100
AcDbLine
10
53.340516
20
-3.306624
30
0
11
54.232728
21
-17.041128
31
0
39
0
210
0
220
0
230
1
0
LINE
5
84
100
AcDbEntity
8
1
62
256
6
ByLayer
370
13
48
1
60
0
100
AcDbLine
10
53.830618
20
-9.567581
30
0
11
53.76336
21
-9.56036
31
0
39
0
210
0
220
0
230
1
0
LINE
5
85
100
AcDbEntity
8
1
62
256
6
ByLayer
370
13
48
1
60
0
100
AcDbLine
10
27.552241
20
-15.068099
30
0
11
27.552241
21
-17.718752
31
0
39
0
210
0
220
0
230
1
0
LINE
5
86
100
AcDbEntity
8
1
62
256
6
ByLayer
370
13
48
1
60
0
100
AcDbLine
10
6.663397
20
6.16973
30
0
11
6.663397
21
19.024574
31
0
39
0
210
0
220
0
230
1
0
LINE
5
87
100
AcDbEntity
8
1
62
256
6
ByLayer
370
13
48
1
60
0
100
AcDbLine
10
44.322644
20
-24.558394
30
0
11
44.643253
21
-24.353846
31
0
39
0
210
0
220
0
230
1
0
LINE
5
88
100
AcDbEntity
8
1
62
256
6
ByLayer
370
13
48
1
60
0
100
AcDbLine
10
20.279208
20
-20
30
0
11
20.279208
21
-0.095079
31
0
39
0
210
0
220
0
230
1
0
LINE
5
89
100
AcDbEntity
8
1
62
256
6
ByLayer
370
13
48
1
60
0
100
AcDbLine
10
53.593906
20
-6.200423
30
0
11
53.593146
21
-6.643733
31
0
39
0
210
0
220
0
230
1
0
LINE
5
8A
100
AcDbEntity
8
1
62
256
6
ByLayer
370
13
48
1
60
0
100
AcDbLine
10
9.076795
20
5.85989
30
0
11
6.923205
21
5.85989
31
0
39
0
210
0
220
0
230
1
0
LINE
5
8B
100
AcDbEntity
8
1
62
256
6
ByLayer
370
13
48
1
60
0
100
AcDbLine
10
27.552241
20
-21.844973
30
0
11
27.552241
21
-20.882139
31
0
39
0
210
0
220
0
230
1
0
LINE
5
8C
100
AcDbEntity
8
1
62
256
6
ByLayer
370
13
48
1
60
0
100
AcDbLine
10
45.370643
20
-14.189607
30
0
11
45.306597
21
-14.332414
31
0
39
0
210
0
220
0
230
1
0
LINE
5
8D
100
AcDbEntity
8
1
62
256
6
ByLayer
370
13
48
1
60
0
100
AcDbLine
10
54.169162
20
-14.863114
30
0
11
54.168934
21
-14.995786
31
0
39
0
210
0
220
0
230
1
0
LINE
5
8E
100
AcDbEntity
8
1
62
256
6
ByLayer
370
13
48
1
60
0
100
AcDbLine
10
53.912677
20
-10.76848
30
0
11
53.479841
21
-4.11741
31
0
39
0
210
0
220
0
230
1
0
LINE
5
8F
100
AcDbEntity
8
1
62
256
6
ByLayer
370
13
48
1
60
0
100
AcDbLine
10
0.3
20
-20
30
0
11
0.3
21
20
31
0
39
0
210
0
220
0
230
1
0
LINE
5
90
100
AcDbEntity
8
1
62
256
6
ByLayer
370
13
48
1
60
0
100
AcDbLine
10
45.343521
20
-8.499469
30
0
11
45.114491
21
-7.731949
31
0
39
0
210
0
220
0
230
1
0
LINE
5
91
100
AcDbEntity
8
1
62
256
6
ByLayer
370
13
48
1
60
0
100
AcDbLine
10
6.923205
20
-5.85989
30
0
11
9.076795
21
-5.85989
31
0
39
0
210
0
220
0
230
1
0
LINE
5
92
100
AcDbEntity
8
1
62
256
6
ByLayer
370
13
48
1
60
0
100
AcDbLine
10
6.923205
20
-19.122283
30
0
11
6.923205
21
-5.85989
31
0
39
0
210
0
220
0
230
1
0
LINE
5
93
100
AcDbEntity
8
1
62
256
6
ByLayer
370
13
48
1
60
0
100
AcDbLine
10
21.908259
20
-20.1
30
0
11
21.908259
21
-2.002498
31
0
39
0
210
0
220
0
230
1
0
LINE
5
94
100
AcDbEntity
8
1
62
256
6
ByLayer
370
13
48
1
60
0
100
AcDbLine
10
51.961316
20
-16.960228
30
0
11
52.123218
21
-17.020064
31
0
39
0
210
0
220
0
230
1
0
LINE
5
95
100
AcDbEntity
8
1
62
256
6
ByLayer
370
13
48
1
60
0
100
AcDbLine
10
44.620784
20
-22.036647
30
0
11
44.270058
21
-22.26041
31
0
39
0
210
0
220
0
230
1
0
LINE
5
96
100
AcDbEntity
8
1
62
256
6
ByLayer
370
13
48
1
60
0
100
AcDbLine
10
54.243434
20
-17.023723
30
0
11
54.243546
21
-16.958515
31
0
39
0
210
0
220
0
230
1
0
LINE
5
97
100
AcDbEntity
8
1
62
256
6
ByLayer
370
13
48
1
60
0
100
AcDbLine
10
44.574347
20
-24.876514
30
0
11
44.266134
21
-24.891578
31
0
39
0
210
0
220
0
230
1
0
LINE
5
98
100
AcDbEntity
8
1
62
256
6
ByLayer
370
13
48
1
60
0
100
AcDbLine
10
39.386449
20
-15.355903
30
0
11
39.93577
21
-15.258488
31
0
39
0
210
0
220
0
230
1
0
LINE
5
99
100
AcDbEntity
8
1
62
256
6
ByLayer
370
13
48
1
60
0
100
AcDbLine
10
54.247883
20
-17.171659
30
0
11
54.247844
21
-17.19474
31
0
39
0
210
0
220
0
230
1
0
LINE
5
9A
100
AcDbEntity
8
1
62
256
6
ByLayer
370
13
48
1
60
0
100
AcDbLine
10
9.076795
20
-19.122283
30
0
11
6.923205
21
-19.122283
31
0
39
0
210
0
220
0
230
1
0
LINE
5
9B
100
AcDbEntity
8
1
62
256
6
ByLayer
370
13
48
1
60
0
100
AcDbLine
10
53.789
20
-9.956844
30
0
11
54.243546
21
-16.958515
31
0
39
0
210
0
220
0
230
1
0
LINE
5
9C
100
AcDbEntity
8
1
62
256
6
ByLayer
370
13
48
1
60
0
100
AcDbLine
10
9.336603
20
6.16973
30
0
11
9.336603
21
19.024574
31
0
39
0
210
0
220
0
230
1
0
LINE
5
9D
100
AcDbEntity
8
1
62
256
6
ByLayer
370
13
48
1
60
0
100
AcDbLine
10
43.333241
20
-16.726301
30
0
11
43.069878
21
-16.916857
31
0
39
0
210
0
220
0
230
1
0
LINE
5
9E
100
AcDbEntity
8
1
62
256
6
ByLayer
370
13
48
1
60
0
100
AcDbLine
10
9.076795
20
5.85989
30
0
11
9.076795
21
19.122283
31
0
39
0
210
0
220
0
230
1
0
LINE
5
9F
100
AcDbEntity
8
1
62
256
6
ByLayer
370
13
48
1
60
0
100
AcDbLine
10
47.36656
20
-15.519284
30
0
11
48.287524
21
-15.436902
31
0
39
0
210
0
220
0
230
1
0
LINE
5
A0
100
AcDbEntity
8
1
62
256
6
ByLayer
370
13
48
1
60
0
100
AcDbLine
10
9.076795
20
-19.122283
30
0
11
9.076795
21
-5.85989
31
0
39
0
210
0
220
0
230
1
0
LINE
5
A1
100
AcDbEntity
8
1
62
256
6
ByLayer
370
13
48
1
60
0
100
AcDbLine
10
33.896337
20
-25.620102
30
0
11
43.691475
21
-26.425409
31
0
39
0
210
0
220
0
230
1
0
LINE
5
A2
100
AcDbEntity
8
1
62
256
6
ByLayer
370
13
48
1
60
0
100
AcDbLine
10
45.452345
20
-15.395507
30
0
11
45.473948
21
-15.163387
31
0
39
0
210
0
220
0
230
1
0
LINE
5
A3
100
AcDbEntity
8
1
62
256
6
ByLayer
370
13
48
1
60
0
100
AcDbLine
10
6.923205
20
19.122283
30
0
11
9.076795
21
19.122283
31
0
39
0
210
0
220
0
230
1
0
LINE
5
A4
100
AcDbEntity
8
1
62
256
6
ByLayer
370
13
48
1
60
0
100
AcDbLine
10
20
20
20
30
0
11
53.332201
21
-2.701346
31
0
39
0
210
0
220
0
230
1
0
LINE
5
A5
100
AcDbEntity
8
1
62
256
6
ByLayer
370
13
48
1
60
0
100
AcDbLine
10
53.691273
20
-8.413737
30
0
11
53.756998
21
-8.420794
31
0
39
0
210
0
220
0
230
1
0
LINE
5
A6
100
AcDbEntity
8
1
62
256
6
ByLayer
370
13
48
1
60
0
100
AcDbLine
10
9.336603
20
-19.024574
30
0
11
9.336603
21
-6.16973
31
0
39
0
210
0
220
0
230
1
0
LINE
5
A7
100
AcDbEntity
8
1
62
256
6
ByLayer
370
13
48
1
60
0
100
AcDbLine
10
43.42967
20
-17.879871
30
0
11
43.333241
21
-16.726301
31
0
39
0
210
0
220
0
230
1
0
LINE
5
A8
100
AcDbEntity
8
1
62
256
6
ByLayer
370
13
48
1
60
0
100
AcDbLine
10
54.168934
20
-14.995786
30
0
11
53.830618
21
-9.567581
31
0
39
0
210
0
220
0
230
1
0
LINE
5
A9
100
AcDbEntity
8
1
62
256
6
ByLayer
370
13
48
1
60
0
100
AcDbLine
10
44.322644
20
-24.558394
30
0
11
44.270058
21
-22.26041
31
0
39
0
210
0
220
0
230
1
0
LINE
5
AA
100
AcDbEntity
8
1
62
256
6
ByLayer
370
13
48
1
60
0
100
AcDbLine
10
0
20
-19.7
30
0
11
0
21
19.7
31
0
39
0
210
0
220
0
230
1
0
LINE
5
AB
100
AcDbEntity
8
1
62
256
6
ByLayer
370
13
48
1
60
0
100
AcDbLine
10
51.95154
20
-16.959361
30
0
11
50.17423
21
-16.81324
31
0
39
0
210
0
220
0
230
1
0
LINE
5
AC
100
AcDbEntity
8
1
62
256
6
ByLayer
370
13
48
1
60
0
100
AcDbLine
10
45.370643
20
-14.189607
30
0
11
45.866038
21
-14.144175
31
0
39
0
210
0
220
0
230
1
0
LINE
5
AD
100
AcDbEntity
8
1
62
256
6
ByLayer
370
13
48
1
60
0
100
AcDbLine
10
20.758791
20
-2.002498
30
0
11
21.908259
21
-2.002498
31
0
39
0
210
0
220
0
230
1
0
LINE
5
AE
100
AcDbEntity
8
1
62
256
6
ByLayer
370
13
48
1
60
0
100
AcDbLine
10
45.473948
20
-15.163387
30
0
11
43.883778
21
-15.060219
31
0
39
0
210
0
220
0
230
1
0
LINE
5
AF
100
AcDbEntity
8
1
62
256
6
ByLayer
370
13
48
1
60
0
100
AcDbLine
10
45.798308
20
-14.295196
30
0
11
45.866038
21
-14.144175
31
0
39
0
210
0
220
0
230
1
0
LINE
5
B0
100
AcDbEntity
8
1
62
256
6
ByLayer
370
13
48
1
60
0
100
AcDbLine
10
20.335094
20
-0.22822
30
0
11
26.523743
21
-4.443084
31
0
39
0
210
0
220
0
230
1
0
LINE
5
B1
100
AcDbEntity
8
1
62
256
6
ByLayer
370
13
48
1
60
0
100
AcDbLine
10
6.663397
20
-19.024574
30
0
11
6.663397
21
-6.16973
31
0
39
0
210
0
220
0
230
1
0
LINE
5
B2
100
AcDbEntity
8
1
62
256
6
ByLayer
370
13
48
1
60
0
100
AcDbLine
10
43.691475
20
-26.425409
30
0
11
44.266134
21
-24.891578
31
0
39
0
210
0
220
0
230
1
0
LINE
5
B3
100
AcDbEntity
8
1
62
256
6
ByLayer
370
13
48
1
60
0
100
AcDbLine
10
44.016237
20
-21.6522
30
0
11
44.192409
21
-21.117822
31
0
39
0
210
0
220
0
230
1
0
LINE
5
B4
100
AcDbEntity
8
1
62
256
6
ByLayer
370
13
48
1
60
0
100
AcDbLine
10
43.30742
20
-20.071943
30
0
11
43.069878
21
-16.916857
31
0
39
0
210
0
220
0
230
1
0
LINE
5
B5
100
AcDbEntity
8
1
62
256
6
ByLayer
370
13
48
1
60
0
100
AcDbLine
10
20.758791
20
-20.1
30
0
11
20.758791
21
-2.002498
31
0
39
0
210
0
220
0
230
1
0
LINE
5
B6
100
AcDbEntity
8
1
62
256
6
ByLayer
370
13
48
1
60
0
100
AcDbLine
10
44.171769
20
-26.223403
30
0
11
43.691475
21
-26.425409
31
0
39
0
210
0
220
0
230
1
0
LINE
5
B7
100
AcDbEntity
8
1
62
256
6
ByLayer
370
13
48
1
60
0
100
AcDbLine
10
46.685112
20
-14.849506
30
0
11
45.350238
21
-14.706188
31
0
39
0
210
0
220
0
230
1
0
LINE
5
B8
100
AcDbEntity
8
1
62
256
6
ByLayer
370
13
48
1
60
0
100
AcDbLine
10
52.123218
20
-17.020064
30
0
11
54.247844
21
-17.19474
31
0
39
0
210
0
220
0
230
1
0
LINE
5
B9
100
AcDbEntity
8
1
62
256
6
ByLayer
370
13
48
1
60
0
100
AcDbLine
10
46.539615
20
-14.543875
30
0
11
47.31125
21
-15.299237
31
0
39
0
210
0
220
0
230
1
0
LINE
5
BA
100
AcDbEntity
8
1
62
256
6
ByLayer
370
13
48
1
60
0
100
AcDbLine
10
44.223744
20
-14.75625
30
0
11
44.218617
21
-14.789412
31
0
39
0
210
0
220
0
230
1
0
LINE
5
BB
100
AcDbEntity
8
1
62
256
6
ByLayer
370
13
48
1
60
0
100
AcDbLine
10
54.247844
20
-17.19474
30
0
11
54.232728
21
-17.041128
31
0
39
0
210
0
220
0
230
1
0
LINE
5
BC
100
AcDbEntity
8
1
62
256
6
ByLayer
370
13
48
1
60
0
100
AcDbLine
10
50.246495
20
-16.7134
30
0
11
50.17423
21
-16.81324
31
0
39
0
210
0
220
0
230
1
0
LINE
5
BD
100
AcDbEntity
8
1
62
256
6
ByLayer
370
13
48
1
60
0
100
AcDbLine
10
6.923205
20
5.85989
30
0
11
6.923205
21
19.122283
31
0
39
0
210
0
220
0
230
1
0
LINE
5
BE
100
AcDbEntity
8
1
62
256
6
ByLayer
370
13
48
1
60
0
100
AcDbLine
10
43.30742
20
-20.071943
30
0
11
43.479648
21
-19.947328
31
0
39
0
210
0
220
0
230
1
0
LINE
5
BF
100
AcDbEntity
8
1
62
256
6
ByLayer
370
13
48
1
60
0
100
AcDbLine
10
50.246495
20
-16.7134
30
0
11
54.232728
21
-17.041128
31
0
39
0
210
0
220
0
230
1
0
LINE
5
C0
100
AcDbEntity
8
1
62
256
6
ByLayer
370
13
48
1
60
0
100
AcDbLine
10
51.052156
20
-26.743704
30
0
11
51.116735
21
-26.049844
31
0
39
0
210
0
220
0
230
1
0
LINE
5
C1
100
AcDbEntity
8
1
62
256
6
ByLayer
370
13
48
1
60
0
100
AcDbLine
10
44.154788
20
-15.762191
30
0
11
44.166506
21
-15.636297
31
0
39
0
210
0
220
0
230
1
0
LINE
5
C2
100
AcDbEntity
8
1
62
256
6
ByLayer
370
13
48
1
60
0
100
AcDbLine
10
50.011362
20
-25.242242
30
0
11
49.87684
21
-26.687592
31
0
39
0
210
0
220
0
230
1
0
LINE
5
C3
100
AcDbEntity
8
1
62
256
6
ByLayer
370
18
48
1
60
0
100
AcDbLine
10
47.359649
20
-22.880268
30
0
11
44.98035
21
-22.157601
31
0
39
0
210
0
220
0
230
1
0
LINE
5
C4
100
AcDbEntity
8
1
62
256
6
ByLayer
370
18
48
1
60
0
100
AcDbLine
10
54.728181
20
-22.850914
30
0
11
54.73782
21
-22.9686
31
0
39
0
210
0
220
0
230
1
0
LINE
5
C5
100
AcDbEntity
8
1
62
256
6
ByLayer
370
13
48
1
60
0
100
AcDbLine
10
47.210918
20
-17.989458
30
0
11
47.349301
21
-16.502616
31
0
39
0
210
0
220
0
230
1
0
LINE
5
C6
100
AcDbEntity
8
1
62
256
6
ByLayer
370
18
48
1
60
0
100
AcDbLine
10
48.603886
20
-26.68748
30
0
11
48.742269
21
-25.200638
31
0
39
0
210
0
220
0
230
1
0
LINE
5
C7
100
AcDbEntity
8
1
62
256
6
ByLayer
370
13
48
1
60
0
100
AcDbLine
10
46.2219
20
-15.44522
30
0
11
43.696742
21
-15.295268
31
0
39
0
210
0
220
0
230
1
0
LINE
5
C8
100
AcDbEntity
8
1
62
256
6
ByLayer
370
18
48
1
60
0
100
AcDbLine
10
45.182716
20
-19.390342
30
0
11
45.096099
21
-18.214808
31
0
39
0
210
0
220
0
230
1
0
LINE
5
C9
100
AcDbEntity
8
1
62
256
6
ByLayer
370
18
48
1
60
0
100
AcDbLine
10
44.416039
20
-16.328429
30
0
11
47.349301
21
-16.502616
31
0
39
0
210
0
220
0
230
1
0
LINE
5
CA
100
AcDbEntity
8
1
62
256
6
ByLayer
370
13
48
1
60
0
100
AcDbLine
10
45.109524
20
-18.21977
30
0
11
45.096099
21
-18.214808
31
0
39
0
210
0
220
0
230
1
0
LINE
5
CB
100
AcDbEntity
8
1
62
256
6
ByLayer
370
18
48
1
60
0
100
AcDbLine
10
47.210918
20
-17.989458
30
0
11
45.406752
21
-17.882321
31
0
39
0
210
0
220
0
230
1
0
LINE
5
CC
100
AcDbEntity
8
1
62
256
6
ByLayer
370
18
48
1
60
0
100
AcDbLine
10
44.98656
20
-22.265925
30
0
11
45.001156
21
-22.267125
31
0
39
0
210
0
220
0
230
1
0
LINE
5
CD
100
AcDbEntity
8
1
62
256
6
ByLayer
370
13
48
1
60
0
100
AcDbLine
10
44.756101
20
-23.293453
30
0
11
44.698012
21
-23.288677
31
0
39
0
210
0
220
0
230
1
0
LINE
5
CE
100
AcDbEntity
8
1
62
256
6
ByLayer
370
18
48
1
60
0
100
AcDbLine
10
43.608759
20
-15.430165
30
0
11
44.166506
21
-15.636297
31
0
39
0
210
0
220
0
230
1
0
LINE
5
CF
100
AcDbEntity
8
1
62
256
6
ByLayer
370
18
48
1
60
0
100
AcDbLine
10
44.166294
20
-15.760047
30
0
11
43.589981
21
-15.866563
31
0
39
0
210
0
220
0
230
1
0
LINE
5
D0
100
AcDbEntity
8
1
62
256
6
ByLayer
370
18
48
1
60
0
100
AcDbLine
10
43.835192
20
-20.480104
30
0
11
43.594102
21
-17.208135
31
0
39
0
210
0
220
0
230
1
0
LINE
5
D1
100
AcDbEntity
8
1
62
256
6
ByLayer
370
13
48
1
60
0
100
AcDbLine
10
43.594102
20
-17.208135
30
0
11
43.366485
21
-17.124012
31
0
39
0
210
0
220
0
230
1
0
LINE
5
D2
100
AcDbEntity
8
1
62
256
6
ByLayer
370
18
48
1
60
0
100
AcDbLine
10
51.828929
20
-20.777797
30
0
11
54.050035
21
-21.417713
31
0
39
0
210
0
220
0
230
1
0
LINE
5
D3
100
AcDbEntity
8
1
62
256
6
ByLayer
370
18
48
1
60
0
100
AcDbLine
10
54.359574
20
-17.125364
30
0
11
54.244573
21
-17.082862
31
0
39
0
210
0
220
0
230
1
0
LINE
5
D4
100
AcDbEntity
8
1
62
256
6
ByLayer
370
13
48
1
60
0
100
AcDbLine
10
45.428513
20
-17.890363
30
0
11
45.406752
21
-17.882321
31
0
39
0
210
0
220
0
230
1
0
LINE
5
D5
100
AcDbEntity
8
1
62
256
6
ByLayer
370
13
48
1
60
0
100
AcDbLine
10
44.151853
20
-20.50035
30
0
11
44.147205
21
-20.498632
31
0
39
0
210
0
220
0
230
1
0
LINE
5
D6
100
AcDbEntity
8
1
62
256
6
ByLayer
370
13
48
1
60
0
100
AcDbLine
10
43.395497
20
-15.951257
30
0
11
44.416039
21
-16.328429
31
0
39
0
210
0
220
0
230
1
0
LINE
5
D7
100
AcDbEntity
8
1
62
256
6
ByLayer
370
13
48
1
60
0
100
AcDbLine
10
44.283162
20
-25.927961
30
0
11
44.268586
21
-26.084568
31
0
39
0
210
0
220
0
230
1
0
LINE
5
D8
100
AcDbEntity
8
1
62
256
6
ByLayer
370
13
48
1
60
0
100
AcDbLine
10
51.294712
20
-16.943363
30
0
11
52.034589
21
-16.987299
31
0
39
0
210
0
220
0
230
1
0
LINE
5
D9
100
AcDbEntity
8
1
62
256
6
ByLayer
370
13
48
1
60
0
100
AcDbLine
10
54.245791
20
-17.118607
30
0
11
54.359574
21
-17.125364
31
0
39
0
210
0
220
0
230
1
0
LINE
5
DA
100
AcDbEntity
8
1
62
256
6
ByLayer
370
18
48
1
60
0
100
AcDbLine
10
45.001156
20
-22.267125
30
0
11
44.759517
21
-25.566869
31
0
39
0
210
0
220
0
230
1
0
LINE
5
DB
100
AcDbEntity
8
1
62
256
6
ByLayer
370
18
48
1
60
0
100
AcDbLine
10
44.756101
20
-23.293453
30
0
11
44.669286
21
-24.478965
31
0
39
0
210
0
220
0
230
1
0
LINE
5
DC
100
AcDbEntity
8
1
62
256
6
ByLayer
370
18
48
1
60
0
100
AcDbLine
10
50.318866
20
-16.831531
30
0
11
50.180482
21
-18.318373
31
0
39
0
210
0
220
0
230
1
0
LINE
5
DD
100
AcDbEntity
8
1
62
256
6
ByLayer
370
18
48
1
60
0
100
AcDbLine
10
43.835192
20
-20.480104
30
0
11
44.147205
21
-20.498632
31
0
39
0
210
0
220
0
230
1
0
LINE
5
DE
100
AcDbEntity
8
1
62
256
6
ByLayer
370
18
48
1
60
0
100
AcDbLine
10
48.64602
20
-16.622234
30
0
11
49.44483
21
-16.722176
31
0
39
0
210
0
220
0
230
1
0
LINE
5
DF
100
AcDbEntity
8
1
62
256
6
ByLayer
370
18
48
1
60
0
100
AcDbLine
10
50.169068
20
-16.812789
30
0
11
50.318866
21
-16.831531
31
0
39
0
210
0
220
0
230
1
0
LINE
5
E0
100
AcDbEntity
8
1
62
256
6
ByLayer
370
18
48
1
60
0
100
AcDbLine
10
54.03865
20
-21.313117
30
0
11
54.526918
21
-18.142386
31
0
39
0
210
0
220
0
230
1
0
LINE
5
E1
100
AcDbEntity
8
1
62
256
6
ByLayer
370
13
48
1
60
0
100
AcDbLine
10
54.526918
20
-18.142386
30
0
11
52.408745
21
-18.016602
31
0
39
0
210
0
220
0
230
1
0
LINE
5
E2
100
AcDbEntity
8
1
62
256
6
ByLayer
370
18
48
1
60
0
100
AcDbLine
10
54.13732
20
-26.99735
30
0
11
51.052156
21
-26.743704
31
0
39
0
210
0
220
0
230
1
0
LINE
5
E3
100
AcDbEntity
8
1
62
256
6
ByLayer
370
18
48
1
60
0
100
AcDbLine
10
48.507637
20
-18.109076
30
0
11
50.180482
21
-18.318373
31
0
39
0
210
0
220
0
230
1
0
LINE
5
E4
100
AcDbEntity
8
1
62
256
6
ByLayer
370
18
48
1
60
0
100
AcDbLine
10
43.643171
20
-20.38502
30
0
11
43.852397
21
-20.589835
31
0
39
0
210
0
220
0
230
1
0
LINE
5
E5
100
AcDbEntity
8
1
62
256
6
ByLayer
370
18
48
1
60
0
100
AcDbLine
10
44.59234
20
-26.408901
30
0
11
44.268586
21
-26.084568
31
0
39
0
210
0
220
0
230
1
0
LINE
5
E6
100
AcDbEntity
8
1
62
256
6
ByLayer
370
18
48
1
60
0
100
AcDbLine
10
49.87684
20
-26.687592
30
0
11
48.603886
21
-26.68748
31
0
39
0
210
0
220
0
230
1
0
LINE
5
E7
100
AcDbEntity
8
1
62
256
6
ByLayer
370
13
48
1
60
0
100
AcDbLine
10
45.182716
20
-19.390342
30
0
11
45.201722
21
-19.397366
31
0
39
0
210
0
220
0
230
1
0
LINE
5
E8
100
AcDbEntity
8
1
62
256
6
ByLayer
370
18
48
1
60
0
100
AcDbLine
10
54.052527
20
-21.313941
30
0
11
54.03865
21
-21.313117
31
0
39
0
210
0
220
0
230
1
0
LINE
5
E9
100
AcDbEntity
8
1
62
256
6
ByLayer
370
13
48
1
60
0
100
AcDbLine
10
51.116735
20
-26.049844
30
0
11
51.186665
21
-25.298493
31
0
39
0
210
0
220
0
230
1
0
LINE
5
EA
100
AcDbEntity
8
1
62
256
6
ByLayer
370
18
48
1
60
0
100
AcDbLine
10
44.156561
20
-20.97852
30
0
11
44.795669
21
-21.762041
31
0
39
0
210
0
220
0
230
1
0
LINE
5
EB
100
AcDbEntity
8
1
62
256
6
ByLayer
370
13
48
1
60
0
100
AcDbLine
10
48.507637
20
-18.109076
30
0
11
48.64602
21
-16.622234
31
0
39
0
210
0
220
0
230
1
0
LINE
5
EC
100
AcDbEntity
8
1
62
256
6
ByLayer
370
13
48
1
60
0
100
AcDbLine
10
44.759517
20
-25.566869
30
0
11
46.987382
21
-25.750033
31
0
39
0
210
0
220
0
230
1
0
LINE
5
ED
100
AcDbEntity
8
1
62
256
6
ByLayer
370
18
48
1
60
0
100
AcDbLine
10
54.73782
20
-22.9686
30
0
11
54.99737
21
-26.137582
31
0
39
0
210
0
220
0
230
1
0
LINE
5
EE
100
AcDbEntity
8
1
62
256
6
ByLayer
370
13
48
1
60
0
100
AcDbLine
10
44.628253
20
-24.475592
30
0
11
44.669286
21
-24.478965
31
0
39
0
210
0
220
0
230
1
0
LINE
5
EF
100
AcDbEntity
8
1
62
256
6
ByLayer
370
18
48
1
60
0
100
AcDbLine
10
43.839968
20
-20.481869
30
0
11
43.835192
21
-20.480104
31
0
39
0
210
0
220
0
230
1
0
LINE
5
F0
100
AcDbEntity
8
1
62
256
6
ByLayer
370
18
48
1
60
0
100
AcDbLine
10
54.100259
20
-21.742938
30
0
11
54.48474
21
-22.393262
31
0
39
0
210
0
220
0
230
1
0
LINE
5
F1
100
AcDbEntity
8
SK1
62
256
6
ByLayer
370
13
48
1
60
0
100
AcDbLine
10
-1.315435
20
-3.625867
30
0
11
-1.315435
21
3.625869
31
0
39
0
210
0
220
0
230
1
0
LINE
5
F3
100
AcDbEntity
8
1
62
256
6
ByLayer
370
13
48
1
60
0
100
AcDbLine
10
27.552241
20
-21.844973
30
0
11
32.075838
21
-24.937768
31
0
39
0
210
0
220
0
230
1
0
LINE
5
F4
100
AcDbEntity
8
2
62
256
6
ByLayer
370
13
48
1
60
0
100
AcDbLine
10
55
20
27.906502
30
0
11
0
21
27.906502
31
0
39
0
210
0
220
0
230
1
0
LINE
5
F6
100
AcDbEntity
8
2
62
256
6
ByLayer
370
13
48
1
60
0
100
AcDbLine
10
0
20
3.944817
30
0
11
0
21
31.081502
31
0
39
0
210
0
220
0
230
1
0
LINE
5
F7
100
AcDbEntity
8
2
62
256
6
ByLayer
370
13
48
1
60
0
100
AcDbLine
10
55
20
1.5875
30
0
11
55
21
31.081502
31
0
39
0
210
0
220
0
230
1
0
LINE
5
F8
100
AcDbEntity
8
2
62
256
6
ByLayer
370
18
48
1
60
0
100
AcDbLine
10
0
20
27.906502
30
0
11
3.174997
21
28.757241
31
0
39
0
210
0
220
0
230
1
0
LINE
5
F9
100
AcDbEntity
8
2
62
256
6
ByLayer
370
18
48
1
60
0
100
AcDbLine
10
0
20
27.906502
30
0
11
3.175003
21
27.055764
31
0
39
0
210
0
220
0
230
1
0
LINE
5
FA
100
AcDbEntity
8
2
62
256
6
ByLayer
370
18
48
1
60
0
100
AcDbLine
10
3.174997
20
28.757241
30
0
11
3.175003
21
27.055764
31
0
39
0
210
0
220
0
230
1
0
LINE
5
FB
100
AcDbEntity
8
2
62
256
6
ByLayer
370
18
48
1
60
0
100
AcDbLine
10
55
20
27.906502
30
0
11
51.825003
21
27.055764
31
0
39
0
210
0
220
0
230
1
0
LINE
5
FC
100
AcDbEntity
8
2
62
256
6
ByLayer
370
18
48
1
60
0
100
AcDbLine
10
55
20
27.906502
30
0
11
51.824997
21
28.757241
31
0
39
0
210
0
220
0
230
1
0
LINE
5
FD
100
AcDbEntity
8
2
62
256
6
ByLayer
370
18
48
1
60
0
100
AcDbLine
10
51.825003
20
27.055764
30
0
11
51.824997
21
28.757241
31
0
39
0
210
0
220
0
230
1
0
MTEXT
5
1D9
100
AcDbEntity
8
SK6
62
256
6
ByLayer
370
18
48
1
60
0
100
AcDbMText
10
-18.52415
20
24.653682
30
0
210
0
220
0
230
1
1
\W0.7273;C4-3-80-LL27055-10C
40
3.5
41
0
44
1.084337
50
0
71
7
72
5
7
iso_b_vert
0
MTEXT
5
1DD
100
AcDbEntity
8
2
62
256
6
ByLayer
370
13
48
1
60
0
100
AcDbMText
10
25.936842
20
29.031502
30
0
210
0
220
0
230
1
1
\W0.6740;55
40
4.5
41
0
44
1.084337
50
0
71
7
72
5
7
iso_b_vert
0
DIMENSION
5
1EB
100
AcDbEntity
8
2
62
256
6
ByLayer
370
13
48
1
60
0
100
AcDbDimension
2
DimnDraft3D1
10
55
20
5
30
0
11
44.38131
21
-35.510399
31
0
70
34
71
5
72
1
41
1
210
0
220
0
230
1
3
Standard
100
AcDb2LineAngularDimension
13
55
23
-27
33
0
14
50.016813
24
-26.590307
34
0
15
55
25
0
35
0
16
41.681299
26
-39.268642
36
0
40
0
0
DIMENSION
5
201
100
AcDbEntity
8
SK2
62
256
6
ByLayer
370
13
48
1
60
0
100
AcDbDimension
2
DimnDraft3D2
10
55
20
38.453878
30
0
11
26.773776
21
38.453878
31
0
70
32
71
5
72
1
41
1
210
0
220
0
230
1
3
Standard
100
AcDbAlignedDimension
13
-24
23
1.5875
33
0
14
55
24
1.5875
34
0
50
0
100
AcDbRotatedDimension
1001
ACAD
1000
DSTYLE
1002
{
1070
   279
1070
     0
1070
   172
1070
     1
1070
   173
1070
     1
1070
   340
1005
1DA
1070
   271
1070
     1
1070
   272
1070
     2
1070
    77
1070
     1
1070
    73
1070
     0
1070
   171
1070
     3
1070
   274
1070
     4
1070
   177
1070
   150
1070
   176
1070
     9
1070
   178
1070
    43
1070
    78
1070
     8
1070
    48
1040
-0.005
1070
    41
1041
3.175
1070
   147
1041
2.25
1070
    42
1041
1.5875
1070
    44
1041
3.175
1070
   140
1041
4.5
1070
   343
1005
1EC
1070
   344
1005
1EC
1002
}
0
DIMENSION
5
20F
100
AcDbEntity
8
2
62
256
6
ByLayer
370
13
48
1
60
0
100
AcDbDimension
2
DimnDraft3D3
10
87.118938
20
-27
30
0
11
87.118938
21
-15.733807
31
0
70
32
71
5
72
1
41
1
210
0
220
0
230
1
3
Standard
100
AcDbAlignedDimension
13
56.5875
23
0
33
0
14
66.5875
24
-27
34
0
50
90
100
AcDbRotatedDimension
1001
ACAD
1000
DSTYLE
1002
{
1070
    74
1070
     0
1070
   279
1070
     0
1070
   172
1070
     1
1070
   173
1070
     1
1070
   340
1005
1DA
1070
   271
1070
     1
1070
   272
1070
     2
1070
    77
1070
     1
1070
    73
1070
     0
1070
   171
1070
     3
1070
   274
1070
     4
1070
   177
1070
   150
1070
   176
1070
     9
1070
   178
1070
    43
1070
    78
1070
     8
1070
    48
1040
-0.005
1070
    41
1041
3.175
1070
   147
1041
2.25
1070
    42
1041
1.5875
1070
    44
1041
3.175
1070
   140
1041
4.5
1070
   343
1005
1EC
1070
   344
1005
1EC
1002
}
0
DIMENSION
5
21D
100
AcDbEntity
8
SK2
62
256
6
ByLayer
370
13
48
1
60
0
100
AcDbDimension
2
DimnDraft3D4
10
-35.085109
20
-20
30
0
11
-35.085109
21
0.469341
31
0
70
32
71
5
72
1
41
1
210
0
220
0
230
1
3
Standard
100
AcDbAlignedDimension
13
-1.5875
23
20
33
0
14
-1.5875
24
-20
34
0
50
90
100
AcDbRotatedDimension
1001
ACAD
1000
DSTYLE
1002
{
1070
    74
1070
     0
1070
   279
1070
     0
1070
   172
1070
     1
1070
   173
1070
     1
1070
   340
1005
1DA
1070
   271
1070
     1
1070
   272
1070
     2
1070
    77
1070
     1
1070
    73
1070
     0
1070
   171
1070
     3
1070
   274
1070
     4
1070
   177
1070
   150
1070
   176
1070
     9
1070
   178
1070
    43
1070
    78
1070
     8
1070
    48
1040
-0.005
1070
    41
1041
3.175
1070
   147
1041
2.25
1070
    42
1041
1.5875
1070
    44
1041
3.175
1070
   140
1041
4.5
1070
   343
1005
1EC
1070
   344
1005
1EC
1002
}
0
ENDSEC
0
SECTION
2
OBJECTS
0
DICTIONARY
5
287
330
0
100
AcDbDictionary
280
0
281
1
3
ACAD_GROUP
350
288
3
ACAD_MLINESTYLE
350
289
0
DICTIONARY
5
288
330
0
100
AcDbDictionary
280
0
281
1
0
DICTIONARY
5
289
330
0
100
AcDbDictionary
280
0
281
1
3
Standard
350
18
0
MLINESTYLE
5
18
330
289
100
AcDbMlineStyle
2
Standard
70
0
3

62
256
51
90
52
90
71
2
49
-0.5
62
256
6
ByLayer
49
0.5
62
256
6
ByLayer
0
RASTERVARIABLES
5
276
330

100
AcDbRasterVariables
90
0
70
1
71
1
72
1
0
ENDSEC
0
EOF
