0
SECTION
2
HEADER
9
$ACADVER
1
AC1015
9
$DWGCODEPAGE
3
ANSI_1252
9
$HANDSEED
5
350
9
$ANGBASE
50
0
9
$ANGDIR
70
0
9
$ATTMODE
70
1
9
$AUNITS
70
0
9
$AUPREC
70
0
9
$CECOLOR
62
256
9
$CELTSCALE
40
1
9
$CELTYPE
6
ByLayer
9
$CELWEIGHT
370
-1
9
$CLAYER
8
0
9
$CMLJUST
70
0
9
$CMLSCALE
40
1
9
$CMLSTYLE
2
Standard
9
$DIMSTYLE
2
Standard
9
$TEXTSIZE
40
0.2
9
$TEXTSTYLE
7
Standard
9
$LUNITS
70
2
9
$LUPREC
70
4
9
$EXTNAMES
290
1
9
$INSUNITS
70
4
9
$LTSCALE
40
1
9
$LWDISPLAY
290
0
9
$PDMODE
70
0
9
$PDSIZE
40
0
9
$PLINEGEN
70
0
0
ENDSEC
0
SECTION
2
CLASSES
0
CLASS
1
RASTERVARIABLES
2
AcDbRasterVariables
3
ISM
90
0
280
0
281
0
0
ENDSEC
0
SECTION
2
TABLES
0
TABLE
2
VPORT
5
346
100
AcDbSymbolTable
0
VPORT
5
1
100
AcDbSymbolTableRecord
100
AcDbViewportTableRecord
2
*Active
70
0
10
0
20
0
11
1
21
1
12
-1
22
1
13
0
23
0
14
0.5
24
0.5
15
10
25
10
16
0
26
0
36
1
17
0
27
0
37
0
0
ENDTAB
0
TABLE
2
LTYPE
5
347
100
AcDbSymbolTable
0
LTYPE
5
14
100
AcDbSymbolTableRecord
100
AcDbLinetypeTableRecord
70
0
2
ByBlock
3

72
65
73
0
40
0
0
LTYPE
5
15
100
AcDbSymbolTableRecord
100
AcDbLinetypeTableRecord
70
0
2
ByLayer
3

72
65
73
0
40
0
0
LTYPE
5
16
100
AcDbSymbolTableRecord
100
AcDbLinetypeTableRecord
70
0
2
CONTINUOUS
3
Solid line
72
65
73
0
40
0
0
LTYPE
5
3B
100
AcDbSymbolTableRecord
100
AcDbLinetypeTableRecord
70
0
2
DASHED
3
__ __ __ __ __ __ __ __ __
72
65
73
2
40
25.72
49
12.86
74
0
49
-12.86
74
0
0
LTYPE
5
3C
100
AcDbSymbolTableRecord
100
AcDbLinetypeTableRecord
70
0
2
HIDDEN
3
_ _ _ _ _ _ _ _ _ _ _ _ _ _ _
72
65
73
2
40
0.5
49
0.25
74
0
49
-0.25
74
0
0
LTYPE
5
3D
100
AcDbSymbolTableRecord
100
AcDbLinetypeTableRecord
70
0
2
PHANTOM
3
____ _ _ ____ _ _ _____ _ _ ____
72
65
73
6
40
50.5
49
18
74
0
49
-6.5
74
0
49
6.5
74
0
49
-6.5
74
0
49
6.5
74
0
49
-6.5
74
0
0
LTYPE
5
3E
100
AcDbSymbolTableRecord
100
AcDbLinetypeTableRecord
70
0
2
CENTER
3
____ _ ____ _ ____ _ ____
72
65
73
4
40
47.5
49
22
74
0
49
-8.5
74
0
49
8.5
74
0
49
-8.5
74
0
0
LTYPE
5
3F
100
AcDbSymbolTableRecord
100
AcDbLinetypeTableRecord
70
0
2
DOT
3
.........................
72
65
73
2
40
10
49
0
74
0
49
-10
74
0
0
LTYPE
5
40
100
AcDbSymbolTableRecord
100
AcDbLinetypeTableRecord
70
0
2
DASHDOT
3
_._._._._._._._._._._._._._._._.
72
65
73
4
40
70
49
31
74
0
49
-13
74
0
49
13
74
0
49
-13
74
0
0
ENDTAB
0
TABLE
2
LAYER
5
348
100
AcDbSymbolTable
0
LAYER
5
10
100
AcDbSymbolTableRecord
100
AcDbLayerTableRecord
2
0
70
0
62
7
6
CONTINUOUS
290
1
370
-3
390
0
0
LAYER
5
42
100
AcDbSymbolTableRecord
100
AcDbLayerTableRecord
2
80
70
0
62
-6
6
CONTINUOUS
290
1
370
-3
390
0
0
LAYER
5
44
100
AcDbSymbolTableRecord
100
AcDbLayerTableRecord
2
81
70
0
62
-3
6
CONTINUOUS
290
1
370
-3
390
0
0
LAYER
5
46
100
AcDbSymbolTableRecord
100
AcDbLayerTableRecord
2
2
70
0
62
7
6
CONTINUOUS
290
1
370
-3
390
0
0
LAYER
5
48
100
AcDbSymbolTableRecord
100
AcDbLayerTableRecord
2
1
70
0
62
4
6
CONTINUOUS
290
1
370
-3
390
0
0
LAYER
5
5B
100
AcDbSymbolTableRecord
100
AcDbLayerTableRecord
2
4
70
0
62
-2
6
CENTER
290
1
370
-3
390
0
0
LAYER
5
332
100
AcDbSymbolTableRecord
100
AcDbLayerTableRecord
2
SK4
70
0
62
2
6
CENTER
290
1
370
-3
390
0
0
LAYER
5
333
100
AcDbSymbolTableRecord
100
AcDbLayerTableRecord
2
SK1
70
0
62
4
6
CONTINUOUS
290
1
370
-3
390
0
0
LAYER
5
334
100
AcDbSymbolTableRecord
100
AcDbLayerTableRecord
2
SK6
70
0
62
5
6
CONTINUOUS
290
1
370
-3
390
0
0
LAYER
5
335
100
AcDbSymbolTableRecord
100
AcDbLayerTableRecord
2
SK2
70
0
62
7
6
CONTINUOUS
290
1
370
-3
390
0
0
ENDTAB
0
TABLE
2
STYLE
5
349
100
AcDbSymbolTable
0
STYLE
5
11
100
AcDbSymbolTableRecord
100
AcDbTextStyleTableRecord
2
Standard
3
txt
70
0
71
0
40
0
41
1
42
0
50
0
0
STYLE
5
2BC
100
AcDbSymbolTableRecord
100
AcDbTextStyleTableRecord
2
DEFAULT
3
simplex.shx
70
0
71
0
40
0
41
1
42
0
50
0
0
STYLE
5
2DF
100
AcDbSymbolTableRecord
100
AcDbTextStyleTableRecord
2
DWGDirectTextStyle
3
SIMPLEX
70
0
71
0
40
0
41
1
42
0
50
0
0
ENDTAB
0
TABLE
2
DIMSTYLE
5
34a
100
AcDbSymbolTable
100
AcDbDimStyleTable
0
DIMSTYLE
105
27
100
AcDbSymbolTableRecord
100
AcDbDimStyleTableRecord
2
Standard
70
0
3
<>
41
0.18
42
0.0625
44
0.18
140
0.18
147
0.09
73
0
74
0
77
1
271
2
275
0
278
52
280
0
340
11
0
ENDTAB
0
TABLE
2
VIEW
5
34b
100
AcDbSymbolTable
0
ENDTAB
0
TABLE
2
UCS
5
34c
100
AcDbSymbolTable
0
ENDTAB
0
TABLE
2
APPID
5
34d
100
AcDbSymbolTable
0
APPID
5
12
100
AcDbSymbolTableRecord
100
AcDbRegAppTableRecord
2
ACAD
70
0
0
ENDTAB
0
TABLE
2
BLOCK_RECORD
5
34e
100
AcDbSymbolTable
0
BLOCK_RECORD
5
1F
100
AcDbSymbolTableRecord
100
AcDbBlockTableRecord
2
*Model_Space
340
0
70
0
0
BLOCK_RECORD
5
1B
100
AcDbSymbolTableRecord
100
AcDbBlockTableRecord
2
*Paper_Space
340
0
70
0
0
BLOCK_RECORD
5
23
100
AcDbSymbolTableRecord
100
AcDbBlockTableRecord
2
*Paper_Space0
340
0
70
0
0
BLOCK_RECORD
5
2E1
100
AcDbSymbolTableRecord
100
AcDbBlockTableRecord
2
DimnDraft3D1
340
0
70
0
0
BLOCK_RECORD
5
2EF
100
AcDbSymbolTableRecord
100
AcDbBlockTableRecord
2
_CLOSED
340
0
70
0
0
BLOCK_RECORD
5
2F6
100
AcDbSymbolTableRecord
100
AcDbBlockTableRecord
2
DimnDraft3D2
340
0
70
0
0
BLOCK_RECORD
5
305
100
AcDbSymbolTableRecord
100
AcDbBlockTableRecord
2
DimnDraft3D3
340
0
70
0
0
ENDTAB
0
ENDSEC
0
SECTION
2
BLOCKS
0
BLOCK
5
20
100
AcDbEntity
8
0
100
AcDbBlockBegin
2
*Model_Space
70
0
10
0
20
0
30
0
3
*Model_Space
0
ENDBLK
5
21
100
AcDbEntity
8
0
100
AcDbBlockEnd
0
BLOCK
5
1C
100
AcDbEntity
8
0
100
AcDbBlockBegin
2
*Paper_Space
70
0
10
0
20
0
30
0
3
*Paper_Space
0
ENDBLK
5
1D
100
AcDbEntity
8
0
100
AcDbBlockEnd
0
BLOCK
5
24
100
AcDbEntity
8
0
100
AcDbBlockBegin
2
*Paper_Space0
70
0
10
0
20
0
30
0
3
*Paper_Space0
0
ENDBLK
5
25
100
AcDbEntity
8
0
100
AcDbBlockEnd
0
BLOCK
5
2EC
100
AcDbEntity
8
0
100
AcDbBlockBegin
2
DimnDraft3D1
70
0
10
0
20
0
30
0
3
DimnDraft3D1
0
MTEXT
5
2E2
100
AcDbEntity
8
2
62
256
6
ByLayer
370
-1
48
1
60
0
100
AcDbMText
10
63.125
20
11.996053
30
0
210
0
220
0
230
1
1
\W01.000;\fsimplex.shx,bigfont.shx;27 
40
4.5
41
0
44
1.084337
50
90
71
7
72
5
7
DEFAULT
0
LINE
5
2E3
100
AcDbEntity
8
2
62
256
6
ByLayer
370
-1
48
1
60
0
100
AcDbLine
10
56.5
20
0
30
0
11
67.25
21
0
31
0
39
0
210
0
220
0
230
1
0
LINE
5
2E4
100
AcDbEntity
8
2
62
256
6
ByLayer
370
-1
48
1
60
0
100
AcDbLine
10
51.5
20
27
30
0
11
67.25
21
27
31
0
39
0
210
0
220
0
230
1
0
LINE
5
2E5
100
AcDbEntity
8
2
62
256
6
ByLayer
370
-1
48
1
60
0
100
AcDbLine
10
64.25
20
0
30
0
11
64.25
21
27
31
0
39
0
210
0
220
0
230
1
0
LINE
5
2E6
100
AcDbEntity
8
2
62
256
6
ByLayer
370
-1
48
1
60
0
100
AcDbLine
10
64.25
20
0
30
0
11
63.855043
21
2.999999
31
0
39
0
210
0
220
0
230
1
0
LINE
5
2E7
100
AcDbEntity
8
2
62
256
6
ByLayer
370
-1
48
1
60
0
100
AcDbLine
10
64.25
20
0
30
0
11
64.644957
21
3.000001
31
0
39
0
210
0
220
0
230
1
0
LINE
5
2E8
100
AcDbEntity
8
2
62
256
6
ByLayer
370
-1
48
1
60
0
100
AcDbLine
10
63.855043
20
2.999999
30
0
11
64.644957
21
3.000001
31
0
39
0
210
0
220
0
230
1
0
LINE
5
2E9
100
AcDbEntity
8
2
62
256
6
ByLayer
370
-1
48
1
60
0
100
AcDbLine
10
64.25
20
27
30
0
11
64.644957
21
24.000001
31
0
39
0
210
0
220
0
230
1
0
LINE
5
2EA
100
AcDbEntity
8
2
62
256
6
ByLayer
370
-1
48
1
60
0
100
AcDbLine
10
64.25
20
27
30
0
11
63.855043
21
23.999999
31
0
39
0
210
0
220
0
230
1
0
LINE
5
2EB
100
AcDbEntity
8
2
62
256
6
ByLayer
370
-1
48
1
60
0
100
AcDbLine
10
64.644957
20
24.000001
30
0
11
63.855043
21
23.999999
31
0
39
0
210
0
220
0
230
1
0
ENDBLK
5
2ED
100
AcDbEntity
8
0
100
AcDbBlockEnd
0
BLOCK
5
2F0
100
AcDbEntity
8
0
100
AcDbBlockBegin
2
_CLOSED
70
0
10
0
20
0
30
0
3
_CLOSED
0
LINE
5
2F2
100
AcDbEntity
8
0
62
256
6
ByLayer
370
-2
48
1
60
0
100
AcDbLine
10
-1
20
0.166667
30
0
11
0
21
0
31
0
39
0
210
0
220
0
230
1
0
LINE
5
2F3
100
AcDbEntity
8
0
62
256
6
ByLayer
370
-2
48
1
60
0
100
AcDbLine
10
0
20
0
30
0
11
-1
21
-0.166667
31
0
39
0
210
0
220
0
230
1
0
LINE
5
2F4
100
AcDbEntity
8
0
62
256
6
ByLayer
370
-2
48
1
60
0
100
AcDbLine
10
-1
20
0.166667
30
0
11
-1
21
-0.166667
31
0
39
0
210
0
220
0
230
1
0
LINE
5
2F5
100
AcDbEntity
8
0
62
256
6
ByLayer
370
-2
48
1
60
0
100
AcDbLine
10
0
20
0
30
0
11
-1
21
0
31
0
39
0
210
0
220
0
230
1
0
ENDBLK
5
2F1
100
AcDbEntity
8
0
100
AcDbBlockEnd
0
BLOCK
5
302
100
AcDbEntity
8
0
100
AcDbBlockBegin
2
DimnDraft3D2
70
0
10
0
20
0
30
0
3
DimnDraft3D2
0
MTEXT
5
2F7
100
AcDbEntity
8
SK2
62
256
6
ByLayer
370
-1
48
1
60
0
100
AcDbMText
10
-34.875
20
-3.896053
30
0
210
0
220
0
230
1
1
\W01.000;\fsimplex.shx,bigfont.shx;%%c40 
40
4.5
41
0
44
1.084337
50
90
71
7
72
5
7
DEFAULT
0
LINE
5
2F9
100
AcDbEntity
8
SK2
62
256
6
ByLayer
370
-1
48
1
60
0
100
AcDbLine
10
-1.5
20
20
30
0
11
-36.75
21
20
31
0
39
0
210
0
220
0
230
1
0
LINE
5
2FA
100
AcDbEntity
8
SK2
62
256
6
ByLayer
370
-1
48
1
60
0
100
AcDbLine
10
-1.5
20
-20
30
0
11
-36.75
21
-20
31
0
39
0
210
0
220
0
230
1
0
LINE
5
2FB
100
AcDbEntity
8
SK2
62
256
6
ByLayer
370
-1
48
1
60
0
100
AcDbLine
10
-33.75
20
20
30
0
11
-33.75
21
-20
31
0
39
0
210
0
220
0
230
1
0
LINE
5
2FC
100
AcDbEntity
8
SK2
62
256
6
ByLayer
370
-1
48
1
60
0
100
AcDbLine
10
-33.75
20
20
30
0
11
-33.355043
21
17.000001
31
0
39
0
210
0
220
0
230
1
0
LINE
5
2FD
100
AcDbEntity
8
SK2
62
256
6
ByLayer
370
-1
48
1
60
0
100
AcDbLine
10
-33.75
20
20
30
0
11
-34.144957
21
16.999999
31
0
39
0
210
0
220
0
230
1
0
LINE
5
2FE
100
AcDbEntity
8
SK2
62
256
6
ByLayer
370
-1
48
1
60
0
100
AcDbLine
10
-33.355043
20
17.000001
30
0
11
-34.144957
21
16.999999
31
0
39
0
210
0
220
0
230
1
0
LINE
5
2FF
100
AcDbEntity
8
SK2
62
256
6
ByLayer
370
-1
48
1
60
0
100
AcDbLine
10
-33.75
20
-20
30
0
11
-34.144957
21
-17.000001
31
0
39
0
210
0
220
0
230
1
0
LINE
5
300
100
AcDbEntity
8
SK2
62
256
6
ByLayer
370
-1
48
1
60
0
100
AcDbLine
10
-33.75
20
-20
30
0
11
-33.355043
21
-16.999999
31
0
39
0
210
0
220
0
230
1
0
LINE
5
301
100
AcDbEntity
8
SK2
62
256
6
ByLayer
370
-1
48
1
60
0
100
AcDbLine
10
-34.144957
20
-17.000001
30
0
11
-33.355043
21
-16.999999
31
0
39
0
210
0
220
0
230
1
0
ENDBLK
5
303
100
AcDbEntity
8
0
100
AcDbBlockEnd
0
BLOCK
5
310
100
AcDbEntity
8
0
100
AcDbBlockBegin
2
DimnDraft3D3
70
0
10
0
20
0
30
0
3
DimnDraft3D3
0
MTEXT
5
306
100
AcDbEntity
8
2
62
256
6
ByLayer
370
-1
48
1
60
0
100
AcDbMText
10
23.496053
20
47.875
30
0
210
0
220
0
230
1
1
\W01.000;\fsimplex.shx,bigfont.shx;50 
40
4.5
41
0
44
1.084337
50
0
71
7
72
5
7
DEFAULT
0
LINE
5
307
100
AcDbEntity
8
2
62
256
6
ByLayer
370
-1
48
1
60
0
100
AcDbLine
10
50
20
28.5
30
0
11
50
21
49.75
31
0
39
0
210
0
220
0
230
1
0
LINE
5
308
100
AcDbEntity
8
2
62
256
6
ByLayer
370
-1
48
1
60
0
100
AcDbLine
10
0
20
1.5
30
0
11
0
21
49.75
31
0
39
0
210
0
220
0
230
1
0
LINE
5
309
100
AcDbEntity
8
2
62
256
6
ByLayer
370
-1
48
1
60
0
100
AcDbLine
10
50
20
46.75
30
0
11
0
21
46.75
31
0
39
0
210
0
220
0
230
1
0
LINE
5
30A
100
AcDbEntity
8
2
62
256
6
ByLayer
370
-1
48
1
60
0
100
AcDbLine
10
50
20
46.75
30
0
11
47.000001
21
46.355043
31
0
39
0
210
0
220
0
230
1
0
LINE
5
30B
100
AcDbEntity
8
2
62
256
6
ByLayer
370
-1
48
1
60
0
100
AcDbLine
10
50
20
46.75
30
0
11
46.999999
21
47.144957
31
0
39
0
210
0
220
0
230
1
0
LINE
5
30C
100
AcDbEntity
8
2
62
256
6
ByLayer
370
-1
48
1
60
0
100
AcDbLine
10
47.000001
20
46.355043
30
0
11
46.999999
21
47.144957
31
0
39
0
210
0
220
0
230
1
0
LINE
5
30D
100
AcDbEntity
8
2
62
256
6
ByLayer
370
-1
48
1
60
0
100
AcDbLine
10
0
20
46.75
30
0
11
2.999999
21
47.144957
31
0
39
0
210
0
220
0
230
1
0
LINE
5
30E
100
AcDbEntity
8
2
62
256
6
ByLayer
370
-1
48
1
60
0
100
AcDbLine
10
0
20
46.75
30
0
11
3.000001
21
46.355043
31
0
39
0
210
0
220
0
230
1
0
LINE
5
30F
100
AcDbEntity
8
2
62
256
6
ByLayer
370
-1
48
1
60
0
100
AcDbLine
10
2.999999
20
47.144957
30
0
11
3.000001
21
46.355043
31
0
39
0
210
0
220
0
230
1
0
ENDBLK
5
311
100
AcDbEntity
8
0
100
AcDbBlockEnd
0
ENDSEC
0
SECTION
2
ENTITIES
0
ARC
5
142
100
AcDbEntity
8
1
62
256
6
ByLayer
370
-1
48
1
60
0
100
AcDbCircle
39
0
10
13.173926
20
0.95763
30
0
40
3.25
210
0
220
0
230
1
100
AcDbArc
50
344.531826
51
346.872932
0
ARC
5
143
100
AcDbEntity
8
1
62
256
6
ByLayer
370
-1
48
1
60
0
100
AcDbCircle
39
0
10
-16.582466
20
0.162741
30
0
40
0.25
210
0
220
0
230
-1
100
AcDbArc
50
13.127068
51
105
0
ARC
5
144
100
AcDbEntity
8
1
62
256
6
ByLayer
370
-1
48
1
60
0
100
AcDbCircle
39
0
10
30.055258
20
21.260072
30
0
40
5.97633063734988
210
0
220
0
230
1
100
AcDbArc
50
54.315661
51
69.095151
0
ARC
5
145
100
AcDbEntity
8
1
62
256
6
ByLayer
370
-1
48
1
60
0
100
AcDbCircle
39
0
10
30.055258
20
21.260072
30
0
40
5.97633063734988
210
0
220
0
230
1
100
AcDbArc
50
110.837319
51
122.502808
0
ARC
5
146
100
AcDbEntity
8
SK1
62
256
6
ByLayer
370
-1
48
1
60
0
100
AcDbCircle
39
0
10
0.6
20
-15
30
0
40
0.999999999999989
210
0
220
0
230
-1
100
AcDbArc
50
113.578178
51
126.869898
0
ARC
5
147
100
AcDbEntity
8
SK1
62
256
6
ByLayer
370
-1
48
1
60
0
100
AcDbCircle
39
0
10
0.6
20
15
30
0
40
0.999999999999989
210
0
220
0
230
-1
100
AcDbArc
50
233.130102
51
246.421822
0
CIRCLE
5
148
100
AcDbEntity
8
SK1
62
256
6
ByLayer
370
-1
48
1
60
0
100
AcDbCircle
10
11.5
20
0
30
0
40
2.3
39
0
210
0
220
0
230
-1
0
ELLIPSE
5
149
100
AcDbEntity
8
1
62
256
6
ByLayer
370
-1
48
1
60
0
100
AcDbEllipse
10
-0.948929
20
0
30
0
11
-9.36741787978225
21
19.7417491527506
31
0
210
0
220
0
230
1
40
0.341999
41
-2.98886640869145
42
-2.04527312608991
0
ELLIPSE
5
14A
100
AcDbEntity
8
1
62
256
6
ByLayer
370
-1
48
1
60
0
100
AcDbEllipse
10
38.779797
20
9.651197
30
0
11
-0.206873124354912
21
2.08978554383569
31
0
210
0
220
0
230
1
40
0.984662
41
1.78063588072521
42
-1.61140889874692
0
ELLIPSE
5
14B
100
AcDbEntity
8
1
62
256
6
ByLayer
370
-1
48
1
60
0
100
AcDbEllipse
10
37.381584
20
10.943237
30
0
11
-0.268441419904055
21
2.73686667634357
31
0
210
0
220
0
230
1
40
0.984665
41
-2.17767013075927
42
-1.69448171525846
0
ELLIPSE
5
14C
100
AcDbEntity
8
1
62
256
6
ByLayer
370
-1
48
1
60
0
100
AcDbEllipse
10
36.213034
20
15.17167
30
0
11
-1.16166011399065
21
2.82949830534488
31
0
210
0
220
0
230
1
40
0.404894
41
1.51842147741591
42
1.88248147958689
0
ELLIPSE
5
14D
100
AcDbEntity
8
1
62
256
6
ByLayer
370
-1
48
1
60
0
100
AcDbEllipse
10
16.948929
20
0
30
0
11
-9.3674178797822
21
-19.7417491527504
31
0
210
0
220
0
230
1
40
0.341999
41
-1.09631952749989
42
-0.152726244898346
0
ELLIPSE
5
14E
100
AcDbEntity
8
1
62
256
6
ByLayer
370
-1
48
1
60
0
100
AcDbEllipse
10
16.948929
20
0
30
0
11
-9.36741787978157
21
19.7417491527497
31
0
210
0
220
0
230
1
40
0.341999
41
0.152726244898346
42
1.09631952749992
0
ELLIPSE
5
14F
100
AcDbEntity
8
1
62
256
6
ByLayer
370
-1
48
1
60
0
100
AcDbEllipse
10
36.751333
20
10.881419
30
0
11
-0.285461719077497
21
2.91039537264476
31
0
210
0
220
0
230
1
40
0.984665
41
-2.28817713324621
42
-1.82289570904543
0
ELLIPSE
5
150
100
AcDbEntity
8
1
62
256
6
ByLayer
370
-1
48
1
60
0
100
AcDbEllipse
10
16.699909
20
1.902415
30
0
11
-0.0089765702378801
21
-4.65993695577284
31
0
210
0
220
0
230
1
40
0.084464
41
1.96906221596882
42
-1.54799375804911
0
ELLIPSE
5
151
100
AcDbEntity
8
1
62
256
6
ByLayer
370
-1
48
1
60
0
100
AcDbEllipse
10
31.114896
20
24.090438
30
0
11
-1.16166011396057
21
2.82949830520324
31
0
210
0
220
0
230
1
40
0.404894
41
1.88248147957905
42
2.24654148176612
0
ELLIPSE
5
152
100
AcDbEntity
8
1
62
256
6
ByLayer
370
-1
48
1
60
0
100
AcDbEllipse
10
36.998828
20
9.476514
30
0
11
-0.204991629744915
21
2.08997091648054
31
0
210
0
220
0
230
1
40
0.984665
41
-2.69410010730695
42
-1.25505427596365
0
ELLIPSE
5
153
100
AcDbEntity
8
1
62
256
6
ByLayer
370
-1
48
1
60
0
100
AcDbEllipse
10
37.050915
20
9.481622
30
0
11
-0.204991629744915
21
2.08997091648054
31
0
210
0
220
0
230
1
40
0.984665
41
-1.81127820694354
42
-1.25494885880057
0
ELLIPSE
5
154
100
AcDbEntity
8
1
62
256
6
ByLayer
370
-1
48
1
60
0
100
AcDbEllipse
10
45.128507
20
10.273901
30
0
11
-5.86696719948427
21
-2.19955227400583
31
0
210
0
220
0
230
1
40
0.221467
41
-0.838625155302888
42
-0.453141779074389
0
ELLIPSE
5
155
100
AcDbEntity
8
1
62
256
6
ByLayer
370
-1
48
1
60
0
100
AcDbEllipse
10
-0.948929
20
0
30
0
11
-9.36741787978225
21
-19.7417491527505
31
0
210
0
220
0
230
1
40
0.341999
41
2.04527312608991
42
2.98886640869145
0
ELLIPSE
5
156
100
AcDbEntity
8
1
62
256
6
ByLayer
370
-1
48
1
60
0
100
AcDbEllipse
10
37.681167
20
9.54344
30
0
11
-0.204991629744915
21
2.08997091648054
31
0
210
0
220
0
230
1
40
0.984665
41
-1.99600579551272
42
-1.64036463778546
0
ELLIPSE
5
157
100
AcDbEntity
8
1
62
256
6
ByLayer
370
-1
48
1
60
0
100
AcDbEllipse
10
17.749773
20
0
30
0
11
1.22460635382238E-15
21
20
31
0
210
0
220
0
230
1
40
0.087489
41
0.39257506339553
42
2.74901759019426
0
ELLIPSE
5
158
100
AcDbEntity
8
1
62
256
6
ByLayer
370
-1
48
1
60
0
100
AcDbEllipse
10
37.608694
20
10.865957
30
0
11
-0.199160462252843
21
2.01187397822167
31
0
210
0
220
0
230
1
40
0.984662
41
0.692778987387551
42
2.62878226714814
0
ELLIPSE
5
159
100
AcDbEntity
8
1
62
256
6
ByLayer
370
-1
48
1
60
0
100
AcDbEllipse
10
30.058231
20
26.828296
30
0
11
1.96849965818184
21
-0.00116005943422347
31
0
210
0
220
0
230
1
40
0.053469
41
-0.432657031241935
42
-0.371469425605493
0
ELLIPSE
5
15A
100
AcDbEntity
8
1
62
256
6
ByLayer
370
-1
48
1
60
0
100
AcDbEllipse
10
30.058231
20
26.828296
30
0
11
1.96849965818184
21
-0.00116005943422347
31
0
210
0
220
0
230
1
40
0.053469
41
-1.41850830097579
42
-1.38661682772159
0
ELLIPSE
5
15B
100
AcDbEntity
8
1
62
256
6
ByLayer
370
-1
48
1
60
0
100
AcDbEllipse
10
30.058231
20
26.828296
30
0
11
1.96849965818184
21
-0.00116005943422347
31
0
210
0
220
0
230
1
40
0.053469
41
2.77012322798433
42
-2.46586452799863
0
ELLIPSE
5
15C
100
AcDbEntity
8
1
62
256
6
ByLayer
370
-1
48
1
60
0
100
AcDbEllipse
10
30.058231
20
26.828296
30
0
11
1.96849965818184
21
-0.00116005943422347
31
0
210
0
220
0
230
1
40
0.053469
41
0.675728125591123
42
1.72292567678768
0
ELLIPSE
5
15D
100
AcDbEntity
8
1
62
256
6
ByLayer
370
-1
48
1
60
0
100
AcDbEllipse
10
30.058231
20
26.828296
30
0
11
1.96849965818184
21
-0.00116005943422347
31
0
210
0
220
0
230
1
40
0.053469
41
1.72292567678768
42
2.77012322798433
0
ELLIPSE
5
15E
100
AcDbEntity
8
1
62
256
6
ByLayer
370
-1
48
1
60
0
100
AcDbEllipse
10
30.058231
20
26.828296
30
0
11
1.96849965818184
21
-0.00116005943422347
31
0
210
0
220
0
230
1
40
0.053469
41
-2.46586452799863
42
-1.41866697680211
0
ELLIPSE
5
15F
100
AcDbEntity
8
1
62
256
6
ByLayer
370
-1
48
1
60
0
100
AcDbEllipse
10
30.058231
20
26.828296
30
0
11
1.96849965818184
21
-0.00116005943422347
31
0
210
0
220
0
230
1
40
0.053469
41
-0.371469425605493
42
0.675728125591123
0
ELLIPSE
5
160
100
AcDbEntity
8
1
62
256
6
ByLayer
370
-1
48
1
60
0
100
AcDbEllipse
10
30.057464
20
25.530156
30
0
11
-4.17499927503646
21
0.00246037497479402
31
0
210
0
220
0
230
1
40
0.053469
41
1.2969974304604
42
1.57168767873664
0
ELLIPSE
5
161
100
AcDbEntity
8
1
62
256
6
ByLayer
370
-1
48
1
60
0
100
AcDbEllipse
10
30.058231
20
26.828296
30
0
11
-2.14999962666548
21
0.00126701944809752
31
0
210
0
220
0
230
1
40
0.053469
41
-1.57090824447372
42
0
0
ELLIPSE
5
162
100
AcDbEntity
8
1
62
256
6
ByLayer
370
-1
48
1
60
0
100
AcDbEllipse
10
30.058231
20
26.828296
30
0
11
-2.14999962666548
21
0.00126701944809752
31
0
210
0
220
0
230
1
40
0.053469
41
0
42
1.72893629346615
0
ELLIPSE
5
163
100
AcDbEntity
8
1
62
256
6
ByLayer
370
-1
48
1
60
0
100
AcDbEllipse
10
30.058231
20
26.828296
30
0
11
-2.14999962666548
21
0.00126701944809752
31
0
210
0
220
0
230
1
40
0.053469
41
2.57689459473714
42
-1.57090824447366
0
ELLIPSE
5
164
100
AcDbEntity
8
1
62
256
6
ByLayer
370
-1
48
1
60
0
100
AcDbEllipse
10
39.228705
20
20.655015
30
0
11
0.193919076328093
21
-1.95892512410149
31
0
210
0
220
0
230
1
40
0.984662
41
1.47362901529708
42
2.51416949490071
0
ELLIPSE
5
165
100
AcDbEntity
8
1
62
256
6
ByLayer
370
-1
48
1
60
0
100
AcDbEllipse
10
38.950909
20
20.627515
30
0
11
-0.139491700320337
21
1.4091125098947
31
0
210
0
220
0
230
1
40
0.984662
41
-2.18823387809452
42
-1.1476933984909
0
ELLIPSE
5
166
100
AcDbEntity
8
1
62
256
6
ByLayer
370
-1
48
1
60
0
100
AcDbEllipse
10
39.173322
20
20.649532
30
0
11
0.139491700320336
21
-1.4091125098947
31
0
210
0
220
0
230
1
40
0.984662
41
2.93634691015992
42
-3.13068153315557
0
ELLIPSE
5
167
100
AcDbEntity
8
1
62
256
6
ByLayer
370
-1
48
1
60
0
100
AcDbEllipse
10
38.950909
20
20.627515
30
0
11
-0.139491700320337
21
1.4091125098947
31
0
210
0
220
0
230
1
40
0.984662
41
1.17753040921202
42
1.7123193845814
0
ELLIPSE
5
168
100
AcDbEntity
8
1
62
256
6
ByLayer
370
-1
48
1
60
0
100
AcDbEllipse
10
38.950909
20
20.627515
30
0
11
0.139491700320336
21
-1.4091125098947
31
0
210
0
220
0
230
1
40
0.984662
41
-3.13068153315556
42
-2.56054477153642
0
ELLIPSE
5
169
100
AcDbEntity
8
1
62
256
6
ByLayer
370
-1
48
1
60
0
100
AcDbEllipse
10
39.228705
20
20.655015
30
0
11
0.193919076328093
21
-1.95892512410149
31
0
210
0
220
0
230
1
40
0.984662
41
2.51416949490071
42
-2.70850411789635
0
ELLIPSE
5
16A
100
AcDbEntity
8
1
62
256
6
ByLayer
370
-1
48
1
60
0
100
AcDbEllipse
10
38.139039
20
19.214226
30
0
11
-0.0325086589729598
21
0.328394864594104
31
0
210
0
220
0
230
1
40
0.984662
41
-2.68961876492368
42
-2.43948678553542
0
ELLIPSE
5
16B
100
AcDbEntity
8
1
62
256
6
ByLayer
370
-1
48
1
60
0
100
AcDbEllipse
10
39.228705
20
20.655015
30
0
11
0.193919076328093
21
-1.95892512410149
31
0
210
0
220
0
230
1
40
0.984662
41
-0.627423158689078
42
0.433088535693457
0
ELLIPSE
5
16C
100
AcDbEntity
8
1
62
256
6
ByLayer
370
-1
48
1
60
0
100
AcDbEllipse
10
38.130602
20
22.040804
30
0
11
-0.0325086589729598
21
0.328394864594104
31
0
210
0
220
0
230
1
40
0.984662
41
-0.896440491050008
42
-0.466946123866642
0
ELLIPSE
5
16D
100
AcDbEntity
8
1
62
256
6
ByLayer
370
-1
48
1
60
0
100
AcDbEllipse
10
38.944285
20
22.84668
30
0
11
-0.0813701585201964
21
0.821982297438575
31
0
210
0
220
0
230
1
40
0.984662
41
2.24515216253979
42
2.85843812004672
0
ELLIPSE
5
16E
100
AcDbEntity
8
1
62
256
6
ByLayer
370
-1
48
1
60
0
100
AcDbEllipse
10
39.762779
20
22.040804
30
0
11
-0.0325086589729598
21
0.328394864594104
31
0
210
0
220
0
230
1
40
0.984662
41
-1.92955846579777
42
-0.422767543732117
0
ELLIPSE
5
16F
100
AcDbEntity
8
1
62
256
6
ByLayer
370
-1
48
1
60
0
100
AcDbEllipse
10
38.950909
20
20.627515
30
0
11
-0.139491700320337
21
1.4091125098947
31
0
210
0
220
0
230
1
40
0.984662
41
-2.9749863829689
42
-2.18823387809452
0
ELLIPSE
5
170
100
AcDbEntity
8
1
62
256
6
ByLayer
370
-1
48
1
60
0
100
AcDbEllipse
10
39.173322
20
20.649532
30
0
11
0.139491700320336
21
-1.4091125098947
31
0
210
0
220
0
230
1
40
0.984662
41
-0.205245743429897
42
0.0109111204342893
0
ELLIPSE
5
171
100
AcDbEntity
8
1
62
256
6
ByLayer
370
-1
48
1
60
0
100
AcDbEllipse
10
39.228705
20
20.655015
30
0
11
0.193919076328093
21
-1.95892512410149
31
0
210
0
220
0
230
1
40
0.984662
41
0.433088535693457
42
1.47362901529708
0
ELLIPSE
5
172
100
AcDbEntity
8
1
62
256
6
ByLayer
370
-1
48
1
60
0
100
AcDbEllipse
10
40.863378
20
21.741882
30
0
11
-0.0813701585201964
21
0.821982297438575
31
0
210
0
220
0
230
1
40
0.984662
41
1.9938992550989
42
2.77576432240577
0
ELLIPSE
5
173
100
AcDbEntity
8
1
62
256
6
ByLayer
370
-1
48
1
60
0
100
AcDbEllipse
10
38.950909
20
20.627515
30
0
11
-0.139491700320337
21
1.4091125098947
31
0
210
0
220
0
230
1
40
0.984662
41
2.3692440139746
42
2.93634691015989
0
ELLIPSE
5
174
100
AcDbEntity
8
1
62
256
6
ByLayer
370
-1
48
1
60
0
100
AcDbEllipse
10
40.870031
20
19.513149
30
0
11
-0.0813701585201964
21
0.821982297438575
31
0
210
0
220
0
230
1
40
0.984662
41
0.953358775495272
42
1.73522384280215
0
ELLIPSE
5
175
100
AcDbEntity
8
1
62
256
6
ByLayer
370
-1
48
1
60
0
100
AcDbEllipse
10
39.228705
20
20.655015
30
0
11
0.193919076328093
21
-1.95892512410149
31
0
210
0
220
0
230
1
40
0.984662
41
-2.70850411789635
42
-1.66796363829271
0
ELLIPSE
5
176
100
AcDbEntity
8
1
62
256
6
ByLayer
370
-1
48
1
60
0
100
AcDbEllipse
10
38.957533
20
18.40835
30
0
11
-0.0813701585201964
21
0.821982297438575
31
0
210
0
220
0
230
1
40
0.984662
41
0.088819910547536
42
0.702105868054388
0
ELLIPSE
5
177
100
AcDbEntity
8
1
62
256
6
ByLayer
370
-1
48
1
60
0
100
AcDbEllipse
10
38.950909
20
20.627515
30
0
11
-0.139491700320337
21
1.4091125098947
31
0
210
0
220
0
230
1
40
0.984662
41
-1.1476933984909
42
-0.205245743429861
0
ELLIPSE
5
178
100
AcDbEntity
8
1
62
256
6
ByLayer
370
-1
48
1
60
0
100
AcDbEllipse
10
39.228705
20
20.655015
30
0
11
0.193919076328093
21
-1.95892512410149
31
0
210
0
220
0
230
1
40
0.984662
41
-1.66796363829271
42
-0.627423158689078
0
ELLIPSE
5
179
100
AcDbEntity
8
1
62
256
6
ByLayer
370
-1
48
1
60
0
100
AcDbEllipse
10
40.863378
20
21.741882
30
0
11
-0.0813701585201964
21
0.821982297438575
31
0
210
0
220
0
230
1
40
0.984662
41
1.21203418779202
42
1.9938992550989
0
ELLIPSE
5
17A
100
AcDbEntity
8
1
62
256
6
ByLayer
370
-1
48
1
60
0
100
AcDbEllipse
10
40.564517
20
20.627515
30
0
11
-0.0325086589729598
21
0.328394864594104
31
0
210
0
220
0
230
1
40
0.984662
41
-2.97009894540144
42
-0.365828331183969
0
ELLIPSE
5
17B
100
AcDbEntity
8
1
62
256
6
ByLayer
370
-1
48
1
60
0
100
AcDbEllipse
10
40.870031
20
19.513149
30
0
11
-0.0813701585201964
21
0.821982297438575
31
0
210
0
220
0
230
1
40
0.984662
41
0.171493708188383
42
0.953358775495272
0
ELLIPSE
5
17C
100
AcDbEntity
8
1
62
256
6
ByLayer
370
-1
48
1
60
0
100
AcDbEllipse
10
39.771216
20
19.214226
30
0
11
-0.0325086589729598
21
0.328394864594104
31
0
210
0
220
0
230
1
40
0.984662
41
-2.7225712258491
42
-1.40636881078762
0
ELLIPSE
5
17D
100
AcDbEntity
8
1
62
256
6
ByLayer
370
-1
48
1
60
0
100
AcDbEllipse
10
43.12683
20
14.684274
30
0
11
-0.0585690370699756
21
0.597134547565869
31
0
210
0
220
0
230
1
40
0.984665
41
3.04531189936409
42
-3.14159150847992
0
ELLIPSE
5
17E
100
AcDbEntity
8
1
62
256
6
ByLayer
370
-1
48
1
60
0
100
AcDbEllipse
10
36.386323
20
11.284767
30
0
11
-0.0976150617832928
21
0.995224245943116
31
0
210
0
220
0
230
1
40
0.984665
41
2.64202029075123
42
3.04531189936409
0
ELLIPSE
5
17F
100
AcDbEntity
8
1
62
256
6
ByLayer
370
-1
48
1
60
0
100
AcDbEllipse
10
38.508288
20
11.284767
30
0
11
-0.0976150617832928
21
0.995224245943116
31
0
210
0
220
0
230
1
40
0.984665
41
3.04531189936408
42
-3.14158846175828
0
ELLIPSE
5
180
100
AcDbEntity
8
1
62
256
6
ByLayer
370
-1
48
1
60
0
100
AcDbEllipse
10
44.436135
20
16.411704
30
0
11
3.67381906146713E-17
21
0.599999999999999
31
0
210
0
220
0
230
1
40
0.173648
41
-1.5560930607929
42
-0.727061666095579
0
ELLIPSE
5
181
100
AcDbEntity
8
1
62
256
6
ByLayer
370
-1
48
1
60
0
100
AcDbEllipse
10
44.436425
20
16.298223
30
0
11
3.67381906146713E-17
21
0.599999999999999
31
0
210
0
220
0
230
1
40
0.173648
41
-2.38512445549023
42
-1.55609306079291
0
ELLIPSE
5
182
100
AcDbEntity
8
1
62
256
6
ByLayer
370
-1
48
1
60
0
100
AcDbEllipse
10
44.150382
20
18.043659
30
0
11
1.83690953073357E-16
21
3
31
0
210
0
220
0
230
1
40
0.173648
41
-2.55965738068965
42
-2.38512445549022
0
ELLIPSE
5
183
100
AcDbEntity
8
1
62
256
6
ByLayer
370
-1
48
1
60
0
100
AcDbEllipse
10
39.227912
20
11.355351
30
0
11
-0.0843626025348873
21
0.99643782011109
31
0
210
0
220
0
230
1
40
0.984699
41
3.05841628189319
42
-1.65397269849141
0
ELLIPSE
5
184
100
AcDbEntity
8
1
62
256
6
ByLayer
370
-1
48
1
60
0
100
AcDbEllipse
10
44.446211
20
17.29987
30
0
11
9.18454765366783E-18
21
0.15
31
0
210
0
220
0
230
1
40
0.173648
41
2.15016447796867
42
2.58906391269364
0
ELLIPSE
5
185
100
AcDbEntity
8
1
62
256
6
ByLayer
370
-1
48
1
60
0
100
AcDbEllipse
10
43.847828
20
14.754992
30
0
11
-0.0506175615195633
21
0.597862692066701
31
0
210
0
220
0
230
1
40
0.984699
41
3.05841628189542
42
-1.65397269848906
0
ELLIPSE
5
186
100
AcDbEntity
8
1
62
256
6
ByLayer
370
-1
48
1
60
0
100
AcDbEllipse
10
37.105946
20
11.355351
30
0
11
-0.0843626078250734
21
0.996437818557097
31
0
210
0
220
0
230
1
40
0.984699
41
2.9146811933192
42
3.05841627652819
0
ELLIPSE
5
187
100
AcDbEntity
8
1
62
256
6
ByLayer
370
-1
48
1
60
0
100
AcDbEllipse
10
44.451031
20
15.412147
30
0
11
9.18454765366783E-18
21
0.15
31
0
210
0
220
0
230
1
40
0.173648
41
0.581935272900151
42
2.58906391269372
0
ELLIPSE
5
188
100
AcDbEntity
8
1
62
256
6
ByLayer
370
-1
48
1
60
0
100
AcDbEllipse
10
44.159127
20
14.61859
30
0
11
1.83690953073357E-16
21
3
31
0
210
0
220
0
230
1
40
0.173648
41
-0.727061666095602
42
-0.552528740896174
0
ELLIPSE
5
189
100
AcDbEntity
8
1
62
256
6
ByLayer
370
-1
48
1
60
0
100
AcDbEllipse
10
39.566653
20
11.596705
30
0
11
-4.85074540798414
21
-0.827581472444057
31
0
210
0
220
0
230
1
40
0.190838
41
0.713521195188415
42
0.973077720685638
0
ELLIPSE
5
18A
100
AcDbEntity
8
1
62
256
6
ByLayer
370
-1
48
1
60
0
100
AcDbEllipse
10
44.919933
20
26.869672
30
0
11
-0.750296172684512
21
0.434738936129119
31
0
210
0
220
0
230
1
40
0.088816
41
1.44800889648027
42
1.62254182203001
0
ELLIPSE
5
18B
100
AcDbEntity
8
1
62
256
6
ByLayer
370
-1
48
1
60
0
100
AcDbEllipse
10
46.155163
20
22.2982
30
0
11
-0.253855532572516
21
-0.000754189561188427
31
0
210
0
220
0
230
1
40
0.984667
41
1.38362991267579E-05
42
0.952733513211084
0
ELLIPSE
5
18C
100
AcDbEntity
8
1
62
256
6
ByLayer
370
-1
48
1
60
0
100
AcDbEllipse
10
47.806648
20
24.524186
30
0
11
-0.528019507740555
21
-0.00156871411774182
31
0
210
0
220
0
230
1
40
0.984667
41
-3.14157881697512
42
-2.10103542330389
0
ELLIPSE
5
18D
100
AcDbEntity
8
1
62
256
6
ByLayer
370
-1
48
1
60
0
100
AcDbEllipse
10
47.806799
20
24.473401
30
0
11
-0.528019507741511
21
-0.00156871412932869
31
0
210
0
220
0
230
1
40
0.984667
41
2.10106309651297
42
-3.14157881699658
0
ELLIPSE
5
18E
100
AcDbEntity
8
1
62
256
6
ByLayer
370
-1
48
1
60
0
100
AcDbEllipse
10
46.154206
20
22.61884
30
0
11
-0.253855532570255
21
-0.000754189445815979
31
0
210
0
220
0
230
1
40
0.984667
41
-1.0405295569191
42
1.3836745752632E-05
0
ELLIPSE
5
18F
100
AcDbEntity
8
1
62
256
6
ByLayer
370
-1
48
1
60
0
100
AcDbEllipse
10
37.232555
20
11.015385
30
0
11
-0.051225765654361
21
0.517470695724043
31
0
210
0
220
0
230
1
40
0.984662
41
2.52082656649368
42
3.14159128718801
0
ELLIPSE
5
190
100
AcDbEntity
8
1
62
256
6
ByLayer
370
-1
48
1
60
0
100
AcDbEllipse
10
36.408531
20
13.379534
30
0
11
0.0246277719492118
21
-0.248783988328867
31
0
210
0
220
0
230
1
40
0.984662
41
1.48028317282332
42
2.52082656649368
0
ELLIPSE
5
191
100
AcDbEntity
8
1
62
256
6
ByLayer
370
-1
48
1
60
0
100
AcDbEllipse
10
37.307962
20
13.468571
30
0
11
-0.104148322264725
21
0.228445258141855
31
0
210
0
220
0
230
1
40
0.958576
41
-1.97766540598785
42
-0.937122012316806
0
ELLIPSE
5
192
100
AcDbEntity
8
1
62
256
6
ByLayer
370
-1
48
1
60
0
100
AcDbEllipse
10
38.138581
20
11.134763
30
0
11
-0.216628510305694
21
0.475166136938271
31
0
210
0
220
0
230
1
40
0.958576
41
1.16392724761428
42
2.20447064128351
0
ELLIPSE
5
193
100
AcDbEntity
8
1
62
256
6
ByLayer
370
-1
48
1
60
0
100
AcDbEllipse
10
37.033979
20
13.628891
30
0
11
-0.104148322255932
21
0.228445258147762
31
0
210
0
220
0
230
1
40
0.958576
41
-0.937122012273605
42
0.0155976646451756
0
ELLIPSE
5
194
100
AcDbEntity
8
1
62
256
6
ByLayer
370
-1
48
1
60
0
100
AcDbEllipse
10
33.377141
20
18.080544
30
0
11
-0.155247516409937
21
0.241830006310344
31
0
210
0
220
0
230
1
40
0.120053
41
-2.534020389344
42
-1.03690980340498
0
ELLIPSE
5
195
100
AcDbEntity
8
1
62
256
6
ByLayer
370
-1
48
1
60
0
100
AcDbEllipse
10
33.219003
20
18.456809
30
0
11
-0.156347378537711
21
0.266684179858087
31
0
210
0
220
0
230
1
40
0.154177
41
1.49991027753754
42
2.19804197834323
0
ELLIPSE
5
196
100
AcDbEntity
8
1
62
256
6
ByLayer
370
-1
48
1
60
0
100
AcDbEllipse
10
32.277034
20
20.154958
30
0
11
-0.444948532405989
21
0.763538154332736
31
0
210
0
220
0
230
1
40
0.134911
41
1.50917053217115
42
2.40290295666586
0
ELLIPSE
5
197
100
AcDbEntity
8
1
62
256
6
ByLayer
370
-1
48
1
60
0
100
AcDbEllipse
10
32.772725
20
19.237496
30
0
11
-0.156347378309647
21
0.266684179533899
31
0
210
0
220
0
230
1
40
0.154177
41
1.07473396655308
42
1.49991027815673
0
ELLIPSE
5
198
100
AcDbEntity
8
1
62
256
6
ByLayer
370
-1
48
1
60
0
100
AcDbEllipse
10
38.277603
20
27.002988
30
0
11
-1.48293986335186
21
-0.00113199992080436
31
0
210
0
220
0
230
1
40
0.008659
41
1.30833359028995
42
2.44279760405601
0
ELLIPSE
5
199
100
AcDbEntity
8
1
62
256
6
ByLayer
370
-1
48
1
60
0
100
AcDbEllipse
10
39.265193
20
20.658627
30
0
11
-0.478749947312062
21
4.83621992075254
31
0
210
0
220
0
230
1
40
0.984662
41
0.426431464100481
42
0.984936824738664
0
ELLIPSE
5
19A
100
AcDbEntity
8
1
62
256
6
ByLayer
370
-1
48
1
60
0
100
AcDbEllipse
10
38.764784
20
25.747349
30
0
11
-0.2304067527789
21
-0.227796117648439
31
0
210
0
220
0
230
1
40
0.628363
41
2.56493088444751
42
-2.22114383679327
0
ELLIPSE
5
19B
100
AcDbEntity
8
1
62
256
6
ByLayer
370
-1
48
1
60
0
100
AcDbEllipse
10
39.259728
20
20.658086
30
0
11
0.439414618244764
21
-4.43886363258441
31
0
210
0
220
0
230
1
40
0.984662
41
-3.11707500541202
42
-1.75474201292831
0
ELLIPSE
5
19C
100
AcDbEntity
8
1
62
256
6
ByLayer
370
-1
48
1
60
0
100
AcDbEllipse
10
34.227669
20
20.962237
30
0
11
-0.191670218366241
21
-0.230486518019375
31
0
210
0
220
0
230
1
40
0.678021
41
-0.964928537794247
42
0.532182048143838
0
ELLIPSE
5
19D
100
AcDbEntity
8
1
62
256
6
ByLayer
370
-1
48
1
60
0
100
AcDbEllipse
10
34.245031
20
20.963956
30
0
11
-0.19044403924435
21
-0.196955959497008
31
0
210
0
220
0
230
1
40
0.38081
41
-0.908778104879844
42
0.588332481058905
0
ELLIPSE
5
19E
100
AcDbEntity
8
1
62
256
6
ByLayer
370
-1
48
1
60
0
100
AcDbEllipse
10
39.272597
20
20.65936
30
0
11
-0.448930058632648
21
4.53498638438203
31
0
210
0
220
0
230
1
40
0.984662
41
0.0245176481742466
42
1.38685064066148
0
ELLIPSE
5
19F
100
AcDbEntity
8
1
62
256
6
ByLayer
370
-1
48
1
60
0
100
AcDbEllipse
10
38.782146
20
25.749067
30
0
11
-0.185582861240324
21
-0.201683646239341
31
0
210
0
220
0
230
1
40
0.380522
41
2.53967617191046
42
-2.246398549332
0
ELLIPSE
5
1A0
100
AcDbEntity
8
1
62
256
6
ByLayer
370
-1
48
1
60
0
100
AcDbEllipse
10
39.272597
20
20.65936
30
0
11
0.470680391416667
21
-4.75470315570216
31
0
210
0
220
0
230
1
40
0.984662
41
-2.71516118948931
42
-2.15665582885113
0
ELLIPSE
5
1A1
100
AcDbEntity
8
1
62
256
6
ByLayer
370
-1
48
1
60
0
100
AcDbEllipse
10
38.33861
20
20.863954
30
0
11
-0.159421809462383
21
-4.41689821988756
31
0
210
0
220
0
230
1
40
0.859742
41
2.90096363944336
42
3.03887278887001
0
ELLIPSE
5
1A2
100
AcDbEntity
8
1
62
256
6
ByLayer
370
-1
48
1
60
0
100
AcDbEllipse
10
38.940531
20
21.498776
30
0
11
-2.25135349549999
21
-4.13800147048635
31
0
210
0
220
0
230
1
40
0.856395
41
-0.997177236472908
42
-0.859268086815543
0
ELLIPSE
5
1A3
100
AcDbEntity
8
1
62
256
6
ByLayer
370
-1
48
1
60
0
100
AcDbEllipse
10
32.857427
20
19.379635
30
0
11
-0.588524348801682
21
-0.583653992716595
31
0
210
0
220
0
230
1
40
0.430914
41
-1.63052995072873
42
-1.61794332173704
0
ELLIPSE
5
1A4
100
AcDbEntity
8
1
62
256
6
ByLayer
370
-1
48
1
60
0
100
AcDbEllipse
10
32.983231
20
19.298833
30
0
11
-0.629825931599616
21
-0.404990556340989
31
0
210
0
220
0
230
1
40
0.294763
41
-1.51795536170085
42
-1.50536774054567
0
ELLIPSE
5
1A5
100
AcDbEntity
8
1
62
256
6
ByLayer
370
-1
48
1
60
0
100
AcDbEllipse
10
39.133699
20
20.64561
30
0
11
0.404758269530189
21
-4.08877330886741
31
0
210
0
220
0
230
1
40
0.984662
41
2.90673834865456
42
-1.49537005981541
0
ELLIPSE
5
1A6
100
AcDbEntity
8
1
62
256
6
ByLayer
370
-1
48
1
60
0
100
AcDbEllipse
10
39.160079
20
20.648221
30
0
11
0.424264922325343
21
-4.28582495005253
31
0
210
0
220
0
230
1
40
0.984662
41
3.02014473408993
42
-1.60877644525078
0
ELLIPSE
5
1A7
100
AcDbEntity
8
1
62
256
6
ByLayer
370
-1
48
1
60
0
100
AcDbEllipse
10
36.264139
20
25.820687
30
0
11
0.379766412202703
21
-0.646743745360314
31
0
210
0
220
0
230
1
40
0.158847
41
-1.81848809092726
42
-0.684024077130946
0
ELLIPSE
5
1A8
100
AcDbEntity
8
1
62
256
6
ByLayer
370
-1
48
1
60
0
100
AcDbEllipse
10
39.232628
20
20.005601
30
0
11
-1.39227954208812
21
-6.67884561617222
31
0
210
0
220
0
230
1
40
0.960266
41
-2.42525216056813
42
-2.21273284252537
0
ELLIPSE
5
1A9
100
AcDbEntity
8
1
62
256
6
ByLayer
370
-1
48
1
60
0
100
AcDbEllipse
10
35.122167
20
24.975288
30
0
11
0.379766412202703
21
-0.646743745360314
31
0
210
0
220
0
230
1
40
0.158847
41
-1.81848809092724
42
-1.64395516572781
0
ELLIPSE
5
1AA
100
AcDbEntity
8
1
62
256
6
ByLayer
370
-1
48
1
60
0
100
AcDbEllipse
10
35.122167
20
24.975288
30
0
11
0.507192783306786
21
-0.552499303675141
31
0
210
0
220
0
230
1
40
0.102923
41
-1.84632301281813
42
-0.716375128219916
0
ELLIPSE
5
1AB
100
AcDbEntity
8
1
62
256
6
ByLayer
370
-1
48
1
60
0
100
AcDbEllipse
10
35.122167
20
24.975288
30
0
11
0.523699716093521
21
-0.536878577858686
31
0
210
0
220
0
230
1
40
0.137103
41
-1.6799443182632
42
-0.720013229666368
0
ELLIPSE
5
1AC
100
AcDbEntity
8
1
62
256
6
ByLayer
370
-1
48
1
60
0
100
AcDbEllipse
10
39.082802
20
20.640572
30
0
11
-0.589672763894409
21
5.95673625340889
31
0
210
0
220
0
230
1
40
0.984662
41
0.66677639204399
42
0.984936824738666
0
ELLIPSE
5
1AD
100
AcDbEntity
8
1
62
256
6
ByLayer
370
-1
48
1
60
0
100
AcDbEllipse
10
39.13833
20
20.646068
30
0
11
0.529151094678966
21
-5.34536051553101
31
0
210
0
220
0
230
1
40
0.984662
41
-2.4748162615458
42
-2.15665582885113
0
ELLIPSE
5
1AE
100
AcDbEntity
8
1
62
256
6
ByLayer
370
-1
48
1
60
0
100
AcDbEllipse
10
33.999733
20
23.463234
30
0
11
0.665215374977295
21
-0.346393569359791
31
0
210
0
220
0
230
1
40
0.096468
41
-1.7173777261379
42
-0.757446637541129
0
ELLIPSE
5
1AF
100
AcDbEntity
8
1
62
256
6
ByLayer
370
-1
48
1
60
0
100
AcDbEllipse
10
32.767343
20
19.586783
30
0
11
-0.140555557628673
21
0.14922846651927
31
0
210
0
220
0
230
1
40
0.249834
41
0.784202037758708
42
2.28131262369598
0
ELLIPSE
5
1B0
100
AcDbEntity
8
1
62
256
6
ByLayer
370
-1
48
1
60
0
100
AcDbEllipse
10
32.759777
20
19.579618
30
0
11
-0.141364748562555
21
0.148462142864252
31
0
210
0
220
0
230
1
40
0.244711
41
0.78285774228652
42
2.26981503406455
0
ELLIPSE
5
1B1
100
AcDbEntity
8
1
62
256
6
ByLayer
370
-1
48
1
60
0
100
AcDbEllipse
10
34.72308
20
20.380879
30
0
11
-0.203058355103601
21
-0.0281479026327011
31
0
210
0
220
0
230
1
40
0.658003
41
1.79607876326913
42
3.02654093053705
0
ELLIPSE
5
1B2
100
AcDbEntity
8
1
62
256
6
ByLayer
370
-1
48
1
60
0
100
AcDbEllipse
10
34.813944
20
20.18312
30
0
11
-0.145616974328061
21
-0.144293786378834
31
0
210
0
220
0
230
1
40
0.661379
41
1.36345832542043
42
2.26098977545907
0
ELLIPSE
5
1B3
100
AcDbEntity
8
1
62
256
6
ByLayer
370
-1
48
1
60
0
100
AcDbEllipse
10
35.262592
20
18.490614
30
0
11
0.187908468395977
21
0.0819475899894448
31
0
210
0
220
0
230
1
40
0.6096
41
0.126191590979783
42
1.3566537582478
0
ELLIPSE
5
1B4
100
AcDbEntity
8
1
62
256
6
ByLayer
370
-1
48
1
60
0
100
AcDbEllipse
10
35.232013
20
18.718347
30
0
11
0.20091479286169
21
-0.0407215668822348
31
0
210
0
220
0
230
1
40
0.618552
41
0.841860612036566
42
1.73939206207528
0
ELLIPSE
5
1B5
100
AcDbEntity
8
1
62
256
6
ByLayer
370
-1
48
1
60
0
100
AcDbEllipse
10
38.811805
20
25.257748
30
0
11
-0.0971812891280707
21
0.0235753482138935
31
0
210
0
220
0
230
1
40
0.058433
41
-2.43435818834478
42
-1.73622648754599
0
ELLIPSE
5
1B6
100
AcDbEntity
8
1
62
256
6
ByLayer
370
-1
48
1
60
0
100
AcDbEllipse
10
38.961206
20
25.873601
30
0
11
0.0971812891280075
21
-0.0235753482141541
31
0
210
0
220
0
230
1
40
0.058433
41
0.707234465245849
42
1.40536616604429
0
ELLIPSE
5
1B7
100
AcDbEntity
8
1
62
256
6
ByLayer
370
-1
48
1
60
0
100
AcDbEllipse
10
38.696968
20
25.180428
30
0
11
-0.0123256273635035
21
0.0992374874233324
31
0
210
0
220
0
230
1
40
0.174419
41
-2.88413705677141
42
-1.57514011778049
0
ELLIPSE
5
1B8
100
AcDbEntity
8
1
62
256
6
ByLayer
370
-1
48
1
60
0
100
AcDbEllipse
10
38.820955
20
25.928581
30
0
11
-0.0506355216270263
21
0.0862324993813757
31
0
210
0
220
0
230
1
40
0.158847
41
-1.64395516572798
42
-0.684024077131245
0
ELLIPSE
5
1B9
100
AcDbEntity
8
1
62
256
6
ByLayer
370
-1
48
1
60
0
100
AcDbEllipse
10
34.783024
20
21.052549
30
0
11
-0.0996597563433027
21
0.00824214569111306
31
0
210
0
220
0
230
1
40
0.031913
41
-3.0522622071448
42
-1.74326526814789
0
ELLIPSE
5
1BA
100
AcDbEntity
8
1
62
256
6
ByLayer
370
-1
48
1
60
0
100
AcDbEllipse
10
36.890207
20
24.79485
30
0
11
-0.0506355216270263
21
0.0862324993813757
31
0
210
0
220
0
230
1
40
0.158847
41
-1.64395516572784
42
-0.684024077130937
0
ELLIPSE
5
1BB
100
AcDbEntity
8
1
62
256
6
ByLayer
370
-1
48
1
60
0
100
AcDbEllipse
10
34.711286
20
20.933096
30
0
11
-0.0279745547181494
21
0.0960074178817515
31
0
210
0
220
0
230
1
40
0.171587
41
-2.30100253057221
42
-1.60287082977474
0
ELLIPSE
5
1BC
100
AcDbEntity
8
1
62
256
6
ByLayer
370
-1
48
1
60
0
100
AcDbEllipse
10
35.093957
20
22.900418
30
0
11
-0.0886953833303075
21
0.0461858092479695
31
0
210
0
220
0
230
1
40
0.096468
41
-1.71737772613781
42
-0.757446637541323
0
ELLIPSE
5
1BD
100
AcDbEntity
8
1
62
256
6
ByLayer
370
-1
48
1
60
0
100
AcDbEllipse
10
34.110869
20
20.758147
30
0
11
-0.0279745547181494
21
0.0960074178817515
31
0
210
0
220
0
230
1
40
0.171587
41
-2.30100253057256
42
-1.60287082977474
0
ELLIPSE
5
1BE
100
AcDbEntity
8
1
62
256
6
ByLayer
370
-1
48
1
60
0
100
AcDbEllipse
10
34.051442
20
20.898369
30
0
11
-0.0886953833303075
21
0.0461858092479695
31
0
210
0
220
0
230
1
40
0.096468
41
-1.71737772613795
42
-0.757446637541323
0
ELLIPSE
5
1BF
100
AcDbEntity
8
1
62
256
6
ByLayer
370
-1
48
1
60
0
100
AcDbEllipse
10
39.806296
20
26.994492
30
0
11
-0.266397243581269
21
0.000798625381328581
31
0
210
0
220
0
230
1
40
0.014886
41
-2.31078868965131
42
-0.813678103734911
0
ELLIPSE
5
1C0
100
AcDbEntity
8
1
62
256
6
ByLayer
370
-1
48
1
60
0
100
AcDbEllipse
10
40.282065
20
26.999828
30
0
11
-0.308909849431687
21
-0.00086964734096799
31
0
210
0
220
0
230
1
40
0.016452
41
0.703194177148655
42
1.40132587772541
0
ELLIPSE
5
1C1
100
AcDbEntity
8
1
62
256
6
ByLayer
370
-1
48
1
60
0
100
AcDbEllipse
10
42.237583
20
27.002524
30
0
11
-0.880628697023305
21
-0.00190649454893211
31
0
210
0
220
0
230
1
40
0.014477
41
0.528620229779523
42
1.42235265428183
0
ELLIPSE
5
1C2
100
AcDbEntity
8
1
62
256
6
ByLayer
370
-1
48
1
60
0
100
AcDbEllipse
10
41.169961
20
26.999828
30
0
11
-0.308909849666554
21
-0.000869647339983387
31
0
210
0
220
0
230
1
40
0.016452
41
1.40132587822579
42
1.82650218881905
0
ELLIPSE
5
1C3
100
AcDbEntity
8
1
62
256
6
ByLayer
370
-1
48
1
60
0
100
AcDbEllipse
10
39.265193
20
20.658627
30
0
11
-0.478749947312062
21
4.83621992075254
31
0
210
0
220
0
230
1
40
0.984662
41
-1.66796363829271
42
-1.10945827765453
0
ELLIPSE
5
1C4
100
AcDbEntity
8
1
62
256
6
ByLayer
370
-1
48
1
60
0
100
AcDbEllipse
10
43.840705
20
18.53066
30
0
11
-0.114905950198109
21
0.296452990403849
31
0
210
0
220
0
230
1
40
0.634221
41
2.4996792489774
42
-2.28639547226505
0
ELLIPSE
5
1C5
100
AcDbEntity
8
1
62
256
6
ByLayer
370
-1
48
1
60
0
100
AcDbEllipse
10
39.259728
20
20.658086
30
0
11
0.439414618244764
21
-4.43886363258441
31
0
210
0
220
0
230
1
40
0.984662
41
1.07171519937438
42
2.43404819185808
0
ELLIPSE
5
1C6
100
AcDbEntity
8
1
62
256
6
ByLayer
370
-1
48
1
60
0
100
AcDbEllipse
10
42.015643
20
24.925058
30
0
11
-0.0542977281529624
21
0.307627406498702
31
0
210
0
220
0
230
1
40
0.644722
41
-0.839805110892129
42
0.657305475044705
0
ELLIPSE
5
1C7
100
AcDbEntity
8
1
62
256
6
ByLayer
370
-1
48
1
60
0
100
AcDbEllipse
10
42.033005
20
24.926776
30
0
11
-0.0723853551989576
21
0.266698746769021
31
0
210
0
220
0
230
1
40
0.374291
41
-0.899769069370842
42
0.597341516567214
0
ELLIPSE
5
1C8
100
AcDbEntity
8
1
62
256
6
ByLayer
370
-1
48
1
60
0
100
AcDbEllipse
10
39.272597
20
20.65936
30
0
11
-0.448930058632648
21
4.53498638438203
31
0
210
0
220
0
230
1
40
0.984662
41
-2.06987745421894
42
-0.707544461731714
0
ELLIPSE
5
1C9
100
AcDbEntity
8
1
62
256
6
ByLayer
370
-1
48
1
60
0
100
AcDbEllipse
10
43.858067
20
18.532379
30
0
11
-0.0788069796397404
21
0.264833866486611
31
0
210
0
220
0
230
1
40
0.37439
41
2.54904330410564
42
-2.23703141713469
0
ELLIPSE
5
1CA
100
AcDbEntity
8
1
62
256
6
ByLayer
370
-1
48
1
60
0
100
AcDbEllipse
10
39.272597
20
20.65936
30
0
11
0.470680391416667
21
-4.75470315570216
31
0
210
0
220
0
230
1
40
0.984662
41
1.47362901529708
42
2.03213437593527
0
ELLIPSE
5
1CB
100
AcDbEntity
8
1
62
256
6
ByLayer
370
-1
48
1
60
0
100
AcDbEllipse
10
40.0267
20
20.436959
30
0
11
-5.05800581802121
21
0.527036717281181
31
0
210
0
220
0
230
1
40
0.86101
41
-1.81752603533343
42
-1.67961688592303
0
ELLIPSE
5
1CC
100
AcDbEntity
8
1
62
256
6
ByLayer
370
-1
48
1
60
0
100
AcDbEllipse
10
41.277959
20
26.874906
30
0
11
-0.298685843941062
21
0.752454450538864
31
0
210
0
220
0
230
1
40
0.288473
41
-1.71644755484198
42
-1.70386037373708
0
ELLIPSE
5
1CD
100
AcDbEntity
8
1
62
256
6
ByLayer
370
-1
48
1
60
0
100
AcDbEllipse
10
41.117483
20
26.7839
30
0
11
-0.0931460005590692
21
0.721257603362722
31
0
210
0
220
0
230
1
40
0.219339
41
-1.58438873079535
42
-1.57180500576387
0
ELLIPSE
5
1CE
100
AcDbEntity
8
1
62
256
6
ByLayer
370
-1
48
1
60
0
100
AcDbEllipse
10
45.094
20
20.653926
30
0
11
-0.749996658706078
21
-0.0022387339544526
31
0
210
0
220
0
230
1
40
0.016926
41
0.43630704891591
42
1.57077106271217
0
ELLIPSE
5
1CF
100
AcDbEntity
8
1
62
256
6
ByLayer
370
-1
48
1
60
0
100
AcDbEllipse
10
38.181609
20
20.620601
30
0
11
-6.91241000136561
21
-0.0205681064092152
31
0
210
0
220
0
230
1
40
0.977133
41
-3.14158341139662
42
-2.92906409333065
0
ELLIPSE
5
1D0
100
AcDbEntity
8
1
62
256
6
ByLayer
370
-1
48
1
60
0
100
AcDbEllipse
10
44.934236
20
22.07811
30
0
11
-0.749996658706078
21
-0.0022387339544526
31
0
210
0
220
0
230
1
40
0.016926
41
1.39623813751272
42
1.57077106271219
0
ELLIPSE
5
1D1
100
AcDbEntity
8
1
62
256
6
ByLayer
370
-1
48
1
60
0
100
AcDbEllipse
10
44.934236
20
22.07811
30
0
11
-0.731869975798782
21
-0.163909543725466
31
0
210
0
220
0
230
1
40
0.016523
41
0.437173922973564
42
1.56712180757184
0
ELLIPSE
5
1D2
100
AcDbEntity
8
1
62
256
6
ByLayer
370
-1
48
1
60
0
100
AcDbEllipse
10
44.934236
20
22.07811
30
0
11
-0.728560147993158
21
-0.17804524918174
31
0
210
0
220
0
230
1
40
0.024895
41
-1.39718608401701
42
-0.437254995420272
0
ELLIPSE
5
1D3
100
AcDbEntity
8
1
62
256
6
ByLayer
370
-1
48
1
60
0
100
AcDbEllipse
10
39.082802
20
20.640572
30
0
11
-0.589672763894409
21
5.95673625340889
31
0
210
0
220
0
230
1
40
0.984662
41
-1.4276187103492
42
-1.10945827765453
0
ELLIPSE
5
1D4
100
AcDbEntity
8
1
62
256
6
ByLayer
370
-1
48
1
60
0
100
AcDbEllipse
10
39.13833
20
20.646068
30
0
11
0.529151094678966
21
-5.34536051553101
31
0
210
0
220
0
230
1
40
0.984662
41
1.71397394324059
42
2.03213437593527
0
ELLIPSE
5
1D5
100
AcDbEntity
8
1
62
256
6
ByLayer
370
-1
48
1
60
0
100
AcDbEllipse
10
44.202722
20
23.825012
30
0
11
-0.637868808874099
21
-0.394491296058022
31
0
210
0
220
0
230
1
40
0.077665
41
-1.4134429126232
42
-0.453511824026336
0
ELLIPSE
5
1D6
100
AcDbEntity
8
1
62
256
6
ByLayer
370
-1
48
1
60
0
100
AcDbEllipse
10
41.375679
20
26.759953
30
0
11
0.19356483601863
21
0.0675104011029486
31
0
210
0
220
0
230
1
40
0.346701
41
0.484409122246344
42
1.98151970818354
0
ELLIPSE
5
1D7
100
AcDbEntity
8
1
62
256
6
ByLayer
370
-1
48
1
60
0
100
AcDbEllipse
10
41.372335
20
26.769483
30
0
11
0.193313961817342
21
0.0682254510170735
31
0
210
0
220
0
230
1
40
0.340496
41
0.483138993595821
42
1.97009628537384
0
ELLIPSE
5
1D8
100
AcDbEntity
8
1
62
256
6
ByLayer
370
-1
48
1
60
0
100
AcDbEllipse
10
41.125873
20
24.674379
30
0
11
0.0402479264483286
21
0.201010209732267
31
0
210
0
220
0
230
1
40
0.506688
41
1.499940585639
42
2.73040275290692
0
ELLIPSE
5
1D9
100
AcDbEntity
8
1
62
256
6
ByLayer
370
-1
48
1
60
0
100
AcDbEllipse
10
40.866427
20
24.660734
30
0
11
-0.0673423310881076
21
0.193623372668745
31
0
210
0
220
0
230
1
40
0.421353
41
1.24768327877883
42
2.14521472881761
0
ELLIPSE
5
1DA
100
AcDbEntity
8
1
62
256
6
ByLayer
370
-1
48
1
60
0
100
AcDbEllipse
10
39.245133
20
25.150105
30
0
11
-0.0633371763412873
21
-0.194970259509271
31
0
210
0
220
0
230
1
40
0.758553
41
0.436134588316449
42
1.66659675558442
0
ELLIPSE
5
1DB
100
AcDbEntity
8
1
62
256
6
ByLayer
370
-1
48
1
60
0
100
AcDbEllipse
10
39.409034
20
25.029375
30
0
11
-0.167732241456934
21
-0.117859641845004
31
0
210
0
220
0
230
1
40
0.644202
41
1.23179492555301
42
2.12932637559175
0
ELLIPSE
5
1DC
100
AcDbEntity
8
1
62
256
6
ByLayer
370
-1
48
1
60
0
100
AcDbEllipse
10
43.399687
20
18.735402
30
0
11
0.0699045413981607
21
0.0715077274978925
31
0
210
0
220
0
230
1
40
0.113154
41
-2.13486650757768
42
-1.43673480678024
0
ELLIPSE
5
1DD
100
AcDbEntity
8
1
62
256
6
ByLayer
370
-1
48
1
60
0
100
AcDbEllipse
10
43.850703
20
18.294498
30
0
11
-0.0699045413983562
21
-0.0715077274977013
31
0
210
0
220
0
230
1
40
0.113154
41
1.00672614601206
42
1.70485784680997
0
ELLIPSE
5
1DE
100
AcDbEntity
8
1
62
256
6
ByLayer
370
-1
48
1
60
0
100
AcDbEllipse
10
43.39085
20
18.875236
30
0
11
0.0923403222557836
21
-0.0383831328280801
31
0
210
0
220
0
230
1
40
0.083505
41
1.41645776164805
42
2.72545470063893
0
ELLIPSE
5
1DF
100
AcDbEntity
8
1
62
256
6
ByLayer
370
-1
48
1
60
0
100
AcDbEllipse
10
43.967358
20
18.39018
30
0
11
0.0999995544941437
21
0.000298497860593912
31
0
210
0
220
0
230
1
40
0.016926
41
0.436307048915584
42
1.39623813751276
0
ELLIPSE
5
1E0
100
AcDbEntity
8
1
62
256
6
ByLayer
370
-1
48
1
60
0
100
AcDbEllipse
10
41.816459
20
24.391366
30
0
11
0.0578196889703954
21
0.0815897270945721
31
0
210
0
220
0
230
1
40
0.132591
41
-2.76513106635187
42
-1.45613412735601
0
ELLIPSE
5
1E1
100
AcDbEntity
8
1
62
256
6
ByLayer
370
-1
48
1
60
0
100
AcDbEllipse
10
43.96059
20
20.657641
30
0
11
0.0999995544941437
21
0.000298497860593912
31
0
210
0
220
0
230
1
40
0.016926
41
0.436307048917877
42
1.39623813751255
0
ELLIPSE
5
1E2
100
AcDbEntity
8
1
62
256
6
ByLayer
370
-1
48
1
60
0
100
AcDbEllipse
10
41.750247
20
24.514481
30
0
11
0.0971812891280075
21
-0.0235753482141541
31
0
210
0
220
0
230
1
40
0.058433
41
1.40536616604429
42
2.103497866841
0
ELLIPSE
5
1E3
100
AcDbEntity
8
1
62
256
6
ByLayer
370
-1
48
1
60
0
100
AcDbEllipse
10
43.238046
20
23.189191
30
0
11
0.0850491745165465
21
0.0525988394744031
31
0
210
0
220
0
230
1
40
0.077665
41
-1.41344291262318
42
-0.453511824026168
0
ELLIPSE
5
1E4
100
AcDbEntity
8
1
62
256
6
ByLayer
370
-1
48
1
60
0
100
AcDbEllipse
10
41.899647
20
25.130335
30
0
11
0.0971812891280075
21
-0.0235753482141541
31
0
210
0
220
0
230
1
40
0.058433
41
1.40536616604422
42
2.10349786684137
0
ELLIPSE
5
1E5
100
AcDbEntity
8
1
62
256
6
ByLayer
370
-1
48
1
60
0
100
AcDbEllipse
10
42.048814
20
25.112107
30
0
11
0.0850491745165465
21
0.0525988394744031
31
0
210
0
220
0
230
1
40
0.077665
41
-1.41344291262325
42
-0.453511824026673
0
ELLIPSE
5
1E6
100
AcDbEntity
8
1
62
256
6
ByLayer
370
-1
48
1
60
0
100
AcDbEllipse
10
34.644815
20
26.273813
30
0
11
-0.059577730000336
21
-0.192154317235276
31
0
210
0
220
0
230
1
40
0.960584
41
-2.33004026971697
42
-1.37732059279614
0
ELLIPSE
5
1E7
100
AcDbEntity
8
1
62
256
6
ByLayer
370
-1
48
1
60
0
100
AcDbEllipse
10
30.620004
20
26.245937
30
0
11
-0.0512257656543611
21
0.517470695724043
31
0
210
0
220
0
230
1
40
0.984662
41
-1.27356957340581E-05
42
0.426431464100495
0
ELLIPSE
5
1E8
100
AcDbEntity
8
1
62
256
6
ByLayer
370
-1
48
1
60
0
100
AcDbEllipse
10
31.042142
20
22.579507
30
0
11
-0.00514834923757468
21
-0.869332183568214
31
0
210
0
220
0
230
1
40
0.149715
41
-1.72961401601099
42
-1.555081091424
0
ELLIPSE
5
1E9
100
AcDbEntity
8
1
62
256
6
ByLayer
370
-1
48
1
60
0
100
AcDbEllipse
10
45.101058
20
18.289324
30
0
11
-0.740383803518966
21
-1.2978305284083
31
0
210
0
220
0
230
1
40
0.071516
41
-1.69462957681937
42
-0.560165563023235
0
ELLIPSE
5
1EA
100
AcDbEntity
8
1
62
256
6
ByLayer
370
-1
48
1
60
0
100
AcDbEllipse
10
44.212211
20
16.861254
30
0
11
-0.15437069829724
21
-0.244728101724917
31
0
210
0
220
0
230
1
40
0.105802
41
1.05786417070736
42
2.55497475663452
0
ELLIPSE
5
1EB
100
AcDbEntity
8
1
62
256
6
ByLayer
370
-1
48
1
60
0
100
AcDbEllipse
10
44.056287
20
16.495661
30
0
11
-0.155871228101808
21
-0.266908649672788
31
0
210
0
220
0
230
1
40
0.13779
41
-2.16937647439197
42
-1.47124477358361
0
ELLIPSE
5
1EC
100
AcDbEntity
8
1
62
256
6
ByLayer
370
-1
48
1
60
0
100
AcDbEllipse
10
43.124441
20
14.802904
30
0
11
-0.442835045807411
21
-0.76402652345276
31
0
210
0
220
0
230
1
40
0.12071
41
-2.37784691028774
42
-1.48411448579511
0
ELLIPSE
5
1ED
100
AcDbEntity
8
1
62
256
6
ByLayer
370
-1
48
1
60
0
100
AcDbEllipse
10
43.61467
20
15.714974
30
0
11
-0.155871228136422
21
-0.266908649723948
31
0
210
0
220
0
230
1
40
0.13779
41
-1.47124477350465
42
-1.04606846248456
0
ELLIPSE
5
1EE
100
AcDbEntity
8
1
62
256
6
ByLayer
370
-1
48
1
60
0
100
AcDbEllipse
10
34.274463
20
16.669466
30
0
11
-0.746681204359638
21
1.29754494914488
31
0
210
0
220
0
230
1
40
0.079737
41
0.574936535422703
42
1.70940054921205
0
ELLIPSE
5
1EF
100
AcDbEntity
8
1
62
256
6
ByLayer
370
-1
48
1
60
0
100
AcDbEllipse
10
39.133699
20
20.64561
30
0
11
-0.394907160750507
21
3.98925971353587
31
0
210
0
220
0
230
1
40
0.984662
41
0
42
6.28318530717959
0
ELLIPSE
5
1F0
100
AcDbEntity
8
1
62
256
6
ByLayer
370
-1
48
1
60
0
100
AcDbEllipse
10
39.088381
20
20.641124
30
0
11
-0.383286223598648
21
3.87186772620056
31
0
210
0
220
0
230
1
40
0.984662
41
0
42
6.28318530717959
0
ELLIPSE
5
1F1
100
AcDbEntity
8
1
62
256
6
ByLayer
370
-1
48
1
60
0
100
AcDbEllipse
10
46.149855
20
21.75097
30
0
11
-0.203084426051937
21
-0.000603351550082779
31
0
210
0
220
0
230
1
40
0.984667
41
-3.14157881681215
42
-2.18885913988334
0
ELLIPSE
5
1F2
100
AcDbEntity
8
1
62
256
6
ByLayer
370
-1
48
1
60
0
100
AcDbEllipse
10
36.569535
20
13.908395
30
0
11
-0.0833186578134668
21
0.182756206512206
31
0
210
0
220
0
230
1
40
0.958576
41
2.2044706412618
42
-3.12599498899402
0
ELLIPSE
5
1F3
100
AcDbEntity
8
1
62
256
6
ByLayer
370
-1
48
1
60
0
100
AcDbEllipse
10
39.265193
20
20.658627
30
0
11
-0.478749947312062
21
4.83621992075254
31
0
210
0
220
0
230
1
40
0.984662
41
2.52082656649368
42
3.07933192713186
0
ELLIPSE
5
1F4
100
AcDbEntity
8
1
62
256
6
ByLayer
370
-1
48
1
60
0
100
AcDbEllipse
10
35.160214
20
17.694914
30
0
11
-0.283657974686722
21
0.0811316868774992
31
0
210
0
220
0
230
1
40
0.693231
41
-0.558498766331112
42
0.938611819606478
0
ELLIPSE
5
1F5
100
AcDbEntity
8
1
62
256
6
ByLayer
370
-1
48
1
60
0
100
AcDbEllipse
10
39.259728
20
20.658086
30
0
11
0.439414618244764
21
-4.43886363258441
31
0
210
0
220
0
230
1
40
0.984662
41
-1.02267990301882
42
0.339653089464883
0
ELLIPSE
5
1F6
100
AcDbEntity
8
1
62
256
6
ByLayer
370
-1
48
1
60
0
100
AcDbEllipse
10
41.522391
20
16.085629
30
0
11
-0.316202589597802
21
0.0767036367305392
31
0
210
0
220
0
230
1
40
0.628866
41
2.23190931594019
42
-2.55416540530096
0
ELLIPSE
5
1F7
100
AcDbEntity
8
1
62
256
6
ByLayer
370
-1
48
1
60
0
100
AcDbEllipse
10
41.539754
20
16.087347
30
0
11
-0.263435906701316
21
0.0706360774050402
31
0
210
0
220
0
230
1
40
0.384253
41
2.24411311368219
42
-2.54196160756037
0
ELLIPSE
5
1F8
100
AcDbEntity
8
1
62
256
6
ByLayer
370
-1
48
1
60
0
100
AcDbEllipse
10
39.272597
20
20.65936
30
0
11
-0.448930058632648
21
4.53498638438203
31
0
210
0
220
0
230
1
40
0.984662
41
2.11891275056745
42
-2.80193956412491
0
ELLIPSE
5
1F9
100
AcDbEntity
8
1
62
256
6
ByLayer
370
-1
48
1
60
0
100
AcDbEllipse
10
35.177576
20
17.696633
30
0
11
-0.265058776117229
21
0.0639953609484314
31
0
210
0
220
0
230
1
40
0.384441
41
-0.590834750056717
42
0.90627583588057
0
ELLIPSE
5
1FA
100
AcDbEntity
8
1
62
256
6
ByLayer
370
-1
48
1
60
0
100
AcDbEllipse
10
39.272597
20
20.65936
30
0
11
0.470680391416667
21
-4.75470315570216
31
0
210
0
220
0
230
1
40
0.984662
41
-0.620766087096114
42
-0.0622607264579286
0
ELLIPSE
5
1FB
100
AcDbEntity
8
1
62
256
6
ByLayer
370
-1
48
1
60
0
100
AcDbEllipse
10
39.424779
20
19.802137
30
0
11
-3.72864875750945
21
3.08300633045578
31
0
210
0
220
0
230
1
40
0.85683
41
1.03710868448339
42
1.17501783390605
0
ELLIPSE
5
1FC
100
AcDbEntity
8
1
62
256
6
ByLayer
370
-1
48
1
60
0
100
AcDbEllipse
10
39.784576
20
21.285278
30
0
11
-4.3813612964336
21
-2.46862495963618
31
0
210
0
220
0
230
1
40
0.85965
41
1.80944139245588
42
1.94735054195947
0
ELLIPSE
5
1FD
100
AcDbEntity
8
1
62
256
6
ByLayer
370
-1
48
1
60
0
100
AcDbEllipse
10
38.580734
20
20.015634
30
0
11
-1.68068886859427
21
4.16587691910324
31
0
210
0
220
0
230
1
40
0.858326
41
-2.80029230903898
42
-2.66238315958925
0
ELLIPSE
5
1FE
100
AcDbEntity
8
1
62
256
6
ByLayer
370
-1
48
1
60
0
100
AcDbEllipse
10
43.483239
20
15.703786
30
0
11
-0.736608461719
21
0.126306702567899
31
0
210
0
220
0
230
1
40
0.444539
41
1.31067128333542
42
1.32325869316887
0
ELLIPSE
5
1FF
100
AcDbEntity
8
1
62
256
6
ByLayer
370
-1
48
1
60
0
100
AcDbEllipse
10
43.456528
20
15.869532
30
0
11
-0.618033690623282
21
0.308554902954494
31
0
210
0
220
0
230
1
40
0.323627
41
1.52741536350342
42
1.54000374445256
0
ELLIPSE
5
200
100
AcDbEntity
8
1
62
256
6
ByLayer
370
-1
48
1
60
0
100
AcDbEllipse
10
39.133699
20
20.64561
30
0
11
0.404758269530189
21
-4.08877330886741
31
0
210
0
220
0
230
1
40
0.984662
41
0.812343246261364
42
2.69342014497098
0
ELLIPSE
5
201
100
AcDbEntity
8
1
62
256
6
ByLayer
370
-1
48
1
60
0
100
AcDbEllipse
10
39.133699
20
20.64561
30
0
11
0.404758269530189
21
-4.08877330886741
31
0
210
0
220
0
230
1
40
0.984662
41
-1.28205185613183
42
0.599025042577781
0
ELLIPSE
5
202
100
AcDbEntity
8
1
62
256
6
ByLayer
370
-1
48
1
60
0
100
AcDbEllipse
10
39.160079
20
20.648221
30
0
11
0.424264922325343
21
-4.28582495005253
31
0
210
0
220
0
230
1
40
0.984662
41
0.925749631696734
42
2.58001375953561
0
ELLIPSE
5
203
100
AcDbEntity
8
1
62
256
6
ByLayer
370
-1
48
1
60
0
100
AcDbEllipse
10
39.160079
20
20.648221
30
0
11
0.424264922325343
21
-4.28582495005253
31
0
210
0
220
0
230
1
40
0.984662
41
-1.16864547069646
42
0.485618657142417
0
ELLIPSE
5
204
100
AcDbEntity
8
1
62
256
6
ByLayer
370
-1
48
1
60
0
100
AcDbEllipse
10
36.294985
20
15.487165
30
0
11
0.378778588461339
21
0.647322779549148
31
0
210
0
220
0
230
1
40
0.141921
41
0.713566021927837
42
1.84803003572418
0
ELLIPSE
5
205
100
AcDbEntity
8
1
62
256
6
ByLayer
370
-1
48
1
60
0
100
AcDbEllipse
10
39.228957
20
21.235601
30
0
11
-2.25120814029427
21
6.42152964757394
31
0
210
0
220
0
230
1
40
0.960139
41
2.29511388724401
42
2.50763320530637
0
ELLIPSE
5
206
100
AcDbEntity
8
1
62
256
6
ByLayer
370
-1
48
1
60
0
100
AcDbEllipse
10
37.582654
20
14.906989
30
0
11
0.378778588461339
21
0.647322779549148
31
0
210
0
220
0
230
1
40
0.141921
41
1.67349711052474
42
1.84803003572418
0
ELLIPSE
5
207
100
AcDbEntity
8
1
62
256
6
ByLayer
370
-1
48
1
60
0
100
AcDbEllipse
10
37.582654
20
14.906989
30
0
11
0.233290113117002
21
0.712794306319752
31
0
210
0
220
0
230
1
40
0.196995
41
0.681804793544356
42
1.81175267814246
0
ELLIPSE
5
208
100
AcDbEntity
8
1
62
256
6
ByLayer
370
-1
48
1
60
0
100
AcDbEllipse
10
37.582654
20
14.906989
30
0
11
0.212385396647173
21
0.719299967531643
31
0
210
0
220
0
230
1
40
0.161998
41
0.676562815569629
42
1.63649390416655
0
ELLIPSE
5
209
100
AcDbEntity
8
1
62
256
6
ByLayer
370
-1
48
1
60
0
100
AcDbEllipse
10
39.082802
20
20.640572
30
0
11
-0.589672763894409
21
5.95673625340889
31
0
210
0
220
0
230
1
40
0.984662
41
2.76117149443719
42
3.07933192713186
0
ELLIPSE
5
20A
100
AcDbEntity
8
1
62
256
6
ByLayer
370
-1
48
1
60
0
100
AcDbEllipse
10
39.13833
20
20.646068
30
0
11
0.529151094678966
21
-5.34536051553101
31
0
210
0
220
0
230
1
40
0.984662
41
-0.380421159152605
42
-0.0622607264579283
0
ELLIPSE
5
20B
100
AcDbEntity
8
1
62
256
6
ByLayer
370
-1
48
1
60
0
100
AcDbEllipse
10
39.436603
20
14.67214
30
0
11
-0.0265767931705793
21
0.749528968129163
31
0
210
0
220
0
230
1
40
0.174133
41
0.621889571214217
42
1.58182065981106
0
ELLIPSE
5
20C
100
AcDbEntity
8
1
62
256
6
ByLayer
370
-1
48
1
60
0
100
AcDbEllipse
10
43.212835
20
15.585616
30
0
11
-0.0581462248231529
21
-0.196580814269387
31
0
210
0
220
0
230
1
40
0.525366
41
0.73989818057234
42
2.2370087665096
0
ELLIPSE
5
20D
100
AcDbEntity
8
1
62
256
6
ByLayer
370
-1
48
1
60
0
100
AcDbEllipse
10
43.221632
20
15.583042
30
0
11
-0.0569865995697243
21
-0.196920104279578
31
0
210
0
220
0
230
1
40
0.520662
41
0.736815573718446
42
2.2237728654965
0
ELLIPSE
5
20E
100
AcDbEntity
8
1
62
256
6
ByLayer
370
-1
48
1
60
0
100
AcDbEllipse
10
41.603648
20
16.88667
30
0
11
0.164065786984745
21
-0.122912235115452
31
0
210
0
220
0
230
1
40
0.73407
41
1.39775006092698
42
2.62821222819483
0
ELLIPSE
5
20F
100
AcDbEntity
8
1
62
256
6
ByLayer
370
-1
48
1
60
0
100
AcDbEllipse
10
41.675486
20
17.088498
30
0
11
0.204832711838611
21
-0.00828010633026496
31
0
210
0
220
0
230
1
40
0.597289
41
0.986412609208216
42
1.88394405924695
0
ELLIPSE
5
210
100
AcDbEntity
8
1
62
256
6
ByLayer
370
-1
48
1
60
0
100
AcDbEllipse
10
42.944876
20
18.30121
30
0
11
-0.135060805906664
21
0.154219255308286
31
0
210
0
220
0
230
1
40
0.530608
41
0.477477109125153
42
1.70793927639305
0
ELLIPSE
5
211
100
AcDbEntity
8
1
62
256
6
ByLayer
370
-1
48
1
60
0
100
AcDbEllipse
10
42.714809
20
18.184629
30
0
11
-0.0391603218264137
21
0.201224921901964
31
0
210
0
220
0
230
1
40
0.417266
41
1.06581627605466
42
1.96334772609351
0
ELLIPSE
5
212
100
AcDbEntity
8
1
62
256
6
ByLayer
370
-1
48
1
60
0
100
AcDbEllipse
10
35.554211
20
17.979773
30
0
11
0.0279745547184142
21
-0.0960074178816744
31
0
210
0
220
0
230
1
40
0.171587
41
1.53872182381456
42
2.23685352461198
0
ELLIPSE
5
213
100
AcDbEntity
8
1
62
256
6
ByLayer
370
-1
48
1
60
0
100
AcDbEllipse
10
34.953794
20
17.804824
30
0
11
-0.0279745547181494
21
0.0960074178817515
31
0
210
0
220
0
230
1
40
0.171587
41
-1.60287082977481
42
-0.904739128977107
0
ELLIPSE
5
214
100
AcDbEntity
8
1
62
256
6
ByLayer
370
-1
48
1
60
0
100
AcDbEllipse
10
35.677885
20
17.91726
30
0
11
-0.0802132941343284
21
-0.0597145496853131
31
0
210
0
220
0
230
1
40
0.090914
41
1.72089095133522
42
3.02988789032639
0
ELLIPSE
5
215
100
AcDbEntity
8
1
62
256
6
ByLayer
370
-1
48
1
60
0
100
AcDbEllipse
10
34.97739
20
17.654163
30
0
11
-0.0505038117948489
21
-0.0863097039398844
31
0
210
0
220
0
230
1
40
0.141921
41
0.71356602192786
42
1.67349711052472
0
ELLIPSE
5
216
100
AcDbEntity
8
1
62
256
6
ByLayer
370
-1
48
1
60
0
100
AcDbEllipse
10
41.16622
20
16.529009
30
0
11
0.0428840397794417
21
-0.0903380270550296
31
0
210
0
220
0
230
1
40
0.164504
41
1.51183251964742
42
2.82082945864298
0
ELLIPSE
5
217
100
AcDbEntity
8
1
62
256
6
ByLayer
370
-1
48
1
60
0
100
AcDbEllipse
10
36.914906
20
16.520432
30
0
11
-0.0505038117948489
21
-0.0863097039398844
31
0
210
0
220
0
230
1
40
0.141921
41
0.713566021927577
42
1.67349711052479
0
ELLIPSE
5
218
100
AcDbEntity
8
1
62
256
6
ByLayer
370
-1
48
1
60
0
100
AcDbEllipse
10
41.30417
20
16.525346
30
0
11
-0.0699045413983562
21
-0.0715077274977013
31
0
210
0
220
0
230
1
40
0.113154
41
1.70485784680997
42
2.40298954760784
0
ELLIPSE
5
219
100
AcDbEntity
8
1
62
256
6
ByLayer
370
-1
48
1
60
0
100
AcDbEllipse
10
39.4337
20
15.883314
30
0
11
0.0035435724227466
21
-0.099937195750555
31
0
210
0
220
0
230
1
40
0.174133
41
0.621889571214192
42
1.58182065981108
0
ELLIPSE
5
21A
100
AcDbEntity
8
1
62
256
6
ByLayer
370
-1
48
1
60
0
100
AcDbEllipse
10
41.755187
20
16.084441
30
0
11
-0.0699045413983562
21
-0.0715077274977013
31
0
210
0
220
0
230
1
40
0.113154
41
1.70485784680997
42
2.40298954760784
0
ELLIPSE
5
21B
100
AcDbEntity
8
1
62
256
6
ByLayer
370
-1
48
1
60
0
100
AcDbEllipse
10
41.665447
20
15.962447
30
0
11
0.0035435724227466
21
-0.099937195750555
31
0
210
0
220
0
230
1
40
0.174133
41
0.62188957121357
42
1.58182065981108
0
ELLIPSE
5
21C
100
AcDbEntity
8
1
62
256
6
ByLayer
370
-1
48
1
60
0
100
AcDbEllipse
10
31.526182
20
26.31453
30
0
11
-0.154902098008315
21
-0.499601224808051
31
0
210
0
220
0
230
1
40
0.960584
41
-2.33004026970258
42
-1.28949687603112
0
ELLIPSE
5
21D
100
AcDbEntity
8
1
62
256
6
ByLayer
370
-1
48
1
60
0
100
AcDbEllipse
10
37.189159
20
11.040777
30
0
11
-0.0512257656543611
21
0.517470695724043
31
0
210
0
220
0
230
1
40
0.984662
41
1.48028317282335
42
2.52082656649369
0
ELLIPSE
5
21E
100
AcDbEntity
8
1
62
256
6
ByLayer
370
-1
48
1
60
0
100
AcDbEllipse
10
41.676982
20
12.511208
30
0
11
-0.753883239649617
21
-0.427274544753016
31
0
210
0
220
0
230
1
40
0.061745
41
-1.43228534759374
42
-1.25775242341409
0
ELLIPSE
5
21F
100
AcDbEntity
8
1
62
256
6
ByLayer
370
-1
48
1
60
0
100
AcDbEllipse
10
35.670313
20
13.819378
30
0
11
-0.0197022175593697
21
0.199027190663095
31
0
210
0
220
0
230
1
40
0.984662
41
2.72111941250972
42
3.14157888877628
0
ELLIPSE
5
220
100
AcDbEntity
8
1
62
256
6
ByLayer
370
-1
48
1
60
0
100
AcDbEllipse
10
38.181976
20
11.10937
30
0
11
-0.216628510306458
21
0.475166136937657
31
0
210
0
220
0
230
1
40
0.958576
41
2.20447064128238
42
-3.03817127222716
0
ELLIPSE
5
221
100
AcDbEntity
8
1
62
256
6
ByLayer
370
-1
48
1
60
0
100
AcDbEllipse
10
33.745594
20
26.184797
30
0
11
-0.0197022175593697
21
0.199027190663095
31
0
210
0
220
0
230
1
40
0.984662
41
0.42643146410054
42
1.37915114102263
0
ELLIPSE
5
222
100
AcDbEntity
8
1
62
256
6
ByLayer
370
-1
48
1
60
0
100
AcDbEllipse
10
31.569426
20
26.339923
30
0
11
-0.154902098007161
21
-0.499601224808284
31
0
210
0
220
0
230
1
40
0.960584
41
2.91260164380449
42
-2.33004026970402
0
ELLIPSE
5
223
100
AcDbEntity
8
1
62
256
6
ByLayer
370
-1
48
1
60
0
100
AcDbEllipse
10
30.57676
20
26.220544
30
0
11
-0.051225765654361
21
0.517470695724043
31
0
210
0
220
0
230
1
40
0.984662
41
0.426431464100479
42
1.46697485777081
0
ELLIPSE
5
224
100
AcDbEntity
8
1
62
256
6
ByLayer
370
-1
48
1
60
0
100
AcDbEllipse
10
34.175691
20
26.006149
30
0
11
-0.0744721624991676
21
-0.240192896544773
31
0
210
0
220
0
230
1
40
0.960584
41
0.811552383867998
42
1.76427206078768
0
ELLIPSE
5
225
100
AcDbEntity
8
1
62
256
6
ByLayer
370
-1
48
1
60
0
100
AcDbEllipse
10
33.27626
20
25.917112
30
0
11
0.0246277719492118
21
-0.248783988328867
31
0
210
0
220
0
230
1
40
0.984662
41
0.977951918309047
42
1.37915114102263
0
ELLIPSE
5
226
100
AcDbEntity
8
1
62
256
6
ByLayer
370
-1
48
1
60
0
100
AcDbEllipse
10
33.902665
20
25.845829
30
0
11
-0.0744721624996302
21
-0.240192896544688
31
0
210
0
220
0
230
1
40
0.960584
41
-0.228991009801295
42
0.811552383867589
0
ELLIPSE
5
227
100
AcDbEntity
8
1
62
256
6
ByLayer
370
-1
48
1
60
0
100
AcDbEllipse
10
39.020358
20
20.63439
30
0
11
0.352177138873728
21
-3.55761103310279
31
0
210
0
220
0
230
1
40
0.984662
41
-3.14154131716743
42
-0.100197928696284
0
ELLIPSE
5
228
100
AcDbEntity
8
1
62
256
6
ByLayer
370
-1
48
1
60
0
100
AcDbEllipse
10
39.020358
20
20.63439
30
0
11
0.352177138873728
21
-3.55761103310279
31
0
210
0
220
0
230
1
40
0.984662
41
-0.100197928696284
42
0
0
ELLIPSE
5
229
100
AcDbEntity
8
1
62
256
6
ByLayer
370
-1
48
1
60
0
100
AcDbEllipse
10
39.146279
20
20.646855
30
0
11
0.352177138873728
21
-3.55761103310279
31
0
210
0
220
0
230
1
40
0.984662
41
0
42
6.28318530717959
0
ELLIPSE
5
22A
100
AcDbEntity
8
1
62
256
6
ByLayer
370
-1
48
1
60
0
100
AcDbEllipse
10
39.228705
20
20.655015
30
0
11
0.236426610712431
21
-2.3883262879571
31
0
210
0
220
0
230
1
40
0.984662
41
0
42
6.28318530717959
0
POINT
5
41
100
AcDbEntity
8
80
62
256
6
ByLayer
370
-1
48
1
60
0
100
AcDbPoint
10
0
20
0
30
0
39
0
210
0
220
0
230
1
50
360
0
POINT
5
43
100
AcDbEntity
8
81
62
256
6
ByLayer
370
-1
48
1
60
0
100
AcDbPoint
10
50
20
27
30
0
39
0
210
0
220
0
230
1
50
360
0
POINT
5
45
100
AcDbEntity
8
2
62
256
6
ByLayer
370
-1
48
1
60
0
100
AcDbPoint
10
50
20
27
30
0
39
0
210
0
220
0
230
1
50
360
0
SPLINE
5
22B
100
AcDbEntity
8
SK1
62
256
6
ByLayer
370
-1
48
1
60
0
100
AcDbSpline
70
4
71
2
72
6
73
3
40
0
40
0
40
0
40
1
40
1
40
1
41
1
10
-22.5
20
-13.493394380475
30
0
41
1
10
-12.099999999963
20
-13.7545958471854
30
0
41
1
10
-1.69999999999999
20
-14.0157970602974
30
0
0
SPLINE
5
22C
100
AcDbEntity
8
SK1
62
256
6
ByLayer
370
-1
48
1
60
0
100
AcDbSpline
70
4
71
2
72
6
73
3
40
0
40
0
40
0
40
1
40
1
40
1
41
1
10
-1.69999999999999
20
14.0157977997179
30
0
41
1
10
-12.0999999999449
20
13.7545973909208
30
0
41
1
10
-22.5
20
13.4933966698402
30
0
0
SPLINE
5
22D
100
AcDbEntity
8
SK1
62
256
6
ByLayer
370
-1
48
1
60
0
100
AcDbSpline
70
4
71
2
72
6
73
3
40
0
40
0
40
0
40
1
40
1
40
1
41
1
10
-24
20
-12.6310961283886
30
0
41
1
10
-23.2499999989318
20
-13.0640908004416
30
0
41
1
10
-22.5
20
-13.4970852847173
30
0
0
SPLINE
5
22E
100
AcDbEntity
8
SK1
62
256
6
ByLayer
370
-1
48
1
60
0
100
AcDbSpline
70
4
71
2
72
6
73
3
40
0
40
0
40
0
40
1
40
1
40
1
41
1
10
-22.5
20
13.4970856697526
30
0
41
1
10
-23.2499999989322
20
13.0640911753538
30
0
41
1
10
-24
20
12.6310964932104
30
0
0
SPLINE
5
22F
100
AcDbEntity
8
SK1
62
256
6
ByLayer
370
-1
48
1
60
0
100
AcDbSpline
70
4
71
3
72
13
73
9
40
0
40
0
40
0
40
0
40
0.239456137017858
40
0.368359723444941
40
0.49999898554771
40
0.631638416605806
40
0.760542468725189
40
1
40
1
40
1
40
1
41
1
10
-1.69999999999999
20
-14.0200984122732
30
0
41
1
10
-1.69909198645308
20
-13.9940409356568
30
0
41
1
10
-1.69103284110358
20
-13.9566683505561
30
0
41
1
10
-1.66563592205674
20
-13.9104491756451
30
0
41
1
10
-1.63886378681727
20
-13.8791676209635
30
0
41
1
10
-1.6062771275233
20
-13.8540002498915
30
0
41
1
10
-1.5588406423679
20
-13.8309564462263
30
0
41
1
10
-1.52111030874488
20
-13.8247841901529
30
0
41
1
10
-1.49503997793931
20
-13.8251858293361
30
0
0
SPLINE
5
230
100
AcDbEntity
8
SK1
62
256
6
ByLayer
370
-1
48
1
60
0
100
AcDbSpline
70
4
71
3
72
13
73
9
40
0
40
0
40
0
40
0
40
0.23945753129759
40
0.368361583423434
40
0.500001014483274
40
0.63164027658283
40
0.76054386300255
40
1
40
1
40
1
40
1
41
1
10
-1.49503997793928
20
13.8251858327438
30
0
41
1
10
-1.52111030874428
20
13.8247841935567
30
0
41
1
10
-1.5588406423667
20
13.830956449625
30
0
41
1
10
-1.60627712752267
20
13.8540002532836
30
0
41
1
10
-1.63886378681673
20
13.8791676243503
30
0
41
1
10
-1.66563592205637
20
13.9104491790265
30
0
41
1
10
-1.69103284110332
20
13.9566683539303
30
0
41
1
10
-1.6990919864528
20
13.9940409390257
30
0
41
1
10
-1.69999999999999
20
14.0200984156386
30
0
0
SPLINE
5
231
100
AcDbEntity
8
1
62
256
6
ByLayer
370
-1
48
1
60
0
100
AcDbSpline
70
4
71
3
72
8
73
4
40
0
40
0
40
0
40
0
40
1
40
1
40
1
40
1
41
1
10
20.92079238
20
19.5953859168697
30
0
41
1
10
20.968838563163
20
19.7787535984854
30
0
41
1
10
21.0169583050094
20
19.9621122648152
30
0
41
1
10
21.0651433124845
20
20.1454517250658
30
0
0
SPLINE
5
232
100
AcDbEntity
8
1
62
256
6
ByLayer
370
-1
48
1
60
0
100
AcDbSpline
70
4
71
3
72
16
73
12
40
0
40
0
40
0
40
0
40
0.464304267159295
40
0.464304267159295
40
0.647533485141968
40
0.647533485141968
40
0.833383675860512
40
0.833383675860512
40
0.950238074309855
40
0.950238074309855
40
1
40
1
40
1
40
1
41
1
10
6.66339745962156
20
6.16973001948571
30
0
41
1
10
6.68070356543041
20
6.10699311212741
30
0
41
1
10
6.70445583204739
20
6.04466199750289
30
0
41
1
10
6.75332706552712
20
5.96658891111872
30
0
41
1
10
6.76920288341026
20
5.94525308185362
30
0
41
1
10
6.80605435144608
20
5.90694983484818
30
0
41
1
10
6.82759190740043
20
5.88959453036586
30
0
41
1
10
6.86713065155234
20
5.86981268651903
30
0
41
1
10
6.8838647446556
20
5.8641686994944
30
0
41
1
10
6.90829201976607
20
5.86046107106307
30
0
41
1
10
6.91575967688848
20
5.85988980456935
30
0
41
1
10
6.92320508075687
20
5.85988980456935
30
0
0
SPLINE
5
233
100
AcDbEntity
8
1
62
256
6
ByLayer
370
-1
48
1
60
0
100
AcDbSpline
70
4
71
3
72
8
73
4
40
0
40
0
40
0
40
0
40
1
40
1
40
1
40
1
41
1
10
39.0984392858455
20
9.17989227135405
30
0
41
1
10
39.3259363892693
20
9.32569613266602
30
0
41
1
10
39.5415013573086
20
9.46535369176462
30
0
41
1
10
39.7483594279742
20
9.59952107249467
30
0
0
SPLINE
5
234
100
AcDbEntity
8
1
62
256
6
ByLayer
370
-1
48
1
60
0
100
AcDbSpline
70
4
71
3
72
10
73
6
40
0
40
0
40
0
40
0
40
0.5
40
0.5
40
1
40
1
40
1
40
1
41
1
10
17.0803645201175
20
-18.4785397031245
30
0
41
1
10
17.1540362116243
20
-18.8272147070395
30
0
41
1
10
17.5005191294173
20
-19.0979261624301
30
0
41
1
10
18.6958172645698
20
-19.4625031006712
30
0
41
1
10
19.5264013415119
20
-19.555169510971
30
0
41
1
10
20.42466620749
20
-19.5853124059125
30
0
0
SPLINE
5
235
100
AcDbEntity
8
1
62
256
6
ByLayer
370
-1
48
1
60
0
100
AcDbSpline
70
4
71
3
72
16
73
12
40
0
40
0
40
0
40
0
40
0.114691258188363
40
0.114691258188363
40
0.256006982052505
40
0.256006982052505
40
0.478481509698432
40
0.478481509698432
40
0.904237458570145
40
0.904237458570145
40
1
40
1
40
1
40
1
41
1
10
9.07679491924313
20
5.85988980456938
30
0
41
1
10
9.09376079941589
20
5.85988980456938
30
0
41
1
10
9.11093746787589
20
5.8629683550426
30
0
41
1
10
9.14653890153815
20
5.87527238052311
30
0
41
1
10
9.1649283126321
20
5.88582364044447
30
0
41
1
10
9.20694798227834
20
5.91775860341622
30
0
41
1
10
9.22859635065211
20
5.94228809980598
30
0
41
1
10
9.28185513895579
20
6.01773563791645
30
0
41
1
10
9.30640600056208
20
6.07398601286491
30
0
41
1
10
9.32912053427441
20
6.14371014971232
30
0
41
1
10
9.33300496589206
20
6.15668833929709
30
0
41
1
10
9.33660254037846
20
6.16973001948571
30
0
0
SPLINE
5
236
100
AcDbEntity
8
1
62
256
6
ByLayer
370
-1
48
1
60
0
100
AcDbSpline
70
4
71
3
72
44
73
40
40
-0.035007164079678
40
-0.035007164079678
40
0
40
0
40
0.0535223238560621
40
0.0535223238560621
40
0.107033368408265
40
0.107033368408265
40
0.160713765613062
40
0.160713765613062
40
0.214513527639527
40
0.214513527639527
40
0.2681294938144
40
0.2681294938144
40
0.321545140313268
40
0.321545140313268
40
0.375056506460534
40
0.375056506460534
40
0.428809692031831
40
0.428809692031831
40
0.482574671403383
40
0.482574671403383
40
0.536103806235444
40
0.536103806235444
40
0.589517695269125
40
0.589517695269125
40
0.643113583217976
40
0.643113583217976
40
0.696908287865516
40
0.696908287865516
40
0.750607922740992
40
0.750607922740992
40
0.80406473791187
40
0.80406473791187
40
0.857510889653106
40
0.857510889653106
40
0.911193849089854
40
0.911193849089854
40
0.964992835920322
40
0.964992835920322
40
1
40
1
40
1.05352232385606
40
1.05352232385606
41
1
10
14
20
0.147199785104078
30
0
41
1
10
14
20
-0.22322683487829
30
0
41
1
10
13.9615567897578
20
-0.449529532429125
30
0
41
1
10
13.8142754223323
20
-0.870732224517866
30
0
41
1
10
13.7034438208906
20
-1.07143779767665
30
0
41
1
10
13.4252713058038
20
-1.42077851278251
30
0
41
1
10
13.2539183506795
20
-1.57407609420716
30
0
41
1
10
12.8748254429896
20
-1.81243392050902
30
0
41
1
10
12.6617377193724
20
-1.90063634220147
30
0
41
1
10
12.2250010494472
20
-1.99983733849021
30
0
41
1
10
11.9953546930757
20
-2.01245382666389
30
0
41
1
10
11.5518592617003
20
-1.96183673169747
30
0
41
1
10
11.3318676482926
20
-1.89819981179045
30
0
41
1
10
10.93043518355
20
-1.70463361723074
30
0
41
1
10
10.7435390018255
20
-1.57194221293705
30
0
41
1
10
10.427556037316
20
-1.25600716441761
30
0
41
1
10
10.294360006347
20
-1.068164577327
30
0
41
1
10
10.100293235061
20
-0.664311901912754
30
0
41
1
10
10.0367643012054
20
-0.442687622178113
30
0
41
1
10
9.98758075185745
20
0.0020418775925748
30
0
41
1
10
10.0009166114507
20
0.231264184406342
30
0
41
1
10
10.1009802251916
20
0.665837778537508
30
0
41
1
10
10.1889081070628
20
0.877202914830633
30
0
41
1
10
10.4264731816938
20
1.25454677626891
30
0
41
1
10
10.5795791544139
20
1.42557407494539
30
0
41
1
10
10.929567780172
20
1.70422650029138
30
0
41
1
10
11.1314685181367
20
1.81547165333123
30
0
41
1
10
11.5547019685918
20
1.96260354095819
30
0
41
1
10
11.7818656194361
20
2.00064215052706
30
0
41
1
10
12.2287710880047
20
1.99934382798901
30
0
41
1
10
12.4546841777037
20
1.96033798121783
30
0
41
1
10
12.8750159584165
20
1.8121807461817
30
0
41
1
10
13.0752148821921
20
1.70102777680714
30
0
41
1
10
13.4237732882888
20
1.42228121516908
30
0
41
1
10
13.576718313574
20
1.25059659761274
30
0
41
1
10
13.8142799982876
20
0.870990227207585
30
0
41
1
10
13.9020315045067
20
0.657716388224003
30
0
41
1
10
13.9835469904496
20
0.295295076122073
30
0
41
1
10
14
20
0.147199785104078
30
0
41
1
10
14
20
-0.22322683487829
30
0
0
SPLINE
5
237
100
AcDbEntity
8
1
62
256
6
ByLayer
370
-1
48
1
60
0
100
AcDbSpline
70
4
71
3
72
16
73
12
40
0
40
0
40
0
40
0
40
0.464304267159291
40
0.464304267159291
40
0.647533485141964
40
0.647533485141964
40
0.833383675860498
40
0.833383675860498
40
0.950238074309841
40
0.950238074309841
40
1
40
1
40
1
40
1
41
1
10
6.66339745962156
20
-19.0245744101322
30
0
41
1
10
6.68070356543041
20
-19.0449201888242
30
0
41
1
10
6.70445583204739
20
-19.0647708693882
30
0
41
1
10
6.75332706552712
20
-19.0892734034403
30
0
41
1
10
6.76920288341026
20
-19.0959253431035
30
0
41
1
10
6.80605435144608
20
-19.1078085849622
30
0
41
1
10
6.82759190740043
20
-19.1131587398644
30
0
41
1
10
6.86713065155232
20
-19.1192406569511
30
0
41
1
10
6.8838647446556
20
-19.1209710216544
30
0
41
1
10
6.90829201976607
20
-19.1221075563677
30
0
41
1
10
6.91575967688848
20
-19.1222825906926
30
0
41
1
10
6.92320508075687
20
-19.1222825906926
30
0
0
SPLINE
5
238
100
AcDbEntity
8
1
62
256
6
ByLayer
370
-1
48
1
60
0
100
AcDbSpline
70
4
71
3
72
16
73
12
40
0
40
0
40
0
40
0
40
0.464304267159308
40
0.464304267159308
40
0.647533485141987
40
0.647533485141987
40
0.833383675860531
40
0.833383675860531
40
0.950238074309876
40
0.950238074309876
40
1
40
1
40
1
40
1
41
1
10
9.33660254037844
20
-6.16973001948568
30
0
41
1
10
9.31929643456959
20
-6.10699311212741
30
0
41
1
10
9.29554416795261
20
-6.04466199750289
30
0
41
1
10
9.24667293447288
20
-5.96658891111872
30
0
41
1
10
9.23079711658974
20
-5.94525308185362
30
0
41
1
10
9.19394564855389
20
-5.90694983484818
30
0
41
1
10
9.17240809259957
20
-5.88959453036583
30
0
41
1
10
9.13286934844766
20
-5.86981268651903
30
0
41
1
10
9.1161352553444
20
-5.8641686994944
30
0
41
1
10
9.09170798023393
20
-5.86046107106307
30
0
41
1
10
9.08424032311152
20
-5.85988980456935
30
0
41
1
10
9.07679491924313
20
-5.85988980456935
30
0
0
SPLINE
5
239
100
AcDbEntity
8
1
62
256
6
ByLayer
370
-1
48
1
60
0
100
AcDbSpline
70
4
71
3
72
16
73
12
40
0
40
0
40
0
40
0
40
0.114691258188366
40
0.114691258188366
40
0.256006982052505
40
0.256006982052505
40
0.478481509698431
40
0.478481509698431
40
0.904237458570114
40
0.904237458570114
40
1
40
1
40
1
40
1
41
1
10
6.9232050807569
20
-5.85988980456938
30
0
41
1
10
6.90623920058411
20
-5.85988980456938
30
0
41
1
10
6.88906253212411
20
-5.8629683550426
30
0
41
1
10
6.85346109846185
20
-5.87527238052311
30
0
41
1
10
6.8350716873679
20
-5.88582364044447
30
0
41
1
10
6.79305201772166
20
-5.91775860341622
30
0
41
1
10
6.77140364934789
20
-5.94228809980598
30
0
41
1
10
6.71814486104421
20
-6.01773563791645
30
0
41
1
10
6.69359399943792
20
-6.07398601286488
30
0
41
1
10
6.67087946572559
20
-6.14371014971229
30
0
41
1
10
6.66699503410797
20
-6.15668833929709
30
0
41
1
10
6.66339745962154
20
-6.16973001948568
30
0
0
SPLINE
5
23A
100
AcDbEntity
8
1
62
256
6
ByLayer
370
-1
48
1
60
0
100
AcDbSpline
70
4
71
3
72
16
73
12
40
0
40
0
40
0
40
0
40
0.223150580815802
40
0.223150580815802
40
0.44627299355819
40
0.44627299355819
40
0.669843465198727
40
0.669843465198727
40
0.897182555479732
40
0.897182555479732
40
1
40
1
40
1
40
1
41
1
10
20.92079238
20
19.5953859168697
30
0
41
1
10
20.4820356516982
20
19.5921495679439
30
0
41
1
10
20.0400194234503
20
19.5740335831372
30
0
41
1
10
19.2227830076885
20
19.5055315827939
30
0
41
1
10
18.8363831801959
20
19.4539599663909
30
0
41
1
10
18.1700045757175
20
19.3127052501571
30
0
41
1
10
17.8813325744674
20
19.2207217559238
30
0
41
1
10
17.4314933461893
20
18.9948322134416
30
0
41
1
10
17.2665208540444
20
18.8571253883453
30
0
41
1
10
17.1268994980038
20
18.631387998443
30
0
41
1
10
17.096843168946
20
18.5565302151829
30
0
41
1
10
17.0803645201174
20
18.4785397031245
30
0
0
SPLINE
5
23B
100
AcDbEntity
8
1
62
256
6
ByLayer
370
-1
48
1
60
0
100
AcDbSpline
70
4
71
3
72
8
73
4
40
0
40
0
40
0
40
0
40
1
40
1
40
1
40
1
41
1
10
22.6877095942369
20
26.291686777001
30
0
41
1
10
22.627021040046
20
26.2685841525525
30
0
41
1
10
22.59678345111
20
26.2456168463314
30
0
41
1
10
22.5945272368574
20
26.2227738839526
30
0
0
SPLINE
5
23C
100
AcDbEntity
8
1
62
256
6
ByLayer
370
-1
48
1
60
0
100
AcDbSpline
70
4
71
3
72
16
73
12
40
0
40
0
40
0
40
0
40
0.114691258188367
40
0.114691258188367
40
0.2560069820525
40
0.2560069820525
40
0.478481509698463
40
0.478481509698463
40
0.904237458570164
40
0.904237458570164
40
1
40
1
40
1
40
1
41
1
10
6.9232050807569
20
19.1222825906926
30
0
41
1
10
6.90623920058411
20
19.1222825906926
30
0
41
1
10
6.88906253212411
20
19.1213397893258
30
0
41
1
10
6.85346109846185
20
19.117563257367
30
0
41
1
10
6.8350716873679
20
19.1143205262483
30
0
41
1
10
6.79305201772166
20
19.1044641374228
30
0
41
1
10
6.77140364934789
20
19.0968571256395
30
0
41
1
10
6.71814486104418
20
19.0732678361841
30
0
41
1
10
6.69359399943792
20
19.0554522237109
30
0
41
1
10
6.67087946572559
20
19.0329978954364
30
0
41
1
10
6.66699503410797
20
19.0288038685174
30
0
41
1
10
6.66339745962154
20
19.0245744101322
30
0
0
SPLINE
5
23D
100
AcDbEntity
8
1
62
256
6
ByLayer
370
-1
48
1
60
0
100
AcDbSpline
70
4
71
3
72
16
73
12
40
0
40
0
40
0
40
0
40
0.114691258188363
40
0.114691258188363
40
0.256006982052496
40
0.256006982052496
40
0.47848150969843
40
0.47848150969843
40
0.90423745857014
40
0.90423745857014
40
1
40
1
40
1
40
1
41
1
10
9.07679491924313
20
-19.1222825906926
30
0
41
1
10
9.09376079941589
20
-19.1222825906926
30
0
41
1
10
9.11093746787589
20
-19.1213397893258
30
0
41
1
10
9.14653890153815
20
-19.117563257367
30
0
41
1
10
9.16492831263207
20
-19.1143205262483
30
0
41
1
10
9.20694798227834
20
-19.1044641374228
30
0
41
1
10
9.22859635065211
20
-19.0968571256395
30
0
41
1
10
9.28185513895579
20
-19.0732678361841
30
0
41
1
10
9.30640600056208
20
-19.0554522237109
30
0
41
1
10
9.32912053427441
20
-19.0329978954364
30
0
41
1
10
9.33300496589203
20
-19.0288038685174
30
0
41
1
10
9.33660254037846
20
-19.0245744101322
30
0
0
SPLINE
5
23E
100
AcDbEntity
8
1
62
256
6
ByLayer
370
-1
48
1
60
0
100
AcDbSpline
70
4
71
3
72
16
73
12
40
0
40
0
40
0
40
0
40
0.46430426715931
40
0.46430426715931
40
0.647533485141985
40
0.647533485141985
40
0.833383675860524
40
0.833383675860524
40
0.950238074309867
40
0.950238074309867
40
1
40
1
40
1
40
1
41
1
10
9.33660254037844
20
19.0245744101322
30
0
41
1
10
9.31929643456959
20
19.0449201888242
30
0
41
1
10
9.29554416795261
20
19.0647708693882
30
0
41
1
10
9.24667293447288
20
19.0892734034403
30
0
41
1
10
9.23079711658974
20
19.0959253431035
30
0
41
1
10
9.19394564855392
20
19.1078085849622
30
0
41
1
10
9.17240809259957
20
19.1131587398644
30
0
41
1
10
9.13286934844766
20
19.1192406569511
30
0
41
1
10
9.1161352553444
20
19.1209710216545
30
0
41
1
10
9.09170798023393
20
19.1221075563677
30
0
41
1
10
9.08424032311152
20
19.1222825906926
30
0
41
1
10
9.07679491924313
20
19.1222825906926
30
0
0
SPLINE
5
23F
100
AcDbEntity
8
1
62
256
6
ByLayer
370
-1
48
1
60
0
100
AcDbSpline
70
4
71
3
72
8
73
4
40
0
40
0
40
0
40
0
40
1
40
1
40
1
40
1
41
1
10
22.6877095942369
20
26.291686777001
30
0
41
1
10
22.1451119583731
20
24.2433831653505
30
0
41
1
10
21.6037417541187
20
22.1947685718478
30
0
41
1
10
21.0651433124845
20
20.1454517250658
30
0
0
SPLINE
5
240
100
AcDbEntity
8
SK1
62
256
6
ByLayer
370
-1
48
1
60
0
100
AcDbSpline
70
4
71
3
72
22
73
18
40
0
40
0
40
0
40
0
40
0.0046002277717486
40
0.0791295431725587
40
0.153658858573368
40
0.228188173974179
40
0.302717489374989
40
0.377246804775798
40
0.451776120176608
40
0.526305435577417
40
0.600834750978226
40
0.675364066379036
40
0.749893381779845
40
0.824422697180655
40
0.898952012581464
40
0.973481327982273
40
1
40
1
40
1
40
1
41
1
10
-1.69999999999999
20
14.0200976448558
30
0
41
1
10
-1.69999999999999
20
14.0200986449558
30
0
41
1
10
-1.69999999999999
20
14.0201000954995
30
0
41
1
10
-1.69999999999999
20
14.019328579954
30
0
41
1
10
-1.69999999999999
20
14.0160536856944
30
0
41
1
10
-1.69999999999999
20
14.0105818843269
30
0
41
1
10
-1.69999999999999
20
14.0028680885368
30
0
41
1
10
-1.69999999999999
20
13.9928643754521
30
0
41
1
10
-1.69999999999999
20
13.9805194781504
30
0
41
1
10
-1.69999999999999
20
13.9657803225008
30
0
41
1
10
-1.69999999999999
20
13.9485919447531
30
0
41
1
10
-1.69999999999999
20
13.928894814906
30
0
41
1
10
-1.69999999999999
20
13.906626997656
30
0
41
1
10
-1.69999999999999
20
13.8817225613585
30
0
41
1
10
-1.69999999999999
20
13.8541126983085
30
0
41
1
10
-1.69999999999999
20
13.8302480295842
30
0
41
1
10
-1.69999999999999
20
13.8156417714107
30
0
41
1
10
-1.69999999999999
20
13.8117476725386
30
0
0
SPLINE
5
241
100
AcDbEntity
8
SK1
62
256
6
ByLayer
370
-1
48
1
60
0
100
AcDbSpline
70
4
71
3
72
20
73
16
40
0
40
0
40
0
40
0
40
0.0690523573929896
40
0.146661763510102
40
0.224271169627215
40
0.301880575744327
40
0.37948998186144
40
0.457099387978552
40
0.534708794095665
40
0.612318200212778
40
0.68992760632989
40
0.767537012447003
40
0.845146418564115
40
0.922755824681228
40
1
40
1
40
1
40
1
41
1
10
-1.49503997793931
20
-13.6351347988833
30
0
41
1
10
-1.49503997793931
20
-13.6443015967338
30
0
41
1
10
-1.49503997793931
20
-13.6629744150334
30
0
41
1
10
-1.49503997793931
20
-13.6890838953327
30
0
41
1
10
-1.49503997793931
20
-13.7135462135277
30
0
41
1
10
-1.49503997793931
20
-13.7354294564142
30
0
41
1
10
-1.49503997793931
20
-13.7547954355729
30
0
41
1
10
-1.49503997793931
20
-13.7717019129112
30
0
41
1
10
-1.49503997793931
20
-13.7862048388089
30
0
41
1
10
-1.49503997793931
20
-13.7983568536387
30
0
41
1
10
-1.49503997793931
20
-13.808208301662
30
0
41
1
10
-1.49503997793931
20
-13.8158072842266
30
0
41
1
10
-1.49503997793931
20
-13.8211992752721
30
0
41
1
10
-1.49503997793928
20
-13.8244222109647
30
0
41
1
10
-1.49503997793926
20
-13.8251605308361
30
0
41
1
10
-1.49503997793934
20
-13.8251847988832
30
0
0
SPLINE
5
242
100
AcDbEntity
8
SK1
62
256
6
ByLayer
370
-1
48
1
60
0
100
AcDbSpline
70
4
71
3
72
24
73
20
40
0
40
0
40
0
40
0
40
0.470757339557637
40
0.470757339557637
40
0.661825272466991
40
0.661825272466991
40
0.855687933885903
40
0.855687933885903
40
0.884459685177962
40
0.884459685177962
40
0.913606431116911
40
0.913606431116911
40
0.93276274188951
40
0.93276274188951
40
0.952038875310495
40
0.952038875310495
40
0.974618636887962
40
0.974618636887962
40
1
40
1
40
1
40
1
41
1
10
-0.199999999999989
20
8.30026102982006
30
0
41
1
10
-0.199999999999989
20
8.40813999856104
30
0
41
1
10
-0.203895951501323
20
8.51418817703575
30
0
41
1
10
-0.223509770460822
20
8.65678939704657
30
0
41
1
10
-0.230868927249532
20
8.69733305700169
30
0
41
1
10
-0.252992490431723
20
8.77541687979559
30
0
41
1
10
-0.266168059233706
20
8.81521605168774
30
0
41
1
10
-0.299310679427265
20
8.84933912510502
30
0
41
1
10
-0.304165741061354
20
8.85355904236093
30
0
41
1
10
-0.315231509704972
20
8.86079561812784
30
0
41
1
10
-0.321586848351387
20
8.86386810492343
30
0
41
1
10
-0.33343246331458
20
8.86678707509216
30
0
41
1
10
-0.338585853710981
20
8.86737221228233
30
0
41
1
10
-0.349157100661216
20
8.86698765017877
30
0
41
1
10
-0.354703635574509
20
8.86599201279878
30
0
41
1
10
-0.366192830079882
20
8.86240742161999
30
0
41
1
10
-0.372212908674925
20
8.8595556446017
30
0
41
1
10
-0.3839500393143
20
8.85255983205585
30
0
41
1
10
-0.389694361912774
20
8.84823670741906
30
0
41
1
10
-0.394976888882155
20
8.84367713161942
30
0
0
SPLINE
5
243
100
AcDbEntity
8
SK1
62
256
6
ByLayer
370
-1
48
1
60
0
100
AcDbSpline
70
4
71
3
72
22
73
18
40
0
40
0
40
0
40
0
40
0.0265194202274623
40
0.101050800431265
40
0.175582180635067
40
0.250113560838869
40
0.324644941042672
40
0.399176321246474
40
0.473707701450276
40
0.548239081654079
40
0.622770461857881
40
0.697301842061683
40
0.771833222265486
40
0.846364602469288
40
0.92089598267309
40
0.995427362876893
40
1
40
1
40
1
40
1
41
1
10
-1.69999999999999
20
-13.811747665057
30
0
41
1
10
-1.69999999999999
20
-13.8156417644869
30
0
41
1
10
-1.69999999999999
20
-13.8302480164611
30
0
41
1
10
-1.69999999999999
20
-13.8541126665239
30
0
41
1
10
-1.69999999999999
20
-13.8817225673155
30
0
41
1
10
-1.69999999999999
20
-13.9066269915263
30
0
41
1
10
-1.69999999999999
20
-13.9288947904293
30
0
41
1
10
-1.69999999999999
20
-13.9485920330968
30
0
41
1
10
-1.69999999999999
20
-13.9657802897491
30
0
41
1
10
-1.69999999999999
20
-13.9805189425197
30
0
41
1
10
-1.69999999999999
20
-13.9928637685944
30
0
41
1
10
-1.69999999999999
20
-14.0028679246327
30
0
41
1
10
-1.69999999999999
20
-14.0105820884136
30
0
41
1
10
-1.69999999999999
20
-14.0160540753173
30
0
41
1
10
-1.69999999999999
20
-14.0193289901042
30
0
41
1
10
-1.70000000000008
20
-14.0201001399795
30
0
41
1
10
-1.69999999999996
20
-14.0200986527233
30
0
41
1
10
-1.69999999999996
20
-14.0200976526233
30
0
0
SPLINE
5
244
100
AcDbEntity
8
SK1
62
256
6
ByLayer
370
-1
48
1
60
0
100
AcDbSpline
70
4
71
3
72
12
73
8
40
0
40
0
40
0
40
0
40
0.301078052370217
40
0.301078052370217
40
0.755457508537248
40
0.755457508537248
40
1
40
1
40
1
40
1
41
1
10
-22.5000000000001
20
3.01818827911163
30
0
41
1
10
-22.6299428339792
20
2.95979186121923
30
0
41
1
10
-22.7589490380952
20
2.89820761826445
30
0
41
1
10
-23.0792958200369
20
2.73501022854433
30
0
41
1
10
-23.2692632625257
20
2.62886757465878
30
0
41
1
10
-23.5545276501919
20
2.45122093304275
30
0
41
1
10
-23.6530959702266
20
2.38630160195035
30
0
41
1
10
-23.7500000000004
20
2.31834585432858
30
0
0
SPLINE
5
245
100
AcDbEntity
8
SK1
62
256
6
ByLayer
370
-1
48
1
60
0
100
AcDbSpline
70
4
71
3
72
8
73
4
40
0
40
0
40
0
40
0
40
1
40
1
40
1
40
1
41
1
10
-23.75
20
-2.318345865863
30
0
41
1
10
-23.8331827968636
20
-2.38314687456534
30
0
41
1
10
-23.916529597232
20
-2.44738280369776
30
0
41
1
10
-24
20
-2.51110070736982
30
0
0
SPLINE
5
246
100
AcDbEntity
8
SK1
62
256
6
ByLayer
370
-1
48
1
60
0
100
AcDbSpline
70
4
71
3
72
134
73
130
40
0
40
0
40
0
40
0
40
0.0097538830110706
40
0.0201759668121564
40
0.0305980506132421
40
0.0410201344143278
40
0.0618643020164993
40
0.072286385817585
40
0.0827084696186707
40
0.103552637220842
40
0.124396804823014
40
0.134818888624099
40
0.145240972425185
40
0.155663056226271
40
0.166085140027356
40
0.186929307629528
40
0.207773475231699
40
0.218195559032785
40
0.228617642833871
40
0.239039726634957
40
0.249461810436042
40
0.259883894237128
40
0.270305978038214
40
0.280728061839299
40
0.291150145640385
40
0.311994313242557
40
0.322416397043642
40
0.332838480844728
40
0.343260564645814
40
0.3536826484469
40
0.364104732247985
40
0.374526816049071
40
0.384948899850157
40
0.395370983651242
40
0.405793067452328
40
0.416215151253414
40
0.4266372350545
40
0.437059318855585
40
0.447481402656671
40
0.457903486457757
40
0.468325570258843
40
0.478747654059928
40
0.489169737861014
40
0.4995918216621
40
0.510013905463185
40
0.515224947363728
40
0.520435989264271
40
0.525647031164814
40
0.530858073065357
40
0.5360691149659
40
0.541280156866443
40
0.546491198766985
40
0.551702240667528
40
0.562124324468614
40
0.567335366369157
40
0.5725464082697
40
0.577757450170243
40
0.582968492070785
40
0.588179533971328
40
0.593390575871871
40
0.603812659672957
40
0.6090237015735
40
0.614234743474043
40
0.619445785374586
40
0.624656827275128
40
0.629867869175671
40
0.635078911076214
40
0.640289952976757
40
0.6455009948773
40
0.650712036777843
40
0.655923078678386
40
0.661134120578928
40
0.666345162479471
40
0.671556204380014
40
0.674161725330286
40
0.676767246280557
40
0.679372767230828
40
0.6819782881811
40
0.684583809131371
40
0.687189330081643
40
0.689794851031914
40
0.692400371982186
40
0.697611413882729
40
0.700216934833
40
0.702822455783271
40
0.708033497683814
40
0.713244539584357
40
0.7184555814849
40
0.723666623385443
40
0.728877665285986
40
0.734088707186529
40
0.739299749087071
40
0.744510790987614
40
0.749721832888157
40
0.7549328747887
40
0.760143916689243
40
0.765354958589786
40
0.770566000490329
40
0.7731715214406
40
0.775777042390871
40
0.780988084291414
40
0.786199126191957
40
0.7914101680925
40
0.796621209993043
40
0.801832251893586
40
0.812254335694671
40
0.817465377595214
40
0.822676419495757
40
0.8278874613963
40
0.833098503296843
40
0.843520587097929
40
0.848731628998471
40
0.853942670899014
40
0.859153712799557
40
0.8643647547001
40
0.874786838501186
40
0.885208922302272
40
0.895631006103357
40
0.906053089904443
40
0.916475173705529
40
0.926897257506614
40
0.9373193413077
40
0.947741425108786
40
0.958163508909872
40
0.968585592710957
40
0.979007676512043
40
0.989429760313129
40
0.999851844114214
40
1
40
1
40
1
40
1
41
1
10
-22.5
20
-3.01818827927741
30
0
41
1
10
-22.5
20
-3.06989962765277
30
0
41
1
10
-22.5
20
-3.17679756167442
30
0
41
1
10
-22.5
20
-3.33869268202537
30
0
41
1
10
-22.5
20
-3.50387269888734
30
0
41
1
10
-22.5
20
-3.7241107731532
30
0
41
1
10
-22.5
20
-3.94274136693033
30
0
41
1
10
-22.5
20
-4.16182098835125
30
0
41
1
10
-22.5
20
-4.38046834392605
30
0
41
1
10
-22.5
20
-4.6521313409323
30
0
41
1
10
-22.5
20
-4.92257969672104
30
0
41
1
10
-22.5
20
-5.13878771536176
30
0
41
1
10
-22.5
20
-5.3002512242374
30
0
41
1
10
-22.5
20
-5.46127952881159
30
0
41
1
10
-22.5
20
-5.67574512859306
30
0
41
1
10
-22.5
20
-5.94181289892214
30
0
41
1
10
-22.5
20
-6.20619892228657
30
0
41
1
10
-22.5
20
-6.4172866354929
30
0
41
1
10
-22.5
20
-6.57474298115588
30
0
41
1
10
-22.5
20
-6.73160630682358
30
0
41
1
10
-22.5
20
-6.88785475463158
30
0
41
1
10
-22.5
20
-7.04346362554682
30
0
41
1
10
-22.5
20
-7.19840961702212
30
0
41
1
10
-22.5
20
-7.3526673687181
30
0
41
1
10
-22.5
20
-7.5577827570684
30
0
41
1
10
-22.5
20
-7.76021480080979
30
0
41
1
10
-22.5
20
-7.96227546057767
30
0
41
1
10
-22.5
20
-8.11267737528124
30
0
41
1
10
-22.5
20
-8.26221729327267
30
0
41
1
10
-22.5
20
-8.41086153104905
30
0
41
1
10
-22.5
20
-8.55857489811086
30
0
41
1
10
-22.5
20
-8.70532065682588
30
0
41
1
10
-22.5
20
-8.85106019920357
30
0
41
1
10
-22.5
20
-8.99575410596543
30
0
41
1
10
-22.5
20
-9.13935935781572
30
0
41
1
10
-22.5
20
-9.28183033185979
30
0
41
1
10
-22.5
20
-9.42311921140521
30
0
41
1
10
-22.5
20
-9.56317702726699
30
0
41
1
10
-22.5
20
-9.70195159723355
30
0
41
1
10
-22.5
20
-9.83938686831539
30
0
41
1
10
-22.5
20
-9.97542347878982
30
0
41
1
10
-22.5
20
-10.1099986389992
30
0
41
1
10
-22.5
20
-10.2430464929181
30
0
41
1
10
-22.5
20
-10.3744964154319
30
0
41
1
10
-22.5
20
-10.4823993520042
30
0
41
1
10
-22.5
20
-10.5683052000147
30
0
41
1
10
-22.5
20
-10.6320883947106
30
0
41
1
10
-22.5
20
-10.6954128023876
30
0
41
1
10
-22.5
20
-10.7582664502824
30
0
41
1
10
-22.5
20
-10.8206385578975
30
0
41
1
10
-22.5
20
-10.8825178102064
30
0
41
1
10
-22.5
20
-10.9438915701349
30
0
41
1
10
-22.5
20
-11.0252996155581
30
0
41
1
10
-22.5
20
-11.104828879926
30
0
41
1
10
-22.5
20
-11.1840828295981
30
0
41
1
10
-22.5
20
-11.2427391755019
30
0
41
1
10
-22.5
20
-11.3008104859698
30
0
41
1
10
-22.5
20
-11.358284301848
30
0
41
1
10
-22.5
20
-11.4151450771105
30
0
41
1
10
-22.5
20
-11.4904044220666
30
0
41
1
10
-22.5
20
-11.5635144180167
30
0
41
1
10
-22.5
20
-11.6361630086288
30
0
41
1
10
-22.5
20
-11.6897354861888
30
0
41
1
10
-22.5
20
-11.742605174443
30
0
41
1
10
-22.5
20
-11.7947568945721
30
0
41
1
10
-22.5
20
-11.8461750172779
30
0
41
1
10
-22.5
20
-11.8968462846795
30
0
41
1
10
-22.5
20
-11.946754708101
30
0
41
1
10
-22.5
20
-11.9958882399288
30
0
41
1
10
-22.5
20
-12.0442321456138
30
0
41
1
10
-22.5
20
-12.0917749604306
30
0
41
1
10
-22.5
20
-12.1385044302987
30
0
41
1
10
-22.5
20
-12.1844101108836
30
0
41
1
10
-22.5
20
-12.2218258379816
30
0
41
1
10
-22.5
20
-12.2515972465528
30
0
41
1
10
-22.5
20
-12.2736053591699
30
0
41
1
10
-22.5
20
-12.2954000242918
30
0
41
1
10
-22.5
20
-12.3169815200465
30
0
41
1
10
-22.5
20
-12.3383496223436
30
0
41
1
10
-22.5
20
-12.3595024692773
30
0
41
1
10
-22.5
20
-12.3804389665451
30
0
41
1
10
-22.5
20
-12.4082041545657
30
0
41
1
10
-22.5
20
-12.4351289795267
30
0
41
1
10
-22.5
20
-12.4620221018624
30
0
41
1
10
-22.5
20
-12.488624659129
30
0
41
1
10
-22.5
20
-12.5210392430808
30
0
41
1
10
-22.5
20
-12.5592202920502
30
0
41
1
10
-22.5
20
-12.5965307229563
30
0
41
1
10
-22.5
20
-12.6329710996376
30
0
41
1
10
-22.5
20
-12.6685449242327
30
0
41
1
10
-22.5
20
-12.7032542692366
30
0
41
1
10
-22.5
20
-12.7371045635781
30
0
41
1
10
-22.5
20
-12.7700992023791
30
0
41
1
10
-22.5
20
-12.8022450890416
30
0
41
1
10
-22.5
20
-12.8335467528614
30
0
41
1
10
-22.5
20
-12.8640120732334
30
0
41
1
10
-22.5
20
-12.8936466080025
30
0
41
1
10
-22.5
20
-12.9175700754931
30
0
41
1
10
-22.5
20
-12.9364522416041
30
0
41
1
10
-22.5
20
-12.9550637227275
30
0
41
1
10
-22.5
20
-12.9776460483023
30
0
41
1
10
-22.5
20
-13.0040369314793
30
0
41
1
10
-22.5
20
-13.0296367588038
30
0
41
1
10
-22.5
20
-13.0544548402808
30
0
41
1
10
-22.5
20
-13.0866449043773
30
0
41
1
10
-22.5
20
-13.1169337985544
30
0
41
1
10
-22.5
20
-13.1460738538274
30
0
41
1
10
-22.5
20
-13.167109232129
30
0
41
1
10
-22.5
20
-13.1874134911355
30
0
41
1
10
-22.5
20
-13.2136204059102
30
0
41
1
10
-22.5
20
-13.2381284090624
30
0
41
1
10
-22.5
20
-13.2614961634127
30
0
41
1
10
-22.5
20
-13.2782744961569
30
0
41
1
10
-22.5
20
-13.2943724303344
30
0
41
1
10
-22.5
20
-13.3150083260447
30
0
41
1
10
-22.5
20
-13.3389957510163
30
0
41
1
10
-22.5
20
-13.3652538388415
30
0
41
1
10
-22.5
20
-13.3889729666137
30
0
41
1
10
-22.5
20
-13.4102097619551
30
0
41
1
10
-22.5
20
-13.4290188795053
30
0
41
1
10
-22.5
20
-13.4454516793093
30
0
41
1
10
-22.5
20
-13.4595583428896
30
0
41
1
10
-22.5
20
-13.4713862375639
30
0
41
1
10
-22.5
20
-13.4809809798872
30
0
41
1
10
-22.5
20
-13.4883863401672
30
0
41
1
10
-22.5
20
-13.4936438563276
30
0
41
1
10
-22.5
20
-13.4967929897729
30
0
41
1
10
-22.5
20
-13.4975171866745
30
0
41
1
10
-22.5
20
-13.4975327016677
30
0
41
1
10
-22.5
20
-13.4975337017677
30
0
0
SPLINE
5
247
100
AcDbEntity
8
SK1
62
256
6
ByLayer
370
-1
48
1
60
0
100
AcDbSpline
70
4
71
3
72
132
73
128
40
0
40
0
40
0
40
0
40
0.0001479350217662
40
0.010570021133347
40
0.020992107244929
40
0.0314141933565104
40
0.0418362794680919
40
0.0522583655796733
40
0.0626804516912552
40
0.0731025378028367
40
0.0835246239144181
40
0.0939467100259995
40
0.104368796137581
40
0.114790882249163
40
0.125212968360744
40
0.135635054472326
40
0.140846097528116
40
0.146057140583907
40
0.151268183639698
40
0.156479226695489
40
0.16690131280707
40
0.172112355862861
40
0.177323398918652
40
0.182534441974443
40
0.187745485030233
40
0.198167571141815
40
0.203378614197606
40
0.208589657253396
40
0.213800700309187
40
0.219011743364978
40
0.224222786420769
40
0.226828307948664
40
0.229433829476559
40
0.23464487253235
40
0.239855915588141
40
0.245066958643932
40
0.250278001699722
40
0.255489044755514
40
0.260700087811304
40
0.265911130867095
40
0.271122173922885
40
0.276333216978676
40
0.281544260034467
40
0.286755303090258
40
0.291966346146049
40
0.297177389201839
40
0.299782910729735
40
0.302388432257631
40
0.307599475313421
40
0.310204996841317
40
0.312810518369211
40
0.315416039897107
40
0.318021561425002
40
0.320627082952898
40
0.323232604480793
40
0.325838126008688
40
0.328443647536584
40
0.333654690592375
40
0.338865733648166
40
0.344076776703956
40
0.349287819759747
40
0.354498862815538
40
0.359709905871328
40
0.36492094892712
40
0.37013199198291
40
0.375343035038701
40
0.380554078094491
40
0.385765121150283
40
0.390976164206073
40
0.396187207261864
40
0.406609293373446
40
0.411820336429237
40
0.417031379485027
40
0.422242422540818
40
0.427453465596609
40
0.4326645086524
40
0.43787555170819
40
0.448297637819772
40
0.453508680875562
40
0.458719723931353
40
0.463930766987144
40
0.469141810042934
40
0.479563896154516
40
0.489985982266098
40
0.500408068377679
40
0.510830154489261
40
0.521252240600843
40
0.531674326712423
40
0.542096412824005
40
0.552518498935587
40
0.562940585047169
40
0.57336267115875
40
0.583784757270332
40
0.594206843381913
40
0.604628929493494
40
0.615051015605076
40
0.625473101716658
40
0.635895187828239
40
0.646317273939821
40
0.656739360051402
40
0.667161446162984
40
0.677583532274566
40
0.688005618386147
40
0.70884979060931
40
0.719271876720891
40
0.729693962832473
40
0.740116048944055
40
0.750538135055637
40
0.760960221167217
40
0.771382307278799
40
0.781804393390381
40
0.792226479501962
40
0.813070651725126
40
0.833914823948288
40
0.84433691005987
40
0.854758996171451
40
0.865181082283033
40
0.875603168394614
40
0.896447340617778
40
0.91729151284094
40
0.927713598952522
40
0.938135685064104
40
0.958979857287267
40
0.969401943398849
40
0.979824029510429
40
0.990246115622011
40
1
40
1
40
1
40
1
41
1
10
-22.5
20
13.4975336914408
30
0
41
1
10
-22.5
20
13.4975326913408
30
0
41
1
10
-22.5
20
13.4975169962725
30
0
41
1
10
-22.5
20
13.4967925889696
30
0
41
1
10
-22.5
20
13.4936434603956
30
0
41
1
10
-22.5
20
13.488386105735
30
0
41
1
10
-22.5
20
13.4809810810282
30
0
41
1
10
-22.5
20
13.4713868018623
30
0
41
1
10
-22.5
20
13.4595589422132
30
0
41
1
10
-22.5
20
13.4454518048703
30
0
41
1
10
-22.5
20
13.4290187958535
30
0
41
1
10
-22.5
20
13.4102097673092
30
0
41
1
10
-22.5
20
13.3889729790855
30
0
41
1
10
-22.5
20
13.3652538275558
30
0
41
1
10
-22.5
20
13.3389957787966
30
0
41
1
10
-22.5
20
13.315008348363
30
0
41
1
10
-22.5
20
13.2943724336626
30
0
41
1
10
-22.5
20
13.2782744871364
30
0
41
1
10
-22.5
20
13.261496162182
30
0
41
1
10
-22.5
20
13.2381284383546
30
0
41
1
10
-22.5
20
13.2136204246872
30
0
41
1
10
-22.5
20
13.1874134836111
30
0
41
1
10
-22.5
20
13.1671092212662
30
0
41
1
10
-22.5
20
13.1460738648658
30
0
41
1
10
-22.5
20
13.116933827893
30
0
41
1
10
-22.5
20
13.0866449020611
30
0
41
1
10
-22.5
20
13.0544548265895
30
0
41
1
10
-22.5
20
13.0296367696939
30
0
41
1
10
-22.5
20
13.0040369585093
30
0
41
1
10
-22.5
20
12.9776460581123
30
0
41
1
10
-22.5
20
12.9550637121434
30
0
41
1
10
-22.5
20
12.9364522259915
30
0
41
1
10
-22.5
20
12.9175700737367
30
0
41
1
10
-22.5
20
12.8936466245735
30
0
41
1
10
-22.5
20
12.8640120902334
30
0
41
1
10
-22.5
20
12.8335467473933
30
0
41
1
10
-22.5
20
12.8022450762623
30
0
41
1
10
-22.5
20
12.7700992107326
30
0
41
1
10
-22.5
20
12.7371045803218
30
0
41
1
10
-22.5
20
12.7032542678355
30
0
41
1
10
-22.5
20
12.6685449127282
30
0
41
1
10
-22.5
20
12.6329711008787
30
0
41
1
10
-22.5
20
12.5965307331466
30
0
41
1
10
-22.5
20
12.5592202936023
30
0
41
1
10
-22.5
20
12.5210392351492
30
0
41
1
10
-22.5
20
12.4886246522183
30
0
41
1
10
-22.5
20
12.4620220997918
30
0
41
1
10
-22.5
20
12.4351289833279
30
0
41
1
10
-22.5
20
12.4082041606633
30
0
41
1
10
-22.5
20
12.3804389690521
30
0
41
1
10
-22.5
20
12.3595024652771
30
0
41
1
10
-22.5
20
12.3383496113724
30
0
41
1
10
-22.5
20
12.3169815053367
30
0
41
1
10
-22.5
20
12.295400010944
30
0
41
1
10
-22.5
20
12.2736053540957
30
0
41
1
10
-22.5
20
12.2515972517127
30
0
41
1
10
-22.5
20
12.2218258512317
30
0
41
1
10
-22.5
20
12.184410108183
30
0
41
1
10
-22.5
20
12.1385044055045
30
0
41
1
10
-22.5
20
12.0917749509442
30
0
41
1
10
-22.5
20
12.0442321614278
30
0
41
1
10
-22.5
20
11.9958882456087
30
0
41
1
10
-22.5
20
11.9467546782164
30
0
41
1
10
-22.5
20
11.8968462547855
30
0
41
1
10
-22.5
20
11.8461750301824
30
0
41
1
10
-22.5
20
11.7947569195194
30
0
41
1
10
-22.5
20
11.7426051546901
30
0
41
1
10
-22.5
20
11.6897354373688
30
0
41
1
10
-22.5
20
11.6361629955711
30
0
41
1
10
-22.5
20
11.5635144479566
30
0
41
1
10
-22.5
20
11.4904044054533
30
0
41
1
10
-22.5
20
11.4151450197466
30
0
41
1
10
-22.5
20
11.3582842904468
30
0
41
1
10
-22.5
20
11.30081052071
30
0
41
1
10
-22.5
20
11.2427391976582
30
0
41
1
10
-22.5
20
11.1840827952522
30
0
41
1
10
-22.5
20
11.1048288246999
30
0
41
1
10
-22.5
20
11.0252996202699
30
0
41
1
10
-22.5
20
10.9438916117685
30
0
41
1
10
-22.5
20
10.8825178072932
30
0
41
1
10
-22.5
20
10.8206385023525
30
0
41
1
10
-22.5
20
10.7372035288769
30
0
41
1
10
-22.5
20
10.6322982440448
30
0
41
1
10
-22.5
20
10.5042731256589
30
0
41
1
10
-22.5
20
10.3744963526008
30
0
41
1
10
-22.5
20
10.2430465049368
30
0
41
1
10
-22.5
20
10.1099987334694
30
0
41
1
10
-22.5
20
9.97542355026368
30
0
41
1
10
-22.5
20
9.83938664149062
30
0
41
1
10
-22.5
20
9.7019511244786
30
0
41
1
10
-22.5
20
9.56317694298994
30
0
41
1
10
-22.5
20
9.42311956101329
30
0
41
1
10
-22.5
20
9.28183046697174
30
0
41
1
10
-22.5
20
9.13935920132332
30
0
41
1
10
-22.5
20
8.99575406817866
30
0
41
1
10
-22.5
20
8.85106048600056
30
0
41
1
10
-22.5
20
8.70532137277877
30
0
41
1
10
-22.5
20
8.55857508055772
30
0
41
1
10
-22.5
20
8.41086111432622
30
0
41
1
10
-22.5
20
8.2622170636061
30
0
41
1
10
-22.5
20
8.11267733216062
30
0
41
1
10
-22.5
20
7.96227549146766
30
0
41
1
10
-22.5
20
7.76021479975719
30
0
41
1
10
-22.5
20
7.55778271760025
30
0
41
1
10
-22.5
20
7.35266735569425
30
0
41
1
10
-22.5
20
7.1984096395075
30
0
41
1
10
-22.5
20
7.04346364311783
30
0
41
1
10
-22.5
20
6.88785472427099
30
0
41
1
10
-22.5
20
6.73160625861243
30
0
41
1
10
-22.5
20
6.57474297344507
30
0
41
1
10
-22.5
20
6.41728666450001
30
0
41
1
10
-22.5
20
6.20619891756465
30
0
41
1
10
-22.5
20
5.94181286571938
30
0
41
1
10
-22.5
20
5.67574513263702
30
0
41
1
10
-22.5
20
5.46127955011838
30
0
41
1
10
-22.5
20
5.30025121271933
30
0
41
1
10
-22.5
20
5.13878767688189
30
0
41
1
10
-22.5
20
4.92257968138676
30
0
41
1
10
-22.5
20
4.65213135439635
30
0
41
1
10
-22.5
20
4.38046833317108
30
0
41
1
10
-22.5
20
4.16182095427271
30
0
41
1
10
-22.5
20
3.9427413592793
30
0
41
1
10
-22.5
20
3.72411078681992
30
0
41
1
10
-22.5
20
3.50387269712749
30
0
41
1
10
-22.5
20
3.33869265990467
30
0
41
1
10
-22.5
20
3.17679753940169
30
0
41
1
10
-22.5
20
3.06989961842942
30
0
41
1
10
-22.5
20
3.01818827911163
30
0
0
SPLINE
5
248
100
AcDbEntity
8
SK1
62
256
6
ByLayer
370
-1
48
1
60
0
100
AcDbSpline
70
4
71
3
72
20
73
16
40
0
40
0
40
0
40
0
40
0.0772869124725624
40
0.15489272672976
40
0.232498540986958
40
0.310104355244156
40
0.387710169501354
40
0.465315983758551
40
0.542921798015749
40
0.620527612272947
40
0.698133426530144
40
0.775739240787342
40
0.853345055044539
40
0.930950869301737
40
1
40
1
40
1
40
1
41
1
10
-1.49503997793931
20
13.8251848239943
30
0
41
1
10
-1.49503997793931
20
13.8251607834372
30
0
41
1
10
-1.49503997793931
20
13.8244224464354
30
0
41
1
10
-1.49503997793931
20
13.8211988832959
30
0
41
1
10
-1.49503997793931
20
13.8158070688212
30
0
41
1
10
-1.49503997793931
20
13.808208442156
30
0
41
1
10
-1.49503997793931
20
13.7983574446221
30
0
41
1
10
-1.49503997793931
20
13.7862053981965
30
0
41
1
10
-1.49503997793931
20
13.77170198028
30
0
41
1
10
-1.49503997793931
20
13.7547953489792
30
0
41
1
10
-1.49503997793931
20
13.7354294737582
30
0
41
1
10
-1.49503997793931
20
13.713546222023
30
0
41
1
10
-1.49503997793931
20
13.6890838873881
30
0
41
1
10
-1.49503997793928
20
13.6629744475127
30
0
41
1
10
-1.49503997793931
20
13.6443016236103
30
0
41
1
10
-1.49503997793928
20
13.6351348242833
30
0
0
SPLINE
5
249
100
AcDbEntity
8
SK1
62
256
6
ByLayer
370
-1
48
1
60
0
100
AcDbSpline
70
4
71
3
72
8
73
4
40
0
40
0
40
0
40
0
40
1
40
1
40
1
40
1
41
1
10
-1.49503997794056
20
-13.6351347988822
30
0
41
1
10
-1.43729978760118
20
-13.7047732747294
30
0
41
1
10
-1.37345799507583
20
-13.7541743147464
30
0
41
1
10
-1.30710678118652
20
-13.7865566101752
30
0
0
SPLINE
5
24A
100
AcDbEntity
8
SK1
62
256
6
ByLayer
370
-1
48
1
60
0
100
AcDbSpline
70
4
71
3
72
8
73
4
40
0
40
0
40
0
40
0
40
1
40
1
40
1
40
1
41
1
10
-1.49503997793931
20
11.0404930364189
30
0
41
1
10
-1.43729465227847
20
10.7581722860944
30
0
41
1
10
-1.37345836655081
20
10.4629011303968
30
0
41
1
10
-1.30710678118655
20
10.158740231062
30
0
0
SPLINE
5
24B
100
AcDbEntity
8
SK1
62
256
6
ByLayer
370
-1
48
1
60
0
100
AcDbSpline
70
4
71
3
72
10
73
6
40
0
40
0
40
0
40
0
40
0.5
40
0.5
40
1
40
1
40
1
40
1
41
1
10
-1.69999999999999
20
13.8117476725386
30
0
41
1
10
-1.83222107667174
20
13.6408882711127
30
0
41
1
10
-1.92871478877521
20
13.3586113342628
30
0
41
1
10
-1.92842477648082
20
12.4716815755714
30
0
41
1
10
-1.83224223944262
20
11.8891375407702
30
0
41
1
10
-1.69999999999999
20
11.2280220060487
30
0
0
SPLINE
5
24C
100
AcDbEntity
8
SK1
62
256
6
ByLayer
370
-1
48
1
60
0
100
AcDbSpline
70
4
71
3
72
45
73
41
40
-0.0346655388234622
40
-0.0346655388234622
40
0
40
0
40
0.0475853354015101
40
0.0475853354015101
40
0.0965439457616157
40
0.0965439457616157
40
0.147351814509744
40
0.147351814509744
40
0.201054098753097
40
0.201054098753097
40
0.257408530946411
40
0.257408530946411
40
0.315352338917161
40
0.315352338917161
40
0.373474036888771
40
0.373474036888771
40
0.429856764759631
40
0.429856764759631
40
0.482676618826971
40
0.482676618826971
40
0.532055708075986
40
0.532055708075986
40
0.580283198332106
40
0.580283198332106
40
0.630037953703277
40
0.630037953703277
40
0.68297323015892
40
0.68297323015892
40
0.739116479523075
40
0.739116479523075
40
0.797094116314838
40
0.797094116314838
40
0.855137282135919
40
0.855137282135919
40
0.911674201790644
40
0.911674201790644
40
0.965334461176538
40
0.965334461176538
40
0.965334461176538
40
1
40
1
40
1.04758533540151
40
1.04758533540151
41
1
10
-14.1999999946654
20
0.196004949368984
30
0
41
1
10
-14.2000000072724
20
-0.267204206743855
30
0
41
1
10
-14.1550121029226
20
-0.537811982312235
30
0
41
1
10
-13.981267704196
20
-1.05109347890195
30
0
41
1
10
-13.8479964623575
20
-1.29949857452303
30
0
41
1
10
-13.5089765710332
20
-1.74479377048354
30
0
41
1
10
-13.2964153860457
20
-1.94532171517366
30
0
41
1
10
-12.8129490640518
20
-2.27688112918648
30
0
41
1
10
-12.5330730608072
20
-2.40784573316793
30
0
41
1
10
-11.9399627555098
20
-2.57897574059072
30
0
41
1
10
-11.6177139472786
20
-2.61675376932231
30
0
41
1
10
-10.9780285613312
20
-2.58801523811869
30
0
41
1
10
-10.6520305465114
20
-2.51815937329084
30
0
41
1
10
-10.0497179303749
20
-2.27739486335616
30
0
41
1
10
-9.76481840065028
20
-2.10258473994199
30
0
41
1
10
-9.28852676794949
20
-1.67662290387437
30
0
41
1
10
-9.08766582573793
20
-1.4212951660414
30
0
41
1
10
-8.80594402215368
20
-0.879940169777882
30
0
41
1
10
-8.71452855900597
20
-0.588806122764368
30
0
41
1
10
-8.64526518452371
20
-0.0202769158246952
30
0
41
1
10
-8.65957016534227
20
0.264571047388472
30
0
41
1
10
-8.77926979785448
20
0.798970529212482
30
0
41
1
10
-8.88394574489251
20
1.05620259734377
30
0
41
1
10
-9.16874229744616
20
1.52585641099915
30
0
41
1
10
-9.35461353135315
20
1.7427969914358
30
0
41
1
10
-9.7911935800274
20
2.11697755292465
30
0
41
1
10
-10.0509141833834
20
2.27460331283112
30
0
41
1
10
-10.615850716875
20
2.50685727570919
30
0
41
1
10
-10.9305406217284
20
2.5791314193313
30
0
41
1
10
-11.568752004211
20
2.62036861210205
30
0
41
1
10
-11.9011804492289
20
2.58644824310426
30
0
41
1
10
-12.5276263925907
20
2.41280453721077
30
0
41
1
10
-12.8305974692144
20
2.27037226250025
30
0
41
1
10
-13.3539068737242
20
1.89968468648919
30
0
41
1
10
-13.5837638846885
20
1.66809853964384
30
0
41
1
10
-13.930977234606
20
1.15844221436984
30
0
41
1
10
-14.0582705658731
20
0.875709136611192
30
0
41
1
10
-14.1296022487215
20
0.583750544350721
30
0
41
1
10
-14.1761116474941
20
0.393388869841829
30
0
41
1
10
-14.1999999946654
20
0.196004949368984
30
0
41
1
10
-14.2000000072724
20
-0.267204206743855
30
0
0
SPLINE
5
24D
100
AcDbEntity
8
SK1
62
256
6
ByLayer
370
-1
48
1
60
0
100
AcDbSpline
70
4
71
3
72
32
73
28
40
0
40
0
40
0
40
0
40
0.335340467575462
40
0.335340467575462
40
0.429269070257328
40
0.429269070257328
40
0.475665880093226
40
0.475665880093226
40
0.494527017815209
40
0.494527017815209
40
0.51363133946723
40
0.51363133946723
40
0.520491265760596
40
0.520491265760596
40
0.527476800227956
40
0.527476800227956
40
0.533541265342573
40
0.533541265342573
40
0.54098675853912
40
0.54098675853912
40
0.554377472437893
40
0.554377472437893
40
0.598926463409424
40
0.598926463409424
40
0.809144511730394
40
0.809144511730394
40
1
40
1
40
1
40
1
41
1
10
-1.49503997793931
20
-11.0404927259881
30
0
41
1
10
-1.51545806286526
20
-11.1403186722278
30
0
41
1
10
-1.53714270995317
20
-11.2398258035823
30
0
41
1
10
-1.57392498192263
20
-11.3703881156193
30
0
41
1
10
-1.58255690369842
20
-11.3992194802565
30
0
41
1
10
-1.59805639361923
20
-11.4432549745399
30
0
41
1
10
-1.60359656185625
20
-11.4580163917288
30
0
41
1
10
-1.61295925472518
20
-11.4791914916621
30
0
41
1
10
-1.61586733678078
20
-11.4853862144031
30
0
41
1
10
-1.62242089401491
20
-11.4978857530179
30
0
41
1
10
-1.62611204983932
20
-11.5043446889304
30
0
41
1
10
-1.63216759381802
20
-11.5126552867475
30
0
41
1
10
-1.63390600442205
20
-11.5148399541402
30
0
41
1
10
-1.63759251039721
20
-11.518864736212
30
0
41
1
10
-1.63960095148229
20
-11.5207439787652
30
0
41
1
10
-1.64326808764346
20
-11.5234602158367
30
0
41
1
10
-1.64497992827185
20
-11.5244308998569
30
0
41
1
10
-1.64846661159331
20
-11.525836699829
30
0
41
1
10
-1.65022919021811
20
-11.5261443542052
30
0
41
1
10
-1.65458942779011
20
-11.5261534986718
30
0
41
1
10
-1.65687057354865
20
-11.5252445438832
30
0
41
1
10
-1.66534783491377
20
-11.5198674124839
30
0
41
1
10
-1.66918925225286
20
-11.5122771179542
30
0
41
1
10
-1.68799813658416
20
-11.4671990363747
30
0
41
1
10
-1.69173642289456
20
-11.4177145011531
30
0
41
1
10
-1.69840343728097
20
-11.3232581855776
30
0
41
1
10
-1.69970146541934
20
-11.2762269576267
30
0
41
1
10
-1.69999999999999
20
-11.2280219144135
30
0
0
SPLINE
5
24E
100
AcDbEntity
8
SK1
62
256
6
ByLayer
370
-1
48
1
60
0
100
AcDbSpline
70
4
71
3
72
8
73
4
40
0
40
0
40
0
40
0
40
1
40
1
40
1
40
1
41
1
10
-24
20
2.51110069830139
30
0
41
1
10
-23.9165295974327
20
2.44738279232345
30
0
41
1
10
-23.8331827971282
20
2.3831468621616
30
0
41
1
10
-23.75
20
2.31834585432824
30
0
0
SPLINE
5
24F
100
AcDbEntity
8
1
62
256
6
ByLayer
370
-1
48
1
60
0
100
AcDbSpline
70
4
71
3
72
8
73
4
40
0
40
0
40
0
40
0
40
1
40
1
40
1
40
1
41
1
10
30.2532010128488
20
26.8126861332969
30
0
41
1
10
30.2536013114165
20
26.8169748802319
30
0
41
1
10
30.2540016085044
20
26.8212636704719
30
0
41
1
10
30.2544019041624
20
26.8255525025563
30
0
0
SPLINE
5
250
100
AcDbEntity
8
1
62
256
6
ByLayer
370
-1
48
1
60
0
100
AcDbSpline
70
4
71
3
72
22
73
18
40
0
40
0
40
0
40
0
40
0.0450139638010605
40
0.0450139638010605
40
0.239486137884264
40
0.239486137884264
40
0.434170968409326
40
0.434170968409326
40
0.563611300621595
40
0.563611300621595
40
0.661927398778493
40
0.661927398778493
40
0.820451041495441
40
0.820451041495441
40
0.91623594730269
40
0.91623594730269
40
1
40
1
40
1
40
1
41
1
10
31.5945037820842
20
26.8932236987535
30
0
41
1
10
31.589274097409
20
26.8935756209727
30
0
41
1
10
31.58396142363
20
26.8938938389655
30
0
41
1
10
31.5552924480315
20
26.8954041819477
30
0
41
1
10
31.530475142685
20
26.8960099402339
30
0
41
1
10
31.47799153481
20
26.8957241797791
30
0
41
1
10
31.4502068322053
20
26.8948397261859
30
0
41
1
10
31.4014898018915
20
26.8915359932835
30
0
41
1
10
31.3813000915067
20
26.8897215542951
30
0
41
1
10
31.3446031218277
20
26.8852844991944
30
0
41
1
10
31.3283192685429
20
26.8829530582631
30
0
41
1
10
31.2850831088997
20
26.8754162393286
30
0
41
1
10
31.2570336094158
20
26.8692542038206
30
0
41
1
10
31.2124412895975
20
26.8554225901807
30
0
41
1
10
31.1954123720169
20
26.8491627383394
30
0
41
1
10
31.1657328138181
20
26.8355547663828
30
0
41
1
10
31.152504494466
20
26.8282575784785
30
0
41
1
10
31.1410851613536
20
26.8205145173595
30
0
0
SPLINE
5
251
100
AcDbEntity
8
1
62
256
6
ByLayer
370
-1
48
1
60
0
100
AcDbSpline
70
4
71
3
72
18
73
14
40
0
40
0
40
0
40
0
40
0.0235065764904249
40
0.0235065764904249
40
0.159686101649494
40
0.159686101649494
40
0.295423883197664
40
0.295423883197664
40
0.550420325547923
40
0.550420325547923
40
0.804718733926586
40
0.804718733926586
40
1
40
1
40
1
40
1
41
1
10
31.7613084857713
20
26.8349194237433
30
0
41
1
10
31.7613192710806
20
26.8359263204917
30
0
41
1
10
31.7612716478264
20
26.8369074757582
30
0
41
1
10
31.7605748820987
20
26.8434371059573
30
0
41
1
10
31.7581550273634
20
26.8482616356814
30
0
41
1
10
31.7508260483627
20
26.85677722197
30
0
41
1
10
31.7458979293703
20
26.8604958010096
30
0
41
1
10
31.7290955105214
20
26.870033223646
30
0
41
1
10
31.7148735430231
20
26.8749093762722
30
0
41
1
10
31.6823087083275
20
26.8829330780464
30
0
41
1
10
31.6638515401841
20
26.8860932139751
30
0
41
1
10
31.6283098144213
20
26.8905203539202
30
0
41
1
10
31.6118502169599
20
26.892056401634
30
0
41
1
10
31.5945037820842
20
26.8932236987535
30
0
0
SPLINE
5
252
100
AcDbEntity
8
1
62
256
6
ByLayer
370
-1
48
1
60
0
100
AcDbSpline
70
4
71
3
72
8
73
4
40
0
40
0
40
0
40
0
40
1
40
1
40
1
40
1
41
1
10
29.3361664698982
20
26.8185663802651
30
0
41
1
10
29.3385822925661
20
26.8142989737827
30
0
41
1
10
29.3409981241026
20
26.8100316092231
30
0
41
1
10
29.3434139648169
20
26.8057642880496
30
0
0
SPLINE
5
253
100
AcDbEntity
8
1
62
256
6
ByLayer
370
-1
48
1
60
0
100
AcDbSpline
70
4
71
3
72
10
73
6
40
0
40
0
40
0
40
0
40
0.898347317818057
40
0.898347317818057
40
1
40
1
40
1
40
1
41
1
10
29.3434139648169
20
26.8057642880496
30
0
41
1
10
29.3487217382377
20
26.7963886807222
30
0
41
1
10
29.3512992467569
20
26.7869569530344
30
0
41
1
10
29.3518158859673
20
26.7769992757792
30
0
41
1
10
29.3518423027848
20
26.7759956758255
30
0
41
1
10
29.3518436577326
20
26.7749963236913
30
0
0
SPLINE
5
254
100
AcDbEntity
8
1
62
256
6
ByLayer
370
-1
48
1
60
0
100
AcDbSpline
70
4
71
3
72
24
73
20
40
0
40
0
40
0
40
0
40
0.042995226961666
40
0.042995226961666
40
0.228745926441406
40
0.228745926441406
40
0.414699745380301
40
0.414699745380301
40
0.538335079651981
40
0.538335079651981
40
0.632242005354117
40
0.632242005354117
40
0.783656353743881
40
0.783656353743881
40
0.87514560323254
40
0.87514560323254
40
0.96794263046193
40
0.96794263046193
40
1
40
1
40
1
40
1
41
1
10
29.7602882126429
20
26.9325102053342
30
0
41
1
10
29.7520231485719
20
26.9324473230426
30
0
41
1
10
29.7437733693733
20
26.9323485898205
30
0
41
1
10
29.7000236303831
20
26.9316322123084
30
0
41
1
10
29.6647854338209
20
26.9303901870904
30
0
41
1
10
29.5956847698524
20
26.9263609449513
30
0
41
1
10
29.5616571271202
20
26.9235720665642
30
0
41
1
10
29.5070891482767
20
26.9170835122438
30
0
41
1
10
29.4857662657456
20
26.9139883208009
30
0
41
1
10
29.4498543041644
20
26.9073095399299
30
0
41
1
10
29.4348240232406
20
26.9040107834238
30
0
41
1
10
29.3979093315483
20
26.8939962711491
30
0
41
1
10
29.3768345889913
20
26.8863138931258
30
0
41
1
10
29.3509763085668
20
26.8702969454374
30
0
41
1
10
29.3429415069331
20
26.8632583086266
30
0
41
1
10
29.3329674207705
20
26.8473340208006
30
0
41
1
10
29.3310884368787
20
26.8381549370034
30
0
41
1
10
29.3335806565629
20
26.825355768815
30
0
41
1
10
29.3346699974685
20
26.8219659230824
30
0
41
1
10
29.3361664698982
20
26.8185663802651
30
0
0
SPLINE
5
255
100
AcDbEntity
8
1
62
256
6
ByLayer
370
-1
48
1
60
0
100
AcDbSpline
70
4
71
3
72
22
73
18
40
0
40
0
40
0
40
0
40
0.0904884159773528
40
0.0904884159773528
40
0.16761533503394
40
0.16761533503394
40
0.286482716021667
40
0.286482716021667
40
0.385988194077788
40
0.385988194077788
40
0.485170893000055
40
0.485170893000055
40
0.671495106342954
40
0.671495106342954
40
0.857309270881074
40
0.857309270881074
40
1
40
1
40
1
40
1
41
1
10
30.2544019041624
20
26.8255525025563
30
0
41
1
10
30.2540121207182
20
26.8349981456755
30
0
41
1
10
30.2501039954493
20
26.8444157916081
30
0
41
1
10
30.2370651388323
20
26.8599831850115
30
0
41
1
10
30.2286950038002
20
26.8666063244357
30
0
41
1
10
30.2039635451846
20
26.8813528499956
30
0
41
1
10
30.1854258971688
20
26.8886755356918
30
0
41
1
10
30.1492167526119
20
26.8997268326154
30
0
41
1
10
30.1315962468875
20
26.9039415022495
30
0
41
1
10
30.0955754431664
20
26.9111354868542
30
0
41
1
10
30.0770615127584
20
26.9141382848929
30
0
41
1
10
30.0232596903026
20
26.9215176241126
30
0
41
1
10
29.987230592026
20
26.9248552089543
30
0
41
1
10
29.9152144233212
20
26.9296734707985
30
0
41
1
10
29.8789954983804
20
26.9311561176418
30
0
41
1
10
29.8153205491969
20
26.9325368745938
30
0
41
1
10
29.7877027518652
20
26.9327187807348
30
0
41
1
10
29.7602882126429
20
26.9325102053342
30
0
0
SPLINE
5
256
100
AcDbEntity
8
1
62
256
6
ByLayer
370
-1
48
1
60
0
100
AcDbSpline
70
4
71
3
72
22
73
18
40
0
40
0
40
0
40
0
40
0.0904884159773463
40
0.0904884159773463
40
0.167615335033922
40
0.167615335033922
40
0.286482716021615
40
0.286482716021615
40
0.38598819407772
40
0.38598819407772
40
0.485170892999974
40
0.485170892999974
40
0.67149510634283
40
0.67149510634283
40
0.857309270880911
40
0.857309270880911
40
1
40
1
40
1
40
1
41
1
10
28.6084566650636
20
26.7878049883951
30
0
41
1
10
28.595174699759
20
26.7968358408017
30
0
41
1
10
28.5798669241524
20
26.8056666705149
30
0
41
1
10
28.5508218608725
20
26.819943806975
30
0
41
1
10
28.5368656482715
20
26.8258807869821
30
0
41
1
10
28.5024982761782
20
26.8388080842209
30
0
41
1
10
28.482065998675
20
26.8449286254296
30
0
41
1
10
28.4471634200174
20
26.8537835442444
30
0
41
1
10
28.4319650142078
20
26.8569835193121
30
0
41
1
10
28.4032770279409
20
26.8621753722704
30
0
41
1
10
28.3896928222229
20
26.8641842922969
30
0
41
1
10
28.3526973813556
20
26.868750563885
30
0
41
1
10
28.3308920670187
20
26.870294307328
30
0
41
1
10
28.2914434222945
20
26.8716523031283
30
0
41
1
10
28.2736825393621
20
26.8714576717638
30
0
41
1
10
28.245550242381
20
26.8699833600494
30
0
41
1
10
28.2343922365941
20
26.8689585577615
30
0
41
1
10
28.2243241322475
20
26.8675826852414
30
0
0
SPLINE
5
257
100
AcDbEntity
8
1
62
256
6
ByLayer
370
-1
48
1
60
0
100
AcDbSpline
70
4
71
3
72
14
73
10
40
0
40
0
40
0
40
0
40
0.142282681336323
40
0.142282681336323
40
0.426493461709528
40
0.426493461709528
40
0.866145857124075
40
0.866145857124075
40
1
40
1
40
1
40
1
41
1
10
30.3327576670275
20
26.7174258832849
30
0
41
1
10
30.3263575052932
20
26.7209491224187
30
0
41
1
10
30.320186286623
20
26.7246166120832
30
0
41
1
10
30.3024905884022
20
26.7360405891658
30
0
41
1
10
30.2917052038405
20
26.7442686636723
30
0
41
1
10
30.2684105410495
20
26.7665271118696
30
0
41
1
10
30.2576311874129
20
26.7817430501777
30
0
41
1
10
30.253099268122
20
26.8026104810778
30
0
41
1
10
30.2527307825541
20
26.8076481469098
30
0
41
1
10
30.2532010128486
20
26.8126861332967
30
0
0
SPLINE
5
258
100
AcDbEntity
8
1
62
256
6
ByLayer
370
-1
48
1
60
0
100
AcDbSpline
70
4
71
3
72
20
73
16
40
0
40
0
40
0
40
0
40
0.0545696736363882
40
0.0545696736363882
40
0.290325029862846
40
0.290325029862846
40
0.526338185928468
40
0.526338185928468
40
0.683256530543284
40
0.683256530543284
40
0.802443488024746
40
0.802443488024746
40
0.994619042369451
40
0.994619042369451
40
1
40
1
40
1
40
1
41
1
10
28.2243241322475
20
26.8675826852414
30
0
41
1
10
28.2212887528518
20
26.8671678807306
30
0
41
1
10
28.2183516296074
20
26.8667206826895
30
0
41
1
10
28.203270676093
20
26.8641713438469
30
0
41
1
10
28.1928493026297
20
26.8615052365612
30
0
41
1
10
28.1762305005914
20
26.8547990689781
30
0
41
1
10
28.1699862970334
20
26.8507507346339
30
0
41
1
10
28.1641322856045
20
26.8423684932814
30
0
41
1
10
28.1629976286977
20
26.8385682573284
30
0
41
1
10
28.1637793703014
20
26.8307836322809
30
0
41
1
10
28.1650313124789
20
26.82705006584
30
0
41
1
10
28.1713477674561
20
26.8160658797406
30
0
41
1
10
28.1783186268728
20
26.807931869611
30
0
41
1
10
28.1902994577051
20
26.7975268313187
30
0
41
1
10
28.1906313248947
20
26.7972403077581
30
0
41
1
10
28.1909673100928
20
26.7969519160509
30
0
0
SPLINE
5
259
100
AcDbEntity
8
1
62
256
6
ByLayer
370
-1
48
1
60
0
100
AcDbSpline
70
4
71
3
72
8
73
4
40
0
40
0
40
0
40
0
40
1
40
1
40
1
40
1
41
1
10
28.6255340405202
20
26.7754184200674
30
0
41
1
10
28.6198415606988
20
26.7795472327601
30
0
41
1
10
28.6141491024556
20
26.783676089363
30
0
41
1
10
28.6084566650636
20
26.7878049883951
30
0
0
SPLINE
5
25A
100
AcDbEntity
8
1
62
256
6
ByLayer
370
-1
48
1
60
0
100
AcDbSpline
70
4
71
3
72
12
73
8
40
0
40
0
40
0
40
0
40
0.215516644879672
40
0.215516644879672
40
0.714865241664979
40
0.714865241664979
40
1
40
1
40
1
40
1
41
1
10
39.0271027454175
20
19.2420023441484
30
0
41
1
10
38.9909898321487
20
19.234996472993
30
0
41
1
10
38.9560241707971
20
19.2254113919022
30
0
41
1
10
38.8462294963615
20
19.186425229801
30
0
41
1
10
38.777496154597
20
19.1468545755655
30
0
41
1
10
38.6858805104604
20
19.0720925331369
30
0
41
1
10
38.6554574384215
20
19.0418956256467
30
0
41
1
10
38.6282839170534
20
19.0094769231049
30
0
0
SPLINE
5
25B
100
AcDbEntity
8
1
62
256
6
ByLayer
370
-1
48
1
60
0
100
AcDbSpline
70
4
71
3
72
18
73
14
40
0
40
0
40
0
40
0
40
0.112011648086672
40
0.112011648086672
40
0.306446977577049
40
0.306446977577049
40
0.465753631490069
40
0.465753631490069
40
0.625653969130925
40
0.625653969130925
40
0.778498773020515
40
0.778498773020515
40
1
40
1
40
1
40
1
41
1
10
37.5064993993572
20
20.9710129659233
30
0
41
1
10
37.5451578004728
20
20.9825623129617
30
0
41
1
10
37.5835516491584
20
20.9978472070783
30
0
41
1
10
37.6860977867498
20
21.0499332134463
30
0
41
1
10
37.7498136664199
20
21.0951947608716
30
0
41
1
10
37.8550870513722
20
21.1979878872146
30
0
41
1
10
37.8996516491875
20
21.2531087563061
30
0
41
1
10
37.9754896219723
20
21.3738646814578
30
0
41
1
10
38.0076357887683
20
21.4410937110881
30
0
41
1
10
38.0541001370016
20
21.5740763761823
30
0
41
1
10
38.0697791698678
20
21.6412742572913
30
0
41
1
10
38.0904845191752
20
21.8010094989013
30
0
41
1
10
38.0881945269169
20
21.8943245210372
30
0
41
1
10
38.0733385294292
20
21.9808541453348
30
0
0
SPLINE
5
25C
100
AcDbEntity
8
1
62
256
6
ByLayer
370
-1
48
1
60
0
100
AcDbSpline
70
4
71
3
72
16
73
12
40
0
40
0
40
0
40
0
40
0.0787875328674663
40
0.0787875328674663
40
0.394338838009176
40
0.394338838009176
40
0.676533788437894
40
0.676533788437894
40
0.924926972378631
40
0.924926972378631
40
1
40
1
40
1
40
1
41
1
10
40.9081428843806
20
20.3347830203413
30
0
41
1
10
40.9190999165814
20
20.3376763189136
30
0
41
1
10
40.9299634191001
20
20.341071796447
30
0
41
1
10
40.9830870177319
20
20.3603906789802
30
0
41
1
10
41.0238777908637
20
20.3842385625278
30
0
41
1
10
41.0888922679506
20
20.4425565541217
30
0
41
1
10
41.1153669524672
20
20.4766224074431
30
0
41
1
10
41.1505881959585
20
20.5472102141171
30
0
41
1
10
41.1615445987127
20
20.5840096435159
30
0
41
1
10
41.1667391317162
20
20.6322938050477
30
0
41
1
10
41.1673331874973
20
20.6436659833678
30
0
41
1
10
41.1672993111884
20
20.6550148613723
30
0
0
SPLINE
5
25D
100
AcDbEntity
8
1
62
256
6
ByLayer
370
-1
48
1
60
0
100
AcDbSpline
70
4
71
3
72
16
73
12
40
0
40
0
40
0
40
0
40
0.127627815582672
40
0.127627815582672
40
0.350325478338704
40
0.350325478338704
40
0.579519261836767
40
0.579519261836767
40
0.826356513011946
40
0.826356513011946
40
1
40
1
40
1
40
1
41
1
10
40.2142253969209
20
18.9570846469744
30
0
41
1
10
40.2304612324022
20
18.9667656899123
30
0
41
1
10
40.2457874523024
20
18.9779297052098
30
0
41
1
10
40.2841904009354
20
19.0117282764258
30
0
41
1
10
40.3050013254072
20
19.037231111627
30
0
41
1
10
40.3371493442645
20
19.0927543373377
30
0
41
1
10
40.3486252345625
20
19.123569874711
30
0
41
1
10
40.3616635066193
20
19.1881210633427
30
0
41
1
10
40.3625955143694
20
19.2226961289463
30
0
41
1
10
40.355131307375
20
19.2795090858336
30
0
41
1
10
40.3493808085908
20
19.3027191311032
30
0
41
1
10
40.3413037543085
20
19.3249418409305
30
0
0
SPLINE
5
25E
100
AcDbEntity
8
1
62
256
6
ByLayer
370
-1
48
1
60
0
100
AcDbSpline
70
4
71
3
72
18
73
14
40
0
40
0
40
0
40
0
40
0.211736715521567
40
0.211736715521567
40
0.386043728065631
40
0.386043728065631
40
0.562074977609647
40
0.562074977609647
40
0.714803156409166
40
0.714803156409166
40
0.918086007818349
40
0.918086007818349
40
1
40
1
40
1
40
1
41
1
10
40.3333758775809
20
21.9808541453348
30
0
41
1
10
40.3043300839342
20
21.8980752109101
30
0
41
1
10
40.2876458220322
20
21.8091716776389
30
0
41
1
10
40.2864890842109
20
21.6449194170431
30
0
41
1
10
40.2970647440792
20
21.5681123949308
30
0
41
1
10
40.3431421601474
20
21.4202236726293
30
0
41
1
10
40.3798583656007
20
21.3470901572886
30
0
41
1
10
40.4674438180058
20
21.2270562255756
30
0
41
1
10
40.5167197275715
20
21.1764704810447
30
0
41
1
10
40.6411580773526
20
21.0775336059694
30
0
41
1
10
40.7213958925227
20
21.0335037396099
30
0
41
1
10
40.8374886711455
20
20.9900553952157
30
0
41
1
10
40.8717133716172
20
20.9795243323393
30
0
41
1
10
40.9062437431435
20
20.9710129659233
30
0
0
SPLINE
5
25F
100
AcDbEntity
8
1
62
256
6
ByLayer
370
-1
48
1
60
0
100
AcDbSpline
70
4
71
3
72
18
73
14
40
0
40
0
40
0
40
0
40
0.207901775533402
40
0.207901775533402
40
0.382890954466097
40
0.382890954466097
40
0.55965006675278
40
0.55965006675278
40
0.71251813559407
40
0.71251813559407
40
0.915117683447279
40
0.915117683447279
40
1
40
1
40
1
40
1
41
1
10
40.9081428843803
20
20.3347830203437
30
0
41
1
10
40.8215147419286
20
20.3119081144124
30
0
41
1
10
40.7361215936241
20
20.276013712799
30
0
41
1
10
40.5923557988929
20
20.1862038800097
30
0
41
1
10
40.5303577690062
20
20.1348557135026
30
0
41
1
10
40.4252010473958
20
20.0160104512896
30
0
41
1
10
40.3809126091682
20
19.946424620559
30
0
41
1
10
40.3236115487317
20
19.8113452346125
30
0
41
1
10
40.3063713146512
20
19.744999843414
30
0
41
1
10
40.2881987737607
20
19.593784335281
30
0
41
1
10
40.2937172895993
20
19.5073268756043
30
0
41
1
10
40.3194310107059
20
19.3916212995877
30
0
41
1
10
40.3293464904411
20
19.3578403204957
30
0
41
1
10
40.3413037543085
20
19.3249418409304
30
0
0
SPLINE
5
260
100
AcDbEntity
8
1
62
256
6
ByLayer
370
-1
48
1
60
0
100
AcDbSpline
70
4
71
3
72
12
73
8
40
0
40
0
40
0
40
0
40
0.238592977482811
40
0.238592977482811
40
0.7447896290929
40
0.7447896290929
40
1
40
1
40
1
40
1
41
1
10
39.3195414339838
20
22.0570623334928
30
0
41
1
10
39.3619665502561
20
22.0650576854265
30
0
41
1
10
39.4039743612239
20
22.076313492832
30
0
41
1
10
39.5301531327779
20
22.1198361627133
30
0
41
1
10
39.6110029954751
20
22.1622342510107
30
0
41
1
10
39.718603059955
20
22.2383535043898
30
0
41
1
10
39.7528536920208
20
22.266346858261
30
0
41
1
10
39.7847174162821
20
22.2961566212279
30
0
0
SPLINE
5
261
100
AcDbEntity
8
1
62
256
6
ByLayer
370
-1
48
1
60
0
100
AcDbSpline
70
4
71
3
72
14
73
10
40
0
40
0
40
0
40
0
40
0.280140124941057
40
0.280140124941057
40
0.568092970253085
40
0.568092970253085
40
0.828406595346682
40
0.828406595346682
40
1
40
1
40
1
40
1
41
1
10
38.081266406156
20
19.3249418409305
30
0
41
1
10
38.0752455959945
20
19.289287470531
30
0
41
1
10
38.0749327658396
20
19.2508428751411
30
0
41
1
10
38.0874193006857
20
19.1732388304404
30
0
41
1
10
38.1008526663164
20
19.1328826622516
30
0
41
1
10
38.139157121303
20
19.0622261758774
30
0
41
1
10
38.1634450736589
20
19.0302938257498
30
0
41
1
10
38.210542234958
20
18.985887069464
30
0
41
1
10
38.2313863071968
20
18.9701178161502
30
0
41
1
10
38.2533217177347
20
18.9570846469744
30
0
0
SPLINE
5
262
100
AcDbEntity
8
1
62
256
6
ByLayer
370
-1
48
1
60
0
100
AcDbSpline
70
4
71
3
72
18
73
14
40
0
40
0
40
0
40
0
40
0.196598884261235
40
0.196598884261235
40
0.37366702327427
40
0.37366702327427
40
0.552639135080419
40
0.552639135080419
40
0.706003143876186
40
0.706003143876186
40
0.906663000120465
40
0.906663000120465
40
1
40
1
40
1
40
1
41
1
10
38.0812664061564
20
19.3249418409303
30
0
41
1
10
38.0940070743681
20
19.4003902426187
30
0
41
1
10
38.0968255935929
20
19.4810821647383
30
0
41
1
10
38.080715380923
20
19.637415378956
30
0
41
1
10
38.0635648233748
20
19.7145777629784
30
0
41
1
10
38.0101951514787
20
19.8644654772798
30
0
41
1
10
37.9727850498147
20
19.9393544527314
30
0
41
1
10
37.8904766818863
20
20.0626062529838
30
0
41
1
10
37.8464786233273
20
20.114755861957
30
0
41
1
10
37.7393408073233
20
20.2166294548892
30
0
41
1
10
37.6727559846908
20
20.2626162060287
30
0
41
1
10
37.5732628964597
20
20.3114261503479
30
0
41
1
10
37.5409239453972
20
20.324408312649
30
0
41
1
10
37.508398540594
20
20.3347830203437
30
0
0
SPLINE
5
263
100
AcDbEntity
8
1
62
256
6
ByLayer
370
-1
48
1
60
0
100
AcDbSpline
70
4
71
3
72
16
73
12
40
0
40
0
40
0
40
0
40
0.213538877707831
40
0.213538877707831
40
0.437190569935539
40
0.437190569935539
40
0.671932374615009
40
0.671932374615009
40
0.927916080141899
40
0.927916080141899
40
1
40
1
40
1
40
1
41
1
10
38.2431851018468
20
22.3529450757701
30
0
41
1
10
38.2160729872512
20
22.3367787660142
30
0
41
1
10
38.1906276578725
20
22.3162481512842
30
0
41
1
10
38.1456818392724
20
22.2686191630473
30
0
41
1
10
38.1259420125658
20
22.2406508696718
30
0
41
1
10
38.0945729715792
20
22.180682730868
30
0
41
1
10
38.0829719478248
20
22.1478141013081
30
0
41
1
10
38.0686806080859
20
22.079703911331
30
0
41
1
10
38.0666748074173
20
22.0436695540676
30
0
41
1
10
38.0704812638733
20
21.9998617823958
30
0
41
1
10
38.07172019179
20
21.9902802473534
30
0
41
1
10
38.0733385294292
20
21.9808541453347
30
0
0
SPLINE
5
264
100
AcDbEntity
8
1
62
256
6
ByLayer
370
-1
48
1
60
0
100
AcDbSpline
70
4
71
3
72
16
73
12
40
0
40
0
40
0
40
0
40
0.152937598148396
40
0.152937598148396
40
0.375689428467764
40
0.375689428467764
40
0.606320624574707
40
0.606320624574707
40
0.855690651943398
40
0.855690651943398
40
1
40
1
40
1
40
1
41
1
10
41.1672993111884
20
20.6550148613723
30
0
41
1
10
41.1672309078393
20
20.6779306183518
30
0
41
1
10
41.1645718151906
20
20.700974571507
30
0
41
1
10
41.1520211628944
20
20.7556717756712
30
0
41
1
10
41.1391537134336
20
20.7871437785346
30
0
41
1
10
41.1045477183513
20
20.8445886111153
30
0
41
1
10
41.0821039529707
20
20.8710670706536
30
0
41
1
10
41.0294535628236
20
20.917215973414
30
0
41
1
10
40.9981335494235
20
20.9367638409253
30
0
41
1
10
40.9461731833882
20
20.9593937587578
30
0
41
1
10
40.926344252612
20
20.9660584058165
30
0
41
1
10
40.9062437431435
20
20.9710129659233
30
0
0
SPLINE
5
265
100
AcDbEntity
8
1
62
256
6
ByLayer
370
-1
48
1
60
0
100
AcDbSpline
70
4
71
3
72
12
73
8
40
0
40
0
40
0
40
0
40
0.497028833984344
40
0.497028833984344
40
0.945312370476817
40
0.945312370476817
40
1
40
1
40
1
40
1
41
1
10
39.7945281285732
20
19.0094769231052
30
0
41
1
10
39.7326358912028
20
19.0656278395698
30
0
41
1
10
39.6613880123611
20
19.1153714991366
30
0
41
1
10
39.5135394639773
20
19.1907393133398
30
0
41
1
10
39.4363653947651
20
19.2189504715848
30
0
41
1
10
39.3475486824709
20
19.2382536294044
30
0
41
1
10
39.337760186948
20
19.2402111307765
30
0
41
1
10
39.3279443652621
20
19.2420023441484
30
0
0
SPLINE
5
266
100
AcDbEntity
8
1
62
256
6
ByLayer
370
-1
48
1
60
0
100
AcDbSpline
70
4
71
3
72
16
73
12
40
0
40
0
40
0
40
0
40
0.0513580794937501
40
0.0513580794937501
40
0.274725697226067
40
0.274725697226067
40
0.500258795802078
40
0.500258795802078
40
0.739951195105451
40
0.739951195105451
40
1
40
1
40
1
40
1
41
1
10
37.2901111875793
20
20.6550148613723
30
0
41
1
10
37.2901343286405
20
20.6472623910316
30
0
41
1
10
37.290404252078
20
20.6395017550906
30
0
41
1
10
37.2931416526988
20
20.5983986031408
30
0
41
1
10
37.3001020317478
20
20.5650086844485
30
0
41
1
10
37.3220838047219
20
20.503162390778
30
0
41
1
10
37.3374395566498
20
20.4739599289038
30
0
41
1
10
37.3749547467808
20
20.4215428429338
30
0
41
1
10
37.3979240442894
20
20.3981407100557
30
0
41
1
10
37.4493231455269
20
20.3593355438508
30
0
41
1
10
37.4786613732145
20
20.3442683571472
30
0
41
1
10
37.508398540594
20
20.3347830203437
30
0
0
SPLINE
5
267
100
AcDbEntity
8
1
62
256
6
ByLayer
370
-1
48
1
60
0
100
AcDbSpline
70
4
71
3
72
16
73
12
40
0
40
0
40
0
40
0
40
0.0629457441396313
40
0.0629457441396313
40
0.374286864275373
40
0.374286864275373
40
0.654270571665997
40
0.654270571665997
40
0.900378573883605
40
0.900378573883605
40
1
40
1
40
1
40
1
41
1
10
39.7945281285718
20
19.009476923104
30
0
41
1
10
39.8012407915016
20
19.0033869481501
30
0
41
1
10
39.808205913339
20
18.9975050419644
30
0
41
1
10
39.8505923249649
20
18.9642517406221
30
0
41
1
10
39.8922786006927
20
18.9418609934654
30
0
41
1
10
39.9767409028825
20
18.9155306966455
30
0
41
1
10
40.0203467016636
20
18.9096338598678
30
0
41
1
10
40.1006379360709
20
18.9138457040956
30
0
41
1
10
40.1387065859131
20
18.9222265191703
30
0
41
1
10
40.1874857332816
20
18.9424408737881
30
0
41
1
10
40.201190651593
20
18.9493123380379
30
0
41
1
10
40.2142253969209
20
18.9570846469744
30
0
0
SPLINE
5
268
100
AcDbEntity
8
1
62
256
6
ByLayer
370
-1
48
1
60
0
100
AcDbSpline
70
4
71
3
72
18
73
14
40
0
40
0
40
0
40
0
40
0.0241452680582916
40
0.0241452680582916
40
0.243251449958434
40
0.243251449958434
40
0.462933467910855
40
0.462933467910855
40
0.695215358988481
40
0.695215358988481
40
0.94960103371315
40
0.94960103371315
40
1
40
1
40
1
40
1
41
1
10
40.204088781033
20
22.3529450757701
30
0
41
1
10
40.2009071825626
20
22.3548354580377
30
0
41
1
10
40.197688228763
20
22.3566708368019
30
0
41
1
10
40.1652421150596
20
22.374410123178
30
0
41
1
10
40.1327980158716
20
22.385874378853
30
0
41
1
10
40.0667402151159
20
22.3983073762014
30
0
41
1
10
40.0322854907507
20
22.3994318907765
30
0
41
1
10
39.963846801394
20
22.3919245228013
30
0
41
1
10
39.929143330827
20
22.3826705970451
30
0
41
1
10
39.8621463105536
20
22.3544549468419
30
0
41
1
10
39.8295405393713
20
22.334336420908
30
0
41
1
10
39.7955588565913
20
22.3060131248222
30
0
41
1
10
39.790057291368
20
22.3011522836713
30
0
41
1
10
39.7847174162818
20
22.2961566212281
30
0
0
SPLINE
5
269
100
AcDbEntity
8
1
62
256
6
ByLayer
370
-1
48
1
60
0
100
AcDbSpline
70
4
71
3
72
14
73
10
40
0
40
0
40
0
40
0
40
0.264403361323354
40
0.264403361323354
40
0.554346349806315
40
0.554346349806315
40
0.816286796968074
40
0.816286796968074
40
1
40
1
40
1
40
1
41
1
10
37.5064993993572
20
20.9710129659233
30
0
41
1
10
37.4763039586867
20
20.9619919610907
30
0
41
1
10
37.4465489628074
20
20.9471593806664
30
0
41
1
10
37.3900283414027
20
20.9048908552689
30
0
41
1
10
37.3629719197883
20
20.8756223018354
30
0
41
1
10
37.3226679048267
20
20.810485116556
30
0
41
1
10
37.3077825898971
20
20.7744963290234
30
0
41
1
10
37.2931345890771
20
20.710404813653
30
0
41
1
10
37.2900288548858
20
20.6825970780391
30
0
41
1
10
37.2901111875793
20
20.6550148613723
30
0
0
SPLINE
5
26A
100
AcDbEntity
8
1
62
256
6
ByLayer
370
-1
48
1
60
0
100
AcDbSpline
70
4
71
3
72
12
73
8
40
0
40
0
40
0
40
0
40
0.537410795186616
40
0.537410795186616
40
0.978132403445553
40
0.978132403445553
40
1
40
1
40
1
40
1
41
1
10
38.6184732047664
20
22.2961566212236
30
0
41
1
10
38.669725444533
20
22.2338988437864
30
0
41
1
10
38.7328170245475
20
22.1791432880569
30
0
41
1
10
38.8660058131688
20
22.1021753867942
30
0
41
1
10
38.9344350791445
20
22.0751876620431
30
0
41
1
10
39.0113026669371
20
22.0585710253705
30
0
41
1
10
39.0149948149701
20
22.0578029444147
30
0
41
1
10
39.0186998141394
20
22.0570623334929
30
0
0
SPLINE
5
26B
100
AcDbEntity
8
1
62
256
6
ByLayer
370
-1
48
1
60
0
100
AcDbSpline
70
4
71
3
72
14
73
10
40
0
40
0
40
0
40
0
40
0.22661462379911
40
0.22661462379911
40
0.521306004459428
40
0.521306004459428
40
0.787273449838605
40
0.787273449838605
40
1
40
1
40
1
40
1
41
1
10
40.3333758775817
20
21.9808541453346
30
0
41
1
10
40.343693003401
20
22.010257393599
30
0
41
1
10
40.3500729320564
20
22.0413813787837
30
0
41
1
10
40.3540972669372
20
22.113322051212
30
0
41
1
10
40.3484867820367
20
22.1554678403333
30
0
41
1
10
40.3219741616968
20
22.2300603468757
30
0
41
1
10
40.3021363194755
20
22.2641644708649
30
0
41
1
10
40.2559952317658
20
22.3163094324831
30
0
41
1
10
40.2312571941015
20
22.3368026596914
30
0
41
1
10
40.204088781033
20
22.3529450757701
30
0
0
SPLINE
5
26C
100
AcDbEntity
8
1
62
256
6
ByLayer
370
-1
48
1
60
0
100
AcDbSpline
70
4
71
3
72
18
73
14
40
0
40
0
40
0
40
0
40
0.0611914818579937
40
0.0611914818579937
40
0.279419736756872
40
0.279419736756872
40
0.500404252544627
40
0.500404252544627
40
0.735751387169696
40
0.735751387169696
40
0.99449640010746
40
0.99449640010746
40
1
40
1
40
1
40
1
41
1
10
38.2533217177347
20
18.9570846469744
30
0
41
1
10
38.2613525611669
20
18.9523130316497
30
0
41
1
10
38.2695596738094
20
18.9478827226318
30
0
41
1
10
38.3073870741178
20
18.9294404413977
30
0
41
1
10
38.3389404161019
20
18.9195968056773
30
0
41
1
10
38.4013878650297
20
18.9100628291949
30
0
41
1
10
38.4330602885317
20
18.9103542946388
30
0
41
1
10
38.4942502836219
20
18.9205139129738
30
0
41
1
10
38.5242669127904
20
18.931094467117
30
0
41
1
10
38.580101909701
20
18.9618381087238
30
0
41
1
10
38.6059279584627
20
18.9831995096564
30
0
41
1
10
38.6273866012118
20
19.0084105011086
30
0
41
1
10
38.6278362953898
20
19.0089428990683
30
0
41
1
10
38.6282839170536
20
19.0094769231048
30
0
0
SPLINE
5
26D
100
AcDbEntity
8
1
62
256
6
ByLayer
370
-1
48
1
60
0
100
AcDbSpline
70
4
71
3
72
16
73
12
40
0
40
0
40
0
40
0
40
0.192651042858077
40
0.192651042858077
40
0.48707292130117
40
0.48707292130117
40
0.752815930674451
40
0.752815930674451
40
0.988571524642466
40
0.988571524642466
40
1
40
1
40
1
40
1
41
1
10
38.6184732047678
20
22.2961566212265
30
0
41
1
10
38.6028378892694
20
22.315149352021
30
0
41
1
10
38.5845945793743
20
22.3322683288486
30
0
41
1
10
38.5333569555349
20
22.3686425613799
30
0
41
1
10
38.4966456770316
20
22.3848044785835
30
0
41
1
10
38.4221386132649
20
22.3994901615326
30
0
41
1
10
38.3836258818225
20
22.3997235564411
30
0
41
1
10
38.3124654194301
20
22.3859853280501
30
0
41
1
10
38.2786275918071
20
22.3733756162521
30
0
41
1
10
38.2462090446851
20
22.3547320685502
30
0
41
1
10
38.2446940407594
20
22.3538448201917
30
0
41
1
10
38.2431851018468
20
22.3529450757701
30
0
0
SPLINE
5
26E
100
AcDbEntity
8
1
62
256
6
ByLayer
370
-1
48
1
60
0
100
AcDbSpline
70
4
71
3
72
8
73
4
40
0
40
0
40
0
40
0
40
1
40
1
40
1
40
1
41
1
10
35.9097298115111
20
10.5275192906119
30
0
41
1
10
35.8415679608772
20
10.6467627780344
30
0
41
1
10
35.7699996263538
20
10.765043505031
30
0
41
1
10
35.7018377757199
20
10.8842869924535
30
0
0
SPLINE
5
26F
100
AcDbEntity
8
1
62
256
6
ByLayer
370
-1
48
1
60
0
100
AcDbSpline
70
4
71
3
72
14
73
10
40
0
40
0
40
0
40
0
40
0.250654849280886
40
0.250654849280886
40
0.500616057245225
40
0.500616057245225
40
0.761141676212494
40
0.761141676212494
40
1
40
1
40
1
40
1
41
1
10
32.5366494632251
20
19.5500170850734
30
0
41
1
10
32.5466815517813
20
19.5374761139316
30
0
41
1
10
32.5577736193374
20
19.5223017057628
30
0
41
1
10
32.5801219517154
20
19.489436304575
30
0
41
1
10
32.5916690174577
20
19.4713299082484
30
0
41
1
10
32.6142580789163
20
19.4338641279079
30
0
41
1
10
32.6255418857812
20
19.4140222916138
30
0
41
1
10
32.6453735802093
20
19.3771549189527
30
0
41
1
10
32.6542558842082
20
19.359693116737
30
0
41
1
10
32.6621482586075
20
19.3432291863635
30
0
0
SPLINE
5
270
100
AcDbEntity
8
1
62
256
6
ByLayer
370
-1
48
1
60
0
100
AcDbSpline
70
4
71
3
72
16
73
12
40
0
40
0
40
0
40
0
40
0.201528222395016
40
0.201528222395016
40
0.425760925194188
40
0.425760925194188
40
0.658562188548519
40
0.658562188548519
40
0.868007617002687
40
0.868007617002687
40
1
40
1
40
1
40
1
41
1
10
38.7132949050178
20
25.0850083396971
30
0
41
1
10
38.7295191118924
20
25.0884033205266
30
0
41
1
10
38.7455224410953
20
25.0933434953543
30
0
41
1
10
38.7778344385882
20
25.1069814395492
30
0
41
1
10
38.7941855335395
20
25.1161327603625
30
0
41
1
10
38.8245634632151
20
25.1384554810938
30
0
41
1
10
38.8387296631831
20
25.1519685020615
30
0
41
1
10
38.8612659786959
20
25.1807578585341
30
0
41
1
10
38.8702501417402
20
25.195970664229
30
0
41
1
10
38.8810369831621
20
25.2221713254225
30
0
41
1
10
38.8843150814115
20
25.2327618171551
30
0
41
1
10
38.886573502555
20
25.2435161425617
30
0
0
SPLINE
5
271
100
AcDbEntity
8
1
62
256
6
ByLayer
370
-1
48
1
60
0
100
AcDbSpline
70
4
71
3
72
14
73
10
40
0
40
0
40
0
40
0
40
0.217576655773127
40
0.217576655773127
40
0.418639226347894
40
0.418639226347894
40
0.72299224616604
40
0.72299224616604
40
1
40
1
40
1
40
1
41
1
10
34.7422191400763
20
20.8726333453865
30
0
41
1
10
34.7593466596246
20
20.8769562976712
30
0
41
1
10
34.7758180436085
20
20.883932370478
30
0
41
1
10
34.8043036509622
20
20.9013040567658
30
0
41
1
10
34.8168208588398
20
20.9115419570182
30
0
41
1
10
34.8440164760303
20
20.9402443956774
30
0
41
1
10
34.857008607204
20
20.9606973938019
30
0
41
1
10
34.8745069068986
20
21.0020841507822
30
0
41
1
10
34.8798821029722
20
21.0232531518785
30
0
41
1
10
34.8823096848562
20
21.044623292851
30
0
0
SPLINE
5
272
100
AcDbEntity
8
1
62
256
6
ByLayer
370
-1
48
1
60
0
100
AcDbSpline
70
4
71
3
72
14
73
10
40
0
40
0
40
0
40
0
40
0.305545320901991
40
0.305545320901991
40
0.618172577983461
40
0.618172577983461
40
0.80773327777223
40
0.80773327777223
40
1
40
1
40
1
40
1
41
1
10
34.8003860906276
20
21.0542675804692
30
0
41
1
10
34.7991424655321
20
21.039230310001
30
0
41
1
10
34.7964752749645
20
21.0242074111215
30
0
41
1
10
34.7875751245259
20
20.9951353500691
30
0
41
1
10
34.7811666334751
20
20.9807903893499
30
0
41
1
10
34.7670267142012
20
20.9606726913956
30
0
41
1
10
34.7606755048383
20
20.9536242519948
30
0
41
1
10
34.7460897634427
20
20.9420426238447
30
0
41
1
10
34.7375909357812
20
20.9374207434022
30
0
41
1
10
34.7286482668979
20
20.9348150366191
30
0
0
SPLINE
5
273
100
AcDbEntity
8
1
62
256
6
ByLayer
370
-1
48
1
60
0
100
AcDbSpline
70
4
71
3
72
14
73
10
40
0
40
0
40
0
40
0
40
0.114560016218169
40
0.114560016218169
40
0.305723973353132
40
0.305723973353132
40
0.535366948315998
40
0.535366948315998
40
1
40
1
40
1
40
1
41
1
10
38.8291672113642
20
25.2594663927211
30
0
41
1
10
38.8278241015491
20
25.2539298830549
30
0
41
1
10
38.8257728388005
20
25.2485351227686
30
0
41
1
10
38.8188524423339
20
25.2351302553405
30
0
41
1
10
38.8129212558014
20
25.2275426259149
30
0
41
1
10
38.7980905029706
20
25.2132242399084
30
0
41
1
10
38.7886579034411
20
25.2067359706096
30
0
41
1
10
38.758912419709
20
25.1909586858945
30
0
41
1
10
38.7365671762939
20
25.18490826145
30
0
41
1
10
38.7143305706229
20
25.1821464007597
30
0
0
SPLINE
5
274
100
AcDbEntity
8
1
62
256
6
ByLayer
370
-1
48
1
60
0
100
AcDbSpline
70
4
71
3
72
10
73
6
40
0
40
0
40
0
40
0
40
0.303481278345305
40
0.303481278345305
40
1
40
1
40
1
40
1
41
1
10
35.2231316109679
20
18.8476939466449
30
0
41
1
10
35.2183911553544
20
18.8243051693806
30
0
41
1
10
35.2165268203548
20
18.8005706277585
30
0
41
1
10
35.2182684498545
20
18.7235413572148
30
0
41
1
10
35.2318277363774
20
18.6701377297823
30
0
41
1
10
35.2537100579358
20
18.6199608602792
30
0
0
SPLINE
5
275
100
AcDbEntity
8
1
62
256
6
ByLayer
370
-1
48
1
60
0
100
AcDbSpline
70
4
71
3
72
12
73
8
40
0
40
0
40
0
40
0
40
0.0127217534693047
40
0.0127217534693047
40
0.526205585976656
40
0.526205585976656
40
1
40
1
40
1
40
1
41
1
10
35.3895624635731
20
19.0992851368905
30
0
41
1
10
35.3887509926328
20
19.0982016683407
30
0
41
1
10
35.3879398251903
20
19.0971184609303
30
0
41
1
10
35.3543601644352
20
19.0522008295819
30
0
41
1
10
35.3227404717407
20
19.0078290890692
30
0
41
1
10
35.2674201007956
20
18.9244362298772
30
0
41
1
10
35.2427664163534
20
18.8845295285047
30
0
41
1
10
35.2231316109679
20
18.8476939466449
30
0
0
SPLINE
5
276
100
AcDbEntity
8
1
62
256
6
ByLayer
370
-1
48
1
60
0
100
AcDbSpline
70
4
71
3
72
12
73
8
40
0
40
0
40
0
40
0
40
0.470534389757136
40
0.470534389757136
40
0.985921764955496
40
0.985921764955496
40
1
40
1
40
1
40
1
41
1
10
35.384625651789
20
18.7839187144143
30
0
41
1
10
35.3816410143623
20
18.8299164905546
30
0
41
1
10
35.3810629416185
20
18.8792198206572
30
0
41
1
10
35.3827819172385
20
18.9834232623598
30
0
41
1
10
35.3854162886908
20
19.0391914874878
30
0
41
1
10
35.389350800635
20
19.0962551103474
30
0
41
1
10
35.3894565118784
20
19.0977700841772
30
0
41
1
10
35.3895624635731
20
19.0992851368905
30
0
0
SPLINE
5
277
100
AcDbEntity
8
1
62
256
6
ByLayer
370
-1
48
1
60
0
100
AcDbSpline
70
4
71
3
72
10
73
6
40
0
40
0
40
0
40
0
40
0.709213553058278
40
0.709213553058278
40
1
40
1
40
1
40
1
41
1
10
35.4427189925937
20
18.5863263897906
30
0
41
1
10
35.4211841210026
20
18.6309047325798
30
0
41
1
10
35.4036551388255
20
18.6774080620261
30
0
41
1
10
35.3889763399519
20
18.7443516506298
30
0
41
1
10
35.3859094941024
20
18.764132762927
30
0
41
1
10
35.384625651789
20
18.7839187144143
30
0
0
SPLINE
5
278
100
AcDbEntity
8
1
62
256
6
ByLayer
370
-1
48
1
60
0
100
AcDbSpline
70
4
71
3
72
10
73
6
40
0
40
0
40
0
40
0
40
0.469696784645118
40
0.469696784645118
40
1
40
1
40
1
40
1
41
1
10
34.9269225402996
20
20.3935019941488
30
0
41
1
10
34.9127173845303
20
20.4934199742908
30
0
41
1
10
34.9018788646682
20
20.5944230927295
30
0
41
1
10
34.8860490055338
20
20.8112954943199
30
0
41
1
10
34.8819826266107
20
20.927501838172
30
0
41
1
10
34.8823096848562
20
21.044623292851
30
0
0
SPLINE
5
279
100
AcDbEntity
8
1
62
256
6
ByLayer
370
-1
48
1
60
0
100
AcDbSpline
70
4
71
3
72
10
73
6
40
0
40
0
40
0
40
0
40
0.33992222369292
40
0.33992222369292
40
1
40
1
40
1
40
1
41
1
10
38.7132949050034
20
25.0850083396942
30
0
41
1
10
38.7752838695681
20
25.0755062265464
30
0
41
1
10
38.8369355089899
20
25.0641270293705
30
0
41
1
10
39.0170769893325
20
25.0252250341656
30
0
41
1
10
39.1345741908806
20
24.9925603273778
30
0
41
1
10
39.2502014204443
20
24.95308923787
30
0
0
SPLINE
5
27A
100
AcDbEntity
8
1
62
256
6
ByLayer
370
-1
48
1
60
0
100
AcDbSpline
70
4
71
3
72
10
73
6
40
0
40
0
40
0
40
0
40
0.296681385512609
40
0.296681385512609
40
1
40
1
40
1
40
1
41
1
10
34.7864933208957
20
20.2569296400592
30
0
41
1
10
34.7895670592619
20
20.2347557585869
30
0
41
1
10
34.7942418097069
20
20.2130094659567
30
0
41
1
10
34.8156531975264
20
20.1427576448835
30
0
41
1
10
34.8406057879147
20
20.0962588751427
30
0
41
1
10
34.8773570431028
20
20.059170607397
30
0
0
SPLINE
5
27B
100
AcDbEntity
8
1
62
256
6
ByLayer
370
-1
48
1
60
0
100
AcDbSpline
70
4
71
3
72
12
73
8
40
0
40
0
40
0
40
0
40
0.473794414023353
40
0.473794414023353
40
0.987278246530695
40
0.987278246530695
40
1
40
1
40
1
40
1
41
1
10
34.8773570431029
20
20.059170607397
30
0
41
1
10
34.9129593663827
20
20.040061429125
30
0
41
1
10
34.9545639707217
20
20.0205778637113
30
0
41
1
10
35.0449302954275
20
19.981181602532
30
0
41
1
10
35.0949796835866
20
19.9609819488619
30
0
41
1
10
35.1470698502593
20
19.9410450536426
30
0
41
1
10
35.1483272526827
20
19.9405648052209
30
0
41
1
10
35.1495851078469
20
19.9400842950426
30
0
0
SPLINE
5
27C
100
AcDbEntity
8
1
62
256
6
ByLayer
370
-1
48
1
60
0
100
AcDbSpline
70
4
71
3
72
12
73
8
40
0
40
0
40
0
40
0
40
0.0140782350444981
40
0.0140782350444981
40
0.529465610242863
40
0.529465610242863
40
1
40
1
40
1
40
1
41
1
10
35.1495851078469
20
19.9400842950426
30
0
41
1
10
35.1486969874262
20
19.9413096959207
30
0
41
1
10
35.1478091707205
20
19.9425349540281
30
0
41
1
10
35.1144105146907
20
19.9887036860207
30
0
41
1
10
35.0828726407817
20
20.034203517871
30
0
41
1
10
35.0268450443051
20
20.1202790404418
30
0
41
1
10
35.0015970367039
20
20.161461525331
30
0
41
1
10
34.9802469930723
20
20.200724207561
30
0
0
SPLINE
5
27D
100
AcDbEntity
8
1
62
256
6
ByLayer
370
-1
48
1
60
0
100
AcDbSpline
70
4
71
3
72
10
73
6
40
0
40
0
40
0
40
0
40
0.691437525404656
40
0.691437525404656
40
1
40
1
40
1
40
1
41
1
10
34.9802469930723
20
20.200724207561
30
0
41
1
10
34.9585436140746
20
20.2406366727348
30
0
41
1
10
34.9449227917293
20
20.2855563901885
30
0
41
1
10
34.9320582296927
20
20.3516912839748
30
0
41
1
10
34.9290591192559
20
20.3725105621872
30
0
41
1
10
34.9269225402559
20
20.3935019941269
30
0
0
SPLINE
5
27E
100
AcDbEntity
8
1
62
256
6
ByLayer
370
-1
48
1
60
0
100
AcDbSpline
70
4
71
3
72
8
73
4
40
0
40
0
40
0
40
0
40
1
40
1
40
1
40
1
41
1
10
32.6621482586075
20
19.3432291863635
30
0
41
1
10
32.7145964153651
20
19.383082575836
30
0
41
1
10
32.7684977522788
20
19.4211007584622
30
0
41
1
10
32.8229305045124
20
19.457606751597
30
0
0
SPLINE
5
27F
100
AcDbEntity
8
1
62
256
6
ByLayer
370
-1
48
1
60
0
100
AcDbSpline
70
4
71
3
72
8
73
4
40
0
40
0
40
0
40
0
40
1
40
1
40
1
40
1
41
1
10
32.6339392297227
20
19.6604635037263
30
0
41
1
10
32.6009030227247
20
19.6246146642073
30
0
41
1
10
32.5683475635909
20
19.5877602530061
30
0
41
1
10
32.5366494632251
20
19.5500170850734
30
0
0
SPLINE
5
280
100
AcDbEntity
8
1
62
256
6
ByLayer
370
-1
48
1
60
0
100
AcDbSpline
70
4
71
3
72
8
73
4
40
0
40
0
40
0
40
0
40
1
40
1
40
1
40
1
41
1
10
35.4673468726234
20
24.5243190880145
30
0
41
1
10
35.7835433461328
20
24.8125855285933
30
0
41
1
10
36.1280785593342
20
25.0667114308113
30
0
41
1
10
36.4935531075088
20
25.2813172293326
30
0
0
SPLINE
5
281
100
AcDbEntity
8
1
62
256
6
ByLayer
370
-1
48
1
60
0
100
AcDbSpline
70
4
71
3
72
14
73
10
40
0
40
0
40
0
40
0
40
0.250654849280892
40
0.250654849280892
40
0.50061605724523
40
0.50061605724523
40
0.761141676212504
40
0.761141676212504
40
1
40
1
40
1
40
1
41
1
10
41.4771707339442
20
26.9944480978306
30
0
41
1
10
41.4653122080921
20
26.9947163407132
30
0
41
1
10
41.4500845041361
20
26.9949428518646
30
0
41
1
10
41.4156965664334
20
26.9952764743705
30
0
41
1
10
41.3961086801661
20
26.9953885828557
30
0
41
1
10
41.3544820687275
20
26.9954983717762
30
0
41
1
10
41.3318660972631
20
26.9954928684374
30
0
41
1
10
41.2888915059893
20
26.9953763672058
30
0
41
1
10
41.2681081216703
20
26.995273335455
30
0
41
1
10
41.2481073127981
20
26.9951310006147
30
0
0
SPLINE
5
282
100
AcDbEntity
8
1
62
256
6
ByLayer
370
-1
48
1
60
0
100
AcDbSpline
70
4
71
3
72
16
73
12
40
0
40
0
40
0
40
0
40
0.201528222395016
40
0.201528222395016
40
0.425760925194182
40
0.425760925194182
40
0.658562188548508
40
0.658562188548508
40
0.868007617002681
40
0.868007617002681
40
1
40
1
40
1
40
1
41
1
10
43.3076857342717
20
18.9134601176239
30
0
41
1
10
43.3037865077099
20
18.8984156843657
30
0
41
1
10
43.3012832775936
20
18.8827655849005
30
0
41
1
10
43.2993182645786
20
18.8492995818097
30
0
41
1
10
43.3002212240152
20
18.8312176543527
30
0
41
1
10
43.3063849883618
20
18.794911435633
30
0
41
1
10
43.3118757189741
20
18.7763986029875
30
0
41
1
10
43.3267611868265
20
18.7432315234149
30
0
41
1
10
43.3358463563239
20
18.7281057077287
30
0
41
1
10
43.3534510660876
20
18.7059037469687
30
0
41
1
10
43.3610190173453
20
18.6978182375524
30
0
41
1
10
43.3691518625938
20
18.6904872636637
30
0
0
SPLINE
5
283
100
AcDbEntity
8
1
62
256
6
ByLayer
370
-1
48
1
60
0
100
AcDbSpline
70
4
71
3
72
14
73
10
40
0
40
0
40
0
40
0
40
0.217576655773103
40
0.217576655773103
40
0.418639226347882
40
0.418639226347882
40
0.722992246166045
40
0.722992246166045
40
1
40
1
40
1
40
1
41
1
10
41.7020785325844
20
24.5313460738987
30
0
41
1
10
41.6971115477895
20
24.5140150827621
30
0
41
1
10
41.6945089275881
20
24.4957637040961
30
0
41
1
10
41.6940959909857
20
24.4612127528695
30
0
41
1
10
41.6959205762631
20
24.4445644619407
30
0
41
1
10
41.7048561908682
20
24.4047554603422
30
0
41
1
10
41.7143132301702
20
24.3819405587463
30
0
41
1
10
41.7377006137243
20
24.3434158537312
30
0
41
1
10
41.7513919351027
20
24.3268182927562
30
0
41
1
10
41.7666656550098
20
24.3126711449482
30
0
0
SPLINE
5
284
100
AcDbEntity
8
1
62
256
6
ByLayer
370
-1
48
1
60
0
100
AcDbSpline
70
4
71
3
72
14
73
10
40
0
40
0
40
0
40
0
40
0.305545320901986
40
0.305545320901986
40
0.618172577983475
40
0.618172577983475
40
0.807733277772227
40
0.807733277772227
40
1
40
1
40
1
40
1
41
1
10
41.8338214862782
20
24.3930843902437
30
0
41
1
10
41.8216132075734
20
24.40173595586
30
0
41
1
10
41.8101252343566
20
24.4116319755125
30
0
41
1
10
41.7897534136766
20
24.434069812542
30
0
41
1
10
41.78070455425
20
24.446914642264
30
0
41
1
10
41.7705769587461
20
24.4694588911442
30
0
41
1
10
41.7677235587555
20
24.4785859447452
30
0
41
1
10
41.7650989919512
20
24.497231746693
30
0
41
1
10
41.7653836250653
20
24.5070274570083
30
0
41
1
10
41.7676088147974
20
24.5162000386712
30
0
0
SPLINE
5
285
100
AcDbEntity
8
1
62
256
6
ByLayer
370
-1
48
1
60
0
100
AcDbSpline
70
4
71
3
72
14
73
10
40
0
40
0
40
0
40
0
40
0.114560016218189
40
0.114560016218189
40
0.305723973353157
40
0.305723973353157
40
0.535366948316044
40
0.535366948316044
40
1
40
1
40
1
40
1
41
1
10
43.4170492761172
20
18.7371208122032
30
0
41
1
10
43.4129946501004
20
18.7410845344773
30
0
41
1
10
43.4094131545094
20
18.745599657282
30
0
41
1
10
43.4014208060596
20
18.7584220685906
30
0
41
1
10
43.3978985666669
20
18.7674508250275
30
0
41
1
10
43.3930614016068
20
18.7876876163304
30
0
41
1
10
43.3922184357969
20
18.7992424434477
30
0
41
1
10
43.3935550473822
20
18.8333263699459
30
0
41
1
10
43.3995079960724
20
18.8560146366318
30
0
41
1
10
43.4082120636774
20
18.8769544700574
30
0
0
SPLINE
5
286
100
AcDbEntity
8
1
62
256
6
ByLayer
370
-1
48
1
60
0
100
AcDbSpline
70
4
71
3
72
10
73
6
40
0
40
0
40
0
40
0
40
0.303481278345302
40
0.303481278345302
40
1
40
1
40
1
40
1
41
1
10
39.5623099150041
20
25.000200770929
30
0
41
1
10
39.5489544520614
20
25.0192076311231
30
0
41
1
10
39.5341014753369
20
25.036025275017
30
0
41
1
10
39.4824583860572
20
25.0840728060958
30
0
41
1
10
39.4412042296206
20
25.1070274576995
30
0
41
1
10
39.3984084883092
20
25.1209298929782
30
0
0
SPLINE
5
287
100
AcDbEntity
8
1
62
256
6
ByLayer
370
-1
48
1
60
0
100
AcDbSpline
70
4
71
3
72
12
73
8
40
0
40
0
40
0
40
0
40
0.0127217534692974
40
0.0127217534692974
40
0.526205585976644
40
0.526205585976644
40
1
40
1
40
1
40
1
41
1
10
39.6769211774433
20
24.7148823969592
30
0
41
1
10
39.6764005819159
20
24.7161404650346
30
0
41
1
10
39.6758808696153
20
24.7173987253698
30
0
41
1
10
39.6543350658169
20
24.7695495237839
30
0
41
1
10
39.6335913275929
20
24.8206566602506
30
0
41
1
10
39.5956511034248
20
24.9153446076423
30
0
41
1
10
39.5779739628822
20
24.9600635006224
30
0
41
1
10
39.5623099150041
20
25.000200770929
30
0
0
SPLINE
5
288
100
AcDbEntity
8
1
62
256
6
ByLayer
370
-1
48
1
60
0
100
AcDbSpline
70
4
71
3
72
12
73
8
40
0
40
0
40
0
40
0
40
0.470534389757145
40
0.470534389757145
40
0.9859217649555
40
0.9859217649555
40
1
40
1
40
1
40
1
41
1
10
39.4248601396198
20
24.8882777908717
30
0
41
1
10
39.460499356196
20
24.8640853209706
30
0
41
1
10
39.4994183223949
20
24.8373210427619
30
0
41
1
10
39.5826688476943
20
24.7799564413319
30
0
41
1
10
39.6277858153979
20
24.7487779300728
30
0
41
1
10
39.6744426504302
20
24.7165920628295
30
0
41
1
10
39.6756815316657
20
24.7157370582717
30
0
41
1
10
39.6769211774433
20
24.7148823969592
30
0
0
SPLINE
5
289
100
AcDbEntity
8
1
62
256
6
ByLayer
370
-1
48
1
60
0
100
AcDbSpline
70
4
71
3
72
10
73
6
40
0
40
0
40
0
40
0
40
0.7092135530583
40
0.7092135530583
40
1
40
1
40
1
40
1
41
1
10
39.2502014204443
20
24.95308923787
30
0
41
1
10
39.293629513783
20
24.9457556094338
30
0
41
1
10
39.3365668640818
20
24.9338301361239
30
0
41
1
10
39.3933544517031
20
24.9075476714087
30
0
41
1
10
39.4095299243488
20
24.8986841860497
30
0
41
1
10
39.4248601396198
20
24.8882777908717
30
0
0
SPLINE
5
28A
100
AcDbEntity
8
1
62
256
6
ByLayer
370
-1
48
1
60
0
100
AcDbSpline
70
4
71
3
72
10
73
6
40
0
40
0
40
0
40
0
40
0.469696784645119
40
0.469696784645119
40
1
40
1
40
1
40
1
41
1
10
41.04827096699
20
24.498275164101
30
0
41
1
10
41.1626599136056
20
24.4766182965251
30
0
41
1
10
41.2763061682346
20
24.4514603642213
30
0
41
1
10
41.5161317359762
20
24.3905396311344
30
0
41
1
10
41.6421486795968
20
24.3538015380092
30
0
41
1
10
41.7666656550098
20
24.3126711449482
30
0
0
SPLINE
5
28B
100
AcDbEntity
8
1
62
256
6
ByLayer
370
-1
48
1
60
0
100
AcDbSpline
70
4
71
3
72
10
73
6
40
0
40
0
40
0
40
0
40
0.296681385512609
40
0.296681385512609
40
1
40
1
40
1
40
1
41
1
10
41.0271288542051
20
24.7089519769589
30
0
41
1
10
41.0019979672308
20
24.713983890969
30
0
41
1
10
40.9764276034559
20
24.7173874370077
30
0
41
1
10
40.8903102738208
20
24.7225631830691
30
0
41
1
10
40.8273099862243
20
24.7160455724148
30
0
41
1
10
40.7676821460126
20
24.6953069719955
30
0
0
SPLINE
5
28C
100
AcDbEntity
8
1
62
256
6
ByLayer
370
-1
48
1
60
0
100
AcDbSpline
70
4
71
3
72
12
73
8
40
0
40
0
40
0
40
0
40
0.473794414023362
40
0.473794414023362
40
0.987278246530699
40
0.987278246530699
40
1
40
1
40
1
40
1
41
1
10
40.7676821460125
20
24.6953069719955
30
0
41
1
10
40.7276833301162
20
24.6692493872491
30
0
41
1
10
40.686269461566
20
24.6394773146634
30
0
41
1
10
40.6020392793528
20
24.5756918539563
30
0
41
1
10
40.5585369879281
20
24.5408354784928
30
0
41
1
10
40.5155550563499
20
24.5050066973523
30
0
41
1
10
40.5145191908127
20
24.5041419138404
30
0
41
1
10
40.5134836882413
20
24.5032774541863
30
0
0
SPLINE
5
28D
100
AcDbEntity
8
1
62
256
6
ByLayer
370
-1
48
1
60
0
100
AcDbSpline
70
4
71
3
72
12
73
8
40
0
40
0
40
0
40
0
40
0.0140782350445227
40
0.0140782350445227
40
0.529465610242863
40
0.529465610242863
40
1
40
1
40
1
40
1
41
1
10
40.5134836882413
20
24.5032774541863
30
0
41
1
10
40.5149706873642
20
24.5034424222235
30
0
41
1
10
40.5164582304923
20
24.5036077892898
30
0
41
1
10
40.5725135796164
20
24.5098130447197
30
0
41
1
10
40.6281543959662
20
24.5155053013915
30
0
41
1
10
40.7342240508326
20
24.524982165357
30
0
41
1
10
40.7853349566277
20
24.5289737688818
30
0
41
1
10
40.8345265851287
20
24.5317086359305
30
0
0
SPLINE
5
28E
100
AcDbEntity
8
1
62
256
6
ByLayer
370
-1
48
1
60
0
100
AcDbSpline
70
4
71
3
72
10
73
6
40
0
40
0
40
0
40
0
40
0.691437525404657
40
0.691437525404657
40
1
40
1
40
1
40
1
41
1
10
40.8345265851287
20
24.5317086359305
30
0
41
1
10
40.8845323169805
20
24.5344887640226
30
0
41
1
10
40.9349872266788
20
24.527789583821
30
0
41
1
10
41.0053866806138
20
24.5113803654249
30
0
41
1
10
41.0269803802166
20
24.5052578461455
30
0
41
1
10
41.0482709669976
20
24.4982751641538
30
0
0
SPLINE
5
28F
100
AcDbEntity
8
1
62
256
6
ByLayer
370
-1
48
1
60
0
100
AcDbSpline
70
4
71
3
72
8
73
4
40
0
40
0
40
0
40
0
40
1
40
1
40
1
40
1
41
1
10
41.2481073127981
20
26.9951310006147
30
0
41
1
10
41.2586762738133
20
26.9309199677269
30
0
41
1
10
41.2676247112533
20
26.8668394262261
30
0
41
1
10
41.2757770490041
20
26.803603277354
30
0
0
SPLINE
5
290
100
AcDbEntity
8
1
62
256
6
ByLayer
370
-1
48
1
60
0
100
AcDbSpline
70
4
71
3
72
8
73
4
40
0
40
0
40
0
40
0
40
1
40
1
40
1
40
1
41
1
10
41.5327308894117
20
26.8604779757259
30
0
41
1
10
41.5148556571823
20
26.9048317510352
30
0
41
1
10
41.4963841184441
20
26.9496324425196
30
0
41
1
10
41.4771707339442
20
26.9944480978306
30
0
0
SPLINE
5
291
100
AcDbEntity
8
1
62
256
6
ByLayer
370
-1
48
1
60
0
100
AcDbSpline
70
4
71
3
72
8
73
4
40
0
40
0
40
0
40
0
40
1
40
1
40
1
40
1
41
1
10
44.2723438609132
20
21.9244958400691
30
0
41
1
10
44.3653672426829
20
21.5047897405592
30
0
41
1
10
44.4129987319937
20
21.0757441125445
30
0
41
1
10
44.414279925136
20
20.646532515502
30
0
0
SPLINE
5
292
100
AcDbEntity
8
1
62
256
6
ByLayer
370
-1
48
1
60
0
100
AcDbSpline
70
4
71
3
72
14
73
10
40
0
40
0
40
0
40
0
40
0.250654849280885
40
0.250654849280885
40
0.50061605724522
40
0.50061605724522
40
0.76114167621249
40
0.76114167621249
40
1
40
1
40
1
40
1
41
1
10
43.3804923826038
20
15.3916930491081
30
0
41
1
10
43.3904480003596
20
15.4047705060151
30
0
41
1
10
43.4014481246768
20
15.4203979364868
30
0
41
1
10
43.4235982594208
20
15.4539305826863
30
0
41
1
10
43.4350365609844
20
15.4722611959833
30
0
41
1
10
43.4574012969029
20
15.5099465541647
30
0
41
1
10
43.4685666811812
20
15.5297773837813
30
0
41
1
10
43.488178973502
20
15.5664117539793
30
0
41
1
10
43.4969576459223
20
15.5836674926932
30
0
41
1
10
43.5047525806605
20
15.5998467533861
30
0
0
SPLINE
5
293
100
AcDbEntity
8
1
62
256
6
ByLayer
370
-1
48
1
60
0
100
AcDbSpline
70
4
71
3
72
16
73
12
40
0
40
0
40
0
40
0
40
0.201528222394978
40
0.201528222394978
40
0.42576092519416
40
0.42576092519416
40
0.658562188548488
40
0.658562188548488
40
0.868007617002675
40
0.868007617002675
40
1
40
1
40
1
40
1
41
1
10
35.75820339175
20
17.9757891973879
30
0
41
1
10
35.7485842027205
20
17.9877065031103
30
0
41
1
10
35.7377221278357
20
17.9986775726023
30
0
41
1
10
35.7126258792266
20
18.0190254154537
30
0
41
1
10
35.6979823365272
20
18.028214443417
30
0
41
1
10
35.66617900776
20
18.0426670044656
30
0
41
1
10
35.6486665748024
20
18.0478791055225
30
0
41
1
10
35.6145083998307
20
18.0525799016779
30
0
41
1
10
35.5976644154136
20
18.0526142120566
30
0
41
1
10
35.5705905339853
20
18.0487459511683
30
0
41
1
10
35.5600941446114
20
18.046275582615
30
0
41
1
10
35.5498783925761
20
18.0428696057183
30
0
0
SPLINE
5
294
100
AcDbEntity
8
1
62
256
6
ByLayer
370
-1
48
1
60
0
100
AcDbSpline
70
4
71
3
72
14
73
10
40
0
40
0
40
0
40
0
40
0.21757665577312
40
0.21757665577312
40
0.418639226347875
40
0.418639226347875
40
0.722992246166028
40
0.722992246166028
40
1
40
1
40
1
40
1
41
1
10
41.3613060850643
20
16.5728935926585
30
0
41
1
10
41.3488574989177
20
16.5858731165562
30
0
41
1
10
41.334222743981
20
16.5970725949653
30
0
41
1
10
41.3038931005101
20
16.6140284363237
30
0
41
1
10
41.2881019488891
20
16.6202953512482
30
0
41
1
10
41.2476792195666
20
16.6309770877221
30
0
41
1
10
41.2219869059217
20
16.6330179440437
30
0
41
1
10
41.1742805377932
20
16.6294806948004
30
0
41
1
10
41.1516206560114
20
16.6245535382288
30
0
41
1
10
41.1302086911712
20
16.6169632169096
30
0
0
SPLINE
5
295
100
AcDbEntity
8
1
62
256
6
ByLayer
370
-1
48
1
60
0
100
AcDbSpline
70
4
71
3
72
14
73
10
40
0
40
0
40
0
40
0
40
0.305545320902006
40
0.305545320902006
40
0.618172577983474
40
0.618172577983474
40
0.807733277772261
40
0.807733277772261
40
1
40
1
40
1
40
1
41
1
10
41.1835821673532
20
16.5307273636287
30
0
41
1
10
41.1970340711534
20
16.5371130684806
30
0
41
1
10
41.2111892349378
20
16.5422399477075
30
0
41
1
10
41.2404612060565
20
16.5488741717305
30
0
41
1
10
41.2559185565338
20
16.5503743027276
30
0
41
1
10
41.2801860713117
20
16.5479477518018
30
0
41
1
10
41.2893906806651
20
16.5458691376016
30
0
41
1
10
41.306600988865
20
16.5388049638038
30
0
41
1
10
41.3148151834125
20
16.533631133931
30
0
41
1
10
41.3215326625636
20
16.5270642590513
30
0
0
SPLINE
5
296
100
AcDbEntity
8
1
62
256
6
ByLayer
370
-1
48
1
60
0
100
AcDbSpline
70
4
71
3
72
14
73
10
40
0
40
0
40
0
40
0
40
0.114560016218201
40
0.114560016218201
40
0.30572397335316
40
0.30572397335316
40
0.535366948316017
40
0.535366948316017
40
1
40
1
40
1
40
1
41
1
10
35.5715732567775
20
17.9814921294172
30
0
41
1
10
35.5769709926095
20
17.9830649168092
30
0
41
1
10
35.582603750949
20
17.9839445542909
30
0
41
1
10
35.5975164958654
20
17.9845270104104
30
0
41
1
10
35.6069699217906
20
17.9830858833991
30
0
41
1
10
35.6266378396816
20
17.9771674781028
30
0
41
1
10
35.6369134050209
20
17.9721009202843
30
0
41
1
10
35.6653222771678
20
17.9537942785011
30
0
41
1
10
35.6817145718926
20
17.9371564362597
30
0
41
1
10
35.6952471099586
20
17.9189784635244
30
0
0
SPLINE
5
297
100
AcDbEntity
8
1
62
256
6
ByLayer
370
-1
48
1
60
0
100
AcDbSpline
70
4
71
3
72
12
73
8
40
0
40
0
40
0
40
0
40
0.33997953876679
40
0.33997953876679
40
0.835812874070234
40
0.835812874070234
40
1
40
1
40
1
40
1
41
1
10
43.3076857342755
20
18.9134601176373
30
0
41
1
10
43.2528625603358
20
18.8521738163803
30
0
41
1
10
43.1965683836679
20
18.7921002054786
30
0
41
1
10
43.0547479578102
20
18.6475376730465
30
0
41
1
10
42.9675941618621
20
18.564422086328
30
0
41
1
10
42.8478414118493
20
18.4575253654561
30
0
41
1
10
42.8177315297901
20
18.4312313921861
30
0
41
1
10
42.7873169772771
20
18.4052485240975
30
0
0
SPLINE
5
298
100
AcDbEntity
8
1
62
256
6
ByLayer
370
-1
48
1
60
0
100
AcDbSpline
70
4
71
3
72
10
73
6
40
0
40
0
40
0
40
0
40
0.303481278345307
40
0.303481278345307
40
1
40
1
40
1
40
1
41
1
10
42.6522121118403
20
18.0925539581303
30
0
41
1
10
42.6793051208858
20
18.097826520512
30
0
41
1
10
42.7055034855709
20
18.1056819722515
30
0
41
1
10
42.7871034513252
20
18.1378016289975
30
0
41
1
10
42.8382459472445
20
18.1705717461099
30
0
41
1
10
42.8822792837801
20
18.2091348808324
30
0
0
SPLINE
5
299
100
AcDbEntity
8
1
62
256
6
ByLayer
370
-1
48
1
60
0
100
AcDbSpline
70
4
71
3
72
12
73
8
40
0
40
0
40
0
40
0
40
0.0127217534693029
40
0.0127217534693029
40
0.526205585976646
40
0.526205585976646
40
1
40
1
40
1
40
1
41
1
10
42.3346120371941
20
18.1226621746612
30
0
41
1
10
42.3359441036619
20
18.1224875751356
30
0
41
1
10
42.3372767062593
20
18.1223126927605
30
0
41
1
10
42.3925451578297
20
18.1150936803503
30
0
41
1
10
42.4478356949382
20
18.1086480462263
30
0
41
1
10
42.5531543619571
20
18.0985466178237
30
0
41
1
10
42.6041930920084
20
18.094596444313
30
0
41
1
10
42.6522121118403
20
18.0925539581303
30
0
0
SPLINE
5
29A
100
AcDbEntity
8
1
62
256
6
ByLayer
370
-1
48
1
60
0
100
AcDbSpline
70
4
71
3
72
12
73
8
40
0
40
0
40
0
40
0
40
0.470534389757143
40
0.470534389757143
40
0.985921764955484
40
0.985921764955484
40
1
40
1
40
1
40
1
41
1
10
42.6223795027999
20
18.2676791672793
30
0
41
1
10
42.578935717519
20
18.2448058095553
30
0
41
1
10
42.5333239772103
20
18.2215469976825
30
0
41
1
10
42.4382047900492
20
18.1737034136569
30
0
41
1
10
42.3880261864184
20
18.1488734185853
30
0
41
1
10
42.3373039615125
20
18.1239827070235
30
0
41
1
10
42.3359576346665
20
18.1233225660619
30
0
41
1
10
42.3346120371941
20
18.1226621746612
30
0
0
SPLINE
5
29B
100
AcDbEntity
8
1
62
256
6
ByLayer
370
-1
48
1
60
0
100
AcDbSpline
70
4
71
3
72
10
73
6
40
0
40
0
40
0
40
0
40
0.70921355305828
40
0.70921355305828
40
1
40
1
40
1
40
1
41
1
10
42.7873169772771
20
18.4052485240975
30
0
41
1
10
42.7541530537826
20
18.3668880937606
30
0
41
1
10
42.7171760290405
20
18.3311650263148
30
0
41
1
10
42.6588959480016
20
18.2889030642801
30
0
41
1
10
42.6410668546703
20
18.2775181461225
30
0
41
1
10
42.6223795027999
20
18.2676791672793
30
0
0
SPLINE
5
29C
100
AcDbEntity
8
1
62
256
6
ByLayer
370
-1
48
1
60
0
100
AcDbSpline
70
4
71
3
72
10
73
6
40
0
40
0
40
0
40
0
40
0.46969678464512
40
0.46969678464512
40
1
40
1
40
1
40
1
41
1
10
41.5050438830255
20
17.0528869935083
30
0
41
1
10
41.4517696500652
20
16.979269579685
30
0
41
1
10
41.3958845618202
20
16.9080693879711
30
0
41
1
10
41.271595200872
20
16.7619879092998
30
0
41
1
10
41.2024499295752
20
16.6877469914585
30
0
41
1
10
41.1302086911712
20
16.6169632169096
30
0
0
SPLINE
5
29D
100
AcDbEntity
8
1
62
256
6
ByLayer
370
-1
48
1
60
0
100
AcDbSpline
70
4
71
3
72
10
73
6
40
0
40
0
40
0
40
0
40
0.339922223692916
40
0.339922223692916
40
1
40
1
40
1
40
1
41
1
10
35.7582033917586
20
17.9757891973772
30
0
41
1
10
35.7173076705043
20
18.043238598508
30
0
41
1
10
35.6781403947543
20
18.1113444855489
30
0
41
1
10
35.5681084677744
20
18.3133452059892
30
0
41
1
10
35.5020305391627
20
18.4489699762515
30
0
41
1
10
35.4427189925937
20
18.5863263897906
30
0
0
SPLINE
5
29E
100
AcDbEntity
8
1
62
256
6
ByLayer
370
-1
48
1
60
0
100
AcDbSpline
70
4
71
3
72
10
73
6
40
0
40
0
40
0
40
0
40
0.296681385512612
40
0.296681385512612
40
1
40
1
40
1
40
1
41
1
10
41.7207756549244
20
16.9841440170718
30
0
41
1
10
41.7328796634903
20
17.0003006973988
30
0
41
1
10
41.7438053482652
20
17.0176564949167
30
0
41
1
10
41.7755100538481
20
17.0794656920018
30
0
41
1
10
41.7903593900043
20
17.1301856064973
30
0
41
1
10
41.7926144486969
20
17.1859710963117
30
0
0
SPLINE
5
29F
100
AcDbEntity
8
1
62
256
6
ByLayer
370
-1
48
1
60
0
100
AcDbSpline
70
4
71
3
72
12
73
8
40
0
40
0
40
0
40
0
40
0.473794414023359
40
0.473794414023359
40
0.987278246530694
40
0.987278246530694
40
1
40
1
40
1
40
1
41
1
10
41.7926144486968
20
17.1859710963117
30
0
41
1
10
41.7842907747452
20
17.2298786570659
30
0
41
1
10
41.7753921338899
20
17.2782722769685
30
0
41
1
10
41.7571979194915
20
17.3802603390578
30
0
41
1
10
41.7477237165673
20
17.4350266063614
30
0
41
1
10
41.7384724944557
20
17.4907781280658
30
0
41
1
10
41.7382492347151
20
17.4921229894495
30
0
41
1
10
41.7380268821224
20
17.4934679592819
30
0
0
SPLINE
5
2A0
100
AcDbEntity
8
1
62
256
6
ByLayer
370
-1
48
1
60
0
100
AcDbSpline
70
4
71
3
72
12
73
8
40
0
40
0
40
0
40
0
40
0.0140782350445077
40
0.0140782350445077
40
0.529465610242867
40
0.529465610242867
40
1
40
1
40
1
40
1
41
1
10
41.7380268821224
20
17.4934679592819
30
0
41
1
10
41.7374280034201
20
17.4920775903667
30
0
41
1
10
41.736830011365
20
17.4906871368825
30
0
41
1
10
41.7143041961999
20
17.4383261054054
30
0
41
1
10
41.692628518234
20
17.3873742980861
30
0
41
1
10
41.652736146086
20
17.2928266553029
30
0
41
1
10
41.6341440947456
20
17.2483723268677
30
0
41
1
10
41.6170917160078
20
17.2074428290737
30
0
0
SPLINE
5
2A1
100
AcDbEntity
8
1
62
256
6
ByLayer
370
-1
48
1
60
0
100
AcDbSpline
70
4
71
3
72
10
73
6
40
0
40
0
40
0
40
0
40
0.691437525404675
40
0.691437525404675
40
1
40
1
40
1
40
1
41
1
10
41.6170917160078
20
17.2074428290737
30
0
41
1
10
41.5997571266765
20
17.1658359631518
30
0
41
1
10
41.5743112998281
20
17.1287427793297
30
0
41
1
10
41.5328869551214
20
17.0806119287708
30
0
41
1
10
41.5192673782822
20
17.0664076592052
30
0
41
1
10
41.5050438830714
20
17.0528869934784
30
0
0
SPLINE
5
2A2
100
AcDbEntity
8
1
62
256
6
ByLayer
370
-1
48
1
60
0
100
AcDbSpline
70
4
71
3
72
8
73
4
40
0
40
0
40
0
40
0
40
1
40
1
40
1
40
1
41
1
10
43.5047525806605
20
15.5998467533861
30
0
41
1
10
43.4473840262855
20
15.6247635627354
30
0
41
1
10
43.3916004782917
20
15.6515254256758
30
0
41
1
10
43.3376912740789
20
15.6791144298369
30
0
0
SPLINE
5
2A3
100
AcDbEntity
8
1
62
256
6
ByLayer
370
-1
48
1
60
0
100
AcDbSpline
70
4
71
3
72
8
73
4
40
0
40
0
40
0
40
0
40
1
40
1
40
1
40
1
41
1
10
43.2483199340065
20
15.4172636692526
30
0
41
1
10
43.2913170255547
20
15.4079752716685
30
0
41
1
10
43.3354924865532
20
15.3993507399884
30
0
41
1
10
43.3804923826038
20
15.3916930491081
30
0
0
SPLINE
5
2A4
100
AcDbEntity
8
1
62
256
6
ByLayer
370
-1
48
1
60
0
100
AcDbSpline
70
4
71
3
72
8
73
4
40
0
40
0
40
0
40
0
40
1
40
1
40
1
40
1
41
1
10
37.6752993196044
20
15.4893902206211
30
0
41
1
10
37.2754212628316
20
15.621754648404
30
0
41
1
10
36.8879784385233
20
15.7971420031502
30
0
41
1
10
36.5212226972063
20
16.0117478016715
30
0
0
SPLINE
5
2A5
100
AcDbEntity
8
SK1
62
256
6
ByLayer
370
-1
48
1
60
0
100
AcDbSpline
70
4
71
3
72
24
73
20
40
0
40
0
40
0
40
0
40
0.411019488277128
40
0.411019488277128
40
0.623657400311166
40
0.623657400311166
40
0.839405643353234
40
0.839405643353234
40
0.8714230773986
40
0.8714230773986
40
0.903857817270492
40
0.903857817270492
40
0.925175576364704
40
0.925175576364704
40
0.946626649973737
40
0.946626649973737
40
0.971754914345116
40
0.971754914345116
40
1
40
1
40
1
40
1
41
1
10
-0.200604071235716
20
-13.993706593554
30
0
41
1
10
-0.202145256971647
20
-13.9812146752771
30
0
41
1
10
-0.206900604634626
20
-13.9661641340901
30
0
41
1
10
-0.223510113646824
20
-13.9380759054837
30
0
41
1
10
-0.230869554015214
20
-13.9275300777214
30
0
41
1
10
-0.252993763945881
20
-13.9036085654018
30
0
41
1
10
-0.266169306055218
20
-13.8900912648142
30
0
41
1
10
-0.299313210098944
20
-13.8713678522793
30
0
41
1
10
-0.304168151080091
20
-13.8688119846588
30
0
41
1
10
-0.315233613826848
20
-13.8635902765912
30
0
41
1
10
-0.321588767727178
20
-13.8608655729355
30
0
41
1
10
-0.333434048045547
20
-13.8565368608439
30
0
41
1
10
-0.338587345813778
20
-13.8548370746726
30
0
41
1
10
-0.349158334685967
20
-13.8517865918864
30
0
41
1
10
-0.354704697438706
20
-13.8504050227189
30
0
41
1
10
-0.366193697521936
20
-13.847969712967
30
0
41
1
10
-0.37221373013341
20
-13.8469665678177
30
0
41
1
10
-0.383950527302631
20
-13.8454141457692
30
0
41
1
10
-0.389694590782
20
-13.8449066720063
30
0
41
1
10
-0.394976888882155
20
-13.8446015176357
30
0
0
SPLINE
5
2A6
100
AcDbEntity
8
SK1
62
256
6
ByLayer
370
-1
48
1
60
0
100
AcDbSpline
70
4
71
3
72
22
73
18
40
0
40
0
40
0
40
0
40
0.0285295388360652
40
0.0285295388360652
40
0.0576434274189986
40
0.0576434274189986
40
0.0775694456421646
40
0.0775694456421646
40
0.0973884779324501
40
0.0973884779324501
40
0.129886668176801
40
0.129886668176801
40
0.194173090761996
40
0.194173090761996
40
0.421812367253371
40
0.421812367253371
40
1
40
1
40
1
40
1
41
1
10
-0.394976888875306
20
13.8446019297682
30
0
41
1
10
-0.389542940031561
20
13.8449158599001
30
0
41
1
10
-0.383617593481006
20
13.8454439659091
30
0
41
1
10
-0.370682577094897
20
13.8471856765741
30
0
41
1
10
-0.363425095790518
20
13.8484584409772
30
0
41
1
10
-0.350979043087193
20
13.8513238322133
30
0
41
1
10
-0.345738104843406
20
13.8527220431424
30
0
41
1
10
-0.335836036111374
20
13.8557300394867
30
0
41
1
10
-0.331061234651429
20
13.8573680363077
30
0
41
1
10
-0.319536857691617
20
13.8617043765564
30
0
41
1
10
-0.313226439154875
20
13.8644842406524
30
0
41
1
10
-0.296825865103983
20
13.8724174982475
30
0
41
1
10
-0.288454852011284
20
13.8774557840676
30
0
41
1
10
-0.256352537857253
20
13.8987262995108
30
0
41
1
10
-0.243999907013659
20
13.9124642192994
30
0
41
1
10
-0.208437905469367
20
13.9558600799655
30
0
41
1
10
-0.201627343947223
20
13.9783882239298
30
0
41
1
10
-0.200281443738874
20
13.9958703623267
30
0
0
SPLINE
5
2A7
100
AcDbEntity
8
SK1
62
256
6
ByLayer
370
-1
48
1
60
0
100
AcDbSpline
70
4
71
3
72
135
73
131
40
0
40
0
40
0
40
0
40
0.0033331147915466
40
0.0136247685801876
40
0.0239164223688287
40
0.0342080761574698
40
0.0444997299461108
40
0.0547913837347519
40
0.065083037523393
40
0.0856663451006751
40
0.0959579988893161
40
0.106249652677957
40
0.126832960255239
40
0.147416267832521
40
0.157707921621163
40
0.167999575409804
40
0.178291229198445
40
0.188582882987086
40
0.209166190564368
40
0.22974949814165
40
0.240041151930291
40
0.250332805718932
40
0.260624459507573
40
0.270916113296214
40
0.281207767084855
40
0.291499420873496
40
0.301791074662137
40
0.312082728450778
40
0.332666036028061
40
0.342957689816701
40
0.353249343605343
40
0.363540997393984
40
0.373832651182625
40
0.384124304971266
40
0.394415958759907
40
0.404707612548548
40
0.414999266337189
40
0.42529092012583
40
0.435582573914471
40
0.445874227703112
40
0.456165881491753
40
0.466457535280394
40
0.476749189069035
40
0.487040842857677
40
0.497332496646318
40
0.507624150434959
40
0.5179158042236
40
0.528207458012241
40
0.533353284906561
40
0.538499111800882
40
0.543644938695202
40
0.548790765589523
40
0.553936592483843
40
0.559082419378164
40
0.564228246272484
40
0.569374073166805
40
0.579665726955446
40
0.584811553849767
40
0.589957380744087
40
0.595103207638408
40
0.600249034532728
40
0.605394861427049
40
0.610540688321369
40
0.62083234211001
40
0.625978169004331
40
0.631123995898651
40
0.636269822792972
40
0.641415649687292
40
0.646561476581613
40
0.651707303475933
40
0.656853130370254
40
0.661998957264574
40
0.667144784158895
40
0.672290611053216
40
0.677436437947536
40
0.682582264841857
40
0.687728091736177
40
0.690301005183337
40
0.692873918630498
40
0.695446832077658
40
0.698019745524818
40
0.700592658971978
40
0.703165572419139
40
0.705738485866299
40
0.708311399313459
40
0.71345722620778
40
0.71603013965494
40
0.7186030531021
40
0.723748879996421
40
0.728894706890741
40
0.734040533785062
40
0.739186360679382
40
0.744332187573703
40
0.749478014468024
40
0.754623841362344
40
0.759769668256664
40
0.764915495150985
40
0.770061322045306
40
0.775207148939626
40
0.780352975833947
40
0.785498802728267
40
0.788071716175427
40
0.790644629622588
40
0.795790456516908
40
0.800936283411229
40
0.806082110305549
40
0.81122793719987
40
0.81637376409419
40
0.826665417882831
40
0.831811244777152
40
0.836957071671473
40
0.842102898565793
40
0.847248725460114
40
0.857540379248755
40
0.862686206143075
40
0.867832033037396
40
0.872977859931716
40
0.878123686826037
40
0.888415340614678
40
0.898706994403319
40
0.90899864819196
40
0.919290301980601
40
0.929581955769242
40
0.939873609557883
40
0.950165263346524
40
0.960456917135165
40
0.970748570923806
40
0.981040224712447
40
0.991331878501088
40
1
40
1
40
1
40
1
41
1
10
-24
20
-2.51110070736445
30
0
41
1
10
-24
20
-2.52828236354753
30
0
41
1
10
-24
20
-2.5984847959985
30
0
41
1
10
-24
20
-2.72160907007091
30
0
41
1
10
-24
20
-2.88032732515234
30
0
41
1
10
-24
20
-3.03880534070692
30
0
41
1
10
-24
20
-3.19703179917104
30
0
41
1
10
-24
20
-3.35498479273056
30
0
41
1
10
-24
20
-3.566159459494
30
0
41
1
10
-24
20
-3.77386543482143
30
0
41
1
10
-24
20
-3.98379910086652
30
0
41
1
10
-24
20
-4.19325748982303
30
0
41
1
10
-24
20
-4.45197574225492
30
0
41
1
10
-24
20
-4.7093938571837
30
0
41
1
10
-24
20
-4.91623016845097
30
0
41
1
10
-24
20
-5.07015486649149
30
0
41
1
10
-24
20
-5.22360655626144
30
0
41
1
10
-24
20
-5.42854639339456
30
0
41
1
10
-24
20
-5.68116242090312
30
0
41
1
10
-24
20
-5.93197376702523
30
0
41
1
10
-24
20
-6.13327349500975
30
0
41
1
10
-24
20
-6.28284061516669
30
0
41
1
10
-24
20
-6.43176166645401
30
0
41
1
10
-24
20
-6.58001338939152
30
0
41
1
10
-24
20
-6.72756658321961
30
0
41
1
10
-24
20
-6.87439756258604
30
0
41
1
10
-24
20
-7.02047720925918
30
0
41
1
10
-24
20
-7.21527554282892
30
0
41
1
10
-24
20
-7.40518422781159
30
0
41
1
10
-24
20
-7.59668700682232
30
0
41
1
10
-24
20
-7.7385521868716
30
0
41
1
10
-24
20
-7.8794742301744
30
0
41
1
10
-24
20
-8.01941526550473
30
0
41
1
10
-24
20
-8.15833638651759
30
0
41
1
10
-24
20
-8.29619658319211
30
0
41
1
10
-24
20
-8.43295338035995
30
0
41
1
10
-24
20
-8.5685644148447
30
0
41
1
10
-24
20
-8.70298120408989
30
0
41
1
10
-24
20
-8.83615187678822
30
0
41
1
10
-24
20
-8.96802314241054
30
0
41
1
10
-24
20
-9.09854256461918
30
0
41
1
10
-24
20
-9.22765328611692
30
0
41
1
10
-24
20
-9.3552930390826
30
0
41
1
10
-24
20
-9.4813963110737
30
0
41
1
10
-24
20
-9.60589423964561
30
0
41
1
10
-24
20
-9.72871632645675
30
0
41
1
10
-24
20
-9.849785423176
30
0
41
1
10
-24
20
-9.94848259213472
30
0
41
1
10
-24
20
-10.0277330914821
30
0
41
1
10
-24
20
-10.0861423298702
30
0
41
1
10
-24
20
-10.1440507875186
30
0
41
1
10
-24
20
-10.2014446342521
30
0
41
1
10
-24
20
-10.2583135642146
30
0
41
1
10
-24
20
-10.3146465661911
30
0
41
1
10
-24
20
-10.3704293824229
30
0
41
1
10
-24
20
-10.4447834932561
30
0
41
1
10
-24
20
-10.5157592409625
30
0
41
1
10
-24
20
-10.5878163656483
30
0
41
1
10
-24
20
-10.6406626353691
30
0
41
1
10
-24
20
-10.6928800090355
30
0
41
1
10
-24
20
-10.7444598406726
30
0
41
1
10
-24
20
-10.7953856570754
30
0
41
1
10
-24
20
-10.8631660205661
30
0
41
1
10
-24
20
-10.9272329415615
30
0
41
1
10
-24
20
-10.9922992639369
30
0
41
1
10
-24
20
-11.0397667515891
30
0
41
1
10
-24
20
-11.0865084851956
30
0
41
1
10
-24
20
-11.1325118561355
30
0
41
1
10
-24
20
-11.1777671455204
30
0
41
1
10
-24
20
-11.222267193621
30
0
41
1
10
-24
20
-11.2660013896348
30
0
41
1
10
-24
20
-11.3089662867779
30
0
41
1
10
-24
20
-11.3511535643344
30
0
41
1
10
-24
20
-11.392561338482
30
0
41
1
10
-24
20
-11.433186177025
30
0
41
1
10
-24
20
-11.4730274529664
30
0
41
1
10
-24
20
-11.5051832882674
30
0
41
1
10
-24
20
-11.5312256462757
30
0
41
1
10
-24
20
-11.550265805258
30
0
41
1
10
-24
20
-11.5691090153674
30
0
41
1
10
-24
20
-11.587758898413
30
0
41
1
10
-24
20
-11.6062173288089
30
0
41
1
10
-24
20
-11.6244816238319
30
0
41
1
10
-24
20
-11.6425515855241
30
0
41
1
10
-24
20
-11.6667654610515
30
0
41
1
10
-24
20
-11.689488510662
30
0
41
1
10
-24
20
-11.7129311426231
30
0
41
1
10
-24
20
-11.7361218829973
30
0
41
1
10
-24
20
-11.7638404994531
30
0
41
1
10
-24
20
-11.7967858653645
30
0
41
1
10
-24
20
-11.8289991019345
30
0
41
1
10
-24
20
-11.8604878924573
30
0
41
1
10
-24
20
-11.8912607219049
30
0
41
1
10
-24
20
-11.921324276318
30
0
41
1
10
-24
20
-11.9506870735302
30
0
41
1
10
-24
20
-11.9793545573352
30
0
41
1
10
-24
20
-12.0073349085377
30
0
41
1
10
-24
20
-12.0346322757035
30
0
41
1
10
-24
20
-12.061254225218
30
0
41
1
10
-24
20
-12.0872039852951
30
0
41
1
10
-24
20
-12.1080381701676
30
0
41
1
10
-24
20
-12.1247859413344
30
0
41
1
10
-24
20
-12.1413134645665
30
0
41
1
10
-24
20
-12.1610791013893
30
0
41
1
10
-24
20
-12.1843931751847
30
0
41
1
10
-24
20
-12.2070594064912
30
0
41
1
10
-24
20
-12.2290822560678
30
0
41
1
10
-24
20
-12.2579512304172
30
0
41
1
10
-24
20
-12.2845378935042
30
0
41
1
10
-24
20
-12.3108156756574
30
0
41
1
10
-24
20
-12.329680972223
30
0
41
1
10
-24
20
-12.347926705743
30
0
41
1
10
-24
20
-12.3716989558846
30
0
41
1
10
-24
20
-12.393510700134
30
0
41
1
10
-24
20
-12.4148084665512
30
0
41
1
10
-24
20
-12.4300245055648
30
0
41
1
10
-24
20
-12.4446481130981
30
0
41
1
10
-24
20
-12.4635489913862
30
0
41
1
10
-24
20
-12.4853193024651
30
0
41
1
10
-24
20
-12.5093371010327
30
0
41
1
10
-24
20
-12.5310918987205
30
0
41
1
10
-24
20
-12.5506200655305
30
0
41
1
10
-24
20
-12.5679573395569
30
0
41
1
10
-24
20
-12.5831381600533
30
0
41
1
10
-24
20
-12.5961974608478
30
0
41
1
10
-24
20
-12.6071686720224
30
0
41
1
10
-24
20
-12.6160849143088
30
0
41
1
10
-24
20
-12.622978510622
30
0
41
1
10
-24
20
-12.6276228238214
30
0
41
1
10
-24
20
-12.6295236491206
30
0
41
1
10
-24
20
-12.6301637073364
30
0
0
SPLINE
5
2A8
100
AcDbEntity
8
SK1
62
256
6
ByLayer
370
-1
48
1
60
0
100
AcDbSpline
70
4
71
3
72
136
73
132
40
0
40
0
40
0
40
0
40
0.0024165056095988
40
0.0124602497216192
40
0.0225039938336397
40
0.0325477379456601
40
0.04259148205768
40
0.0526352261697005
40
0.0626789702817209
40
0.0727227143937414
40
0.0827664585057618
40
0.0928102026177823
40
0.102853946729802
40
0.112897690841823
40
0.122941434953843
40
0.132985179065863
40
0.143028923177884
40
0.148050795233894
40
0.153072667289904
40
0.158094539345915
40
0.163116411401924
40
0.173160155513945
40
0.178182027569955
40
0.183203899625966
40
0.188225771681975
40
0.193247643737986
40
0.203291387850007
40
0.208313259906016
40
0.213335131962027
40
0.218357004018037
40
0.223378876074047
40
0.228400748130057
40
0.230911684158062
40
0.233422620186067
40
0.238444492242077
40
0.243466364298088
40
0.248488236354098
40
0.253510108410108
40
0.258531980466118
40
0.263553852522128
40
0.268575724578139
40
0.273597596634149
40
0.27861946869016
40
0.283641340746169
40
0.288663212802179
40
0.29368508485819
40
0.2987069569142
40
0.301217892942205
40
0.30372882897021
40
0.30875070102622
40
0.311261637054225
40
0.31377257308223
40
0.316283509110236
40
0.318794445138241
40
0.321305381166246
40
0.32381631719425
40
0.326327253222256
40
0.328838189250261
40
0.333860061306271
40
0.338881933362282
40
0.343903805418291
40
0.348925677474301
40
0.353947549530312
40
0.358969421586322
40
0.363991293642333
40
0.369013165698342
40
0.374035037754353
40
0.379056909810363
40
0.384078781866373
40
0.389100653922383
40
0.394122525978393
40
0.404166270090414
40
0.409188142146424
40
0.414210014202434
40
0.419231886258444
40
0.424253758314454
40
0.429275630370465
40
0.434297502426475
40
0.444341246538495
40
0.449363118594505
40
0.454384990650516
40
0.459406862706526
40
0.464428734762536
40
0.474472478874557
40
0.484516222986576
40
0.494559967098597
40
0.504603711210617
40
0.514647455322638
40
0.524691199434658
40
0.534734943546678
40
0.544778687658699
40
0.55482243177072
40
0.56486617588274
40
0.57490991999476
40
0.584953664106781
40
0.594997408218801
40
0.605041152330821
40
0.615084896442842
40
0.625128640554862
40
0.635172384666883
40
0.645216128778902
40
0.655259872890923
40
0.665303617002943
40
0.675347361114964
40
0.695434849339004
40
0.705478593451025
40
0.715522337563045
40
0.725566081675066
40
0.735609825787086
40
0.745653569899107
40
0.755697314011127
40
0.765741058123147
40
0.775784802235168
40
0.795872290459209
40
0.815959778683249
40
0.826003522795269
40
0.83604726690729
40
0.84609101101931
40
0.856134755131331
40
0.876222243355371
40
0.896309731579412
40
0.906353475691432
40
0.916397219803453
40
0.936484708027494
40
0.946528452139514
40
0.956572196251535
40
0.966615940363555
40
0.976659684475575
40
0.986703428587596
40
0.996747172699616
40
1
40
1
40
1
40
1
41
1
10
-24
20
12.6301284630624
30
0
41
1
10
-24
20
12.6303114702208
30
0
41
1
10
-24
20
12.6311621526129
30
0
41
1
10
-24
20
12.6318298800803
30
0
41
1
10
-24
20
12.6308208928468
30
0
41
1
10
-24
20
12.6278801891965
30
0
41
1
10
-24
20
12.6229782258999
30
0
41
1
10
-24
20
12.6160849114356
30
0
41
1
10
-24
20
12.6071691657895
30
0
41
1
10
-24
20
12.5961981657265
30
0
41
1
10
-24
20
12.5831384394222
30
0
41
1
10
-24
20
12.5679572636807
30
0
41
1
10
-24
20
12.5506200391937
30
0
41
1
10
-24
20
12.5310919217028
30
0
41
1
10
-24
20
12.5093370809161
30
0
41
1
10
-24
20
12.4853193236095
30
0
41
1
10
-24
20
12.4635490340682
30
0
41
1
10
-24
20
12.4446481246198
30
0
41
1
10
-24
20
12.4300244818968
30
0
41
1
10
-24
20
12.4148084408961
30
0
41
1
10
-24
20
12.3935107369646
30
0
41
1
10
-24
20
12.3716990015505
30
0
41
1
10
-24
20
12.3479266924939
30
0
41
1
10
-24
20
12.3296809321132
30
0
41
1
10
-24
20
12.3108156749849
30
0
41
1
10
-24
20
12.2845379507545
30
0
41
1
10
-24
20
12.2579512383598
30
0
41
1
10
-24
20
12.2290822100893
30
0
41
1
10
-24
20
12.2070594099073
30
0
41
1
10
-24
20
12.1843932327843
30
0
41
1
10
-24
20
12.1610791326581
30
0
41
1
10
-24
20
12.1413134401988
30
0
41
1
10
-24
20
12.124785894619
30
0
41
1
10
-24
20
12.1080381507794
30
0
41
1
10
-24
20
12.0872040157373
30
0
41
1
10
-24
20
12.0612542692161
30
0
41
1
10
-24
20
12.034632268903
30
0
41
1
10
-24
20
12.007334870049
30
0
41
1
10
-24
20
11.9793545678882
30
0
41
1
10
-24
20
11.9506871173746
30
0
41
1
10
-24
20
11.9213242803872
30
0
41
1
10
-24
20
11.8912606925537
30
0
41
1
10
-24
20
11.8604878912924
30
0
41
1
10
-24
20
11.8289991301798
30
0
41
1
10
-24
20
11.7967858768818
30
0
41
1
10
-24
20
11.7638404845867
30
0
41
1
10
-24
20
11.736121867784
30
0
41
1
10
-24
20
11.7129311397831
30
0
41
1
10
-24
20
11.6894885243302
30
0
41
1
10
-24
20
11.6667654842759
30
0
41
1
10
-24
20
11.6425516021313
30
0
41
1
10
-24
20
11.624481624272
30
0
41
1
10
-24
20
11.6062173099215
30
0
41
1
10
-24
20
11.5877588675355
30
0
41
1
10
-24
20
11.5691089856908
30
0
41
1
10
-24
20
11.5502657963283
30
0
41
1
10
-24
20
11.5312256660134
30
0
41
1
10
-24
20
11.5051833339742
30
0
41
1
10
-24
20
11.4730274639423
30
0
41
1
10
-24
20
11.4331861240339
30
0
41
1
10
-24
20
11.3925613174214
30
0
41
1
10
-24
20
11.3511536165646
30
0
41
1
10
-24
20
11.3089663236911
30
0
41
1
10
-24
20
11.2660013312649
30
0
41
1
10
-24
20
11.2222671211635
30
0
41
1
10
-24
20
11.1777671856698
30
0
41
1
10
-24
20
11.1325119444619
30
0
41
1
10
-24
20
11.0865084620879
30
0
41
1
10
-24
20
11.0397666375567
30
0
41
1
10
-24
20
10.9922992337315
30
0
41
1
10
-24
20
10.9272330380173
30
0
41
1
10
-24
20
10.8631660134642
30
0
41
1
10
-24
20
10.7953855201923
30
0
41
1
10
-24
20
10.7444598152008
30
0
41
1
10
-24
20
10.6928801181179
30
0
41
1
10
-24
20
10.6406627264071
30
0
41
1
10
-24
20
10.5878163093553
30
0
41
1
10
-24
20
10.515759109451
30
0
41
1
10
-24
20
10.4447835111823
30
0
41
1
10
-24
20
10.370429520229
30
0
41
1
10
-24
20
10.3146465972439
30
0
41
1
10
-24
20
10.258313447494
30
0
41
1
10
-24
20
10.1817469424703
30
0
41
1
10
-24
20
10.0863394970471
30
0
41
1
10
-24
20
9.96902057697341
30
0
41
1
10
-24
20
9.84978527822145
30
0
41
1
10
-24
20
9.72871636335114
30
0
41
1
10
-24
20
9.60589453586758
30
0
41
1
10
-24
20
9.48139660882268
30
0
41
1
10
-24
20
9.35529256728825
30
0
41
1
10
-24
20
9.22765198809716
30
0
41
1
10
-24
20
9.09854211165052
30
0
41
1
10
-24
20
8.96802392408964
30
0
41
1
10
-24
20
8.8361522040411
30
0
41
1
10
-24
20
8.70298068613474
30
0
41
1
10
-24
20
8.56856411921606
30
0
41
1
10
-24
20
8.4329539725301
30
0
41
1
10
-24
20
8.29619846397293
30
0
41
1
10
-24
20
8.1583371158799
30
0
41
1
10
-24
20
8.019414258072
30
0
41
1
10
-24
20
7.87947363340683
30
0
41
1
10
-24
20
7.73855207268437
30
0
41
1
10
-24
20
7.59668709664618
30
0
41
1
10
-24
20
7.40518425225133
30
0
41
1
10
-24
20
7.215275451656
30
0
41
1
10
-24
20
7.02047718066558
30
0
41
1
10
-24
20
6.87439763332088
30
0
41
1
10
-24
20
6.72756665113315
30
0
41
1
10
-24
20
6.58001332974754
30
0
41
1
10
-24
20
6.43176154769492
30
0
41
1
10
-24
20
6.28284059935652
30
0
41
1
10
-24
20
6.13327358455226
30
0
41
1
10
-24
20
5.93197377670032
30
0
41
1
10
-24
20
5.68116234367662
30
0
41
1
10
-24
20
5.42854641106123
30
0
41
1
10
-24
20
5.22360662978346
30
0
41
1
10
-24
20
5.07015485420234
30
0
41
1
10
-24
20
4.91623007901657
30
0
41
1
10
-24
20
4.70939382340191
30
0
41
1
10
-24
20
4.45197579071009
30
0
41
1
10
-24
20
4.19325747795756
30
0
41
1
10
-24
20
3.9837990208529
30
0
41
1
10
-24
20
3.77386542260663
30
0
41
1
10
-24
20
3.56615950862033
30
0
41
1
10
-24
20
3.35498480263559
30
0
41
1
10
-24
20
3.19703175292483
30
0
41
1
10
-24
20
3.03880528028631
30
0
41
1
10
-24
20
2.88032730203614
30
0
41
1
10
-24
20
2.72160909414171
30
0
41
1
10
-24
20
2.59848481782126
30
0
41
1
10
-24
20
2.52828236731491
30
0
41
1
10
-24
20
2.51110069830139
30
0
0
SPLINE
5
2A9
100
AcDbEntity
8
SK1
62
256
6
ByLayer
370
-1
48
1
60
0
100
AcDbSpline
70
4
71
3
72
30
73
26
40
0
40
0
40
0
40
0
40
0.33735613168803
40
0.33735613168803
40
0.421575737022398
40
0.421575737022398
40
0.437874689891559
40
0.437874689891559
40
0.454365893654694
40
0.454365893654694
40
0.461029419060005
40
0.461029419060005
40
0.467807661874822
40
0.467807661874822
40
0.473796284743857
40
0.473796284743857
40
0.481269176432918
40
0.481269176432918
40
0.494809162677106
40
0.494809162677106
40
0.541070718933365
40
0.541070718933365
40
0.762197289624572
40
0.762197289624572
40
1
40
1
40
1
40
1
41
1
10
-1.69999999999999
20
-13.811747665057
30
0
41
1
10
-1.69946916729685
20
-13.7658423949515
30
0
41
1
10
-1.69760722180166
20
-13.7165667179775
30
0
41
1
10
-1.67915345554815
20
-13.6391061876565
30
0
41
1
10
-1.67485126442554
20
-13.6228151599732
30
0
41
1
10
-1.66472351471185
20
-13.5995531005101
30
0
41
1
10
-1.66287561887447
20
-13.5956035602776
30
0
41
1
10
-1.6584670003669
20
-13.5872274615815
30
0
41
1
10
-1.65588115925061
20
-13.5827229490076
30
0
41
1
10
-1.65120192995391
20
-13.5759758038909
30
0
41
1
10
-1.64969955131576
20
-13.5739483878688
30
0
41
1
10
-1.6463946936239
20
-13.5698911777022
30
0
41
1
10
-1.64453519408357
20
-13.567807556382
30
0
41
1
10
-1.64096544338841
20
-13.5642431072444
30
0
41
1
10
-1.63922202457709
20
-13.5626803443919
30
0
41
1
10
-1.63551160140375
20
-13.5596856133095
30
0
41
1
10
-1.63353426714943
20
-13.5583207121459
30
0
41
1
10
-1.6284524496464
20
-13.5552230152257
30
0
41
1
10
-1.6255864992014
20
-13.5539622539669
30
0
41
1
10
-1.61425579249635
20
-13.5499646564658
30
0
41
1
10
-1.60795592767664
20
-13.550242636494
30
0
41
1
10
-1.57474321749788
20
-13.5543823370805
30
0
41
1
10
-1.55852394786899
20
-13.5702024538155
30
0
41
1
10
-1.52474844124905
20
-13.6005626395721
30
0
41
1
10
-1.50941959792513
20
-13.6177920292666
30
0
41
1
10
-1.49503997793928
20
-13.6351347988892
30
0
0
SPLINE
5
2AA
100
AcDbEntity
8
SK1
62
256
6
ByLayer
370
-1
48
1
60
0
100
AcDbSpline
70
4
71
3
72
12
73
8
40
0
40
0
40
0
40
0
40
0.389043826853361
40
0.389043826853361
40
0.69413119161419
40
0.69413119161419
40
1
40
1
40
1
40
1
41
1
10
-23.7500000000003
20
-2.31834586586322
30
0
41
1
10
-23.5959291393816
20
-2.42639091451355
30
0
41
1
10
-23.4376402761261
20
-2.5268024286259
30
0
41
1
10
-23.1503500528381
20
-2.6942835035091
30
0
41
1
10
-23.0222173935451
20
-2.76394945123224
30
0
41
1
10
-22.7631062035251
20
-2.89622248159765
30
0
41
1
10
-22.6320361803559
20
-2.95885110916998
30
0
41
1
10
-22.5
20
-3.0181882792773
30
0
0
SPLINE
5
2AB
100
AcDbEntity
8
SK1
62
256
6
ByLayer
370
-1
48
1
60
0
100
AcDbSpline
70
4
71
3
72
8
73
4
40
0
40
0
40
0
40
0
40
1
40
1
40
1
40
1
41
1
10
-22.5
20
-3.01818827927744
30
0
41
1
10
-21.6000055180583
20
-3.0357883397561
30
0
41
1
10
-20.7000053097593
20
-3.05306006685143
30
0
41
1
10
-19.8
20
-3.07001788263608
30
0
0
SPLINE
5
2AC
100
AcDbEntity
8
SK1
62
256
6
ByLayer
370
-1
48
1
60
0
100
AcDbSpline
70
4
71
3
72
132
73
128
40
0
40
0
40
0
40
0
40
0.000160710048925
40
0.0037309907136148
40
0.0073012713783047
40
0.0144418327076844
40
0.0215823940370641
40
0.0287229553664438
40
0.0358635166958235
40
0.0430040780252032
40
0.0501446393545829
40
0.0572852006839627
40
0.0644257620133424
40
0.0715663233427221
40
0.0787068846721018
40
0.0858474460014815
40
0.0929880073308612
40
0.100128568660241
40
0.107269129989621
40
0.114409691319
40
0.12155025264838
40
0.12869081397776
40
0.13583137530714
40
0.142971936636519
40
0.150112497965899
40
0.157253059295279
40
0.171534181954038
40
0.178674743283418
40
0.185815304612797
40
0.192955865942177
40
0.200096427271557
40
0.207236988600937
40
0.214377549930316
40
0.221518111259696
40
0.228658672589076
40
0.242939795247835
40
0.257220917906595
40
0.264361479235974
40
0.271502040565354
40
0.278642601894734
40
0.285783163224113
40
0.300064285882873
40
0.314345408541632
40
0.321485969871012
40
0.328626531200392
40
0.342907653859151
40
0.350048215188531
40
0.35718877651791
40
0.36432933784729
40
0.37146989917667
40
0.37861046050605
40
0.385751021835429
40
0.392891583164809
40
0.400032144494189
40
0.414313267152948
40
0.428594389811708
40
0.435734951141087
40
0.442875512470467
40
0.457156635129227
40
0.471437757787986
40
0.478578319117366
40
0.485718880446745
40
0.500000003105505
40
0.500000003105505
40
0.514281125764264
40
0.521421687093644
40
0.528562248423024
40
0.542843371081783
40
0.557124493740542
40
0.564265055069922
40
0.571405616399302
40
0.585686739058061
40
0.599967861716821
40
0.6071084230462
40
0.61424898437558
40
0.62138954570496
40
0.62853010703434
40
0.635670668363719
40
0.642811229693099
40
0.649951791022479
40
0.657092352351858
40
0.671373475010618
40
0.678514036339998
40
0.685654597669377
40
0.699935720328137
40
0.714216842986896
40
0.721357404316276
40
0.728497965645656
40
0.735638526975035
40
0.742779088304415
40
0.757060210963174
40
0.771341333621934
40
0.778481894951313
40
0.785622456280693
40
0.792763017610073
40
0.799903578939453
40
0.807044140268832
40
0.814184701598212
40
0.821325262927592
40
0.828465824256971
40
0.842746946915731
40
0.849887508245111
40
0.85702806957449
40
0.86416863090387
40
0.87130919223325
40
0.878449753562629
40
0.885590314892009
40
0.892730876221389
40
0.899871437550769
40
0.907011998880148
40
0.914152560209528
40
0.921293121538908
40
0.928433682868287
40
0.935574244197667
40
0.942714805527047
40
0.949855366856427
40
0.956995928185806
40
0.964136489515186
40
0.971277050844566
40
0.978417612173945
40
0.981987892838635
40
0.985558173503325
40
0.989128454168015
40
0.992698734832705
40
0.996269015497395
40
0.999839296162085
40
1
40
1
40
1
40
1
41
1
10
-1.69999999999999
20
11.2280220060487
30
0
41
1
10
-1.69999999999999
20
11.227047242022
30
0
41
1
10
-1.69999999999999
20
11.2044136878497
30
0
41
1
10
-1.69999999999999
20
11.1599510700859
30
0
41
1
10
-1.69999999999999
20
11.0723715939837
30
0
41
1
10
-1.69999999999999
20
10.9617352177661
30
0
41
1
10
-1.69999999999999
20
10.8272498721352
30
0
41
1
10
-1.69999999999999
20
10.6911122679464
30
0
41
1
10
-1.69999999999999
20
10.5533984615076
30
0
41
1
10
-1.69999999999999
20
10.4141802530648
30
0
41
1
10
-1.69999999999999
20
10.2735243526048
30
0
41
1
10
-1.69999999999999
20
10.1314938522985
30
0
41
1
10
-1.69999999999999
20
9.98814797174478
30
0
41
1
10
-1.69999999999999
20
9.84354225184109
30
0
41
1
10
-1.69999999999999
20
9.69772882445378
30
0
41
1
10
-1.69999999999999
20
9.55075719266424
30
0
41
1
10
-1.69999999999999
20
9.40267436612524
30
0
41
1
10
-1.69999999999999
20
9.25352476012989
30
0
41
1
10
-1.69999999999999
20
9.10335014203838
30
0
41
1
10
-1.69999999999999
20
8.95219023182401
30
0
41
1
10
-1.69999999999999
20
8.80008267536581
30
0
41
1
10
-1.69999999999999
20
8.64706406630069
30
0
41
1
10
-1.69999999999999
20
8.49316828116599
30
0
41
1
10
-1.69999999999999
20
8.3384282592267
30
0
41
1
10
-1.69999999999999
20
8.18287518893558
30
0
41
1
10
-1.69999999999999
20
7.97444378645656
30
0
41
1
10
-1.69999999999999
20
7.76445503083042
30
0
41
1
10
-1.69999999999999
20
7.55311423297795
30
0
41
1
10
-1.69999999999999
20
7.39392172783741
30
0
41
1
10
-1.69999999999999
20
7.23407905063607
30
0
41
1
10
-1.69999999999999
20
7.07360930363373
30
0
41
1
10
-1.69999999999999
20
6.91253555902978
30
0
41
1
10
-1.69999999999999
20
6.75087978830632
30
0
41
1
10
-1.69999999999999
20
6.58866300029422
30
0
41
1
10
-1.69999999999999
20
6.37166911292547
30
0
41
1
10
-1.69999999999999
20
6.09909200018305
30
0
41
1
10
-1.69999999999999
20
5.82490731602826
30
0
41
1
10
-1.69999999999999
20
5.60469376967478
30
0
41
1
10
-1.69999999999999
20
5.43909365902317
30
0
41
1
10
-1.69999999999999
20
5.27308115953534
30
0
41
1
10
-1.69999999999999
20
5.05121816237263
30
0
41
1
10
-1.69999999999999
20
4.77290722535162
30
0
41
1
10
-1.69999999999999
20
4.49343323743989
30
0
41
1
10
-1.69999999999999
20
4.26924117113774
30
0
41
1
10
-1.69999999999999
20
4.04464279014331
30
0
41
1
10
-1.69999999999999
20
3.81942016939075
30
0
41
1
10
-1.69999999999999
20
3.59371314323241
30
0
41
1
10
-1.69999999999999
20
3.42417226939293
30
0
41
1
10
-1.69999999999999
20
3.25439463738334
30
0
41
1
10
-1.69999999999999
20
3.08439312413188
30
0
41
1
10
-1.69999999999999
20
2.91418042446028
30
0
41
1
10
-1.69999999999999
20
2.74376934542332
30
0
41
1
10
-1.69999999999999
20
2.5731722253123
30
0
41
1
10
-1.69999999999999
20
2.34549154322497
30
0
41
1
10
-1.69999999999999
20
2.06045607541472
30
0
41
1
10
-1.69999999999999
20
1.77496190057087
30
0
41
1
10
-1.69999999999999
20
1.54636331383466
30
0
41
1
10
-1.69999999999999
20
1.31762823291712
30
0
41
1
10
-1.69999999999999
20
1.03145180232687
30
0
41
1
10
-1.69999999999999
20
0.745049064883688
30
0
41
1
10
-1.69999999999999
20
0.515861152522689
30
0
41
1
10
-1.69999999999999
20
0.286628141373711
30
0
41
1
10
-1.69999999999999
20
0.114618683691191
30
0
41
1
10
-1.69999999999999
20
-0.114618693993577
30
0
41
1
10
-1.69999999999999
20
-0.286628156985614
30
0
41
1
10
-1.69999999999999
20
-0.515861151357967
30
0
41
1
10
-1.69999999999999
20
-0.745049048379684
30
0
41
1
10
-1.69999999999999
20
-1.03145180089359
30
0
41
1
10
-1.69999999999999
20
-1.31762824571169
30
0
41
1
10
-1.69999999999999
20
-1.54636332552647
30
0
41
1
10
-1.69999999999999
20
-1.77496190870204
30
0
41
1
10
-1.69999999999999
20
-2.06045608130748
30
0
41
1
10
-1.69999999999999
20
-2.34549155003157
30
0
41
1
10
-1.69999999999999
20
-2.57317223314388
30
0
41
1
10
-1.69999999999999
20
-2.74376935312037
30
0
41
1
10
-1.69999999999999
20
-2.91418043120197
30
0
41
1
10
-1.69999999999999
20
-3.08439312989506
30
0
41
1
10
-1.69999999999999
20
-3.25439464353821
30
0
41
1
10
-1.69999999999999
20
-3.42417227695606
30
0
41
1
10
-1.69999999999999
20
-3.59371315203094
30
0
41
1
10
-1.69999999999999
20
-3.81942017712072
30
0
41
1
10
-1.69999999999999
20
-4.04464279504057
30
0
41
1
10
-1.69999999999999
20
-4.2692411774986
30
0
41
1
10
-1.69999999999999
20
-4.49343324752482
30
0
41
1
10
-1.69999999999999
20
-4.77290723300155
30
0
41
1
10
-1.69999999999999
20
-5.0512181665755
30
0
41
1
10
-1.69999999999999
20
-5.27308116726877
30
0
41
1
10
-1.69999999999999
20
-5.43909367007598
30
0
41
1
10
-1.69999999999999
20
-5.60469377987516
30
0
41
1
10
-1.69999999999999
20
-5.8249073202044
30
0
41
1
10
-1.69999999999999
20
-6.09909200682145
30
0
41
1
10
-1.69999999999999
20
-6.37166912633472
30
0
41
1
10
-1.69999999999999
20
-6.58866300781477
30
0
41
1
10
-1.69999999999999
20
-6.75087979112988
30
0
41
1
10
-1.69999999999999
20
-6.91253556467157
30
0
41
1
10
-1.69999999999999
20
-7.07360931632445
30
0
41
1
10
-1.69999999999999
20
-7.23407906344224
30
0
41
1
10
-1.69999999999999
20
-7.39392173446626
30
0
41
1
10
-1.69999999999999
20
-7.55311423660689
30
0
41
1
10
-1.69999999999999
20
-7.76445503909937
30
0
41
1
10
-1.69999999999999
20
-7.97444380289147
30
0
41
1
10
-1.69999999999999
20
-8.18287519360683
30
0
41
1
10
-1.69999999999999
20
-8.33842825946502
30
0
41
1
10
-1.69999999999999
20
-8.49316828932012
30
0
41
1
10
-1.69999999999999
20
-8.64706412658325
30
0
41
1
10
-1.69999999999999
20
-8.80008282293323
30
0
41
1
10
-1.69999999999999
20
-8.95219021873993
30
0
41
1
10
-1.69999999999999
20
-9.10335003950667
30
0
41
1
10
-1.69999999999999
20
-9.25352464233231
30
0
41
1
10
-1.69999999999999
20
-9.4026743045074
30
0
41
1
10
-1.69999999999999
20
-9.55075717349206
30
0
41
1
10
-1.69999999999999
20
-9.69772873556167
30
0
41
1
10
-1.69999999999999
20
-9.84354211364592
30
0
41
1
10
-1.69999999999999
20
-9.98814794652674
30
0
41
1
10
-1.69999999999999
20
-10.1314939313062
30
0
41
1
10
-1.69999999999999
20
-10.2735244176676
30
0
41
1
10
-1.69999999999999
20
-10.4141802803337
30
0
41
1
10
-1.69999999999999
20
-10.5533984644992
30
0
41
1
10
-1.69999999999999
20
-10.6911122812234
30
0
41
1
10
-1.69999999999999
20
-10.8045700701358
30
0
41
1
10
-1.69999999999999
20
-10.8944918221587
30
0
41
1
10
-1.69999999999999
20
-10.9615177158913
30
0
41
1
10
-1.69999999999999
20
-11.0281101620366
30
0
41
1
10
-1.69999999999999
20
-11.0942583086119
30
0
41
1
10
-1.69999999999999
20
-11.159951088717
30
0
41
1
10
-1.69999999999999
20
-11.2044136719143
30
0
41
1
10
-1.69999999999999
20
-11.2270471880721
30
0
41
1
10
-1.69999999999999
20
-11.2280219144146
30
0
0
SPLINE
5
2AD
100
AcDbEntity
8
SK1
62
256
6
ByLayer
370
-1
48
1
60
0
100
AcDbSpline
70
4
71
3
72
8
73
4
40
0
40
0
40
0
40
0
40
1
40
1
40
1
40
1
41
1
10
-1.30710678118655
20
13.7865571439119
30
0
41
1
10
-1.37345734522398
20
13.754174038767
30
0
41
1
10
-1.43729973389677
20
13.7047734610309
30
0
41
1
10
-1.49503997793931
20
13.6351348242834
30
0
0
SPLINE
5
2AE
100
AcDbEntity
8
SK1
62
256
6
ByLayer
370
-1
48
1
60
0
100
AcDbSpline
70
4
71
3
72
10
73
6
40
0
40
0
40
0
40
0
40
0.5
40
0.5
40
1
40
1
40
1
40
1
41
1
10
-1.70000000000002
20
-11.2280219144135
30
0
41
1
10
-1.83222151283218
20
-11.8890340386244
30
0
41
1
10
-1.92871860459297
20
-12.4742870125949
30
0
41
1
10
-1.92842093916661
20
-13.3602676570322
30
0
41
1
10
-1.83224186037515
20
-13.6408615525021
30
0
41
1
10
-1.69999999999999
20
-13.811747665057
30
0
0
SPLINE
5
2AF
100
AcDbEntity
8
SK1
62
256
6
ByLayer
370
-1
48
1
60
0
100
AcDbSpline
70
4
71
3
72
32
73
28
40
0
40
0
40
0
40
0
40
0.335335238830656
40
0.335335238830656
40
0.4292562900034
40
0.4292562900034
40
0.475661245713969
40
0.475661245713969
40
0.494512887527311
40
0.494512887527311
40
0.513606907017348
40
0.513606907017348
40
0.520470265013059
40
0.520470265013059
40
0.527459341676669
40
0.527459341676669
40
0.533527677203549
40
0.533527677203549
40
0.540968725577944
40
0.540968725577944
40
0.554345083960774
40
0.554345083960774
40
0.598819522074486
40
0.598819522074486
40
0.808636307185196
40
0.808636307185196
40
1
40
1
40
1
40
1
41
1
10
-1.49503997793931
20
13.6351348242834
30
0
41
1
10
-1.51545644806663
20
13.6105111814423
30
0
41
1
10
-1.53713626879269
20
13.5853605546439
30
0
41
1
10
-1.5739255354427
20
13.5608274477369
30
0
41
1
10
-1.58255773403855
20
13.5559301980739
30
0
41
1
10
-1.59805568170032
20
13.5514128278988
30
0
41
1
10
-1.60359608171328
20
13.5503360722399
30
0
41
1
10
-1.61295814294627
20
13.5507215581773
30
0
41
1
10
-1.61586458881627
20
13.5510647729632
30
0
41
1
10
-1.62241396531786
20
13.5527078122781
30
0
41
1
10
-1.62610237710513
20
13.5539781448986
30
0
41
1
10
-1.63215421234037
20
13.5574414638436
30
0
41
1
10
-1.63389283209571
20
13.5585580672719
30
0
41
1
10
-1.63758020482135
20
13.5612952592682
30
0
41
1
10
-1.63958934526494
20
13.5629769573258
30
0
41
1
10
-1.64325863396604
20
13.5664830053337
30
0
41
1
10
-1.64497188258571
20
13.5683008241836
30
0
41
1
10
-1.64845906136935
20
13.5723477509221
30
0
41
1
10
-1.65022117715978
20
13.5746369343048
30
0
41
1
10
-1.65457912783458
20
13.5807524536951
30
0
41
1
10
-1.65685915666867
20
13.5845031985182
30
0
41
1
10
-1.66532852972776
20
13.5996303237285
30
0
41
1
10
-1.66916785275907
20
13.6095600660859
30
0
41
1
10
-1.68796189881664
20
13.66266482436
30
0
41
1
10
-1.69170634039745
20
13.6964240689802
30
0
41
1
10
-1.69839711718626
20
13.7584694501586
30
0
41
1
10
-1.6997006743789
20
13.7858626244406
30
0
41
1
10
-1.69999999999999
20
13.8117476725386
30
0
0
SPLINE
5
2B0
100
AcDbEntity
8
SK1
62
256
6
ByLayer
370
-1
48
1
60
0
100
AcDbSpline
70
4
71
3
72
14
73
10
40
0
40
0
40
0
40
0
40
0.25
40
0.25
40
0.5
40
0.5
40
0.75
40
0.75
40
1
40
1
40
1
40
1
41
1
10
-19.8
20
-3.07001788263608
30
0
41
1
10
-19.4067092264412
20
-2.62248292086608
30
0
41
1
10
-19.0254834490286
20
-2.16402513685532
30
0
41
1
10
-18.3705491133787
20
-1.16123143184342
30
0
41
1
10
-18.0900115313812
20
-0.598073036017581
30
0
41
1
10
-18.0934411871755
20
0.609519504256639
30
0
41
1
10
-18.3758729773099
20
1.17016259482904
30
0
41
1
10
-19.0256295074901
20
2.16346253956578
30
0
41
1
10
-19.4080430490597
20
2.62400071745216
30
0
41
1
10
-19.8
20
3.07001788179568
30
0
0
SPLINE
5
2B1
100
AcDbEntity
8
SK1
62
256
6
ByLayer
370
-1
48
1
60
0
100
AcDbSpline
70
4
71
3
72
130
73
126
40
0
40
0
40
0
40
0
40
0.0004026283797292
40
0.0039968558129562
40
0.0111853106794103
40
0.0183737655458644
40
0.0255622204123185
40
0.0327506752787726
40
0.0399391301452267
40
0.0471275850116808
40
0.0543160398781349
40
0.061504494744589
40
0.0686929496110431
40
0.0758814044774972
40
0.0830698593439513
40
0.0902583142104054
40
0.0974467690768595
40
0.104635223943314
40
0.111823678809768
40
0.119012133676222
40
0.126200588542676
40
0.13338904340913
40
0.140577498275584
40
0.147765953142038
40
0.154954408008492
40
0.169331317741401
40
0.176519772607855
40
0.183708227474309
40
0.190896682340763
40
0.198085137207217
40
0.205273592073671
40
0.212462046940125
40
0.219650501806579
40
0.226838956673033
40
0.241215866405941
40
0.25559277613885
40
0.262781231005304
40
0.269969685871758
40
0.277158140738212
40
0.284346595604666
40
0.298723505337574
40
0.313100415070482
40
0.320288869936937
40
0.327477324803391
40
0.341854234536299
40
0.349042689402753
40
0.356231144269207
40
0.363419599135661
40
0.370608054002115
40
0.377796508868569
40
0.384984963735023
40
0.392173418601477
40
0.399361873467932
40
0.41373878320084
40
0.428115692933748
40
0.435304147800202
40
0.442492602666656
40
0.456869512399564
40
0.471246422132472
40
0.478434876998927
40
0.485623331865381
40
0.500000241598289
40
0.500000241598289
40
0.514377151331197
40
0.521565606197651
40
0.528754061064105
40
0.543130970797013
40
0.557507880529922
40
0.564696335396376
40
0.57188479026283
40
0.586261699995738
40
0.600638609728646
40
0.6078270645951
40
0.615015519461554
40
0.622203974328009
40
0.629392429194463
40
0.636580884060917
40
0.643769338927371
40
0.650957793793825
40
0.658146248660279
40
0.672523158393187
40
0.679711613259641
40
0.686900068126096
40
0.701276977859004
40
0.715653887591912
40
0.722842342458366
40
0.73003079732482
40
0.737219252191274
40
0.744407707057728
40
0.758784616790636
40
0.773161526523545
40
0.780349981389999
40
0.787538436256453
40
0.794726891122907
40
0.801915345989361
40
0.809103800855815
40
0.816292255722269
40
0.823480710588723
40
0.830669165455177
40
0.845046075188086
40
0.85223453005454
40
0.859422984920994
40
0.866611439787448
40
0.873799894653902
40
0.880988349520356
40
0.88817680438681
40
0.895365259253264
40
0.902553714119718
40
0.909742168986172
40
0.916930623852627
40
0.924119078719081
40
0.931307533585535
40
0.938495988451989
40
0.945684443318443
40
0.952872898184897
40
0.960061353051351
40
0.967249807917805
40
0.974438262784259
40
0.981626717650713
40
0.98522094508394
40
0.988815172517168
40
0.992409399950395
40
0.996003627383622
40
0.999597854816849
40
1
40
1
40
1
40
1
41
1
10
-1.49503997793931
20
11.0404930364187
30
0
41
1
10
-1.49503997793931
20
11.0380961465305
30
0
41
1
10
-1.49503997793931
20
11.014291204666
30
0
41
1
10
-1.49503997793931
20
10.9473566078025
30
0
41
1
10
-1.49503997793931
20
10.838857882468
30
0
41
1
10
-1.49503997793931
20
10.7067821495175
30
0
41
1
10
-1.49503997793931
20
10.5730170840598
30
0
41
1
10
-1.49503997793931
20
10.4376396837444
30
0
41
1
10
-1.49503997793931
20
10.3007229985477
30
0
41
1
10
-1.49503997793931
20
10.1623351566012
30
0
41
1
10
-1.49503997793931
20
10.0225402176169
30
0
41
1
10
-1.49503997793931
20
9.88139885501528
30
0
41
1
10
-1.49503997793931
20
9.73896825192688
30
0
41
1
10
-1.49503997793931
20
9.59530178307287
30
0
41
1
10
-1.49503997793931
20
9.45044969205108
30
0
41
1
10
-1.49503997793931
20
9.30445993248421
30
0
41
1
10
-1.49503997793931
20
9.157378370163
30
0
41
1
10
-1.49503997793931
20
9.00924813427943
30
0
41
1
10
-1.49503997793931
20
8.86011013764116
30
0
41
1
10
-1.49503997793931
20
8.71000228952124
30
0
41
1
10
-1.49503997793931
20
8.55896226946737
30
0
41
1
10
-1.49503997793931
20
8.40702533893017
30
0
41
1
10
-1.49503997793931
20
8.25422498342064
30
0
41
1
10
-1.49503997793931
20
8.10059328024076
30
0
41
1
10
-1.49503997793931
20
7.89453810151815
30
0
41
1
10
-1.49503997793931
20
7.68736792417459
30
0
41
1
10
-1.49503997793931
20
7.47834916374109
30
0
41
1
10
-1.49503997793931
20
7.32099729509636
30
0
41
1
10
-1.49503997793931
20
7.16298104036105
30
0
41
1
10
-1.49503997793931
20
7.00432434307302
30
0
41
1
10
-1.49503997793931
20
6.84505038861462
30
0
41
1
10
-1.49503997793931
20
6.68518217636688
30
0
41
1
10
-1.49503997793931
20
6.52474100866809
30
0
41
1
10
-1.49503997793931
20
6.30995006406607
30
0
41
1
10
-1.49503997793931
20
6.04042815100246
30
0
41
1
10
-1.49503997793931
20
5.76927102415934
30
0
41
1
10
-1.49503997793931
20
5.55120142197654
30
0
41
1
10
-1.49503997793931
20
5.38730654589079
30
0
41
1
10
-1.49503997793931
20
5.22299077317112
30
0
41
1
10
-1.49503997793931
20
5.00323704604014
30
0
41
1
10
-1.49503997793931
20
4.72785879917268
30
0
41
1
10
-1.49503997793931
20
4.4512982388635
30
0
41
1
10
-1.49503997793931
20
4.22917429626202
30
0
41
1
10
-1.49503997793931
20
4.00663437795387
30
0
41
1
10
-1.49503997793931
20
3.78387053807
30
0
41
1
10
-1.49503997793931
20
3.56020338112322
30
0
41
1
10
-1.49503997793931
20
3.39228906418498
30
0
41
1
10
-1.49503997793931
20
3.22413284252676
30
0
41
1
10
-1.49503997793931
20
3.05574886205579
30
0
41
1
10
-1.49503997793931
20
2.88714961843243
30
0
41
1
10
-1.49503997793931
20
2.71834764802725
30
0
41
1
10
-1.49503997793931
20
2.54935658484459
30
0
41
1
10
-1.49503997793931
20
2.32367837416112
30
0
41
1
10
-1.49503997793931
20
2.04143836311525
30
0
41
1
10
-1.49503997793931
20
1.75873241449818
30
0
41
1
10
-1.49503997793931
20
1.53212086177547
30
0
41
1
10
-1.49503997793931
20
1.30536959126391
30
0
41
1
10
-1.49503997793931
20
1.02196618540572
30
0
41
1
10
-1.49503997793931
20
0.738332976305543
30
0
41
1
10
-1.49503997793931
20
0.511121401780969
30
0
41
1
10
-1.49503997793931
20
0.283863668747102
30
0
41
1
10
-1.49503997793931
20
0.113828783345895
30
0
41
1
10
-1.49503997793931
20
-0.113828693743756
30
0
41
1
10
-1.49503997793931
20
-0.283863523342689
30
0
41
1
10
-1.49503997793931
20
-0.511121369791312
30
0
41
1
10
-1.49503997793931
20
-0.738333092383613
30
0
41
1
10
-1.49503997793931
20
-1.02196629146803
30
0
41
1
10
-1.49503997793931
20
-1.30536959252586
30
0
41
1
10
-1.49503997793931
20
-1.53212084561704
30
0
41
1
10
-1.49503997793931
20
-1.7587324094431
30
0
41
1
10
-1.49503997793931
20
-2.04143837091374
30
0
41
1
10
-1.49503997793931
20
-2.3236783861249
30
0
41
1
10
-1.49503997793931
20
-2.5493565911286
30
0
41
1
10
-1.49503997793931
20
-2.71834764978257
30
0
41
1
10
-1.49503997793931
20
-2.88714962084904
30
0
41
1
10
-1.49503997793931
20
-3.05574887025477
30
0
41
1
10
-1.49503997793931
20
-3.22413285629881
30
0
41
1
10
-1.49503997793931
20
-3.39228907717796
30
0
41
1
10
-1.49503997793931
20
-3.56020338729638
30
0
41
1
10
-1.49503997793931
20
-3.78387053781918
30
0
41
1
10
-1.49503997793931
20
-4.00663438387829
30
0
41
1
10
-1.49503997793931
20
-4.22917431296136
30
0
41
1
10
-1.49503997793931
20
-4.45129824919835
30
0
41
1
10
-1.49503997793931
20
-4.72785879894727
30
0
41
1
10
-1.49503997793931
20
-5.00323705439493
30
0
41
1
10
-1.49503997793931
20
-5.22299079237271
30
0
41
1
10
-1.49503997793931
20
-5.38730655711714
30
0
41
1
10
-1.49503997793931
20
-5.551201420425
30
0
41
1
10
-1.49503997793931
20
-5.76927102526949
30
0
41
1
10
-1.49503997793931
20
-6.04042816754918
30
0
41
1
10
-1.49503997793931
20
-6.30995007423502
30
0
41
1
10
-1.49503997793931
20
-6.52474100256413
30
0
41
1
10
-1.49503997793931
20
-6.68518218101332
30
0
41
1
10
-1.49503997793931
20
-6.84505041013443
30
0
41
1
10
-1.49503997793931
20
-7.00432436235448
30
0
41
1
10
-1.49503997793931
20
-7.16298104183679
30
0
41
1
10
-1.49503997793931
20
-7.32099729086585
30
0
41
1
10
-1.49503997793931
20
-7.47834917087428
30
0
41
1
10
-1.49503997793931
20
-7.68736794408062
30
0
41
1
10
-1.49503997793931
20
-7.8945381122156
30
0
41
1
10
-1.49503997793931
20
-8.10059327164797
30
0
41
1
10
-1.49503997793931
20
-8.25422499965373
30
0
41
1
10
-1.49503997793931
20
-8.40702542970666
30
0
41
1
10
-1.49503997793931
20
-8.5589624626993
30
0
41
1
10
-1.49503997793931
20
-8.71000231399603
30
0
41
1
10
-1.49503997793931
20
-8.8601098623927
30
0
41
1
10
-1.49503997793931
20
-9.00924796301825
30
0
41
1
10
-1.49503997793931
20
-9.15737831039715
30
0
41
1
10
-1.49503997793931
20
-9.30445995221976
30
0
41
1
10
-1.49503997793931
20
-9.45044962963431
30
0
41
1
10
-1.49503997793931
20
-9.59530159693583
30
0
41
1
10
-1.49503997793931
20
-9.73896819671205
30
0
41
1
10
-1.49503997793931
20
-9.88139901553714
30
0
41
1
10
-1.49503997793931
20
-10.0225403517592
30
0
41
1
10
-1.49503997793931
20
-10.162335170737
30
0
41
1
10
-1.49503997793931
20
-10.300722980409
30
0
41
1
10
-1.49503997793931
20
-10.4376396811373
30
0
41
1
10
-1.49503997793931
20
-10.5730171158202
30
0
41
1
10
-1.49503997793931
20
-10.6844029895926
30
0
41
1
10
-1.49503997793931
20
-10.7728268417948
30
0
41
1
10
-1.49503997793931
20
-10.8386432349291
30
0
41
1
10
-1.49503997793931
20
-10.9040167290725
30
0
41
1
10
-1.49503997793931
20
-10.9689360542
30
0
41
1
10
-1.49503997793931
20
-11.0143093676336
30
0
41
1
10
-1.49503997793931
20
-11.0380997547451
30
0
41
1
10
-1.49503997793931
20
-11.040492725988
30
0
0
SPLINE
5
2B2
100
AcDbEntity
8
SK1
62
256
6
ByLayer
370
-1
48
1
60
0
100
AcDbSpline
70
4
71
3
72
24
73
20
40
0
40
0
40
0
40
0
40
0.408002657207482
40
0.408002657207482
40
0.586477027718443
40
0.586477027718443
40
0.763726702854661
40
0.763726702854661
40
0.834648197924731
40
0.834648197924731
40
0.871679984389929
40
0.871679984389929
40
0.909315663944553
40
0.909315663944553
40
0.941446055332595
40
0.941446055332595
40
0.98823280208057
40
0.98823280208057
40
1
40
1
40
1
40
1
41
1
10
-1.30710678118655
20
-10.1587398893064
30
0
41
1
10
-1.25754698661746
20
-9.93155354697157
30
0
41
1
10
-1.1977189970325
20
-9.69968642031927
30
0
41
1
10
-1.07980128408849
20
-9.36911397731112
30
0
41
1
10
-1.0394733540156
20
-9.26853566528578
30
0
41
1
10
-0.943165646499466
20
-9.07335521538573
30
0
41
1
10
-0.887973965308078
20
-8.97624847129561
30
0
41
1
10
-0.781591487491681
20
-8.8594780754882
30
0
41
1
10
-0.74694379782315
20
-8.82781883349506
30
0
41
1
10
-0.685298871397777
20
-8.79107360332597
30
0
41
1
10
-0.662073603413774
20
-8.78044142123565
30
0
41
1
10
-0.612858695592649
20
-8.76685858205661
30
0
41
1
10
-0.586088094318484
20
-8.76404359582355
30
0
41
1
10
-0.537899549761221
20
-8.76799328382074
30
0
41
1
10
-0.51573511746227
20
-8.77340207272727
30
0
41
1
10
-0.46525601552392
20
-8.79283065567657
30
0
41
1
10
-0.437776439785324
20
-8.80972042890835
30
0
41
1
10
-0.406986767922433
20
-8.83356785858388
30
0
41
1
10
-0.400907361300938
20
-8.83855820531193
30
0
41
1
10
-0.394976888875277
20
-8.84367709064927
30
0
0
SPLINE
5
2B3
100
AcDbEntity
8
SK1
62
256
6
ByLayer
370
-1
48
1
60
0
100
AcDbSpline
70
4
71
3
72
8
73
4
40
0
40
0
40
0
40
0
40
1
40
1
40
1
40
1
41
1
10
-19.8
20
3.07001788179568
30
0
41
1
10
-20.7000053097611
20
3.05306006627143
30
0
41
1
10
-21.6000055180605
20
3.03578833940978
30
0
41
1
10
-22.5
20
3.01818827911166
30
0
0
SPLINE
5
2B4
100
AcDbEntity
8
SK1
62
256
6
ByLayer
370
-1
48
1
60
0
100
AcDbSpline
70
4
71
3
72
24
73
20
40
0
40
0
40
0
40
0
40
0.408002190837934
40
0.408002190837934
40
0.586476810313769
40
0.586476810313769
40
0.763728446662891
40
0.763728446662891
40
0.834648482719359
40
0.834648482719359
40
0.87168032763764
40
0.87168032763764
40
0.909316074756434
40
0.909316074756434
40
0.941446366350488
40
0.941446366350488
40
0.988233503049095
40
0.988233503049095
40
1
40
1
40
1
40
1
41
1
10
-1.30710678118655
20
13.7865571439119
30
0
41
1
10
-1.25754765296878
20
13.8107450085254
30
0
41
1
10
-1.19771780760499
20
13.8254867398852
30
0
41
1
10
-1.07980148506394
20
13.8355152294183
30
0
41
1
10
-1.03947397463355
20
13.8370872802854
30
0
41
1
10
-0.943165695789162
20
13.8378839601915
30
0
41
1
10
-0.887973126494643
20
13.8370082922424
30
0
41
1
10
-0.781589462476205
20
13.8357080282007
30
0
41
1
10
-0.74694225681057
20
13.8353355804057
30
0
41
1
10
-0.685298053524264
20
13.8353286618264
30
0
41
1
10
-0.662072734685893
20
13.8354371938846
30
0
41
1
10
-0.612857732491221
20
13.8360479595805
30
0
41
1
10
-0.586087083776818
20
13.8365776701589
30
0
41
1
10
-0.537898625009149
20
13.8379392292453
30
0
41
1
10
-0.515734311834279
20
13.8387271451888
30
0
41
1
10
-0.465255146194721
20
13.8408160115234
30
0
41
1
10
-0.43777545213922
20
13.8422107778993
30
0
41
1
10
-0.406986046844054
20
13.8439146849421
30
0
41
1
10
-0.400907010824625
20
13.84425933472
30
0
41
1
10
-0.394976888875277
20
13.8446019297681
30
0
0
SPLINE
5
2B5
100
AcDbEntity
8
SK1
62
256
6
ByLayer
370
-1
48
1
60
0
100
AcDbSpline
70
4
71
3
72
94
73
90
40
0
40
0
40
0
40
0
40
0.0074759725125896
40
0.0167688786264112
40
0.0260617847402327
40
0.0353546908540543
40
0.0446475969678759
40
0.0539405030816975
40
0.0725263153093407
40
0.0818192214231623
40
0.0911121275369838
40
0.100405033650805
40
0.109697939764627
40
0.118990845878449
40
0.12828375199227
40
0.137576658106092
40
0.146869564219913
40
0.165455376447557
40
0.1840411886752
40
0.193334094789021
40
0.202627000902843
40
0.211919907016664
40
0.221212813130486
40
0.239798625358129
40
0.258384437585772
40
0.267677343699594
40
0.276970249813416
40
0.295556062041059
40
0.30484896815488
40
0.314141874268702
40
0.323434780382523
40
0.332727686496345
40
0.342020592610167
40
0.351313498723988
40
0.36060640483781
40
0.369899310951631
40
0.388485123179275
40
0.407070935406918
40
0.416363841520739
40
0.425656747634561
40
0.444242559862204
40
0.462828372089847
40
0.472121278203669
40
0.48141418431749
40
0.499999996545134
40
0.499999996545134
40
0.518585808772777
40
0.527878714886598
40
0.53717162100042
40
0.555757433228063
40
0.574343245455706
40
0.583636151569528
40
0.592929057683349
40
0.611514869910993
40
0.630100682138636
40
0.639393588252457
40
0.648686494366279
40
0.657979400480101
40
0.667272306593922
40
0.676565212707744
40
0.685858118821565
40
0.695151024935387
40
0.704443931049208
40
0.723029743276852
40
0.732322649390673
40
0.741615555504495
40
0.760201367732138
40
0.778787179959781
40
0.788080086073603
40
0.797372992187424
40
0.806665898301246
40
0.815958804415067
40
0.834544616642711
40
0.853130428870354
40
0.862423334984175
40
0.871716241097997
40
0.881009147211818
40
0.89030205332564
40
0.899594959439462
40
0.908887865553283
40
0.918180771667105
40
0.927473677780926
40
0.94605949000857
40
0.955352396122391
40
0.964645302236213
40
0.973938208350034
40
0.983231114463856
40
0.992524020577678
40
1
40
1
40
1
40
1
41
1
10
-0.394976888875277
20
8.8436771316178
30
0
41
1
10
-0.394976888875277
20
8.80342721624766
30
0
41
1
10
-0.394976888875277
20
8.71291307595072
30
0
41
1
10
-0.394976888875277
20
8.57145448816908
30
0
41
1
10
-0.394976888875277
20
8.41923980574808
30
0
41
1
10
-0.394976888875277
20
8.26616441910272
30
0
41
1
10
-0.394976888875277
20
8.11226027950246
30
0
41
1
10
-0.394976888875277
20
7.90586816886793
30
0
41
1
10
-0.394976888875277
20
7.69829833683403
30
0
41
1
10
-0.394976888875277
20
7.48895032773234
30
0
41
1
10
-0.394976888875277
20
7.33133746970395
30
0
41
1
10
-0.394976888875277
20
7.17306224103498
30
0
41
1
10
-0.394976888875277
20
7.01414846597598
30
0
41
1
10
-0.394976888875277
20
6.85461931386075
30
0
41
1
10
-0.394976888875277
20
6.69449763832139
30
0
41
1
10
-0.394976888875277
20
6.53380470007897
30
0
41
1
10
-0.394976888875277
20
6.31870139359762
30
0
41
1
10
-0.394976888875277
20
6.04874627458437
30
0
41
1
10
-0.394976888875277
20
5.77715986128592
30
0
41
1
10
-0.394976888875277
20
5.55878626281216
30
0
41
1
10
-0.394976888875277
20
5.39464959638957
30
0
41
1
10
-0.394976888875277
20
5.23009323967923
30
0
41
1
10
-0.394976888875277
20
5.01004043280773
30
0
41
1
10
-0.394976888875277
20
4.73424635098459
30
0
41
1
10
-0.394976888875277
20
4.45727268701475
30
0
41
1
10
-0.394976888875277
20
4.23485549893473
30
0
41
1
10
-0.394976888875277
20
4.01202370501235
30
0
41
1
10
-0.394976888875277
20
3.78891122719537
30
0
41
1
10
-0.394976888875277
20
3.56495483105906
30
0
41
1
10
-0.394976888875277
20
3.39680987972659
30
0
41
1
10
-0.394976888875277
20
3.22842375341895
30
0
41
1
10
-0.394976888875277
20
3.059810418111
30
0
41
1
10
-0.394976888875277
20
2.8909823977028
30
0
41
1
10
-0.394976888875277
20
2.72195226694598
30
0
41
1
10
-0.394976888875277
20
2.55273347612192
30
0
41
1
10
-0.394976888875277
20
2.32677132899653
30
0
41
1
10
-0.394976888875277
20
2.04413494172988
30
0
41
1
10
-0.394976888875277
20
1.76103364213171
30
0
41
1
10
-0.394976888875277
20
1.53414034188106
30
0
41
1
10
-0.394976888875277
20
1.30710778092657
30
0
41
1
10
-0.394976888875277
20
1.02331117955293
30
0
41
1
10
-0.394976888875277
20
0.739285270700805
30
0
41
1
10
-0.394976888875277
20
0.511793465291419
30
0
41
1
10
-0.394976888875277
20
0.284255651633828
30
0
41
1
10
-0.394976888875277
20
0.113940785691142
30
0
41
1
10
-0.394976888875277
20
-0.113940710254781
30
0
41
1
10
-0.394976888875277
20
-0.284255529060374
30
0
41
1
10
-0.394976888875277
20
-0.511793437672537
30
0
41
1
10
-0.394976888875277
20
-0.739285367979676
30
0
41
1
10
-0.394976888875277
20
-1.02331127037311
30
0
41
1
10
-0.394976888875277
20
-1.30710778382377
30
0
41
1
10
-0.394976888875277
20
-1.5341403296716
30
0
41
1
10
-0.394976888875277
20
-1.76103363894634
30
0
41
1
10
-0.394976888875277
20
-2.04413494925814
30
0
41
1
10
-0.394976888875277
20
-2.32677134022904
30
0
41
1
10
-0.394976888875277
20
-2.55273348262537
30
0
41
1
10
-0.394976888875277
20
-2.72195226954381
30
0
41
1
10
-0.394976888875277
20
-2.89098240073267
30
0
41
1
10
-0.394976888875277
20
-3.0598104259646
30
0
41
1
10
-0.394976888875277
20
-3.22842376611092
30
0
41
1
10
-0.394976888875277
20
-3.39680989194969
30
0
41
1
10
-0.394976888875277
20
-3.56495483760449
30
0
41
1
10
-0.394976888875277
20
-3.78891122807616
30
0
41
1
10
-0.394976888875277
20
-4.01202371079111
30
0
41
1
10
-0.394976888875277
20
-4.23485551416817
30
0
41
1
10
-0.394976888875277
20
-4.45727269731412
30
0
41
1
10
-0.394976888875277
20
-4.73424635187584
30
0
41
1
10
-0.394976888875277
20
-5.01004044057382
30
0
41
1
10
-0.394976888875277
20
-5.23009325725474
30
0
41
1
10
-0.394976888875277
20
-5.3946496075913
30
0
41
1
10
-0.394976888875277
20
-5.55878626292699
30
0
41
1
10
-0.394976888875277
20
-5.77715986283081
30
0
41
1
10
-0.394976888875277
20
-6.04874628972615
30
0
41
1
10
-0.394976888875277
20
-6.31870140422603
30
0
41
1
10
-0.394976888875277
20
-6.53380469590687
30
0
41
1
10
-0.394976888875277
20
-6.69449764270937
30
0
41
1
10
-0.394976888875277
20
-6.85461933312916
30
0
41
1
10
-0.394976888875277
20
-7.0141484843229
30
0
41
1
10
-0.394976888875277
20
-7.17306224411729
30
0
41
1
10
-0.394976888875277
20
-7.33133746701321
30
0
41
1
10
-0.394976888875277
20
-7.48895033436864
30
0
41
1
10
-0.394976888875277
20
-7.69829835508997
30
0
41
1
10
-0.394976888875277
20
-7.90586818037892
30
0
41
1
10
-0.394976888875277
20
-8.11226027279039
30
0
41
1
10
-0.394976888875277
20
-8.2661644330679
30
0
41
1
10
-0.394976888875277
20
-8.41923988480929
30
0
41
1
10
-0.394976888875277
20
-8.57145466254968
30
0
41
1
10
-0.394976888875277
20
-8.71291316401616
30
0
41
1
10
-0.394976888875277
20
-8.80342718165787
30
0
41
1
10
-0.394976888875277
20
-8.84367709064932
30
0
0
SPLINE
5
2B6
100
AcDbEntity
8
SK1
62
256
6
ByLayer
370
-1
48
1
60
0
100
AcDbSpline
70
4
71
3
72
22
73
18
40
0
40
0
40
0
40
0
40
0.0262443072779767
40
0.0262443072779767
40
0.0530261598359551
40
0.0530261598359551
40
0.0713560269116113
40
0.0713560269116113
40
0.0895874789183669
40
0.0895874789183669
40
0.119482414173387
40
0.119482414173387
40
0.178619309388599
40
0.178619309388599
40
0.388022970756328
40
0.388022970756328
40
1
40
1
40
1
40
1
41
1
10
-0.394976888875306
20
-8.84367709064935
30
0
41
1
10
-0.389542951114123
20
-8.84836739225321
30
0
41
1
10
-0.38361761822452
20
-8.85281017550852
30
0
41
1
10
-0.370682626864181
20
-8.86041045814386
30
0
41
1
10
-0.363425156634577
20
-8.8636237346752
30
0
41
1
10
-0.350979132627998
20
-8.86669430957005
30
0
41
1
10
-0.345738215723259
20
-8.86730142489066
30
0
41
1
10
-0.335836183543393
20
-8.86711396858499
30
0
41
1
10
-0.331061397842149
20
-8.86633907400611
30
0
41
1
10
-0.319537062811861
20
-8.86303221092197
30
0
41
1
10
-0.313226665980608
20
-8.85969602071751
30
0
41
1
10
-0.296826119355018
20
-8.84820612175884
30
0
41
1
10
-0.288455106256038
20
-8.83838920078591
30
0
41
1
10
-0.256352879433592
20
-8.79194040773859
30
0
41
1
10
-0.244000217706741
20
-8.74865074602249
30
0
41
1
10
-0.20459694875683
20
-8.57840743834066
30
0
41
1
10
-0.200000000000046
20
-8.44032653464743
30
0
41
1
10
-0.200000000000046
20
-8.30026102716576
30
0
0
SPLINE
5
2B7
100
AcDbEntity
8
SK1
62
256
6
ByLayer
370
-1
48
1
60
0
100
AcDbSpline
70
4
71
3
72
8
73
4
40
0
40
0
40
0
40
0
40
1
40
1
40
1
40
1
41
1
10
-1.30710678118655
20
-10.1587398893064
30
0
41
1
10
-1.37345826003019
20
-10.462900750304
30
0
41
1
10
-1.43729501991118
20
-10.7581721706254
30
0
41
1
10
-1.49503997793931
20
-11.040492725988
30
0
0
SPLINE
5
2B8
100
AcDbEntity
8
SK1
62
256
6
ByLayer
370
-1
48
1
60
0
100
AcDbSpline
70
4
71
3
72
22
73
18
40
0
40
0
40
0
40
0
40
0.0408143318448019
40
0.0408143318448019
40
0.0823238379249275
40
0.0823238379249275
40
0.11372095285412
40
0.11372095285412
40
0.144932197215017
40
0.144932197215017
40
0.197660058610768
40
0.197660058610768
40
0.330398680892429
40
0.330398680892429
40
0.7961465287406
40
0.7961465287406
40
1
40
1
40
1
40
1
41
1
10
-0.394976888875306
20
-13.8446015176317
30
0
41
1
10
-0.415529790261076
20
-13.8434141920457
30
0
41
1
10
-0.438023862068945
20
-13.8421906142049
30
0
41
1
10
-0.487323358249569
20
-13.839852806094
30
0
41
1
10
-0.514949567731406
20
-13.838715255789
30
0
41
1
10
-0.564998479150944
20
-13.8371275341038
30
0
41
1
10
-0.587548389084617
20
-13.8365661665552
30
0
41
1
10
-0.630650628256433
20
-13.8357847646162
30
0
41
1
10
-0.65168662600621
20
-13.8355497899408
30
0
41
1
10
-0.704057943978796
20
-13.8352354634071
30
0
41
1
10
-0.733639816302173
20
-13.8353475024216
30
0
41
1
10
-0.825709970548559
20
-13.8360511212859
30
0
41
1
10
-0.875560207478117
20
-13.8370030568201
30
0
41
1
10
-1.06892215464373
20
-13.8386946820176
30
0
41
1
10
-1.15211970197089
20
-13.8331761627793
30
0
41
1
10
-1.25477579685599
20
-13.8083802441857
30
0
41
1
10
-1.28234196594045
20
-13.7986429235452
30
0
41
1
10
-1.30710678118774
20
-13.7865566101746
30
0
0
SPLINE
5
2B9
100
AcDbEntity
8
SK1
62
256
6
ByLayer
370
-1
48
1
60
0
100
AcDbSpline
70
4
71
3
72
22
73
18
40
0
40
0
40
0
40
0
40
0.0408147344505655
40
0.0408147344505655
40
0.0823246360973623
40
0.0823246360973623
40
0.11372261745344
40
0.11372261745344
40
0.144934701087259
40
0.144934701087259
40
0.197665007224112
40
0.197665007224112
40
0.33040544055033
40
0.33040544055033
40
0.796194728356619
40
0.796194728356619
40
1
40
1
40
1
40
1
41
1
10
-0.394976888875306
20
8.84367713160478
30
0
41
1
10
-0.415530215309701
20
8.82593667322982
30
0
41
1
10
-0.438024800204772
20
8.80957985538208
30
0
41
1
10
-0.487325293779889
20
8.78303134973663
30
0
41
1
10
-0.514951999079756
20
8.77274213062751
30
0
41
1
10
-0.565001937942327
20
8.76474254720472
30
0
41
1
10
-0.587552469011627
20
8.76458323427113
30
0
41
1
10
-0.630655747254281
20
8.77081200815411
30
0
41
1
10
-0.651692178184817
20
8.77715257726771
30
0
41
1
10
-0.704065181802775
20
8.79976761111271
30
0
41
1
10
-0.733648115235553
20
8.81997790381814
30
0
41
1
10
-0.825719104909467
20
8.89801386912853
30
0
41
1
10
-0.87556901327963
20
8.96773398755346
30
0
41
1
10
-1.06893927136861
20
9.28356420656291
30
0
41
1
10
-1.15214069057586
20
9.55465336421932
30
0
41
1
10
-1.25478896819348
20
9.93076839138314
30
0
41
1
10
-1.28234775314843
20
10.0452428942104
30
0
41
1
10
-1.30710678118655
20
10.158740231062
30
0
0
SPLINE
5
2BA
100
AcDbEntity
8
SK1
62
256
6
ByLayer
370
-1
48
1
60
0
100
AcDbSpline
70
4
71
3
72
30
73
26
40
0
40
0
40
0
40
0
40
0.337356144457301
40
0.337356144457301
40
0.42157597767041
40
0.42157597767041
40
0.437874107250038
40
0.437874107250038
40
0.454364442069752
40
0.454364442069752
40
0.461028131499309
40
0.461028131499309
40
0.467806544891149
40
0.467806544891149
40
0.473795325154757
40
0.473795325154757
40
0.48126821182169
40
0.48126821182169
40
0.494808395814795
40
0.494808395814795
40
0.541074996092577
40
0.541074996092577
40
0.762240119996875
40
0.762240119996875
40
1
40
1
40
1
40
1
41
1
10
-1.69999999999999
20
11.2280220060487
30
0
41
1
10
-1.69946916606258
20
11.3137369121306
30
0
41
1
10
-1.69760698951401
20
11.3977159066568
30
0
41
1
10
-1.6791539950591
20
11.4861641148448
30
0
41
1
10
-1.67485161269093
20
11.5034903278106
30
0
41
1
10
-1.66472348322387
20
11.5185927019809
30
0
41
1
10
-1.66287561133947
20
11.5208485486586
30
0
41
1
10
-1.65846712438554
20
11.5244780077491
30
0
41
1
10
-1.65588139700782
20
11.5259216840056
30
0
41
1
10
-1.65120237922662
20
11.5262080249201
30
0
41
1
10
-1.64969999085093
20
11.5260699315649
30
0
41
1
10
-1.64639509936109
20
11.5251018368619
30
0
41
1
10
-1.644535573935
20
11.5242285205423
30
0
41
1
10
-1.64096575012093
20
11.5218347964196
30
0
41
1
10
-1.63922228520073
20
11.5203725440788
30
0
41
1
10
-1.63551181607841
20
11.5167150831808
30
0
41
1
10
-1.63353447482038
20
11.5143854599667
30
0
41
1
10
-1.6284525766728
20
11.5077207076067
30
0
41
1
10
-1.62558655622587
20
11.503158535607
30
0
41
1
10
-1.61425465619672
20
11.4834730358484
30
0
41
1
10
-1.60795390305069
20
11.4683447794645
30
0
41
1
10
-1.57473396464078
20
11.3837322853384
30
0
41
1
10
-1.55851998016681
20
11.3177617172869
30
0
41
1
10
-1.52474280037759
20
11.181056199993
30
0
41
1
10
-1.50941805236008
20
11.1107884016648
30
0
41
1
10
-1.49503997794355
20
11.0404930364397
30
0
0
LINE
5
47
100
AcDbEntity
8
1
62
256
6
ByLayer
370
-1
48
1
60
0
100
AcDbLine
10
31.532694
20
26.858828
30
0
11
30.568778
21
26.763408
31
0
39
0
210
0
220
0
230
1
0
LINE
5
49
100
AcDbEntity
8
1
62
256
6
ByLayer
370
-1
48
1
60
0
100
AcDbLine
10
37.28378
20
10.497914
30
0
11
38.246152
21
10.593181
31
0
39
0
210
0
220
0
230
1
0
LINE
5
4A
100
AcDbEntity
8
1
62
256
6
ByLayer
370
-1
48
1
60
0
100
AcDbLine
10
35.690015
20
13.620351
30
0
11
36.594217
21
13.70986
31
0
39
0
210
0
220
0
230
1
0
LINE
5
4B
100
AcDbEntity
8
1
62
256
6
ByLayer
370
-1
48
1
60
0
100
AcDbLine
10
0.3
20
-20
30
0
11
20.015102
21
-20
31
0
39
0
210
0
220
0
230
1
0
LINE
5
4C
100
AcDbEntity
8
1
62
256
6
ByLayer
370
-1
48
1
60
0
100
AcDbLine
10
20.920792
20
20
30
0
11
0.3
21
20
31
0
39
0
210
0
220
0
230
1
0
LINE
5
4D
100
AcDbEntity
8
1
62
256
6
ByLayer
370
-1
48
1
60
0
100
AcDbLine
10
0.3
20
20
30
0
11
0
21
19.7
31
0
39
0
210
0
220
0
230
1
0
LINE
5
4E
100
AcDbEntity
8
1
62
256
6
ByLayer
370
-1
48
1
60
0
100
AcDbLine
10
0
20
-19.7
30
0
11
0.3
21
-20
31
0
39
0
210
0
220
0
230
1
0
LINE
5
4F
100
AcDbEntity
8
1
62
256
6
ByLayer
370
-1
48
1
60
0
100
AcDbLine
10
22.589082
20
26.226143
30
0
11
20.920792
21
20
31
0
39
0
210
0
220
0
230
1
0
LINE
5
50
100
AcDbEntity
8
1
62
256
6
ByLayer
370
-1
48
1
60
0
100
AcDbLine
10
18.687318
20
4.143145
30
0
11
16.333656
21
3.512483
31
0
39
0
210
0
220
0
230
1
0
LINE
5
51
100
AcDbEntity
8
1
62
256
6
ByLayer
370
-1
48
1
60
0
100
AcDbLine
10
17.065429
20
0.29215
30
0
11
19.541421
21
0.95559
31
0
39
0
210
0
220
0
230
1
0
LINE
5
52
100
AcDbEntity
8
1
62
256
6
ByLayer
370
-1
48
1
60
0
100
AcDbLine
10
19.541421
20
0.95559
30
0
11
19.647487
21
1.139302
31
0
39
0
210
0
220
0
230
1
0
LINE
5
53
100
AcDbEntity
8
1
62
256
6
ByLayer
370
-1
48
1
60
0
100
AcDbLine
10
18.87103
20
4.037079
30
0
11
18.687318
21
4.143145
31
0
39
0
210
0
220
0
230
1
0
LINE
5
54
100
AcDbEntity
8
1
62
256
6
ByLayer
370
-1
48
1
60
0
100
AcDbLine
10
16.647171
20
0.404222
30
0
11
17.065429
21
0.29215
31
0
39
0
210
0
220
0
230
1
0
LINE
5
55
100
AcDbEntity
8
1
62
256
6
ByLayer
370
-1
48
1
60
0
100
AcDbLine
10
39.372535
20
17.076779
30
0
11
39.498456
21
17.089244
31
0
39
0
210
0
220
0
230
1
0
LINE
5
56
100
AcDbEntity
8
1
62
256
6
ByLayer
370
-1
48
1
60
0
100
AcDbLine
10
38.794102
20
24.204466
30
0
11
38.668181
21
24.192001
31
0
39
0
210
0
220
0
230
1
0
LINE
5
57
100
AcDbEntity
8
1
62
256
6
ByLayer
370
-1
48
1
60
0
100
AcDbLine
10
38.605903
20
10.289543
30
0
11
39.325125
21
10.360087
31
0
39
0
210
0
220
0
230
1
0
LINE
5
58
100
AcDbEntity
8
1
62
256
6
ByLayer
370
-1
48
1
60
0
100
AcDbLine
10
43.185399
20
14.08714
30
0
11
43.906155
21
14.157834
31
0
39
0
210
0
220
0
230
1
0
LINE
5
59
100
AcDbEntity
8
1
62
256
6
ByLayer
370
-1
48
1
60
0
100
AcDbLine
10
29.351817
20
26.730453
30
0
11
29.351843
21
26.775206
31
0
39
0
210
0
220
0
230
1
0
LINE
5
5A
100
AcDbEntity
8
4
62
256
6
ByLayer
370
-1
48
0.05
60
0
100
AcDbLine
10
0
20
0
30
0
11
50
21
0
31
0
39
0
210
0
220
0
230
1
0
LINE
5
5C
100
AcDbEntity
8
SK4
62
256
6
ByLayer
370
-1
48
0.05
60
0
100
AcDbLine
10
-29
20
0
30
0
11
55
21
0
31
0
39
0
210
0
220
0
230
1
0
LINE
5
5E
100
AcDbEntity
8
80
62
256
6
ByLayer
370
-1
48
1
60
0
100
AcDbLine
10
0
20
0
30
0
11
-5
21
0
31
0
39
0
210
0
220
0
230
1
0
LINE
5
5F
100
AcDbEntity
8
81
62
256
6
ByLayer
370
-1
48
1
60
0
100
AcDbLine
10
50
20
27
30
0
11
55
21
27
31
0
39
0
210
0
220
0
230
1
0
LINE
5
60
100
AcDbEntity
8
1
62
256
6
ByLayer
370
-1
48
1
60
0
100
AcDbLine
10
44.020165
20
13.942802
30
0
11
44.020668
21
13.772968
31
0
39
0
210
0
220
0
230
1
0
LINE
5
61
100
AcDbEntity
8
1
62
256
6
ByLayer
370
-1
48
1
60
0
100
AcDbLine
10
30.947609
20
21.953661
30
0
11
35.008144
21
14.850093
31
0
39
0
210
0
220
0
230
1
0
LINE
5
62
100
AcDbEntity
8
1
62
256
6
ByLayer
370
-1
48
1
60
0
100
AcDbLine
10
0.3
20
20
30
0
11
0.3
21
-20
31
0
39
0
210
0
220
0
230
1
0
LINE
5
63
100
AcDbEntity
8
1
62
256
6
ByLayer
370
-1
48
1
60
0
100
AcDbLine
10
35.478825
20
13.856281
30
0
11
36.238991
21
12.526434
31
0
39
0
210
0
220
0
230
1
0
LINE
5
64
100
AcDbEntity
8
1
62
256
6
ByLayer
370
-1
48
1
60
0
100
AcDbLine
10
29.235424
20
-10.664331
30
0
11
45.144367
21
5.443634
31
0
39
0
210
0
220
0
230
1
0
LINE
5
65
100
AcDbEntity
8
1
62
256
6
ByLayer
370
-1
48
1
60
0
100
AcDbLine
10
36.190214
20
12.288793
30
0
11
36.232503
21
12.33186
31
0
39
0
210
0
220
0
230
1
0
LINE
5
66
100
AcDbEntity
8
1
62
256
6
ByLayer
370
-1
48
1
60
0
100
AcDbLine
10
36.232503
20
12.33186
30
0
11
36.238991
21
12.526434
31
0
39
0
210
0
220
0
230
1
0
LINE
5
67
100
AcDbEntity
8
1
62
256
6
ByLayer
370
-1
48
1
60
0
100
AcDbLine
10
9.076795
20
19.122283
30
0
11
6.923205
21
19.122283
31
0
39
0
210
0
220
0
230
1
0
LINE
5
68
100
AcDbEntity
8
1
62
256
6
ByLayer
370
-1
48
1
60
0
100
AcDbLine
10
28.248186
20
26.300309
30
0
11
28.373663
21
26.286171
31
0
39
0
210
0
220
0
230
1
0
LINE
5
69
100
AcDbEntity
8
1
62
256
6
ByLayer
370
-1
48
1
60
0
100
AcDbLine
10
42.186798
20
13.362651
30
0
11
43.10873
21
13.772976
31
0
39
0
210
0
220
0
230
1
0
LINE
5
6A
100
AcDbEntity
8
1
62
256
6
ByLayer
370
-1
48
1
60
0
100
AcDbLine
10
6.663397
20
-19.024574
30
0
11
6.663397
21
-6.16973
31
0
39
0
210
0
220
0
230
1
0
LINE
5
6B
100
AcDbEntity
8
1
62
256
6
ByLayer
370
-1
48
1
60
0
100
AcDbLine
10
6.923205
20
-19.122283
30
0
11
9.076795
21
-19.122283
31
0
39
0
210
0
220
0
230
1
0
LINE
5
6C
100
AcDbEntity
8
1
62
256
6
ByLayer
370
-1
48
1
60
0
100
AcDbLine
10
6.923205
20
-19.122283
30
0
11
6.923205
21
-5.85989
31
0
39
0
210
0
220
0
230
1
0
LINE
5
6D
100
AcDbEntity
8
1
62
256
6
ByLayer
370
-1
48
1
60
0
100
AcDbLine
10
28.248186
20
26.300309
30
0
11
25.576199
21
26.300309
31
0
39
0
210
0
220
0
230
1
0
LINE
5
6E
100
AcDbEntity
8
1
62
256
6
ByLayer
370
-1
48
1
60
0
100
AcDbLine
10
17.080365
20
-4.734881
30
0
11
17.080365
21
-18.47854
31
0
39
0
210
0
220
0
230
1
0
LINE
5
6F
100
AcDbEntity
8
1
62
256
6
ByLayer
370
-1
48
1
60
0
100
AcDbLine
10
16.30621
20
-1.845698
30
0
11
17.080365
21
-4.734881
31
0
39
0
210
0
220
0
230
1
0
LINE
5
70
100
AcDbEntity
8
1
62
256
6
ByLayer
370
-1
48
1
60
0
100
AcDbLine
10
40.844233
20
9.769881
30
0
11
43.10873
21
13.772976
31
0
39
0
210
0
220
0
230
1
0
LINE
5
71
100
AcDbEntity
8
1
62
256
6
ByLayer
370
-1
48
1
60
0
100
AcDbLine
10
9.336603
20
-19.024574
30
0
11
9.336603
21
-6.16973
31
0
39
0
210
0
220
0
230
1
0
LINE
5
72
100
AcDbEntity
8
1
62
256
6
ByLayer
370
-1
48
1
60
0
100
AcDbLine
10
6.923205
20
5.85989
30
0
11
6.923205
21
19.122283
31
0
39
0
210
0
220
0
230
1
0
LINE
5
73
100
AcDbEntity
8
1
62
256
6
ByLayer
370
-1
48
1
60
0
100
AcDbLine
10
9.336603
20
6.16973
30
0
11
9.336603
21
19.024574
31
0
39
0
210
0
220
0
230
1
0
LINE
5
74
100
AcDbEntity
8
1
62
256
6
ByLayer
370
-1
48
1
60
0
100
AcDbLine
10
25.576199
20
26.300309
30
0
11
29.235424
21
-10.664331
31
0
39
0
210
0
220
0
230
1
0
LINE
5
75
100
AcDbEntity
8
1
62
256
6
ByLayer
370
-1
48
1
60
0
100
AcDbLine
10
36.232503
20
12.33186
30
0
11
28.248186
21
26.300309
31
0
39
0
210
0
220
0
230
1
0
LINE
5
76
100
AcDbEntity
8
1
62
256
6
ByLayer
370
-1
48
1
60
0
100
AcDbLine
10
22.68771
20
26.291687
30
0
11
25.576199
21
26.300309
31
0
39
0
210
0
220
0
230
1
0
LINE
5
77
100
AcDbEntity
8
1
62
256
6
ByLayer
370
-1
48
1
60
0
100
AcDbLine
10
39.640396
20
8.865176
30
0
11
41.768044
21
12.626238
31
0
39
0
210
0
220
0
230
1
0
LINE
5
78
100
AcDbEntity
8
1
62
256
6
ByLayer
370
-1
48
1
60
0
100
AcDbLine
10
45.144367
20
5.443634
30
0
11
45.119504
21
13.772976
31
0
39
0
210
0
220
0
230
1
0
LINE
5
79
100
AcDbEntity
8
1
62
256
6
ByLayer
370
-1
48
1
60
0
100
AcDbLine
10
9.076795
20
5.85989
30
0
11
9.076795
21
19.122283
31
0
39
0
210
0
220
0
230
1
0
LINE
5
7A
100
AcDbEntity
8
1
62
256
6
ByLayer
370
-1
48
1
60
0
100
AcDbLine
10
20.424666
20
-19.585312
30
0
11
20.015102
21
-20
31
0
39
0
210
0
220
0
230
1
0
LINE
5
7B
100
AcDbEntity
8
1
62
256
6
ByLayer
370
-1
48
1
60
0
100
AcDbLine
10
20.920792
20
20
30
0
11
20.920792
21
19.595386
31
0
39
0
210
0
220
0
230
1
0
LINE
5
7C
100
AcDbEntity
8
1
62
256
6
ByLayer
370
-1
48
1
60
0
100
AcDbLine
10
21.065143
20
-18.936823
30
0
11
20.424666
21
-19.585312
31
0
39
0
210
0
220
0
230
1
0
LINE
5
7D
100
AcDbEntity
8
1
62
256
6
ByLayer
370
-1
48
1
60
0
100
AcDbLine
10
21.065143
20
20.145452
30
0
11
21.065143
21
-18.936823
31
0
39
0
210
0
220
0
230
1
0
LINE
5
7E
100
AcDbEntity
8
1
62
256
6
ByLayer
370
-1
48
1
60
0
100
AcDbLine
10
17.096516
20
-4.79516
30
0
11
17.096516
21
0.300389
31
0
39
0
210
0
220
0
230
1
0
LINE
5
7F
100
AcDbEntity
8
1
62
256
6
ByLayer
370
-1
48
1
60
0
100
AcDbLine
10
17.096516
20
-4.79516
30
0
11
17.080365
21
-4.734881
31
0
39
0
210
0
220
0
230
1
0
LINE
5
80
100
AcDbEntity
8
1
62
256
6
ByLayer
370
-1
48
1
60
0
100
AcDbLine
10
0
20
19.7
30
0
11
0
21
-19.7
31
0
39
0
210
0
220
0
230
1
0
LINE
5
81
100
AcDbEntity
8
1
62
256
6
ByLayer
370
-1
48
1
60
0
100
AcDbLine
10
21.065143
20
-18.936823
30
0
11
29.235424
21
-10.664331
31
0
39
0
210
0
220
0
230
1
0
LINE
5
82
100
AcDbEntity
8
1
62
256
6
ByLayer
370
-1
48
1
60
0
100
AcDbLine
10
42.514936
20
13.942802
30
0
11
44.020165
21
13.942802
31
0
39
0
210
0
220
0
230
1
0
LINE
5
83
100
AcDbEntity
8
1
62
256
6
ByLayer
370
-1
48
1
60
0
100
AcDbLine
10
9.076795
20
-19.122283
30
0
11
9.076795
21
-5.85989
31
0
39
0
210
0
220
0
230
1
0
LINE
5
84
100
AcDbEntity
8
1
62
256
6
ByLayer
370
-1
48
1
60
0
100
AcDbLine
10
9.076795
20
-5.85989
30
0
11
6.923205
21
-5.85989
31
0
39
0
210
0
220
0
230
1
0
LINE
5
85
100
AcDbEntity
8
1
62
256
6
ByLayer
370
-1
48
1
60
0
100
AcDbLine
10
6.663397
20
6.16973
30
0
11
6.663397
21
19.024574
31
0
39
0
210
0
220
0
230
1
0
LINE
5
86
100
AcDbEntity
8
1
62
256
6
ByLayer
370
-1
48
1
60
0
100
AcDbLine
10
43.389245
20
14.10714
30
0
11
43.389731
21
13.942917
31
0
39
0
210
0
220
0
230
1
0
LINE
5
87
100
AcDbEntity
8
1
62
256
6
ByLayer
370
-1
48
1
60
0
100
AcDbLine
10
17.080365
20
18.47854
30
0
11
17.080365
21
3.712618
31
0
39
0
210
0
220
0
230
1
0
LINE
5
88
100
AcDbEntity
8
1
62
256
6
ByLayer
370
-1
48
1
60
0
100
AcDbLine
10
43.10873
20
13.772976
30
0
11
45.119504
21
13.772976
31
0
39
0
210
0
220
0
230
1
0
LINE
5
89
100
AcDbEntity
8
1
62
256
6
ByLayer
370
-1
48
1
60
0
100
AcDbLine
10
6.923205
20
5.85989
30
0
11
9.076795
21
5.85989
31
0
39
0
210
0
220
0
230
1
0
LINE
5
8A
100
AcDbEntity
8
1
62
256
6
ByLayer
370
-1
48
1
60
0
100
AcDbLine
10
16.30621
20
-1.845698
30
0
11
16.30621
21
1.796924
31
0
39
0
210
0
220
0
230
1
0
LINE
5
8B
100
AcDbEntity
8
1
62
256
6
ByLayer
370
-1
48
1
60
0
100
AcDbLine
10
30.380687
20
22.775049
30
0
11
28.373663
21
26.286171
31
0
39
0
210
0
220
0
230
1
0
LINE
5
8C
100
AcDbEntity
8
SK1
62
256
6
ByLayer
370
-1
48
1
60
0
100
AcDbLine
10
-23.75
20
2.318346
30
0
11
-23.75
21
-2.318346
31
0
39
0
210
0
220
0
230
1
0
LINE
5
8E
100
AcDbEntity
8
SK1
62
256
6
ByLayer
370
-1
48
1
60
0
100
AcDbLine
10
-0.2
20
14.083485
30
0
11
-0.2
21
14.003438
31
0
39
0
210
0
220
0
230
1
0
LINE
5
8F
100
AcDbEntity
8
1
62
256
6
ByLayer
370
-1
48
1
60
0
100
AcDbLine
10
28.608439
20
26.757955
30
0
11
28.608457
21
26.787805
31
0
39
0
210
0
220
0
230
1
0
LINE
5
90
100
AcDbEntity
8
1
62
256
6
ByLayer
370
-1
48
1
60
0
100
AcDbLine
10
28.625523
20
26.756961
30
0
11
28.625534
21
26.775418
31
0
39
0
210
0
220
0
230
1
0
LINE
5
91
100
AcDbEntity
8
1
62
256
6
ByLayer
370
-1
48
1
60
0
100
AcDbLine
10
30.253148
20
26.723422
30
0
11
30.253201
21
26.812686
31
0
39
0
210
0
220
0
230
1
0
LINE
5
92
100
AcDbEntity
8
1
62
256
6
ByLayer
370
-1
48
1
60
0
100
AcDbLine
10
39.327944
20
19.242002
30
0
11
39.297665
21
19.239005
31
0
39
0
210
0
220
0
230
1
0
LINE
5
93
100
AcDbEntity
8
1
62
256
6
ByLayer
370
-1
48
1
60
0
100
AcDbLine
10
38.80469
20
19.219985
30
0
11
39.027103
21
19.242002
31
0
39
0
210
0
220
0
230
1
0
LINE
5
94
100
AcDbEntity
8
1
62
256
6
ByLayer
370
-1
48
1
60
0
100
AcDbLine
10
39.0187
20
22.057062
30
0
11
38.796287
21
22.035045
31
0
39
0
210
0
220
0
230
1
0
LINE
5
95
100
AcDbEntity
8
1
62
256
6
ByLayer
370
-1
48
1
60
0
100
AcDbLine
10
38.362882
20
22.270855
30
0
11
38.618473
21
22.296157
31
0
39
0
210
0
220
0
230
1
0
LINE
5
96
100
AcDbEntity
8
1
62
256
6
ByLayer
370
-1
48
1
60
0
100
AcDbLine
10
40.084892
20
19.299559
30
0
11
40.341304
21
19.324942
31
0
39
0
210
0
220
0
230
1
0
LINE
5
97
100
AcDbEntity
8
1
62
256
6
ByLayer
370
-1
48
1
60
0
100
AcDbLine
10
40.651731
20
20.3094
30
0
11
40.908143
21
20.334783
31
0
39
0
210
0
220
0
230
1
0
LINE
5
98
100
AcDbEntity
8
1
62
256
6
ByLayer
370
-1
48
1
60
0
100
AcDbLine
10
40.649832
20
20.94563
30
0
11
40.906244
21
20.971013
31
0
39
0
210
0
220
0
230
1
0
LINE
5
99
100
AcDbEntity
8
1
62
256
6
ByLayer
370
-1
48
1
60
0
100
AcDbLine
10
40.076964
20
21.955471
30
0
11
40.333376
21
21.980854
31
0
39
0
210
0
220
0
230
1
0
LINE
5
9A
100
AcDbEntity
8
1
62
256
6
ByLayer
370
-1
48
1
60
0
100
AcDbLine
10
38.372692
20
18.984175
30
0
11
38.628284
21
19.009477
31
0
39
0
210
0
220
0
230
1
0
LINE
5
9B
100
AcDbEntity
8
1
62
256
6
ByLayer
370
-1
48
1
60
0
100
AcDbLine
10
16.638378
20
1.885928
30
0
11
17.065429
21
0.29215
31
0
39
0
210
0
220
0
230
1
0
LINE
5
9C
100
AcDbEntity
8
1
62
256
6
ByLayer
370
-1
48
1
60
0
100
AcDbLine
10
16.321082
20
3.070091
30
0
11
16.638378
21
1.885928
31
0
39
0
210
0
220
0
230
1
0
LINE
5
9D
100
AcDbEntity
8
1
62
256
6
ByLayer
370
-1
48
1
60
0
100
AcDbLine
10
16.338999
20
0.219518
30
0
11
16.306215
21
0.341872
31
0
39
0
210
0
220
0
230
1
0
LINE
5
9E
100
AcDbEntity
8
1
62
256
6
ByLayer
370
-1
48
1
60
0
100
AcDbLine
10
16.647171
20
0.404222
30
0
11
16.306245
21
1.676574
31
0
39
0
210
0
220
0
230
1
0
LINE
5
9F
100
AcDbEntity
8
1
62
256
6
ByLayer
370
-1
48
1
60
0
100
AcDbLine
10
18.687318
20
4.143145
30
0
11
19.541421
21
0.95559
31
0
39
0
210
0
220
0
230
1
0
LINE
5
A0
100
AcDbEntity
8
1
62
256
6
ByLayer
370
-1
48
1
60
0
100
AcDbLine
10
19.259258
20
2.58819
30
0
11
19.647487
21
1.139302
31
0
39
0
210
0
220
0
230
1
0
LINE
5
A1
100
AcDbEntity
8
1
62
256
6
ByLayer
370
-1
48
1
60
0
100
AcDbLine
10
18.87103
20
4.037079
30
0
11
19.259258
21
2.58819
31
0
39
0
210
0
220
0
230
1
0
LINE
5
A2
100
AcDbEntity
8
1
62
256
6
ByLayer
370
-1
48
1
60
0
100
AcDbLine
10
44.540602
20
16.307045
30
0
11
43.900289
21
16.307045
31
0
39
0
210
0
220
0
230
1
0
LINE
5
A3
100
AcDbEntity
8
1
62
256
6
ByLayer
370
-1
48
1
60
0
100
AcDbLine
10
44.507936
20
15.861865
30
0
11
43.648434
21
15.861865
31
0
39
0
210
0
220
0
230
1
0
LINE
5
A4
100
AcDbEntity
8
1
62
256
6
ByLayer
370
-1
48
1
60
0
100
AcDbLine
10
44.436714
20
15.537457
30
0
11
43.472285
21
15.537457
31
0
39
0
210
0
220
0
230
1
0
LINE
5
A5
100
AcDbEntity
8
1
62
256
6
ByLayer
370
-1
48
1
60
0
100
AcDbLine
10
44.43736
20
15.284467
30
0
11
43.302505
21
15.284467
31
0
39
0
210
0
220
0
230
1
0
LINE
5
A6
100
AcDbEntity
8
1
62
256
6
ByLayer
370
-1
48
1
60
0
100
AcDbLine
10
43.84936
20
14.155055
30
0
11
43.128605
21
14.084361
31
0
39
0
210
0
220
0
230
1
0
LINE
5
A7
100
AcDbEntity
8
1
62
256
6
ByLayer
370
-1
48
1
60
0
100
AcDbLine
10
42.595008
20
14.084361
30
0
11
43.128605
21
14.084361
31
0
39
0
210
0
220
0
230
1
0
LINE
5
A8
100
AcDbEntity
8
1
62
256
6
ByLayer
370
-1
48
1
60
0
100
AcDbLine
10
36.38928
20
10.284912
30
0
11
38.511245
21
10.284912
31
0
39
0
210
0
220
0
230
1
0
LINE
5
A9
100
AcDbEntity
8
1
62
256
6
ByLayer
370
-1
48
1
60
0
100
AcDbLine
10
29.478186
20
24.353981
30
0
11
30.058065
21
24.353981
31
0
39
0
210
0
220
0
230
1
0
LINE
5
AA
100
AcDbEntity
8
1
62
256
6
ByLayer
370
-1
48
1
60
0
100
AcDbLine
10
43.84936
20
14.155055
30
0
11
42.634999
21
14.155055
31
0
39
0
210
0
220
0
230
1
0
LINE
5
AB
100
AcDbEntity
8
1
62
256
6
ByLayer
370
-1
48
1
60
0
100
AcDbLine
10
44.43254
20
17.17219
30
0
11
44.404891
21
17.17219
31
0
39
0
210
0
220
0
230
1
0
LINE
5
AC
100
AcDbEntity
8
1
62
256
6
ByLayer
370
-1
48
1
60
0
100
AcDbLine
10
44.505387
20
16.859982
30
0
11
44.247502
21
16.859982
31
0
39
0
210
0
220
0
230
1
0
LINE
5
AD
100
AcDbEntity
8
1
62
256
6
ByLayer
370
-1
48
1
60
0
100
AcDbLine
10
44.540602
20
16.307045
30
0
11
44.540313
21
16.420525
31
0
39
0
210
0
220
0
230
1
0
LINE
5
AE
100
AcDbEntity
8
1
62
256
6
ByLayer
370
-1
48
1
60
0
100
AcDbLine
10
40.211822
20
11.707063
30
0
11
40.21272
21
11.355351
31
0
39
0
210
0
220
0
230
1
0
LINE
5
AF
100
AcDbEntity
8
1
62
256
6
ByLayer
370
-1
48
1
60
0
100
AcDbLine
10
44.540313
20
16.420525
30
0
11
43.964526
21
16.420525
31
0
39
0
210
0
220
0
230
1
0
LINE
5
B0
100
AcDbEntity
8
1
62
256
6
ByLayer
370
-1
48
1
60
0
100
AcDbLine
10
37.108499
20
10.355456
30
0
11
36.38928
21
10.284912
31
0
39
0
210
0
220
0
230
1
0
LINE
5
B1
100
AcDbEntity
8
1
62
256
6
ByLayer
370
-1
48
1
60
0
100
AcDbLine
10
39.230465
20
10.355456
30
0
11
38.511245
21
10.284912
31
0
39
0
210
0
220
0
230
1
0
LINE
5
B2
100
AcDbEntity
8
1
62
256
6
ByLayer
370
-1
48
1
60
0
100
AcDbLine
10
39.230465
20
10.355456
30
0
11
37.108499
21
10.355456
31
0
39
0
210
0
220
0
230
1
0
LINE
5
B3
100
AcDbEntity
8
1
62
256
6
ByLayer
370
-1
48
1
60
0
100
AcDbLine
10
44.43736
20
15.284467
30
0
11
44.438712
21
14.754992
31
0
39
0
210
0
220
0
230
1
0
LINE
5
B4
100
AcDbEntity
8
1
62
256
6
ByLayer
370
-1
48
1
60
0
100
AcDbLine
10
35.701838
20
10.884287
30
0
11
35.62313
21
11.021981
31
0
39
0
210
0
220
0
230
1
0
LINE
5
B5
100
AcDbEntity
8
1
62
256
6
ByLayer
370
-1
48
1
60
0
100
AcDbLine
10
36.967408
20
10.365767
30
0
11
35.999284
21
12.061028
31
0
39
0
210
0
220
0
230
1
0
LINE
5
B6
100
AcDbEntity
8
1
62
256
6
ByLayer
370
-1
48
1
60
0
100
AcDbLine
10
35.90973
20
10.527519
30
0
11
36.002557
21
10.365127
31
0
39
0
210
0
220
0
230
1
0
LINE
5
B7
100
AcDbEntity
8
1
62
256
6
ByLayer
370
-1
48
1
60
0
100
AcDbLine
10
44.92018
20
26.780637
30
0
11
48.072356
21
24.97351
31
0
39
0
210
0
220
0
230
1
0
LINE
5
B8
100
AcDbEntity
8
1
62
256
6
ByLayer
370
-1
48
1
60
0
100
AcDbLine
10
46.00867
20
22.094042
30
0
11
46.26705
21
21.914296
31
0
39
0
210
0
220
0
230
1
0
LINE
5
B9
100
AcDbEntity
8
1
62
256
6
ByLayer
370
-1
48
1
60
0
100
AcDbLine
10
48.075185
20
24.025671
30
0
11
46.025175
21
22.834095
31
0
39
0
210
0
220
0
230
1
0
LINE
5
BA
100
AcDbEntity
8
1
62
256
6
ByLayer
370
-1
48
1
60
0
100
AcDbLine
10
45.900351
20
22.618083
30
0
11
45.901308
21
22.297442
31
0
39
0
210
0
220
0
230
1
0
LINE
5
BB
100
AcDbEntity
8
1
62
256
6
ByLayer
370
-1
48
1
60
0
100
AcDbLine
10
36.654722
20
13.381197
30
0
11
36.677081
21
11.037318
31
0
39
0
210
0
220
0
230
1
0
LINE
5
BC
100
AcDbEntity
8
1
62
256
6
ByLayer
370
-1
48
1
60
0
100
AcDbLine
10
36.926427
20
13.855751
30
0
11
36.655576
21
13.726906
31
0
39
0
210
0
220
0
230
1
0
LINE
5
BD
100
AcDbEntity
8
1
62
256
6
ByLayer
370
-1
48
1
60
0
100
AcDbLine
10
37.422763
20
13.684288
30
0
11
37.14878
21
13.844608
31
0
39
0
210
0
220
0
230
1
0
LINE
5
BE
100
AcDbEntity
8
1
62
256
6
ByLayer
370
-1
48
1
60
0
100
AcDbLine
10
36.934453
20
10.59051
30
0
11
36.977849
21
10.565118
31
0
39
0
210
0
220
0
230
1
0
LINE
5
BF
100
AcDbEntity
8
1
62
256
6
ByLayer
370
-1
48
1
60
0
100
AcDbLine
10
41.41972
20
12.423912
30
0
11
38.44447
21
10.658181
31
0
39
0
210
0
220
0
230
1
0
LINE
5
C0
100
AcDbEntity
8
1
62
256
6
ByLayer
370
-1
48
1
60
0
100
AcDbLine
10
33.521179
20
17.892633
30
0
11
33.591567
21
17.726025
31
0
39
0
210
0
220
0
230
1
0
LINE
5
C1
100
AcDbEntity
8
1
62
256
6
ByLayer
370
-1
48
1
60
0
100
AcDbLine
10
33.32313
20
18.219652
30
0
11
33.277476
21
18.280771
31
0
39
0
210
0
220
0
230
1
0
LINE
5
C2
100
AcDbEntity
8
1
62
256
6
ByLayer
370
-1
48
1
60
0
100
AcDbLine
10
32.146818
20
20.142068
30
0
11
30.910988
21
22.303939
31
0
39
0
210
0
220
0
230
1
0
LINE
5
C3
100
AcDbEntity
8
1
62
256
6
ByLayer
370
-1
48
1
60
0
100
AcDbLine
10
35.482567
20
26.994061
30
0
11
37.892849
21
26.990294
31
0
39
0
210
0
220
0
230
1
0
LINE
5
C4
100
AcDbEntity
8
1
62
256
6
ByLayer
370
-1
48
1
60
0
100
AcDbLine
10
32.720638
20
19.23234
30
0
11
33.166916
21
18.451653
31
0
39
0
210
0
220
0
230
1
0
LINE
5
C5
100
AcDbEntity
8
1
62
256
6
ByLayer
370
-1
48
1
60
0
100
AcDbLine
10
35.032573
20
22.939855
30
0
11
33.990058
21
20.937806
31
0
39
0
210
0
220
0
230
1
0
LINE
5
C6
100
AcDbEntity
8
1
62
256
6
ByLayer
370
-1
48
1
60
0
100
AcDbLine
10
38.790366
20
26.000497
30
0
11
36.859618
21
24.866766
31
0
39
0
210
0
220
0
230
1
0
LINE
5
C7
100
AcDbEntity
8
1
62
256
6
ByLayer
370
-1
48
1
60
0
100
AcDbLine
10
38.886574
20
25.243516
30
0
11
39.035974
21
25.85937
31
0
39
0
210
0
220
0
230
1
0
LINE
5
C8
100
AcDbEntity
8
1
62
256
6
ByLayer
370
-1
48
1
60
0
100
AcDbLine
10
34.141802
20
20.697684
30
0
11
34.742219
21
20.872633
31
0
39
0
210
0
220
0
230
1
0
LINE
5
C9
100
AcDbEntity
8
1
62
256
6
ByLayer
370
-1
48
1
60
0
100
AcDbLine
10
34.728648
20
20.934815
30
0
11
34.128231
21
20.759866
31
0
39
0
210
0
220
0
230
1
0
LINE
5
CA
100
AcDbEntity
8
1
62
256
6
ByLayer
370
-1
48
1
60
0
100
AcDbLine
10
38.978568
20
25.87532
30
0
11
38.829167
21
25.259466
31
0
39
0
210
0
220
0
230
1
0
LINE
5
CB
100
AcDbEntity
8
1
62
256
6
ByLayer
370
-1
48
1
60
0
100
AcDbLine
10
36.907569
20
24.796569
30
0
11
38.838317
21
25.930299
31
0
39
0
210
0
220
0
230
1
0
LINE
5
CC
100
AcDbEntity
8
1
62
256
6
ByLayer
370
-1
48
1
60
0
100
AcDbLine
10
34.068804
20
20.900088
30
0
11
35.11132
21
22.902137
31
0
39
0
210
0
220
0
230
1
0
LINE
5
CD
100
AcDbEntity
8
1
62
256
6
ByLayer
370
-1
48
1
60
0
100
AcDbLine
10
39.623335
20
26.997923
30
0
11
38.790366
21
26.000497
31
0
39
0
210
0
220
0
230
1
0
LINE
5
CE
100
AcDbEntity
8
1
62
256
6
ByLayer
370
-1
48
1
60
0
100
AcDbLine
10
39.035974
20
25.85937
30
0
11
39.985932
21
26.996882
31
0
39
0
210
0
220
0
230
1
0
LINE
5
CF
100
AcDbEntity
8
1
62
256
6
ByLayer
370
-1
48
1
60
0
100
AcDbLine
10
32.830756
20
19.462834
30
0
11
34.141802
21
20.697684
31
0
39
0
210
0
220
0
230
1
0
LINE
5
D0
100
AcDbEntity
8
1
62
256
6
ByLayer
370
-1
48
1
60
0
100
AcDbLine
10
33.990058
20
20.937806
30
0
11
32.641505
21
19.667629
31
0
39
0
210
0
220
0
230
1
0
LINE
5
D1
100
AcDbEntity
8
1
62
256
6
ByLayer
370
-1
48
1
60
0
100
AcDbLine
10
32.146818
20
20.142068
30
0
11
33.869516
21
23.450344
31
0
39
0
210
0
220
0
230
1
0
LINE
5
D2
100
AcDbEntity
8
1
62
256
6
ByLayer
370
-1
48
1
60
0
100
AcDbLine
10
30.911926
20
22.566616
30
0
11
34.991951
21
24.962397
31
0
39
0
210
0
220
0
230
1
0
LINE
5
D3
100
AcDbEntity
8
1
62
256
6
ByLayer
370
-1
48
1
60
0
100
AcDbLine
10
30.914443
20
22.717753
30
0
11
34.929463
21
25.075364
31
0
39
0
210
0
220
0
230
1
0
LINE
5
D4
100
AcDbEntity
8
1
62
256
6
ByLayer
370
-1
48
1
60
0
100
AcDbLine
10
35.032573
20
22.939855
30
0
11
34.460114
21
23.167457
31
0
39
0
210
0
220
0
230
1
0
LINE
5
D5
100
AcDbEntity
8
1
62
256
6
ByLayer
370
-1
48
1
60
0
100
AcDbLine
10
36.859618
20
24.866766
30
0
11
36.493553
21
25.281317
31
0
39
0
210
0
220
0
230
1
0
LINE
5
D6
100
AcDbEntity
8
1
62
256
6
ByLayer
370
-1
48
1
60
0
100
AcDbLine
10
37.892849
20
26.990294
30
0
11
36.071435
21
25.920764
31
0
39
0
210
0
220
0
230
1
0
LINE
5
D7
100
AcDbEntity
8
1
62
256
6
ByLayer
370
-1
48
1
60
0
100
AcDbLine
10
36.493553
20
25.281317
30
0
11
39.412974
21
26.995595
31
0
39
0
210
0
220
0
230
1
0
LINE
5
D8
100
AcDbEntity
8
1
62
256
6
ByLayer
370
-1
48
1
60
0
100
AcDbLine
10
32.633939
20
19.660464
30
0
11
34.460114
21
23.167457
31
0
39
0
210
0
220
0
230
1
0
LINE
5
D9
100
AcDbEntity
8
1
62
256
6
ByLayer
370
-1
48
1
60
0
100
AcDbLine
10
33.277476
20
18.280771
30
0
11
35.223132
21
18.847694
31
0
39
0
210
0
220
0
230
1
0
LINE
5
DA
100
AcDbEntity
8
1
62
256
6
ByLayer
370
-1
48
1
60
0
100
AcDbLine
10
34.877357
20
20.059171
30
0
11
32.830756
21
19.462834
31
0
39
0
210
0
220
0
230
1
0
LINE
5
DB
100
AcDbEntity
8
1
62
256
6
ByLayer
370
-1
48
1
60
0
100
AcDbLine
10
32.720638
20
19.23234
30
0
11
35.149585
21
19.940084
31
0
39
0
210
0
220
0
230
1
0
LINE
5
DC
100
AcDbEntity
8
1
62
256
6
ByLayer
370
-1
48
1
60
0
100
AcDbLine
10
35.389562
20
19.099285
30
0
11
33.166916
21
18.451653
31
0
39
0
210
0
220
0
230
1
0
LINE
5
DD
100
AcDbEntity
8
1
62
256
6
ByLayer
370
-1
48
1
60
0
100
AcDbLine
10
39.623335
20
26.997923
30
0
11
39.412974
21
26.995595
31
0
39
0
210
0
220
0
230
1
0
LINE
5
DE
100
AcDbEntity
8
1
62
256
6
ByLayer
370
-1
48
1
60
0
100
AcDbLine
10
39.985932
20
26.996882
30
0
11
40.046444
21
26.995878
31
0
39
0
210
0
220
0
230
1
0
LINE
5
DF
100
AcDbEntity
8
1
62
256
6
ByLayer
370
-1
48
1
60
0
100
AcDbLine
10
42.107366
20
26.989634
30
0
11
44.566119
21
26.989634
31
0
39
0
210
0
220
0
230
1
0
LINE
5
E0
100
AcDbEntity
8
1
62
256
6
ByLayer
370
-1
48
1
60
0
100
AcDbLine
10
46.356202
20
20.658652
30
0
11
45.100404
21
18.502172
31
0
39
0
210
0
220
0
230
1
0
LINE
5
E1
100
AcDbEntity
8
1
62
256
6
ByLayer
370
-1
48
1
60
0
100
AcDbLine
10
41.117875
20
26.994672
30
0
11
40.229979
21
26.994672
31
0
39
0
210
0
220
0
230
1
0
LINE
5
E2
100
AcDbEntity
8
1
62
256
6
ByLayer
370
-1
48
1
60
0
100
AcDbLine
10
43.316287
20
23.233579
30
0
11
42.127056
21
25.156495
31
0
39
0
210
0
220
0
230
1
0
LINE
5
E3
100
AcDbEntity
8
1
62
256
6
ByLayer
370
-1
48
1
60
0
100
AcDbLine
10
44.057988
20
18.391166
30
0
11
44.051219
21
20.658627
31
0
39
0
210
0
220
0
230
1
0
LINE
5
E4
100
AcDbEntity
8
1
62
256
6
ByLayer
370
-1
48
1
60
0
100
AcDbLine
10
43.369152
20
18.690487
30
0
11
43.820168
21
18.249583
31
0
39
0
210
0
220
0
230
1
0
LINE
5
E5
100
AcDbEntity
8
1
62
256
6
ByLayer
370
-1
48
1
60
0
100
AcDbLine
10
41.851479
20
25.147199
30
0
11
41.702079
21
24.531346
31
0
39
0
210
0
220
0
230
1
0
LINE
5
E6
100
AcDbEntity
8
1
62
256
6
ByLayer
370
-1
48
1
60
0
100
AcDbLine
10
41.767609
20
24.5162
30
0
11
41.91701
21
25.132053
31
0
39
0
210
0
220
0
230
1
0
LINE
5
E7
100
AcDbEntity
8
1
62
256
6
ByLayer
370
-1
48
1
60
0
100
AcDbLine
10
43.868065
20
18.296216
30
0
11
43.417049
21
18.737121
31
0
39
0
210
0
220
0
230
1
0
LINE
5
E8
100
AcDbEntity
8
1
62
256
6
ByLayer
370
-1
48
1
60
0
100
AcDbLine
10
43.977952
20
20.65936
30
0
11
43.984721
21
18.391899
31
0
39
0
210
0
220
0
230
1
0
LINE
5
E9
100
AcDbEntity
8
1
62
256
6
ByLayer
370
-1
48
1
60
0
100
AcDbLine
10
42.066176
20
25.113826
30
0
11
43.255408
21
23.19091
31
0
39
0
210
0
220
0
230
1
0
LINE
5
EA
100
AcDbEntity
8
1
62
256
6
ByLayer
370
-1
48
1
60
0
100
AcDbLine
10
41.276935
20
26.794526
30
0
11
41.851479
21
25.147199
31
0
39
0
210
0
220
0
230
1
0
LINE
5
EB
100
AcDbEntity
8
1
62
256
6
ByLayer
370
-1
48
1
60
0
100
AcDbLine
10
42.127056
20
25.156495
30
0
11
41.536075
21
26.850948
31
0
39
0
210
0
220
0
230
1
0
LINE
5
EC
100
AcDbEntity
8
1
62
256
6
ByLayer
370
-1
48
1
60
0
100
AcDbLine
10
42.107366
20
26.989634
30
0
11
44.072505
21
23.812121
31
0
39
0
210
0
220
0
230
1
0
LINE
5
ED
100
AcDbEntity
8
1
62
256
6
ByLayer
370
-1
48
1
60
0
100
AcDbLine
10
44.789716
20
26.856781
30
0
11
44.804019
21
22.065219
31
0
39
0
210
0
220
0
230
1
0
LINE
5
EE
100
AcDbEntity
8
1
62
256
6
ByLayer
370
-1
48
1
60
0
100
AcDbLine
10
44.92018
20
26.780637
30
0
11
44.934255
21
22.065415
31
0
39
0
210
0
220
0
230
1
0
LINE
5
EF
100
AcDbEntity
8
1
62
256
6
ByLayer
370
-1
48
1
60
0
100
AcDbLine
10
43.316287
20
23.233579
30
0
11
43.61591
21
23.492103
31
0
39
0
210
0
220
0
230
1
0
LINE
5
F0
100
AcDbEntity
8
1
62
256
6
ByLayer
370
-1
48
1
60
0
100
AcDbLine
10
44.051219
20
20.658627
30
0
11
44.41428
21
20.646533
31
0
39
0
210
0
220
0
230
1
0
LINE
5
F1
100
AcDbEntity
8
1
62
256
6
ByLayer
370
-1
48
1
60
0
100
AcDbLine
10
45.100404
20
18.502172
30
0
11
45.094019
21
20.641232
31
0
39
0
210
0
220
0
230
1
0
LINE
5
F2
100
AcDbEntity
8
1
62
256
6
ByLayer
370
-1
48
1
60
0
100
AcDbLine
10
41.532731
20
26.860478
30
0
11
43.61591
21
23.492103
31
0
39
0
210
0
220
0
230
1
0
LINE
5
F3
100
AcDbEntity
8
1
62
256
6
ByLayer
370
-1
48
1
60
0
100
AcDbLine
10
40.046444
20
26.995878
30
0
11
39.56231
21
25.000201
31
0
39
0
210
0
220
0
230
1
0
LINE
5
F4
100
AcDbEntity
8
1
62
256
6
ByLayer
370
-1
48
1
60
0
100
AcDbLine
10
40.767682
20
24.695307
30
0
11
41.276935
21
26.794526
31
0
39
0
210
0
220
0
230
1
0
LINE
5
F5
100
AcDbEntity
8
1
62
256
6
ByLayer
370
-1
48
1
60
0
100
AcDbLine
10
41.117875
20
26.994672
30
0
11
40.513484
21
24.503277
31
0
39
0
210
0
220
0
230
1
0
LINE
5
F6
100
AcDbEntity
8
1
62
256
6
ByLayer
370
-1
48
1
60
0
100
AcDbLine
10
39.676921
20
24.714882
30
0
11
40.229979
21
26.994672
31
0
39
0
210
0
220
0
230
1
0
LINE
5
F7
100
AcDbEntity
8
1
62
256
6
ByLayer
370
-1
48
1
60
0
100
AcDbLine
10
35.482567
20
26.994061
30
0
11
34.577223
21
26.904438
31
0
39
0
210
0
220
0
230
1
0
LINE
5
F8
100
AcDbEntity
8
1
62
256
6
ByLayer
370
-1
48
1
60
0
100
AcDbLine
10
31.284707
20
26.766373
30
0
11
31.327951
21
26.791765
31
0
39
0
210
0
220
0
230
1
0
LINE
5
F9
100
AcDbEntity
8
1
62
256
6
ByLayer
370
-1
48
1
60
0
100
AcDbLine
10
30.910988
20
22.303939
30
0
11
30.911926
21
22.566616
31
0
39
0
210
0
220
0
230
1
0
LINE
5
FA
100
AcDbEntity
8
1
62
256
6
ByLayer
370
-1
48
1
60
0
100
AcDbLine
10
34.577223
20
26.904438
30
0
11
33.646596
21
26.357977
31
0
39
0
210
0
220
0
230
1
0
LINE
5
FB
100
AcDbEntity
8
1
62
256
6
ByLayer
370
-1
48
1
60
0
100
AcDbLine
10
34.018759
20
25.628597
30
0
11
34.291785
21
25.788917
31
0
39
0
210
0
220
0
230
1
0
LINE
5
FC
100
AcDbEntity
8
1
62
256
6
ByLayer
370
-1
48
1
60
0
100
AcDbLine
10
44.355106
20
17.056027
30
0
11
44.424514
21
17.217978
31
0
39
0
210
0
220
0
230
1
0
LINE
5
FD
100
AcDbEntity
8
1
62
256
6
ByLayer
370
-1
48
1
60
0
100
AcDbLine
10
44.159017
20
16.726927
30
0
11
44.113733
21
16.6638
31
0
39
0
210
0
220
0
230
1
0
LINE
5
FE
100
AcDbEntity
8
1
62
256
6
ByLayer
370
-1
48
1
60
0
100
AcDbLine
10
42.994224
20
14.790013
30
0
11
41.771301
21
12.628142
31
0
39
0
210
0
220
0
230
1
0
LINE
5
FF
100
AcDbEntity
8
1
62
256
6
ByLayer
370
-1
48
1
60
0
100
AcDbLine
10
46.352939
20
21.751576
30
0
11
46.356202
21
20.658652
31
0
39
0
210
0
220
0
230
1
0
LINE
5
100
100
AcDbEntity
8
1
62
256
6
ByLayer
370
-1
48
1
60
0
100
AcDbLine
10
48.334667
20
24.525762
30
0
11
48.334819
21
24.474977
31
0
39
0
210
0
220
0
230
1
0
LINE
5
101
100
AcDbEntity
8
1
62
256
6
ByLayer
370
-1
48
1
60
0
100
AcDbLine
10
44.566119
20
26.989634
30
0
11
44.789716
21
26.856781
31
0
39
0
210
0
220
0
230
1
0
LINE
5
102
100
AcDbEntity
8
1
62
256
6
ByLayer
370
-1
48
1
60
0
100
AcDbLine
10
35.543805
20
14.282283
30
0
11
35.267859
21
14.254966
31
0
39
0
210
0
220
0
230
1
0
LINE
5
103
100
AcDbEntity
8
1
62
256
6
ByLayer
370
-1
48
1
60
0
100
AcDbLine
10
41.771301
20
12.628142
30
0
11
41.546765
21
12.498317
31
0
39
0
210
0
220
0
230
1
0
LINE
5
104
100
AcDbEntity
8
1
62
256
6
ByLayer
370
-1
48
1
60
0
100
AcDbLine
10
37.94319
20
10.660679
30
0
11
37.899795
21
10.686072
31
0
39
0
210
0
220
0
230
1
0
LINE
5
105
100
AcDbEntity
8
1
62
256
6
ByLayer
370
-1
48
1
60
0
100
AcDbLine
10
37.634554
20
11.1321
30
0
11
37.550282
21
13.469851
31
0
39
0
210
0
220
0
230
1
0
LINE
5
106
100
AcDbEntity
8
1
62
256
6
ByLayer
370
-1
48
1
60
0
100
AcDbLine
10
31.022134
20
26.318787
30
0
11
30.064661
21
26.224004
31
0
39
0
210
0
220
0
230
1
0
LINE
5
107
100
AcDbEntity
8
1
62
256
6
ByLayer
370
-1
48
1
60
0
100
AcDbLine
10
31.284707
20
26.766373
30
0
11
30.319366
21
26.670811
31
0
39
0
210
0
220
0
230
1
0
LINE
5
108
100
AcDbEntity
8
1
62
256
6
ByLayer
370
-1
48
1
60
0
100
AcDbLine
10
31.327951
20
26.791765
30
0
11
30.36261
21
26.696204
31
0
39
0
210
0
220
0
230
1
0
LINE
5
109
100
AcDbEntity
8
1
62
256
6
ByLayer
370
-1
48
1
60
0
100
AcDbLine
10
35.543805
20
14.282283
30
0
11
34.275155
21
16.431229
31
0
39
0
210
0
220
0
230
1
0
LINE
5
10A
100
AcDbEntity
8
1
62
256
6
ByLayer
370
-1
48
1
60
0
100
AcDbLine
10
43.562583
20
15.709818
30
0
11
44.004201
21
16.490505
31
0
39
0
210
0
220
0
230
1
0
LINE
5
10B
100
AcDbEntity
8
1
62
256
6
ByLayer
370
-1
48
1
60
0
100
AcDbLine
10
39.446718
20
15.802446
30
0
11
41.678465
21
15.88158
31
0
39
0
210
0
220
0
230
1
0
LINE
5
10C
100
AcDbEntity
8
1
62
256
6
ByLayer
370
-1
48
1
60
0
100
AcDbLine
10
34.947225
20
17.584218
30
0
11
36.884741
21
16.450488
31
0
39
0
210
0
220
0
230
1
0
LINE
5
10D
100
AcDbEntity
8
1
62
256
6
ByLayer
370
-1
48
1
60
0
100
AcDbLine
10
35.549878
20
18.04287
30
0
11
34.949462
21
17.867921
31
0
39
0
210
0
220
0
230
1
0
LINE
5
10E
100
AcDbEntity
8
1
62
256
6
ByLayer
370
-1
48
1
60
0
100
AcDbLine
10
41.812322
20
16.131989
30
0
11
41.361306
21
16.572894
31
0
39
0
210
0
220
0
230
1
0
LINE
5
10F
100
AcDbEntity
8
1
62
256
6
ByLayer
370
-1
48
1
60
0
100
AcDbLine
10
41.321533
20
16.527064
30
0
11
41.772549
21
16.08616
31
0
39
0
210
0
220
0
230
1
0
LINE
5
110
100
AcDbEntity
8
1
62
256
6
ByLayer
370
-1
48
1
60
0
100
AcDbLine
10
34.971156
20
17.806543
30
0
11
35.571573
21
17.981492
31
0
39
0
210
0
220
0
230
1
0
LINE
5
111
100
AcDbEntity
8
1
62
256
6
ByLayer
370
-1
48
1
60
0
100
AcDbLine
10
36.932268
20
16.522151
30
0
11
34.994752
21
17.655881
31
0
39
0
210
0
220
0
230
1
0
LINE
5
112
100
AcDbEntity
8
1
62
256
6
ByLayer
370
-1
48
1
60
0
100
AcDbLine
10
41.682809
20
15.964166
30
0
11
39.451062
21
15.885032
31
0
39
0
210
0
220
0
230
1
0
LINE
5
113
100
AcDbEntity
8
1
62
256
6
ByLayer
370
-1
48
1
60
0
100
AcDbLine
10
33.521179
20
17.892633
30
0
11
34.947225
21
17.584218
31
0
39
0
210
0
220
0
230
1
0
LINE
5
114
100
AcDbEntity
8
1
62
256
6
ByLayer
370
-1
48
1
60
0
100
AcDbLine
10
34.949462
20
17.867921
30
0
11
33.32313
21
18.219652
31
0
39
0
210
0
220
0
230
1
0
LINE
5
115
100
AcDbEntity
8
1
62
256
6
ByLayer
370
-1
48
1
60
0
100
AcDbLine
10
44.355106
20
17.056027
30
0
11
44.057988
21
18.391166
31
0
39
0
210
0
220
0
230
1
0
LINE
5
116
100
AcDbEntity
8
1
62
256
6
ByLayer
370
-1
48
1
60
0
100
AcDbLine
10
43.820168
20
18.249583
30
0
11
44.159017
21
16.726927
31
0
39
0
210
0
220
0
230
1
0
LINE
5
117
100
AcDbEntity
8
1
62
256
6
ByLayer
370
-1
48
1
60
0
100
AcDbLine
10
43.329963
20
15.683089
30
0
11
41.812322
21
16.131989
31
0
39
0
210
0
220
0
230
1
0
LINE
5
118
100
AcDbEntity
8
1
62
256
6
ByLayer
370
-1
48
1
60
0
100
AcDbLine
10
41.678465
20
15.88158
30
0
11
43.239523
21
15.419838
31
0
39
0
210
0
220
0
230
1
0
LINE
5
119
100
AcDbEntity
8
1
62
256
6
ByLayer
370
-1
48
1
60
0
100
AcDbLine
10
42.994224
20
14.790013
30
0
11
39.306386
21
14.65925
31
0
39
0
210
0
220
0
230
1
0
LINE
5
11A
100
AcDbEntity
8
1
62
256
6
ByLayer
370
-1
48
1
60
0
100
AcDbLine
10
41.546765
20
12.498317
30
0
11
37.452438
21
14.894098
31
0
39
0
210
0
220
0
230
1
0
LINE
5
11B
100
AcDbEntity
8
1
62
256
6
ByLayer
370
-1
48
1
60
0
100
AcDbLine
10
41.41972
20
12.423912
30
0
11
37.390624
21
14.781523
31
0
39
0
210
0
220
0
230
1
0
LINE
5
11C
100
AcDbEntity
8
1
62
256
6
ByLayer
370
-1
48
1
60
0
100
AcDbLine
10
39.446718
20
15.802446
30
0
11
39.338966
21
15.278646
31
0
39
0
210
0
220
0
230
1
0
LINE
5
11D
100
AcDbEntity
8
1
62
256
6
ByLayer
370
-1
48
1
60
0
100
AcDbLine
10
36.884741
20
16.450488
30
0
11
36.521223
21
16.011748
31
0
39
0
210
0
220
0
230
1
0
LINE
5
11E
100
AcDbEntity
8
1
62
256
6
ByLayer
370
-1
48
1
60
0
100
AcDbLine
10
34.275155
20
16.431229
30
0
11
36.102954
21
15.361699
31
0
39
0
210
0
220
0
230
1
0
LINE
5
11F
100
AcDbEntity
8
1
62
256
6
ByLayer
370
-1
48
1
60
0
100
AcDbLine
10
36.521223
20
16.011748
30
0
11
33.591567
21
17.726025
31
0
39
0
210
0
220
0
230
1
0
LINE
5
120
100
AcDbEntity
8
1
62
256
6
ByLayer
370
-1
48
1
60
0
100
AcDbLine
10
43.24832
20
15.417264
30
0
11
39.338966
21
15.278646
31
0
39
0
210
0
220
0
230
1
0
LINE
5
121
100
AcDbEntity
8
1
62
256
6
ByLayer
370
-1
48
1
60
0
100
AcDbLine
10
44.41428
20
20.646533
30
0
11
44.424514
21
17.217978
31
0
39
0
210
0
220
0
230
1
0
LINE
5
122
100
AcDbEntity
8
1
62
256
6
ByLayer
370
-1
48
1
60
0
100
AcDbLine
10
44.113733
20
16.6638
30
0
11
42.652212
21
18.092554
31
0
39
0
210
0
220
0
230
1
0
LINE
5
123
100
AcDbEntity
8
1
62
256
6
ByLayer
370
-1
48
1
60
0
100
AcDbLine
10
41.792614
20
17.185971
30
0
11
43.329963
21
15.683089
31
0
39
0
210
0
220
0
230
1
0
LINE
5
124
100
AcDbEntity
8
1
62
256
6
ByLayer
370
-1
48
1
60
0
100
AcDbLine
10
43.562583
20
15.709818
30
0
11
41.738027
21
17.493468
31
0
39
0
210
0
220
0
230
1
0
LINE
5
125
100
AcDbEntity
8
1
62
256
6
ByLayer
370
-1
48
1
60
0
100
AcDbLine
10
42.334612
20
18.122662
30
0
11
44.004201
21
16.490505
31
0
39
0
210
0
220
0
230
1
0
LINE
5
126
100
AcDbEntity
8
1
62
256
6
ByLayer
370
-1
48
1
60
0
100
AcDbLine
10
36.477694
20
13.735821
30
0
11
35.597501
21
13.648689
31
0
39
0
210
0
220
0
230
1
0
LINE
5
127
100
AcDbEntity
8
1
62
256
6
ByLayer
370
-1
48
1
60
0
100
AcDbLine
10
36.373719
20
13.688032
30
0
11
36.530986
21
13.596008
31
0
39
0
210
0
220
0
230
1
0
LINE
5
128
100
AcDbEntity
8
1
62
256
6
ByLayer
370
-1
48
1
60
0
100
AcDbLine
10
37.94319
20
10.660679
30
0
11
36.977849
21
10.565118
31
0
39
0
210
0
220
0
230
1
0
LINE
5
129
100
AcDbEntity
8
1
62
256
6
ByLayer
370
-1
48
1
60
0
100
AcDbLine
10
37.899795
20
10.686072
30
0
11
36.934453
21
10.59051
31
0
39
0
210
0
220
0
230
1
0
LINE
5
12A
100
AcDbEntity
8
1
62
256
6
ByLayer
370
-1
48
1
60
0
100
AcDbLine
10
37.634554
20
11.1321
30
0
11
36.677081
21
11.037318
31
0
39
0
210
0
220
0
230
1
0
LINE
5
12B
100
AcDbEntity
8
1
62
256
6
ByLayer
370
-1
48
1
60
0
100
AcDbLine
10
37.550282
20
13.469851
30
0
11
36.654722
21
13.381197
31
0
39
0
210
0
220
0
230
1
0
LINE
5
12C
100
AcDbEntity
8
1
62
256
6
ByLayer
370
-1
48
1
60
0
100
AcDbLine
10
37.422763
20
13.684288
30
0
11
36.530986
21
13.596008
31
0
39
0
210
0
220
0
230
1
0
LINE
5
12D
100
AcDbEntity
8
1
62
256
6
ByLayer
370
-1
48
1
60
0
100
AcDbLine
10
37.14878
20
13.844608
30
0
11
36.838413
21
13.813884
31
0
39
0
210
0
220
0
230
1
0
LINE
5
12E
100
AcDbEntity
8
1
62
256
6
ByLayer
370
-1
48
1
60
0
100
AcDbLine
10
30.064661
20
26.224004
30
0
11
30.054389
21
23.345912
31
0
39
0
210
0
220
0
230
1
0
LINE
5
12F
100
AcDbEntity
8
1
62
256
6
ByLayer
370
-1
48
1
60
0
100
AcDbLine
10
34.41643
20
25.982129
30
0
11
34.452224
21
26.293029
31
0
39
0
210
0
220
0
230
1
0
LINE
5
130
100
AcDbEntity
8
1
62
256
6
ByLayer
370
-1
48
1
60
0
100
AcDbLine
10
36.477694
20
13.735821
30
0
11
35.543805
21
14.282283
31
0
39
0
210
0
220
0
230
1
0
LINE
5
131
100
AcDbEntity
8
1
62
256
6
ByLayer
370
-1
48
1
60
0
100
AcDbLine
10
34.018759
20
25.628597
30
0
11
33.818722
21
25.608795
31
0
39
0
210
0
220
0
230
1
0
LINE
5
132
100
AcDbEntity
8
1
62
256
6
ByLayer
370
-1
48
1
60
0
100
AcDbLine
10
34.291785
20
25.788917
30
0
11
33.620026
21
25.722418
31
0
39
0
210
0
220
0
230
1
0
LINE
5
133
100
AcDbEntity
8
1
62
256
6
ByLayer
370
-1
48
1
60
0
100
AcDbLine
10
34.41643
20
25.982129
30
0
11
33.521435
21
25.893531
31
0
39
0
210
0
220
0
230
1
0
LINE
5
134
100
AcDbEntity
8
1
62
256
6
ByLayer
370
-1
48
1
60
0
100
AcDbLine
10
34.452224
20
26.293029
30
0
11
33.549455
21
26.203662
31
0
39
0
210
0
220
0
230
1
0
LINE
5
135
100
AcDbEntity
8
1
62
256
6
ByLayer
370
-1
48
1
60
0
100
AcDbLine
10
34.551941
20
26.447599
30
0
11
33.646596
21
26.357977
31
0
39
0
210
0
220
0
230
1
0
LINE
5
136
100
AcDbEntity
8
1
62
256
6
ByLayer
370
-1
48
1
60
0
100
AcDbLine
10
30.36261
20
26.696204
30
0
11
30.319366
21
26.670811
31
0
39
0
210
0
220
0
230
1
0
LINE
5
137
100
AcDbEntity
8
1
62
256
6
ByLayer
370
-1
48
1
60
0
100
AcDbLine
10
34.551941
20
26.447599
30
0
11
35.482567
21
26.994061
31
0
39
0
210
0
220
0
230
1
0
LINE
5
138
100
AcDbEntity
8
1
62
256
6
ByLayer
370
-1
48
1
60
0
100
AcDbLine
10
33.549455
20
26.203662
30
0
11
33.521435
21
25.893531
31
0
39
0
210
0
220
0
230
1
0
LINE
5
139
100
AcDbEntity
8
1
62
256
6
ByLayer
370
-1
48
1
60
0
100
AcDbLine
10
30.914443
20
22.717753
30
0
11
31.022134
21
26.318787
31
0
39
0
210
0
220
0
230
1
0
LINE
5
13A
100
AcDbEntity
8
1
62
256
6
ByLayer
370
-1
48
1
60
0
100
AcDbLine
10
31.829221
20
26.792706
30
0
11
33.777763
21
25.628145
31
0
39
0
210
0
220
0
230
1
0
LINE
5
13B
100
AcDbEntity
8
1
62
256
6
ByLayer
370
-1
48
1
60
0
100
AcDbLine
10
30.693573
20
22.282417
30
0
11
30.910988
21
22.303939
31
0
39
0
210
0
220
0
230
1
0
LINE
5
13C
100
AcDbEntity
8
SK1
62
256
6
ByLayer
370
-1
48
1
60
0
100
AcDbLine
10
-0.2
20
-14.003438
30
0
11
-0.2
21
-14.083485
31
0
39
0
210
0
220
0
230
1
0
LINE
5
13D
100
AcDbEntity
8
SK1
62
256
6
ByLayer
370
-1
48
1
60
0
100
AcDbLine
10
-19.8
20
-3.070018
30
0
11
-19.8
21
3.070018
31
0
39
0
210
0
220
0
230
1
0
LINE
5
13E
100
AcDbEntity
8
SK1
62
256
6
ByLayer
370
-1
48
1
60
0
100
AcDbLine
10
-0.2
20
-8.300261
30
0
11
-0.2
21
8.300261
31
0
39
0
210
0
220
0
230
1
0
LINE
5
13F
100
AcDbEntity
8
SK1
62
256
6
ByLayer
370
-1
48
1
60
0
100
AcDbLine
10
-1.307107
20
-13.786557
30
0
11
-1.307107
21
-10.15874
31
0
39
0
210
0
220
0
230
1
0
LINE
5
140
100
AcDbEntity
8
SK1
62
256
6
ByLayer
370
-1
48
1
60
0
100
AcDbLine
10
-1.307107
20
10.15874
30
0
11
-1.307107
21
13.786557
31
0
39
0
210
0
220
0
230
1
0
LINE
5
141
100
AcDbEntity
8
SK1
62
256
6
ByLayer
370
-1
48
1
60
0
100
AcDbLine
10
-24
20
-2.511101
30
0
11
-24
21
2.511101
31
0
39
0
210
0
220
0
230
1
0
MTEXT
5
2BB
100
AcDbEntity
8
SK6
62
256
6
ByLayer
370
-1
48
1
60
0
100
AcDbMText
10
-11.125
20
-33.537746
30
0
210
0
220
0
230
1
1
\W00.764;\fsimplex.shx,bigfont.shx;C4-266RFGZ27050-22 
40
3.5
41
0
44
1.084337
50
0
71
7
72
5
7
DEFAULT
0
DIMENSION
5
2EE
100
AcDbEntity
8
2
62
256
6
ByLayer
370
-3
48
1
60
0
100
AcDbDimension
2
DimnDraft3D1
10
64.25
20
27
30
0
11
64.25
21
10.871053
31
0
70
32
71
5
72
1
41
1
210
0
220
0
230
1
3
Standard
100
AcDbAlignedDimension
13
56.5
23
0
33
0
14
51.5
24
27
34
0
50
90
100
AcDbRotatedDimension
1001
ACAD
1000
DSTYLE
1002
{
1070
    74
1070
     0
1070
   279
1070
     0
1070
   172
1070
     1
1070
   173
1070
     1
1070
   340
1005
2BC
1070
   271
1070
     3
1070
   272
1070
     3
1070
    77
1070
     1
1070
    73
1070
     0
1070
   171
1070
     4
1070
   274
1070
     4
1070
   177
1070
     2
1070
   176
1070
     2
1070
   178
1070
     7
1070
    78
1070
     8
1070
    41
1041
3.0
1070
   147
1041
2.25
1070
    42
1041
1.5
1070
    44
1041
3.0
1070
   140
1041
4.5
1070
   343
1005
2EF
1070
   344
1005
2EF
1002
}
0
DIMENSION
5
304
100
AcDbEntity
8
SK2
62
256
6
ByLayer
370
-3
48
1
60
0
100
AcDbDimension
2
DimnDraft3D2
10
-33.75
20
-20
30
0
11
-33.75
21
-5.021053
31
0
70
32
71
5
72
1
41
1
210
0
220
0
230
1
3
Standard
100
AcDbAlignedDimension
13
-1.5
23
20
33
0
14
-1.5
24
-20
34
0
50
90
100
AcDbRotatedDimension
1001
ACAD
1000
DSTYLE
1002
{
1070
    74
1070
     0
1070
   279
1070
     0
1070
   172
1070
     1
1070
   173
1070
     1
1070
   340
1005
2BC
1070
   271
1070
     3
1070
   272
1070
     3
1070
    77
1070
     1
1070
    73
1070
     0
1070
   171
1070
     4
1070
   274
1070
     4
1070
   177
1070
     2
1070
   176
1070
     2
1070
   178
1070
     7
1070
    78
1070
     8
1070
    41
1041
3.0
1070
   147
1041
2.25
1070
    42
1041
1.5
1070
    44
1041
3.0
1070
   140
1041
4.5
1070
   343
1005
2EF
1070
   344
1005
2EF
1002
}
0
DIMENSION
5
312
100
AcDbEntity
8
2
62
256
6
ByLayer
370
-3
48
1
60
0
100
AcDbDimension
2
DimnDraft3D3
10
0
20
46.75
30
0
11
22.371053
21
46.75
31
0
70
32
71
5
72
1
41
1
210
0
220
0
230
1
3
Standard
100
AcDbAlignedDimension
13
50
23
28.5
33
0
14
0
24
1.5
34
0
50
0
100
AcDbRotatedDimension
1001
ACAD
1000
DSTYLE
1002
{
1070
   279
1070
     0
1070
   172
1070
     1
1070
   173
1070
     1
1070
   340
1005
2BC
1070
   271
1070
     3
1070
   272
1070
     3
1070
    77
1070
     1
1070
    73
1070
     0
1070
   171
1070
     4
1070
   274
1070
     4
1070
   177
1070
     2
1070
   176
1070
     2
1070
   178
1070
     7
1070
    78
1070
     8
1070
    41
1041
3.0
1070
   147
1041
2.25
1070
    42
1041
1.5
1070
    44
1041
3.0
1070
   140
1041
4.5
1070
   343
1005
2EF
1070
   344
1005
2EF
1002
}
0
ENDSEC
0
SECTION
2
OBJECTS
0
DICTIONARY
5
343
330
0
100
AcDbDictionary
280
0
281
1
3
ACAD_GROUP
350
344
3
ACAD_MLINESTYLE
350
345
0
DICTIONARY
5
344
330
0
100
AcDbDictionary
280
0
281
1
0
DICTIONARY
5
345
330
0
100
AcDbDictionary
280
0
281
1
3
Standard
350
18
0
MLINESTYLE
5
18
330
345
100
AcDbMlineStyle
2
Standard
70
0
3

62
256
51
90
52
90
71
2
49
-0.5
62
256
6
ByLayer
49
0.5
62
256
6
ByLayer
0
RASTERVARIABLES
5
331
330

100
AcDbRasterVariables
90
0
70
1
71
1
72
1
0
ENDSEC
0
EOF
