0
SECTION
2
HEADER
9
$ACADVER
1
AC1015
9
$DWGCODEPAGE
3
ANSI_1252
9
$HANDSEED
5
331
9
$ANGBASE
50
0
9
$ANGDIR
70
0
9
$ATTMODE
70
1
9
$AUNITS
70
0
9
$AUPREC
70
0
9
$CECOLOR
62
256
9
$CELTSCALE
40
1
9
$CELTYPE
6
ByLayer
9
$CELWEIGHT
370
-1
9
$CLAYER
8
0
9
$CMLJUST
70
0
9
$CMLSCALE
40
1
9
$CMLSTYLE
2
Standard
9
$DIMSTYLE
2
Standard
9
$TEXTSIZE
40
0.2
9
$TEXTSTYLE
7
Standard
9
$LUNITS
70
2
9
$LUPREC
70
4
9
$EXTNAMES
290
1
9
$INSUNITS
70
4
9
$LTSCALE
40
1
9
$LWDISPLAY
290
0
9
$PDMODE
70
0
9
$PDSIZE
40
0
9
$PLINEGEN
70
0
0
ENDSEC
0
SECTION
2
CLASSES
0
CLASS
1
RASTERVARIABLES
2
AcDbRasterVariables
3
ISM
90
0
280
0
281
0
0
ENDSEC
0
SECTION
2
TABLES
0
TABLE
2
VPORT
5
327
100
AcDbSymbolTable
0
VPORT
5
1
100
AcDbSymbolTableRecord
100
AcDbViewportTableRecord
2
*Active
70
0
10
0
20
0
11
1
21
1
12
-1
22
1
13
0
23
0
14
0.5
24
0.5
15
10
25
10
16
0
26
0
36
1
17
0
27
0
37
0
0
ENDTAB
0
TABLE
2
LTYPE
5
328
100
AcDbSymbolTable
0
LTYPE
5
14
100
AcDbSymbolTableRecord
100
AcDbLinetypeTableRecord
70
0
2
ByBlock
3

72
65
73
0
40
0
0
LTYPE
5
15
100
AcDbSymbolTableRecord
100
AcDbLinetypeTableRecord
70
0
2
ByLayer
3

72
65
73
0
40
0
0
LTYPE
5
16
100
AcDbSymbolTableRecord
100
AcDbLinetypeTableRecord
70
0
2
CONTINUOUS
3
Solid line
72
65
73
0
40
0
0
LTYPE
5
3B
100
AcDbSymbolTableRecord
100
AcDbLinetypeTableRecord
70
0
2
DASHED
3
__ __ __ __ __ __ __ __ __
72
65
73
2
40
25.72
49
12.86
74
0
49
-12.86
74
0
0
LTYPE
5
3C
100
AcDbSymbolTableRecord
100
AcDbLinetypeTableRecord
70
0
2
HIDDEN
3
_ _ _ _ _ _ _ _ _ _ _ _ _ _ _
72
65
73
2
40
0.5
49
0.25
74
0
49
-0.25
74
0
0
LTYPE
5
3D
100
AcDbSymbolTableRecord
100
AcDbLinetypeTableRecord
70
0
2
PHANTOM
3
____ _ _ ____ _ _ _____ _ _ ____
72
65
73
6
40
50.5
49
18
74
0
49
-6.5
74
0
49
6.5
74
0
49
-6.5
74
0
49
6.5
74
0
49
-6.5
74
0
0
LTYPE
5
3E
100
AcDbSymbolTableRecord
100
AcDbLinetypeTableRecord
70
0
2
CENTER
3
____ _ ____ _ ____ _ ____
72
65
73
4
40
47.5
49
22
74
0
49
-8.5
74
0
49
8.5
74
0
49
-8.5
74
0
0
LTYPE
5
3F
100
AcDbSymbolTableRecord
100
AcDbLinetypeTableRecord
70
0
2
DOT
3
.........................
72
65
73
2
40
10
49
0
74
0
49
-10
74
0
0
LTYPE
5
40
100
AcDbSymbolTableRecord
100
AcDbLinetypeTableRecord
70
0
2
DASHDOT
3
_._._._._._._._._._._._._._._._.
72
65
73
4
40
70
49
31
74
0
49
-13
74
0
49
13
74
0
49
-13
74
0
0
ENDTAB
0
TABLE
2
LAYER
5
329
100
AcDbSymbolTable
0
LAYER
5
10
100
AcDbSymbolTableRecord
100
AcDbLayerTableRecord
2
0
70
0
62
7
6
CONTINUOUS
290
1
370
-3
390
0
0
LAYER
5
42
100
AcDbSymbolTableRecord
100
AcDbLayerTableRecord
2
1
70
0
62
4
6
CONTINUOUS
290
1
370
-3
390
0
0
LAYER
5
44
100
AcDbSymbolTableRecord
100
AcDbLayerTableRecord
2
80
70
0
62
-6
6
CONTINUOUS
290
1
370
-3
390
0
0
LAYER
5
46
100
AcDbSymbolTableRecord
100
AcDbLayerTableRecord
2
81
70
0
62
-3
6
CONTINUOUS
290
1
370
-3
390
0
0
LAYER
5
48
100
AcDbSymbolTableRecord
100
AcDbLayerTableRecord
2
2
70
0
62
7
6
CONTINUOUS
290
1
370
-3
390
0
0
LAYER
5
4B
100
AcDbSymbolTableRecord
100
AcDbLayerTableRecord
2
4
70
0
62
-2
6
CENTER
290
1
370
-3
390
0
0
LAYER
5
313
100
AcDbSymbolTableRecord
100
AcDbLayerTableRecord
2
SK4
70
0
62
2
6
CENTER
290
1
370
-3
390
0
0
LAYER
5
314
100
AcDbSymbolTableRecord
100
AcDbLayerTableRecord
2
SK1
70
0
62
4
6
CONTINUOUS
290
1
370
-3
390
0
0
LAYER
5
315
100
AcDbSymbolTableRecord
100
AcDbLayerTableRecord
2
SK6
70
0
62
5
6
CONTINUOUS
290
1
370
-3
390
0
0
LAYER
5
316
100
AcDbSymbolTableRecord
100
AcDbLayerTableRecord
2
SK2
70
0
62
7
6
CONTINUOUS
290
1
370
-3
390
0
0
ENDTAB
0
TABLE
2
STYLE
5
32a
100
AcDbSymbolTable
0
STYLE
5
11
100
AcDbSymbolTableRecord
100
AcDbTextStyleTableRecord
2
Standard
3
txt
70
0
71
0
40
0
41
1
42
0
50
0
0
STYLE
5
28F
100
AcDbSymbolTableRecord
100
AcDbTextStyleTableRecord
2
DEFAULT
3
simplex.shx
70
0
71
0
40
0
41
1
42
0
50
0
0
STYLE
5
2B2
100
AcDbSymbolTableRecord
100
AcDbTextStyleTableRecord
2
DWGDirectTextStyle
3
SIMPLEX
70
0
71
0
40
0
41
1
42
0
50
0
0
ENDTAB
0
TABLE
2
DIMSTYLE
5
32b
100
AcDbSymbolTable
100
AcDbDimStyleTable
0
DIMSTYLE
105
27
100
AcDbSymbolTableRecord
100
AcDbDimStyleTableRecord
2
Standard
70
0
3
<>
41
0.18
42
0.0625
44
0.18
140
0.18
147
0.09
73
0
74
0
77
1
271
2
275
0
278
52
280
0
340
11
0
ENDTAB
0
TABLE
2
VIEW
5
32c
100
AcDbSymbolTable
0
ENDTAB
0
TABLE
2
UCS
5
32d
100
AcDbSymbolTable
0
ENDTAB
0
TABLE
2
APPID
5
32e
100
AcDbSymbolTable
0
APPID
5
12
100
AcDbSymbolTableRecord
100
AcDbRegAppTableRecord
2
ACAD
70
0
0
ENDTAB
0
TABLE
2
BLOCK_RECORD
5
32f
100
AcDbSymbolTable
0
BLOCK_RECORD
5
1F
100
AcDbSymbolTableRecord
100
AcDbBlockTableRecord
2
*Model_Space
340
0
70
0
0
BLOCK_RECORD
5
1B
100
AcDbSymbolTableRecord
100
AcDbBlockTableRecord
2
*Paper_Space
340
0
70
0
0
BLOCK_RECORD
5
23
100
AcDbSymbolTableRecord
100
AcDbBlockTableRecord
2
*Paper_Space0
340
0
70
0
0
BLOCK_RECORD
5
2B4
100
AcDbSymbolTableRecord
100
AcDbBlockTableRecord
2
DimnDraft3D1
340
0
70
0
0
BLOCK_RECORD
5
2C2
100
AcDbSymbolTableRecord
100
AcDbBlockTableRecord
2
_CLOSED
340
0
70
0
0
BLOCK_RECORD
5
2C9
100
AcDbSymbolTableRecord
100
AcDbBlockTableRecord
2
DimnDraft3D2
340
0
70
0
0
BLOCK_RECORD
5
2D7
100
AcDbSymbolTableRecord
100
AcDbBlockTableRecord
2
DimnDraft3D3
340
0
70
0
0
BLOCK_RECORD
5
2E6
100
AcDbSymbolTableRecord
100
AcDbBlockTableRecord
2
DimnDraft3D4
340
0
70
0
0
ENDTAB
0
ENDSEC
0
SECTION
2
BLOCKS
0
BLOCK
5
20
100
AcDbEntity
8
0
100
AcDbBlockBegin
2
*Model_Space
70
0
10
0
20
0
30
0
3
*Model_Space
0
ENDBLK
5
21
100
AcDbEntity
8
0
100
AcDbBlockEnd
0
BLOCK
5
1C
100
AcDbEntity
8
0
100
AcDbBlockBegin
2
*Paper_Space
70
0
10
0
20
0
30
0
3
*Paper_Space
0
ENDBLK
5
1D
100
AcDbEntity
8
0
100
AcDbBlockEnd
0
BLOCK
5
24
100
AcDbEntity
8
0
100
AcDbBlockBegin
2
*Paper_Space0
70
0
10
0
20
0
30
0
3
*Paper_Space0
0
ENDBLK
5
25
100
AcDbEntity
8
0
100
AcDbBlockEnd
0
BLOCK
5
2BF
100
AcDbEntity
8
0
100
AcDbBlockBegin
2
DimnDraft3D1
70
0
10
0
20
0
30
0
3
DimnDraft3D1
0
MTEXT
5
2B5
100
AcDbEntity
8
2
62
256
6
ByLayer
370
-1
48
1
60
0
100
AcDbMText
10
39.853748
20
-25
30
0
210
0
220
0
230
1
1
\W01.000;\fsimplex.shx,bigfont.shx;37 
40
4.5
41
0
44
1.084337
50
0
71
7
72
5
7
DEFAULT
0
LINE
5
2B6
100
AcDbEntity
8
2
62
256
6
ByLayer
370
-1
48
1
60
0
100
AcDbLine
10
60
20
-13.375
30
0
11
60
21
-29.125
31
0
39
0
210
0
220
0
230
1
0
LINE
5
2B7
100
AcDbEntity
8
2
62
256
6
ByLayer
370
-1
48
1
60
0
100
AcDbLine
10
22.71539
20
-13.375
30
0
11
22.71539
21
-29.125
31
0
39
0
210
0
220
0
230
1
0
LINE
5
2B8
100
AcDbEntity
8
2
62
256
6
ByLayer
370
-1
48
1
60
0
100
AcDbLine
10
60
20
-26.125
30
0
11
22.71539
21
-26.125
31
0
39
0
210
0
220
0
230
1
0
LINE
5
2B9
100
AcDbEntity
8
2
62
256
6
ByLayer
370
-1
48
1
60
0
100
AcDbLine
10
60
20
-26.125
30
0
11
57.000001
21
-26.519957
31
0
39
0
210
0
220
0
230
1
0
LINE
5
2BA
100
AcDbEntity
8
2
62
256
6
ByLayer
370
-1
48
1
60
0
100
AcDbLine
10
60
20
-26.125
30
0
11
56.999999
21
-25.730043
31
0
39
0
210
0
220
0
230
1
0
LINE
5
2BB
100
AcDbEntity
8
2
62
256
6
ByLayer
370
-1
48
1
60
0
100
AcDbLine
10
57.000001
20
-26.519957
30
0
11
56.999999
21
-25.730043
31
0
39
0
210
0
220
0
230
1
0
LINE
5
2BC
100
AcDbEntity
8
2
62
256
6
ByLayer
370
-1
48
1
60
0
100
AcDbLine
10
22.71539
20
-26.125
30
0
11
25.715389
21
-25.730043
31
0
39
0
210
0
220
0
230
1
0
LINE
5
2BD
100
AcDbEntity
8
2
62
256
6
ByLayer
370
-1
48
1
60
0
100
AcDbLine
10
22.71539
20
-26.125
30
0
11
25.715392
21
-26.519957
31
0
39
0
210
0
220
0
230
1
0
LINE
5
2BE
100
AcDbEntity
8
2
62
256
6
ByLayer
370
-1
48
1
60
0
100
AcDbLine
10
25.715389
20
-25.730043
30
0
11
25.715392
21
-26.519957
31
0
39
0
210
0
220
0
230
1
0
ENDBLK
5
2C0
100
AcDbEntity
8
0
100
AcDbBlockEnd
0
BLOCK
5
2C3
100
AcDbEntity
8
0
100
AcDbBlockBegin
2
_CLOSED
70
0
10
0
20
0
30
0
3
_CLOSED
0
LINE
5
2C5
100
AcDbEntity
8
0
62
256
6
ByLayer
370
-2
48
1
60
0
100
AcDbLine
10
-1
20
0.166667
30
0
11
0
21
0
31
0
39
0
210
0
220
0
230
1
0
LINE
5
2C6
100
AcDbEntity
8
0
62
256
6
ByLayer
370
-2
48
1
60
0
100
AcDbLine
10
0
20
0
30
0
11
-1
21
-0.166667
31
0
39
0
210
0
220
0
230
1
0
LINE
5
2C7
100
AcDbEntity
8
0
62
256
6
ByLayer
370
-2
48
1
60
0
100
AcDbLine
10
-1
20
0.166667
30
0
11
-1
21
-0.166667
31
0
39
0
210
0
220
0
230
1
0
LINE
5
2C8
100
AcDbEntity
8
0
62
256
6
ByLayer
370
-2
48
1
60
0
100
AcDbLine
10
0
20
0
30
0
11
-1
21
0
31
0
39
0
210
0
220
0
230
1
0
ENDBLK
5
2C4
100
AcDbEntity
8
0
100
AcDbBlockEnd
0
BLOCK
5
2D4
100
AcDbEntity
8
0
100
AcDbBlockBegin
2
DimnDraft3D2
70
0
10
0
20
0
30
0
3
DimnDraft3D2
0
MTEXT
5
2CA
100
AcDbEntity
8
2
62
256
6
ByLayer
370
-1
48
1
60
0
100
AcDbMText
10
28.496053
20
-35
30
0
210
0
220
0
230
1
1
\W01.000;\fsimplex.shx,bigfont.shx;60 
40
4.5
41
0
44
1.084337
50
0
71
7
72
5
7
DEFAULT
0
LINE
5
2CB
100
AcDbEntity
8
2
62
256
6
ByLayer
370
-1
48
1
60
0
100
AcDbLine
10
60
20
-13.375
30
0
11
60
21
-39.125
31
0
39
0
210
0
220
0
230
1
0
LINE
5
2CC
100
AcDbEntity
8
2
62
256
6
ByLayer
370
-1
48
1
60
0
100
AcDbLine
10
0
20
-1.501
30
0
11
0
21
-39.125
31
0
39
0
210
0
220
0
230
1
0
LINE
5
2CD
100
AcDbEntity
8
2
62
256
6
ByLayer
370
-1
48
1
60
0
100
AcDbLine
10
60
20
-36.125
30
0
11
0
21
-36.125
31
0
39
0
210
0
220
0
230
1
0
LINE
5
2CE
100
AcDbEntity
8
2
62
256
6
ByLayer
370
-1
48
1
60
0
100
AcDbLine
10
60
20
-36.125
30
0
11
57.000001
21
-36.519957
31
0
39
0
210
0
220
0
230
1
0
LINE
5
2CF
100
AcDbEntity
8
2
62
256
6
ByLayer
370
-1
48
1
60
0
100
AcDbLine
10
60
20
-36.125
30
0
11
56.999999
21
-35.730043
31
0
39
0
210
0
220
0
230
1
0
LINE
5
2D0
100
AcDbEntity
8
2
62
256
6
ByLayer
370
-1
48
1
60
0
100
AcDbLine
10
57.000001
20
-36.519957
30
0
11
56.999999
21
-35.730043
31
0
39
0
210
0
220
0
230
1
0
LINE
5
2D1
100
AcDbEntity
8
2
62
256
6
ByLayer
370
-1
48
1
60
0
100
AcDbLine
10
0
20
-36.125
30
0
11
2.999999
21
-35.730043
31
0
39
0
210
0
220
0
230
1
0
LINE
5
2D2
100
AcDbEntity
8
2
62
256
6
ByLayer
370
-1
48
1
60
0
100
AcDbLine
10
0
20
-36.125
30
0
11
3.000001
21
-36.519957
31
0
39
0
210
0
220
0
230
1
0
LINE
5
2D3
100
AcDbEntity
8
2
62
256
6
ByLayer
370
-1
48
1
60
0
100
AcDbLine
10
2.999999
20
-35.730043
30
0
11
3.000001
21
-36.519957
31
0
39
0
210
0
220
0
230
1
0
ENDBLK
5
2D5
100
AcDbEntity
8
0
100
AcDbBlockEnd
0
BLOCK
5
2E3
100
AcDbEntity
8
0
100
AcDbBlockBegin
2
DimnDraft3D3
70
0
10
0
20
0
30
0
3
DimnDraft3D3
0
MTEXT
5
2D8
100
AcDbEntity
8
SK2
62
256
6
ByLayer
370
-1
48
1
60
0
100
AcDbMText
10
-34.875
20
-3.896053
30
0
210
0
220
0
230
1
1
\W01.000;\fsimplex.shx,bigfont.shx;%%c40 
40
4.5
41
0
44
1.084337
50
90
71
7
72
5
7
DEFAULT
0
LINE
5
2DA
100
AcDbEntity
8
SK2
62
256
6
ByLayer
370
-1
48
1
60
0
100
AcDbLine
10
-1.5
20
20
30
0
11
-36.75
21
20
31
0
39
0
210
0
220
0
230
1
0
LINE
5
2DB
100
AcDbEntity
8
SK2
62
256
6
ByLayer
370
-1
48
1
60
0
100
AcDbLine
10
-1.5
20
-20
30
0
11
-36.75
21
-20
31
0
39
0
210
0
220
0
230
1
0
LINE
5
2DC
100
AcDbEntity
8
SK2
62
256
6
ByLayer
370
-1
48
1
60
0
100
AcDbLine
10
-33.75
20
20
30
0
11
-33.75
21
-20
31
0
39
0
210
0
220
0
230
1
0
LINE
5
2DD
100
AcDbEntity
8
SK2
62
256
6
ByLayer
370
-1
48
1
60
0
100
AcDbLine
10
-33.75
20
20
30
0
11
-33.355043
21
17.000001
31
0
39
0
210
0
220
0
230
1
0
LINE
5
2DE
100
AcDbEntity
8
SK2
62
256
6
ByLayer
370
-1
48
1
60
0
100
AcDbLine
10
-33.75
20
20
30
0
11
-34.144957
21
16.999999
31
0
39
0
210
0
220
0
230
1
0
LINE
5
2DF
100
AcDbEntity
8
SK2
62
256
6
ByLayer
370
-1
48
1
60
0
100
AcDbLine
10
-33.355043
20
17.000001
30
0
11
-34.144957
21
16.999999
31
0
39
0
210
0
220
0
230
1
0
LINE
5
2E0
100
AcDbEntity
8
SK2
62
256
6
ByLayer
370
-1
48
1
60
0
100
AcDbLine
10
-33.75
20
-20
30
0
11
-34.144957
21
-17.000001
31
0
39
0
210
0
220
0
230
1
0
LINE
5
2E1
100
AcDbEntity
8
SK2
62
256
6
ByLayer
370
-1
48
1
60
0
100
AcDbLine
10
-33.75
20
-20
30
0
11
-33.355043
21
-16.999999
31
0
39
0
210
0
220
0
230
1
0
LINE
5
2E2
100
AcDbEntity
8
SK2
62
256
6
ByLayer
370
-1
48
1
60
0
100
AcDbLine
10
-34.144957
20
-17.000001
30
0
11
-33.355043
21
-16.999999
31
0
39
0
210
0
220
0
230
1
0
ENDBLK
5
2E4
100
AcDbEntity
8
0
100
AcDbBlockEnd
0
BLOCK
5
2F1
100
AcDbEntity
8
0
100
AcDbBlockBegin
2
DimnDraft3D4
70
0
10
0
20
0
30
0
3
DimnDraft3D4
0
MTEXT
5
2E7
100
AcDbEntity
8
2
62
256
6
ByLayer
370
-1
48
1
60
0
100
AcDbMText
10
73.125
20
-6.878947
30
0
210
0
220
0
230
1
1
\W01.000;\fsimplex.shx,bigfont.shx;12 
40
4.5
41
0
44
1.084337
50
90
71
7
72
5
7
DEFAULT
0
LINE
5
2E8
100
AcDbEntity
8
2
62
256
6
ByLayer
370
-1
48
1
60
0
100
AcDbLine
10
66.5
20
0
30
0
11
77.25
21
0
31
0
39
0
210
0
220
0
230
1
0
LINE
5
2E9
100
AcDbEntity
8
2
62
256
6
ByLayer
370
-1
48
1
60
0
100
AcDbLine
10
61.5
20
-11.875
30
0
11
77.25
21
-11.875
31
0
39
0
210
0
220
0
230
1
0
LINE
5
2EA
100
AcDbEntity
8
2
62
256
6
ByLayer
370
-1
48
1
60
0
100
AcDbLine
10
74.25
20
11.25
30
0
11
74.25
21
-23.125
31
0
39
0
210
0
220
0
230
1
0
LINE
5
2EB
100
AcDbEntity
8
2
62
256
6
ByLayer
370
-1
48
1
60
0
100
AcDbLine
10
74.25
20
0
30
0
11
73.855043
21
2.999999
31
0
39
0
210
0
220
0
230
1
0
LINE
5
2EC
100
AcDbEntity
8
2
62
256
6
ByLayer
370
-1
48
1
60
0
100
AcDbLine
10
74.25
20
0
30
0
11
74.644957
21
3.000001
31
0
39
0
210
0
220
0
230
1
0
LINE
5
2ED
100
AcDbEntity
8
2
62
256
6
ByLayer
370
-1
48
1
60
0
100
AcDbLine
10
73.855043
20
2.999999
30
0
11
74.644957
21
3.000001
31
0
39
0
210
0
220
0
230
1
0
LINE
5
2EE
100
AcDbEntity
8
2
62
256
6
ByLayer
370
-1
48
1
60
0
100
AcDbLine
10
74.25
20
-11.875
30
0
11
74.644957
21
-14.874999
31
0
39
0
210
0
220
0
230
1
0
LINE
5
2EF
100
AcDbEntity
8
2
62
256
6
ByLayer
370
-1
48
1
60
0
100
AcDbLine
10
74.25
20
-11.875
30
0
11
73.855043
21
-14.875001
31
0
39
0
210
0
220
0
230
1
0
LINE
5
2F0
100
AcDbEntity
8
2
62
256
6
ByLayer
370
-1
48
1
60
0
100
AcDbLine
10
74.644957
20
-14.874999
30
0
11
73.855043
21
-14.875001
31
0
39
0
210
0
220
0
230
1
0
ENDBLK
5
2F2
100
AcDbEntity
8
0
100
AcDbBlockEnd
0
ENDSEC
0
SECTION
2
ENTITIES
0
ARC
5
163
100
AcDbEntity
8
SK1
62
256
6
ByLayer
370
-1
48
1
60
0
100
AcDbCircle
39
0
10
0.6
20
-15
30
0
40
1
210
0
220
0
230
-1
100
AcDbArc
50
113.578178
51
126.869898
0
ARC
5
164
100
AcDbEntity
8
SK1
62
256
6
ByLayer
370
-1
48
1
60
0
100
AcDbCircle
39
0
10
0.6
20
15
30
0
40
1
210
0
220
0
230
-1
100
AcDbArc
50
233.130102
51
246.421822
0
ARC
5
165
100
AcDbEntity
8
1
62
256
6
ByLayer
370
-1
48
1
60
0
100
AcDbCircle
39
0
10
-23.636183
20
-9.2
30
0
40
1.2
210
0
220
0
230
-1
100
AcDbArc
50
15
51
90
0
ARC
5
166
100
AcDbEntity
8
1
62
256
6
ByLayer
370
-1
48
1
60
0
100
AcDbCircle
39
0
10
-23.636183
20
9.2
30
0
40
1.2
210
0
220
0
230
-1
100
AcDbArc
50
270
51
345
0
ARC
5
167
100
AcDbEntity
8
1
62
256
6
ByLayer
370
-1
48
1
60
0
100
AcDbCircle
39
0
10
-44.772532
20
-8.8
30
0
40
0.8
210
0
220
0
230
-1
100
AcDbArc
50
90
51
132.089154
0
ELLIPSE
5
168
100
AcDbEntity
8
1
62
256
6
ByLayer
370
-1
48
1
60
0
100
AcDbEllipse
10
51.803073
20
4.41391
30
0
11
-2.5
21
3.06151588455594E-16
31
0
210
0
220
0
230
1
40
0.258819
41
-1.57079641371849
42
-1.32653760136537
0
ELLIPSE
5
169
100
AcDbEntity
8
1
62
256
6
ByLayer
370
-1
48
1
60
0
100
AcDbEllipse
10
51.803073
20
4.41391
30
0
11
-2.5
21
3.06151588455594E-16
31
0
210
0
220
0
230
1
40
0.258819
41
-1.81505523101821
42
-1.5707964137185
0
ELLIPSE
5
16A
100
AcDbEntity
8
1
62
256
6
ByLayer
370
-1
48
1
60
0
100
AcDbEllipse
10
146.732518
20
-0.000984
30
0
11
-255.469402911991
21
-2.23231898432104
31
0
210
0
220
0
230
1
40
0.032578
41
1.16376988956521
42
1.16872489752072
0
ELLIPSE
5
16B
100
AcDbEntity
8
1
62
256
6
ByLayer
370
-1
48
1
60
0
100
AcDbEllipse
10
51.803073
20
5.669614
30
0
11
-2.5
21
3.06151588455594E-16
31
0
210
0
220
0
230
1
40
0.258819
41
0
42
6.28318530717959
0
ELLIPSE
5
16C
100
AcDbEntity
8
1
62
256
6
ByLayer
370
-1
48
1
60
0
100
AcDbEllipse
10
16.948929
20
0
30
0
11
-9.36741787978175
21
19.7417491527498
31
0
210
0
220
0
230
1
40
0.341999
41
0.152726244898342
42
1.09631952749991
0
ELLIPSE
5
16D
100
AcDbEntity
8
1
62
256
6
ByLayer
370
-1
48
1
60
0
100
AcDbEllipse
10
49.157559
20
4.216125
30
0
11
-1.38544360459185
21
-0.00318113077551087
31
0
210
0
220
0
230
1
40
0.224206
41
-1.54210764121024
42
0.028688685584499
0
ELLIPSE
5
16E
100
AcDbEntity
8
1
62
256
6
ByLayer
370
-1
48
1
60
0
100
AcDbEllipse
10
49.573869
20
0
30
0
11
-9.23910067542758
21
-6.94118177627972
31
0
210
0
220
0
230
1
40
0.4305
41
-1.36639496581734
42
0.142944877781686
0
ELLIPSE
5
16F
100
AcDbEntity
8
1
62
256
6
ByLayer
370
-1
48
1
60
0
100
AcDbEllipse
10
64.665438
20
0
30
0
11
-7.9667447478792
21
7.95784698255787
31
0
210
0
220
0
230
1
40
0.114546
41
-0.73803286540447
42
-0.654470053284134
0
ELLIPSE
5
170
100
AcDbEntity
8
1
62
256
6
ByLayer
370
-1
48
1
60
0
100
AcDbEllipse
10
50.215012
20
-7.504488
30
0
11
0.550000000000002
21
0
31
0
210
0
220
0
230
1
40
0.258819
41
0.838260856331805
42
1.46273676928103
0
ELLIPSE
5
171
100
AcDbEntity
8
1
62
256
6
ByLayer
370
-1
48
1
60
0
100
AcDbEllipse
10
-0.948929
20
0
30
0
11
-9.36741787978168
21
-19.7417491527498
31
0
210
0
220
0
230
1
40
0.341999
41
2.04527312608988
42
2.98886640869145
0
ELLIPSE
5
172
100
AcDbEntity
8
1
62
256
6
ByLayer
370
-1
48
1
60
0
100
AcDbEllipse
10
146.744094
20
-2E-06
30
0
11
-237.171406319775
21
-2.07275150444905
31
0
210
0
220
0
230
1
40
0.032579
41
1.11198048531698
42
1.12607555357974
0
ELLIPSE
5
173
100
AcDbEntity
8
1
62
256
6
ByLayer
370
-1
48
1
60
0
100
AcDbEllipse
10
16.948929
20
0
30
0
11
-9.3674178797817
21
-19.7417491527498
31
0
210
0
220
0
230
1
40
0.341999
41
-1.09631952749992
42
-0.152726244898351
0
ELLIPSE
5
174
100
AcDbEntity
8
1
62
256
6
ByLayer
370
-1
48
1
60
0
100
AcDbEllipse
10
47.208936
20
-3.652201
30
0
11
-1.73544496038003
21
-0.225876484774545
31
0
210
0
220
0
230
1
40
0.965332
41
-1.73189265793649
42
0.785662798824616
0
ELLIPSE
5
175
100
AcDbEntity
8
1
62
256
6
ByLayer
370
-1
48
1
60
0
100
AcDbEllipse
10
47.099156
20
-2.464631
30
0
11
-1.74257041965985
21
-0.161084861257976
31
0
210
0
220
0
230
1
40
0.965649
41
0.361985546288721
42
1.48176705713794
0
ELLIPSE
5
176
100
AcDbEntity
8
1
62
256
6
ByLayer
370
-1
48
1
60
0
100
AcDbEllipse
10
47.099156
20
-2.464631
30
0
11
-1.74257041965985
21
-0.161084861257976
31
0
210
0
220
0
230
1
40
0.965649
41
1.4817664855568
42
1.7150297625859
0
ELLIPSE
5
177
100
AcDbEntity
8
1
62
256
6
ByLayer
370
-1
48
1
60
0
100
AcDbEllipse
10
-0.948929
20
0
30
0
11
-9.36741787978086
21
19.7417491527488
31
0
210
0
220
0
230
1
40
0.341999
41
-2.98886640869144
42
-2.04527312608983
0
ELLIPSE
5
178
100
AcDbEntity
8
1
62
256
6
ByLayer
370
-1
48
1
60
0
100
AcDbEllipse
10
48.496152
20
-3.810733
30
0
11
-2.62944302282463
21
-0.342136838573736
31
0
210
0
220
0
230
1
40
0.965322
41
0.347488388865327
42
0.926207607501876
0
ELLIPSE
5
179
100
AcDbEntity
8
1
62
256
6
ByLayer
370
-1
48
1
60
0
100
AcDbEllipse
10
47.106332
20
-2.542255
30
0
11
-1.74257041965985
21
-0.161084861257976
31
0
210
0
220
0
230
1
40
0.965649
41
-2.73649399106235
42
-2.58903616182268
0
ELLIPSE
5
17A
100
AcDbEntity
8
1
62
256
6
ByLayer
370
-1
48
1
60
0
100
AcDbEllipse
10
47.106332
20
-2.542255
30
0
11
-1.74257041965985
21
-0.161084861257976
31
0
210
0
220
0
230
1
40
0.965649
41
1.38638694454966
42
1.73574788151876
0
ELLIPSE
5
17B
100
AcDbEntity
8
1
62
256
6
ByLayer
370
-1
48
1
60
0
100
AcDbEllipse
10
50.658348
20
0
30
0
11
-7.95718462310724
21
7.94790639383674
31
0
210
0
220
0
230
1
40
0.114547
41
-0.460803149839673
42
0.756037653121847
0
ELLIPSE
5
17C
100
AcDbEntity
8
1
62
256
6
ByLayer
370
-1
48
1
60
0
100
AcDbEllipse
10
48.474845
20
-3.449163
30
0
11
1.99150905103983
21
0.184096984294829
31
0
210
0
220
0
230
1
40
0.965649
41
-2.32546972911176
42
-2.18342468365581
0
ELLIPSE
5
17D
100
AcDbEntity
8
1
62
256
6
ByLayer
370
-1
48
1
60
0
100
AcDbEllipse
10
43.55191
20
-2.632407
30
0
11
-1.0470702533194
21
-1.09643951862954
31
0
210
0
220
0
230
1
40
0.653666
41
-2.93620913373824
42
0.471569211079031
0
ELLIPSE
5
17E
100
AcDbEntity
8
1
62
256
6
ByLayer
370
-1
48
1
60
0
100
AcDbEllipse
10
49.573869
20
0
30
0
11
-9.25064955204109
21
-6.94985825397845
31
0
210
0
220
0
230
1
40
0.4305
41
-1.55859588336816
42
-1.38195803856569
0
ELLIPSE
5
17F
100
AcDbEntity
8
1
62
256
6
ByLayer
370
-1
48
1
60
0
100
AcDbEllipse
10
46.740217
20
6.787018
30
0
11
-2.952284773256
21
-2.01568142586829
31
0
210
0
220
0
230
1
40
0.730716
41
1.02582917978462
42
1.09065920617715
0
ELLIPSE
5
180
100
AcDbEntity
8
1
62
256
6
ByLayer
370
-1
48
1
60
0
100
AcDbEllipse
10
59.758513
20
-8.031874
30
0
11
-0.0998721853702758
21
-0.304015701221771
31
0
210
0
220
0
230
1
40
0.030894
41
-1.83614197170418
42
-1.56049821075758
0
ELLIPSE
5
181
100
AcDbEntity
8
1
62
256
6
ByLayer
370
-1
48
1
60
0
100
AcDbEllipse
10
56.689251
20
2.275679
30
0
11
-0.289198812733645
21
-0.170212775398324
31
0
210
0
220
0
230
1
40
0.230783
41
-1.91729094078773
42
-1.64164717987929
0
ELLIPSE
5
182
100
AcDbEntity
8
1
62
256
6
ByLayer
370
-1
48
1
60
0
100
AcDbEllipse
10
48.905297
20
-4.353628
30
0
11
-0.829504793140041
21
-0.492477579216174
31
0
210
0
220
0
230
1
40
0.305211
41
0.00450811621322451
42
0.820957702250551
0
ELLIPSE
5
183
100
AcDbEntity
8
1
62
256
6
ByLayer
370
-1
48
1
60
0
100
AcDbEllipse
10
57.968364
20
1.712804
30
0
11
-0.00905888302365534
21
-0.890201608183835
31
0
210
0
220
0
230
1
40
0.36425
41
3.12166294991625
42
-2.34507277122593
0
ELLIPSE
5
184
100
AcDbEntity
8
1
62
256
6
ByLayer
370
-1
48
1
60
0
100
AcDbEllipse
10
57.830433
20
-9.724628
30
0
11
-0.00161411563797133
21
0.18634271995133
31
0
210
0
220
0
230
1
40
0.965414
41
-3.14152690241962
42
-2.19797858380998
0
ELLIPSE
5
185
100
AcDbEntity
8
1
62
256
6
ByLayer
370
-1
48
1
60
0
100
AcDbEllipse
10
49.379158
20
-2.495221
30
0
11
-0.352818355792377
21
-0.579522284475822
31
0
210
0
220
0
230
1
40
0.077955
41
-2.60472539840696
42
-1.74179175243261
0
ELLIPSE
5
186
100
AcDbEntity
8
1
62
256
6
ByLayer
370
-1
48
1
60
0
100
AcDbEllipse
10
58.986526
20
-8.971406
30
0
11
-0.0011108456186547
21
0.25455601745394
31
0
210
0
220
0
230
1
40
0.99947
41
-0.549766189628604
42
0.558493844770841
0
ELLIPSE
5
187
100
AcDbEntity
8
1
62
256
6
ByLayer
370
-1
48
1
60
0
100
AcDbEllipse
10
58.542222
20
2.126586
30
0
11
0.0213831913664053
21
0.329306482060387
31
0
210
0
220
0
230
1
40
0.180834
41
-1.17187192918116
42
-0.82280607878234
0
ELLIPSE
5
188
100
AcDbEntity
8
1
62
256
6
ByLayer
370
-1
48
1
60
0
100
AcDbEllipse
10
48.769498
20
-4.209115
30
0
11
-0.329978987874474
21
-0.0037239174719496
31
0
210
0
220
0
230
1
40
0.388343
41
-2.1967043170229
42
-1.31568299101352
0
ELLIPSE
5
189
100
AcDbEntity
8
1
62
256
6
ByLayer
370
-1
48
1
60
0
100
AcDbEllipse
10
58.999662
20
-9.693242
30
0
11
0.287254667490144
21
-0.162433851167566
31
0
210
0
220
0
230
1
40
0.016158
41
-1.59907522440318
42
-1.25000937400391
0
ELLIPSE
5
18A
100
AcDbEntity
8
1
62
256
6
ByLayer
370
-1
48
1
60
0
100
AcDbEllipse
10
48.68588
20
-3.193928
30
0
11
-0.163001787035898
21
-0.0802780296938706
31
0
210
0
220
0
230
1
40
0.905973
41
-0.947834104621586
42
-0.00428578601691219
0
ELLIPSE
5
18B
100
AcDbEntity
8
1
62
256
6
ByLayer
370
-1
48
1
60
0
100
AcDbEllipse
10
58.688119
20
-9.164069
30
0
11
-0.177923566733258
21
0.277926616934967
31
0
210
0
220
0
230
1
40
0.36765
41
0.725349681265614
42
1.54179926730304
0
ELLIPSE
5
18C
100
AcDbEntity
8
1
62
256
6
ByLayer
370
-1
48
1
60
0
100
AcDbEllipse
10
58.542222
20
2.126586
30
0
11
0.127183466692521
21
-0.304506758217404
31
0
210
0
220
0
230
1
40
0.504267
41
1.55223094315046
42
2.15365033946133
0
ELLIPSE
5
18D
100
AcDbEntity
8
1
62
256
6
ByLayer
370
-1
48
1
60
0
100
AcDbEllipse
10
48.769498
20
-4.209115
30
0
11
0.328176800678816
21
-0.0346408356743356
31
0
210
0
220
0
230
1
40
0.669793
41
1.06244249096473
42
1.87889207700209
0
ELLIPSE
5
18E
100
AcDbEntity
8
1
62
256
6
ByLayer
370
-1
48
1
60
0
100
AcDbEllipse
10
57.784685
20
2.018676
30
0
11
-0.839757204393619
21
0.475498385204404
31
0
210
0
220
0
230
1
40
0.309981
41
2.31126335047818
42
3.12771293651743
0
ELLIPSE
5
18F
100
AcDbEntity
8
1
62
256
6
ByLayer
370
-1
48
1
60
0
100
AcDbEllipse
10
59.295086
20
-9.15874
30
0
11
-0.0011108456186547
21
0.25455601745394
31
0
210
0
220
0
230
1
40
0.99947
41
-0.854584839905517
42
-0.549766189628604
0
ELLIPSE
5
190
100
AcDbEntity
8
1
62
256
6
ByLayer
370
-1
48
1
60
0
100
AcDbEllipse
10
55.94752
20
-9.4039
30
0
11
0.247903557316213
21
0.0323083003261867
31
0
210
0
220
0
230
1
40
0.965377
41
-2.2195512758002
42
-2.12341549807587
0
ELLIPSE
5
191
100
AcDbEntity
8
1
62
256
6
ByLayer
370
-1
48
1
60
0
100
AcDbEllipse
10
48.773253
20
-4.541867
30
0
11
-0.167953352766751
21
0.284062794632468
31
0
210
0
220
0
230
1
40
0.034828
41
1.10226222527213
42
1.98328355128159
0
ELLIPSE
5
192
100
AcDbEntity
8
1
62
256
6
ByLayer
370
-1
48
1
60
0
100
AcDbEllipse
10
55.21096
20
-3.724324
30
0
11
-2.98471991924173
21
-0.388986864829103
31
0
210
0
220
0
230
1
40
0.965377
41
-0.218324187844659
42
-3.05662693180145E-16
0
ELLIPSE
5
193
100
AcDbEntity
8
1
62
256
6
ByLayer
370
-1
48
1
60
0
100
AcDbEllipse
10
55.21096
20
-3.724324
30
0
11
-2.98471991924173
21
-0.388986864829103
31
0
210
0
220
0
230
1
40
0.965377
41
0
42
1.44563999607125
0
ELLIPSE
5
194
100
AcDbEntity
8
1
62
256
6
ByLayer
370
-1
48
1
60
0
100
AcDbEllipse
10
55.21096
20
-3.724324
30
0
11
-2.98471991924173
21
-0.388986864829103
31
0
210
0
220
0
230
1
40
0.965377
41
1.44564022103247
42
-2.92323519617559
0
ELLIPSE
5
195
100
AcDbEntity
8
1
62
256
6
ByLayer
370
-1
48
1
60
0
100
AcDbEllipse
10
47.464239
20
-3.866259
30
0
11
-0.0796897625495992
21
-0.0392470367409994
31
0
210
0
220
0
230
1
40
0.905973
41
-1.97989131220671
42
-0.947834104652066
0
ELLIPSE
5
196
100
AcDbEntity
8
1
62
256
6
ByLayer
370
-1
48
1
60
0
100
AcDbEllipse
10
57.939462
20
2.165725
30
0
11
0.0213831913664053
21
0.329306482060387
31
0
210
0
220
0
230
1
40
0.180834
41
-1.17187192918118
42
-0.822806078782284
0
ELLIPSE
5
197
100
AcDbEntity
8
1
62
256
6
ByLayer
370
-1
48
1
60
0
100
AcDbEllipse
10
59.001811
20
-10.489677
30
0
11
-0.000789123204905061
21
0.0911008853100774
31
0
210
0
220
0
230
1
40
0.965414
41
-3.14152690246285
42
-2.10946969490606
0
ELLIPSE
5
198
100
AcDbEntity
8
1
62
256
6
ByLayer
370
-1
48
1
60
0
100
AcDbEllipse
10
47.462201
20
-3.869688
30
0
11
-0.0796897625526642
21
-0.0392470367378652
31
0
210
0
220
0
230
1
40
0.905973
41
-0.94783410459534
42
0.0842231029534767
0
ELLIPSE
5
199
100
AcDbEntity
8
1
62
256
6
ByLayer
370
-1
48
1
60
0
100
AcDbEllipse
10
52.26089
20
-0.894015
30
0
11
-0.131574977541029
21
-0.0720279479443764
31
0
210
0
220
0
230
1
40
0.244182
41
1.47601452887184
42
2.18853910739836
0
ELLIPSE
5
19A
100
AcDbEntity
8
1
62
256
6
ByLayer
370
-1
48
1
60
0
100
AcDbEllipse
10
59.487577
20
-2.954754
30
0
11
0.00433519637841055
21
0.149937340487154
31
0
210
0
220
0
230
1
40
0.042612
41
-2.54384765808419
42
-1.83132307955807
0
ELLIPSE
5
19B
100
AcDbEntity
8
1
62
256
6
ByLayer
370
-1
48
1
60
0
100
AcDbEllipse
10
59.256262
20
2.528061
30
0
11
-0.0855210847065237
21
0.02555169482141
31
0
210
0
220
0
230
1
40
0.912025
41
2.89468297244835
42
-2.3564451271596
0
ELLIPSE
5
19C
100
AcDbEntity
8
1
62
256
6
ByLayer
370
-1
48
1
60
0
100
AcDbEllipse
10
59.301924
20
-9.15871
30
0
11
0.287254667490144
21
-0.162433851167566
31
0
210
0
220
0
230
1
40
0.016158
41
-1.59907522440312
42
-1.25000937400406
0
ELLIPSE
5
19D
100
AcDbEntity
8
1
62
256
6
ByLayer
370
-1
48
1
60
0
100
AcDbEllipse
10
59.754862
20
-0.644971
30
0
11
0.247903557316213
21
0.0323083003261867
31
0
210
0
220
0
230
1
40
0.965377
41
-0.125156173406949
42
-0.0290203956826718
0
ELLIPSE
5
19E
100
AcDbEntity
8
1
62
256
6
ByLayer
370
-1
48
1
60
0
100
AcDbEllipse
10
57.509907
20
2.49379
30
0
11
-0.242957627014581
21
0.0725900420945505
31
0
210
0
220
0
230
1
40
0.912025
41
-1.32438791965533
42
-0.78564880041989
0
ELLIPSE
5
19F
100
AcDbEntity
8
1
62
256
6
ByLayer
370
-1
48
1
60
0
100
AcDbEllipse
10
58.122611
20
-9.853018
30
0
11
-0.00116575018895338
21
0.134580853299215
31
0
210
0
220
0
230
1
40
0.965414
41
6.57511275226389E-05
42
0.943614069732883
0
ELLIPSE
5
1A0
100
AcDbEntity
8
1
62
256
6
ByLayer
370
-1
48
1
60
0
100
AcDbEllipse
10
48.773253
20
-4.541867
30
0
11
0.329978987874474
21
0.00372391747194969
31
0
210
0
220
0
230
1
40
0.388343
41
0.944888336566896
42
1.82590966257632
0
ELLIPSE
5
1A1
100
AcDbEntity
8
1
62
256
6
ByLayer
370
-1
48
1
60
0
100
AcDbEllipse
10
53.313324
20
-1.223337
30
0
11
0.0363391848132859
21
-0.145531658573335
31
0
210
0
220
0
230
1
40
0.031018
41
-1.48320439880975
42
-1.30867147360984
0
ELLIPSE
5
1A2
100
AcDbEntity
8
1
62
256
6
ByLayer
370
-1
48
1
60
0
100
AcDbEllipse
10
48.719371
20
-4.463558
30
0
11
0.209711886300684
21
0.144294576281328
31
0
210
0
220
0
230
1
40
0.89169
41
-1.64781454596464
42
-0.539554511565131
0
ELLIPSE
5
1A3
100
AcDbEntity
8
1
62
256
6
ByLayer
370
-1
48
1
60
0
100
AcDbEllipse
10
48.715616
20
-4.130806
30
0
11
0.209711886300684
21
0.144294576281328
31
0
210
0
220
0
230
1
40
0.89169
41
-0.539554511565131
42
-0.234735861288249
0
ELLIPSE
5
1A4
100
AcDbEntity
8
1
62
256
6
ByLayer
370
-1
48
1
60
0
100
AcDbEllipse
10
49.880739
20
-1.630907
30
0
11
-0.140009176645441
21
-0.240860352768584
31
0
210
0
220
0
230
1
40
0.086219
41
0.516801866194437
42
0.943376981846867
0
ELLIPSE
5
1A5
100
AcDbEntity
8
1
62
256
6
ByLayer
370
-1
48
1
60
0
100
AcDbEllipse
10
58.681281
20
-9.164098
30
0
11
-0.0011108456186547
21
0.25455601745394
31
0
210
0
220
0
230
1
40
0.99947
41
0.55849384477088
42
0.863312495047779
0
ELLIPSE
5
1A6
100
AcDbEntity
8
1
62
256
6
ByLayer
370
-1
48
1
60
0
100
AcDbEllipse
10
47.331198
20
-2.845431
30
0
11
-0.0872620521753069
21
-0.011372521714818
31
0
210
0
220
0
230
1
40
0.965377
41
-1.68081215656674
42
-0.648754949005252
0
ELLIPSE
5
1A7
100
AcDbEntity
8
1
62
256
6
ByLayer
370
-1
48
1
60
0
100
AcDbEllipse
10
59.616307
20
0.418171
30
0
11
0.247903557316213
21
0.0323083003261867
31
0
210
0
220
0
230
1
40
0.965377
41
2.00176312149303E-06
42
0.398442602191328
0
ELLIPSE
5
1A8
100
AcDbEntity
8
1
62
256
6
ByLayer
370
-1
48
1
60
0
100
AcDbEllipse
10
57.939462
20
2.165725
30
0
11
-0.329925556072602
21
0.00700909767262973
31
0
210
0
220
0
230
1
40
0.387366
41
-1.75524732150692
42
-0.874225995497506
0
ELLIPSE
5
1A9
100
AcDbEntity
8
1
62
256
6
ByLayer
370
-1
48
1
60
0
100
AcDbEllipse
10
59.758513
20
-8.031874
30
0
11
0.151526441011298
21
-0.281850559116794
31
0
210
0
220
0
230
1
40
0.028752
41
-2.75605480880322
42
-1.5860910005705
0
ELLIPSE
5
1AA
100
AcDbEntity
8
1
62
256
6
ByLayer
370
-1
48
1
60
0
100
AcDbEllipse
10
48.176019
20
-4.258698
30
0
11
0.126635808899252
21
0.304734920717059
31
0
210
0
220
0
230
1
40
0.555252
41
1.01747861494672
42
1.61889801125757
0
ELLIPSE
5
1AB
100
AcDbEntity
8
1
62
256
6
ByLayer
370
-1
48
1
60
0
100
AcDbEllipse
10
55.244927
20
-3.98495
30
0
11
3.05458417278442
21
0.398091999543409
31
0
210
0
220
0
230
1
40
0.965377
41
0
42
6.28318530717959
0
ELLIPSE
5
1AC
100
AcDbEntity
8
1
62
256
6
ByLayer
370
-1
48
1
60
0
100
AcDbEllipse
10
52.02212
20
-0.45785
30
0
11
-0.128694594757354
21
-0.077275247594556
31
0
210
0
220
0
230
1
40
0.240247
41
1.4664271172034
42
2.17895169570596
0
ELLIPSE
5
1AD
100
AcDbEntity
8
1
62
256
6
ByLayer
370
-1
48
1
60
0
100
AcDbEllipse
10
58.993364
20
-8.971376
30
0
11
-0.171258174322715
21
-0.282082678886263
31
0
210
0
220
0
230
1
40
0.027765
41
-2.43479633299415
42
-1.55377500698521
0
ELLIPSE
5
1AE
100
AcDbEntity
8
1
62
256
6
ByLayer
370
-1
48
1
60
0
100
AcDbEllipse
10
59.999663
20
-7.03665
30
0
11
-0.00112078330504986
21
0.175200356940385
31
0
210
0
220
0
230
1
40
0.028145
41
-2.73677093597736
42
-1.7942931400065
0
ELLIPSE
5
1AF
100
AcDbEntity
8
1
62
256
6
ByLayer
370
-1
48
1
60
0
100
AcDbEllipse
10
49.188346
20
-5.596384
30
0
11
0.318680845545932
21
0.0290261723644354
31
0
210
0
220
0
230
1
40
0.190982
41
0.640319412308409
42
1.63092473829559
0
ELLIPSE
5
1B0
100
AcDbEntity
8
1
62
256
6
ByLayer
370
-1
48
1
60
0
100
AcDbEllipse
10
58.999662
20
-9.693242
30
0
11
-0.284376105461714
21
-0.16742231225983
31
0
210
0
220
0
230
1
40
0.016405
41
-1.54265949171743
42
-1.1935936413183
0
ELLIPSE
5
1B1
100
AcDbEntity
8
1
62
256
6
ByLayer
370
-1
48
1
60
0
100
AcDbEllipse
10
59.121184
20
3.552283
30
0
11
-0.087262052175304
21
-0.0113725217148176
31
0
210
0
220
0
230
1
40
0.965377
41
-2.74315005139846
42
-1.71109284383709
0
ELLIPSE
5
1B2
100
AcDbEntity
8
1
62
256
6
ByLayer
370
-1
48
1
60
0
100
AcDbEllipse
10
52.704116
20
-1.375456
30
0
11
0.0363391848132859
21
-0.145531658573335
31
0
210
0
220
0
230
1
40
0.031018
41
-1.48320439880989
42
-1.30867147361029
0
ELLIPSE
5
1B3
100
AcDbEntity
8
1
62
256
6
ByLayer
370
-1
48
1
60
0
100
AcDbEllipse
10
59.169212
20
-8.856082
30
0
11
-0.815880123382906
21
-0.515113493590578
31
0
210
0
220
0
230
1
40
0.341959
41
-0.827075079798169
42
-0.0106254937596185
0
ELLIPSE
5
1B4
100
AcDbEntity
8
1
62
256
6
ByLayer
370
-1
48
1
60
0
100
AcDbEllipse
10
49.188346
20
-5.596384
30
0
11
-0.319395980548361
21
0.0196521655181067
31
0
210
0
220
0
230
1
40
0.37118
41
-2.45801148530608
42
-1.28804767707351
0
ELLIPSE
5
1B5
100
AcDbEntity
8
1
62
256
6
ByLayer
370
-1
48
1
60
0
100
AcDbEllipse
10
48.176019
20
-4.258698
30
0
11
-0.28123916394654
21
-0.17263989302201
31
0
210
0
220
0
230
1
40
0.452158
41
-1.54721111003978
42
-1.19814525964093
0
ELLIPSE
5
1B6
100
AcDbEntity
8
1
62
256
6
ByLayer
370
-1
48
1
60
0
100
AcDbEllipse
10
58.831094
20
-3.088807
30
0
11
-0.143834238271017
21
0.0425642091550657
31
0
210
0
220
0
230
1
40
0.239817
41
1.67672138416136
42
1.85125430936086
0
ELLIPSE
5
1B7
100
AcDbEntity
8
1
62
256
6
ByLayer
370
-1
48
1
60
0
100
AcDbEllipse
10
58.982756
20
-8.539376
30
0
11
-0.0160813469144411
21
1.8430478819378
31
0
210
0
220
0
230
1
40
0.178949
41
2.84088381131831
42
-2.84088209955023
0
ELLIPSE
5
1B8
100
AcDbEntity
8
1
62
256
6
ByLayer
370
-1
48
1
60
0
100
AcDbEllipse
10
50.053447
20
-6.40931
30
0
11
-0.152366796108507
21
0.0885689546720756
31
0
210
0
220
0
230
1
40
0.177556
41
0.764184097438708
42
1.70666189350662
0
ELLIPSE
5
1B9
100
AcDbEntity
8
1
62
256
6
ByLayer
370
-1
48
1
60
0
100
AcDbEllipse
10
48.432037
20
-3.387433
30
0
11
-0.117723512848444
21
-0.0579785770115842
31
0
210
0
220
0
230
1
40
0.905973
41
2.19375854885068
42
3.13730686747677
0
ELLIPSE
5
1BA
100
AcDbEntity
8
1
62
256
6
ByLayer
370
-1
48
1
60
0
100
AcDbEllipse
10
48.721619
20
-4.662707
30
0
11
-0.00326779054638378
21
-0.890163367019361
31
0
210
0
220
0
230
1
40
0.358446
41
2.35640519754086
42
-3.11033052360167
0
ELLIPSE
5
1BB
100
AcDbEntity
8
1
62
256
6
ByLayer
370
-1
48
1
60
0
100
AcDbEllipse
10
48.310091
20
-3.592633
30
0
11
-0.117723512856655
21
-0.0579785770041047
31
0
210
0
220
0
230
1
40
0.905973
41
1.16170134137612
42
2.19375854893473
0
ELLIPSE
5
1BC
100
AcDbEntity
8
1
62
256
6
ByLayer
370
-1
48
1
60
0
100
AcDbEllipse
10
56.738477
20
2.052792
30
0
11
-0.124641651684533
21
-0.294727770434602
31
0
210
0
220
0
230
1
40
0.207616
41
-1.84844026175849
42
-0.857834935771356
0
ELLIPSE
5
1BD
100
AcDbEntity
8
1
62
256
6
ByLayer
370
-1
48
1
60
0
100
AcDbEllipse
10
58.542222
20
2.126586
30
0
11
0.279599485899562
21
-0.175282992571159
31
0
210
0
220
0
230
1
40
0.421259
41
1.25967511741871
42
1.60874096781756
0
ELLIPSE
5
1BE
100
AcDbEntity
8
1
62
256
6
ByLayer
370
-1
48
1
60
0
100
AcDbEllipse
10
57.932391
20
1.832879
30
0
11
-0.162905930262453
21
-0.286987208574398
31
0
210
0
220
0
230
1
40
0.02153
41
-2.00667918783186
42
-1.12565786182418
0
ELLIPSE
5
1BF
100
AcDbEntity
8
1
62
256
6
ByLayer
370
-1
48
1
60
0
100
AcDbEllipse
10
59.534388
20
0.222483
30
0
11
-0.354581940770574
21
0.613012806414401
31
0
210
0
220
0
230
1
40
0.045947
41
-2.39810500423198
42
-1.53517135830278
0
ELLIPSE
5
1C0
100
AcDbEntity
8
1
62
256
6
ByLayer
370
-1
48
1
60
0
100
AcDbEllipse
10
59.301924
20
-9.15871
30
0
11
0.171258174322715
21
0.282082678886263
31
0
210
0
220
0
230
1
40
0.027765
41
0.706796320594912
42
1.58781764660456
0
ELLIPSE
5
1C1
100
AcDbEntity
8
1
62
256
6
ByLayer
370
-1
48
1
60
0
100
AcDbEllipse
10
48.176019
20
-4.258698
30
0
11
-0.0274746039317434
21
0.32885429317373
31
0
210
0
220
0
230
1
40
0.244295
41
0.817871906210404
42
1.16693775660933
0
ELLIPSE
5
1C2
100
AcDbEntity
8
1
62
256
6
ByLayer
370
-1
48
1
60
0
100
AcDbEllipse
10
59.18163
20
1.246353
30
0
11
-0.174929491449546
21
0.0522648303118284
31
0
210
0
220
0
230
1
40
0.912025
41
-2.35644512719676
42
-1.41289680858385
0
ELLIPSE
5
1C3
100
AcDbEntity
8
1
62
256
6
ByLayer
370
-1
48
1
60
0
100
AcDbEllipse
10
58.997736
20
-10.489713
30
0
11
-0.000789123194509874
21
0.0911008853102418
31
0
210
0
220
0
230
1
40
0.965414
41
2.10960119726983
42
-3.14152690235321
0
ELLIPSE
5
1C4
100
AcDbEntity
8
1
62
256
6
ByLayer
370
-1
48
1
60
0
100
AcDbEllipse
10
48.462595
20
-4.725545
30
0
11
0.167953352766751
21
-0.284062794632467
31
0
210
0
220
0
230
1
40
0.034828
41
-2.03933042831789
42
-1.15830910230844
0
ELLIPSE
5
1C5
100
AcDbEntity
8
1
62
256
6
ByLayer
370
-1
48
1
60
0
100
AcDbEllipse
10
48.43067
20
-5.135033
30
0
11
-0.226391370880607
21
-0.111497263543503
31
0
210
0
220
0
230
1
40
0.905973
41
0.0842231026692195
42
0.622962221861945
0
ELLIPSE
5
1C6
100
AcDbEntity
8
1
62
256
6
ByLayer
370
-1
48
1
60
0
100
AcDbEllipse
10
57.181848
20
-9.730291
30
0
11
-0.00161411564634272
21
0.186342719949709
31
0
210
0
220
0
230
1
40
0.965414
41
2.19811008610268
42
-3.14152690246273
0
ELLIPSE
5
1C7
100
AcDbEntity
8
1
62
256
6
ByLayer
370
-1
48
1
60
0
100
AcDbEllipse
10
52.357371
20
-7.674774
30
0
11
-0.143596299233032
21
0.0840609519341901
31
0
210
0
220
0
230
1
40
0.187849
41
1.71533367293165
42
2.42091986255823
0
ELLIPSE
5
1C8
100
AcDbEntity
8
1
62
256
6
ByLayer
370
-1
48
1
60
0
100
AcDbEllipse
10
53.748253
20
-6.94149
30
0
11
0.105643713396577
21
0.106486646204028
31
0
210
0
220
0
230
1
40
0.208799
41
-1.90590966770954
42
-1.73137674251017
0
ELLIPSE
5
1C9
100
AcDbEntity
8
1
62
256
6
ByLayer
370
-1
48
1
60
0
100
AcDbEllipse
10
57.607617
20
1.736229
30
0
11
-1.55966722542343
21
-0.744929034928377
31
0
210
0
220
0
230
1
40
0.184513
41
2.85850182614665
42
-2.82326408472194
0
ELLIPSE
5
1CA
100
AcDbEntity
8
1
62
256
6
ByLayer
370
-1
48
1
60
0
100
AcDbEllipse
10
53.971143
20
-7.989678
30
0
11
0.12584393714589
21
-0.0816290602887306
31
0
210
0
220
0
230
1
40
0.201571
41
-2.11345478371613
42
-1.40093020518967
0
ELLIPSE
5
1CB
100
AcDbEntity
8
1
62
256
6
ByLayer
370
-1
48
1
60
0
100
AcDbEllipse
10
58.688119
20
-9.164069
30
0
11
-0.284376105461714
21
-0.16742231225983
31
0
210
0
220
0
230
1
40
0.016405
41
-1.54265949171739
42
-1.19359364131884
0
ELLIPSE
5
1CC
100
AcDbEntity
8
1
62
256
6
ByLayer
370
-1
48
1
60
0
100
AcDbEllipse
10
58.246364
20
1.654654
30
0
11
-0.20432276702833
21
-0.259137428546875
31
0
210
0
220
0
230
1
40
0.289609
41
1.20063241215637
42
2.01708199819381
0
ELLIPSE
5
1CD
100
AcDbEntity
8
1
62
256
6
ByLayer
370
-1
48
1
60
0
100
AcDbEllipse
10
48.462595
20
-4.725545
30
0
11
-0.28123916394654
21
-0.17263989302201
31
0
210
0
220
0
230
1
40
0.452158
41
-1.54721111003974
42
-1.19814525964088
0
ELLIPSE
5
1CE
100
AcDbEntity
8
1
62
256
6
ByLayer
370
-1
48
1
60
0
100
AcDbEllipse
10
58.246364
20
1.654654
30
0
11
0.279599485899562
21
-0.175282992571159
31
0
210
0
220
0
230
1
40
0.421259
41
1.25967511741865
42
1.60874096781751
0
ELLIPSE
5
1CF
100
AcDbEntity
8
1
62
256
6
ByLayer
370
-1
48
1
60
0
100
AcDbEllipse
10
56.738477
20
2.052792
30
0
11
0.312470068413981
21
0.0690105524203535
31
0
210
0
220
0
230
1
40
0.339082
41
1.2992605860208
42
1.57490434696752
0
ELLIPSE
5
1D0
100
AcDbEntity
8
1
62
256
6
ByLayer
370
-1
48
1
60
0
100
AcDbEllipse
10
53.362576
20
0.30182
30
0
11
-0.143281482016158
21
-0.0850670080483069
31
0
210
0
220
0
230
1
40
0.216652
41
0.772296500769592
42
1.47788269047912
0
ELLIPSE
5
1D1
100
AcDbEntity
8
1
62
256
6
ByLayer
370
-1
48
1
60
0
100
AcDbEllipse
10
56.738477
20
2.052792
30
0
11
0.175268193866227
21
0.267733188489718
31
0
210
0
220
0
230
1
40
0.050915
41
1.13720909497194
42
2.30717290320483
0
ELLIPSE
5
1D2
100
AcDbEntity
8
1
62
256
6
ByLayer
370
-1
48
1
60
0
100
AcDbEllipse
10
59.301924
20
-9.15871
30
0
11
-0.16952511551803
21
-0.283127595279229
31
0
210
0
220
0
230
1
40
0.315606
41
1.56330588196816
42
2.37975546800555
0
ELLIPSE
5
1D3
100
AcDbEntity
8
1
62
256
6
ByLayer
370
-1
48
1
60
0
100
AcDbEllipse
10
55.202482
20
-3.65927
30
0
11
-2.896552527557
21
-0.377496353759538
31
0
210
0
220
0
230
1
40
0.965377
41
-0.436762742985913
42
-3.1496667856851E-16
0
ELLIPSE
5
1D4
100
AcDbEntity
8
1
62
256
6
ByLayer
370
-1
48
1
60
0
100
AcDbEllipse
10
55.202482
20
-3.65927
30
0
11
-2.896552527557
21
-0.377496353759538
31
0
210
0
220
0
230
1
40
0.965377
41
0
42
1.44563999298636
0
ELLIPSE
5
1D5
100
AcDbEntity
8
1
62
256
6
ByLayer
370
-1
48
1
60
0
100
AcDbEllipse
10
55.202482
20
-3.65927
30
0
11
-2.896552527557
21
-0.377496353759538
31
0
210
0
220
0
230
1
40
0.965377
41
1.44564016416404
42
-2.70479652769069
0
ELLIPSE
5
1D6
100
AcDbEntity
8
1
62
256
6
ByLayer
370
-1
48
1
60
0
100
AcDbEllipse
10
58.688119
20
-9.164069
30
0
11
0.176156251761359
21
-0.279050129842989
31
0
210
0
220
0
230
1
40
0.027615
41
-2.46908070208739
42
-1.58805937607768
0
ELLIPSE
5
1D7
100
AcDbEntity
8
1
62
256
6
ByLayer
370
-1
48
1
60
0
100
AcDbEllipse
10
59.999663
20
-2.96956
30
0
11
-0.00130855131044641
21
0.150100407852029
31
0
210
0
220
0
230
1
40
0.032542
41
-2.54507254795864
42
-1.83254796970912
0
ELLIPSE
5
1D8
100
AcDbEntity
8
1
62
256
6
ByLayer
370
-1
48
1
60
0
100
AcDbEllipse
10
58.28657
20
1.733785
30
0
11
0.226945289156953
21
-0.115307570130787
31
0
210
0
220
0
230
1
40
0.906288
41
-1.62175668323861
42
-1.31693803296175
0
ELLIPSE
5
1D9
100
AcDbEntity
8
1
62
256
6
ByLayer
370
-1
48
1
60
0
100
AcDbEllipse
10
57.972596
20
1.91201
30
0
11
0.226945289156953
21
-0.115307570130787
31
0
210
0
220
0
230
1
40
0.906288
41
-2.7300167176381
42
-1.62175668323864
0
ELLIPSE
5
1DA
100
AcDbEntity
8
1
62
256
6
ByLayer
370
-1
48
1
60
0
100
AcDbEllipse
10
49.188346
20
-5.596384
30
0
11
-0.215215761079821
21
0.23681675654994
31
0
210
0
220
0
230
1
40
0.068153
41
-1.38132073512242
42
-1.1056769741757
0
ELLIPSE
5
1DB
100
AcDbEntity
8
1
62
256
6
ByLayer
370
-1
48
1
60
0
100
AcDbEllipse
10
49.010173
20
-2.648237
30
0
11
-0.163001787032289
21
-0.0802780296975731
31
0
210
0
220
0
230
1
40
0.905973
41
-1.89138242326083
42
-0.947834104651992
0
ELLIPSE
5
1DC
100
AcDbEntity
8
1
62
256
6
ByLayer
370
-1
48
1
60
0
100
AcDbEllipse
10
48.182672
20
-2.614941
30
0
11
0.128909849804431
21
0.016800316169617
31
0
210
0
220
0
230
1
40
0.965377
41
-1.6808121565666
42
-0.648754949005236
0
ELLIPSE
5
1DD
100
AcDbEntity
8
1
62
256
6
ByLayer
370
-1
48
1
60
0
100
AcDbEllipse
10
59.146722
20
1.541949
30
0
11
-0.126337966046848
21
0.037746821891842
31
0
210
0
220
0
230
1
40
0.912025
41
0.785147526392409
42
1.72869584500579
0
ELLIPSE
5
1DE
100
AcDbEntity
8
1
62
256
6
ByLayer
370
-1
48
1
60
0
100
AcDbEllipse
10
56.812572
20
-9.615649
30
0
11
-0.703412698144465
21
-0.024998010293395
31
0
210
0
220
0
230
1
40
0.118947
41
-1.48537429370567
42
-0.62244064775461
0
ELLIPSE
5
1DF
100
AcDbEntity
8
1
62
256
6
ByLayer
370
-1
48
1
60
0
100
AcDbEllipse
10
59.505923
20
0.706323
30
0
11
-0.174929491454423
21
0.0522648303070807
31
0
210
0
220
0
230
1
40
0.912025
41
2.98319186134504
42
-2.35644512723206
0
ELLIPSE
5
1E0
100
AcDbEntity
8
1
62
256
6
ByLayer
370
-1
48
1
60
0
100
AcDbEllipse
10
59.735191
20
-8.860812
30
0
11
-0.00224182734608017
21
0.258809333273619
31
0
210
0
220
0
230
1
40
0.965414
41
-2.10946969512712
42
-1.57073057591054
0
ELLIPSE
5
1E1
100
AcDbEntity
8
1
62
256
6
ByLayer
370
-1
48
1
60
0
100
AcDbEllipse
10
59.988916
20
-7.879693
30
0
11
-0.00182133632096424
21
0.382233948185777
31
0
210
0
220
0
230
1
40
0.027927
41
0.411196376257107
42
1.40180170224528
0
ELLIPSE
5
1E2
100
AcDbEntity
8
1
62
256
6
ByLayer
370
-1
48
1
60
0
100
AcDbEllipse
10
50.032398
20
-1.90598
30
0
11
0.247903557316213
21
0.0323083003261867
31
0
210
0
220
0
230
1
40
0.965377
41
1.96923892898621
42
2.06537470671049
0
ELLIPSE
5
1E3
100
AcDbEntity
8
1
62
256
6
ByLayer
370
-1
48
1
60
0
100
AcDbEllipse
10
58.246364
20
1.654654
30
0
11
0.162905930262453
21
0.286987208574398
31
0
210
0
220
0
230
1
40
0.02153
41
1.1349134657571
42
2.01593479176601
0
ELLIPSE
5
1E4
100
AcDbEntity
8
1
62
256
6
ByLayer
370
-1
48
1
60
0
100
AcDbEllipse
10
59.024776
20
1.74502
30
0
11
-0.126337966045068
21
0.0377468218935074
31
0
210
0
220
0
230
1
40
0.912025
41
-0.246909681154859
42
0.785147526413414
0
ELLIPSE
5
1E5
100
AcDbEntity
8
1
62
256
6
ByLayer
370
-1
48
1
60
0
100
AcDbEllipse
10
56.485064
20
2.159961
30
0
11
-0.335345611858016
21
-0.202133482164719
31
0
210
0
220
0
230
1
40
0.196502
41
-1.70665050981831
42
-0.716045183830293
0
ELLIPSE
5
1E6
100
AcDbEntity
8
1
62
256
6
ByLayer
370
-1
48
1
60
0
100
AcDbEllipse
10
53.697826
20
-8.411038
30
0
11
-0.129047565271334
21
0.0766809847291785
31
0
210
0
220
0
230
1
40
0.207713
41
1.01997516922378
42
1.73249974781351
0
ELLIPSE
5
1E7
100
AcDbEntity
8
1
62
256
6
ByLayer
370
-1
48
1
60
0
100
AcDbEllipse
10
55.802902
20
-9.607799
30
0
11
-0.282946175667609
21
-0.00181004967945208
31
0
210
0
220
0
230
1
40
0.13726
41
2.10369367174918
42
2.53026878695555
0
ELLIPSE
5
1E8
100
AcDbEntity
8
1
62
256
6
ByLayer
370
-1
48
1
60
0
100
AcDbEllipse
10
57.939462
20
2.165725
30
0
11
0.329330157514379
21
0.0210154074800879
31
0
210
0
220
0
230
1
40
0.673866
41
1.3503398154327
42
2.16678940147012
0
ELLIPSE
5
1E9
100
AcDbEntity
8
1
62
256
6
ByLayer
370
-1
48
1
60
0
100
AcDbEllipse
10
59.758513
20
-8.031874
30
0
11
-0.176362263404766
21
0.267013767522852
31
0
210
0
220
0
230
1
40
0.190428
41
-1.3835484399579
42
-0.392943113970868
0
ELLIPSE
5
1EA
100
AcDbEntity
8
1
62
256
6
ByLayer
370
-1
48
1
60
0
100
AcDbEllipse
10
57.932391
20
1.832879
30
0
11
0.329925556072602
21
-0.00700909767263007
31
0
210
0
220
0
230
1
40
0.387366
41
1.38634533208289
42
2.26736665809226
0
ELLIPSE
5
1EB
100
AcDbEntity
8
1
62
256
6
ByLayer
370
-1
48
1
60
0
100
AcDbEllipse
10
48.408713
20
-4.647235
30
0
11
0.209711886300684
21
0.144294576281328
31
0
210
0
220
0
230
1
40
0.89169
41
-1.9526331962415
42
-1.64781454596462
0
ELLIPSE
5
1EC
100
AcDbEntity
8
1
62
256
6
ByLayer
370
-1
48
1
60
0
100
AcDbEllipse
10
59.254224
20
2.531455
30
0
11
-0.0855210847106971
21
0.0255516948164409
31
0
210
0
220
0
230
1
40
0.912025
41
-2.35644512722464
42
-1.32438791967436
0
ELLIPSE
5
1ED
100
AcDbEntity
8
1
62
256
6
ByLayer
370
-1
48
1
60
0
100
AcDbEllipse
10
59.999663
20
-4.465494
30
0
11
-0.00118496601855154
21
0.165725331733847
31
0
210
0
220
0
230
1
40
0.029663
41
-1.80732902565111
42
-1.1017428363837
0
ELLIPSE
5
1EE
100
AcDbEntity
8
1
62
256
6
ByLayer
370
-1
48
1
60
0
100
AcDbEllipse
10
49.213389
20
-5.87134
30
0
11
-0.337077373749125
21
0.199105137782212
31
0
210
0
220
0
230
1
40
0.169944
41
-2.37943050142952
42
-1.38882517543744
0
ELLIPSE
5
1EF
100
AcDbEntity
8
1
62
256
6
ByLayer
370
-1
48
1
60
0
100
AcDbEllipse
10
49.009202
20
-5.759187
30
0
11
-0.289302537019961
21
0.168627450405452
31
0
210
0
220
0
230
1
40
0.200375
41
-1.44441105884388
42
-1.16876729759988
0
ELLIPSE
5
1F0
100
AcDbEntity
8
1
62
256
6
ByLayer
370
-1
48
1
60
0
100
AcDbEllipse
10
58.658033
20
-3.67362
30
0
11
-0.143834238271017
21
0.0425642091550657
31
0
210
0
220
0
230
1
40
0.239817
41
1.67672138416136
42
1.85125430936081
0
ELLIPSE
5
1F1
100
AcDbEntity
8
1
62
256
6
ByLayer
370
-1
48
1
60
0
100
AcDbEllipse
10
58.993364
20
-8.971376
30
0
11
-0.176156251761359
21
0.279050129842989
31
0
210
0
220
0
230
1
40
0.027615
41
0.672511951502389
42
1.55353327751209
0
ELLIPSE
5
1F2
100
AcDbEntity
8
1
62
256
6
ByLayer
370
-1
48
1
60
0
100
AcDbEllipse
10
59.988916
20
-8.107563
30
0
11
-0.00294868062087925
21
0.337775048643212
31
0
210
0
220
0
230
1
40
0.030848
41
1.29501789192879
42
1.57066165338598
0
ELLIPSE
5
1F3
100
AcDbEntity
8
1
62
256
6
ByLayer
370
-1
48
1
60
0
100
AcDbEllipse
10
59.379646
20
1.67525
30
0
11
-0.178490561267673
21
-0.0232619762348549
31
0
210
0
220
0
230
1
40
0.965377
41
3.14159189304633
42
-2.99145125087385
0
ELLIPSE
5
1F4
100
AcDbEntity
8
1
62
256
6
ByLayer
370
-1
48
1
60
0
100
AcDbEllipse
10
59.123222
20
3.54889
30
0
11
-0.0872620521753069
21
-0.011372521714818
31
0
210
0
220
0
230
1
40
0.965377
41
3.14158326083824
42
-2.7431500513985
0
ELLIPSE
5
1F5
100
AcDbEntity
8
1
62
256
6
ByLayer
370
-1
48
1
60
0
100
AcDbEllipse
10
58.366503
20
-9.850889
30
0
11
-0.00116575018135125
21
0.134580853298094
31
0
210
0
220
0
230
1
40
0.965414
41
-1.03199145637928
42
6.57511818948881E-05
0
ELLIPSE
5
1F6
100
AcDbEntity
8
1
62
256
6
ByLayer
370
-1
48
1
60
0
100
AcDbEllipse
10
58.999662
20
-9.693242
30
0
11
-0.329964582601559
21
-0.00483469012230859
31
0
210
0
220
0
230
1
40
0.17881
41
1.23698418946262
42
1.83840358577348
0
ELLIPSE
5
1F7
100
AcDbEntity
8
1
62
256
6
ByLayer
370
-1
48
1
60
0
100
AcDbEllipse
10
57.979667
20
2.244856
30
0
11
0.226945289156953
21
-0.115307570130787
31
0
210
0
220
0
230
1
40
0.906288
41
-3.034835367915
42
-2.73001671763808
0
ELLIPSE
5
1F8
100
AcDbEntity
8
1
62
256
6
ByLayer
370
-1
48
1
60
0
100
AcDbEllipse
10
53.132553
20
-7.161494
30
0
11
0.0828127045743239
21
-0.125068205236526
31
0
210
0
220
0
230
1
40
0.117984
41
-1.33430889524875
42
-0.628722705550175
0
ELLIPSE
5
1F9
100
AcDbEntity
8
1
62
256
6
ByLayer
370
-1
48
1
60
0
100
AcDbEllipse
10
59.158204
20
-4.077275
30
0
11
0.0628391801251482
21
0.13620292743256
31
0
210
0
220
0
230
1
40
0.142491
41
-1.79338625418422
42
-1.08780006448589
0
ELLIPSE
5
1FA
100
AcDbEntity
8
1
62
256
6
ByLayer
370
-1
48
1
60
0
100
AcDbEllipse
10
48.769498
20
-4.209115
30
0
11
-0.0274746039317434
21
0.32885429317373
31
0
210
0
220
0
230
1
40
0.244295
41
0.817871906210374
42
1.16693775660922
0
ELLIPSE
5
1FB
100
AcDbEntity
8
1
62
256
6
ByLayer
370
-1
48
1
60
0
100
AcDbEllipse
10
60.035969
20
-0.599742
30
0
11
-0.140909608553025
21
0.238595094182333
31
0
210
0
220
0
230
1
40
0.055966
41
0.758535350374853
42
1.18511046584841
0
ELLIPSE
5
1FC
100
AcDbEntity
8
1
62
256
6
ByLayer
370
-1
48
1
60
0
100
AcDbEllipse
10
55.6665
20
1.607511
30
0
11
-0.152071064512082
21
-0.0898102043878136
31
0
210
0
220
0
230
1
40
0.204506
41
1.48361984602486
42
2.42609764211832
0
ELLIPSE
5
1FD
100
AcDbEntity
8
1
62
256
6
ByLayer
370
-1
48
1
60
0
100
AcDbEllipse
10
48.462595
20
-4.725545
30
0
11
-0.212269097715289
21
0.252669408823342
31
0
210
0
220
0
230
1
40
0.337579
41
1.08120929264125
42
1.89765887867869
0
ELLIPSE
5
1FE
100
AcDbEntity
8
1
62
256
6
ByLayer
370
-1
48
1
60
0
100
AcDbEllipse
10
48.559604
20
-2.225002
30
0
11
-0.178490561267673
21
-0.0232619762348549
31
0
210
0
220
0
230
1
40
0.965377
41
-0.648754949005256
42
-7.37471365918781E-06
0
ELLIPSE
5
1FF
100
AcDbEntity
8
1
62
256
6
ByLayer
370
-1
48
1
60
0
100
AcDbEllipse
10
49.076811
20
-4.633032
30
0
11
-1.5276327514282
21
0.717715517783832
31
0
210
0
220
0
230
1
40
0.19038
41
-0.31923000777052
42
0.282189388540987
0
ELLIPSE
5
200
100
AcDbEntity
8
1
62
256
6
ByLayer
370
-1
48
1
60
0
100
AcDbEllipse
10
54.1844
20
-7.374185
30
0
11
0.105643713396577
21
0.106486646204028
31
0
210
0
220
0
230
1
40
0.208799
41
-1.90590966770959
42
-1.73137674251017
0
ELLIPSE
5
201
100
AcDbEntity
8
1
62
256
6
ByLayer
370
-1
48
1
60
0
100
AcDbEllipse
10
53.428852
20
-0.599679
30
0
11
-0.149596261873752
21
-0.0109981104467948
31
0
210
0
220
0
230
1
40
0.260475
41
0.879865607663466
42
1.58545179736177
0
ELLIPSE
5
202
100
AcDbEntity
8
1
62
256
6
ByLayer
370
-1
48
1
60
0
100
AcDbEllipse
10
47.32916
20
-2.84886
30
0
11
-0.087262052175304
21
-0.0113725217148176
31
0
210
0
220
0
230
1
40
0.965377
41
-0.648754949005325
42
-1.3914265280923E-05
0
ELLIPSE
5
203
100
AcDbEntity
8
1
62
256
6
ByLayer
370
-1
48
1
60
0
100
AcDbEllipse
10
58.801855
20
-8.859289
30
0
11
-0.824744730914986
21
0.500790074692898
31
0
210
0
220
0
230
1
40
0.341962
41
-3.13096875787302
42
-2.31451917183457
0
ELLIPSE
5
204
100
AcDbEntity
8
1
62
256
6
ByLayer
370
-1
48
1
60
0
100
AcDbEllipse
10
55.215451
20
-3.8428
30
0
11
1.66938246203414
21
0.154319297085141
31
0
210
0
220
0
230
1
40
0.965649
41
2.96615304576564
42
-2.26425361485468
0
ELLIPSE
5
205
100
AcDbEntity
8
1
62
256
6
ByLayer
370
-1
48
1
60
0
100
AcDbEllipse
10
55.215451
20
-3.8428
30
0
11
1.66938246203414
21
0.154319297085141
31
0
210
0
220
0
230
1
40
0.965649
41
-1.21984661133942
42
-0.17543960782416
0
ELLIPSE
5
206
100
AcDbEntity
8
1
62
256
6
ByLayer
370
-1
48
1
60
0
100
AcDbEllipse
10
55.184357
20
-3.506432
30
0
11
2.71343108204176
21
0.250832141101705
31
0
210
0
220
0
230
1
40
0.965649
41
2.45850750358195
42
-3.14157793635479
0
ELLIPSE
5
207
100
AcDbEntity
8
1
62
256
6
ByLayer
370
-1
48
1
60
0
100
AcDbEllipse
10
55.184357
20
-3.506432
30
0
11
2.71343108204176
21
0.250832141101705
31
0
210
0
220
0
230
1
40
0.965649
41
0
42
0.772356010362431
0
ELLIPSE
5
208
100
AcDbEntity
8
1
62
256
6
ByLayer
370
-1
48
1
60
0
100
AcDbEllipse
10
55.181367
20
-3.474089
30
0
11
-1.20137783503978
21
-0.111056505775856
31
0
210
0
220
0
230
1
40
0.965649
41
-2.68646852043298
42
-2.21955507784022
0
ELLIPSE
5
209
100
AcDbEntity
8
1
62
256
6
ByLayer
370
-1
48
1
60
0
100
AcDbEllipse
10
55.207874
20
-3.760831
30
0
11
2.71343108204176
21
0.250832141101705
31
0
210
0
220
0
230
1
40
0.965649
41
0
42
6.28318530717959
0
ELLIPSE
5
20A
100
AcDbEntity
8
1
62
256
6
ByLayer
370
-1
48
1
60
0
100
AcDbEllipse
10
56.733608
20
-4.509608
30
0
11
-0.683087604506661
21
-0.0631452656131267
31
0
210
0
220
0
230
1
40
0.965649
41
-1.48163375320257
42
-0.697643109581782
0
ELLIPSE
5
20B
100
AcDbEntity
8
1
62
256
6
ByLayer
370
-1
48
1
60
0
100
AcDbEllipse
10
53.47678
20
-4.259967
30
0
11
-0.683087604506661
21
-0.0631452656131267
31
0
210
0
220
0
230
1
40
0.965649
41
-2.66902889691752
42
-1.99938160321308
0
ELLIPSE
5
20C
100
AcDbEntity
8
1
62
256
6
ByLayer
370
-1
48
1
60
0
100
AcDbEllipse
10
55.181367
20
-3.474089
30
0
11
-1.20137783503978
21
-0.111056505775856
31
0
210
0
220
0
230
1
40
0.965649
41
1.39954254049275
42
2.443949544008
0
ELLIPSE
5
20D
100
AcDbEntity
8
1
62
256
6
ByLayer
370
-1
48
1
60
0
100
AcDbEllipse
10
55.181367
20
-3.474089
30
0
11
1.20137783503978
21
0.111056505775856
31
0
210
0
220
0
230
1
40
0.965649
41
-2.85967557154616
42
-2.72161030472247
0
ELLIPSE
5
20E
100
AcDbEntity
8
1
62
256
6
ByLayer
370
-1
48
1
60
0
100
AcDbEllipse
10
55.215451
20
-3.8428
30
0
11
1.66938246203414
21
0.154319297085141
31
0
210
0
220
0
230
1
40
0.965649
41
1.92174604225039
42
2.96615304576564
0
ELLIPSE
5
20F
100
AcDbEntity
8
1
62
256
6
ByLayer
370
-1
48
1
60
0
100
AcDbEllipse
10
55.20896
20
-3.772589
30
0
11
1.20137783503978
21
0.111056505775856
31
0
210
0
220
0
230
1
40
0.965649
41
0.281917082043502
42
0.419982348867461
0
ELLIPSE
5
210
100
AcDbEntity
8
1
62
256
6
ByLayer
370
-1
48
1
60
0
100
AcDbEllipse
10
55.181367
20
-3.474089
30
0
11
-1.20137783503978
21
-0.111056505775856
31
0
210
0
220
0
230
1
40
0.965649
41
2.443949544008
42
-3.13490110247095
0
ELLIPSE
5
211
100
AcDbEntity
8
1
62
256
6
ByLayer
370
-1
48
1
60
0
100
AcDbEllipse
10
55.770885
20
-4.680396
30
0
11
-0.290760321451815
21
-0.0268781597070453
31
0
210
0
220
0
230
1
40
0.965649
41
0.615551896871973
42
2.98343750540901
0
ELLIPSE
5
212
100
AcDbEntity
8
1
62
256
6
ByLayer
370
-1
48
1
60
0
100
AcDbEllipse
10
55.025977
20
-5.29689
30
0
11
-0.683087604506661
21
-0.0631452656131267
31
0
210
0
220
0
230
1
40
0.965649
41
-2.52604075671786
42
-1.74205011309706
0
ELLIPSE
5
213
100
AcDbEntity
8
1
62
256
6
ByLayer
370
-1
48
1
60
0
100
AcDbEllipse
10
56.733608
20
-4.509608
30
0
11
-0.683087604506661
21
-0.0631452656131267
31
0
210
0
220
0
230
1
40
0.965649
41
-0.697643109581782
42
-2.33267826322049E-06
0
ELLIPSE
5
214
100
AcDbEntity
8
1
62
256
6
ByLayer
370
-1
48
1
60
0
100
AcDbEllipse
10
55.215451
20
-3.8428
30
0
11
1.66938246203414
21
0.154319297085141
31
0
210
0
220
0
230
1
40
0.965649
41
-0.17543960782416
42
0.877339038735127
0
ELLIPSE
5
215
100
AcDbEntity
8
1
62
256
6
ByLayer
370
-1
48
1
60
0
100
AcDbEllipse
10
56.560307
20
-3.580964
30
0
11
-0.290760321451815
21
-0.0268781597070453
31
0
210
0
220
0
230
1
40
0.965649
41
1.65995890038722
42
2.45158099496427
0
ELLIPSE
5
216
100
AcDbEntity
8
1
62
256
6
ByLayer
370
-1
48
1
60
0
100
AcDbEllipse
10
55.20896
20
-3.772589
30
0
11
1.20137783503978
21
0.111056505775856
31
0
210
0
220
0
230
1
40
0.965649
41
-2.85967557154615
42
-2.72161030472247
0
ELLIPSE
5
217
100
AcDbEntity
8
1
62
256
6
ByLayer
370
-1
48
1
60
0
100
AcDbEllipse
10
55.215451
20
-3.8428
30
0
11
1.79235814593584
21
0.165687285865347
31
0
210
0
220
0
230
1
40
0.965649
41
0
42
6.28318530717959
0
ELLIPSE
5
218
100
AcDbEntity
8
1
62
256
6
ByLayer
370
-1
48
1
60
0
100
AcDbEllipse
10
55.181367
20
-3.474089
30
0
11
-1.20137783503978
21
-0.111056505775856
31
0
210
0
220
0
230
1
40
0.965649
41
-1.33171253167583
42
-0.884722760500828
0
ELLIPSE
5
219
100
AcDbEntity
8
1
62
256
6
ByLayer
370
-1
48
1
60
0
100
AcDbEllipse
10
55.181367
20
-3.474089
30
0
11
-1.20137783503978
21
-0.111056505775856
31
0
210
0
220
0
230
1
40
0.965649
41
0.419982348867325
42
1.39954254049275
0
ELLIPSE
5
21A
100
AcDbEntity
8
1
62
256
6
ByLayer
370
-1
48
1
60
0
100
AcDbEllipse
10
55.025977
20
-5.29689
30
0
11
-0.683087604506661
21
-0.0631452656131267
31
0
210
0
220
0
230
1
40
0.965649
41
-1.74205011309706
42
-0.958059469476248
0
ELLIPSE
5
21B
100
AcDbEntity
8
1
62
256
6
ByLayer
370
-1
48
1
60
0
100
AcDbEllipse
10
55.215451
20
-3.8428
30
0
11
1.66938246203414
21
0.154319297085141
31
0
210
0
220
0
230
1
40
0.965649
41
-2.26425361485468
42
-1.21984661133942
0
ELLIPSE
5
21C
100
AcDbEntity
8
1
62
256
6
ByLayer
370
-1
48
1
60
0
100
AcDbEllipse
10
56.885954
20
-2.688211
30
0
11
-0.683087604506661
21
-0.0631452656131267
31
0
210
0
220
0
230
1
40
0.965649
41
-0.30508466214534
42
-8.35022112403727E-06
0
ELLIPSE
5
21D
100
AcDbEntity
8
1
62
256
6
ByLayer
370
-1
48
1
60
0
100
AcDbEllipse
10
53.47678
20
-4.259967
30
0
11
-0.683087604506661
21
-0.0631452656131267
31
0
210
0
220
0
230
1
40
0.965649
41
3.14158430336891
42
-2.91225697935111
0
ELLIPSE
5
21E
100
AcDbEntity
8
1
62
256
6
ByLayer
370
-1
48
1
60
0
100
AcDbEllipse
10
54.394793
20
-4.579347
30
0
11
-0.290760321451815
21
-0.0268781597070453
31
0
210
0
220
0
230
1
40
0.965649
41
0.590655893283982
42
2.18353318411352
0
ELLIPSE
5
21F
100
AcDbEntity
8
1
62
256
6
ByLayer
370
-1
48
1
60
0
100
AcDbEllipse
10
55.215451
20
-3.8428
30
0
11
1.66938246203414
21
0.154319297085141
31
0
210
0
220
0
230
1
40
0.965649
41
0.877339038735127
42
1.92174604225039
0
ELLIPSE
5
220
100
AcDbEntity
8
1
62
256
6
ByLayer
370
-1
48
1
60
0
100
AcDbEllipse
10
53.802427
20
-3.367213
30
0
11
-0.290760321451815
21
-0.0268781597070453
31
0
210
0
220
0
230
1
40
0.965649
41
0.706408371968748
42
1.14221105037671
0
ELLIPSE
5
221
100
AcDbEntity
8
1
62
256
6
ByLayer
370
-1
48
1
60
0
100
AcDbEllipse
10
55.181367
20
-3.474089
30
0
11
1.20137783503978
21
0.111056505775856
31
0
210
0
220
0
230
1
40
0.965649
41
2.91571454107005
42
-2.85967557154616
0
POINT
5
41
100
AcDbEntity
8
1
62
256
6
ByLayer
370
-1
48
1
60
0
100
AcDbPoint
10
59.000569
20
10.58083
30
0
39
0
210
0
220
0
230
1
50
360
0
POINT
5
43
100
AcDbEntity
8
80
62
256
6
ByLayer
370
-1
48
1
60
0
100
AcDbPoint
10
0
20
0
30
0
39
0
210
0
220
0
230
1
50
360
0
POINT
5
45
100
AcDbEntity
8
81
62
256
6
ByLayer
370
-1
48
1
60
0
100
AcDbPoint
10
60
20
-11.875
30
0
39
0
210
0
220
0
230
1
50
360
0
POINT
5
47
100
AcDbEntity
8
2
62
256
6
ByLayer
370
-1
48
1
60
0
100
AcDbPoint
10
60
20
11.875
30
0
39
0
210
0
220
0
230
1
50
360
0
SPLINE
5
222
100
AcDbEntity
8
SK1
62
256
6
ByLayer
370
-1
48
1
60
0
100
AcDbSpline
70
4
71
2
72
6
73
3
40
0
40
0
40
0
40
1
40
1
40
1
41
1
10
-1.69501459340779
20
14.0202240353492
30
0
41
1
10
-2.0975072967039
20
14.0101120176829
30
0
41
1
10
-2.5
20
14.0000000000165
30
0
0
SPLINE
5
223
100
AcDbEntity
8
SK1
62
256
6
ByLayer
370
-1
48
1
60
0
100
AcDbSpline
70
4
71
2
72
6
73
3
40
0
40
0
40
0
40
1
40
1
40
1
41
1
10
-2.5
20
-14.0000000000425
30
0
41
1
10
-2.0975072967039
20
-14.0101120177088
30
0
41
1
10
-1.69501459340779
20
-14.0202240353752
30
0
0
SPLINE
5
224
100
AcDbEntity
8
SK1
62
256
6
ByLayer
370
-1
48
1
60
0
100
AcDbSpline
70
4
71
2
72
6
73
3
40
0
40
0
40
0
40
1
40
1
40
1
41
1
10
-2.5
20
14.0000000000165
30
0
41
1
10
-12.5002365839528
20
13.7487592491245
30
0
41
1
10
-22.5004731679057
20
13.4975184982324
30
0
0
SPLINE
5
225
100
AcDbEntity
8
SK1
62
256
6
ByLayer
370
-1
48
1
60
0
100
AcDbSpline
70
4
71
2
72
6
73
3
40
0
40
0
40
0
40
1
40
1
40
1
41
1
10
-22.5004731679057
20
-13.4975184982574
30
0
41
1
10
-12.5002365839528
20
-13.7487592491499
30
0
41
1
10
-2.5
20
-14.0000000000425
30
0
0
SPLINE
5
226
100
AcDbEntity
8
SK1
62
256
6
ByLayer
370
-1
48
1
60
0
100
AcDbSpline
70
4
71
2
72
6
73
3
40
0
40
0
40
0
40
1
40
1
40
1
41
1
10
-24
20
-12.580456895609
30
0
41
1
10
-23.250195418368
20
-13.0391711292673
30
0
41
1
10
-22.5003908339782
20
-13.4978821831766
30
0
0
SPLINE
5
227
100
AcDbEntity
8
SK1
62
256
6
ByLayer
370
-1
48
1
60
0
100
AcDbSpline
70
4
71
2
72
6
73
3
40
0
40
0
40
0
40
1
40
1
40
1
41
1
10
-22.5004044652863
20
13.4963063088843
30
0
41
1
10
-23.2502022102608
20
13.0377782396013
30
0
41
1
10
-24
20
12.579249793836
30
0
0
SPLINE
5
228
100
AcDbEntity
8
SK1
62
256
6
ByLayer
370
-1
48
1
60
0
100
AcDbSpline
70
4
71
3
72
13
73
9
40
0
40
0
40
0
40
0
40
0.124434388714101
40
0.299263108878517
40
0.488234295776656
40
0.685270697586106
40
0.883431921511576
40
1
40
1
40
1
40
1
41
1
10
-1.68362296615857
20
-5.78414174723662
30
0
41
1
10
-1.68076860813082
20
-6.17460159273713
30
0
41
1
10
-1.67344528291622
20
-7.0810805755749
30
0
41
1
10
-1.65936115436554
20
-8.42418723230375
30
0
41
1
10
-1.64147524692154
20
-9.8076126667103
30
0
41
1
10
-1.62088075640943
20
-11.0497710645704
30
0
41
1
10
-1.60141004098784
20
-11.9789554568415
30
0
41
1
10
-1.58818109259457
20
-12.4192540971724
30
0
41
1
10
-1.58313870602996
20
-12.5671633555152
30
0
0
SPLINE
5
229
100
AcDbEntity
8
SK1
62
256
6
ByLayer
370
-1
48
1
60
0
100
AcDbSpline
70
4
71
1
72
4
73
2
40
0
40
0
40
1
40
1
41
1
10
-1.5310434074633
20
13.6216036920456
30
0
41
1
10
-1.53278671148445
20
13.5997804576485
30
0
0
SPLINE
5
22A
100
AcDbEntity
8
SK1
62
256
6
ByLayer
370
-1
48
1
60
0
100
AcDbSpline
70
4
71
2
72
6
73
3
40
0
40
0
40
0
40
1
40
1
40
1
41
1
10
-0.399999999999949
20
13.7870504860687
30
0
41
1
10
-0.94999999999996
20
13.7870504860687
30
0
41
1
10
-1.49999999999994
20
13.7870504860687
30
0
0
SPLINE
5
22B
100
AcDbEntity
8
SK1
62
256
6
ByLayer
370
-1
48
1
60
0
100
AcDbSpline
70
4
71
2
72
6
73
3
40
0
40
0
40
0
40
1
40
1
40
1
41
1
10
-1.49999999999994
20
-13.787050293933
30
0
41
1
10
-0.94999999999996
20
-13.787050293933
30
0
41
1
10
-0.399999999999949
20
-13.787050293933
30
0
0
SPLINE
5
22C
100
AcDbEntity
8
1
62
256
6
ByLayer
370
-1
48
1
60
0
100
AcDbSpline
70
4
71
3
72
12
73
8
40
0
40
0
40
0
40
0
40
0.0205120532885217
40
0.0205120532885217
40
0.5062120793787
40
0.5062120793787
40
1
40
1
40
1
40
1
41
1
10
48.8832347263412
20
-1.56292518492918
30
0
41
1
10
48.8894906183872
20
-1.56162703771591
30
0
41
1
10
48.8957162591816
20
-1.56035047128003
30
0
41
1
10
49.0482608225281
20
-1.5294410199032
30
0
41
1
10
49.1786495574584
20
-1.51121598350616
30
0
41
1
10
49.4175223522996
20
-1.48979408989129
30
0
41
1
10
49.5260129329191
20
-1.48691910746743
30
0
41
1
10
49.6240933205321
20
-1.49041054170866
30
0
0
SPLINE
5
22D
100
AcDbEntity
8
1
62
256
6
ByLayer
370
-1
48
1
60
0
100
AcDbSpline
70
4
71
3
72
8
73
4
40
0
40
0
40
0
40
0
40
1
40
1
40
1
40
1
41
1
10
44.8986267323427
20
2.60699899728209
30
0
41
1
10
44.8575983946534
20
2.56501882219541
30
0
41
1
10
44.8154832501356
20
2.5244044477042
30
0
41
1
10
44.7725315302156
20
2.48570806385965
30
0
0
SPLINE
5
22E
100
AcDbEntity
8
1
62
256
6
ByLayer
370
-1
48
1
60
0
100
AcDbSpline
70
4
71
3
72
8
73
4
40
0
40
0
40
0
40
0
40
1
40
1
40
1
40
1
41
1
10
44.7725315302135
20
4.61055603139297
30
0
41
1
10
44.8153703070199
20
4.57484198005537
30
0
41
1
10
44.8575146403128
20
4.54026426971117
30
0
41
1
10
44.8986267323427
20
4.50687746859987
30
0
0
SPLINE
5
22F
100
AcDbEntity
8
1
62
256
6
ByLayer
370
-1
48
1
60
0
100
AcDbSpline
70
4
71
3
72
16
73
12
40
0
40
0
40
0
40
0
40
0.26737209152312
40
0.26737209152312
40
0.600855844067793
40
0.600855844067793
40
0.762574643716858
40
0.762574643716858
40
0.898037673161672
40
0.898037673161672
40
1
40
1
40
1
40
1
41
1
10
9.33660254037846
20
-19.0245744101322
30
0
41
1
10
9.32665759364994
20
-19.036266103658
30
0
41
1
10
9.3145318522902
20
-19.0477160699853
30
0
41
1
10
9.28070303055793
20
-19.0724552288876
30
0
41
1
10
9.25716973041023
20
-19.0857432838256
30
0
41
1
10
9.21115368872734
20
-19.1026287554228
30
0
41
1
10
9.19404341926801
20
-19.1077588484921
30
0
41
1
10
9.15864533843367
20
-19.1154700309996
30
0
41
1
10
9.14061920638906
20
-19.1183821582684
30
0
41
1
10
9.10716397282852
20
-19.1215414200073
30
0
41
1
10
9.09190067197866
20
-19.1222825906925
30
0
41
1
10
9.07679491924313
20
-19.1222825906925
30
0
0
SPLINE
5
230
100
AcDbEntity
8
1
62
256
6
ByLayer
370
-1
48
1
60
0
100
AcDbSpline
70
4
71
3
72
12
73
8
40
0
40
0
40
0
40
0
40
0.0568896321843399
40
0.0568896321843399
40
0.659912698789252
40
0.659912698789252
40
1
40
1
40
1
40
1
41
1
10
46.1363383378846
20
-4.99679307680495
30
0
41
1
10
46.1566079236996
20
-5.00605802272946
30
0
41
1
10
46.1770563016948
20
-5.01466279376692
30
0
41
1
10
46.4133105314271
20
-5.10602259288231
30
0
41
1
10
46.6460380697603
20
-5.11958919529999
30
0
41
1
10
46.994907460097
20
-5.06289978734324
30
0
41
1
10
47.1196707738734
20
-5.02618329766653
30
0
41
1
10
47.2400673669409
20
-4.9762474439764
30
0
0
SPLINE
5
231
100
AcDbEntity
8
1
62
256
6
ByLayer
370
-1
48
1
60
0
100
AcDbSpline
70
4
71
3
72
18
73
14
40
0
40
0
40
0
40
0
40
0.21595474500892
40
0.21595474500892
40
0.380292754085766
40
0.380292754085766
40
0.546278433202985
40
0.546278433202985
40
0.690793450975189
40
0.690793450975189
40
0.838515388352434
40
0.838515388352434
40
1
40
1
40
1
40
1
41
1
10
40.8546917068714
20
-7.43700685494326
30
0
41
1
10
40.8036565654387
20
-7.48760498533045
30
0
41
1
10
40.769256230675
20
-7.53799313695015
30
0
41
1
10
40.7565671808296
20
-7.61999572546026
30
0
41
1
10
40.7671771627996
20
-7.65395222558351
30
0
41
1
10
40.8277361528154
20
-7.7139654474671
30
0
41
1
10
40.8793885327776
20
-7.74078333891725
30
0
41
1
10
41.0082668755556
20
-7.78109023640954
30
0
41
1
10
41.0828095368769
20
-7.79644535438942
30
0
41
1
10
41.2487321494129
20
-7.82034492013122
30
0
41
1
10
41.342243428607
20
-7.8290844108318
30
0
41
1
10
41.5438476340567
20
-7.84153867757911
30
0
41
1
10
41.6545052652262
20
-7.84487583954353
30
0
41
1
10
41.7645697649507
20
-7.84568511311971
30
0
0
SPLINE
5
232
100
AcDbEntity
8
1
62
256
6
ByLayer
370
-1
48
1
60
0
100
AcDbSpline
70
4
71
3
72
18
73
14
40
0
40
0
40
0
40
0
40
0.0074698584964997
40
0.0074698584964997
40
0.116973966194809
40
0.116973966194809
40
0.258725811908725
40
0.258725811908725
40
0.483357667469371
40
0.483357667469371
40
0.914372095275296
40
0.914372095275296
40
1
40
1
40
1
40
1
41
1
10
6.9232050807569
20
5.85988980456943
30
0
41
1
10
6.92208468721896
20
5.85988980456943
30
0
41
1
10
6.92096421381788
20
5.85990260585547
30
0
41
1
10
6.90362587375569
20
5.86029870927993
30
0
41
1
10
6.88729582850945
20
5.86347117694424
30
0
41
1
10
6.85241494776133
20
5.87578180524324
30
0
41
1
10
6.83403826981095
20
5.88647487106027
30
0
41
1
10
6.7918964493229
20
5.91885996191019
30
0
41
1
10
6.77017927255531
20
5.94374247779564
30
0
41
1
10
6.71671845086618
20
6.02032056207844
30
0
41
1
10
6.69216738458636
20
6.07738634703685
30
0
41
1
10
6.67004133265903
20
6.14652276485683
30
0
41
1
10
6.66660535986759
20
6.15810095961689
30
0
41
1
10
6.66339745962159
20
6.16973001948574
30
0
0
SPLINE
5
233
100
AcDbEntity
8
1
62
256
6
ByLayer
370
-1
48
1
60
0
100
AcDbSpline
70
4
71
3
72
8
73
4
40
0
40
0
40
0
40
0
40
1
40
1
40
1
40
1
41
1
10
44.898626732322
20
7.0846537205361
30
0
41
1
10
44.8577122025315
20
7.09531065947638
30
0
41
1
10
44.8155482237224
20
7.10811935572383
30
0
41
1
10
44.7725315302135
20
7.12326096492268
30
0
0
SPLINE
5
234
100
AcDbEntity
8
1
62
256
6
ByLayer
370
-1
48
1
60
0
100
AcDbSpline
70
4
71
1
72
4
73
2
40
0
40
0
40
1
40
1
41
1
10
47.3312671685952
20
-4.50914189187949
30
0
41
1
10
47.2836733364637
20
-4.61897755205987
30
0
0
SPLINE
5
235
100
AcDbEntity
8
1
62
256
6
ByLayer
370
-1
48
1
60
0
100
AcDbSpline
70
4
71
3
72
8
73
4
40
0
40
0
40
0
40
0
40
1
40
1
40
1
40
1
41
1
10
47.1553665019638
20
-4.54825998758935
30
0
41
1
10
47.1836815328864
20
-4.69110715772325
30
0
41
1
10
47.2119154276253
20
-4.83376773905877
30
0
41
1
10
47.2400673669405
20
-4.97624744397487
30
0
0
SPLINE
5
236
100
AcDbEntity
8
1
62
256
6
ByLayer
370
-1
48
1
60
0
100
AcDbSpline
70
4
71
3
72
10
73
6
40
0
40
0
40
0
40
0
40
0.359533548765786
40
0.359533548765786
40
1
40
1
40
1
40
1
41
1
10
44.8986267323191
20
7.08465372053874
30
0
41
1
10
45.0459938132073
20
7.03768337362621
30
0
41
1
10
45.2045086284863
20
6.99580719357152
30
0
41
1
10
45.6624572511218
20
6.90267683018632
30
0
41
1
10
45.9848203144403
20
6.86903430079852
30
0
41
1
10
46.3015180966808
20
6.86903430079852
30
0
0
SPLINE
5
237
100
AcDbEntity
8
1
62
256
6
ByLayer
370
-1
48
1
60
0
100
AcDbSpline
70
4
71
3
72
12
73
8
40
0
40
0
40
0
40
0
40
0.379913249931697
40
0.379913249931697
40
0.690136527033186
40
0.690136527033186
40
1
40
1
40
1
40
1
41
1
10
46.8005614719223
20
-4.46312578007812
30
0
41
1
10
46.8453402163154
20
-4.47808630627506
30
0
41
1
10
46.8902940980082
20
-4.49145584390013
30
0
41
1
10
46.9719914476141
20
-4.51284450343908
30
0
41
1
10
47.0087594633134
20
-4.52140321285955
30
0
41
1
10
47.0821597212274
20
-4.53640260820293
30
0
41
1
10
47.118817957499
20
-4.54285089674863
30
0
41
1
10
47.1553665019762
20
-4.54825998758906
30
0
0
SPLINE
5
238
100
AcDbEntity
8
1
62
256
6
ByLayer
370
-1
48
1
60
0
100
AcDbSpline
70
4
71
3
72
8
73
4
40
0
40
0
40
0
40
0
40
1
40
1
40
1
40
1
41
1
10
44.2444367596084
20
5.15726832287814
30
0
41
1
10
44.3934630977732
20
4.96725663941416
30
0
41
1
10
44.5696609764219
20
4.77968619600412
30
0
41
1
10
44.7725315302136
20
4.61055603139289
30
0
0
SPLINE
5
239
100
AcDbEntity
8
1
62
256
6
ByLayer
370
-1
48
1
60
0
100
AcDbSpline
70
4
71
3
72
8
73
4
40
0
40
0
40
0
40
0
40
1
40
1
40
1
40
1
41
1
10
46.7790347022473
20
-4.2302552808045
30
0
41
1
10
46.8321885481248
20
-4.23129906481631
30
0
41
1
10
46.8858302928574
20
-4.22988273683751
30
0
41
1
10
46.9397187117242
20
-4.22597435596478
30
0
0
SPLINE
5
23A
100
AcDbEntity
8
1
62
256
6
ByLayer
370
-1
48
1
60
0
100
AcDbSpline
70
4
71
2
72
6
73
3
40
0
40
0
40
0
40
1
40
1
40
1
41
1
10
46.9397178413244
20
-4.2259706539289
30
0
41
1
10
47.1199550089971
20
-4.39144739605411
30
0
41
1
10
47.3311914507563
20
-4.509268232522
30
0
0
SPLINE
5
23B
100
AcDbEntity
8
1
62
256
6
ByLayer
370
-1
48
1
60
0
100
AcDbSpline
70
4
71
3
72
8
73
4
40
0
40
0
40
0
40
0
40
1
40
1
40
1
40
1
41
1
10
45.3853670847087
20
-8.17522056101794
30
0
41
1
10
45.4779691620132
20
-8.29280417312907
30
0
41
1
10
45.5708436333238
20
-8.41018675096501
30
0
41
1
10
45.66395708
20
-8.52739066611164
30
0
0
SPLINE
5
23C
100
AcDbEntity
8
1
62
256
6
ByLayer
370
-1
48
1
60
0
100
AcDbSpline
70
4
71
3
72
8
73
4
40
0
40
0
40
0
40
0
40
1
40
1
40
1
40
1
41
1
10
47.1553665019632
20
-4.54825998758704
30
0
41
1
10
47.2387770651077
20
-4.61331822626423
30
0
41
1
10
47.3278752278701
20
-4.67209261067103
30
0
41
1
10
47.4209769255121
20
-4.72345167422128
30
0
0
SPLINE
5
23D
100
AcDbEntity
8
1
62
256
6
ByLayer
370
-1
48
1
60
0
100
AcDbSpline
70
4
71
3
72
12
73
8
40
0
40
0
40
0
40
0
40
0.381923448364454
40
0.381923448364454
40
0.886746673576299
40
0.886746673576299
40
1
40
1
40
1
40
1
41
1
10
46.4693158797843
20
3.89732195799138
30
0
41
1
10
46.2475577861174
20
3.91479385497112
30
0
41
1
10
46.0267526880778
20
3.95919329786759
30
0
41
1
10
45.5417696021551
20
4.11469558391835
30
0
41
1
10
45.2804843762058
20
4.24498786886039
30
0
41
1
10
44.9984772195339
20
4.43364847668121
30
0
41
1
10
44.9478226157727
20
4.46973238789832
30
0
41
1
10
44.8986267323426
20
4.50687746859987
30
0
0
SPLINE
5
23E
100
AcDbEntity
8
1
62
256
6
ByLayer
370
-1
48
1
60
0
100
AcDbSpline
70
4
71
4
72
10
73
5
40
0
40
0
40
0
40
0
40
0
40
1
40
1
40
1
40
1
40
1
41
1
10
47.2836733364637
20
-4.61897755205987
30
0
41
0.980980006765684
10
47.1482668045271
20
-4.54428124839427
30
0
41
0.965560299484599
10
47.0173240094018
20
-4.45399082513558
30
0
41
0.953740878156743
10
46.8934648488119
20
-4.3488802283369
30
0
41
0.945521742782118
10
46.7790347022472
20
-4.23025528080448
30
0
0
SPLINE
5
23F
100
AcDbEntity
8
1
62
256
6
ByLayer
370
-1
48
1
60
0
100
AcDbSpline
70
4
71
3
72
12
73
8
40
0
40
0
40
0
40
0
40
0.299050919793852
40
0.299050919793852
40
0.685157450651205
40
0.685157450651205
40
1
40
1
40
1
40
1
41
1
10
48.8832347263412
20
-1.56292518492918
30
0
41
1
10
48.7164294447844
20
-1.5328302638334
30
0
41
1
10
48.5439051680448
20
-1.52383234324452
30
0
41
1
10
48.1553873440375
20
-1.55279721546452
30
0
41
1
10
47.9360920308037
20
-1.60597240152398
30
0
41
1
10
47.569181937507
20
-1.76067239043706
30
0
41
1
10
47.4122360714484
20
-1.85270563750748
30
0
41
1
10
47.2720796114995
20
-1.96238139850467
30
0
0
SPLINE
5
240
100
AcDbEntity
8
1
62
256
6
ByLayer
370
-1
48
1
60
0
100
AcDbSpline
70
4
71
3
72
16
73
12
40
0
40
0
40
0
40
0
40
0.267372091523257
40
0.267372091523257
40
0.600855844067868
40
0.600855844067868
40
0.762574643716911
40
0.762574643716911
40
0.898037673161716
40
0.898037673161716
40
1
40
1
40
1
40
1
41
1
10
6.66339745962154
20
19.0245744101322
30
0
41
1
10
6.67334240635006
20
19.036266103658
30
0
41
1
10
6.68546814770983
20
19.0477160699853
30
0
41
1
10
6.7192969694421
20
19.0724552288877
30
0
41
1
10
6.7428302695898
20
19.0857432838256
30
0
41
1
10
6.78884631127269
20
19.1026287554228
30
0
41
1
10
6.80595658073201
20
19.1077588484921
30
0
41
1
10
6.84135466156636
20
19.1154700309997
30
0
41
1
10
6.85938079361097
20
19.1183821582684
30
0
41
1
10
6.89283602717151
20
19.1215414200073
30
0
41
1
10
6.90809932802136
20
19.1222825906926
30
0
41
1
10
6.92320508075687
20
19.1222825906926
30
0
0
SPLINE
5
241
100
AcDbEntity
8
1
62
256
6
ByLayer
370
-1
48
1
60
0
100
AcDbSpline
70
4
71
3
72
8
73
4
40
0
40
0
40
0
40
0
40
1
40
1
40
1
40
1
41
1
10
45.313571514099
20
-8.21048297811922
30
0
41
1
10
45.3391850374896
20
-8.23408001754154
30
0
41
1
10
45.3630426178357
20
-8.25780327309531
30
0
41
1
10
45.385367084709
20
-8.28160419431484
30
0
0
SPLINE
5
242
100
AcDbEntity
8
1
62
256
6
ByLayer
370
-1
48
1
60
0
100
AcDbSpline
70
4
71
3
72
10
73
6
40
0
40
0
40
0
40
0
40
0.794918270312909
40
0.794918270312909
40
1
40
1
40
1
40
1
41
1
10
44.7725315302135
20
7.12326096492268
30
0
41
1
10
44.4979456974909
20
7.21991347425069
30
0
41
1
10
44.2623253460615
20
7.33419435082038
30
0
41
1
10
44.0255385339254
20
7.46941325697534
30
0
41
1
10
43.9793451573322
20
7.49712707626111
30
0
41
1
10
43.9359627809652
20
7.52420795984719
30
0
0
SPLINE
5
243
100
AcDbEntity
8
1
62
256
6
ByLayer
370
-1
48
1
60
0
100
AcDbSpline
70
4
71
3
72
8
73
4
40
0
40
0
40
0
40
0
40
1
40
1
40
1
40
1
41
1
10
45.3853670847087
20
-8.28160419431487
30
0
41
1
10
45.4647555606445
20
-8.36624311860405
30
0
41
1
10
45.558343280878
20
-8.45015603303887
30
0
41
1
10
45.66395708
20
-8.53345405194835
30
0
0
SPLINE
5
244
100
AcDbEntity
8
1
62
256
6
ByLayer
370
-1
48
1
60
0
100
AcDbSpline
70
4
71
3
72
18
73
14
40
0
40
0
40
0
40
0
40
0.0074698584964846
40
0.0074698584964846
40
0.116973966194816
40
0.116973966194816
40
0.258725811908727
40
0.258725811908727
40
0.483357667469354
40
0.483357667469354
40
0.91437209527524
40
0.91437209527524
40
1
40
1
40
1
40
1
41
1
10
9.0767949192431
20
19.1222825906926
30
0
41
1
10
9.07791531278104
20
19.1222825906926
30
0
41
1
10
9.07903578618212
20
19.122278667842
30
0
41
1
10
9.09637412624431
20
19.1221572838471
30
0
41
1
10
9.11270417149055
20
19.1211855627664
30
0
41
1
10
9.14758505223867
20
19.1174067506416
30
0
41
1
10
9.16596173018905
20
19.1141200721534
30
0
41
1
10
9.20810355067709
20
19.1041233146922
30
0
41
1
10
9.22982072744469
20
19.0964050302577
30
0
41
1
10
9.28328154913382
20
19.0724543460921
30
0
41
1
10
9.30783261541364
20
19.0543706588151
30
0
41
1
10
9.32995866734097
20
19.0320887998676
30
0
41
1
10
9.33339464013241
20
19.0283457512527
30
0
41
1
10
9.33660254037841
20
19.0245744101322
30
0
0
SPLINE
5
245
100
AcDbEntity
8
1
62
256
6
ByLayer
370
-1
48
1
60
0
100
AcDbSpline
70
4
71
3
72
18
73
14
40
0
40
0
40
0
40
0
40
0.0074698584964884
40
0.0074698584964884
40
0.116973966194809
40
0.116973966194809
40
0.258725811908719
40
0.258725811908719
40
0.48335766746934
40
0.48335766746934
40
0.914372095275223
40
0.914372095275223
40
1
40
1
40
1
40
1
41
1
10
9.0767949192431
20
-5.85988980456929
30
0
41
1
10
9.07791531278104
20
-5.85988980456929
30
0
41
1
10
9.07903578618212
20
-5.85990260585533
30
0
41
1
10
9.09637412624431
20
-5.86029870927979
30
0
41
1
10
9.11270417149055
20
-5.8634711769441
30
0
41
1
10
9.14758505223867
20
-5.87578180524309
30
0
41
1
10
9.16596173018905
20
-5.8864748710601
30
0
41
1
10
9.20810355067709
20
-5.91885996191004
30
0
41
1
10
9.22982072744469
20
-5.94374247779547
30
0
41
1
10
9.28328154913382
20
-6.02032056207824
30
0
41
1
10
9.30783261541364
20
-6.07738634703668
30
0
41
1
10
9.32995866734097
20
-6.14652276485666
30
0
41
1
10
9.33339464013241
20
-6.15810095961672
30
0
41
1
10
9.33660254037841
20
-6.16973001948557
30
0
0
SPLINE
5
246
100
AcDbEntity
8
1
62
256
6
ByLayer
370
-1
48
1
60
0
100
AcDbSpline
70
4
71
3
72
16
73
12
40
0
40
0
40
0
40
0
40
0.267372091523282
40
0.267372091523282
40
0.600855844067896
40
0.600855844067896
40
0.762574643716936
40
0.762574643716936
40
0.898037673161731
40
0.898037673161731
40
1
40
1
40
1
40
1
41
1
10
6.66339745962154
20
-6.1697300194856
30
0
41
1
10
6.67334240635006
20
-6.13367828095576
30
0
41
1
10
6.68546814770983
20
-6.09801792960664
30
0
41
1
10
6.71929696944213
20
-6.02025855383837
30
0
41
1
10
6.74283026958983
20
-5.9779480294857
30
0
41
1
10
6.78884631127269
20
-5.92367470492701
30
0
41
1
10
6.80595658073204
20
-5.90709361727346
30
0
41
1
10
6.84135466156636
20
-5.88208699512387
30
0
41
1
10
6.85938079361097
20
-5.87260601127599
30
0
41
1
10
6.89283602717151
20
-5.86230971122501
30
0
41
1
10
6.90809932802136
20
-5.85988980456929
30
0
41
1
10
6.92320508075687
20
-5.85988980456929
30
0
0
SPLINE
5
247
100
AcDbEntity
8
1
62
256
6
ByLayer
370
-1
48
1
60
0
100
AcDbSpline
70
4
71
3
72
12
73
8
40
0
40
0
40
0
40
0
40
0.354939936092797
40
0.354939936092797
40
0.708918816044099
40
0.708918816044099
40
1
40
1
40
1
40
1
41
1
10
44.7725315302135
20
-7.86694580115474
30
0
41
1
10
44.8569230329137
20
-7.86751843907925
30
0
41
1
10
44.9422174551929
20
-7.88286600867659
30
0
41
1
10
45.1000573242098
20
-7.93904532366054
30
0
41
1
10
45.1747518389637
20
-7.98045489571328
30
0
41
1
10
45.2944244743832
20
-8.073016914373
30
0
41
1
10
45.343362211311
20
-8.12188390933539
30
0
41
1
10
45.385367084718
20
-8.17522056100918
30
0
0
SPLINE
5
248
100
AcDbEntity
8
1
62
256
6
ByLayer
370
-1
48
1
60
0
100
AcDbSpline
70
4
71
3
72
18
73
14
40
0
40
0
40
0
40
0
40
0.0074698584965012
40
0.0074698584965012
40
0.116973966194808
40
0.116973966194808
40
0.25872581190871
40
0.25872581190871
40
0.483357667469334
40
0.483357667469334
40
0.914372095275209
40
0.914372095275209
40
1
40
1
40
1
40
1
41
1
10
6.9232050807569
20
-19.1222825906925
30
0
41
1
10
6.92208468721896
20
-19.1222825906925
30
0
41
1
10
6.92096421381788
20
-19.122278667842
30
0
41
1
10
6.90362587375569
20
-19.1221572838471
30
0
41
1
10
6.88729582850945
20
-19.1211855627664
30
0
41
1
10
6.85241494776133
20
-19.1174067506415
30
0
41
1
10
6.83403826981095
20
-19.1141200721533
30
0
41
1
10
6.7918964493229
20
-19.1041233146922
30
0
41
1
10
6.77017927255534
20
-19.0964050302576
30
0
41
1
10
6.71671845086618
20
-19.072454346092
30
0
41
1
10
6.69216738458638
20
-19.054370658815
30
0
41
1
10
6.67004133265903
20
-19.0320887998676
30
0
41
1
10
6.66660535986759
20
-19.0283457512526
30
0
41
1
10
6.66339745962159
20
-19.0245744101322
30
0
0
SPLINE
5
249
100
AcDbEntity
8
1
62
256
6
ByLayer
370
-1
48
1
60
0
100
AcDbSpline
70
4
71
3
72
30
73
26
40
0
40
0
40
0
40
0
40
0.0338349633878825
40
0.0338349633878825
40
0.112994961487884
40
0.112994961487884
40
0.223556545033251
40
0.223556545033251
40
0.365020311408868
40
0.365020311408868
40
0.440761075121176
40
0.440761075121176
40
0.505578246938628
40
0.505578246938628
40
0.569956962312017
40
0.569956962312017
40
0.690282402108336
40
0.690282402108336
40
0.818489042892933
40
0.818489042892933
40
0.906409013316946
40
0.906409013316946
40
0.983479845754448
40
0.983479845754448
40
1
40
1
40
1
40
1
41
1
10
44.4189329421269
20
-1.4089587855371
30
0
41
1
10
44.4176281142384
20
-1.4111155449578
30
0
41
1
10
44.4174328578371
20
-1.41673757352473
30
0
41
1
10
44.4198805509043
20
-1.44695699944595
30
0
41
1
10
44.4265866588532
20
-1.48702477643346
30
0
41
1
10
44.4471073539331
20
-1.61453938712816
30
0
41
1
10
44.4629834565899
20
-1.7160034120802
30
0
41
1
10
44.4911842499417
20
-1.97768559223283
30
0
41
1
10
44.5037147005398
20
-2.15138592173264
30
0
41
1
10
44.4776982588326
20
-2.42963718261794
30
0
41
1
10
44.4590586047283
20
-2.53119961986099
30
0
41
1
10
44.392107233858
20
-2.7120231775319
30
0
41
1
10
44.3469444240351
20
-2.79362058079562
30
0
41
1
10
44.2338671392483
20
-2.93856032726703
30
0
41
1
10
44.1656557296119
20
-3.00377206196296
30
0
41
1
10
43.9599089628247
20
-3.17061145359949
30
0
41
1
10
43.8106114930744
20
-3.26092267942403
30
0
41
1
10
43.518865840272
20
-3.43421059301073
30
0
41
1
10
43.3714514796143
20
-3.51843196539005
30
0
41
1
10
43.1657854775089
20
-3.65438363320783
30
0
41
1
10
43.0923538092833
20
-3.70917530969746
30
0
41
1
10
42.9930346604824
20
-3.80689621051064
30
0
41
1
10
42.9615963710485
20
-3.85152414049031
30
0
41
1
10
42.9471893295916
20
-3.90229073362343
30
0
41
1
10
42.9455016141469
20
-3.91125478058197
30
0
41
1
10
42.9447087869464
20
-3.92010523971842
30
0
0
SPLINE
5
24A
100
AcDbEntity
8
1
62
256
6
ByLayer
370
-1
48
1
60
0
100
AcDbSpline
70
4
71
3
72
16
73
12
40
0
40
0
40
0
40
0
40
0.26737209152346
40
0.26737209152346
40
0.600855844067949
40
0.600855844067949
40
0.762574643716998
40
0.762574643716998
40
0.898037673161785
40
0.898037673161785
40
1
40
1
40
1
40
1
41
1
10
9.33660254037846
20
6.16973001948571
30
0
41
1
10
9.32665759364994
20
6.13367828095585
30
0
41
1
10
9.31453185229014
20
6.0980179296067
30
0
41
1
10
9.28070303055785
20
6.02025855383846
30
0
41
1
10
9.25716973041017
20
5.97794802948579
30
0
41
1
10
9.21115368872728
20
5.92367470492709
30
0
41
1
10
9.19404341926796
20
5.90709361727357
30
0
41
1
10
9.15864533843362
20
5.88208699512398
30
0
41
1
10
9.140619206389
20
5.87260601127613
30
0
41
1
10
9.10716397282849
20
5.86230971122512
30
0
41
1
10
9.09190067197864
20
5.85988980456943
30
0
41
1
10
9.07679491924313
20
5.85988980456943
30
0
0
SPLINE
5
24B
100
AcDbEntity
8
1
62
256
6
ByLayer
370
-1
48
1
60
0
100
AcDbSpline
70
4
71
3
72
10
73
6
40
0
40
0
40
0
40
0
40
0.70949562281678
40
0.70949562281678
40
1
40
1
40
1
40
1
41
1
10
60.0035659227192
20
-0.619620418224855
30
0
41
1
10
60.0011145026336
20
-0.595073097051568
30
0
41
1
10
59.9944169761341
20
-0.569487047887748
30
0
41
1
10
59.9804458782154
20
-0.536121956337553
30
0
41
1
10
59.9757719483377
20
-0.526544592781846
30
0
41
1
10
59.970586878864
20
-0.517291113065909
30
0
0
SPLINE
5
24C
100
AcDbEntity
8
1
62
256
6
ByLayer
370
-1
48
1
60
0
100
AcDbSpline
70
4
71
3
72
20
73
16
40
0
40
0
40
0
40
0
40
0.511365204367436
40
0.511365204367436
40
0.617167309555446
40
0.617167309555446
40
0.785488434327111
40
0.785488434327111
40
0.873398812153861
40
0.873398812153861
40
0.93568440225422
40
0.93568440225422
40
0.978722765374129
40
0.978722765374129
40
1
40
1
40
1
40
1
41
1
10
59.1632605982321
20
-4.11607569150641
30
0
41
1
10
59.0585324489256
20
-4.06775785309796
30
0
41
1
10
58.9550513754138
20
-4.01567979467353
30
0
41
1
10
58.8386155931212
20
-3.9404766751808
30
0
41
1
10
58.8189307716417
20
-3.92705495520144
30
0
41
1
10
58.7694205094657
20
-3.89058000282151
30
0
41
1
10
58.7400425743054
20
-3.86649611624762
30
0
41
1
10
58.7010329374816
20
-3.82481996183148
30
0
41
1
10
58.6885600973468
20
-3.80946252709626
30
0
41
1
10
58.6715827731578
20
-3.78087355083889
30
0
41
1
10
58.6657306099458
20
-3.76810557254544
30
0
41
1
10
58.6603478595192
20
-3.7455469304312
30
0
41
1
10
58.6594464383263
20
-3.73586280026595
30
0
41
1
10
58.6608280671967
20
-3.72169000835328
30
0
41
1
10
58.6617384173818
20
-3.71698625630782
30
0
41
1
10
58.6630893778567
20
-3.7124210505938
30
0
0
SPLINE
5
24D
100
AcDbEntity
8
1
62
256
6
ByLayer
370
-1
48
1
60
0
100
AcDbSpline
70
4
71
3
72
12
73
8
40
0
40
0
40
0
40
0
40
0.347623173836862
40
0.347623173836862
40
0.696503371294851
40
0.696503371294851
40
1
40
1
40
1
40
1
41
1
10
49.394676991207
20
-2.36950467741798
30
0
41
1
10
49.3875714022968
20
-2.38082991048151
30
0
41
1
10
49.3783286585814
20
-2.39125819374186
30
0
41
1
10
49.3569167232727
20
-2.40891901524233
30
0
41
1
10
49.3444135791779
20
-2.41639142970197
30
0
41
1
10
49.3198103096323
20
-2.42674275997629
30
0
41
1
10
49.3075799316437
20
-2.43021273807179
30
0
41
1
10
49.295563349232
20
-2.43219720532659
30
0
0
SPLINE
5
24E
100
AcDbEntity
8
1
62
256
6
ByLayer
370
-1
48
1
60
0
100
AcDbSpline
70
4
71
3
72
12
73
8
40
0
40
0
40
0
40
0
40
0.474376698371047
40
0.474376698371047
40
0.706219783413745
40
0.706219783413745
40
1
40
1
40
1
40
1
41
1
10
59.9986179552388
20
-4.16993732326463
30
0
41
1
10
59.9979365553561
20
-4.13922315028506
30
0
41
1
10
59.9974056653974
20
-4.10581769869057
30
0
41
1
10
59.9968922995542
20
-4.05621845593015
30
0
41
1
10
59.9967653997962
20
-4.03969416480206
30
0
41
1
10
59.9965780100802
20
-4.0027233158842
30
0
41
1
10
59.9965432693868
20
-3.98221359278597
30
0
41
1
10
59.9965772732755
20
-3.96242817751411
30
0
0
SPLINE
5
24F
100
AcDbEntity
8
1
62
256
6
ByLayer
370
-1
48
1
60
0
100
AcDbSpline
70
4
71
3
72
16
73
12
40
0
40
0
40
0
40
0
40
0.0426292751499087
40
0.0426292751499087
40
0.0996436166287517
40
0.0996436166287517
40
0.20715607809935
40
0.20715607809935
40
0.580806890299255
40
0.580806890299255
40
1
40
1
40
1
40
1
41
1
10
54.1894563896235
20
-7.41298555805613
30
0
41
1
10
54.196380678802
20
-7.4198550355683
30
0
41
1
10
54.20195504096
20
-7.42814912039913
30
0
41
1
10
54.2113849329423
20
-7.44865078216031
30
0
41
1
10
54.2143193093426
20
-7.46152162641005
30
0
41
1
10
54.218215213817
20
-7.49838439462062
30
0
41
1
10
54.2156182912853
20
-7.52300404185414
30
0
41
1
10
54.195579474896
20
-7.62908769713871
30
0
41
1
10
54.1592173761986
20
-7.7072301815646
30
0
41
1
10
54.0774812315917
20
-7.86683696055365
30
0
41
1
10
54.028067173238
20
-7.94851704199019
30
0
41
1
10
53.976199452002
20
-8.02847922981931
30
0
0
SPLINE
5
250
100
AcDbEntity
8
1
62
256
6
ByLayer
370
-1
48
1
60
0
100
AcDbSpline
70
4
71
3
72
12
73
8
40
0
40
0
40
0
40
0
40
0.474376698371019
40
0.474376698371019
40
0.706219783413713
40
0.706219783413713
40
1
40
1
40
1
40
1
41
1
10
52.6139802378709
20
-7.80827608262675
30
0
41
1
10
52.6361357485639
20
-7.81559116425711
30
0
41
1
10
52.6618881732663
20
-7.82595410514938
30
0
41
1
10
52.7022893137059
20
-7.84448790391909
30
0
41
1
10
52.7160967591471
20
-7.85116783560562
30
0
41
1
10
52.7477492741589
20
-7.86721851250431
30
0
41
1
10
52.7658537340909
20
-7.87691516415703
30
0
41
1
10
52.7838505691344
20
-7.88704242368604
30
0
0
SPLINE
5
251
100
AcDbEntity
8
1
62
256
6
ByLayer
370
-1
48
1
60
0
100
AcDbSpline
70
4
71
3
72
18
73
14
40
0
40
0
40
0
40
0
40
0.439677344605703
40
0.439677344605703
40
0.819840138515271
40
0.819840138515271
40
0.92075837696303
40
0.92075837696303
40
0.96846767388158
40
0.96846767388158
40
0.990240013274132
40
0.990240013274132
40
1
40
1
40
1
40
1
41
1
10
59.4875889090045
20
-3.0787974544096
30
0
41
1
10
59.3936187919258
20
-3.07144701552699
30
0
41
1
10
59.2993321876424
20
-3.06601190364395
30
0
41
1
10
59.1234004328389
20
-3.06438235695183
30
0
41
1
10
59.0407462917564
20
-3.06506276476071
30
0
41
1
10
58.9390935314365
20
-3.08512970960925
30
0
41
1
10
58.9175559370354
20
-3.09052236618234
30
0
41
1
10
58.8884564338567
20
-3.1041150871319
30
0
41
1
10
58.8792796642461
20
-3.10950270555853
30
0
41
1
10
58.8686481724582
20
-3.12000389991312
30
0
41
1
10
58.8656750779553
20
-3.12378545028477
30
0
41
1
10
58.8625430405809
20
-3.12978352599708
30
0
41
1
10
58.8617252984108
20
-3.13173725878343
30
0
41
1
10
58.861097617335
20
-3.1337348846113
30
0
0
SPLINE
5
252
100
AcDbEntity
8
1
62
256
6
ByLayer
370
-1
48
1
60
0
100
AcDbSpline
70
4
71
3
72
16
73
12
40
0
40
0
40
0
40
0
40
0.0426292751499146
40
0.0426292751499146
40
0.0996436166287563
40
0.0996436166287563
40
0.20715607809936
40
0.20715607809936
40
0.580806890299263
40
0.580806890299263
40
1
40
1
40
1
40
1
41
1
10
58.8361504712794
20
-3.12760786973314
30
0
41
1
10
58.8388979984686
20
-3.11832334434814
30
0
41
1
10
58.8435864709011
20
-3.10944534122501
30
0
41
1
10
58.85731613246
20
-3.09114074074333
30
0
41
1
10
58.8674050234736
20
-3.08214838210281
30
0
41
1
10
58.8985190162436
20
-3.06016751978163
30
0
41
1
10
58.9218579875513
20
-3.04983888178779
30
0
41
1
10
59.0267785771221
20
-3.01274087860062
30
0
41
1
10
59.1146959843935
20
-3.00349561212718
30
0
41
1
10
59.2979428342856
20
-2.99086173181223
30
0
41
1
10
59.3954540380585
20
-2.99074527068322
30
0
41
1
10
59.4926335328826
20
-2.99355505904313
30
0
0
SPLINE
5
253
100
AcDbEntity
8
1
62
256
6
ByLayer
370
-1
48
1
60
0
100
AcDbSpline
70
4
71
3
72
24
73
20
40
0
40
0
40
0
40
0
40
0.0154450745970449
40
0.0154450745970449
40
0.0417985895668254
40
0.0417985895668254
40
0.0483972597876625
40
0.0483972597876625
40
0.102103855500444
40
0.102103855500444
40
0.185330321121814
40
0.185330321121814
40
0.354377449491148
40
0.354377449491148
40
0.5353487273987
40
0.5353487273987
40
0.666091501001304
40
0.666091501001304
40
1
40
1
40
1
40
1
41
1
10
53.3120062894039
20
-1.23719139678914
30
0
41
1
10
53.3152108272866
20
-1.23644840370099
30
0
41
1
10
53.3183357547567
20
-1.23525152021304
30
0
41
1
10
53.3260972020187
20
-1.23105959211281
30
0
41
1
10
53.330411342745
20
-1.22733453459981
30
0
41
1
10
53.3349556102458
20
-1.22214368677203
30
0
41
1
10
53.3358381519903
20
-1.22106116270936
30
0
41
1
10
53.343474950497
20
-1.21108362029415
30
0
41
1
10
53.3481739618903
20
-1.20069054535875
30
0
41
1
10
53.3576246667997
20
-1.17395571254295
30
0
41
1
10
53.3611111524731
20
-1.15692889225178
30
0
41
1
10
53.3689240348857
20
-1.10535835800564
30
0
41
1
10
53.3703872262271
20
-1.07027935955671
30
0
41
1
10
53.3708092853197
20
-0.997949489021352
30
0
41
1
10
53.3693485910036
20
-0.960522494678656
30
0
41
1
10
53.3653263112902
20
-0.896199697937931
30
0
41
1
10
53.3631561983478
20
-0.869243919406188
30
0
41
1
10
53.3542108303052
20
-0.773590796292893
30
0
41
1
10
53.3455763157346
20
-0.705052765441621
30
0
41
1
10
53.3357292508761
20
-0.636716888615496
30
0
0
SPLINE
5
254
100
AcDbEntity
8
1
62
256
6
ByLayer
370
-1
48
1
60
0
100
AcDbSpline
70
4
71
3
72
20
73
16
40
0
40
0
40
0
40
0
40
0.511365204366876
40
0.511365204366876
40
0.617167309555275
40
0.617167309555275
40
0.785488434327015
40
0.785488434327015
40
0.873398812153803
40
0.873398812153803
40
0.93568440225419
40
0.93568440225419
40
0.978722765374118
40
0.978722765374118
40
1
40
1
40
1
40
1
41
1
10
53.4339092105871
20
-0.638479689911861
30
0
41
1
10
53.44215804969
20
-0.750680372071912
30
0
41
1
10
53.4464237017812
20
-0.863746702096108
30
0
41
1
10
53.4363437881281
20
-0.999400339022856
30
0
41
1
10
53.4340054628799
20
-1.02269357828035
30
0
41
1
10
53.425689324242
20
-1.08265946889068
30
0
41
1
10
53.4185677248253
20
-1.11948092082088
30
0
41
1
10
53.4004227985258
20
-1.17329844346867
30
0
41
1
10
53.3928003727883
20
-1.19153781926968
30
0
41
1
10
53.3755386186722
20
-1.22026699887536
30
0
41
1
10
53.3669779703934
20
-1.23164948347204
30
0
41
1
10
53.3494132082816
20
-1.24761096382321
30
0
41
1
10
53.3411792488117
20
-1.2532833301191
30
0
41
1
10
53.3277994876771
20
-1.25932409063941
30
0
41
1
10
53.3231365624852
20
-1.26095074526162
30
0
41
1
10
53.3183809256038
20
-1.26213822549261
30
0
0
SPLINE
5
255
100
AcDbEntity
8
1
62
256
6
ByLayer
370
-1
48
1
60
0
100
AcDbSpline
70
4
71
2
72
6
73
3
40
0
40
0
40
0
40
1
40
1
40
1
41
0.500001284087714
10
56.8547528937285
20
-9.58508703770139
30
0
41
0.499998715912286
10
56.8553536533011
20
-9.58592827644813
30
0
41
0.500001284087714
10
56.855953742484
20
-9.5867700136946
30
0
0
SPLINE
5
256
100
AcDbEntity
8
1
62
256
6
ByLayer
370
-1
48
1
60
0
100
AcDbSpline
70
4
71
3
72
10
73
6
40
0
40
0
40
0
40
0
40
0.709495622816741
40
0.709495622816741
40
1
40
1
40
1
40
1
41
1
10
55.8439381016321
20
-9.62455691226998
30
0
41
1
10
55.867179005116
20
-9.63458655685795
30
0
41
1
10
55.8922019164473
20
-9.63992115851698
30
0
41
1
10
55.926673771408
20
-9.64145759494423
30
0
41
1
10
55.9368008680335
20
-9.64121034966931
30
0
41
1
10
55.946861897932
20
-9.64033101122615
30
0
0
SPLINE
5
257
100
AcDbEntity
8
1
62
256
6
ByLayer
370
-1
48
1
60
0
100
AcDbSpline
70
4
71
3
72
24
73
20
40
0
40
0
40
0
40
0
40
0.015445074597066
40
0.015445074597066
40
0.041798589566879
40
0.041798589566879
40
0.0483972597877343
40
0.0483972597877343
40
0.102103855500585
40
0.102103855500585
40
0.185330321122078
40
0.185330321122078
40
0.354377449491641
40
0.354377449491641
40
0.535348727399458
40
0.535348727399458
40
0.666091500997341
40
0.666091500997341
40
1
40
1
40
1
40
1
41
1
10
53.7345066585224
20
-6.99734268176607
30
0
41
1
10
53.7322619324024
20
-6.995041643608
30
0
41
1
10
53.7296545062012
20
-6.99302660142237
30
0
41
1
10
53.7220982736359
20
-6.98861242398291
30
0
41
1
10
53.7166623405091
20
-6.9868346240211
30
0
41
1
10
53.7098139272418
20
-6.98557576647445
30
0
41
1
10
53.7084179775647
20
-6.98536732807392
30
0
41
1
10
53.6957979361302
20
-6.98385927629334
30
0
41
1
10
53.6842642720556
20
-6.98499182405959
30
0
41
1
10
53.6559010963288
20
-6.99009428490666
30
0
41
1
10
53.6390911678247
20
-6.99544639714776
30
0
41
1
10
53.5895380155778
20
-7.01393655437715
30
0
41
1
10
53.5577386282879
20
-7.02971018951626
30
0
41
1
10
53.4934569528527
20
-7.06438597391528
30
0
41
1
10
53.461026448182
20
-7.08372161250347
30
0
41
1
10
53.40604025685
20
-7.11820531239422
30
0
41
1
10
53.3832373482475
20
-7.13305800136507
30
0
41
1
10
53.3029379994712
20
-7.18679426965355
30
0
41
1
10
53.2465047338339
20
-7.22714096562714
30
0
41
1
10
53.1908523537509
20
-7.26839317612826
30
0
0
SPLINE
5
258
100
AcDbEntity
8
1
62
256
6
ByLayer
370
-1
48
1
60
0
100
AcDbSpline
70
4
71
3
72
24
73
20
40
0
40
0
40
0
40
0
40
0.0154450745970657
40
0.0154450745970657
40
0.0417985895668803
40
0.0417985895668803
40
0.0483972597877282
40
0.0483972597877282
40
0.102103855500583
40
0.102103855500583
40
0.18533032112207
40
0.18533032112207
40
0.354377449491644
40
0.354377449491644
40
0.53534872739945
40
0.53534872739945
40
0.666091500997337
40
0.666091500997337
40
1
40
1
40
1
40
1
41
1
10
58.6880365239124
20
-3.71854806547199
30
0
41
1
10
58.6870776901503
20
-3.72159960097562
30
0
41
1
10
58.6865584734966
20
-3.72479836439806
30
0
41
1
10
58.6863421032359
20
-3.733318872616
30
0
41
1
10
58.6874498048996
20
-3.73871361100785
30
0
41
1
10
58.6897319312864
20
-3.74499436034037
30
0
41
1
10
58.6902406413938
20
-3.74624927610432
30
0
41
1
10
58.6951797755601
20
-3.75739642108511
30
0
41
1
10
58.7019631807958
20
-3.76626372348113
30
0
41
1
10
58.7207394457863
20
-3.78685097983887
30
0
41
1
10
58.7339719464049
20
-3.79782788275446
30
0
41
1
10
58.7754320405133
20
-3.82875845435106
30
0
41
1
10
58.8055710438703
20
-3.84655074688862
30
0
41
1
10
58.8690191835406
20
-3.8810475474435
30
0
41
1
10
58.9026943699398
20
-3.8974814254484
30
0
41
1
10
58.9613285807015
20
-3.92444880033403
30
0
41
1
10
58.9861438034398
20
-3.93534109021854
30
0
41
1
10
59.074825988319
20
-3.97294160316187
30
0
41
1
10
59.13948606298
20
-3.99800458837544
30
0
41
1
10
59.20457615692
20
-4.02194727951982
30
0
0
SPLINE
5
259
100
AcDbEntity
8
1
62
256
6
ByLayer
370
-1
48
1
60
0
100
AcDbSpline
70
4
71
3
72
14
73
10
40
0
40
0
40
0
40
0
40
0.249606055014967
40
0.249606055014967
40
0.499158243446864
40
0.499158243446864
40
0.746144217743592
40
0.746144217743592
40
1
40
1
40
1
40
1
41
1
10
53.3449561504532
20
-8.20279026665162
30
0
41
1
10
53.3606490239322
20
-8.21162103062173
30
0
41
1
10
53.3763830042558
20
-8.22084725713054
30
0
41
1
10
53.4072716345668
20
-8.23968706644422
30
0
41
1
10
53.4225338099168
20
-8.24936595598547
30
0
41
1
10
53.4519316683258
20
-8.26874478083718
30
0
41
1
10
53.4661749585527
20
-8.27850779002816
30
0
41
1
10
53.4937198954224
20
-8.29816393111039
30
0
41
1
10
53.5070802757116
20
-8.30812158369338
30
0
41
1
10
53.5195587055103
20
-8.31786724926818
30
0
0
SPLINE
5
25A
100
AcDbEntity
8
1
62
256
6
ByLayer
370
-1
48
1
60
0
100
AcDbSpline
70
4
71
3
72
12
73
8
40
0
40
0
40
0
40
0
40
0.474376698371039
40
0.474376698371039
40
0.706219783413746
40
0.706219783413746
40
1
40
1
40
1
40
1
41
1
10
53.1038767006651
20
0.163818600838908
30
0
41
1
10
53.080358390207
20
0.156104777963463
30
0
41
1
10
53.0535441855865
20
0.145282920285069
30
0
41
1
10
53.0121163134606
20
0.126034738493985
30
0
41
1
10
52.9980550685039
20
0.119111507778854
30
0
41
1
10
52.9660277740599
20
0.102504893893354
30
0
41
1
10
52.9478538327413
20
0.0924915248187119
30
0
41
1
10
52.929925005475
20
0.0820506273466322
30
0
0
SPLINE
5
25B
100
AcDbEntity
8
1
62
256
6
ByLayer
370
-1
48
1
60
0
100
AcDbSpline
70
4
71
3
72
14
73
10
40
0
40
0
40
0
40
0
40
0.249606055014985
40
0.249606055014985
40
0.499158243446871
40
0.499158243446871
40
0.746144217743596
40
0.746144217743596
40
1
40
1
40
1
40
1
41
1
10
59.9976374470035
20
-3.34555821616198
30
0
41
1
10
59.9976670977016
20
-3.32830573716547
30
0
41
1
10
59.9977490918392
20
-3.31146743249138
30
0
41
1
10
59.9980121230748
20
-3.27930784322342
30
0
41
1
10
59.9981940370748
20
-3.26387426859992
30
0
41
1
10
59.9986476750532
20
-3.2350536172307
30
0
41
1
10
59.9989199561898
20
-3.2215513489187
30
0
41
1
10
59.9995553877217
20
-3.19639633104268
30
0
41
1
10
59.9999230666552
20
-3.18471783690208
30
0
41
1
10
60.0003289888339
20
-3.17435971196872
30
0
0
SPLINE
5
25C
100
AcDbEntity
8
1
62
256
6
ByLayer
370
-1
48
1
60
0
100
AcDbSpline
70
4
71
3
72
12
73
8
40
0
40
0
40
0
40
0
40
0.347623173836861
40
0.347623173836861
40
0.69650337129487
40
0.69650337129487
40
1
40
1
40
1
40
1
41
1
10
56.7495957440163
20
-9.53441835571374
30
0
41
1
10
56.763604444881
20
-9.53377759516604
30
0
41
1
10
56.7778371528458
20
-9.53543685414758
30
0
41
1
10
56.8046216263129
20
-9.54342170183293
30
0
41
1
10
56.8175533102109
20
-9.54990360916858
30
0
41
1
10
56.8386843190717
20
-9.56582591534857
30
0
41
1
10
56.8475248840461
20
-9.57496571449082
30
0
41
1
10
56.8547528937285
20
-9.58508703770138
30
0
0
SPLINE
5
25D
100
AcDbEntity
8
1
62
256
6
ByLayer
370
-1
48
1
60
0
100
AcDbSpline
70
4
71
3
72
18
73
14
40
0
40
0
40
0
40
0
40
0.439677344605704
40
0.439677344605704
40
0.819840138515276
40
0.819840138515276
40
0.920758376963026
40
0.920758376963026
40
0.968467673881571
40
0.968467673881571
40
0.990240013274121
40
0.990240013274121
40
1
40
1
40
1
40
1
41
1
10
52.3514354604953
20
-0.8784877183395
30
0
41
1
10
52.3901225253871
20
-0.963129339835263
30
0
41
1
10
52.4306857343259
20
-1.04705374500307
30
0
41
1
10
52.5140269855915
20
-1.19926779589918
30
0
41
1
10
52.5544824955505
20
-1.27003235231416
30
0
41
1
10
52.6215193646418
20
-1.34717979026627
30
0
41
1
10
52.6367481565701
20
-1.36293898410756
30
0
41
1
10
52.6629913901654
20
-1.38099088328383
30
0
41
1
10
52.6722568707277
20
-1.38611798848973
30
0
41
1
10
52.6868190086512
20
-1.38986927626362
30
0
41
1
10
52.6916505826968
20
-1.39048420844893
30
0
41
1
10
52.6985506990496
20
-1.39009699239364
30
0
41
1
10
52.7007006594197
20
-1.38979668643736
30
0
41
1
10
52.7027984451519
20
-1.38931030108122
30
0
0
SPLINE
5
25E
100
AcDbEntity
8
1
62
256
6
ByLayer
370
-1
48
1
60
0
100
AcDbSpline
70
4
71
3
72
16
73
12
40
0
40
0
40
0
40
0
40
0.0426292751499104
40
0.0426292751499104
40
0.099643616628757
40
0.099643616628757
40
0.207156078099353
40
0.207156078099353
40
0.58080689029926
40
0.58080689029926
40
1
40
1
40
1
40
1
41
1
10
52.7091730813518
20
-1.41425712978463
30
0
41
1
10
52.6995012649841
20
-1.41667217765746
30
0
41
1
10
52.6892384303935
20
-1.41725609594977
30
0
41
1
10
52.6660788768523
20
-1.41505903467029
30
0
41
1
10
52.6530556094385
20
-1.41118054906104
30
0
41
1
10
52.6180457121939
20
-1.39629864317166
30
0
41
1
10
52.5973036634181
20
-1.38200763393198
30
0
41
1
10
52.5124218902365
20
-1.31302198183457
30
0
41
1
10
52.4608665816626
20
-1.24412476388213
30
0
41
1
10
52.3593558763774
20
-1.09715186520802
30
0
41
1
10
52.3112587309581
20
-1.0155882449005
30
0
41
1
10
52.26594695737
20
-0.932816268711463
30
0
0
SPLINE
5
25F
100
AcDbEntity
8
1
62
256
6
ByLayer
370
-1
48
1
60
0
100
AcDbSpline
70
4
71
3
72
14
73
10
40
0
40
0
40
0
40
0
40
0.249606055014984
40
0.249606055014984
40
0.499158243446883
40
0.499158243446883
40
0.7461442177436
40
0.7461442177436
40
1
40
1
40
1
40
1
41
1
10
52.3709397716123
20
-0.243475823910671
30
0
41
1
10
52.3553061995295
20
-0.252580073776898
30
0
41
1
10
52.3397362074811
20
-0.262079589986541
30
0
41
1
10
52.3093736396414
20
-0.281454134043145
30
0
41
1
10
52.2944752922915
20
-0.291396330749649
30
0
41
1
10
52.2659847098391
20
-0.31128053282626
30
0
41
1
10
52.2522859818854
20
-0.321287481211215
30
0
41
1
10
52.2260119080795
20
-0.341413472609986
30
0
41
1
10
52.2133868856573
20
-0.351597982757539
30
0
41
1
10
52.2017203002159
20
-0.36155443896024
30
0
0
SPLINE
5
260
100
AcDbEntity
8
1
62
256
6
ByLayer
370
-1
48
1
60
0
100
AcDbSpline
70
4
71
3
72
20
73
16
40
0
40
0
40
0
40
0
40
0.511365204367431
40
0.511365204367431
40
0.617167309555442
40
0.617167309555442
40
0.785488434327111
40
0.785488434327111
40
0.873398812153859
40
0.873398812153859
40
0.935684402254218
40
0.935684402254218
40
0.978722765374125
40
0.978722765374125
40
1
40
1
40
1
40
1
41
1
10
53.1376101334355
20
-7.20029517615563
30
0
41
1
10
53.234089443639
20
-7.13641233240401
30
0
41
1
10
53.3333048650609
20
-7.07542406080415
30
0
41
1
10
53.459820561007
20
-7.01497354337019
30
0
41
1
10
53.4818437077331
20
-7.00510202409203
30
0
41
1
10
53.5396701085469
20
-6.98161108586172
30
0
41
1
10
53.5761696431239
20
-6.96887352050541
30
0
41
1
10
53.6333242062473
20
-6.95673215227376
30
0
41
1
10
53.6534194721196
20
-6.95385021120796
30
0
41
1
10
53.6876585504247
20
-6.95371000785963
30
0
41
1
10
53.7020713619154
20
-6.95509550155643
30
0
41
1
10
53.7250188744538
20
-6.96169266331952
30
0
41
1
10
53.7341542551167
20
-6.96570442718885
30
0
41
1
10
53.7461523873808
20
-6.97383645858122
30
0
41
1
10
53.7499049623877
20
-6.97691355600446
30
0
41
1
10
53.7533096387941
20
-6.9802912814875
30
0
0
SPLINE
5
261
100
AcDbEntity
8
1
62
256
6
ByLayer
370
-1
48
1
60
0
100
AcDbSpline
70
4
71
3
72
12
73
8
40
0
40
0
40
0
40
0
40
0.347623173836853
40
0.347623173836853
40
0.69650337129485
40
0.69650337129485
40
1
40
1
40
1
40
1
41
1
10
59.5499071485166
20
0.2605991987663
30
0
41
1
10
59.5428015596064
20
0.272837289302146
30
0
41
1
10
59.5376225628729
20
0.28637528931435
30
0
41
1
10
59.532015554358
20
0.313820063834385
30
0
41
1
10
59.5315412369112
20
0.328125640279779
30
0
41
1
10
59.5351548392352
20
0.353314753722429
30
0
41
1
10
59.5387053001365
20
0.364691869932614
30
0
41
1
10
59.5437527197048
20
0.37481151282762
30
0
0
SPLINE
5
262
100
AcDbEntity
8
1
62
256
6
ByLayer
370
-1
48
1
60
0
100
AcDbSpline
70
4
71
3
72
10
73
6
40
0
40
0
40
0
40
0
40
0.709495622816793
40
0.709495622816793
40
1
40
1
40
1
40
1
41
1
10
49.8872759179033
20
-1.71067322707907
30
0
41
1
10
49.866486434505
20
-1.72519090366438
30
0
41
1
10
49.8476940439085
20
-1.74185898747623
30
0
41
1
10
49.8262913939669
20
-1.76676736341909
30
0
41
1
10
49.8205417910252
20
-1.77431739926746
30
0
41
1
10
49.8153567215516
20
-1.78207840485817
30
0
0
SPLINE
5
263
100
AcDbEntity
8
1
62
256
6
ByLayer
370
-1
48
1
60
0
100
AcDbSpline
70
4
71
2
72
6
73
3
40
0
40
0
40
0
40
1
40
1
40
1
41
0.500001284160115
10
59.5437527197048
20
0.374811512827623
30
0
41
0.499998715839885
10
59.5441722384598
20
0.375652611914079
30
0
41
0.500001284160115
10
59.5445913581957
20
0.376490693546754
30
0
0
SPLINE
5
264
100
AcDbEntity
8
1
62
256
6
ByLayer
370
-1
48
1
60
0
100
AcDbSpline
70
4
71
3
72
18
73
14
40
0
40
0
40
0
40
0
40
0.439677344605707
40
0.439677344605707
40
0.819840138515279
40
0.819840138515279
40
0.920758376963036
40
0.920758376963036
40
0.968467673881579
40
0.968467673881579
40
0.990240013274135
40
0.990240013274135
40
1
40
1
40
1
40
1
41
1
10
53.8920648574207
20
-7.96924630114847
30
0
41
1
10
53.9478920300526
20
-7.89613018786926
30
0
41
1
10
54.0021572514862
20
-7.82179835918453
30
0
41
1
10
54.0957442429196
20
-7.67885996733091
30
0
41
1
10
54.1384080056415
20
-7.61098398620658
30
0
41
1
10
54.1735675708878
20
-7.51794124727695
30
0
41
1
10
54.1799898868529
20
-7.49766039280681
30
0
41
1
10
54.1829904060973
20
-7.46712260911951
30
0
41
1
10
54.1829455951091
20
-7.45694473258288
30
0
41
1
10
54.1790596427609
20
-7.44303518860829
30
0
41
1
10
54.177212438665
20
-7.43872522324176
30
0
41
1
10
54.1734533160151
20
-7.43318308603938
30
0
41
1
10
54.17212287378
20
-7.43154328629646
30
0
41
1
10
54.1706534093519
20
-7.43003695833468
30
0
0
SPLINE
5
265
100
AcDbEntity
8
1
62
256
6
ByLayer
370
-1
48
1
60
0
100
AcDbSpline
70
4
71
2
72
6
73
3
40
0
40
0
40
0
40
1
40
1
40
1
41
0.500001283699396
10
49.2955633492321
20
-2.43219720532657
30
0
41
0.499998716300604
10
49.2945645850863
20
-2.43236214529657
30
0
41
0.500001283699396
10
49.2935675455083
20
-2.43252859638426
30
0
0
SPLINE
5
266
100
AcDbEntity
8
1
62
256
6
ByLayer
370
-1
48
1
60
0
100
AcDbSpline
70
4
71
3
72
12
73
8
40
0
40
0
40
0
40
0
40
0.318843621614402
40
0.318843621614402
40
0.786729030551925
40
0.786729030551925
40
1
40
1
40
1
40
1
41
1
10
56.262206769982
20
-3.19815527315637
30
0
41
1
10
56.2461895174947
20
-3.15236348336489
30
0
41
1
10
56.2360054329782
20
-3.10624350297925
30
0
41
1
10
56.2251719760293
20
-2.99754268047286
30
0
41
1
10
56.2308503297275
20
-2.93545548754264
30
0
41
1
10
56.2533456379895
20
-2.85307899608395
30
0
41
1
10
56.2624790259283
20
-2.82812636661359
30
0
41
1
10
56.273467505071
20
-2.80426060876775
30
0
0
SPLINE
5
267
100
AcDbEntity
8
1
62
256
6
ByLayer
370
-1
48
1
60
0
100
AcDbSpline
70
4
71
3
72
18
73
14
40
0
40
0
40
0
40
0
40
0.209924360555918
40
0.209924360555918
40
0.384465818849782
40
0.384465818849782
40
0.560718190081147
40
0.560718190081147
40
0.713743773314919
40
0.713743773314919
40
0.916120716083126
40
0.916120716083126
40
1
40
1
40
1
40
1
41
1
10
55.8109674528367
20
-2.49511809967524
30
0
41
1
10
55.7565567173024
20
-2.52976945372728
30
0
41
1
10
55.6933775575141
20
-2.55839129299662
30
0
41
1
10
55.5666360701875
20
-2.59535223065853
30
0
41
1
10
55.503438720499
20
-2.60662101036004
30
0
41
1
10
55.3736735761872
20
-2.6153190967392
30
0
41
1
10
55.305133271
20
-2.61263599221763
30
0
41
1
10
55.1840533818325
20
-2.59470729041655
30
0
41
1
10
55.1291316837469
20
-2.58099196477687
30
0
41
1
10
55.0132805065896
20
-2.53970291385698
30
0
41
1
10
54.9540091201459
20
-2.50850016081205
30
0
41
1
10
54.8831499581423
20
-2.45722140641857
30
0
41
1
10
54.8636832246884
20
-2.44113242245177
30
0
41
1
10
54.8457326825581
20
-2.42423862653519
30
0
0
SPLINE
5
268
100
AcDbEntity
8
1
62
256
6
ByLayer
370
-1
48
1
60
0
100
AcDbSpline
70
4
71
3
72
18
73
14
40
0
40
0
40
0
40
0
40
0.180072176690356
40
0.180072176690356
40
0.360150021032618
40
0.360150021032618
40
0.542283515089095
40
0.542283515089095
40
0.696761270862222
40
0.696761270862222
40
0.894183387266431
40
0.894183387266431
40
1
40
1
40
1
40
1
41
1
10
54.6147228105805
20
-5.1341054140866
30
0
41
1
10
54.6599022154024
20
-5.08824069161429
30
0
41
1
10
54.7114740288903
20
-5.04765708918828
30
0
41
1
10
54.8244530304295
20
-4.9829345196691
30
0
41
1
10
54.8872925348238
20
-4.95821767758287
30
0
41
1
10
55.0185564445071
20
-4.9313978121713
30
0
41
1
10
55.0891459542803
20
-4.92945842327774
30
0
41
1
10
55.2142040582978
20
-4.94903699007389
30
0
41
1
10
55.2710051642713
20
-4.9671756358766
30
0
41
1
10
55.3894999839453
20
-5.02391895300045
30
0
41
1
10
55.45025274201
20
-5.06747012444288
30
0
41
1
10
55.5304369166688
20
-5.14474114998896
30
0
41
1
10
55.5564010872781
20
-5.17406962487672
30
0
41
1
10
55.5799575808586
20
-5.20498488722669
30
0
0
SPLINE
5
269
100
AcDbEntity
8
1
62
256
6
ByLayer
370
-1
48
1
60
0
100
AcDbSpline
70
4
71
3
72
16
73
12
40
0
40
0
40
0
40
0
40
0.155969714281511
40
0.155969714281511
40
0.456068661957234
40
0.456068661957234
40
0.727325577536939
40
0.727325577536939
40
0.967741962601916
40
0.967741962601916
40
1
40
1
40
1
40
1
41
1
10
53.7366356645261
20
-3.9738342963858
30
0
41
1
10
53.7193206725952
20
-3.97046452011421
30
0
41
1
10
53.7023651975789
20
-3.96530876006443
30
0
41
1
10
53.655336346907
20
-3.94517809899227
30
0
41
1
10
53.626692895257
20
-3.92500247436638
30
0
41
1
10
53.5831836576553
20
-3.87591543898674
30
0
41
1
10
53.5666416469145
20
-3.84721922197656
30
0
41
1
10
53.5476061220352
20
-3.78790938178941
30
0
41
1
10
53.5434908648602
20
-3.75701224089025
30
0
41
1
10
53.5450241129743
20
-3.72182900806504
30
0
41
1
10
53.5453053201703
20
-3.71760818366397
30
0
41
1
10
53.5456838235044
20
-3.71338410634783
30
0
0
SPLINE
5
26A
100
AcDbEntity
8
1
62
256
6
ByLayer
370
-1
48
1
60
0
100
AcDbSpline
70
4
71
3
72
12
73
8
40
0
40
0
40
0
40
0
40
0.490787175648243
40
0.490787175648243
40
0.896528991139247
40
0.896528991139247
40
1
40
1
40
1
40
1
41
1
10
56.6889714018164
20
-3.65448921499507
30
0
41
1
10
56.6214877290379
20
-3.62264174050421
30
0
41
1
10
56.5555486661116
20
-3.58045428388795
30
0
41
1
10
56.4465365212858
20
-3.48739694580806
30
0
41
1
10
56.4003500179212
20
-3.43816944440698
30
0
41
1
10
56.3515983394183
20
-3.3713154750308
30
0
41
1
10
56.3420799675874
20
-3.35735358200299
30
0
41
1
10
56.3330782146126
20
-3.34317660764094
30
0
0
SPLINE
5
26B
100
AcDbEntity
8
1
62
256
6
ByLayer
370
-1
48
1
60
0
100
AcDbSpline
70
4
71
3
72
12
73
8
40
0
40
0
40
0
40
0
40
0.437085561807691
40
0.437085561807691
40
0.852488469801423
40
0.852488469801423
40
1
40
1
40
1
40
1
41
1
10
53.7366356645278
20
-3.97383429637964
30
0
41
1
10
53.7952004268458
20
-3.9852319422578
30
0
41
1
10
53.8525145478162
20
-4.00559642045766
30
0
41
1
10
53.9558540656186
20
-4.06404281164345
30
0
41
1
10
54.0034213832481
20
-4.10206822584661
30
0
41
1
10
54.058481969495
20
-4.16537711736868
30
0
41
1
10
54.0721635979144
20
-4.18319010841202
30
0
41
1
10
54.0848427601661
20
-4.20200094141779
30
0
0
SPLINE
5
26C
100
AcDbEntity
8
1
62
256
6
ByLayer
370
-1
48
1
60
0
100
AcDbSpline
70
4
71
3
72
14
73
10
40
0
40
0
40
0
40
0
40
0.275155145054114
40
0.275155145054114
40
0.562584571426077
40
0.562584571426077
40
0.822642906836968
40
0.822642906836968
40
1
40
1
40
1
40
1
41
1
10
54.6147228105805
20
-5.1341054140866
30
0
41
1
10
54.590320447657
20
-5.15887793173198
30
0
41
1
10
54.561573063797
20
-5.1799872643916
30
0
41
1
10
54.4977784417509
20
-5.21133132094485
30
0
41
1
10
54.4614808821917
20
-5.22146348646419
30
0
41
1
10
54.3918670564606
20
-5.22607637759626
30
0
41
1
10
54.3575432083822
20
-5.2219621519711
30
0
41
1
10
54.3036639944798
20
-5.20428156267073
30
0
41
1
10
54.2824238614211
20
-5.19401704909708
30
0
41
1
10
54.2629831744714
20
-5.18116438999274
30
0
0
SPLINE
5
26D
100
AcDbEntity
8
1
62
256
6
ByLayer
370
-1
48
1
60
0
100
AcDbSpline
70
4
71
3
72
16
73
12
40
0
40
0
40
0
40
0
40
0.174528471009423
40
0.174528471009423
40
0.474386392499057
40
0.474386392499057
40
0.745259933827776
40
0.745259933827776
40
0.985919484389292
40
0.985919484389292
40
1
40
1
40
1
40
1
41
1
10
55.8109674528341
20
-2.49511809967288
30
0
41
1
10
55.8269867016073
20
-2.48491627726713
30
0
41
1
10
55.844665024415
20
-2.47604543937285
30
0
41
1
10
55.8958742291758
20
-2.45667487355598
30
0
41
1
10
55.932726450675
20
-2.44929452167577
30
0
41
1
10
56.0049319706429
20
-2.44756594116572
30
0
41
1
10
56.0412089189942
20
-2.45206585476913
30
0
41
1
10
56.1063406355722
20
-2.47090131693619
30
0
41
1
10
56.1364997274053
20
-2.48438541698698
30
0
41
1
10
56.164779673275
20
-2.50238086282238
30
0
41
1
10
56.1663545964628
20
-2.50340242555967
30
0
41
1
10
56.1679186637412
20
-2.50443646430523
30
0
0
SPLINE
5
26E
100
AcDbEntity
8
1
62
256
6
ByLayer
370
-1
48
1
60
0
100
AcDbSpline
70
4
71
3
72
18
73
14
40
0
40
0
40
0
40
0
40
0.0234665480132589
40
0.0234665480132589
40
0.247226260572672
40
0.247226260572672
40
0.471497900203354
40
0.471497900203354
40
0.708371043968216
40
0.708371043968216
40
0.967445226253405
40
0.967445226253405
40
1
40
1
40
1
40
1
41
1
10
55.9293027437332
20
-5.30352617884358
30
0
41
1
10
55.9264507766088
20
-5.30484104160013
30
0
41
1
10
55.9235760135579
20
-5.30610529783189
30
0
41
1
10
55.8933868753134
20
-5.31874969590655
30
0
41
1
10
55.863853099051
20
-5.32559786997325
30
0
41
1
10
55.8051380496013
20
-5.3293274279909
30
0
41
1
10
55.7752090636205
20
-5.32625595515754
30
0
41
1
10
55.717091788977
20
-5.31098823235106
30
0
41
1
10
55.6883610960562
20
-5.2981286394326
30
0
41
1
10
55.6343704364613
20
-5.26351549674894
30
0
41
1
10
55.6089934525265
20
-5.2406385114696
30
0
41
1
10
55.5851407304302
20
-5.21165710959656
30
0
41
1
10
55.5825172985846
20
-5.20834423036365
30
0
41
1
10
55.5799575808586
20
-5.20498488722669
30
0
0
SPLINE
5
26F
100
AcDbEntity
8
1
62
256
6
ByLayer
370
-1
48
1
60
0
100
AcDbSpline
70
4
71
3
72
14
73
10
40
0
40
0
40
0
40
0
40
0.195364289315724
40
0.195364289315724
40
0.492714238387385
40
0.492714238387385
40
0.761276334579668
40
0.761276334579668
40
1
40
1
40
1
40
1
41
1
10
54.33588788119
20
-2.65929601383414
30
0
41
1
10
54.3321453019778
20
-2.64045094280075
30
0
41
1
10
54.3310477307002
20
-2.62061618241293
30
0
41
1
10
54.3355913471968
20
-2.57007919753522
30
0
41
1
10
54.345247952409
20
-2.53818393606554
30
0
41
1
10
54.3766634861354
20
-2.48130199121533
30
0
41
1
10
54.3977069624754
20
-2.45509486728028
30
0
41
1
10
54.445921776222
20
-2.41279769218926
30
0
41
1
10
54.4728627630806
20
-2.39532319139676
30
0
41
1
10
54.5015990944795
20
-2.38207467545436
30
0
0
SPLINE
5
270
100
AcDbEntity
8
1
62
256
6
ByLayer
370
-1
48
1
60
0
100
AcDbSpline
70
4
71
3
72
20
73
16
40
0
40
0
40
0
40
0
40
0.107233627294122
40
0.107233627294122
40
0.302419289169707
40
0.302419289169707
40
0.462343507930021
40
0.462343507930021
40
0.622893589417222
40
0.622893589417222
40
0.775828883159907
40
0.775828883159907
40
0.995908765001178
40
0.995908765001178
40
1
40
1
40
1
40
1
41
1
10
54.3358878811922
20
-2.6592960138328
30
0
41
1
10
54.341706335743
20
-2.68859377431076
30
0
41
1
10
54.3448358430317
20
-2.71898218096206
30
0
41
1
10
54.3453997056278
20
-2.80671225101335
30
0
41
1
10
54.3359242102072
20
-2.86701680024171
30
0
41
1
10
54.2987706546101
20
-2.9775714856618
30
0
41
1
10
54.2741305879523
20
-3.02890960071554
30
0
41
1
10
54.2113962580328
20
-3.12701164218149
30
0
41
1
10
54.1724093575054
20
-3.17499768357894
30
0
41
1
10
54.0885814490756
20
-3.25835716503877
30
0
41
1
10
54.0431976938981
20
-3.29523121155131
30
0
41
1
10
53.9293608594991
20
-3.37127427195432
30
0
41
1
10
53.8575424187573
20
-3.40588092194184
30
0
41
1
10
53.7848499765481
20
-3.4296069231834
30
0
41
1
10
53.7835065720691
20
-3.43004151896318
30
0
41
1
10
53.7821629691128
20
-3.43047230942332
30
0
0
SPLINE
5
271
100
AcDbEntity
8
1
62
256
6
ByLayer
370
-1
48
1
60
0
100
AcDbSpline
70
4
71
3
72
16
73
12
40
0
40
0
40
0
40
0
40
0.19310788688227
40
0.19310788688227
40
0.416052070570379
40
0.416052070570379
40
0.648855494404506
40
0.648855494404506
40
0.901755104733854
40
0.901755104733854
40
1
40
1
40
1
40
1
41
1
10
53.5456838235044
20
-3.71338410634783
30
0
41
1
10
53.5478971766752
20
-3.68868320129059
30
0
41
1
10
53.5535439837692
20
-3.66357320280855
30
0
41
1
10
53.5722009294848
20
-3.61189930322243
30
0
41
1
10
53.5864707006526
20
-3.58505652987668
30
0
41
1
10
53.6216012658036
20
-3.53579396504898
30
0
41
1
10
53.6431444796044
20
-3.51298759010146
30
0
41
1
10
53.691768488835
20
-3.47300463833318
30
0
41
1
10
53.719755695969
20
-3.45595758727336
30
0
41
1
10
53.7594579066931
20
-3.4384186025348
30
0
41
1
10
53.7707914004067
20
-3.43411829970103
30
0
41
1
10
53.7821629691128
20
-3.43047230942332
30
0
0
SPLINE
5
272
100
AcDbEntity
8
1
62
256
6
ByLayer
370
-1
48
1
60
0
100
AcDbSpline
70
4
71
3
72
14
73
10
40
0
40
0
40
0
40
0
40
0.220607082023666
40
0.220607082023666
40
0.521405208892096
40
0.521405208892096
40
0.786696551790876
40
0.786696551790876
40
1
40
1
40
1
40
1
41
1
10
56.0898023822289
20
-4.96992749992449
30
0
41
1
10
56.0946651158448
20
-4.9981462991642
30
0
41
1
10
56.0961376998346
20
-5.02737273886811
30
0
41
1
10
56.0907029614755
20
-5.09551658691322
30
0
41
1
10
56.080310729607
20
-5.13528684471271
30
0
41
1
10
56.0473773709247
20
-5.20266099487543
30
0
41
1
10
56.0258487853509
20
-5.2321420400263
30
0
41
1
10
55.9791660687874
20
-5.27542462350811
30
0
41
1
10
55.9550110156404
20
-5.29167371077847
30
0
41
1
10
55.9293027437332
20
-5.30352617884358
30
0
0
SPLINE
5
273
100
AcDbEntity
8
1
62
256
6
ByLayer
370
-1
48
1
60
0
100
AcDbSpline
70
4
71
3
72
18
73
14
40
0
40
0
40
0
40
0
40
0.193074235867573
40
0.193074235867573
40
0.370703002326341
40
0.370703002326341
40
0.550239146903973
40
0.550239146903973
40
0.704018777510532
40
0.704018777510532
40
0.903544112173335
40
0.903544112173335
40
1
40
1
40
1
40
1
41
1
10
56.0898023822237
20
-4.96992749992435
30
0
41
1
10
56.0777540216718
20
-4.90000998140715
30
0
41
1
10
56.0744799334401
20
-4.8271621751083
30
0
41
1
10
56.08803997588
20
-4.68919337919286
30
0
41
1
10
56.103622856748
20
-4.62236743082622
30
0
41
1
10
56.1538288723644
20
-4.49804389241524
30
0
41
1
10
56.1896363184453
20
-4.43891470919269
30
0
41
1
10
56.2694606206962
20
-4.34769557046988
30
0
41
1
10
56.31245739095
20
-4.31176711344389
30
0
41
1
10
56.4168310822112
20
-4.24755386300845
30
0
41
1
10
56.4815029637505
20
-4.22334977412587
30
0
41
1
10
56.5787296244213
20
-4.20396181612495
30
0
41
1
10
56.6110978712814
20
-4.20015502156934
30
0
41
1
10
56.6435272943044
20
-4.19875120433852
30
0
0
SPLINE
5
274
100
AcDbEntity
8
1
62
256
6
ByLayer
370
-1
48
1
60
0
100
AcDbSpline
70
4
71
3
72
16
73
12
40
0
40
0
40
0
40
0
40
0.208885931401942
40
0.208885931401942
40
0.430059582832834
40
0.430059582832834
40
0.661905004958735
40
0.661905004958735
40
0.914359084000053
40
0.914359084000053
40
1
40
1
40
1
40
1
41
1
10
56.1679186637412
20
-2.50443646430523
30
0
41
1
10
56.1909623373091
20
-2.51967113588066
30
0
41
1
10
56.2118767334876
20
-2.5378901553878
30
0
41
1
10
56.2475543759041
20
-2.57865730041544
30
0
41
1
10
56.262340027885
20
-2.60191672432717
30
0
41
1
10
56.2836353201171
20
-2.65036014774651
30
0
41
1
10
56.2900065616564
20
-2.67618254402336
30
0
41
1
10
56.2938998008606
20
-2.72829806399821
30
0
41
1
10
56.2906687401956
20
-2.75508078662671
30
0
41
1
10
56.2802971036412
20
-2.7881059872837
30
0
41
1
10
56.2771271735093
20
-2.79631221485408
30
0
41
1
10
56.2734675050712
20
-2.80426060876783
30
0
0
SPLINE
5
275
100
AcDbEntity
8
1
62
256
6
ByLayer
370
-1
48
1
60
0
100
AcDbSpline
70
4
71
3
72
18
73
14
40
0
40
0
40
0
40
0
40
0.0003949354607563
40
0.0003949354607563
40
0.224892743043054
40
0.224892743043054
40
0.448534607133726
40
0.448534607133726
40
0.683663168903581
40
0.683663168903581
40
0.940146663975024
40
0.940146663975024
40
1
40
1
40
1
40
1
41
1
10
54.5015990944795
20
-2.38207467545436
30
0
41
1
10
54.5016472353381
20
-2.38205248073072
30
0
41
1
10
54.5016953822292
20
-2.38203029688978
30
0
41
1
10
54.5287238467316
20
-2.3695845101812
30
0
41
1
10
54.5580198841405
20
-2.36052729895329
30
0
41
1
10
54.6162225152322
20
-2.35041994302162
30
0
41
1
10
54.6458744389238
20
-2.34919166618977
30
0
41
1
10
54.703407843646
20
-2.35403356202542
30
0
41
1
10
54.7318476290262
20
-2.3605156667393
30
0
41
1
10
54.7852993528232
20
-2.38057134509225
30
0
41
1
10
54.8104516804991
20
-2.39495795590918
30
0
41
1
10
54.8364467391768
20
-2.41583788801552
30
0
41
1
10
54.8411993866152
20
-2.41997220516797
30
0
41
1
10
54.8457326825584
20
-2.42423862653499
30
0
0
SPLINE
5
276
100
AcDbEntity
8
1
62
256
6
ByLayer
370
-1
48
1
60
0
100
AcDbSpline
70
4
71
3
72
12
73
8
40
0
40
0
40
0
40
0
40
0.288397152495907
40
0.288397152495907
40
0.747888205370428
40
0.747888205370428
40
1
40
1
40
1
40
1
41
1
10
54.1557142047965
20
-4.34702227590208
30
0
41
1
10
54.1704321229654
20
-4.39104224190368
30
0
41
1
10
54.1806028073663
20
-4.4375315651553
30
0
41
1
10
54.1949944705408
20
-4.55811958741489
30
0
41
1
10
54.1924357218832
20
-4.63414688779639
30
0
41
1
10
54.1738022460008
20
-4.74652337159483
30
0
41
1
10
54.1642579232665
20
-4.78590527268076
30
0
41
1
10
54.1521395612727
20
-4.82406290260846
30
0
0
SPLINE
5
277
100
AcDbEntity
8
1
62
256
6
ByLayer
370
-1
48
1
60
0
100
AcDbSpline
70
4
71
3
72
16
73
12
40
0
40
0
40
0
40
0
40
0.0856128173193062
40
0.0856128173193062
40
0.393132353245588
40
0.393132353245588
40
0.67217252993742
40
0.67217252993742
40
0.918309377350122
40
0.918309377350122
40
1
40
1
40
1
40
1
41
1
10
56.6889714018168
20
-3.65448921499293
30
0
41
1
10
56.6987671685941
20
-3.65911211738862
30
0
41
1
10
56.7084396976379
20
-3.66422568789531
30
0
41
1
10
56.7516145185196
20
-3.68967400269281
30
0
41
1
10
56.7835021275743
20
-3.71614252193109
30
0
41
1
10
56.8335849873045
20
-3.77561018636584
30
0
41
1
10
56.8535022584845
20
-3.80876033258565
30
0
41
1
10
56.8784283801369
20
-3.87449925939765
30
0
41
1
10
56.8852393847512
20
-3.9076737935082
30
0
41
1
10
56.8864920222912
20
-3.95078298292199
30
0
41
1
10
56.8861717138279
20
-3.9615735158979
30
0
41
1
10
56.8852180147082
20
-3.97221674795008
30
0
0
SPLINE
5
278
100
AcDbEntity
8
1
62
256
6
ByLayer
370
-1
48
1
60
0
100
AcDbSpline
70
4
71
3
72
16
73
12
40
0
40
0
40
0
40
0
40
0.145457764402326
40
0.145457764402326
40
0.367748871215541
40
0.367748871215541
40
0.597390748780894
40
0.597390748780894
40
0.845144964192672
40
0.845144964192672
40
1
40
1
40
1
40
1
41
1
10
56.8852180147082
20
-3.97221674795008
30
0
41
1
10
56.8835478696514
20
-3.99085547900575
30
0
41
1
10
56.8799011827204
20
-4.00921284572507
30
0
41
1
10
56.8660823820355
20
-4.05325011305496
30
0
41
1
10
56.8532413202881
20
-4.07822617577946
30
0
41
1
10
56.8205278231447
20
-4.12202139655901
30
0
41
1
10
56.8000469271821
20
-4.14117872889111
30
0
41
1
10
56.7531531680291
20
-4.17234496975442
30
0
41
1
10
56.7258346341482
20
-4.18408779585906
30
0
41
1
10
56.6799948934594
20
-4.1954022390851
30
0
41
1
10
56.6618008540663
20
-4.19796017151558
30
0
41
1
10
56.6435272943045
20
-4.19875120433917
30
0
0
SPLINE
5
279
100
AcDbEntity
8
1
62
256
6
ByLayer
370
-1
48
1
60
0
100
AcDbSpline
70
4
71
3
72
18
73
14
40
0
40
0
40
0
40
0
40
0.0561848879349212
40
0.0561848879349212
40
0.277050979500558
40
0.277050979500558
40
0.500334478296738
40
0.500334478296738
40
0.737651830052855
40
0.737651830052855
40
0.998111856583251
40
0.998111856583251
40
1
40
1
40
1
40
1
41
1
10
54.2629831744714
20
-5.18116438999274
30
0
41
1
10
54.2567370460831
20
-5.17703493926371
30
0
41
1
10
54.2506503694418
20
-5.17262806956731
30
0
41
1
10
54.2217573528844
20
-5.14978673285802
30
0
41
1
10
54.2014026812736
20
-5.12734837372122
30
0
41
1
10
54.1687819836006
20
-5.07755760493777
30
0
41
1
10
54.1561720655362
20
-5.04953408026935
30
0
41
1
10
54.1391665459986
20
-4.99013004380916
30
0
41
1
10
54.135093689433
20
-4.95791582581487
30
0
41
1
10
54.1359178727235
20
-4.89177666071302
30
0
41
1
10
54.1417028474084
20
-4.85716006547929
30
0
41
1
10
54.1519891530831
20
-4.82453734978307
30
0
41
1
10
54.1520642375678
20
-4.82430007773593
30
0
41
1
10
54.1521395612726
20
-4.82406290260843
30
0
0
SPLINE
5
27A
100
AcDbEntity
8
SK1
62
256
6
ByLayer
370
-1
48
1
60
0
100
AcDbSpline
70
4
71
3
72
30
73
26
40
0
40
0
40
0
40
0
40
0.323683715287821
40
0.323683715287821
40
0.409735865249923
40
0.409735865249923
40
0.452928625832081
40
0.452928625832081
40
0.468145406180671
40
0.468145406180671
40
0.475617260213128
40
0.475617260213128
40
0.481869520397867
40
0.481869520397867
40
0.48817626052579
40
0.48817626052579
40
0.495259728072394
40
0.495259728072394
40
0.507216161807772
40
0.507216161807772
40
0.544450808915845
40
0.544450808915845
40
0.715771905876251
40
0.715771905876251
40
1
40
1
40
1
40
1
41
1
10
-1.69996145737014
20
-2.58069190327925
30
0
41
1
10
-1.69957279427672
20
-2.45735174741614
30
0
41
1
10
-1.69747943572614
20
-2.33275959372483
30
0
41
1
10
-1.68280786661543
20
-2.17510563663223
30
0
41
1
10
-1.67905312643578
20
-2.14178513841156
30
0
41
1
10
-1.66982584439811
20
-2.09257517130857
30
0
41
1
10
-1.66622418704014
20
-2.07599882381985
30
0
41
1
10
-1.65853526999027
20
-2.05523575475587
30
0
41
1
10
-1.65621727335139
20
-2.04990011502019
30
0
41
1
10
-1.65190392784498
20
-2.04295844851055
30
0
41
1
10
-1.65031465018177
20
-2.04081354663947
30
0
41
1
10
-1.64708474378222
20
-2.03758976610058
30
0
41
1
10
-1.64546025470034
20
-2.03637666738331
30
0
41
1
10
-1.64208683909158
20
-2.03484515225668
30
0
41
1
10
-1.64029350998899
20
-2.0345257545506
30
0
41
1
10
-1.63665124005524
20
-2.03480200364953
30
0
41
1
10
-1.63476836522864
20
-2.03549609263416
30
0
41
1
10
-1.63011332934306
20
-2.03820563111981
30
0
41
1
10
-1.62749907113707
20
-2.04079535648785
30
0
41
1
10
-1.61785331798274
20
-2.05253646839518
30
0
41
1
10
-1.61239259265159
20
-2.06415551700681
30
0
41
1
10
-1.58481103440909
20
-2.12952424336697
30
0
41
1
10
-1.57120245893441
20
-2.19071878810982
30
0
41
1
10
-1.53537272921412
20
-2.35076653698448
30
0
41
1
10
-1.51709733996256
20
-2.45260526361207
30
0
41
1
10
-1.49999999999989
20
-2.55452876952825
30
0
0
SPLINE
5
27B
100
AcDbEntity
8
SK1
62
256
6
ByLayer
370
-1
48
1
60
0
100
AcDbSpline
70
4
71
3
72
33
73
29
40
0
40
0
40
0
40
0
40
0.0060000285348709
40
0.0460669752234705
40
0.0861339219120702
40
0.12620086860067
40
0.16626781528927
40
0.206334761977869
40
0.246401708666469
40
0.286468655355069
40
0.326535602043668
40
0.366602548732268
40
0.406669495420868
40
0.446736442109467
40
0.486803388798067
40
0.526870335486667
40
0.566937282175266
40
0.607004228863866
40
0.647071175552466
40
0.687138122241065
40
0.727205068929665
40
0.767272015618265
40
0.807338962306864
40
0.847405908995464
40
0.887472855684064
40
0.927539802372663
40
0.967606749061263
40
1
40
1
40
1
40
1
41
1
10
-1.49999999999989
20
2.55452633951475
30
0
41
1
10
-1.49999999999989
20
2.57758935777625
30
0
41
1
10
-1.49999999999989
20
2.75563386385181
30
0
41
1
10
-1.49999999999989
20
3.10259085919483
30
0
41
1
10
-1.49999999999989
20
3.62131828040256
30
0
41
1
10
-1.49999999999989
20
4.17356946094313
30
0
41
1
10
-1.49999999999989
20
4.75691744833273
30
0
41
1
10
-1.49999999999989
20
5.36758879010387
30
0
41
1
10
-1.49999999999989
20
6.00058584498379
30
0
41
1
10
-1.49999999999989
20
6.64985057156352
30
0
41
1
10
-1.49999999999991
20
7.30846436616247
30
0
41
1
10
-1.49999999999991
20
7.96888181888042
30
0
41
1
10
-1.49999999999991
20
8.62318035716163
30
0
41
1
10
-1.49999999999991
20
9.26332810646636
30
0
41
1
10
-1.49999999999991
20
9.88144543350359
30
0
41
1
10
-1.49999999999991
20
10.4700665265398
30
0
41
1
10
-1.49999999999991
20
11.022373431452
30
0
41
1
10
-1.49999999999991
20
11.5324122627522
30
0
41
1
10
-1.49999999999991
20
11.9952648181666
30
0
41
1
10
-1.49999999999991
20
12.4071875603976
30
0
41
1
10
-1.49999999999994
20
12.7656956859389
30
0
41
1
10
-1.49999999999994
20
13.0696050688166
30
0
41
1
10
-1.49999999999994
20
13.3190172436223
30
0
41
1
10
-1.49999999999994
20
13.5152595263794
30
0
41
1
10
-1.49999999999994
20
13.6607746658667
30
0
41
1
10
-1.49999999999994
20
13.7589698929487
30
0
41
1
10
-1.49999999999994
20
13.8105157759644
30
0
41
1
10
-1.49999999999994
20
13.8227814214487
30
0
41
1
10
-1.49999999999994
20
13.8245293394931
30
0
0
SPLINE
5
27C
100
AcDbEntity
8
SK1
62
256
6
ByLayer
370
-1
48
1
60
0
100
AcDbSpline
70
4
71
3
72
33
73
29
40
0
40
0
40
0
40
0
40
0.032390617787865
40
0.0724576831862677
40
0.11252474858467
40
0.152591813983073
40
0.192658879381476
40
0.232725944779878
40
0.272793010178281
40
0.312860075576683
40
0.352927140975086
40
0.392994206373489
40
0.433061271771891
40
0.473128337170294
40
0.513195402568697
40
0.553262467967099
40
0.593329533365502
40
0.633396598763905
40
0.673463664162307
40
0.71353072956071
40
0.753597794959113
40
0.793664860357515
40
0.833731925755918
40
0.87379899115432
40
0.913866056552723
40
0.953933121951126
40
0.994000187349529
40
1
40
1
40
1
40
1
41
1
10
-1.49999999999994
20
-13.8245287697264
30
0
41
1
10
-1.49999999999994
20
-13.822780187084
30
0
41
1
10
-1.49999999999994
20
-13.8105138124635
30
0
41
1
10
-1.49999999999994
20
-13.7589702687857
30
0
41
1
10
-1.49999999999994
20
-13.6607745146452
30
0
41
1
10
-1.49999999999994
20
-13.5152595834079
30
0
41
1
10
-1.49999999999994
20
-13.3190171661248
30
0
41
1
10
-1.49999999999994
20
-13.0696050793313
30
0
41
1
10
-1.49999999999994
20
-12.765695711353
30
0
41
1
10
-1.49999999999991
20
-12.4071875173709
30
0
41
1
10
-1.49999999999991
20
-11.9952649527342
30
0
41
1
10
-1.49999999999991
20
-11.5324121673266
30
0
41
1
10
-1.49999999999991
20
-11.0223736645665
30
0
41
1
10
-1.49999999999991
20
-10.470066387995
30
0
41
1
10
-1.49999999999991
20
-9.88144573908428
30
0
41
1
10
-1.49999999999991
20
-9.26332794093628
30
0
41
1
10
-1.49999999999991
20
-8.62318069742537
30
0
41
1
10
-1.49999999999991
20
-7.96888164701966
30
0
41
1
10
-1.49999999999991
20
-7.30846469728445
30
0
41
1
10
-1.49999999999989
20
-6.64985041554638
30
0
41
1
10
-1.49999999999989
20
-6.00058612356241
30
0
41
1
10
-1.49999999999989
20
-5.36758867042255
30
0
41
1
10
-1.49999999999989
20
-4.75691763797596
30
0
41
1
10
-1.49999999999989
20
-4.17356939352865
30
0
41
1
10
-1.49999999999989
20
-3.62131845460988
30
0
41
1
10
-1.49999999999989
20
-3.10259083011954
30
0
41
1
10
-1.49999999999989
20
-2.75563447873756
30
0
41
1
10
-1.49999999999989
20
-2.57759088990096
30
0
41
1
10
-1.49999999999989
20
-2.55452876952825
30
0
0
SPLINE
5
27D
100
AcDbEntity
8
SK1
62
256
6
ByLayer
370
-1
48
1
60
0
100
AcDbSpline
70
4
71
3
72
32
73
28
40
0
40
0
40
0
40
0
40
0.354837962587792
40
0.354837962587792
40
0.435681934263787
40
0.435681934263787
40
0.463193700904597
40
0.463193700904597
40
0.486354482316139
40
0.486354482316139
40
0.509973974541632
40
0.509973974541632
40
0.516964208360703
40
0.516964208360703
40
0.524073291076373
40
0.524073291076373
40
0.530129314699379
40
0.530129314699379
40
0.538912548051755
40
0.538912548051755
40
0.555847543784125
40
0.555847543784125
40
0.617395553553781
40
0.617395553553781
40
0.862351410077428
40
0.862351410077428
40
1
40
1
40
1
40
1
41
1
10
-1.49999999999997
20
-13.6354046322643
30
0
41
1
10
-1.52103408040219
20
-13.6113106077528
30
0
41
1
10
-1.5431136748729
20
-13.5864010885067
30
0
41
1
10
-1.58136675286579
20
-13.5660073910366
30
0
41
1
10
-1.58900202914975
20
-13.5626923002263
30
0
41
1
10
-1.60130723593383
20
-13.5605634744677
30
0
41
1
10
-1.60462784617891
20
-13.5602351852046
30
0
41
1
10
-1.61136477270867
20
-13.5603829527657
30
0
41
1
10
-1.6146830542956
20
-13.5607248602462
30
0
41
1
10
-1.62228239094077
20
-13.5626439304685
30
0
41
1
10
-1.62665165692866
20
-13.5641658144187
30
0
41
1
10
-1.633716248285
20
-13.5686250506848
30
0
41
1
10
-1.63548301786963
20
-13.5698688039791
30
0
41
1
10
-1.639165556969
20
-13.5728313577292
30
0
41
1
10
-1.64113772385812
20
-13.5746110950765
30
0
41
1
10
-1.64462082807191
20
-13.5781471549731
30
0
41
1
10
-1.64619573481406
20
-13.5799049614575
30
0
41
1
10
-1.64972043997636
20
-13.584157849073
30
0
41
1
10
-1.65159006135414
20
-13.5866989919877
30
0
41
1
10
-1.65639599432834
20
-13.5937562155754
30
0
41
1
10
-1.65888709683196
20
-13.598117184021
30
0
41
1
10
-1.66876077054772
20
-13.6169304791085
30
0
41
1
10
-1.67291602816357
20
-13.6292362105215
30
0
41
1
10
-1.69081671913955
20
-13.6869666460463
30
0
41
1
10
-1.69435307535019
20
-13.7234530454499
30
0
41
1
10
-1.69876945362606
20
-13.7776281868664
30
0
41
1
10
-1.69958314545906
20
-13.7961831676943
30
0
41
1
10
-1.69987639962216
20
-13.8139891097792
30
0
0
SPLINE
5
27E
100
AcDbEntity
8
SK1
62
256
6
ByLayer
370
-1
48
1
60
0
100
AcDbSpline
70
4
71
3
72
32
73
28
40
0
40
0
40
0
40
0
40
0.343889632240037
40
0.343889632240037
40
0.424881203786091
40
0.424881203786091
40
0.45219319517405
40
0.45219319517405
40
0.473746524143709
40
0.473746524143709
40
0.495563509153789
40
0.495563509153789
40
0.504202913264278
40
0.504202913264278
40
0.510236809227349
40
0.510236809227349
40
0.516312447398371
40
0.516312447398371
40
0.523454548652051
40
0.523454548652051
40
0.535565299712341
40
0.535565299712341
40
0.57300444614615
40
0.57300444614615
40
0.744007987780293
40
0.744007987780293
40
1
40
1
40
1
40
1
41
1
10
-1.49999999999989
20
2.55452633951475
30
0
41
1
10
-1.52085985378923
20
2.43017154880397
30
0
41
1
10
-1.54277848657128
20
2.30539150900933
30
0
41
1
10
-1.58054446546703
20
2.15690281341079
30
0
41
1
10
-1.58828317908851
20
2.12879825114811
30
0
41
1
10
-1.60072712650165
20
2.09279395763306
30
0
41
1
10
-1.60406058795391
20
2.08384105107302
30
0
41
1
10
-1.61062680538262
20
2.06838289745696
30
0
41
1
10
-1.6137338099156
20
2.06173130148738
30
0
41
1
10
-1.62074858386092
20
2.04929690476194
30
0
41
1
10
-1.6246915213566
20
2.04329967204669
30
0
41
1
10
-1.63143983836963
20
2.03738508207587
30
0
41
1
10
-1.6335507648601
20
2.03598317715259
30
0
41
1
10
-1.63737876424599
20
2.03469617825761
30
0
41
1
10
-1.63905717359933
20
2.03448731940549
30
0
41
1
10
-1.64239270814321
20
2.0349385986527
30
0
41
1
10
-1.64408889405067
20
2.03561765464858
30
0
41
1
10
-1.64749825596724
20
2.03787010124455
30
0
41
1
10
-1.64921667651578
20
2.03959185511141
30
0
41
1
10
-1.65333511326014
20
2.04482054191681
30
0
41
1
10
-1.65549701098459
20
2.04879885431208
30
0
41
1
10
-1.66311966371092
20
2.06550748630016
30
0
41
1
10
-1.66673415611749
20
2.07974527657228
30
0
41
1
10
-1.68385102741172
20
2.1575921539345
30
0
41
1
10
-1.68804814437192
20
2.22386329884722
30
0
41
1
10
-1.69782346255605
20
2.3865563041347
30
0
41
1
10
-1.69965656225776
20
2.48393126749517
30
0
41
1
10
-1.69996145716266
20
2.58068890323847
30
0
0
SPLINE
5
27F
100
AcDbEntity
8
SK1
62
256
6
ByLayer
370
-1
48
1
60
0
100
AcDbSpline
70
4
71
3
72
24
73
20
40
0
40
0
40
0
40
0
40
0.394875644104775
40
0.394875644104775
40
0.580237478202818
40
0.580237478202818
40
0.768024594545524
40
0.768024594545524
40
0.821318184582328
40
0.821318184582328
40
0.86063645050671
40
0.86063645050671
40
0.893544596745066
40
0.893544596745066
40
0.926376480305815
40
0.926376480305815
40
0.975583602956219
40
0.975583602956219
40
1
40
1
40
1
40
1
41
1
10
-1.30710678118703
20
3.58871727154681
30
0
41
1
10
-1.25970314050051
20
3.82268545505016
30
0
41
1
10
-1.20268951681544
20
4.0522990637061
30
0
41
1
10
-1.088442965686
20
4.37621064451773
30
0
41
1
10
-1.04721780763597
20
4.47806704652851
30
0
41
1
10
-0.946498347972181
20
4.67402400407769
30
0
41
1
10
-0.887649711538188
20
4.77181850306434
30
0
41
1
10
-0.778611976213341
20
4.87193345154523
30
0
41
1
10
-0.751538353604559
20
4.89265008986257
30
0
41
1
10
-0.699050623103489
20
4.92098681441374
30
0
41
1
10
-0.67456405913228
20
4.93073454927372
30
0
41
1
10
-0.627610440444386
20
4.94089837201273
30
0
41
1
10
-0.604990345651117
20
4.94257917258165
30
0
41
1
10
-0.561019153025597
20
4.93928086468458
30
0
41
1
10
-0.539185873337146
20
4.9343220454893
30
0
41
1
10
-0.488505513252846
20
4.91611333631423
30
0
41
1
10
-0.460609299544473
20
4.89990010346509
30
0
41
1
10
-0.423195770996898
20
4.87233551414784
30
0
41
1
10
-0.411325532072311
20
4.86251297160928
30
0
41
1
10
-0.39999999999992
20
4.85227456454996
30
0
0
SPLINE
5
280
100
AcDbEntity
8
SK1
62
256
6
ByLayer
370
-1
48
1
60
0
100
AcDbSpline
70
4
71
3
72
36
73
32
40
0
40
0
40
0
40
0
40
0.0609459679783903
40
0.0609459679783903
40
0.132350572982163
40
0.132350572982163
40
0.203732784321961
40
0.203732784321961
40
0.275101574808726
40
0.275101574808726
40
0.346462424968363
40
0.346462424968363
40
0.417819049791593
40
0.417819049791593
40
0.489174288113464
40
0.489174288113464
40
0.560530863046517
40
0.560530863046517
40
0.631891607751843
40
0.631891607751843
40
0.703260276788134
40
0.703260276788134
40
0.774642141230399
40
0.774642141230399
40
0.846046336363578
40
0.846046336363578
40
0.91748993923484
40
0.91748993923484
40
0.989010298502639
40
0.989010298502639
40
1
40
1
40
1
40
1
41
1
10
-1.69993712518544
20
14.0200998908195
30
0
41
1
10
-1.69994579429309
20
14.0197255439036
30
0
41
1
10
-1.69995293797186
20
13.9984598300067
30
0
41
1
10
-1.699965968995
20
13.912699878437
30
0
41
1
10
-1.69997144501835
20
13.8412461697365
30
0
41
1
10
-1.69998026772575
20
13.6540534429184
30
0
41
1
10
-1.69998362760808
20
13.5381086536818
30
0
41
1
10
-1.69998893512073
20
13.2660178923742
30
0
41
1
10
-1.69999089366294
20
13.1096457528619
30
0
41
1
10
-1.69999393023608
20
12.759718428774
30
0
41
1
10
-1.69999500206259
20
12.5659031533754
30
0
41
1
10
-1.69999661222786
20
12.1434156407086
30
0
41
1
10
-1.69999715099706
20
11.9144442673658
30
0
41
1
10
-1.69999791606469
20
11.4234052370848
30
0
41
1
10
-1.69999814136457
20
11.1610105069826
30
0
41
1
10
-1.69999839419393
20
10.6045273427662
30
0
41
1
10
-1.69999842180135
20
10.310058909404
30
0
41
1
10
-1.69999829195729
20
9.69048832766435
30
0
41
1
10
-1.69999813485148
20
9.36495240576079
30
0
41
1
10
-1.69999754826782
20
8.68408754721199
30
0
41
1
10
-1.69999711775765
20
8.3282356479576
30
0
41
1
10
-1.6999957833763
20
7.58734438932615
30
0
41
1
10
-1.69999487990981
20
7.20167717645487
30
0
41
1
10
-1.69999225979791
20
6.40163925188287
30
0
41
1
10
-1.69999054604449
20
5.98644558449715
30
0
41
1
10
-1.6999858288633
20
5.12780487492378
30
0
41
1
10
-1.69998281485047
20
4.68321714982289
30
0
41
1
10
-1.69997494930925
20
3.76648812038707
30
0
41
1
10
-1.69997003537304
20
3.29259296387656
30
0
41
1
10
-1.69996330814757
20
2.73138446680247
30
0
41
1
10
-1.6999623922878
20
2.65618850451398
30
0
41
1
10
-1.69996145716257
20
2.58068890323852
30
0
0
SPLINE
5
281
100
AcDbEntity
8
SK1
62
256
6
ByLayer
370
-1
48
1
60
0
100
AcDbSpline
70
4
71
3
72
22
73
18
40
0
40
0
40
0
40
0
40
0.0453538571579231
40
0.0453538571579231
40
0.0914518524267671
40
0.0914518524267671
40
0.124365048640694
40
0.124365048640694
40
0.157186848928651
40
0.157186848928651
40
0.206991933628443
40
0.206991933628443
40
0.302636793523901
40
0.302636793523901
40
0.633583445149988
40
0.633583445149988
40
1
40
1
40
1
40
1
41
1
10
-0.39999999999992
20
-4.85227506835233
30
0
41
1
10
-0.420964880828222
20
-4.87122754186862
30
0
41
1
10
-0.443888117925155
20
-4.88887456363264
30
0
41
1
10
-0.494495022291204
20
-4.91840151431526
30
0
41
1
10
-0.52299513623484
20
-4.93045451470871
30
0
41
1
10
-0.574401278620741
20
-4.94114219540694
30
0
41
1
10
-0.597076224252902
20
-4.9426164760024
30
0
41
1
10
-0.641056311684366
20
-4.93891494651641
30
0
41
1
10
-0.662845886446405
20
-4.9337627063027
30
0
41
1
10
-0.71376347581031
20
-4.91501929832424
30
0
41
1
10
-0.741856008482671
20
-4.89837342492686
30
0
41
1
10
-0.814978349041638
20
-4.84361103162897
30
0
41
1
10
-0.854317961498367
20
-4.79908644376556
30
0
41
1
10
-1.00688542665307
20
-4.59427172963152
30
0
41
1
10
-1.0791858799123
20
-4.40986442942582
30
0
41
1
10
-1.21067514066451
20
-4.01906025534171
30
0
41
1
10
-1.26311821358462
20
-3.80583052169118
30
0
41
1
10
-1.30710678118919
20
-3.58871725124908
30
0
0
SPLINE
5
282
100
AcDbEntity
8
SK1
62
256
6
ByLayer
370
-1
48
1
60
0
100
AcDbSpline
70
4
71
3
72
28
73
24
40
0
40
0
40
0
40
0
40
0.045314505772094
40
0.045314505772094
40
0.157151374705355
40
0.157151374705355
40
0.268988243638615
40
0.268988243638615
40
0.380825112571876
40
0.380825112571876
40
0.492661981505137
40
0.492661981505137
40
0.548580415971767
40
0.548580415971767
40
0.604498850438397
40
0.604498850438397
40
0.716335719371658
40
0.716335719371658
40
0.828172588304919
40
0.828172588304919
40
0.940009457238179
40
0.940009457238179
40
1
40
1
40
1
40
1
41
1
10
-22.5003056830771
20
-13.494601535599
30
0
41
1
10
-22.5000158920805
20
-13.4777766525689
30
0
41
1
10
-22.4997685991816
20
-13.4045745180469
30
0
41
1
10
-22.4989937307487
20
-13.0176080569603
30
0
41
1
10
-22.4986249683274
20
-12.4701500968596
30
0
41
1
10
-22.4982069261353
20
-11.0286978987137
30
0
41
1
10
-22.4981455997663
20
-10.0921297310518
30
0
41
1
10
-22.4983230845615
20
-7.90886209346706
30
0
41
1
10
-22.4986082112245
20
-6.62824532897454
30
0
41
1
10
-22.4993679354385
20
-3.70042306094194
30
0
41
1
10
-22.5004322724609
20
-2.03370616903342
30
0
41
1
10
-22.5004923151495
20
0.897251413489357
30
0
41
1
10
-22.5001090878581
20
1.82206258077932
30
0
41
1
10
-22.4995136142361
20
3.53411939692123
30
0
41
1
10
-22.4992189802757
20
4.32121670078146
30
0
41
1
10
-22.4986136957847
20
6.55202595219237
30
0
41
1
10
-22.4983360854145
20
7.81771510109627
30
0
41
1
10
-22.4981435239426
20
10.0525974738792
30
0
41
1
10
-22.4981983886721
20
10.9721166914213
30
0
41
1
10
-22.4986120765797
20
12.4514986628692
30
0
41
1
10
-22.4989713160795
20
12.9965620594741
30
0
41
1
10
-22.4998145454032
20
13.4323970505025
30
0
41
1
10
-22.5001496286255
20
13.516284947233
30
0
41
1
10
-22.5005702782894
20
13.4924438982339
30
0
0
SPLINE
5
283
100
AcDbEntity
8
SK1
62
256
6
ByLayer
370
-1
48
1
60
0
100
AcDbSpline
70
4
71
3
72
8
73
4
40
0
40
0
40
0
40
0
40
1
40
1
40
1
40
1
41
1
10
-1.30710678118655
20
3.5887172715492
30
0
41
1
10
-1.37532422566159
20
3.25201925983745
30
0
41
1
10
-1.44087263133542
20
2.90701066801501
30
0
41
1
10
-1.49999999999989
20
2.55452633951475
30
0
0
SPLINE
5
284
100
AcDbEntity
8
SK1
62
256
6
ByLayer
370
-1
48
1
60
0
100
AcDbSpline
70
4
71
3
72
8
73
4
40
0
40
0
40
0
40
0
40
1
40
1
40
1
40
1
41
1
10
-1.49999999999989
20
-2.55452876952822
30
0
41
1
10
-1.44087207369964
20
-2.90701199552916
30
0
41
1
10
-1.37532387973016
20
-3.25201982801605
30
0
41
1
10
-1.30710678118652
20
-3.58871725126215
30
0
0
SPLINE
5
285
100
AcDbEntity
8
SK1
62
256
6
ByLayer
370
-1
48
1
60
0
100
AcDbSpline
70
4
71
3
72
27
73
23
40
0
40
0
40
0
40
0
40
0.0433318476035857
40
0.0944051784814836
40
0.145478509359382
40
0.19655184023728
40
0.247625171115177
40
0.298698501993075
40
0.349771832870973
40
0.400845163748871
40
0.451918494626769
40
0.502991825504667
40
0.554065156382565
40
0.605138487260463
40
0.656211818138361
40
0.707285149016259
40
0.758358479894157
40
0.809431810772054
40
0.860505141649952
40
0.91157847252785
40
0.962651803405748
40
1
40
1
40
1
40
1
41
1
10
-0.39999999999992
20
4.85227456455002
30
0
41
1
10
-0.39999999999992
20
5.02226873502778
30
0
41
1
10
-0.39999999999992
20
5.3995711445526
30
0
41
1
10
-0.39999999999992
20
6.00058584498379
30
0
41
1
10
-0.39999999999992
20
6.64985057156352
30
0
41
1
10
-0.39999999999992
20
7.30846436616247
30
0
41
1
10
-0.39999999999992
20
7.96888181888042
30
0
41
1
10
-0.39999999999992
20
8.62318035716163
30
0
41
1
10
-0.39999999999992
20
9.26332810646636
30
0
41
1
10
-0.39999999999992
20
9.88144543350359
30
0
41
1
10
-0.39999999999992
20
10.4700665265398
30
0
41
1
10
-0.39999999999992
20
11.022373431452
30
0
41
1
10
-0.399999999999949
20
11.5324122627522
30
0
41
1
10
-0.399999999999949
20
11.9952648181666
30
0
41
1
10
-0.399999999999949
20
12.4071875603976
30
0
41
1
10
-0.399999999999949
20
12.7656956859389
30
0
41
1
10
-0.399999999999949
20
13.0696050688166
30
0
41
1
10
-0.399999999999949
20
13.3190172436223
30
0
41
1
10
-0.399999999999949
20
13.5152595263794
30
0
41
1
10
-0.399999999999949
20
13.6607746658667
30
0
41
1
10
-0.399999999999949
20
13.7501737648812
30
0
41
1
10
-0.399999999999977
20
13.7852935510177
30
0
41
1
10
-0.399999999999977
20
13.7965925646215
30
0
0
SPLINE
5
286
100
AcDbEntity
8
SK1
62
256
6
ByLayer
370
-1
48
1
60
0
100
AcDbSpline
70
4
71
3
72
24
73
20
40
0
40
0
40
0
40
0
40
0.0008299253361681
40
0.0008299253361681
40
0.374241324444196
40
0.374241324444196
40
0.632344789479577
40
0.632344789479577
40
0.762112395220988
40
0.762112395220988
40
0.806579694985655
40
0.806579694985655
40
0.851786357615327
40
0.851786357615327
40
0.89322700015518
40
0.89322700015518
40
0.93646433168079
40
0.93646433168079
40
1
40
1
40
1
40
1
41
1
10
-0.218267038722587
20
13.9259778556267
30
0
41
1
10
-0.218280426881961
20
13.9259543424539
30
0
41
1
10
-0.218293824099845
20
13.9259308243107
30
0
41
1
10
-0.224346935588187
20
13.9153098301286
30
0
41
1
10
-0.232233669438102
20
13.9036655551733
30
0
41
1
10
-0.252765410814618
20
13.8814084969653
30
0
41
1
10
-0.262983257543368
20
13.8715421084066
30
0
41
1
10
-0.286616108803798
20
13.8549361512882
30
0
41
1
10
-0.296048597512964
20
13.8489546731
30
0
41
1
10
-0.313313649213939
20
13.8405611977702
30
0
41
1
10
-0.318242626725265
20
13.8383488525843
30
0
41
1
10
-0.329187128776852
20
13.8339930106961
30
0
41
1
10
-0.335388564995384
20
13.83179581462
30
0
41
1
10
-0.347755359286083
20
13.8280854434499
30
0
41
1
10
-0.354048035137083
20
13.8264890383489
30
0
41
1
10
-0.366250197629455
20
13.8239295609977
30
0
41
1
10
-0.372316125402563
20
13.8229457626001
30
0
41
1
10
-0.38603706697225
20
13.821215643274
30
0
41
1
10
-0.393386043187917
20
13.8207370125792
30
0
41
1
10
-0.399999999999977
20
13.8205593061294
30
0
0
SPLINE
5
287
100
AcDbEntity
8
SK1
62
256
6
ByLayer
370
-1
48
1
60
0
100
AcDbSpline
70
4
71
3
72
27
73
23
40
0
40
0
40
0
40
0
40
0.0373491017223203
40
0.0884223864643933
40
0.139495671206466
40
0.19056895594854
40
0.241642240690613
40
0.292715525432686
40
0.343788810174759
40
0.394862094916832
40
0.445935379658905
40
0.497008664400978
40
0.548081949143051
40
0.599155233885124
40
0.650228518627197
40
0.70130180336927
40
0.752375088111343
40
0.803448372853416
40
0.854521657595489
40
0.905594942337563
40
0.956668227079636
40
1
40
1
40
1
40
1
41
1
10
-0.400000000000006
20
-13.7965930683015
30
0
41
1
10
-0.399999999999977
20
-13.7852940850817
30
0
41
1
10
-0.39999999999992
20
-13.7501746952068
30
0
41
1
10
-0.399999999999949
20
-13.6607745146452
30
0
41
1
10
-0.399999999999949
20
-13.5152595834079
30
0
41
1
10
-0.399999999999949
20
-13.3190171661248
30
0
41
1
10
-0.399999999999949
20
-13.0696050793313
30
0
41
1
10
-0.399999999999949
20
-12.765695711353
30
0
41
1
10
-0.399999999999949
20
-12.4071875173709
30
0
41
1
10
-0.399999999999949
20
-11.9952649527342
30
0
41
1
10
-0.399999999999949
20
-11.5324121673266
30
0
41
1
10
-0.39999999999992
20
-11.0223736645665
30
0
41
1
10
-0.39999999999992
20
-10.470066387995
30
0
41
1
10
-0.39999999999992
20
-9.88144573908428
30
0
41
1
10
-0.39999999999992
20
-9.26332794093628
30
0
41
1
10
-0.39999999999992
20
-8.62318069742537
30
0
41
1
10
-0.39999999999992
20
-7.96888164701966
30
0
41
1
10
-0.39999999999992
20
-7.30846469728445
30
0
41
1
10
-0.39999999999992
20
-6.64985041554638
30
0
41
1
10
-0.39999999999992
20
-6.00058612356241
30
0
41
1
10
-0.39999999999992
20
-5.39957119182188
30
0
41
1
10
-0.39999999999992
20
-5.02226907709914
30
0
41
1
10
-0.39999999999992
20
-4.85227506835238
30
0
0
SPLINE
5
288
100
AcDbEntity
8
SK1
62
256
6
ByLayer
370
-1
48
1
60
0
100
AcDbSpline
70
4
71
3
72
22
73
18
40
0
40
0
40
0
40
0
40
0.0786850835287341
40
0.0786850835287341
40
0.13954779791919
40
0.13954779791919
40
0.188071194161002
40
0.188071194161002
40
0.236589144391117
40
0.236589144391117
40
0.303969216423165
40
0.303969216423165
40
0.425232833638021
40
0.425232833638021
40
0.809203035690162
40
0.809203035690162
40
1
40
1
40
1
40
1
41
1
10
-0.399999999999977
20
-13.8205590132786
30
0
41
1
10
-0.394013511242747
20
-13.8207198641373
30
0
41
1
10
-0.387438377041548
20
-13.8211277948213
30
0
41
1
10
-0.374607857819029
20
-13.8226095541097
30
0
41
1
10
-0.368494470268644
20
-13.8235344490986
30
0
41
1
10
-0.357073302473168
20
-13.8258132771122
30
0
41
1
10
-0.351741572367729
20
-13.8270713477329
30
0
41
1
10
-0.34140996003066
20
-13.8299215021952
30
0
41
1
10
-0.336294849042844
20
-13.831543966011
30
0
41
1
10
-0.325054468279149
20
-13.8355258548496
30
0
41
1
10
-0.319101901704443
20
-13.8379842992552
30
0
41
1
10
-0.304411347490543
20
-13.8446767815525
30
0
41
1
10
-0.296779548188397
20
-13.8489171706104
30
0
41
1
10
-0.269692663824316
20
-13.8655029311592
30
0
41
1
10
-0.257826564745358
20
-13.8765532193897
30
0
41
1
10
-0.243251356547006
20
-13.8915617245935
30
0
41
1
10
-0.238933567229054
20
-13.896330493641
30
0
41
1
10
-0.235061529863543
20
-13.9009197315959
30
0
0
SPLINE
5
289
100
AcDbEntity
8
SK1
62
256
6
ByLayer
370
-1
48
1
60
0
100
AcDbSpline
70
4
71
3
72
36
73
32
40
0
40
0
40
0
40
0
40
0.0332996421666683
40
0.0332996421666683
40
0.0866295922417514
40
0.0866295922417514
40
0.193745270169085
40
0.193745270169085
40
0.247042319249035
40
0.247042319249035
40
0.300332977593234
40
0.300332977593234
40
0.353619292121799
40
0.353619292121799
40
0.460448184650326
40
0.460448184650326
40
0.513730575826088
40
0.513730575826088
40
0.620535716611497
40
0.620535716611497
40
0.673818292224374
40
0.673818292224374
40
0.727102323608153
40
0.727102323608153
40
0.833958376067459
40
0.833958376067459
40
0.887248781067809
40
0.887248781067809
40
0.994263406443933
40
0.994263406443933
40
1
40
1
40
1
40
1
41
1
10
-1.69996145737016
20
-2.58069190327936
30
0
41
1
10
-1.69996429163038
20
-2.80951695785709
30
0
41
1
10
-1.69996696089558
20
-3.03562557775425
30
0
41
1
10
-1.699973337193
20
-3.6157289366447
30
0
41
1
10
-1.69997671926922
20
-3.96552379997851
30
0
41
1
10
-1.69998530650679
20
-4.99113580073313
30
0
41
1
10
-1.69998901558614
20
-5.6451156934246
30
0
41
1
10
-1.69999286236259
20
-6.57296958257461
30
0
41
1
10
-1.69999386162712
20
-6.87371338526046
30
0
41
1
10
-1.69999546843783
20
-7.4583834927808
30
0
41
1
10
-1.69999607823138
20
-7.74261790611689
30
0
41
1
10
-1.69999703744654
20
-8.29417338948343
30
0
41
1
10
-1.69999738660749
20
-8.56175046472268
30
0
41
1
10
-1.69999817831075
20
-9.33946452185438
30
0
41
1
10
-1.69999837743333
20
-9.82518649337788
30
0
41
1
10
-1.69999839575107
20
-10.4996879381028
30
0
41
1
10
-1.69999835090127
20
-10.7156644660853
30
0
41
1
10
-1.69999804475921
20
-11.336874457689
30
0
41
1
10
-1.69999762619807
20
-11.7157820313895
30
0
41
1
10
-1.69999631259481
20
-12.2254945281863
30
0
41
1
10
-1.69999575688217
20
-12.385732211918
30
0
41
1
10
-1.69999429236034
20
-12.686096780789
30
0
41
1
10
-1.69999338656007
20
-12.8263310062018
30
0
41
1
10
-1.69998989513294
20
-13.2157140959206
30
0
41
1
10
-1.69998657603577
20
-13.4338327645562
30
0
41
1
10
-1.69997869923833
20
-13.6890552895256
30
0
41
1
10
-1.69997557888936
20
-13.7622199088226
30
0
41
1
10
-1.69996421209731
20
-13.9433027119529
30
0
41
1
10
-1.69995396430045
20
-14.0130768516047
30
0
41
1
10
-1.69993838351951
20
-14.0199514281955
30
0
41
1
10
-1.69993757578195
20
-14.0201187474209
30
0
41
1
10
-1.69993675425061
20
-14.0201000442183
30
0
0
SPLINE
5
28A
100
AcDbEntity
8
SK1
62
256
6
ByLayer
370
-1
48
1
60
0
100
AcDbSpline
70
4
71
3
72
79
73
75
40
0
40
0
40
0
40
0
40
0.0069311072274663
40
0.0210187899999512
40
0.0351064727724361
40
0.049194155544921
40
0.0632818383174059
40
0.0773695210898908
40
0.0914572038623757
40
0.105544886634861
40
0.119632569407345
40
0.13372025217983
40
0.147807934952315
40
0.1618956177248
40
0.175983300497285
40
0.19007098326977
40
0.204158666042255
40
0.21824634881474
40
0.232334031587225
40
0.24642171435971
40
0.260509397132195
40
0.27459707990468
40
0.288684762677164
40
0.302772445449649
40
0.316860128222134
40
0.330947810994619
40
0.345035493767104
40
0.359123176539589
40
0.373210859312074
40
0.387298542084559
40
0.401386224857044
40
0.415473907629529
40
0.429561590402014
40
0.443649273174498
40
0.457736955946983
40
0.471824638719468
40
0.485912321491953
40
0.500000004264438
40
0.514087687036923
40
0.528175369809408
40
0.542263052581893
40
0.556350735354378
40
0.570438418126862
40
0.584526100899347
40
0.598613783671832
40
0.612701466444317
40
0.626789149216802
40
0.640876831989287
40
0.654964514761772
40
0.669052197534257
40
0.683139880306742
40
0.697227563079227
40
0.711315245851711
40
0.725402928624196
40
0.739490611396681
40
0.753578294169166
40
0.767665976941651
40
0.781753659714136
40
0.795841342486621
40
0.809929025259106
40
0.824016708031591
40
0.838104390804076
40
0.852192073576561
40
0.866279756349046
40
0.88036743912153
40
0.894455121894015
40
0.9085428046665
40
0.922630487438985
40
0.93671817021147
40
0.950805852983955
40
0.96489353575644
40
0.978981218528925
40
0.99306890130141
40
1
40
1
40
1
40
1
41
1
10
-2.5
20
13.8300380026554
30
0
41
1
10
-2.5
20
13.8443994558504
30
0
41
1
10
-2.5
20
13.8858550859356
30
0
41
1
10
-2.5
20
13.9432745301022
30
0
41
1
10
-2.5
20
13.9887542441536
30
0
41
1
10
-2.5
20
14.0056234056246
30
0
41
1
10
-2.5
20
13.988752133348
30
0
41
1
10
-2.5
20
13.9330904587156
30
0
41
1
10
-2.5
20
13.8339177083708
30
0
41
1
10
-2.5
20
13.6870701821128
30
0
41
1
10
-2.49999999999997
20
13.4891606659135
30
0
41
1
10
-2.49999999999997
20
13.2377634553435
30
0
41
1
10
-2.49999999999997
20
12.9315646731672
30
0
41
1
10
-2.49999999999997
20
12.5704720586786
30
0
41
1
10
-2.49999999999997
20
12.1556745862519
30
0
41
1
10
-2.49999999999997
20
11.6896573582757
30
0
41
1
10
-2.49999999999997
20
11.1761598486008
30
0
41
1
10
-2.49999999999997
20
10.6200921552756
30
0
41
1
10
-2.49999999999997
20
10.0273966309962
30
0
41
1
10
-2.49999999999994
20
9.40487698463008
30
0
41
1
10
-2.49999999999994
20
8.75998301936997
30
0
41
1
10
-2.49999999999994
20
8.10057759802723
30
0
41
1
10
-2.49999999999994
20
7.43467620819112
30
0
41
1
10
-2.49999999999994
20
6.77018655593477
30
0
41
1
10
-2.49999999999994
20
6.11464187468977
30
0
41
1
10
-2.49999999999994
20
5.47495238907831
30
0
41
1
10
-2.49999999999994
20
4.85717257311447
30
0
41
1
10
-2.49999999999994
20
4.26630223424849
30
0
41
1
10
-2.49999999999994
20
3.70612309484702
30
0
41
1
10
-2.49999999999994
20
3.17908000235968
30
0
41
1
10
-2.49999999999994
20
2.68621197756718
30
0
41
1
10
-2.49999999999994
20
2.22713214869714
30
0
41
1
10
-2.49999999999994
20
1.80006432484655
30
0
41
1
10
-2.49999999999994
20
1.40192548161284
30
0
41
1
10
-2.49999999999994
20
1.02846311010666
30
0
41
1
10
-2.49999999999994
20
0.674428687296569
30
0
41
1
10
-2.49999999999994
20
0.333795915844576
30
0
41
1
10
-2.49999999999994
20
-7.12340693E-08
30
0
41
1
10
-2.49999999999994
20
-0.333795630908241
30
0
41
1
10
-2.49999999999994
20
-0.674428818459575
30
0
41
1
10
-2.49999999999994
20
-1.02846287039082
30
0
41
1
10
-2.49999999999994
20
-1.40192558052763
30
0
41
1
10
-2.49999999999994
20
-1.80006416890296
30
0
41
1
10
-2.49999999999994
20
-2.22713219916599
30
0
41
1
10
-2.49999999999994
20
-2.68621193163514
30
0
41
1
10
-2.49999999999994
20
-3.17907999530164
30
0
41
1
10
-2.49999999999994
20
-3.70612316901105
30
0
41
1
10
-2.49999999999994
20
-4.26630216899858
30
0
41
1
10
-2.49999999999994
20
-4.85717275994992
30
0
41
1
10
-2.49999999999994
20
-5.47495227341935
30
0
41
1
10
-2.49999999999994
20
-6.11464215048997
30
0
41
1
10
-2.49999999999994
20
-6.7701864048623
30
0
41
1
10
-2.49999999999994
20
-7.43467653668063
30
0
41
1
10
-2.49999999999994
20
-8.10057743145504
30
0
41
1
10
-2.49999999999994
20
-8.75998335716918
30
0
41
1
10
-2.49999999999994
20
-9.40487682435958
30
0
41
1
10
-2.49999999999997
20
-10.027396934279
30
0
41
1
10
-2.49999999999997
20
-10.6200920217111
30
0
41
1
10
-2.49999999999997
20
-11.1761600795757
30
0
41
1
10
-2.49999999999997
20
-11.6896572673894
30
0
41
1
10
-2.49999999999997
20
-12.1556747188218
30
0
41
1
10
-2.49999999999997
20
-12.5704720196536
30
0
41
1
10
-2.49999999999997
20
-12.931564696697
30
0
41
1
10
-2.49999999999997
20
-13.2377634692878
30
0
41
1
10
-2.5
20
-13.4891605866066
30
0
41
1
10
-2.5
20
-13.6870702420279
30
0
41
1
10
-2.5
20
-13.8339175480175
30
0
41
1
10
-2.5
20
-13.9330908491367
30
0
41
1
10
-2.5
20
-13.9887513430622
30
0
41
1
10
-2.5
20
-14.0056234821498
30
0
41
1
10
-2.5
20
-13.9887547283385
30
0
41
1
10
-2.5
20
-13.9432743681012
30
0
41
1
10
-2.50000000000003
20
-13.8858549220324
30
0
41
1
10
-2.5
20
-13.8443994037498
30
0
41
1
10
-2.49999999999997
20
-13.8300379971391
30
0
0
SPLINE
5
28B
100
AcDbEntity
8
SK1
62
256
6
ByLayer
370
-1
48
1
60
0
100
AcDbSpline
70
4
71
3
72
10
73
6
40
0
40
0
40
0
40
0
40
0.5
40
0.5
40
1
40
1
40
1
40
1
41
1
10
-1.69996145737096
20
-2.58069190327947
30
0
41
1
10
-1.83066345631863
20
-1.75993459600485
30
0
41
1
10
-1.92828862479948
20
-0.882205733470045
30
0
41
1
10
-1.92884980393794
20
0.873906280567809
30
0
41
1
10
-1.83183274904312
20
1.75257870763846
30
0
41
1
10
-1.69996145715965
20
2.5806889032381
30
0
0
SPLINE
5
28C
100
AcDbEntity
8
SK1
62
256
6
ByLayer
370
-1
48
1
60
0
100
AcDbSpline
70
4
71
3
72
26
73
22
40
0
40
0
40
0
40
0
40
0.469785788569219
40
0.469785788569219
40
0.668418514928435
40
0.668418514928435
40
0.804692954578525
40
0.804692954578525
40
0.873184756231212
40
0.873184756231212
40
0.896859155065286
40
0.896859155065286
40
0.920924484951565
40
0.920924484951565
40
0.939434470473132
40
0.939434470473132
40
0.957835931594599
40
0.957835931594599
40
0.988578442147355
40
0.988578442147355
40
1
40
1
40
1
40
1
41
1
10
-0.199999999999903
20
-5.54704287025544
30
0
41
1
10
-0.199999999999903
20
-5.42431718290925
30
0
41
1
10
-0.20396457895626
20
-5.29966999710626
30
0
41
1
10
-0.224282767013307
20
-5.12103358120197
30
0
41
1
10
-0.232179309049343
20
-5.06756976720519
30
0
41
1
10
-0.252704740622079
20
-4.978190210186
30
0
41
1
10
-0.262871079026354
20
-4.94160900373799
30
0
41
1
10
-0.286311952507617
20
-4.88949466422366
30
0
41
1
10
-0.295652382926335
20
-4.87213340280371
30
0
41
1
10
-0.312747464259928
20
-4.85229180429835
30
0
41
1
10
-0.317656735592436
20
-4.84745945050676
30
0
41
1
10
-0.328573296848816
20
-4.83925806030632
30
0
41
1
10
-0.334764979883033
20
-4.83584014543155
30
0
41
1
10
-0.346232005513514
20
-4.8322957525329
30
0
41
1
10
-0.35150620542197
20
-4.83157582806544
30
0
41
1
10
-0.361702396533559
20
-4.83188756629812
30
0
41
1
10
-0.366737314583702
20
-4.83289323712492
30
0
41
1
10
-0.379301479802251
20
-4.83714877172162
30
0
41
1
10
-0.386503100688515
20
-4.84144785455825
30
0
41
1
10
-0.395398036299696
20
-4.84826453743355
30
0
41
1
10
-0.397738018100881
20
-4.85023021284434
30
0
41
1
10
-0.39999999999992
20
-4.85227506835233
30
0
0
SPLINE
5
28D
100
AcDbEntity
8
SK1
62
256
6
ByLayer
370
-1
48
1
60
0
100
AcDbSpline
70
4
71
3
72
24
73
20
40
0
40
0
40
0
40
0
40
0.0301438054682655
40
0.0301438054682655
40
0.0534484785704977
40
0.0534484785704977
40
0.0720095400082189
40
0.0720095400082189
40
0.0905695383101202
40
0.0905695383101202
40
0.116305960787136
40
0.116305960787136
40
0.162592546214779
40
0.162592546214779
40
0.309069601694224
40
0.309069601694224
40
0.921117608952044
40
0.921117608952044
40
1
40
1
40
1
40
1
41
1
10
-0.39999999999992
20
4.85227456454996
30
0
41
1
10
-0.394020023648153
20
4.84686859936412
30
0
41
1
10
-0.387451859572622
20
4.84195482474243
30
0
41
1
10
-0.374634642632799
20
4.83535851489759
30
0
41
1
10
-0.36852859233727
20
4.8331693070069
30
0
41
1
10
-0.357122680087087
20
4.83148108534394
30
0
41
1
10
-0.351799999816166
20
4.83153855404609
30
0
41
1
10
-0.341483048247653
20
4.83346410195867
30
0
41
1
10
-0.336373704588141
20
4.83534876772512
30
0
41
1
10
-0.325154856426082
20
4.84135562492241
30
0
41
1
10
-0.319215535801988
20
4.84610423757906
30
0
41
1
10
-0.304561922415417
20
4.86072267449359
30
0
41
1
10
-0.296947393086157
20
4.87187082056749
30
0
41
1
10
-0.269928948964264
20
4.91910282403435
30
0
41
1
10
-0.258077067230175
20
4.95889086918967
30
0
41
1
10
-0.207846446885696
20
5.16015067546422
30
0
41
1
10
-0.202576938682426
20
5.32517565344045
30
0
41
1
10
-0.200133226173534
20
5.50577396851835
30
0
41
1
10
-0.199999999999903
20
5.52643078383124
30
0
41
1
10
-0.199999999999903
20
5.54704286105715
30
0
0
LINE
5
49
100
AcDbEntity
8
80
62
256
6
ByLayer
370
-1
48
1
60
0
100
AcDbLine
10
0
20
0
30
0
11
-5
21
0
31
0
39
0
210
0
220
0
230
1
0
LINE
5
4A
100
AcDbEntity
8
4
62
256
6
ByLayer
370
-1
48
0.05
60
0
100
AcDbLine
10
0
20
0
30
0
11
60
21
0
31
0
39
0
210
0
220
0
230
1
0
LINE
5
4C
100
AcDbEntity
8
81
62
256
6
ByLayer
370
-1
48
1
60
0
100
AcDbLine
10
60
20
-11.875
30
0
11
65
21
-11.875
31
0
39
0
210
0
220
0
230
1
0
LINE
5
4D
100
AcDbEntity
8
1
62
256
6
ByLayer
370
-1
48
1
60
0
100
AcDbLine
10
19.5
20
-20
30
0
11
22.477072
21
-8.889417
31
0
39
0
210
0
220
0
230
1
0
LINE
5
4E
100
AcDbEntity
8
1
62
256
6
ByLayer
370
-1
48
1
60
0
100
AcDbLine
10
22.477072
20
8.889417
30
0
11
19.5
21
20
31
0
39
0
210
0
220
0
230
1
0
LINE
5
4F
100
AcDbEntity
8
SK4
62
256
6
ByLayer
370
-1
48
0.05
60
0
100
AcDbLine
10
-29
20
0
30
0
11
65
21
0
31
0
39
0
210
0
220
0
230
1
0
LINE
5
51
100
AcDbEntity
8
1
62
256
6
ByLayer
370
-1
48
1
60
0
100
AcDbLine
10
54.342997
20
-2.70843
30
0
11
54.332983
21
-2.600109
31
0
39
0
210
0
220
0
230
1
0
LINE
5
52
100
AcDbEntity
8
1
62
256
6
ByLayer
370
-1
48
1
60
0
100
AcDbLine
10
56.202867
20
-2.751356
30
0
11
56.231245
21
-3.058341
31
0
39
0
210
0
220
0
230
1
0
LINE
5
53
100
AcDbEntity
8
1
62
256
6
ByLayer
370
-1
48
1
60
0
100
AcDbLine
10
56.050521
20
-4.572754
30
0
11
56.081347
21
-4.906221
31
0
39
0
210
0
220
0
230
1
0
LINE
5
54
100
AcDbEntity
8
1
62
256
6
ByLayer
370
-1
48
1
60
0
100
AcDbLine
10
54.188275
20
-4.504131
30
0
11
54.159867
21
-4.196822
31
0
39
0
210
0
220
0
230
1
0
LINE
5
55
100
AcDbEntity
8
1
62
256
6
ByLayer
370
-1
48
1
60
0
100
AcDbLine
10
59.344257
20
2.533812
30
0
11
59.210484
21
3.560262
31
0
39
0
210
0
220
0
230
1
0
LINE
5
56
100
AcDbEntity
8
1
62
256
6
ByLayer
370
-1
48
1
60
0
100
AcDbLine
10
59.685912
20
0.718087
30
0
11
59.558137
21
1.698511
31
0
39
0
210
0
220
0
230
1
0
LINE
5
57
100
AcDbEntity
8
1
62
256
6
ByLayer
370
-1
48
1
60
0
100
AcDbLine
10
60.00273
20
-0.612395
30
0
11
59.86421
21
0.450479
31
0
39
0
210
0
220
0
230
1
0
LINE
5
58
100
AcDbEntity
8
1
62
256
6
ByLayer
370
-1
48
1
60
0
100
AcDbLine
10
47.241898
20
-2.860233
30
0
11
47.375572
21
-3.885921
31
0
39
0
210
0
220
0
230
1
0
LINE
5
59
100
AcDbEntity
8
1
62
256
6
ByLayer
370
-1
48
1
60
0
100
AcDbLine
10
48.381113
20
-2.248264
30
0
11
48.508685
21
-3.227132
31
0
39
0
210
0
220
0
230
1
0
LINE
5
5A
100
AcDbEntity
8
1
62
256
6
ByLayer
370
-1
48
1
60
0
100
AcDbLine
10
19.5
20
20
30
0
11
0.3
21
20
31
0
39
0
210
0
220
0
230
1
0
LINE
5
5B
100
AcDbEntity
8
1
62
256
6
ByLayer
370
-1
48
1
60
0
100
AcDbLine
10
0.3
20
-20
30
0
11
19.5
21
-20
31
0
39
0
210
0
220
0
230
1
0
LINE
5
5C
100
AcDbEntity
8
1
62
256
6
ByLayer
370
-1
48
1
60
0
100
AcDbLine
10
0.3
20
20
30
0
11
0
21
19.7
31
0
39
0
210
0
220
0
230
1
0
LINE
5
5D
100
AcDbEntity
8
1
62
256
6
ByLayer
370
-1
48
1
60
0
100
AcDbLine
10
0
20
-19.7
30
0
11
0.3
21
-20
31
0
39
0
210
0
220
0
230
1
0
LINE
5
5E
100
AcDbEntity
8
1
62
256
6
ByLayer
370
-1
48
1
60
0
100
AcDbLine
10
23.636183
20
-8
30
0
11
44.772532
21
-8
31
0
39
0
210
0
220
0
230
1
0
LINE
5
5F
100
AcDbEntity
8
1
62
256
6
ByLayer
370
-1
48
1
60
0
100
AcDbLine
10
42.856705
20
8
30
0
11
23.636183
21
8
31
0
39
0
210
0
220
0
230
1
0
LINE
5
60
100
AcDbEntity
8
1
62
256
6
ByLayer
370
-1
48
1
60
0
100
AcDbLine
10
52.470926
20
-3.757264
30
0
11
52.494443
21
-4.011664
31
0
39
0
210
0
220
0
230
1
0
LINE
5
61
100
AcDbEntity
8
1
62
256
6
ByLayer
370
-1
48
1
60
0
100
AcDbLine
10
57.921305
20
-3.509999
30
0
11
57.897788
21
-3.2556
31
0
39
0
210
0
220
0
230
1
0
LINE
5
62
100
AcDbEntity
8
1
62
256
6
ByLayer
370
-1
48
1
60
0
100
AcDbLine
10
47.331267
20
-4.509142
30
0
11
47.965296
21
-4.858901
31
0
39
0
210
0
220
0
230
1
0
LINE
5
63
100
AcDbEntity
8
1
62
256
6
ByLayer
370
-1
48
1
60
0
100
AcDbLine
10
6.663397
20
19.024574
30
0
11
6.663397
21
6.16973
31
0
39
0
210
0
220
0
230
1
0
LINE
5
64
100
AcDbEntity
8
1
62
256
6
ByLayer
370
-1
48
1
60
0
100
AcDbLine
10
49.117105
20
4.526531
30
0
11
41.76457
21
-7.845685
31
0
39
0
210
0
220
0
230
1
0
LINE
5
65
100
AcDbEntity
8
1
62
256
6
ByLayer
370
-1
48
1
60
0
100
AcDbLine
10
49.661502
20
-7.395436
30
0
11
49.661502
21
-8.508715
31
0
39
0
210
0
220
0
230
1
0
LINE
5
66
100
AcDbEntity
8
1
62
256
6
ByLayer
370
-1
48
1
60
0
100
AcDbLine
10
46.827771
20
-8.533454
30
0
11
49.661502
21
-8.508715
31
0
39
0
210
0
220
0
230
1
0
LINE
5
67
100
AcDbEntity
8
1
62
256
6
ByLayer
370
-1
48
1
60
0
100
AcDbLine
10
57.972127
20
4.941491
30
0
11
57.972127
21
3.218127
31
0
39
0
210
0
220
0
230
1
0
LINE
5
68
100
AcDbEntity
8
1
62
256
6
ByLayer
370
-1
48
1
60
0
100
AcDbLine
10
59.55277
20
5.213928
30
0
11
59.385009
21
6.501167
31
0
39
0
210
0
220
0
230
1
0
LINE
5
69
100
AcDbEntity
8
1
62
256
6
ByLayer
370
-1
48
1
60
0
100
AcDbLine
10
9.336603
20
19.024574
30
0
11
9.336603
21
6.16973
31
0
39
0
210
0
220
0
230
1
0
LINE
5
6A
100
AcDbEntity
8
1
62
256
6
ByLayer
370
-1
48
1
60
0
100
AcDbLine
10
6.663397
20
-6.16973
30
0
11
6.663397
21
-19.024574
31
0
39
0
210
0
220
0
230
1
0
LINE
5
6B
100
AcDbEntity
8
1
62
256
6
ByLayer
370
-1
48
1
60
0
100
AcDbLine
10
57.677232
20
5.426384
30
0
11
57.903499
21
5.370559
31
0
39
0
210
0
220
0
230
1
0
LINE
5
6C
100
AcDbEntity
8
1
62
256
6
ByLayer
370
-1
48
1
60
0
100
AcDbLine
10
9.076795
20
-5.85989
30
0
11
9.076795
21
-19.122283
31
0
39
0
210
0
220
0
230
1
0
LINE
5
6D
100
AcDbEntity
8
1
62
256
6
ByLayer
370
-1
48
1
60
0
100
AcDbLine
10
46.682907
20
3.942612
30
0
11
46.301518
21
6.869034
31
0
39
0
210
0
220
0
230
1
0
LINE
5
6E
100
AcDbEntity
8
1
62
256
6
ByLayer
370
-1
48
1
60
0
100
AcDbLine
10
6.923205
20
-5.85989
30
0
11
6.923205
21
-19.122283
31
0
39
0
210
0
220
0
230
1
0
LINE
5
6F
100
AcDbEntity
8
1
62
256
6
ByLayer
370
-1
48
1
60
0
100
AcDbLine
10
44.772532
20
-7.866946
30
0
11
44.772532
21
-8
31
0
39
0
210
0
220
0
230
1
0
LINE
5
70
100
AcDbEntity
8
1
62
256
6
ByLayer
370
-1
48
1
60
0
100
AcDbLine
10
57.655705
20
5.659255
30
0
11
57.677232
21
5.426384
31
0
39
0
210
0
220
0
230
1
0
LINE
5
71
100
AcDbEntity
8
1
62
256
6
ByLayer
370
-1
48
1
60
0
100
AcDbLine
10
44.772532
20
4.610556
30
0
11
44.772532
21
2.485708
31
0
39
0
210
0
220
0
230
1
0
LINE
5
72
100
AcDbEntity
8
1
62
256
6
ByLayer
370
-1
48
1
60
0
100
AcDbLine
10
47.475131
20
-5.128386
30
0
11
50.27433
21
-6.672549
31
0
39
0
210
0
220
0
230
1
0
LINE
5
73
100
AcDbEntity
8
1
62
256
6
ByLayer
370
-1
48
1
60
0
100
AcDbLine
10
6.923205
20
-19.122283
30
0
11
9.076795
21
-19.122283
31
0
39
0
210
0
220
0
230
1
0
LINE
5
74
100
AcDbEntity
8
1
62
256
6
ByLayer
370
-1
48
1
60
0
100
AcDbLine
10
19.5
20
20
30
0
11
19.5
21
-20
31
0
39
0
210
0
220
0
230
1
0
LINE
5
75
100
AcDbEntity
8
1
62
256
6
ByLayer
370
-1
48
1
60
0
100
AcDbLine
10
50.27433
20
-8.146175
30
0
11
50.27433
21
-6.672549
31
0
39
0
210
0
220
0
230
1
0
LINE
5
76
100
AcDbEntity
8
1
62
256
6
ByLayer
370
-1
48
1
60
0
100
AcDbLine
10
9.336603
20
-6.16973
30
0
11
9.336603
21
-19.024574
31
0
39
0
210
0
220
0
230
1
0
LINE
5
77
100
AcDbEntity
8
1
62
256
6
ByLayer
370
-1
48
1
60
0
100
AcDbLine
10
59.052913
20
5.693796
30
0
11
59.55277
21
5.213928
31
0
39
0
210
0
220
0
230
1
0
LINE
5
78
100
AcDbEntity
8
1
62
256
6
ByLayer
370
-1
48
1
60
0
100
AcDbLine
10
49.661502
20
-7.395436
30
0
11
50.27433
21
-6.672549
31
0
39
0
210
0
220
0
230
1
0
LINE
5
79
100
AcDbEntity
8
1
62
256
6
ByLayer
370
-1
48
1
60
0
100
AcDbLine
10
44.244437
20
5.157268
30
0
11
43.935963
21
7.524208
31
0
39
0
210
0
220
0
230
1
0
LINE
5
7A
100
AcDbEntity
8
1
62
256
6
ByLayer
370
-1
48
1
60
0
100
AcDbLine
10
57.753285
20
5.685748
30
0
11
57.753285
21
5.407612
31
0
39
0
210
0
220
0
230
1
0
LINE
5
7B
100
AcDbEntity
8
1
62
256
6
ByLayer
370
-1
48
1
60
0
100
AcDbLine
10
57.392816
20
3.216054
30
0
11
57.972127
21
3.218127
31
0
39
0
210
0
220
0
230
1
0
LINE
5
7C
100
AcDbEntity
8
1
62
256
6
ByLayer
370
-1
48
1
60
0
100
AcDbLine
10
47.180201
20
-6.045263
30
0
11
47.475131
21
-5.128386
31
0
39
0
210
0
220
0
230
1
0
LINE
5
7D
100
AcDbEntity
8
1
62
256
6
ByLayer
370
-1
48
1
60
0
100
AcDbLine
10
45.663957
20
-8.533454
30
0
11
46.827771
21
-8.533454
31
0
39
0
210
0
220
0
230
1
0
LINE
5
7E
100
AcDbEntity
8
1
62
256
6
ByLayer
370
-1
48
1
60
0
100
AcDbLine
10
22.477072
20
0
30
0
11
22.477072
21
-8.889417
31
0
39
0
210
0
220
0
230
1
0
LINE
5
7F
100
AcDbEntity
8
1
62
256
6
ByLayer
370
-1
48
1
60
0
100
AcDbLine
10
22.477072
20
8.889417
30
0
11
22.477072
21
0
31
0
39
0
210
0
220
0
230
1
0
LINE
5
80
100
AcDbEntity
8
1
62
256
6
ByLayer
370
-1
48
1
60
0
100
AcDbLine
10
50.27433
20
-8.146175
30
0
11
49.661502
21
-8.508715
31
0
39
0
210
0
220
0
230
1
0
LINE
5
81
100
AcDbEntity
8
1
62
256
6
ByLayer
370
-1
48
1
60
0
100
AcDbLine
10
57.655705
20
5.659255
30
0
11
57.753285
21
5.685748
31
0
39
0
210
0
220
0
230
1
0
LINE
5
82
100
AcDbEntity
8
1
62
256
6
ByLayer
370
-1
48
1
60
0
100
AcDbLine
10
59.052913
20
5.693796
30
0
11
57.753285
21
5.685748
31
0
39
0
210
0
220
0
230
1
0
LINE
5
83
100
AcDbEntity
8
1
62
256
6
ByLayer
370
-1
48
1
60
0
100
AcDbLine
10
9.076795
20
19.122283
30
0
11
6.923205
21
19.122283
31
0
39
0
210
0
220
0
230
1
0
LINE
5
84
100
AcDbEntity
8
1
62
256
6
ByLayer
370
-1
48
1
60
0
100
AcDbLine
10
59.55277
20
1.723578
30
0
11
59.55277
21
5.213928
31
0
39
0
210
0
220
0
230
1
0
LINE
5
85
100
AcDbEntity
8
1
62
256
6
ByLayer
370
-1
48
1
60
0
100
AcDbLine
10
58.899749
20
6.869034
30
0
11
46.301518
21
6.869034
31
0
39
0
210
0
220
0
230
1
0
LINE
5
86
100
AcDbEntity
8
1
62
256
6
ByLayer
370
-1
48
1
60
0
100
AcDbLine
10
47.772706
20
4.204035
30
0
11
46.682907
21
3.942612
31
0
39
0
210
0
220
0
230
1
0
LINE
5
87
100
AcDbEntity
8
1
62
256
6
ByLayer
370
-1
48
1
60
0
100
AcDbLine
10
46.779035
20
-4.230255
30
0
11
46.800561
21
-4.463126
31
0
39
0
210
0
220
0
230
1
0
LINE
5
88
100
AcDbEntity
8
1
62
256
6
ByLayer
370
-1
48
1
60
0
100
AcDbLine
10
42.944709
20
-3.920105
30
0
11
40.854692
21
-7.437007
31
0
39
0
210
0
220
0
230
1
0
LINE
5
89
100
AcDbEntity
8
1
62
256
6
ByLayer
370
-1
48
1
60
0
100
AcDbLine
10
49.661502
20
-7.395436
30
0
11
47.180201
21
-6.045263
31
0
39
0
210
0
220
0
230
1
0
LINE
5
8A
100
AcDbEntity
8
1
62
256
6
ByLayer
370
-1
48
1
60
0
100
AcDbLine
10
45.385367
20
-8.281604
30
0
11
45.385367
21
-8.175221
31
0
39
0
210
0
220
0
230
1
0
LINE
5
8B
100
AcDbEntity
8
1
62
256
6
ByLayer
370
-1
48
1
60
0
100
AcDbLine
10
44.898627
20
4.506877
30
0
11
44.898627
21
2.606999
31
0
39
0
210
0
220
0
230
1
0
LINE
5
8C
100
AcDbEntity
8
1
62
256
6
ByLayer
370
-1
48
1
60
0
100
AcDbLine
10
57.972127
20
4.941491
30
0
11
57.392816
21
4.598779
31
0
39
0
210
0
220
0
230
1
0
LINE
5
8D
100
AcDbEntity
8
1
62
256
6
ByLayer
370
-1
48
1
60
0
100
AcDbLine
10
57.903499
20
5.370559
30
0
11
57.972127
21
4.941491
31
0
39
0
210
0
220
0
230
1
0
LINE
5
8E
100
AcDbEntity
8
1
62
256
6
ByLayer
370
-1
48
1
60
0
100
AcDbLine
10
57.972127
20
3.218127
30
0
11
53.79811
21
0.863858
31
0
39
0
210
0
220
0
230
1
0
LINE
5
8F
100
AcDbEntity
8
1
62
256
6
ByLayer
370
-1
48
1
60
0
100
AcDbLine
10
49.857056
20
-1.359013
30
0
11
49.624093
21
-1.490411
31
0
39
0
210
0
220
0
230
1
0
LINE
5
90
100
AcDbEntity
8
1
62
256
6
ByLayer
370
-1
48
1
60
0
100
AcDbLine
10
48.091603
20
-5.064668
30
0
11
47.283673
21
-4.618978
31
0
39
0
210
0
220
0
230
1
0
LINE
5
91
100
AcDbEntity
8
1
62
256
6
ByLayer
370
-1
48
1
60
0
100
AcDbLine
10
45.663957
20
-8.527391
30
0
11
45.663957
21
-8.533454
31
0
39
0
210
0
220
0
230
1
0
LINE
5
92
100
AcDbEntity
8
1
62
256
6
ByLayer
370
-1
48
1
60
0
100
AcDbLine
10
6.923205
20
19.122283
30
0
11
6.923205
21
5.85989
31
0
39
0
210
0
220
0
230
1
0
LINE
5
93
100
AcDbEntity
8
1
62
256
6
ByLayer
370
-1
48
1
60
0
100
AcDbLine
10
6.923205
20
5.85989
30
0
11
9.076795
21
5.85989
31
0
39
0
210
0
220
0
230
1
0
LINE
5
94
100
AcDbEntity
8
1
62
256
6
ByLayer
370
-1
48
1
60
0
100
AcDbLine
10
47.420977
20
-4.723452
30
0
11
48.118289
21
-5.10812
31
0
39
0
210
0
220
0
230
1
0
LINE
5
95
100
AcDbEntity
8
1
62
256
6
ByLayer
370
-1
48
1
60
0
100
AcDbLine
10
9.076795
20
-5.85989
30
0
11
6.923205
21
-5.85989
31
0
39
0
210
0
220
0
230
1
0
LINE
5
96
100
AcDbEntity
8
1
62
256
6
ByLayer
370
-1
48
1
60
0
100
AcDbLine
10
0.3
20
20
30
0
11
0.3
21
-20
31
0
39
0
210
0
220
0
230
1
0
LINE
5
97
100
AcDbEntity
8
1
62
256
6
ByLayer
370
-1
48
1
60
0
100
AcDbLine
10
48.883235
20
-1.562925
30
0
11
57.392816
21
3.216054
31
0
39
0
210
0
220
0
230
1
0
LINE
5
98
100
AcDbEntity
8
1
62
256
6
ByLayer
370
-1
48
1
60
0
100
AcDbLine
10
57.392816
20
4.598779
30
0
11
49.117105
21
4.526531
31
0
39
0
210
0
220
0
230
1
0
LINE
5
99
100
AcDbEntity
8
1
62
256
6
ByLayer
370
-1
48
1
60
0
100
AcDbLine
10
50.582828
20
-7.398653
30
0
11
50.582828
21
-6.736102
31
0
39
0
210
0
220
0
230
1
0
LINE
5
9A
100
AcDbEntity
8
1
62
256
6
ByLayer
370
-1
48
1
60
0
100
AcDbLine
10
47.420977
20
-4.723452
30
0
11
47.475131
21
-5.128386
31
0
39
0
210
0
220
0
230
1
0
LINE
5
9B
100
AcDbEntity
8
1
62
256
6
ByLayer
370
-1
48
1
60
0
100
AcDbLine
10
50.254962
20
-6.556016
30
0
11
50.27433
21
-6.672549
31
0
39
0
210
0
220
0
230
1
0
LINE
5
9C
100
AcDbEntity
8
1
62
256
6
ByLayer
370
-1
48
1
60
0
100
AcDbLine
10
23.636183
20
8
30
0
11
23.636183
21
-8
31
0
39
0
210
0
220
0
230
1
0
LINE
5
9D
100
AcDbEntity
8
1
62
256
6
ByLayer
370
-1
48
1
60
0
100
AcDbLine
10
0
20
0
30
0
11
0
21
-19.7
31
0
39
0
210
0
220
0
230
1
0
LINE
5
9E
100
AcDbEntity
8
1
62
256
6
ByLayer
370
-1
48
1
60
0
100
AcDbLine
10
0
20
19.7
30
0
11
0
21
0
31
0
39
0
210
0
220
0
230
1
0
LINE
5
9F
100
AcDbEntity
8
1
62
256
6
ByLayer
370
-1
48
1
60
0
100
AcDbLine
10
9.076795
20
19.122283
30
0
11
9.076795
21
5.85989
31
0
39
0
210
0
220
0
230
1
0
LINE
5
A0
100
AcDbEntity
8
1
62
256
6
ByLayer
370
-1
48
1
60
0
100
AcDbLine
10
58.899749
20
6.869034
30
0
11
59.052913
21
5.693796
31
0
39
0
210
0
220
0
230
1
0
LINE
5
A1
100
AcDbEntity
8
1
62
256
6
ByLayer
370
-1
48
1
60
0
100
AcDbLine
10
50.582828
20
-7.398653
30
0
11
51.775654
21
-7.391266
31
0
39
0
210
0
220
0
230
1
0
LINE
5
A2
100
AcDbEntity
8
1
62
256
6
ByLayer
370
-1
48
1
60
0
100
AcDbLine
10
57.392816
20
3.216054
30
0
11
57.392816
21
4.598779
31
0
39
0
210
0
220
0
230
1
0
LINE
5
A3
100
AcDbEntity
8
1
62
256
6
ByLayer
370
-1
48
1
60
0
100
AcDbLine
10
47.772706
20
4.204035
30
0
11
44.430807
21
-1.419426
31
0
39
0
210
0
220
0
230
1
0
LINE
5
A4
100
AcDbEntity
8
1
62
256
6
ByLayer
370
-1
48
1
60
0
100
AcDbLine
10
52.783851
20
-7.887042
30
0
11
53.734507
21
-6.997343
31
0
39
0
210
0
220
0
230
1
0
LINE
5
A5
100
AcDbEntity
8
1
62
256
6
ByLayer
370
-1
48
1
60
0
100
AcDbLine
10
56.610666
20
1.879592
30
0
11
56.206005
21
2.050725
31
0
39
0
210
0
220
0
230
1
0
LINE
5
A6
100
AcDbEntity
8
1
62
256
6
ByLayer
370
-1
48
1
60
0
100
AcDbLine
10
53.367632
20
0.263019
30
0
11
55.671557
21
1.56871
31
0
39
0
210
0
220
0
230
1
0
LINE
5
A7
100
AcDbEntity
8
1
62
256
6
ByLayer
370
-1
48
1
60
0
100
AcDbLine
10
59.197351
20
3.595449
30
0
11
59.199389
21
3.592055
31
0
39
0
210
0
220
0
230
1
0
LINE
5
A8
100
AcDbEntity
8
1
62
256
6
ByLayer
370
-1
48
1
60
0
100
AcDbLine
10
47.388867
20
-3.830523
30
0
11
47.386829
21
-3.833952
31
0
39
0
210
0
220
0
230
1
0
LINE
5
A9
100
AcDbEntity
8
1
62
256
6
ByLayer
370
-1
48
1
60
0
100
AcDbLine
10
59.333224
20
2.565128
30
0
11
59.199389
21
3.592055
31
0
39
0
210
0
220
0
230
1
0
LINE
5
AA
100
AcDbEntity
8
1
62
256
6
ByLayer
370
-1
48
1
60
0
100
AcDbLine
10
52.362428
20
-7.713575
30
0
11
50.058503
21
-6.448111
31
0
39
0
210
0
220
0
230
1
0
LINE
5
AB
100
AcDbEntity
8
1
62
256
6
ByLayer
370
-1
48
1
60
0
100
AcDbLine
10
49.932564
20
-6.364087
30
0
11
49.769275
21
-1.846277
31
0
39
0
210
0
220
0
230
1
0
LINE
5
AC
100
AcDbEntity
8
1
62
256
6
ByLayer
370
-1
48
1
60
0
100
AcDbLine
10
57.997659
20
2.386874
30
0
11
58.600419
21
2.347734
31
0
39
0
210
0
220
0
230
1
0
LINE
5
AD
100
AcDbEntity
8
1
62
256
6
ByLayer
370
-1
48
1
60
0
100
AcDbLine
10
53.190852
20
-7.268393
30
0
11
52.454844
21
-7.755734
31
0
39
0
210
0
220
0
230
1
0
LINE
5
AE
100
AcDbEntity
8
1
62
256
6
ByLayer
370
-1
48
1
60
0
100
AcDbLine
10
59.077712
20
-10.535758
30
0
11
59.950817
21
-8.991722
31
0
39
0
210
0
220
0
230
1
0
LINE
5
AF
100
AcDbEntity
8
1
62
256
6
ByLayer
370
-1
48
1
60
0
100
AcDbLine
10
52.110887
20
-0.439073
30
0
11
52.351435
21
-0.878488
31
0
39
0
210
0
220
0
230
1
0
LINE
5
B0
100
AcDbEntity
8
1
62
256
6
ByLayer
370
-1
48
1
60
0
100
AcDbLine
10
59.143597
20
2.371123
30
0
11
58.698109
21
2.185056
31
0
39
0
210
0
220
0
230
1
0
LINE
5
B1
100
AcDbEntity
8
1
62
256
6
ByLayer
370
-1
48
1
60
0
100
AcDbLine
10
57.856669
20
1.712473
30
0
11
58.170643
21
1.534248
31
0
39
0
210
0
220
0
230
1
0
LINE
5
B2
100
AcDbEntity
8
1
62
256
6
ByLayer
370
-1
48
1
60
0
100
AcDbLine
10
56.239345
20
-9.587178
30
0
11
59.615062
21
-7.77235
31
0
39
0
210
0
220
0
230
1
0
LINE
5
B3
100
AcDbEntity
8
1
62
256
6
ByLayer
370
-1
48
1
60
0
100
AcDbLine
10
53.318381
20
-1.262138
30
0
11
52.709173
21
-1.414257
31
0
39
0
210
0
220
0
230
1
0
LINE
5
B4
100
AcDbEntity
8
1
62
256
6
ByLayer
370
-1
48
1
60
0
100
AcDbLine
10
48.522568
20
-3.273573
30
0
11
48.549985
21
-3.329912
31
0
39
0
210
0
220
0
230
1
0
LINE
5
B5
100
AcDbEntity
8
1
62
256
6
ByLayer
370
-1
48
1
60
0
100
AcDbLine
10
59.924505
20
-0.431984
30
0
11
59.814465
21
-0.217735
31
0
39
0
210
0
220
0
230
1
0
LINE
5
B6
100
AcDbEntity
8
1
62
256
6
ByLayer
370
-1
48
1
60
0
100
AcDbLine
10
48.684826
20
-4.086058
30
0
11
48.688582
21
-4.418809
31
0
39
0
210
0
220
0
230
1
0
LINE
5
B7
100
AcDbEntity
8
1
62
256
6
ByLayer
370
-1
48
1
60
0
100
AcDbLine
10
47.252993
20
-2.807024
30
0
11
47.255031
21
-2.803595
31
0
39
0
210
0
220
0
230
1
0
LINE
5
B8
100
AcDbEntity
8
1
62
256
6
ByLayer
370
-1
48
1
60
0
100
AcDbLine
10
59.978087
20
-7.815454
30
0
11
59.775641
21
-7.94917
31
0
39
0
210
0
220
0
230
1
0
LINE
5
B9
100
AcDbEntity
8
1
62
256
6
ByLayer
370
-1
48
1
60
0
100
AcDbLine
10
58.900426
20
-10.300572
30
0
11
58.892367
21
-9.75057
31
0
39
0
210
0
220
0
230
1
0
LINE
5
BA
100
AcDbEntity
8
1
62
256
6
ByLayer
370
-1
48
1
60
0
100
AcDbLine
10
47.385784
20
-3.91487
30
0
11
48.213579
21
-5.263389
31
0
39
0
210
0
220
0
230
1
0
LINE
5
BB
100
AcDbEntity
8
1
62
256
6
ByLayer
370
-1
48
1
60
0
100
AcDbLine
10
48.714911
20
-3.772942
30
0
11
48.692089
21
-3.989151
31
0
39
0
210
0
220
0
230
1
0
LINE
5
BC
100
AcDbEntity
8
1
62
256
6
ByLayer
370
-1
48
1
60
0
100
AcDbLine
10
48.714911
20
-3.772942
30
0
11
47.66924
21
-3.860304
31
0
39
0
210
0
220
0
230
1
0
LINE
5
BD
100
AcDbEntity
8
1
62
256
6
ByLayer
370
-1
48
1
60
0
100
AcDbLine
10
58.605401
20
2.250934
30
0
11
58.002641
21
2.290074
31
0
39
0
210
0
220
0
230
1
0
LINE
5
BE
100
AcDbEntity
8
1
62
256
6
ByLayer
370
-1
48
1
60
0
100
AcDbLine
10
48.992514
20
-2.482788
30
0
11
48.872562
21
-1.562384
31
0
39
0
210
0
220
0
230
1
0
LINE
5
BF
100
AcDbEntity
8
1
62
256
6
ByLayer
370
-1
48
1
60
0
100
AcDbLine
10
58.911083
20
1.690263
30
0
11
58.898851
21
1.784119
31
0
39
0
210
0
220
0
230
1
0
LINE
5
C0
100
AcDbEntity
8
1
62
256
6
ByLayer
370
-1
48
1
60
0
100
AcDbLine
10
48.520862
20
-4.844781
30
0
11
48.83152
21
-4.661104
31
0
39
0
210
0
220
0
230
1
0
LINE
5
C1
100
AcDbEntity
8
1
62
256
6
ByLayer
370
-1
48
1
60
0
100
AcDbLine
10
53.519559
20
-8.317867
30
0
11
53.616713
21
-8.393745
31
0
39
0
210
0
220
0
230
1
0
LINE
5
C2
100
AcDbEntity
8
1
62
256
6
ByLayer
370
-1
48
1
60
0
100
AcDbLine
10
53.344956
20
-8.20279
30
0
11
54.170653
21
-7.430037
31
0
39
0
210
0
220
0
230
1
0
LINE
5
C3
100
AcDbEntity
8
1
62
256
6
ByLayer
370
-1
48
1
60
0
100
AcDbLine
10
59.215604
20
2.296155
30
0
11
59.302844
21
2.150879
31
0
39
0
210
0
220
0
230
1
0
LINE
5
C4
100
AcDbEntity
8
1
62
256
6
ByLayer
370
-1
48
1
60
0
100
AcDbLine
10
48.53171
20
-3.120831
30
0
11
48.403808
21
-2.139429
31
0
39
0
210
0
220
0
230
1
0
LINE
5
C5
100
AcDbEntity
8
1
62
256
6
ByLayer
370
-1
48
1
60
0
100
AcDbLine
10
58.677373
20
-9.164115
30
0
11
58.982618
21
-8.971423
31
0
39
0
210
0
220
0
230
1
0
LINE
5
C6
100
AcDbEntity
8
1
62
256
6
ByLayer
370
-1
48
1
60
0
100
AcDbLine
10
48.091348
20
-4.135641
30
0
11
48.377924
21
-4.602487
31
0
39
0
210
0
220
0
230
1
0
LINE
5
C7
100
AcDbEntity
8
1
62
256
6
ByLayer
370
-1
48
1
60
0
100
AcDbLine
10
49.907469
20
-1.697942
30
0
11
52.027177
21
-0.49665
31
0
39
0
210
0
220
0
230
1
0
LINE
5
C8
100
AcDbEntity
8
1
62
256
6
ByLayer
370
-1
48
1
60
0
100
AcDbLine
10
57.97213
20
3.644078
30
0
11
59.122515
21
3.637287
31
0
39
0
210
0
220
0
230
1
0
LINE
5
C9
100
AcDbEntity
8
1
62
256
6
ByLayer
370
-1
48
1
60
0
100
AcDbLine
10
59.339052
20
1.32217
30
0
11
59.212717
21
2.29155
31
0
39
0
210
0
220
0
230
1
0
LINE
5
CA
100
AcDbEntity
8
1
62
256
6
ByLayer
370
-1
48
1
60
0
100
AcDbLine
10
53.367632
20
0.263019
30
0
11
53.433909
21
-0.63848
31
0
39
0
210
0
220
0
230
1
0
LINE
5
CB
100
AcDbEntity
8
1
62
256
6
ByLayer
370
-1
48
1
60
0
100
AcDbLine
10
58.121437
20
-9.718437
30
0
11
58.365329
21
-9.716308
31
0
39
0
210
0
220
0
230
1
0
LINE
5
CC
100
AcDbEntity
8
1
62
256
6
ByLayer
370
-1
48
1
60
0
100
AcDbLine
10
59.255964
20
2.613329
30
0
11
57.514848
21
2.726387
31
0
39
0
210
0
220
0
230
1
0
LINE
5
CD
100
AcDbEntity
8
1
62
256
6
ByLayer
370
-1
48
1
60
0
100
AcDbLine
10
60.00472
20
-0.64279
30
0
11
60.00472
21
-3.008361
31
0
39
0
210
0
220
0
230
1
0
LINE
5
CE
100
AcDbEntity
8
1
62
256
6
ByLayer
370
-1
48
1
60
0
100
AcDbLine
10
59.13259
20
1.422224
30
0
11
59.052583
21
2.036129
31
0
39
0
210
0
220
0
230
1
0
LINE
5
CF
100
AcDbEntity
8
1
62
256
6
ByLayer
370
-1
48
1
60
0
100
AcDbLine
10
59.615062
20
-7.77235
30
0
11
59.98298
21
-7.529341
31
0
39
0
210
0
220
0
230
1
0
LINE
5
D0
100
AcDbEntity
8
1
62
256
6
ByLayer
370
-1
48
1
60
0
100
AcDbLine
10
48.377924
20
-4.602487
30
0
11
48.688582
21
-4.418809
31
0
39
0
210
0
220
0
230
1
0
LINE
5
D1
100
AcDbEntity
8
1
62
256
6
ByLayer
370
-1
48
1
60
0
100
AcDbLine
10
53.616713
20
-8.393745
30
0
11
53.892065
21
-7.969246
31
0
39
0
210
0
220
0
230
1
0
LINE
5
D2
100
AcDbEntity
8
1
62
256
6
ByLayer
370
-1
48
1
60
0
100
AcDbLine
10
59.033029
20
1.487192
30
0
11
58.977166
21
1.915834
31
0
39
0
210
0
220
0
230
1
0
LINE
5
D3
100
AcDbEntity
8
1
62
256
6
ByLayer
370
-1
48
1
60
0
100
AcDbLine
10
58.351506
20
-9.368202
30
0
11
58.900426
21
-10.300572
31
0
39
0
210
0
220
0
230
1
0
LINE
5
D4
100
AcDbEntity
8
1
62
256
6
ByLayer
370
-1
48
1
60
0
100
AcDbLine
10
48.295192
20
-2.676744
30
0
11
48.411458
21
-2.481101
31
0
39
0
210
0
220
0
230
1
0
LINE
5
D5
100
AcDbEntity
8
1
62
256
6
ByLayer
370
-1
48
1
60
0
100
AcDbLine
10
49.185667
20
-5.77897
30
0
11
49.006255
21
-5.680425
31
0
39
0
210
0
220
0
230
1
0
LINE
5
D6
100
AcDbEntity
8
1
62
256
6
ByLayer
370
-1
48
1
60
0
100
AcDbLine
10
59.663345
20
0.782141
30
0
11
59.339052
21
1.32217
31
0
39
0
210
0
220
0
230
1
0
LINE
5
D7
100
AcDbEntity
8
1
62
256
6
ByLayer
370
-1
48
1
60
0
100
AcDbLine
10
59.255964
20
2.613329
30
0
11
59.122515
21
3.637287
31
0
39
0
210
0
220
0
230
1
0
LINE
5
D8
100
AcDbEntity
8
1
62
256
6
ByLayer
370
-1
48
1
60
0
100
AcDbLine
10
57.514848
20
2.726387
30
0
11
57.486462
21
2.944198
31
0
39
0
210
0
220
0
230
1
0
LINE
5
D9
100
AcDbEntity
8
1
62
256
6
ByLayer
370
-1
48
1
60
0
100
AcDbLine
10
52.20172
20
-0.361554
30
0
11
52.351435
21
-0.878488
31
0
39
0
210
0
220
0
230
1
0
LINE
5
DA
100
AcDbEntity
8
1
62
256
6
ByLayer
370
-1
48
1
60
0
100
AcDbLine
10
58.477424
20
-9.780868
30
0
11
58.922651
21
-10.537111
31
0
39
0
210
0
220
0
230
1
0
LINE
5
DB
100
AcDbEntity
8
1
62
256
6
ByLayer
370
-1
48
1
60
0
100
AcDbLine
10
49.185667
20
-5.77897
30
0
11
49.163662
21
-5.537376
31
0
39
0
210
0
220
0
230
1
0
LINE
5
DC
100
AcDbEntity
8
1
62
256
6
ByLayer
370
-1
48
1
60
0
100
AcDbLine
10
60.00472
20
-4.504295
30
0
11
60.00472
21
-7.07545
31
0
39
0
210
0
220
0
230
1
0
LINE
5
DD
100
AcDbEntity
8
1
62
256
6
ByLayer
370
-1
48
1
60
0
100
AcDbLine
10
47.329866
20
-2.760451
30
0
11
48.18464
21
-2.74048
31
0
39
0
210
0
220
0
230
1
0
LINE
5
DE
100
AcDbEntity
8
1
62
256
6
ByLayer
370
-1
48
1
60
0
100
AcDbLine
10
48.311456
20
-3.713549
30
0
11
48.18464
21
-2.74048
31
0
39
0
210
0
220
0
230
1
0
LINE
5
DF
100
AcDbEntity
8
1
62
256
6
ByLayer
370
-1
48
1
60
0
100
AcDbLine
10
57.729867
20
2.268252
30
0
11
57.722796
21
1.935406
31
0
39
0
210
0
220
0
230
1
0
LINE
5
E0
100
AcDbEntity
8
1
62
256
6
ByLayer
370
-1
48
1
60
0
100
AcDbLine
10
57.362501
20
2.874293
30
0
11
57.384978
21
2.701828
31
0
39
0
210
0
220
0
230
1
0
LINE
5
E1
100
AcDbEntity
8
1
62
256
6
ByLayer
370
-1
48
1
60
0
100
AcDbLine
10
48.684826
20
-4.086058
30
0
11
48.091348
21
-4.135641
31
0
39
0
210
0
220
0
230
1
0
LINE
5
E2
100
AcDbEntity
8
1
62
256
6
ByLayer
370
-1
48
1
60
0
100
AcDbLine
10
59.427071
20
-8.941113
30
0
11
59.11851
21
-8.75378
31
0
39
0
210
0
220
0
230
1
0
LINE
5
E3
100
AcDbEntity
8
1
62
256
6
ByLayer
370
-1
48
1
60
0
100
AcDbLine
10
54.170653
20
-7.430037
30
0
11
53.734507
21
-6.997343
31
0
39
0
210
0
220
0
230
1
0
LINE
5
E4
100
AcDbEntity
8
1
62
256
6
ByLayer
370
-1
48
1
60
0
100
AcDbLine
10
49.10624
20
-5.477056
30
0
11
49.293568
21
-2.432529
31
0
39
0
210
0
220
0
230
1
0
LINE
5
E5
100
AcDbEntity
8
1
62
256
6
ByLayer
370
-1
48
1
60
0
100
AcDbLine
10
56.206005
20
2.050725
30
0
11
55.793327
21
1.654896
31
0
39
0
210
0
220
0
230
1
0
LINE
5
E6
100
AcDbEntity
8
1
62
256
6
ByLayer
370
-1
48
1
60
0
100
AcDbLine
10
58.988917
20
-9.693289
30
0
11
59.291179
21
-9.158757
31
0
39
0
210
0
220
0
230
1
0
LINE
5
E7
100
AcDbEntity
8
1
62
256
6
ByLayer
370
-1
48
1
60
0
100
AcDbLine
10
56.034747
20
-9.628607
30
0
11
56.239345
21
-9.587178
31
0
39
0
210
0
220
0
230
1
0
LINE
5
E8
100
AcDbEntity
8
1
62
256
6
ByLayer
370
-1
48
1
60
0
100
AcDbLine
10
52.783851
20
-7.887042
30
0
11
53.344956
21
-8.20279
31
0
39
0
210
0
220
0
230
1
0
LINE
5
E9
100
AcDbEntity
8
1
62
256
6
ByLayer
370
-1
48
1
60
0
100
AcDbLine
10
59.674736
20
0.803834
30
0
11
59.83269
21
0.540801
31
0
39
0
210
0
220
0
230
1
0
LINE
5
EA
100
AcDbEntity
8
1
62
256
6
ByLayer
370
-1
48
1
60
0
100
AcDbLine
10
59.204576
20
-4.021947
30
0
11
60.003512
21
-4.390548
31
0
39
0
210
0
220
0
230
1
0
LINE
5
EB
100
AcDbEntity
8
1
62
256
6
ByLayer
370
-1
48
1
60
0
100
AcDbLine
10
59.045907
20
2.533802
30
0
11
57.983883
21
2.602763
31
0
39
0
210
0
220
0
230
1
0
LINE
5
EC
100
AcDbEntity
8
1
62
256
6
ByLayer
370
-1
48
1
60
0
100
AcDbLine
10
58.002641
20
2.290074
30
0
11
57.99557
21
1.957228
31
0
39
0
210
0
220
0
230
1
0
LINE
5
ED
100
AcDbEntity
8
1
62
256
6
ByLayer
370
-1
48
1
60
0
100
AcDbLine
10
59.628372
20
-9.357054
30
0
11
59.390009
21
-9.214332
31
0
39
0
210
0
220
0
230
1
0
LINE
5
EE
100
AcDbEntity
8
1
62
256
6
ByLayer
370
-1
48
1
60
0
100
AcDbLine
10
48.421436
20
-3.645426
30
0
11
48.295192
21
-2.676744
31
0
39
0
210
0
220
0
230
1
0
LINE
5
EF
100
AcDbEntity
8
1
62
256
6
ByLayer
370
-1
48
1
60
0
100
AcDbLine
10
47.66924
20
-3.860304
30
0
11
48.098611
21
-4.038734
31
0
39
0
210
0
220
0
230
1
0
LINE
5
F0
100
AcDbEntity
8
1
62
256
6
ByLayer
370
-1
48
1
60
0
100
AcDbLine
10
59.978087
20
-7.815454
30
0
11
59.978087
21
-8.015676
31
0
39
0
210
0
220
0
230
1
0
LINE
5
F1
100
AcDbEntity
8
1
62
256
6
ByLayer
370
-1
48
1
60
0
100
AcDbLine
10
57.977041
20
-9.832725
30
0
11
58.016728
21
-9.774949
31
0
39
0
210
0
220
0
230
1
0
LINE
5
F2
100
AcDbEntity
8
1
62
256
6
ByLayer
370
-1
48
1
60
0
100
AcDbLine
10
48.076479
20
-4.847242
30
0
11
48.287497
21
-4.669964
31
0
39
0
210
0
220
0
230
1
0
LINE
5
F3
100
AcDbEntity
8
1
62
256
6
ByLayer
370
-1
48
1
60
0
100
AcDbLine
10
58.99853
20
-10.580813
30
0
11
59.002606
21
-10.580778
31
0
39
0
210
0
220
0
230
1
0
LINE
5
F4
100
AcDbEntity
8
1
62
256
6
ByLayer
370
-1
48
1
60
0
100
AcDbLine
10
49.440586
20
-5.536746
30
0
11
49.480576
21
-5.975808
31
0
39
0
210
0
220
0
230
1
0
LINE
5
F5
100
AcDbEntity
8
1
62
256
6
ByLayer
370
-1
48
1
60
0
100
AcDbLine
10
48.403808
20
-2.139429
30
0
11
48.7281
21
-1.593737
31
0
39
0
210
0
220
0
230
1
0
LINE
5
F6
100
AcDbEntity
8
1
62
256
6
ByLayer
370
-1
48
1
60
0
100
AcDbLine
10
53.75331
20
-6.980291
30
0
11
54.189456
21
-7.412986
31
0
39
0
210
0
220
0
230
1
0
LINE
5
F7
100
AcDbEntity
8
1
62
256
6
ByLayer
370
-1
48
1
60
0
100
AcDbLine
10
60.003512
20
-4.390548
30
0
11
59.998618
21
-4.169937
31
0
39
0
210
0
220
0
230
1
0
LINE
5
F8
100
AcDbEntity
8
1
62
256
6
ByLayer
370
-1
48
1
60
0
100
AcDbLine
10
49.163662
20
-5.537376
30
0
11
49.006255
21
-5.680425
31
0
39
0
210
0
220
0
230
1
0
LINE
5
F9
100
AcDbEntity
8
1
62
256
6
ByLayer
370
-1
48
1
60
0
100
AcDbLine
10
49.394677
20
-2.369505
30
0
11
49.281732
21
-1.502868
31
0
39
0
210
0
220
0
230
1
0
LINE
5
FA
100
AcDbEntity
8
1
62
256
6
ByLayer
370
-1
48
1
60
0
100
AcDbLine
10
59.087747
20
-9.748865
30
0
11
59.095806
21
-10.298867
31
0
39
0
210
0
220
0
230
1
0
LINE
5
FB
100
AcDbEntity
8
1
62
256
6
ByLayer
370
-1
48
1
60
0
100
AcDbLine
10
52.454844
20
-7.755734
30
0
11
52.61398
21
-7.808276
31
0
39
0
210
0
220
0
230
1
0
LINE
5
FC
100
AcDbEntity
8
1
62
256
6
ByLayer
370
-1
48
1
60
0
100
AcDbLine
10
55.822591
20
-9.614119
30
0
11
53.702883
21
-8.449839
31
0
39
0
210
0
220
0
230
1
0
LINE
5
FD
100
AcDbEntity
8
1
62
256
6
ByLayer
370
-1
48
1
60
0
100
AcDbLine
10
49.887276
20
-1.710673
30
0
11
50.058503
21
-6.448111
31
0
39
0
210
0
220
0
230
1
0
LINE
5
FE
100
AcDbEntity
8
1
62
256
6
ByLayer
370
-1
48
1
60
0
100
AcDbLine
10
56.799742
20
2.173372
30
0
11
59.544591
21
0.376491
31
0
39
0
210
0
220
0
230
1
0
LINE
5
FF
100
AcDbEntity
8
1
62
256
6
ByLayer
370
-1
48
1
60
0
100
AcDbLine
10
59.333224
20
2.565128
30
0
11
59.331186
21
2.568521
31
0
39
0
210
0
220
0
230
1
0
LINE
5
100
100
AcDbEntity
8
1
62
256
6
ByLayer
370
-1
48
1
60
0
100
AcDbLine
10
48.287497
20
-4.669964
30
0
11
48.000921
21
-4.203118
31
0
39
0
210
0
220
0
230
1
0
LINE
5
101
100
AcDbEntity
8
1
62
256
6
ByLayer
370
-1
48
1
60
0
100
AcDbLine
10
59.748093
20
-8.031919
30
0
11
56.855954
21
-9.58677
31
0
39
0
210
0
220
0
230
1
0
LINE
5
102
100
AcDbEntity
8
1
62
256
6
ByLayer
370
-1
48
1
60
0
100
AcDbLine
10
49.659235
20
-1.983162
30
0
11
49.440586
21
-5.536746
31
0
39
0
210
0
220
0
230
1
0
LINE
5
103
100
AcDbEntity
8
1
62
256
6
ByLayer
370
-1
48
1
60
0
100
AcDbLine
10
49.295563
20
-2.432197
30
0
11
49.176478
21
-1.51845
31
0
39
0
210
0
220
0
230
1
0
LINE
5
104
100
AcDbEntity
8
1
62
256
6
ByLayer
370
-1
48
1
60
0
100
AcDbLine
10
49.480576
20
-5.975808
30
0
11
49.932564
21
-6.364087
31
0
39
0
210
0
220
0
230
1
0
LINE
5
105
100
AcDbEntity
8
1
62
256
6
ByLayer
370
-1
48
1
60
0
100
AcDbLine
10
56.750516
20
2.396259
30
0
11
56.799742
21
2.173372
31
0
39
0
210
0
220
0
230
1
0
LINE
5
106
100
AcDbEntity
8
1
62
256
6
ByLayer
370
-1
48
1
60
0
100
AcDbLine
10
59.201198
20
1.412126
30
0
11
59.108293
21
2.124986
31
0
39
0
210
0
220
0
230
1
0
LINE
5
107
100
AcDbEntity
8
1
62
256
6
ByLayer
370
-1
48
1
60
0
100
AcDbLine
10
60.000329
20
-3.17436
30
0
11
59.487589
21
-3.078797
31
0
39
0
210
0
220
0
230
1
0
LINE
5
108
100
AcDbEntity
8
1
62
256
6
ByLayer
370
-1
48
1
60
0
100
AcDbLine
10
58.861098
20
-3.133735
30
0
11
58.688037
21
-3.718548
31
0
39
0
210
0
220
0
230
1
0
LINE
5
109
100
AcDbEntity
8
1
62
256
6
ByLayer
370
-1
48
1
60
0
100
AcDbLine
10
60.003566
20
-0.61962
30
0
11
55.671557
21
1.56871
31
0
39
0
210
0
220
0
230
1
0
LINE
5
10A
100
AcDbEntity
8
1
62
256
6
ByLayer
370
-1
48
1
60
0
100
AcDbLine
10
56.855954
20
-9.58677
30
0
11
57.037149
21
-9.84093
31
0
39
0
210
0
220
0
230
1
0
LINE
5
10B
100
AcDbEntity
8
1
62
256
6
ByLayer
370
-1
48
1
60
0
100
AcDbLine
10
48.305742
20
-5.345253
30
0
11
48.927097
21
-5.639859
31
0
39
0
210
0
220
0
230
1
0
LINE
5
10C
100
AcDbEntity
8
1
62
256
6
ByLayer
370
-1
48
1
60
0
100
AcDbLine
10
49.907469
20
-1.697942
30
0
11
49.862863
21
-1.355676
31
0
39
0
210
0
220
0
230
1
0
LINE
5
10D
100
AcDbEntity
8
1
62
256
6
ByLayer
370
-1
48
1
60
0
100
AcDbLine
10
53.272802
20
0.219225
30
0
11
53.103877
21
0.163819
31
0
39
0
210
0
220
0
230
1
0
LINE
5
10E
100
AcDbEntity
8
1
62
256
6
ByLayer
370
-1
48
1
60
0
100
AcDbLine
10
59.549907
20
0.260599
30
0
11
59.537608
21
0.35497
31
0
39
0
210
0
220
0
230
1
0
LINE
5
10F
100
AcDbEntity
8
1
62
256
6
ByLayer
370
-1
48
1
60
0
100
AcDbLine
10
53.335729
20
-0.636717
30
0
11
53.272802
21
0.219225
31
0
39
0
210
0
220
0
230
1
0
LINE
5
110
100
AcDbEntity
8
1
62
256
6
ByLayer
370
-1
48
1
60
0
100
AcDbLine
10
48.965394
20
-4.435833
30
0
11
48.961638
21
-4.103081
31
0
39
0
210
0
220
0
230
1
0
LINE
5
111
100
AcDbEntity
8
1
62
256
6
ByLayer
370
-1
48
1
60
0
100
AcDbLine
10
48.543382
20
-3.440225
30
0
11
48.521319
21
-3.270933
31
0
39
0
210
0
220
0
230
1
0
LINE
5
112
100
AcDbEntity
8
1
62
256
6
ByLayer
370
-1
48
1
60
0
100
AcDbLine
10
58.622316
20
1.53961
30
0
11
59.143597
21
2.371123
31
0
39
0
210
0
220
0
230
1
0
LINE
5
113
100
AcDbEntity
8
1
62
256
6
ByLayer
370
-1
48
1
60
0
100
AcDbLine
10
58.850763
20
-8.756117
30
0
11
58.545519
21
-8.948809
31
0
39
0
210
0
220
0
230
1
0
LINE
5
114
100
AcDbEntity
8
1
62
256
6
ByLayer
370
-1
48
1
60
0
100
AcDbLine
10
55.793327
20
1.654896
30
0
11
59.924505
21
-0.431984
31
0
39
0
210
0
220
0
230
1
0
LINE
5
115
100
AcDbEntity
8
1
62
256
6
ByLayer
370
-1
48
1
60
0
100
AcDbLine
10
53.976199
20
-8.028479
30
0
11
53.702883
21
-8.449839
31
0
39
0
210
0
220
0
230
1
0
LINE
5
116
100
AcDbEntity
8
1
62
256
6
ByLayer
370
-1
48
1
60
0
100
AcDbLine
10
52.929925
20
0.082051
30
0
11
52.37094
21
-0.243476
31
0
39
0
210
0
220
0
230
1
0
LINE
5
117
100
AcDbEntity
8
1
62
256
6
ByLayer
370
-1
48
1
60
0
100
AcDbLine
10
52.20172
20
-0.361554
30
0
11
52.110887
21
-0.439073
31
0
39
0
210
0
220
0
230
1
0
LINE
5
118
100
AcDbEntity
8
1
62
256
6
ByLayer
370
-1
48
1
60
0
100
AcDbLine
10
57.983883
20
2.602763
30
0
11
57.997659
21
2.386874
31
0
39
0
210
0
220
0
230
1
0
LINE
5
119
100
AcDbEntity
8
1
62
256
6
ByLayer
370
-1
48
1
60
0
100
AcDbLine
10
59.291179
20
-9.158757
30
0
11
58.982618
21
-8.971423
31
0
39
0
210
0
220
0
230
1
0
LINE
5
11A
100
AcDbEntity
8
1
62
256
6
ByLayer
370
-1
48
1
60
0
100
AcDbLine
10
49.293568
20
-2.432529
30
0
11
48.992514
21
-2.482788
31
0
39
0
210
0
220
0
230
1
0
LINE
5
11B
100
AcDbEntity
8
1
62
256
6
ByLayer
370
-1
48
1
60
0
100
AcDbLine
10
59.775641
20
-7.94917
30
0
11
59.978087
21
-8.015676
31
0
39
0
210
0
220
0
230
1
0
LINE
5
11C
100
AcDbEntity
8
1
62
256
6
ByLayer
370
-1
48
1
60
0
100
AcDbLine
10
59.996577
20
-3.962428
30
0
11
58.688037
21
-3.718548
31
0
39
0
210
0
220
0
230
1
0
LINE
5
11D
100
AcDbEntity
8
1
62
256
6
ByLayer
370
-1
48
1
60
0
100
AcDbLine
10
60.002635
20
-7.197676
30
0
11
56.034747
21
-9.628607
31
0
39
0
210
0
220
0
230
1
0
LINE
5
11E
100
AcDbEntity
8
1
62
256
6
ByLayer
370
-1
48
1
60
0
100
AcDbLine
10
59.98298
20
-7.529341
30
0
11
60.002635
21
-7.197676
31
0
39
0
210
0
220
0
230
1
0
LINE
5
11F
100
AcDbEntity
8
1
62
256
6
ByLayer
370
-1
48
1
60
0
100
AcDbLine
10
59.492634
20
-2.993555
30
0
11
60.00472
21
-3.008361
31
0
39
0
210
0
220
0
230
1
0
LINE
5
120
100
AcDbEntity
8
1
62
256
6
ByLayer
370
-1
48
1
60
0
100
AcDbLine
10
52.61398
20
-7.808276
30
0
11
53.190852
21
-7.268393
31
0
39
0
210
0
220
0
230
1
0
LINE
5
121
100
AcDbEntity
8
1
62
256
6
ByLayer
370
-1
48
1
60
0
100
AcDbLine
10
59.998618
20
-4.169937
30
0
11
59.204576
21
-4.021947
31
0
39
0
210
0
220
0
230
1
0
LINE
5
122
100
AcDbEntity
8
1
62
256
6
ByLayer
370
-1
48
1
60
0
100
AcDbLine
10
48.856003
20
-2.575139
30
0
11
48.7281
21
-1.593737
31
0
39
0
210
0
220
0
230
1
0
LINE
5
123
100
AcDbEntity
8
1
62
256
6
ByLayer
370
-1
48
1
60
0
100
AcDbLine
10
47.388867
20
-3.830523
30
0
11
47.255031
21
-2.803595
31
0
39
0
210
0
220
0
230
1
0
LINE
5
124
100
AcDbEntity
8
1
62
256
6
ByLayer
370
-1
48
1
60
0
100
AcDbLine
10
56.491129
20
2.252626
30
0
11
56.713793
21
2.15846
31
0
39
0
210
0
220
0
230
1
0
LINE
5
125
100
AcDbEntity
8
1
62
256
6
ByLayer
370
-1
48
1
60
0
100
AcDbLine
10
58.309544
20
1.779003
30
0
11
58.605401
21
2.250934
31
0
39
0
210
0
220
0
230
1
0
LINE
5
126
100
AcDbEntity
8
1
62
256
6
ByLayer
370
-1
48
1
60
0
100
AcDbLine
10
59.83269
20
0.540801
30
0
11
59.970587
21
-0.517291
31
0
39
0
210
0
220
0
230
1
0
LINE
5
127
100
AcDbEntity
8
1
62
256
6
ByLayer
370
-1
48
1
60
0
100
AcDbLine
10
49.766849
20
-1.409878
30
0
11
49.815357
21
-1.782078
31
0
39
0
210
0
220
0
230
1
0
LINE
5
128
100
AcDbEntity
8
1
62
256
6
ByLayer
370
-1
48
1
60
0
100
AcDbLine
10
53.103877
20
0.163819
30
0
11
53.335729
21
-0.636717
31
0
39
0
210
0
220
0
230
1
0
LINE
5
129
100
AcDbEntity
8
1
62
256
6
ByLayer
370
-1
48
1
60
0
100
AcDbLine
10
48.000921
20
-4.203118
30
0
11
47.57155
21
-4.024688
31
0
39
0
210
0
220
0
230
1
0
LINE
5
12A
100
AcDbEntity
8
1
62
256
6
ByLayer
370
-1
48
1
60
0
100
AcDbLine
10
59.985049
20
-8.85863
30
0
11
59.978496
21
-8.107609
31
0
39
0
210
0
220
0
230
1
0
LINE
5
12B
100
AcDbEntity
8
1
62
256
6
ByLayer
370
-1
48
1
60
0
100
AcDbLine
10
58.622316
20
1.53961
30
0
11
58.402252
21
1.713125
31
0
39
0
210
0
220
0
230
1
0
LINE
5
12C
100
AcDbEntity
8
1
62
256
6
ByLayer
370
-1
48
1
60
0
100
AcDbLine
10
56.491129
20
2.252626
30
0
11
56.67054
21
2.354303
31
0
39
0
210
0
220
0
230
1
0
LINE
5
12D
100
AcDbEntity
8
1
62
256
6
ByLayer
370
-1
48
1
60
0
100
AcDbLine
10
58.600419
20
2.347734
30
0
11
59.045907
21
2.533802
31
0
39
0
210
0
220
0
230
1
0
LINE
5
12E
100
AcDbEntity
8
1
62
256
6
ByLayer
370
-1
48
1
60
0
100
AcDbLine
10
59.663345
20
0.782141
30
0
11
59.53552
21
1.762945
31
0
39
0
210
0
220
0
230
1
0
LINE
5
12F
100
AcDbEntity
8
1
62
256
6
ByLayer
370
-1
48
1
60
0
100
AcDbLine
10
49.769275
20
-1.846277
30
0
11
49.659235
21
-1.983162
31
0
39
0
210
0
220
0
230
1
0
LINE
5
130
100
AcDbEntity
8
1
62
256
6
ByLayer
370
-1
48
1
60
0
100
AcDbLine
10
59.997637
20
-3.345558
30
0
11
58.861098
21
-3.133735
31
0
39
0
210
0
220
0
230
1
0
LINE
5
131
100
AcDbEntity
8
1
62
256
6
ByLayer
370
-1
48
1
60
0
100
AcDbLine
10
47.57155
20
-4.024688
30
0
11
48.076479
21
-4.847242
31
0
39
0
210
0
220
0
230
1
0
LINE
5
132
100
AcDbEntity
8
1
62
256
6
ByLayer
370
-1
48
1
60
0
100
AcDbLine
10
48.543382
20
-3.440225
30
0
11
48.421436
21
-3.645426
31
0
39
0
210
0
220
0
230
1
0
LINE
5
133
100
AcDbEntity
8
1
62
256
6
ByLayer
370
-1
48
1
60
0
100
AcDbLine
10
58.309544
20
1.779003
30
0
11
57.99557
21
1.957228
31
0
39
0
210
0
220
0
230
1
0
LINE
5
134
100
AcDbEntity
8
1
62
256
6
ByLayer
370
-1
48
1
60
0
100
AcDbLine
10
56.713793
20
2.15846
30
0
11
56.67054
21
2.354303
31
0
39
0
210
0
220
0
230
1
0
LINE
5
135
100
AcDbEntity
8
1
62
256
6
ByLayer
370
-1
48
1
60
0
100
AcDbLine
10
59.033029
20
1.487192
30
0
11
58.911083
21
1.690263
31
0
39
0
210
0
220
0
230
1
0
LINE
5
136
100
AcDbEntity
8
1
62
256
6
ByLayer
370
-1
48
1
60
0
100
AcDbLine
10
48.098611
20
-4.038734
30
0
11
48.692089
21
-3.989151
31
0
39
0
210
0
220
0
230
1
0
LINE
5
137
100
AcDbEntity
8
1
62
256
6
ByLayer
370
-1
48
1
60
0
100
AcDbLine
10
59.201198
20
1.412126
30
0
11
59.13259
21
1.422224
31
0
39
0
210
0
220
0
230
1
0
LINE
5
138
100
AcDbEntity
8
1
62
256
6
ByLayer
370
-1
48
1
60
0
100
AcDbLine
10
58.892367
20
-9.75057
30
0
11
58.580824
21
-9.221397
31
0
39
0
210
0
220
0
230
1
0
LINE
5
139
100
AcDbEntity
8
1
62
256
6
ByLayer
370
-1
48
1
60
0
100
AcDbLine
10
47.386829
20
-3.833952
30
0
11
47.252993
21
-2.807024
31
0
39
0
210
0
220
0
230
1
0
LINE
5
13A
100
AcDbEntity
8
1
62
256
6
ByLayer
370
-1
48
1
60
0
100
AcDbLine
10
60.00472
20
-4.504295
30
0
11
59.163261
21
-4.116076
31
0
39
0
210
0
220
0
230
1
0
LINE
5
13B
100
AcDbEntity
8
1
62
256
6
ByLayer
370
-1
48
1
60
0
100
AcDbLine
10
59.996577
20
-3.962428
30
0
11
59.997637
21
-3.345558
31
0
39
0
210
0
220
0
230
1
0
LINE
5
13C
100
AcDbEntity
8
1
62
256
6
ByLayer
370
-1
48
1
60
0
100
AcDbLine
10
59.095806
20
-10.298867
30
0
11
59.628372
21
-9.357054
31
0
39
0
210
0
220
0
230
1
0
LINE
5
13D
100
AcDbEntity
8
1
62
256
6
ByLayer
370
-1
48
1
60
0
100
AcDbLine
10
58.677373
20
-9.164115
30
0
11
58.988917
21
-9.693289
31
0
39
0
210
0
220
0
230
1
0
LINE
5
13E
100
AcDbEntity
8
1
62
256
6
ByLayer
370
-1
48
1
60
0
100
AcDbLine
10
52.362428
20
-7.713575
30
0
11
53.13761
21
-7.200295
31
0
39
0
210
0
220
0
230
1
0
LINE
5
13F
100
AcDbEntity
8
1
62
256
6
ByLayer
370
-1
48
1
60
0
100
AcDbLine
10
59.814465
20
-0.217735
30
0
11
56.610666
21
1.879592
31
0
39
0
210
0
220
0
230
1
0
LINE
5
140
100
AcDbEntity
8
1
62
256
6
ByLayer
370
-1
48
1
60
0
100
AcDbLine
10
58.351506
20
-9.368202
30
0
11
58.580824
21
-9.221397
31
0
39
0
210
0
220
0
230
1
0
LINE
5
141
100
AcDbEntity
8
1
62
256
6
ByLayer
370
-1
48
1
60
0
100
AcDbLine
10
59.544591
20
0.376491
30
0
11
59.671143
21
0.629547
31
0
39
0
210
0
220
0
230
1
0
LINE
5
142
100
AcDbEntity
8
1
62
256
6
ByLayer
370
-1
48
1
60
0
100
AcDbLine
10
60.003489
20
-3.093714
30
0
11
59.487589
21
-3.078797
31
0
39
0
210
0
220
0
230
1
0
LINE
5
143
100
AcDbEntity
8
1
62
256
6
ByLayer
370
-1
48
1
60
0
100
AcDbLine
10
48.927097
20
-5.639859
30
0
11
49.10624
21
-5.477056
31
0
39
0
210
0
220
0
230
1
0
LINE
5
144
100
AcDbEntity
8
1
62
256
6
ByLayer
370
-1
48
1
60
0
100
AcDbLine
10
52.265947
20
-0.932816
30
0
11
52.027177
21
-0.49665
31
0
39
0
210
0
220
0
230
1
0
LINE
5
145
100
AcDbEntity
8
1
62
256
6
ByLayer
370
-1
48
1
60
0
100
AcDbLine
10
55.843938
20
-9.624557
30
0
11
60.00472
21
-7.07545
31
0
39
0
210
0
220
0
230
1
0
LINE
5
146
100
AcDbEntity
8
1
62
256
6
ByLayer
370
-1
48
1
60
0
100
AcDbLine
10
53.519559
20
-8.317867
30
0
11
53.892065
21
-7.969246
31
0
39
0
210
0
220
0
230
1
0
LINE
5
147
100
AcDbEntity
8
1
62
256
6
ByLayer
370
-1
48
1
60
0
100
AcDbLine
10
59.978496
20
-8.107609
30
0
11
59.748093
21
-8.031919
31
0
39
0
210
0
220
0
230
1
0
LINE
5
148
100
AcDbEntity
8
1
62
256
6
ByLayer
370
-1
48
1
60
0
100
AcDbLine
10
57.384978
20
2.701828
30
0
11
56.750516
21
2.396259
31
0
39
0
210
0
220
0
230
1
0
LINE
5
149
100
AcDbEntity
8
1
62
256
6
ByLayer
370
-1
48
1
60
0
100
AcDbLine
10
52.929925
20
0.082051
30
0
11
53.312006
21
-1.237191
31
0
39
0
210
0
220
0
230
1
0
LINE
5
14A
100
AcDbEntity
8
1
62
256
6
ByLayer
370
-1
48
1
60
0
100
AcDbLine
10
47.463315
20
-3.784408
30
0
11
47.329866
21
-2.760451
31
0
39
0
210
0
220
0
230
1
0
LINE
5
14B
100
AcDbEntity
8
1
62
256
6
ByLayer
370
-1
48
1
60
0
100
AcDbLine
10
60.000329
20
-3.17436
30
0
11
60.003489
21
-3.093714
31
0
39
0
210
0
220
0
230
1
0
LINE
5
14C
100
AcDbEntity
8
1
62
256
6
ByLayer
370
-1
48
1
60
0
100
AcDbLine
10
59.331186
20
2.568521
30
0
11
59.197351
21
3.595449
31
0
39
0
210
0
220
0
230
1
0
LINE
5
14D
100
AcDbEntity
8
1
62
256
6
ByLayer
370
-1
48
1
60
0
100
AcDbLine
10
48.311456
20
-3.713549
30
0
11
47.463315
21
-3.784408
31
0
39
0
210
0
220
0
230
1
0
LINE
5
14E
100
AcDbEntity
8
1
62
256
6
ByLayer
370
-1
48
1
60
0
100
AcDbLine
10
58.698109
20
2.185056
30
0
11
58.402252
21
1.713125
31
0
39
0
210
0
220
0
230
1
0
LINE
5
14F
100
AcDbEntity
8
1
62
256
6
ByLayer
370
-1
48
1
60
0
100
AcDbLine
10
58.663089
20
-3.712421
30
0
11
58.83615
21
-3.127608
31
0
39
0
210
0
220
0
230
1
0
LINE
5
150
100
AcDbEntity
8
1
62
256
6
ByLayer
370
-1
48
1
60
0
100
AcDbLine
10
57.183474
20
-9.916633
30
0
11
57.832059
21
-9.910971
31
0
39
0
210
0
220
0
230
1
0
LINE
5
151
100
AcDbEntity
8
1
62
256
6
ByLayer
370
-1
48
1
60
0
100
AcDbLine
10
52.702798
20
-1.38931
30
0
11
53.312006
21
-1.237191
31
0
39
0
210
0
220
0
230
1
0
LINE
5
152
100
AcDbEntity
8
1
62
256
6
ByLayer
370
-1
48
1
60
0
100
AcDbLine
10
58.910684
20
1.809784
30
0
11
59.333494
21
2.484221
31
0
39
0
210
0
220
0
230
1
0
LINE
5
153
100
AcDbEntity
8
1
62
256
6
ByLayer
370
-1
48
1
60
0
100
AcDbLine
10
59.390009
20
-9.214332
30
0
11
59.087747
21
-9.748865
31
0
39
0
210
0
220
0
230
1
0
LINE
5
154
100
AcDbEntity
8
1
62
256
6
ByLayer
370
-1
48
1
60
0
100
AcDbLine
10
48.856003
20
-2.575139
30
0
11
48.53171
21
-3.120831
31
0
39
0
210
0
220
0
230
1
0
LINE
5
155
100
AcDbEntity
8
1
62
256
6
ByLayer
370
-1
48
1
60
0
100
AcDbLine
10
52.37094
20
-0.243476
30
0
11
52.702798
21
-1.38931
31
0
39
0
210
0
220
0
230
1
0
LINE
5
156
100
AcDbEntity
8
1
62
256
6
ByLayer
370
-1
48
1
60
0
100
AcDbLine
10
56.254291
20
-2.596811
30
0
11
56.273468
21
-2.804261
31
0
39
0
210
0
220
0
230
1
0
LINE
5
157
100
AcDbEntity
8
1
62
256
6
ByLayer
370
-1
48
1
60
0
100
AcDbLine
10
55.548479
20
-4.864462
30
0
11
55.579958
21
-5.204985
31
0
39
0
210
0
220
0
230
1
0
LINE
5
158
100
AcDbEntity
8
1
62
256
6
ByLayer
370
-1
48
1
60
0
100
AcDbLine
10
56.612049
20
-3.858228
30
0
11
56.643527
21
-4.198751
31
0
39
0
210
0
220
0
230
1
0
LINE
5
159
100
AcDbEntity
8
1
62
256
6
ByLayer
370
-1
48
1
60
0
100
AcDbLine
10
54.583245
20
-4.793582
30
0
11
54.614723
21
-5.134105
31
0
39
0
210
0
220
0
230
1
0
LINE
5
15A
100
AcDbEntity
8
1
62
256
6
ByLayer
370
-1
48
1
60
0
100
AcDbLine
10
54.084843
20
-4.202001
30
0
11
54.057249
21
-3.903501
31
0
39
0
210
0
220
0
230
1
0
LINE
5
15B
100
AcDbEntity
8
1
62
256
6
ByLayer
370
-1
48
1
60
0
100
AcDbLine
10
53.705199
20
-3.633761
30
0
11
53.736636
21
-3.973834
31
0
39
0
210
0
220
0
230
1
0
LINE
5
15C
100
AcDbEntity
8
1
62
256
6
ByLayer
370
-1
48
1
60
0
100
AcDbLine
10
54.128121
20
-4.048522
30
0
11
54.155714
21
-4.347022
31
0
39
0
210
0
220
0
230
1
0
LINE
5
15D
100
AcDbEntity
8
SK1
62
256
6
ByLayer
370
-1
48
1
60
0
100
AcDbLine
10
-1.307107
20
3.588717
30
0
11
-1.307107
21
-3.588717
31
0
39
0
210
0
220
0
230
1
0
LINE
5
15F
100
AcDbEntity
8
SK1
62
256
6
ByLayer
370
-1
48
1
60
0
100
AcDbLine
10
-0.2
20
-14.083485
30
0
11
-0.2
21
-5.547043
31
0
39
0
210
0
220
0
230
1
0
LINE
5
160
100
AcDbEntity
8
SK1
62
256
6
ByLayer
370
-1
48
1
60
0
100
AcDbLine
10
-24
20
-12.579031
30
0
11
-24
21
12.578424
31
0
39
0
210
0
220
0
230
1
0
LINE
5
161
100
AcDbEntity
8
SK1
62
256
6
ByLayer
370
-1
48
1
60
0
100
AcDbLine
10
-0.2
20
14.083485
30
0
11
-0.2
21
5.547043
31
0
39
0
210
0
220
0
230
1
0
LINE
5
162
100
AcDbEntity
8
2
62
256
6
ByLayer
370
-1
48
1
60
1
100
AcDbLine
10
0
20
0
30
0
11
0
21
-0.001
31
0
39
0
210
0
220
0
230
1
0
MTEXT
5
28E
100
AcDbEntity
8
SK6
62
256
6
ByLayer
370
-1
48
1
60
0
100
AcDbMText
10
-11.125
20
29.125
30
0
210
0
220
0
230
1
1
\W00.713;\fsimplex.shx,bigfont.shx;C4-266LKF-12060-16 
40
3.5
41
0
44
1.084337
50
0
71
7
72
5
7
DEFAULT
0
DIMENSION
5
2C1
100
AcDbEntity
8
2
62
256
6
ByLayer
370
-3
48
1
60
0
100
AcDbDimension
2
DimnDraft3D1
10
22.71539
20
-26.125
30
0
11
38.728748
21
-26.125
31
0
70
32
71
5
72
1
41
1
210
0
220
0
230
1
3
Standard
100
AcDbAlignedDimension
13
60
23
-13.375
33
0
14
22.71539
24
-13.375
34
0
50
0
100
AcDbRotatedDimension
1001
ACAD
1000
DSTYLE
1002
{
1070
   279
1070
     0
1070
   172
1070
     1
1070
   173
1070
     1
1070
   340
1005
28F
1070
   271
1070
     3
1070
   272
1070
     3
1070
    77
1070
     1
1070
    73
1070
     0
1070
   171
1070
     4
1070
   274
1070
     4
1070
   177
1070
     2
1070
   176
1070
     2
1070
   178
1070
     7
1070
    78
1070
     8
1070
    41
1041
3.0
1070
   147
1041
2.25
1070
    42
1041
1.5
1070
    44
1041
3.0
1070
   140
1041
4.5
1070
   343
1005
2C2
1070
   344
1005
2C2
1002
}
0
DIMENSION
5
2D6
100
AcDbEntity
8
2
62
256
6
ByLayer
370
-3
48
1
60
0
100
AcDbDimension
2
DimnDraft3D2
10
0
20
-36.125
30
0
11
27.371053
21
-36.125
31
0
70
32
71
5
72
1
41
1
210
0
220
0
230
1
3
Standard
100
AcDbAlignedDimension
13
60
23
-13.375
33
0
14
0
24
-1.501
34
0
50
0
100
AcDbRotatedDimension
1001
ACAD
1000
DSTYLE
1002
{
1070
   279
1070
     0
1070
   172
1070
     1
1070
   173
1070
     1
1070
   340
1005
28F
1070
   271
1070
     3
1070
   272
1070
     3
1070
    77
1070
     1
1070
    73
1070
     0
1070
   171
1070
     4
1070
   274
1070
     4
1070
   177
1070
     2
1070
   176
1070
     2
1070
   178
1070
     7
1070
    78
1070
     8
1070
    41
1041
3.0
1070
   147
1041
2.25
1070
    42
1041
1.5
1070
    44
1041
3.0
1070
   140
1041
4.5
1070
   343
1005
2C2
1070
   344
1005
2C2
1002
}
0
DIMENSION
5
2E5
100
AcDbEntity
8
SK2
62
256
6
ByLayer
370
-3
48
1
60
0
100
AcDbDimension
2
DimnDraft3D3
10
-33.75
20
-20
30
0
11
-33.75
21
-5.021053
31
0
70
32
71
5
72
1
41
1
210
0
220
0
230
1
3
Standard
100
AcDbAlignedDimension
13
-1.5
23
20
33
0
14
-1.5
24
-20
34
0
50
90
100
AcDbRotatedDimension
1001
ACAD
1000
DSTYLE
1002
{
1070
    74
1070
     0
1070
   279
1070
     0
1070
   172
1070
     1
1070
   173
1070
     1
1070
   340
1005
28F
1070
   271
1070
     3
1070
   272
1070
     3
1070
    77
1070
     1
1070
    73
1070
     0
1070
   171
1070
     4
1070
   274
1070
     4
1070
   177
1070
     2
1070
   176
1070
     2
1070
   178
1070
     7
1070
    78
1070
     8
1070
    41
1041
3.0
1070
   147
1041
2.25
1070
    42
1041
1.5
1070
    44
1041
3.0
1070
   140
1041
4.5
1070
   343
1005
2C2
1070
   344
1005
2C2
1002
}
0
DIMENSION
5
2F3
100
AcDbEntity
8
2
62
256
6
ByLayer
370
-3
48
1
60
0
100
AcDbDimension
2
DimnDraft3D4
10
74.25
20
-11.875
30
0
11
74.25
21
-8.003947
31
0
70
32
71
5
72
1
41
1
210
0
220
0
230
1
3
Standard
100
AcDbAlignedDimension
13
66.5
23
0
33
0
14
61.5
24
-11.875
34
0
50
90
100
AcDbRotatedDimension
1001
ACAD
1000
DSTYLE
1002
{
1070
    74
1070
     0
1070
   279
1070
     0
1070
   172
1070
     1
1070
   173
1070
     1
1070
   340
1005
28F
1070
   271
1070
     3
1070
   272
1070
     3
1070
    77
1070
     1
1070
    73
1070
     0
1070
   171
1070
     4
1070
   274
1070
     4
1070
   177
1070
     2
1070
   176
1070
     2
1070
   178
1070
     7
1070
    78
1070
     8
1070
    41
1041
3.0
1070
   147
1041
2.25
1070
    42
1041
1.5
1070
    44
1041
3.0
1070
   140
1041
4.5
1070
   343
1005
2C2
1070
   344
1005
2C2
1002
}
0
ENDSEC
0
SECTION
2
OBJECTS
0
DICTIONARY
5
324
330
0
100
AcDbDictionary
280
0
281
1
3
ACAD_GROUP
350
325
3
ACAD_MLINESTYLE
350
326
0
DICTIONARY
5
325
330
0
100
AcDbDictionary
280
0
281
1
0
DICTIONARY
5
326
330
0
100
AcDbDictionary
280
0
281
1
3
Standard
350
18
0
MLINESTYLE
5
18
330
326
100
AcDbMlineStyle
2
Standard
70
0
3

62
256
51
90
52
90
71
2
49
-0.5
62
256
6
ByLayer
49
0.5
62
256
6
ByLayer
0
RASTERVARIABLES
5
312
330

100
AcDbRasterVariables
90
0
70
1
71
1
72
1
0
ENDSEC
0
EOF
