0
SECTION
2
HEADER
9
$ACADVER
1
AC1015
9
$DWGCODEPAGE
3
ANSI_1252
9
$HANDSEED
5
33c
9
$ANGBASE
50
0
9
$ANGDIR
70
0
9
$ATTMODE
70
1
9
$AUNITS
70
0
9
$AUPREC
70
0
9
$CECOLOR
62
256
9
$CELTSCALE
40
1
9
$CELTYPE
6
ByLayer
9
$CELWEIGHT
370
-1
9
$CLAYER
8
0
9
$CMLJUST
70
0
9
$CMLSCALE
40
1
9
$CMLSTYLE
2
Standard
9
$DIMSTYLE
2
Standard
9
$TEXTSIZE
40
0.2
9
$TEXTSTYLE
7
Standard
9
$LUNITS
70
2
9
$LUPREC
70
4
9
$EXTNAMES
290
1
9
$INSUNITS
70
4
9
$LTSCALE
40
1
9
$LWDISPLAY
290
0
9
$PDMODE
70
0
9
$PDSIZE
40
0
9
$PLINEGEN
70
0
0
ENDSEC
0
SECTION
2
CLASSES
0
CLASS
1
RASTERVARIABLES
2
AcDbRasterVariables
3
ISM
90
0
280
0
281
0
0
ENDSEC
0
SECTION
2
TABLES
0
TABLE
2
VPORT
5
332
100
AcDbSymbolTable
0
VPORT
5
1
100
AcDbSymbolTableRecord
100
AcDbViewportTableRecord
2
*Active
70
0
10
0
20
0
11
1
21
1
12
-1
22
1
13
0
23
0
14
0.5
24
0.5
15
10
25
10
16
0
26
0
36
1
17
0
27
0
37
0
0
ENDTAB
0
TABLE
2
LTYPE
5
333
100
AcDbSymbolTable
0
LTYPE
5
14
100
AcDbSymbolTableRecord
100
AcDbLinetypeTableRecord
70
0
2
ByBlock
3

72
65
73
0
40
0
0
LTYPE
5
15
100
AcDbSymbolTableRecord
100
AcDbLinetypeTableRecord
70
0
2
ByLayer
3

72
65
73
0
40
0
0
LTYPE
5
16
100
AcDbSymbolTableRecord
100
AcDbLinetypeTableRecord
70
0
2
CONTINUOUS
3
Solid line
72
65
73
0
40
0
0
LTYPE
5
3B
100
AcDbSymbolTableRecord
100
AcDbLinetypeTableRecord
70
0
2
DASHED
3
__ __ __ __ __ __ __ __ __
72
65
73
2
40
25.72
49
12.86
74
0
49
-12.86
74
0
0
LTYPE
5
3C
100
AcDbSymbolTableRecord
100
AcDbLinetypeTableRecord
70
0
2
HIDDEN
3
_ _ _ _ _ _ _ _ _ _ _ _ _ _ _
72
65
73
2
40
0.5
49
0.25
74
0
49
-0.25
74
0
0
LTYPE
5
3D
100
AcDbSymbolTableRecord
100
AcDbLinetypeTableRecord
70
0
2
PHANTOM
3
____ _ _ ____ _ _ _____ _ _ ____
72
65
73
6
40
50.5
49
18
74
0
49
-6.5
74
0
49
6.5
74
0
49
-6.5
74
0
49
6.5
74
0
49
-6.5
74
0
0
LTYPE
5
3E
100
AcDbSymbolTableRecord
100
AcDbLinetypeTableRecord
70
0
2
CENTER
3
____ _ ____ _ ____ _ ____
72
65
73
4
40
47.5
49
22
74
0
49
-8.5
74
0
49
8.5
74
0
49
-8.5
74
0
0
LTYPE
5
3F
100
AcDbSymbolTableRecord
100
AcDbLinetypeTableRecord
70
0
2
DOT
3
.........................
72
65
73
2
40
10
49
0
74
0
49
-10
74
0
0
LTYPE
5
40
100
AcDbSymbolTableRecord
100
AcDbLinetypeTableRecord
70
0
2
DASHDOT
3
_._._._._._._._._._._._._._._._.
72
65
73
4
40
70
49
31
74
0
49
-13
74
0
49
13
74
0
49
-13
74
0
0
ENDTAB
0
TABLE
2
LAYER
5
334
100
AcDbSymbolTable
0
LAYER
5
10
100
AcDbSymbolTableRecord
100
AcDbLayerTableRecord
2
0
70
0
62
7
6
CONTINUOUS
290
1
370
-3
390
0
0
LAYER
5
42
100
AcDbSymbolTableRecord
100
AcDbLayerTableRecord
2
80
70
0
62
-6
6
CONTINUOUS
290
1
370
-3
390
0
0
LAYER
5
44
100
AcDbSymbolTableRecord
100
AcDbLayerTableRecord
2
81
70
0
62
-3
6
CONTINUOUS
290
1
370
-3
390
0
0
LAYER
5
46
100
AcDbSymbolTableRecord
100
AcDbLayerTableRecord
2
2
70
0
62
7
6
CONTINUOUS
290
1
370
-3
390
0
0
LAYER
5
49
100
AcDbSymbolTableRecord
100
AcDbLayerTableRecord
2
4
70
0
62
-2
6
CENTER
290
1
370
-3
390
0
0
LAYER
5
4C
100
AcDbSymbolTableRecord
100
AcDbLayerTableRecord
2
1
70
0
62
4
6
CONTINUOUS
290
1
370
-3
390
0
0
LAYER
5
31e
100
AcDbSymbolTableRecord
100
AcDbLayerTableRecord
2
SK4
70
0
62
2
6
CENTER
290
1
370
-3
390
0
0
LAYER
5
31f
100
AcDbSymbolTableRecord
100
AcDbLayerTableRecord
2
SK1
70
0
62
4
6
CONTINUOUS
290
1
370
-3
390
0
0
LAYER
5
320
100
AcDbSymbolTableRecord
100
AcDbLayerTableRecord
2
SK6
70
0
62
5
6
CONTINUOUS
290
1
370
-3
390
0
0
LAYER
5
321
100
AcDbSymbolTableRecord
100
AcDbLayerTableRecord
2
SK2
70
0
62
7
6
CONTINUOUS
290
1
370
-3
390
0
0
ENDTAB
0
TABLE
2
STYLE
5
335
100
AcDbSymbolTable
0
STYLE
5
11
100
AcDbSymbolTableRecord
100
AcDbTextStyleTableRecord
2
Standard
3
txt
70
0
71
0
40
0
41
1
42
0
50
0
0
STYLE
5
2A8
100
AcDbSymbolTableRecord
100
AcDbTextStyleTableRecord
2
DEFAULT
3
simplex.shx
70
0
71
0
40
0
41
1
42
0
50
0
0
STYLE
5
2CB
100
AcDbSymbolTableRecord
100
AcDbTextStyleTableRecord
2
DWGDirectTextStyle
3
SIMPLEX
70
0
71
0
40
0
41
1
42
0
50
0
0
ENDTAB
0
TABLE
2
DIMSTYLE
5
336
100
AcDbSymbolTable
100
AcDbDimStyleTable
0
DIMSTYLE
105
27
100
AcDbSymbolTableRecord
100
AcDbDimStyleTableRecord
2
Standard
70
0
3
<>
41
0.18
42
0.0625
44
0.18
140
0.18
147
0.09
73
0
74
0
77
1
271
2
275
0
278
52
280
0
340
11
0
ENDTAB
0
TABLE
2
VIEW
5
337
100
AcDbSymbolTable
0
ENDTAB
0
TABLE
2
UCS
5
338
100
AcDbSymbolTable
0
ENDTAB
0
TABLE
2
APPID
5
339
100
AcDbSymbolTable
0
APPID
5
12
100
AcDbSymbolTableRecord
100
AcDbRegAppTableRecord
2
ACAD
70
0
0
ENDTAB
0
TABLE
2
BLOCK_RECORD
5
33a
100
AcDbSymbolTable
0
BLOCK_RECORD
5
1F
100
AcDbSymbolTableRecord
100
AcDbBlockTableRecord
2
*Model_Space
340
0
70
0
0
BLOCK_RECORD
5
1B
100
AcDbSymbolTableRecord
100
AcDbBlockTableRecord
2
*Paper_Space
340
0
70
0
0
BLOCK_RECORD
5
23
100
AcDbSymbolTableRecord
100
AcDbBlockTableRecord
2
*Paper_Space0
340
0
70
0
0
BLOCK_RECORD
5
2CD
100
AcDbSymbolTableRecord
100
AcDbBlockTableRecord
2
DimnDraft3D1
340
0
70
0
0
BLOCK_RECORD
5
2DB
100
AcDbSymbolTableRecord
100
AcDbBlockTableRecord
2
_CLOSED
340
0
70
0
0
BLOCK_RECORD
5
2E2
100
AcDbSymbolTableRecord
100
AcDbBlockTableRecord
2
DimnDraft3D2
340
0
70
0
0
BLOCK_RECORD
5
2F1
100
AcDbSymbolTableRecord
100
AcDbBlockTableRecord
2
DimnDraft3D3
340
0
70
0
0
ENDTAB
0
ENDSEC
0
SECTION
2
BLOCKS
0
BLOCK
5
20
100
AcDbEntity
8
0
100
AcDbBlockBegin
2
*Model_Space
70
0
10
0
20
0
30
0
3
*Model_Space
0
ENDBLK
5
21
100
AcDbEntity
8
0
100
AcDbBlockEnd
0
BLOCK
5
1C
100
AcDbEntity
8
0
100
AcDbBlockBegin
2
*Paper_Space
70
0
10
0
20
0
30
0
3
*Paper_Space
0
ENDBLK
5
1D
100
AcDbEntity
8
0
100
AcDbBlockEnd
0
BLOCK
5
24
100
AcDbEntity
8
0
100
AcDbBlockBegin
2
*Paper_Space0
70
0
10
0
20
0
30
0
3
*Paper_Space0
0
ENDBLK
5
25
100
AcDbEntity
8
0
100
AcDbBlockEnd
0
BLOCK
5
2D8
100
AcDbEntity
8
0
100
AcDbBlockBegin
2
DimnDraft3D1
70
0
10
0
20
0
30
0
3
DimnDraft3D1
0
MTEXT
5
2CE
100
AcDbEntity
8
2
62
256
6
ByLayer
370
-1
48
1
60
0
100
AcDbMText
10
23.496053
20
-50.125
30
0
210
0
220
0
230
1
1
\W01.000;\fsimplex.shx,bigfont.shx;50 
40
4.5
41
0
44
1.084337
50
0
71
7
72
5
7
DEFAULT
0
LINE
5
2CF
100
AcDbEntity
8
2
62
256
6
ByLayer
370
-1
48
1
60
0
100
AcDbLine
10
50
20
-28.5
30
0
11
50
21
-54.25
31
0
39
0
210
0
220
0
230
1
0
LINE
5
2D0
100
AcDbEntity
8
2
62
256
6
ByLayer
370
-1
48
1
60
0
100
AcDbLine
10
0
20
-1.501
30
0
11
0
21
-54.25
31
0
39
0
210
0
220
0
230
1
0
LINE
5
2D1
100
AcDbEntity
8
2
62
256
6
ByLayer
370
-1
48
1
60
0
100
AcDbLine
10
50
20
-51.25
30
0
11
0
21
-51.25
31
0
39
0
210
0
220
0
230
1
0
LINE
5
2D2
100
AcDbEntity
8
2
62
256
6
ByLayer
370
-1
48
1
60
0
100
AcDbLine
10
50
20
-51.25
30
0
11
47.000001
21
-51.644957
31
0
39
0
210
0
220
0
230
1
0
LINE
5
2D3
100
AcDbEntity
8
2
62
256
6
ByLayer
370
-1
48
1
60
0
100
AcDbLine
10
50
20
-51.25
30
0
11
46.999999
21
-50.855043
31
0
39
0
210
0
220
0
230
1
0
LINE
5
2D4
100
AcDbEntity
8
2
62
256
6
ByLayer
370
-1
48
1
60
0
100
AcDbLine
10
47.000001
20
-51.644957
30
0
11
46.999999
21
-50.855043
31
0
39
0
210
0
220
0
230
1
0
LINE
5
2D5
100
AcDbEntity
8
2
62
256
6
ByLayer
370
-1
48
1
60
0
100
AcDbLine
10
0
20
-51.25
30
0
11
2.999999
21
-50.855043
31
0
39
0
210
0
220
0
230
1
0
LINE
5
2D6
100
AcDbEntity
8
2
62
256
6
ByLayer
370
-1
48
1
60
0
100
AcDbLine
10
0
20
-51.25
30
0
11
3.000001
21
-51.644957
31
0
39
0
210
0
220
0
230
1
0
LINE
5
2D7
100
AcDbEntity
8
2
62
256
6
ByLayer
370
-1
48
1
60
0
100
AcDbLine
10
2.999999
20
-50.855043
30
0
11
3.000001
21
-51.644957
31
0
39
0
210
0
220
0
230
1
0
ENDBLK
5
2D9
100
AcDbEntity
8
0
100
AcDbBlockEnd
0
BLOCK
5
2DC
100
AcDbEntity
8
0
100
AcDbBlockBegin
2
_CLOSED
70
0
10
0
20
0
30
0
3
_CLOSED
0
LINE
5
2DE
100
AcDbEntity
8
0
62
256
6
ByLayer
370
-2
48
1
60
0
100
AcDbLine
10
-1
20
0.166667
30
0
11
0
21
0
31
0
39
0
210
0
220
0
230
1
0
LINE
5
2DF
100
AcDbEntity
8
0
62
256
6
ByLayer
370
-2
48
1
60
0
100
AcDbLine
10
0
20
0
30
0
11
-1
21
-0.166667
31
0
39
0
210
0
220
0
230
1
0
LINE
5
2E0
100
AcDbEntity
8
0
62
256
6
ByLayer
370
-2
48
1
60
0
100
AcDbLine
10
-1
20
0.166667
30
0
11
-1
21
-0.166667
31
0
39
0
210
0
220
0
230
1
0
LINE
5
2E1
100
AcDbEntity
8
0
62
256
6
ByLayer
370
-2
48
1
60
0
100
AcDbLine
10
0
20
0
30
0
11
-1
21
0
31
0
39
0
210
0
220
0
230
1
0
ENDBLK
5
2DD
100
AcDbEntity
8
0
100
AcDbBlockEnd
0
BLOCK
5
2EE
100
AcDbEntity
8
0
100
AcDbBlockBegin
2
DimnDraft3D2
70
0
10
0
20
0
30
0
3
DimnDraft3D2
0
MTEXT
5
2E3
100
AcDbEntity
8
SK2
62
256
6
ByLayer
370
-1
48
1
60
0
100
AcDbMText
10
-34.875
20
-3.896053
30
0
210
0
220
0
230
1
1
\W01.000;\fsimplex.shx,bigfont.shx;%%c40 
40
4.5
41
0
44
1.084337
50
90
71
7
72
5
7
DEFAULT
0
LINE
5
2E5
100
AcDbEntity
8
SK2
62
256
6
ByLayer
370
-1
48
1
60
0
100
AcDbLine
10
-1.5
20
20
30
0
11
-36.75
21
20
31
0
39
0
210
0
220
0
230
1
0
LINE
5
2E6
100
AcDbEntity
8
SK2
62
256
6
ByLayer
370
-1
48
1
60
0
100
AcDbLine
10
-1.5
20
-20
30
0
11
-36.75
21
-20
31
0
39
0
210
0
220
0
230
1
0
LINE
5
2E7
100
AcDbEntity
8
SK2
62
256
6
ByLayer
370
-1
48
1
60
0
100
AcDbLine
10
-33.75
20
20
30
0
11
-33.75
21
-20
31
0
39
0
210
0
220
0
230
1
0
LINE
5
2E8
100
AcDbEntity
8
SK2
62
256
6
ByLayer
370
-1
48
1
60
0
100
AcDbLine
10
-33.75
20
20
30
0
11
-33.355043
21
17.000001
31
0
39
0
210
0
220
0
230
1
0
LINE
5
2E9
100
AcDbEntity
8
SK2
62
256
6
ByLayer
370
-1
48
1
60
0
100
AcDbLine
10
-33.75
20
20
30
0
11
-34.144957
21
16.999999
31
0
39
0
210
0
220
0
230
1
0
LINE
5
2EA
100
AcDbEntity
8
SK2
62
256
6
ByLayer
370
-1
48
1
60
0
100
AcDbLine
10
-33.355043
20
17.000001
30
0
11
-34.144957
21
16.999999
31
0
39
0
210
0
220
0
230
1
0
LINE
5
2EB
100
AcDbEntity
8
SK2
62
256
6
ByLayer
370
-1
48
1
60
0
100
AcDbLine
10
-33.75
20
-20
30
0
11
-34.144957
21
-17.000001
31
0
39
0
210
0
220
0
230
1
0
LINE
5
2EC
100
AcDbEntity
8
SK2
62
256
6
ByLayer
370
-1
48
1
60
0
100
AcDbLine
10
-33.75
20
-20
30
0
11
-33.355043
21
-16.999999
31
0
39
0
210
0
220
0
230
1
0
LINE
5
2ED
100
AcDbEntity
8
SK2
62
256
6
ByLayer
370
-1
48
1
60
0
100
AcDbLine
10
-34.144957
20
-17.000001
30
0
11
-33.355043
21
-16.999999
31
0
39
0
210
0
220
0
230
1
0
ENDBLK
5
2EF
100
AcDbEntity
8
0
100
AcDbBlockEnd
0
BLOCK
5
2FC
100
AcDbEntity
8
0
100
AcDbBlockBegin
2
DimnDraft3D3
70
0
10
0
20
0
30
0
3
DimnDraft3D3
0
MTEXT
5
2F2
100
AcDbEntity
8
2
62
256
6
ByLayer
370
-1
48
1
60
0
100
AcDbMText
10
63.125
20
-15.003947
30
0
210
0
220
0
230
1
1
\W01.000;\fsimplex.shx,bigfont.shx;27 
40
4.5
41
0
44
1.084337
50
90
71
7
72
5
7
DEFAULT
0
LINE
5
2F3
100
AcDbEntity
8
2
62
256
6
ByLayer
370
-1
48
1
60
0
100
AcDbLine
10
56.5
20
0
30
0
11
67.25
21
0
31
0
39
0
210
0
220
0
230
1
0
LINE
5
2F4
100
AcDbEntity
8
2
62
256
6
ByLayer
370
-1
48
1
60
0
100
AcDbLine
10
51.5
20
-27
30
0
11
67.25
21
-27
31
0
39
0
210
0
220
0
230
1
0
LINE
5
2F5
100
AcDbEntity
8
2
62
256
6
ByLayer
370
-1
48
1
60
0
100
AcDbLine
10
64.25
20
0
30
0
11
64.25
21
-27
31
0
39
0
210
0
220
0
230
1
0
LINE
5
2F6
100
AcDbEntity
8
2
62
256
6
ByLayer
370
-1
48
1
60
0
100
AcDbLine
10
64.25
20
0
30
0
11
64.644957
21
-2.999999
31
0
39
0
210
0
220
0
230
1
0
LINE
5
2F7
100
AcDbEntity
8
2
62
256
6
ByLayer
370
-1
48
1
60
0
100
AcDbLine
10
64.25
20
0
30
0
11
63.855043
21
-3.000001
31
0
39
0
210
0
220
0
230
1
0
LINE
5
2F8
100
AcDbEntity
8
2
62
256
6
ByLayer
370
-1
48
1
60
0
100
AcDbLine
10
64.644957
20
-2.999999
30
0
11
63.855043
21
-3.000001
31
0
39
0
210
0
220
0
230
1
0
LINE
5
2F9
100
AcDbEntity
8
2
62
256
6
ByLayer
370
-1
48
1
60
0
100
AcDbLine
10
64.25
20
-27
30
0
11
63.855043
21
-24.000001
31
0
39
0
210
0
220
0
230
1
0
LINE
5
2FA
100
AcDbEntity
8
2
62
256
6
ByLayer
370
-1
48
1
60
0
100
AcDbLine
10
64.25
20
-27
30
0
11
64.644957
21
-23.999999
31
0
39
0
210
0
220
0
230
1
0
LINE
5
2FB
100
AcDbEntity
8
2
62
256
6
ByLayer
370
-1
48
1
60
0
100
AcDbLine
10
63.855043
20
-24.000001
30
0
11
64.644957
21
-23.999999
31
0
39
0
210
0
220
0
230
1
0
ENDBLK
5
2FD
100
AcDbEntity
8
0
100
AcDbBlockEnd
0
ENDSEC
0
SECTION
2
ENTITIES
0
ARC
5
13F
100
AcDbEntity
8
1
62
256
6
ByLayer
370
-1
48
1
60
0
100
AcDbCircle
39
0
10
30.055258
20
-21.260072
30
0
40
5.97633063734988
210
0
220
0
230
1
100
AcDbArc
50
290.904849
51
305.684339
0
ARC
5
140
100
AcDbEntity
8
1
62
256
6
ByLayer
370
-1
48
1
60
0
100
AcDbCircle
39
0
10
30.055258
20
-21.260072
30
0
40
5.97633063734988
210
0
220
0
230
1
100
AcDbArc
50
237.497192
51
249.162681
0
ARC
5
141
100
AcDbEntity
8
SK1
62
256
6
ByLayer
370
-1
48
1
60
0
100
AcDbCircle
39
0
10
0.6
20
-15
30
0
40
0.999999999999989
210
0
220
0
230
-1
100
AcDbArc
50
113.578178
51
126.869898
0
ARC
5
142
100
AcDbEntity
8
SK1
62
256
6
ByLayer
370
-1
48
1
60
0
100
AcDbCircle
39
0
10
0.6
20
15
30
0
40
0.999999999999989
210
0
220
0
230
-1
100
AcDbArc
50
233.130102
51
246.421822
0
ARC
5
143
100
AcDbEntity
8
1
62
256
6
ByLayer
370
-1
48
1
60
0
100
AcDbCircle
39
0
10
13.173926
20
-0.95763
30
0
40
3.25
210
0
220
0
230
1
100
AcDbArc
50
13.127068
51
15.468174
0
ARC
5
144
100
AcDbEntity
8
1
62
256
6
ByLayer
370
-1
48
1
60
0
100
AcDbCircle
39
0
10
-16.582466
20
-0.162741
30
0
40
0.25
210
0
220
0
230
-1
100
AcDbArc
50
255
51
346.872932
0
ELLIPSE
5
145
100
AcDbEntity
8
1
62
256
6
ByLayer
370
-1
48
1
60
0
100
AcDbEllipse
10
-0.948929
20
0
30
0
11
-9.36741787978168
21
19.7417491527498
31
0
210
0
220
0
230
1
40
0.341999
41
-2.98886640869144
42
-2.04527312608988
0
ELLIPSE
5
146
100
AcDbEntity
8
1
62
256
6
ByLayer
370
-1
48
1
60
0
100
AcDbEllipse
10
-0.948929
20
0
30
0
11
-9.36741787978245
21
-19.7417491527508
31
0
210
0
220
0
230
1
40
0.341999
41
2.04527312608992
42
2.98886640869145
0
ELLIPSE
5
147
100
AcDbEntity
8
1
62
256
6
ByLayer
370
-1
48
1
60
0
100
AcDbEllipse
10
31.114896
20
-24.090438
30
0
11
-1.16166011396057
21
-2.82949830520324
31
0
210
0
220
0
230
1
40
0.404894
41
-2.24654148176612
42
-1.88248147957905
0
ELLIPSE
5
148
100
AcDbEntity
8
1
62
256
6
ByLayer
370
-1
48
1
60
0
100
AcDbEllipse
10
36.998828
20
-9.476514
30
0
11
-0.204991629744919
21
-2.08997091648054
31
0
210
0
220
0
230
1
40
0.984665
41
1.25499701100966
42
2.69414105513727
0
ELLIPSE
5
149
100
AcDbEntity
8
1
62
256
6
ByLayer
370
-1
48
1
60
0
100
AcDbEllipse
10
36.751333
20
-10.881419
30
0
11
-0.285461719077501
21
-2.91039537264476
31
0
210
0
220
0
230
1
40
0.984665
41
1.82289570904544
42
2.28817713324621
0
ELLIPSE
5
14A
100
AcDbEntity
8
1
62
256
6
ByLayer
370
-1
48
1
60
0
100
AcDbEllipse
10
37.608694
20
-10.865957
30
0
11
-0.199160462252839
21
-2.01187397822167
31
0
210
0
220
0
230
1
40
0.984662
41
-2.62878226714814
42
-0.692778987387551
0
ELLIPSE
5
14B
100
AcDbEntity
8
1
62
256
6
ByLayer
370
-1
48
1
60
0
100
AcDbEllipse
10
16.948929
20
0
30
0
11
-9.3674178797825
21
-19.7417491527508
31
0
210
0
220
0
230
1
40
0.341999
41
-1.09631952749987
42
-0.152726244898338
0
ELLIPSE
5
14C
100
AcDbEntity
8
1
62
256
6
ByLayer
370
-1
48
1
60
0
100
AcDbEllipse
10
37.681167
20
-9.54344
30
0
11
-0.204991629744919
21
-2.08997091648054
31
0
210
0
220
0
230
1
40
0.984665
41
1.64036463778546
42
1.99600579551272
0
ELLIPSE
5
14D
100
AcDbEntity
8
1
62
256
6
ByLayer
370
-1
48
1
60
0
100
AcDbEllipse
10
45.128507
20
-10.273901
30
0
11
-5.86696719948427
21
2.19955227400583
31
0
210
0
220
0
230
1
40
0.221467
41
0.45314177907439
42
0.838625155302887
0
ELLIPSE
5
14E
100
AcDbEntity
8
1
62
256
6
ByLayer
370
-1
48
1
60
0
100
AcDbEllipse
10
16.948929
20
0
30
0
11
-9.36741787978158
21
19.7417491527496
31
0
210
0
220
0
230
1
40
0.341999
41
0.152726244898349
42
1.09631952749992
0
ELLIPSE
5
14F
100
AcDbEntity
8
1
62
256
6
ByLayer
370
-1
48
1
60
0
100
AcDbEllipse
10
17.749773
20
0
30
0
11
1.22460635382238E-15
21
20
31
0
210
0
220
0
230
1
40
0.087489
41
0.39257506339553
42
2.74901759019426
0
ELLIPSE
5
150
100
AcDbEntity
8
1
62
256
6
ByLayer
370
-1
48
1
60
0
100
AcDbEllipse
10
38.779797
20
-9.651197
30
0
11
-0.206873124354911
21
-2.08978554383569
31
0
210
0
220
0
230
1
40
0.984662
41
1.61140889874692
42
-1.78063588072521
0
ELLIPSE
5
151
100
AcDbEntity
8
1
62
256
6
ByLayer
370
-1
48
1
60
0
100
AcDbEllipse
10
36.213034
20
-15.17167
30
0
11
-1.16166011399065
21
-2.82949830534487
31
0
210
0
220
0
230
1
40
0.404894
41
-1.88248147958689
42
-1.51842147741591
0
ELLIPSE
5
152
100
AcDbEntity
8
1
62
256
6
ByLayer
370
-1
48
1
60
0
100
AcDbEllipse
10
37.381584
20
-10.943237
30
0
11
-0.268441419904059
21
-2.73686667634357
31
0
210
0
220
0
230
1
40
0.984665
41
1.69448171525846
42
2.17767013075927
0
ELLIPSE
5
153
100
AcDbEntity
8
1
62
256
6
ByLayer
370
-1
48
1
60
0
100
AcDbEllipse
10
16.699909
20
-1.902415
30
0
11
-0.00897657023788103
21
4.65993695577284
31
0
210
0
220
0
230
1
40
0.084464
41
1.54799375804911
42
-1.96906221596883
0
ELLIPSE
5
154
100
AcDbEntity
8
1
62
256
6
ByLayer
370
-1
48
1
60
0
100
AcDbEllipse
10
37.050915
20
-9.481622
30
0
11
-0.204991629744919
21
-2.08997091648054
31
0
210
0
220
0
230
1
40
0.984665
41
1.25494885880056
42
1.81127820694354
0
ELLIPSE
5
155
100
AcDbEntity
8
1
62
256
6
ByLayer
370
-1
48
1
60
0
100
AcDbEllipse
10
34.274463
20
-16.669466
30
0
11
-0.746681204359639
21
-1.29754494914488
31
0
210
0
220
0
230
1
40
0.079737
41
-1.70940054921205
42
-0.574936535422706
0
ELLIPSE
5
156
100
AcDbEntity
8
1
62
256
6
ByLayer
370
-1
48
1
60
0
100
AcDbEllipse
10
34.813944
20
-20.18312
30
0
11
-0.145616974328061
21
0.144293786378834
31
0
210
0
220
0
230
1
40
0.661379
41
-2.26098977545907
42
-1.36345832542043
0
ELLIPSE
5
157
100
AcDbEntity
8
1
62
256
6
ByLayer
370
-1
48
1
60
0
100
AcDbEllipse
10
40.866427
20
-24.660734
30
0
11
-0.0673423310881077
21
-0.193623372668745
31
0
210
0
220
0
230
1
40
0.421353
41
-2.14521472881761
42
-1.24768327877883
0
ELLIPSE
5
158
100
AcDbEntity
8
1
62
256
6
ByLayer
370
-1
48
1
60
0
100
AcDbEllipse
10
38.782146
20
-25.749067
30
0
11
-0.185582861240324
21
0.201683646239341
31
0
210
0
220
0
230
1
40
0.380522
41
2.246398549332
42
-2.53967617191046
0
ELLIPSE
5
159
100
AcDbEntity
8
1
62
256
6
ByLayer
370
-1
48
1
60
0
100
AcDbEllipse
10
39.160079
20
-20.648221
30
0
11
0.424264922325344
21
4.28582495005253
31
0
210
0
220
0
230
1
40
0.984662
41
-0.485618657142417
42
1.16864547069646
0
ELLIPSE
5
15A
100
AcDbEntity
8
1
62
256
6
ByLayer
370
-1
48
1
60
0
100
AcDbEllipse
10
39.272597
20
-20.65936
30
0
11
0.470680391416666
21
4.75470315570215
31
0
210
0
220
0
230
1
40
0.984662
41
0.0622607264579272
42
0.620766087096113
0
ELLIPSE
5
15B
100
AcDbEntity
8
1
62
256
6
ByLayer
370
-1
48
1
60
0
100
AcDbEllipse
10
32.759777
20
-19.579618
30
0
11
-0.141364748562555
21
-0.148462142864252
31
0
210
0
220
0
230
1
40
0.244711
41
-2.26981503406455
42
-0.78285774228652
0
ELLIPSE
5
15C
100
AcDbEntity
8
1
62
256
6
ByLayer
370
-1
48
1
60
0
100
AcDbEllipse
10
36.914906
20
-16.520432
30
0
11
-0.0505038117948452
21
0.0863097039398865
31
0
210
0
220
0
230
1
40
0.141921
41
-1.67349711052479
42
-0.713566021927577
0
ELLIPSE
5
15D
100
AcDbEntity
8
1
62
256
6
ByLayer
370
-1
48
1
60
0
100
AcDbEllipse
10
38.580734
20
-20.015634
30
0
11
-1.68068886859427
21
-4.16587691910325
31
0
210
0
220
0
230
1
40
0.858326
41
2.66238315958925
42
2.80029230903898
0
ELLIPSE
5
15E
100
AcDbEntity
8
1
62
256
6
ByLayer
370
-1
48
1
60
0
100
AcDbEllipse
10
39.265193
20
-20.658627
30
0
11
-0.478749947312065
21
-4.83621992075254
31
0
210
0
220
0
230
1
40
0.984662
41
1.10945827765453
42
1.66796363829271
0
ELLIPSE
5
15F
100
AcDbEntity
8
1
62
256
6
ByLayer
370
-1
48
1
60
0
100
AcDbEllipse
10
39.265193
20
-20.658627
30
0
11
-0.478749947312065
21
-4.83621992075254
31
0
210
0
220
0
230
1
40
0.984662
41
-3.07933192713187
42
-2.52082656649368
0
ELLIPSE
5
160
100
AcDbEntity
8
1
62
256
6
ByLayer
370
-1
48
1
60
0
100
AcDbEllipse
10
33.745594
20
-26.184797
30
0
11
-0.0197022175593699
21
-0.199027190663095
31
0
210
0
220
0
230
1
40
0.984662
41
-1.37915114102263
42
-0.42643146410054
0
ELLIPSE
5
161
100
AcDbEntity
8
1
62
256
6
ByLayer
370
-1
48
1
60
0
100
AcDbEllipse
10
39.259728
20
-20.658086
30
0
11
0.439414618244764
21
4.43886363258441
31
0
210
0
220
0
230
1
40
0.984662
41
1.75474201292831
42
3.11707500541202
0
ELLIPSE
5
162
100
AcDbEntity
8
1
62
256
6
ByLayer
370
-1
48
1
60
0
100
AcDbEllipse
10
41.816459
20
-24.391366
30
0
11
0.0578196889703954
21
-0.0815897270945721
31
0
210
0
220
0
230
1
40
0.132591
41
1.45613412735601
42
2.76513106635187
0
ELLIPSE
5
163
100
AcDbEntity
8
1
62
256
6
ByLayer
370
-1
48
1
60
0
100
AcDbEllipse
10
38.811805
20
-25.257748
30
0
11
-0.0971812891280707
21
-0.0235753482138935
31
0
210
0
220
0
230
1
40
0.058433
41
1.73622648754599
42
2.43435818834478
0
ELLIPSE
5
164
100
AcDbEntity
8
1
62
256
6
ByLayer
370
-1
48
1
60
0
100
AcDbEllipse
10
46.154206
20
-22.61884
30
0
11
-0.253855532570255
21
0.000754189445816267
31
0
210
0
220
0
230
1
40
0.984667
41
-1.3836745752632E-05
42
1.0405295569191
0
ELLIPSE
5
165
100
AcDbEntity
8
1
62
256
6
ByLayer
370
-1
48
1
60
0
100
AcDbEllipse
10
34.227669
20
-20.962237
30
0
11
-0.191670218366241
21
0.230486518019375
31
0
210
0
220
0
230
1
40
0.678021
41
-0.532182048143838
42
0.964928537794247
0
ELLIPSE
5
166
100
AcDbEntity
8
1
62
256
6
ByLayer
370
-1
48
1
60
0
100
AcDbEllipse
10
39.082802
20
-20.640572
30
0
11
-0.589672763894414
21
-5.95673625340889
31
0
210
0
220
0
230
1
40
0.984662
41
1.10945827765453
42
1.4276187103492
0
ELLIPSE
5
167
100
AcDbEntity
8
1
62
256
6
ByLayer
370
-1
48
1
60
0
100
AcDbEllipse
10
39.265193
20
-20.658627
30
0
11
-0.478749947312065
21
-4.83621992075254
31
0
210
0
220
0
230
1
40
0.984662
41
-0.984936824738664
42
-0.42643146410048
0
ELLIPSE
5
168
100
AcDbEntity
8
1
62
256
6
ByLayer
370
-1
48
1
60
0
100
AcDbEllipse
10
30.620004
20
-26.245937
30
0
11
-0.0512257656543612
21
-0.517470695724043
31
0
210
0
220
0
230
1
40
0.984662
41
-0.426431464100495
42
1.27356957340581E-05
0
ELLIPSE
5
169
100
AcDbEntity
8
1
62
256
6
ByLayer
370
-1
48
1
60
0
100
AcDbEllipse
10
41.676982
20
-12.511208
30
0
11
-0.753883239649616
21
0.427274544753016
31
0
210
0
220
0
230
1
40
0.061745
41
1.25775242341409
42
1.43228534759375
0
ELLIPSE
5
16A
100
AcDbEntity
8
1
62
256
6
ByLayer
370
-1
48
1
60
0
100
AcDbEllipse
10
37.582654
20
-14.906989
30
0
11
0.378778588461339
21
-0.647322779549148
31
0
210
0
220
0
230
1
40
0.141921
41
-1.84803003572418
42
-1.67349711052474
0
ELLIPSE
5
16B
100
AcDbEntity
8
1
62
256
6
ByLayer
370
-1
48
1
60
0
100
AcDbEllipse
10
43.61467
20
-15.714974
30
0
11
-0.155871228136422
21
0.266908649723947
31
0
210
0
220
0
230
1
40
0.13779
41
1.04606846248458
42
1.47124477350465
0
ELLIPSE
5
16C
100
AcDbEntity
8
1
62
256
6
ByLayer
370
-1
48
1
60
0
100
AcDbEllipse
10
38.961206
20
-25.873601
30
0
11
0.0971812891280075
21
0.0235753482141541
31
0
210
0
220
0
230
1
40
0.058433
41
-1.40536616604429
42
-0.707234465245849
0
ELLIPSE
5
16D
100
AcDbEntity
8
1
62
256
6
ByLayer
370
-1
48
1
60
0
100
AcDbEllipse
10
42.015643
20
-24.925058
30
0
11
-0.0542977281529626
21
-0.307627406498702
31
0
210
0
220
0
230
1
40
0.644722
41
-0.657305475044705
42
0.839805110892129
0
ELLIPSE
5
16E
100
AcDbEntity
8
1
62
256
6
ByLayer
370
-1
48
1
60
0
100
AcDbEllipse
10
42.714809
20
-18.184629
30
0
11
-0.0391603218264136
21
-0.201224921901965
31
0
210
0
220
0
230
1
40
0.417266
41
-1.96334772609351
42
-1.06581627605466
0
ELLIPSE
5
16F
100
AcDbEntity
8
1
62
256
6
ByLayer
370
-1
48
1
60
0
100
AcDbEllipse
10
43.967358
20
-18.39018
30
0
11
0.0999995544941437
21
-0.000298497860593894
31
0
210
0
220
0
230
1
40
0.016926
41
-1.39623813751276
42
-0.436307048915584
0
ELLIPSE
5
170
100
AcDbEntity
8
1
62
256
6
ByLayer
370
-1
48
1
60
0
100
AcDbEllipse
10
39.409034
20
-25.029375
30
0
11
-0.167732241456934
21
0.117859641845004
31
0
210
0
220
0
230
1
40
0.644202
41
-2.12932637559175
42
-1.23179492555301
0
ELLIPSE
5
171
100
AcDbEntity
8
1
62
256
6
ByLayer
370
-1
48
1
60
0
100
AcDbEllipse
10
34.110869
20
-20.758147
30
0
11
-0.0279745547181494
21
-0.0960074178817515
31
0
210
0
220
0
230
1
40
0.171587
41
1.60287082977474
42
2.30100253057256
0
ELLIPSE
5
172
100
AcDbEntity
8
1
62
256
6
ByLayer
370
-1
48
1
60
0
100
AcDbEllipse
10
41.755187
20
-16.084441
30
0
11
-0.0699045413983544
21
0.071507727497703
31
0
210
0
220
0
230
1
40
0.113154
41
-2.40298954760784
42
-1.70485784680997
0
ELLIPSE
5
173
100
AcDbEntity
8
1
62
256
6
ByLayer
370
-1
48
1
60
0
100
AcDbEllipse
10
35.160214
20
-17.694914
30
0
11
-0.283657974686722
21
-0.0811316868774994
31
0
210
0
220
0
230
1
40
0.693231
41
-0.938611819606478
42
0.558498766331112
0
ELLIPSE
5
174
100
AcDbEntity
8
1
62
256
6
ByLayer
370
-1
48
1
60
0
100
AcDbEllipse
10
41.372335
20
-26.769483
30
0
11
0.193313961817342
21
-0.0682254510170736
31
0
210
0
220
0
230
1
40
0.340496
41
-1.97009628537384
42
-0.483138993595821
0
ELLIPSE
5
175
100
AcDbEntity
8
1
62
256
6
ByLayer
370
-1
48
1
60
0
100
AcDbEllipse
10
39.082802
20
-20.640572
30
0
11
-0.589672763894414
21
-5.95673625340889
31
0
210
0
220
0
230
1
40
0.984662
41
-0.984936824738665
42
-0.666776392043993
0
ELLIPSE
5
176
100
AcDbEntity
8
1
62
256
6
ByLayer
370
-1
48
1
60
0
100
AcDbEllipse
10
37.307962
20
-13.468571
30
0
11
-0.104148322264725
21
-0.228445258141855
31
0
210
0
220
0
230
1
40
0.958576
41
0.937122012316806
42
1.97766540598785
0
ELLIPSE
5
177
100
AcDbEntity
8
1
62
256
6
ByLayer
370
-1
48
1
60
0
100
AcDbEllipse
10
34.953794
20
-17.804824
30
0
11
-0.0279745547181494
21
-0.0960074178817515
31
0
210
0
220
0
230
1
40
0.171587
41
0.904739128977107
42
1.60287082977481
0
ELLIPSE
5
178
100
AcDbEntity
8
1
62
256
6
ByLayer
370
-1
48
1
60
0
100
AcDbEllipse
10
46.149855
20
-21.75097
30
0
11
-0.203084426051937
21
0.000603351550083009
31
0
210
0
220
0
230
1
40
0.984667
41
2.18885913988334
42
3.14157881681215
0
ELLIPSE
5
179
100
AcDbEntity
8
1
62
256
6
ByLayer
370
-1
48
1
60
0
100
AcDbEllipse
10
41.277959
20
-26.874906
30
0
11
-0.298685843941064
21
-0.752454450538864
31
0
210
0
220
0
230
1
40
0.288473
41
1.70386037373708
42
1.71644755484198
0
ELLIPSE
5
17A
100
AcDbEntity
8
1
62
256
6
ByLayer
370
-1
48
1
60
0
100
AcDbEllipse
10
32.277034
20
-20.154958
30
0
11
-0.444948532405989
21
-0.763538154332736
31
0
210
0
220
0
230
1
40
0.134911
41
-2.40290295666586
42
-1.50917053217115
0
ELLIPSE
5
17B
100
AcDbEntity
8
1
62
256
6
ByLayer
370
-1
48
1
60
0
100
AcDbEllipse
10
32.772725
20
-19.237496
30
0
11
-0.156347378309647
21
-0.266684179533899
31
0
210
0
220
0
230
1
40
0.154177
41
-1.49991027815673
42
-1.07473396655308
0
ELLIPSE
5
17C
100
AcDbEntity
8
1
62
256
6
ByLayer
370
-1
48
1
60
0
100
AcDbEllipse
10
37.189159
20
-11.040777
30
0
11
-0.0512257656543612
21
-0.517470695724043
31
0
210
0
220
0
230
1
40
0.984662
41
-2.52082656649369
42
-1.48028317282335
0
ELLIPSE
5
17D
100
AcDbEntity
8
1
62
256
6
ByLayer
370
-1
48
1
60
0
100
AcDbEllipse
10
33.999733
20
-23.463234
30
0
11
0.665215374977295
21
0.346393569359792
31
0
210
0
220
0
230
1
40
0.096468
41
0.757446637541129
42
1.7173777261379
0
ELLIPSE
5
17E
100
AcDbEntity
8
1
62
256
6
ByLayer
370
-1
48
1
60
0
100
AcDbEllipse
10
35.554211
20
-17.979773
30
0
11
0.0279745547184142
21
0.0960074178816744
31
0
210
0
220
0
230
1
40
0.171587
41
-2.23685352461198
42
-1.53872182381456
0
ELLIPSE
5
17F
100
AcDbEntity
8
1
62
256
6
ByLayer
370
-1
48
1
60
0
100
AcDbEllipse
10
42.237583
20
-27.002524
30
0
11
-0.880628697023308
21
0.00190649454893312
31
0
210
0
220
0
230
1
40
0.014477
41
-1.42235265428182
42
-0.528620229779519
0
ELLIPSE
5
180
100
AcDbEntity
8
1
62
256
6
ByLayer
370
-1
48
1
60
0
100
AcDbEllipse
10
43.858067
20
-18.532379
30
0
11
-0.0788069796397404
21
-0.264833866486611
31
0
210
0
220
0
230
1
40
0.37439
41
2.23703141713469
42
-2.54904330410564
0
ELLIPSE
5
181
100
AcDbEntity
8
1
62
256
6
ByLayer
370
-1
48
1
60
0
100
AcDbEllipse
10
32.767343
20
-19.586783
30
0
11
-0.140555557628673
21
-0.14922846651927
31
0
210
0
220
0
230
1
40
0.249834
41
-2.28131262369598
42
-0.784202037758708
0
ELLIPSE
5
182
100
AcDbEntity
8
1
62
256
6
ByLayer
370
-1
48
1
60
0
100
AcDbEllipse
10
38.277603
20
-27.002988
30
0
11
-1.48293986335186
21
0.00113199992080604
31
0
210
0
220
0
230
1
40
0.008659
41
-2.44279760405599
42
-1.30833359028994
0
ELLIPSE
5
183
100
AcDbEntity
8
1
62
256
6
ByLayer
370
-1
48
1
60
0
100
AcDbEllipse
10
35.122167
20
-24.975288
30
0
11
0.379766412202703
21
0.646743745360314
31
0
210
0
220
0
230
1
40
0.158847
41
1.64395516572781
42
1.81848809092724
0
ELLIPSE
5
184
100
AcDbEntity
8
1
62
256
6
ByLayer
370
-1
48
1
60
0
100
AcDbEllipse
10
39.245133
20
-25.150105
30
0
11
-0.0633371763412873
21
0.194970259509271
31
0
210
0
220
0
230
1
40
0.758553
41
-1.66659675558442
42
-0.436134588316449
0
ELLIPSE
5
185
100
AcDbEntity
8
1
62
256
6
ByLayer
370
-1
48
1
60
0
100
AcDbEllipse
10
41.750247
20
-24.514481
30
0
11
0.0971812891280075
21
0.0235753482141541
31
0
210
0
220
0
230
1
40
0.058433
41
-2.103497866841
42
-1.40536616604429
0
ELLIPSE
5
186
100
AcDbEntity
8
1
62
256
6
ByLayer
370
-1
48
1
60
0
100
AcDbEllipse
10
34.245031
20
-20.963956
30
0
11
-0.19044403924435
21
0.196955959497008
31
0
210
0
220
0
230
1
40
0.38081
41
-0.588332481058905
42
0.908778104879844
0
ELLIPSE
5
187
100
AcDbEntity
8
1
62
256
6
ByLayer
370
-1
48
1
60
0
100
AcDbEllipse
10
36.408531
20
-13.379534
30
0
11
0.0246277719492118
21
0.248783988328867
31
0
210
0
220
0
230
1
40
0.984662
41
-2.52082656649368
42
-1.48028317282332
0
ELLIPSE
5
188
100
AcDbEntity
8
1
62
256
6
ByLayer
370
-1
48
1
60
0
100
AcDbEllipse
10
34.644815
20
-26.273813
30
0
11
-0.0595777300003359
21
0.192154317235276
31
0
210
0
220
0
230
1
40
0.960584
41
1.37732059279614
42
2.33004026971697
0
ELLIPSE
5
189
100
AcDbEntity
8
1
62
256
6
ByLayer
370
-1
48
1
60
0
100
AcDbEllipse
10
39.228957
20
-21.235601
30
0
11
-2.25120814029427
21
-6.42152964757393
31
0
210
0
220
0
230
1
40
0.960139
41
-2.50763320530637
42
-2.29511388724401
0
ELLIPSE
5
18A
100
AcDbEntity
8
1
62
256
6
ByLayer
370
-1
48
1
60
0
100
AcDbEllipse
10
44.934236
20
-22.07811
30
0
11
-0.749996658706078
21
0.00223873395445312
31
0
210
0
220
0
230
1
40
0.016926
41
-1.57077106271219
42
-1.39623813751273
0
ELLIPSE
5
18B
100
AcDbEntity
8
1
62
256
6
ByLayer
370
-1
48
1
60
0
100
AcDbEllipse
10
41.675486
20
-17.088498
30
0
11
0.204832711838611
21
0.00828010633026482
31
0
210
0
220
0
230
1
40
0.597289
41
-1.88394405924695
42
-0.986412609208216
0
ELLIPSE
5
18C
100
AcDbEntity
8
1
62
256
6
ByLayer
370
-1
48
1
60
0
100
AcDbEllipse
10
34.72308
20
-20.380879
30
0
11
-0.203058355103601
21
0.0281479026327011
31
0
210
0
220
0
230
1
40
0.658003
41
-3.02654093053705
42
-1.79607876326913
0
ELLIPSE
5
18D
100
AcDbEntity
8
1
62
256
6
ByLayer
370
-1
48
1
60
0
100
AcDbEllipse
10
34.051442
20
-20.898369
30
0
11
-0.0886953833303075
21
-0.0461858092479693
31
0
210
0
220
0
230
1
40
0.096468
41
0.757446637541324
42
1.71737772613795
0
ELLIPSE
5
18E
100
AcDbEntity
8
1
62
256
6
ByLayer
370
-1
48
1
60
0
100
AcDbEllipse
10
34.783024
20
-21.052549
30
0
11
-0.0996597563433027
21
-0.008242145691113
31
0
210
0
220
0
230
1
40
0.031913
41
1.74326526814789
42
3.0522622071448
0
ELLIPSE
5
18F
100
AcDbEntity
8
1
62
256
6
ByLayer
370
-1
48
1
60
0
100
AcDbEllipse
10
33.377141
20
-18.080544
30
0
11
-0.155247516409938
21
-0.241830006310346
31
0
210
0
220
0
230
1
40
0.120053
41
1.03690980340498
42
2.534020389344
0
ELLIPSE
5
190
100
AcDbEntity
8
1
62
256
6
ByLayer
370
-1
48
1
60
0
100
AcDbEllipse
10
41.522391
20
-16.085629
30
0
11
-0.316202589597802
21
-0.0767036367305393
31
0
210
0
220
0
230
1
40
0.628866
41
2.55416540530096
42
-2.23190931594019
0
ELLIPSE
5
191
100
AcDbEntity
8
1
62
256
6
ByLayer
370
-1
48
1
60
0
100
AcDbEllipse
10
43.96059
20
-20.657641
30
0
11
0.0999995544941437
21
-0.000298497860593894
31
0
210
0
220
0
230
1
40
0.016926
41
-1.39623813751255
42
-0.436307048917877
0
ELLIPSE
5
192
100
AcDbEntity
8
1
62
256
6
ByLayer
370
-1
48
1
60
0
100
AcDbEllipse
10
35.122167
20
-24.975288
30
0
11
0.523699716093521
21
0.536878577858687
31
0
210
0
220
0
230
1
40
0.137103
41
0.720013229666362
42
1.6799443182632
0
ELLIPSE
5
193
100
AcDbEntity
8
1
62
256
6
ByLayer
370
-1
48
1
60
0
100
AcDbEllipse
10
39.133699
20
-20.64561
30
0
11
0.404758269530189
21
4.08877330886741
31
0
210
0
220
0
230
1
40
0.984662
41
1.49537005981541
42
-2.90673834865456
0
ELLIPSE
5
194
100
AcDbEntity
8
1
62
256
6
ByLayer
370
-1
48
1
60
0
100
AcDbEllipse
10
41.899647
20
-25.130335
30
0
11
0.0971812891280075
21
0.0235753482141541
31
0
210
0
220
0
230
1
40
0.058433
41
-2.10349786684137
42
-1.40536616604422
0
ELLIPSE
5
195
100
AcDbEntity
8
1
62
256
6
ByLayer
370
-1
48
1
60
0
100
AcDbEllipse
10
41.539754
20
-16.087347
30
0
11
-0.263435906701316
21
-0.0706360774050402
31
0
210
0
220
0
230
1
40
0.384253
41
2.54196160756037
42
-2.24411311368219
0
ELLIPSE
5
196
100
AcDbEntity
8
1
62
256
6
ByLayer
370
-1
48
1
60
0
100
AcDbEllipse
10
39.4337
20
-15.883314
30
0
11
0.00354357242274665
21
0.099937195750555
31
0
210
0
220
0
230
1
40
0.174133
41
-1.58182065981108
42
-0.621889571214192
0
ELLIPSE
5
197
100
AcDbEntity
8
1
62
256
6
ByLayer
370
-1
48
1
60
0
100
AcDbEllipse
10
36.890207
20
-24.79485
30
0
11
-0.050635521627027
21
-0.0862324993813753
31
0
210
0
220
0
230
1
40
0.158847
41
0.684024077130937
42
1.64395516572784
0
ELLIPSE
5
198
100
AcDbEntity
8
1
62
256
6
ByLayer
370
-1
48
1
60
0
100
AcDbEllipse
10
34.711286
20
-20.933096
30
0
11
-0.0279745547181494
21
-0.0960074178817515
31
0
210
0
220
0
230
1
40
0.171587
41
1.60287082977474
42
2.30100253057221
0
ELLIPSE
5
199
100
AcDbEntity
8
1
62
256
6
ByLayer
370
-1
48
1
60
0
100
AcDbEllipse
10
45.094
20
-20.653926
30
0
11
-0.749996658706078
21
0.00223873395445312
31
0
210
0
220
0
230
1
40
0.016926
41
-1.57077106271217
42
-0.436307048915902
0
ELLIPSE
5
19A
100
AcDbEntity
8
1
62
256
6
ByLayer
370
-1
48
1
60
0
100
AcDbEllipse
10
47.806648
20
-24.524186
30
0
11
-0.528019507740555
21
0.00156871411774242
31
0
210
0
220
0
230
1
40
0.984667
41
2.10103542330389
42
3.14157881697512
0
ELLIPSE
5
19B
100
AcDbEntity
8
1
62
256
6
ByLayer
370
-1
48
1
60
0
100
AcDbEllipse
10
39.784576
20
-21.285278
30
0
11
-4.3813612964336
21
2.46862495963619
31
0
210
0
220
0
230
1
40
0.85965
41
-1.94735054195947
42
-1.80944139245588
0
ELLIPSE
5
19C
100
AcDbEntity
8
1
62
256
6
ByLayer
370
-1
48
1
60
0
100
AcDbEllipse
10
33.27626
20
-25.917112
30
0
11
0.0246277719492118
21
0.248783988328867
31
0
210
0
220
0
230
1
40
0.984662
41
-1.37915114102263
42
-0.977951918309047
0
ELLIPSE
5
19D
100
AcDbEntity
8
1
62
256
6
ByLayer
370
-1
48
1
60
0
100
AcDbEllipse
10
45.101058
20
-18.289324
30
0
11
-0.74038380351897
21
1.29783052840831
31
0
210
0
220
0
230
1
40
0.071516
41
0.560165563023232
42
1.69462957681936
0
ELLIPSE
5
19E
100
AcDbEntity
8
1
62
256
6
ByLayer
370
-1
48
1
60
0
100
AcDbEllipse
10
39.160079
20
-20.648221
30
0
11
0.424264922325344
21
4.28582495005253
31
0
210
0
220
0
230
1
40
0.984662
41
1.60877644525078
42
-3.02014473408993
0
ELLIPSE
5
19F
100
AcDbEntity
8
1
62
256
6
ByLayer
370
-1
48
1
60
0
100
AcDbEllipse
10
35.177576
20
-17.696633
30
0
11
-0.265058776117229
21
-0.0639953609484314
31
0
210
0
220
0
230
1
40
0.384441
41
-0.90627583588057
42
0.590834750056717
0
ELLIPSE
5
1A0
100
AcDbEntity
8
1
62
256
6
ByLayer
370
-1
48
1
60
0
100
AcDbEllipse
10
39.272597
20
-20.65936
30
0
11
-0.44893005863265
21
-4.53498638438203
31
0
210
0
220
0
230
1
40
0.984662
41
2.80193956412491
42
-2.11891275056745
0
ELLIPSE
5
1A1
100
AcDbEntity
8
1
62
256
6
ByLayer
370
-1
48
1
60
0
100
AcDbEllipse
10
35.122167
20
-24.975288
30
0
11
0.507192783306786
21
0.552499303675141
31
0
210
0
220
0
230
1
40
0.102923
41
0.716375128219916
42
1.84632301281813
0
ELLIPSE
5
1A2
100
AcDbEntity
8
1
62
256
6
ByLayer
370
-1
48
1
60
0
100
AcDbEllipse
10
43.850703
20
-18.294498
30
0
11
-0.0699045413983544
21
0.071507727497703
31
0
210
0
220
0
230
1
40
0.113154
41
-1.70485784680997
42
-1.00672614601206
0
ELLIPSE
5
1A3
100
AcDbEntity
8
1
62
256
6
ByLayer
370
-1
48
1
60
0
100
AcDbEllipse
10
37.582654
20
-14.906989
30
0
11
0.233290113117002
21
-0.712794306319752
31
0
210
0
220
0
230
1
40
0.196995
41
-1.81175267814246
42
-0.681804793544356
0
ELLIPSE
5
1A4
100
AcDbEntity
8
1
62
256
6
ByLayer
370
-1
48
1
60
0
100
AcDbEllipse
10
43.124441
20
-14.802904
30
0
11
-0.44283504580741
21
0.764026523452758
31
0
210
0
220
0
230
1
40
0.12071
41
1.48411448579511
42
2.37784691028774
0
ELLIPSE
5
1A5
100
AcDbEntity
8
1
62
256
6
ByLayer
370
-1
48
1
60
0
100
AcDbEllipse
10
39.082802
20
-20.640572
30
0
11
-0.589672763894414
21
-5.95673625340889
31
0
210
0
220
0
230
1
40
0.984662
41
-3.07933192713186
42
-2.76117149443719
0
ELLIPSE
5
1A6
100
AcDbEntity
8
1
62
256
6
ByLayer
370
-1
48
1
60
0
100
AcDbEllipse
10
42.033005
20
-24.926776
30
0
11
-0.0723853551989579
21
-0.266698746769021
31
0
210
0
220
0
230
1
40
0.374291
41
-0.597341516567214
42
0.899769069370842
0
ELLIPSE
5
1A7
100
AcDbEntity
8
1
62
256
6
ByLayer
370
-1
48
1
60
0
100
AcDbEllipse
10
41.117483
20
-26.7839
30
0
11
-0.0931460005590699
21
-0.721257603362722
31
0
210
0
220
0
230
1
40
0.219339
41
1.57180500576387
42
1.58438873079535
0
ELLIPSE
5
1A8
100
AcDbEntity
8
1
62
256
6
ByLayer
370
-1
48
1
60
0
100
AcDbEllipse
10
41.169961
20
-26.999828
30
0
11
-0.308909849666554
21
0.000869647339983599
31
0
210
0
220
0
230
1
40
0.016452
41
-1.82650218881907
42
-1.40132587822579
0
ELLIPSE
5
1A9
100
AcDbEntity
8
1
62
256
6
ByLayer
370
-1
48
1
60
0
100
AcDbEllipse
10
43.840705
20
-18.53066
30
0
11
-0.114905950198109
21
-0.296452990403849
31
0
210
0
220
0
230
1
40
0.634221
41
2.28639547226505
42
-2.4996792489774
0
ELLIPSE
5
1AA
100
AcDbEntity
8
1
62
256
6
ByLayer
370
-1
48
1
60
0
100
AcDbEllipse
10
39.436603
20
-14.67214
30
0
11
-0.0265767931705798
21
-0.749528968129163
31
0
210
0
220
0
230
1
40
0.174133
41
-1.58182065981106
42
-0.621889571214217
0
ELLIPSE
5
1AB
100
AcDbEntity
8
1
62
256
6
ByLayer
370
-1
48
1
60
0
100
AcDbEllipse
10
36.569535
20
-13.908395
30
0
11
-0.0833186578134669
21
-0.182756206512206
31
0
210
0
220
0
230
1
40
0.958576
41
3.12599498899402
42
-2.2044706412618
0
ELLIPSE
5
1AC
100
AcDbEntity
8
1
62
256
6
ByLayer
370
-1
48
1
60
0
100
AcDbEllipse
10
35.232013
20
-18.718347
30
0
11
0.20091479286169
21
0.0407215668822347
31
0
210
0
220
0
230
1
40
0.618552
41
-1.73939206207528
42
-0.841860612036566
0
ELLIPSE
5
1AD
100
AcDbEntity
8
1
62
256
6
ByLayer
370
-1
48
1
60
0
100
AcDbEllipse
10
35.093957
20
-22.900418
30
0
11
-0.0886953833303075
21
-0.0461858092479693
31
0
210
0
220
0
230
1
40
0.096468
41
0.757446637541324
42
1.71737772613781
0
ELLIPSE
5
1AE
100
AcDbEntity
8
1
62
256
6
ByLayer
370
-1
48
1
60
0
100
AcDbEllipse
10
39.160079
20
-20.648221
30
0
11
0.424264922325344
21
4.28582495005253
31
0
210
0
220
0
230
1
40
0.984662
41
-2.58001375953561
42
-0.925749631696736
0
ELLIPSE
5
1AF
100
AcDbEntity
8
1
62
256
6
ByLayer
370
-1
48
1
60
0
100
AcDbEllipse
10
35.677885
20
-17.91726
30
0
11
-0.0802132941343284
21
0.059714549685313
31
0
210
0
220
0
230
1
40
0.090914
41
-3.02988789032639
42
-1.72089095133522
0
ELLIPSE
5
1B0
100
AcDbEntity
8
1
62
256
6
ByLayer
370
-1
48
1
60
0
100
AcDbEllipse
10
37.232555
20
-11.015385
30
0
11
-0.0512257656543612
21
-0.517470695724043
31
0
210
0
220
0
230
1
40
0.984662
41
-3.14159128718801
42
-2.52082656649368
0
ELLIPSE
5
1B1
100
AcDbEntity
8
1
62
256
6
ByLayer
370
-1
48
1
60
0
100
AcDbEllipse
10
44.934236
20
-22.07811
30
0
11
-0.731869975798782
21
0.163909543725466
31
0
210
0
220
0
230
1
40
0.016523
41
-1.56712180757184
42
-0.437173922973564
0
ELLIPSE
5
1B2
100
AcDbEntity
8
1
62
256
6
ByLayer
370
-1
48
1
60
0
100
AcDbEllipse
10
31.042142
20
-22.579507
30
0
11
-0.00514834923757408
21
0.869332183568214
31
0
210
0
220
0
230
1
40
0.149715
41
1.555081091424
42
1.72961401601099
0
ELLIPSE
5
1B3
100
AcDbEntity
8
1
62
256
6
ByLayer
370
-1
48
1
60
0
100
AcDbEllipse
10
39.13833
20
-20.646068
30
0
11
0.529151094678966
21
5.34536051553101
31
0
210
0
220
0
230
1
40
0.984662
41
2.15665582885113
42
2.4748162615458
0
ELLIPSE
5
1B4
100
AcDbEntity
8
1
62
256
6
ByLayer
370
-1
48
1
60
0
100
AcDbEllipse
10
39.133699
20
-20.64561
30
0
11
0.404758269530189
21
4.08877330886741
31
0
210
0
220
0
230
1
40
0.984662
41
-0.599025042577784
42
1.28205185613183
0
ELLIPSE
5
1B5
100
AcDbEntity
8
1
62
256
6
ByLayer
370
-1
48
1
60
0
100
AcDbEllipse
10
35.262592
20
-18.490614
30
0
11
0.187908468395977
21
-0.0819475899894448
31
0
210
0
220
0
230
1
40
0.6096
41
-1.3566537582478
42
-0.126191590979783
0
ELLIPSE
5
1B6
100
AcDbEntity
8
1
62
256
6
ByLayer
370
-1
48
1
60
0
100
AcDbEllipse
10
39.232628
20
-20.005601
30
0
11
-1.39227954208812
21
6.67884561617222
31
0
210
0
220
0
230
1
40
0.960266
41
2.21273284252537
42
2.42525216056813
0
ELLIPSE
5
1B7
100
AcDbEntity
8
1
62
256
6
ByLayer
370
-1
48
1
60
0
100
AcDbEllipse
10
44.056287
20
-16.495661
30
0
11
-0.155871228101807
21
0.266908649672787
31
0
210
0
220
0
230
1
40
0.13779
41
1.47124477358361
42
2.16937647439197
0
ELLIPSE
5
1B8
100
AcDbEntity
8
1
62
256
6
ByLayer
370
-1
48
1
60
0
100
AcDbEllipse
10
47.806799
20
-24.473401
30
0
11
-0.528019507741511
21
0.00156871412932906
31
0
210
0
220
0
230
1
40
0.984667
41
3.14157881699658
42
-2.10106309651297
0
ELLIPSE
5
1B9
100
AcDbEntity
8
1
62
256
6
ByLayer
370
-1
48
1
60
0
100
AcDbEllipse
10
31.526182
20
-26.31453
30
0
11
-0.154902098008315
21
0.499601224808051
31
0
210
0
220
0
230
1
40
0.960584
41
1.28949687603112
42
2.33004026970258
0
ELLIPSE
5
1BA
100
AcDbEntity
8
1
62
256
6
ByLayer
370
-1
48
1
60
0
100
AcDbEllipse
10
39.272597
20
-20.65936
30
0
11
-0.44893005863265
21
-4.53498638438203
31
0
210
0
220
0
230
1
40
0.984662
41
-1.38685064066148
42
-0.0245176481742466
0
ELLIPSE
5
1BB
100
AcDbEntity
8
1
62
256
6
ByLayer
370
-1
48
1
60
0
100
AcDbEllipse
10
39.259728
20
-20.658086
30
0
11
0.439414618244764
21
4.43886363258441
31
0
210
0
220
0
230
1
40
0.984662
41
-0.339653089464883
42
1.02267990301882
0
ELLIPSE
5
1BC
100
AcDbEntity
8
1
62
256
6
ByLayer
370
-1
48
1
60
0
100
AcDbEllipse
10
34.175691
20
-26.006149
30
0
11
-0.0744721624991674
21
0.240192896544773
31
0
210
0
220
0
230
1
40
0.960584
41
-1.76427206078768
42
-0.811552383867998
0
ELLIPSE
5
1BD
100
AcDbEntity
8
1
62
256
6
ByLayer
370
-1
48
1
60
0
100
AcDbEllipse
10
43.399687
20
-18.735402
30
0
11
0.0699045413981607
21
-0.0715077274978925
31
0
210
0
220
0
230
1
40
0.113154
41
1.43673480678024
42
2.13486650757768
0
ELLIPSE
5
1BE
100
AcDbEntity
8
1
62
256
6
ByLayer
370
-1
48
1
60
0
100
AcDbEllipse
10
36.264139
20
-25.820687
30
0
11
0.379766412202703
21
0.646743745360314
31
0
210
0
220
0
230
1
40
0.158847
41
0.684024077130946
42
1.81848809092726
0
ELLIPSE
5
1BF
100
AcDbEntity
8
1
62
256
6
ByLayer
370
-1
48
1
60
0
100
AcDbEllipse
10
42.048814
20
-25.112107
30
0
11
0.0850491745165465
21
-0.052598839474403
31
0
210
0
220
0
230
1
40
0.077665
41
0.453511824026672
42
1.41344291262325
0
ELLIPSE
5
1C0
100
AcDbEntity
8
1
62
256
6
ByLayer
370
-1
48
1
60
0
100
AcDbEllipse
10
43.456528
20
-15.869532
30
0
11
-0.618033690623282
21
-0.308554902954493
31
0
210
0
220
0
230
1
40
0.323627
41
-1.54000374445255
42
-1.52741536350342
0
ELLIPSE
5
1C1
100
AcDbEntity
8
1
62
256
6
ByLayer
370
-1
48
1
60
0
100
AcDbEllipse
10
39.088381
20
-20.641124
30
0
11
-0.38328622359865
21
-3.87186772620056
31
0
210
0
220
0
230
1
40
0.984662
41
0
42
6.28318530717959
0
ELLIPSE
5
1C2
100
AcDbEntity
8
1
62
256
6
ByLayer
370
-1
48
1
60
0
100
AcDbEllipse
10
33.219003
20
-18.456809
30
0
11
-0.156347378537711
21
-0.266684179858087
31
0
210
0
220
0
230
1
40
0.154177
41
-2.19804197834331
42
-1.49991027753754
0
ELLIPSE
5
1C3
100
AcDbEntity
8
1
62
256
6
ByLayer
370
-1
48
1
60
0
100
AcDbEllipse
10
39.259728
20
-20.658086
30
0
11
0.439414618244764
21
4.43886363258441
31
0
210
0
220
0
230
1
40
0.984662
41
-2.43404819185808
42
-1.07171519937438
0
ELLIPSE
5
1C4
100
AcDbEntity
8
1
62
256
6
ByLayer
370
-1
48
1
60
0
100
AcDbEllipse
10
40.0267
20
-20.436959
30
0
11
-5.05800581802121
21
-0.527036717281178
31
0
210
0
220
0
230
1
40
0.86101
41
1.67961688592303
42
1.81752603533343
0
ELLIPSE
5
1C5
100
AcDbEntity
8
1
62
256
6
ByLayer
370
-1
48
1
60
0
100
AcDbEllipse
10
41.30417
20
-16.525346
30
0
11
-0.0699045413983544
21
0.071507727497703
31
0
210
0
220
0
230
1
40
0.113154
41
-2.40298954760784
42
-1.70485784680997
0
ELLIPSE
5
1C6
100
AcDbEntity
8
1
62
256
6
ByLayer
370
-1
48
1
60
0
100
AcDbEllipse
10
32.857427
20
-19.379635
30
0
11
-0.588524348801682
21
0.583653992716595
31
0
210
0
220
0
230
1
40
0.430914
41
1.61794332173704
42
1.63052995072873
0
ELLIPSE
5
1C7
100
AcDbEntity
8
1
62
256
6
ByLayer
370
-1
48
1
60
0
100
AcDbEllipse
10
34.97739
20
-17.654163
30
0
11
-0.0505038117948452
21
0.0863097039398865
31
0
210
0
220
0
230
1
40
0.141921
41
-1.67349711052472
42
-0.713566021927859
0
ELLIPSE
5
1C8
100
AcDbEntity
8
1
62
256
6
ByLayer
370
-1
48
1
60
0
100
AcDbEllipse
10
37.582654
20
-14.906989
30
0
11
0.212385396647173
21
-0.719299967531643
31
0
210
0
220
0
230
1
40
0.161998
41
-1.63649390416655
42
-0.676562815569629
0
ELLIPSE
5
1C9
100
AcDbEntity
8
1
62
256
6
ByLayer
370
-1
48
1
60
0
100
AcDbEllipse
10
39.13833
20
-20.646068
30
0
11
0.529151094678966
21
5.34536051553101
31
0
210
0
220
0
230
1
40
0.984662
41
-2.03213437593527
42
-1.71397394324059
0
ELLIPSE
5
1CA
100
AcDbEntity
8
1
62
256
6
ByLayer
370
-1
48
1
60
0
100
AcDbEllipse
10
41.603648
20
-16.88667
30
0
11
0.164065786984745
21
0.122912235115452
31
0
210
0
220
0
230
1
40
0.73407
41
-2.62821222819483
42
-1.39775006092698
0
ELLIPSE
5
1CB
100
AcDbEntity
8
1
62
256
6
ByLayer
370
-1
48
1
60
0
100
AcDbEllipse
10
44.919933
20
-26.869672
30
0
11
-0.750296172684512
21
-0.434738936129119
31
0
210
0
220
0
230
1
40
0.088816
41
-1.62254182203001
42
-1.44800889648026
0
ELLIPSE
5
1CC
100
AcDbEntity
8
1
62
256
6
ByLayer
370
-1
48
1
60
0
100
AcDbEllipse
10
39.424779
20
-19.802137
30
0
11
-3.72864875750946
21
-3.08300633045578
31
0
210
0
220
0
230
1
40
0.85683
41
-1.17501783390605
42
-1.03710868448339
0
ELLIPSE
5
1CD
100
AcDbEntity
8
1
62
256
6
ByLayer
370
-1
48
1
60
0
100
AcDbEllipse
10
33.902665
20
-25.845829
30
0
11
-0.0744721624996299
21
0.240192896544688
31
0
210
0
220
0
230
1
40
0.960584
41
-0.811552383867589
42
0.228991009801295
0
ELLIPSE
5
1CE
100
AcDbEntity
8
1
62
256
6
ByLayer
370
-1
48
1
60
0
100
AcDbEllipse
10
38.33861
20
-20.863954
30
0
11
-0.159421809462381
21
4.41689821988756
31
0
210
0
220
0
230
1
40
0.859742
41
-3.03887278887001
42
-2.90096363944336
0
ELLIPSE
5
1CF
100
AcDbEntity
8
1
62
256
6
ByLayer
370
-1
48
1
60
0
100
AcDbEllipse
10
38.820955
20
-25.928581
30
0
11
-0.050635521627027
21
-0.0862324993813753
31
0
210
0
220
0
230
1
40
0.158847
41
0.684024077131245
42
1.64395516572791
0
ELLIPSE
5
1D0
100
AcDbEntity
8
1
62
256
6
ByLayer
370
-1
48
1
60
0
100
AcDbEllipse
10
46.155163
20
-22.2982
30
0
11
-0.253855532572516
21
0.000754189561188714
31
0
210
0
220
0
230
1
40
0.984667
41
-0.952733513211084
42
-1.38362991267579E-05
0
ELLIPSE
5
1D1
100
AcDbEntity
8
1
62
256
6
ByLayer
370
-1
48
1
60
0
100
AcDbEllipse
10
44.202722
20
-23.825012
30
0
11
-0.637868808874099
21
0.394491296058023
31
0
210
0
220
0
230
1
40
0.077665
41
0.453511824026332
42
1.4134429126232
0
ELLIPSE
5
1D2
100
AcDbEntity
8
1
62
256
6
ByLayer
370
-1
48
1
60
0
100
AcDbEllipse
10
39.133699
20
-20.64561
30
0
11
0.404758269530189
21
4.08877330886741
31
0
210
0
220
0
230
1
40
0.984662
41
-2.69342014497098
42
-0.812343246261364
0
ELLIPSE
5
1D3
100
AcDbEntity
8
1
62
256
6
ByLayer
370
-1
48
1
60
0
100
AcDbEllipse
10
36.294985
20
-15.487165
30
0
11
0.378778588461339
21
-0.647322779549148
31
0
210
0
220
0
230
1
40
0.141921
41
-1.84803003572418
42
-0.713566021927837
0
ELLIPSE
5
1D4
100
AcDbEntity
8
1
62
256
6
ByLayer
370
-1
48
1
60
0
100
AcDbEllipse
10
43.221632
20
-15.583042
30
0
11
-0.0569865995697242
21
0.196920104279578
31
0
210
0
220
0
230
1
40
0.520662
41
-2.2237728654965
42
-0.736815573718446
0
ELLIPSE
5
1D5
100
AcDbEntity
8
1
62
256
6
ByLayer
370
-1
48
1
60
0
100
AcDbEllipse
10
40.282065
20
-26.999828
30
0
11
-0.308909849431687
21
0.000869647340968202
31
0
210
0
220
0
230
1
40
0.016452
41
-1.40132587772541
42
-0.703194177148655
0
ELLIPSE
5
1D6
100
AcDbEntity
8
1
62
256
6
ByLayer
370
-1
48
1
60
0
100
AcDbEllipse
10
41.375679
20
-26.759953
30
0
11
0.19356483601863
21
-0.0675104011029488
31
0
210
0
220
0
230
1
40
0.346701
41
-1.98151970818354
42
-0.484409122246344
0
ELLIPSE
5
1D7
100
AcDbEntity
8
1
62
256
6
ByLayer
370
-1
48
1
60
0
100
AcDbEllipse
10
38.181609
20
-20.620601
30
0
11
-6.91241000136561
21
0.0205681064092138
31
0
210
0
220
0
230
1
40
0.977133
41
2.92906409333065
42
3.14158341139663
0
ELLIPSE
5
1D8
100
AcDbEntity
8
1
62
256
6
ByLayer
370
-1
48
1
60
0
100
AcDbEllipse
10
38.181976
20
-11.10937
30
0
11
-0.216628510306459
21
-0.475166136937657
31
0
210
0
220
0
230
1
40
0.958576
41
3.03817127222716
42
-2.20447064128238
0
ELLIPSE
5
1D9
100
AcDbEntity
8
1
62
256
6
ByLayer
370
-1
48
1
60
0
100
AcDbEllipse
10
39.13833
20
-20.646068
30
0
11
0.529151094678966
21
5.34536051553101
31
0
210
0
220
0
230
1
40
0.984662
41
0.0622607264579283
42
0.380421159152605
0
ELLIPSE
5
1DA
100
AcDbEntity
8
1
62
256
6
ByLayer
370
-1
48
1
60
0
100
AcDbEllipse
10
30.57676
20
-26.220544
30
0
11
-0.0512257656543612
21
-0.517470695724043
31
0
210
0
220
0
230
1
40
0.984662
41
-1.46697485777081
42
-0.426431464100479
0
ELLIPSE
5
1DB
100
AcDbEntity
8
1
62
256
6
ByLayer
370
-1
48
1
60
0
100
AcDbEllipse
10
39.133699
20
-20.64561
30
0
11
-0.39490716075051
21
-3.98925971353587
31
0
210
0
220
0
230
1
40
0.984662
41
0
42
6.28318530717959
0
ELLIPSE
5
1DC
100
AcDbEntity
8
1
62
256
6
ByLayer
370
-1
48
1
60
0
100
AcDbEllipse
10
38.940531
20
-21.498776
30
0
11
-2.25135349549999
21
4.13800147048635
31
0
210
0
220
0
230
1
40
0.856395
41
0.859268086815542
42
0.997177236472908
0
ELLIPSE
5
1DD
100
AcDbEntity
8
1
62
256
6
ByLayer
370
-1
48
1
60
0
100
AcDbEllipse
10
43.238046
20
-23.189191
30
0
11
0.0850491745165465
21
-0.052598839474403
31
0
210
0
220
0
230
1
40
0.077665
41
0.453511824026168
42
1.41344291262318
0
ELLIPSE
5
1DE
100
AcDbEntity
8
1
62
256
6
ByLayer
370
-1
48
1
60
0
100
AcDbEllipse
10
39.272597
20
-20.65936
30
0
11
0.470680391416666
21
4.75470315570215
31
0
210
0
220
0
230
1
40
0.984662
41
-2.03213437593527
42
-1.47362901529708
0
ELLIPSE
5
1DF
100
AcDbEntity
8
1
62
256
6
ByLayer
370
-1
48
1
60
0
100
AcDbEllipse
10
42.944876
20
-18.30121
30
0
11
-0.135060805906664
21
-0.154219255308286
31
0
210
0
220
0
230
1
40
0.530608
41
-1.70793927639305
42
-0.477477109125153
0
ELLIPSE
5
1E0
100
AcDbEntity
8
1
62
256
6
ByLayer
370
-1
48
1
60
0
100
AcDbEllipse
10
37.033979
20
-13.628891
30
0
11
-0.104148322255932
21
-0.228445258147762
31
0
210
0
220
0
230
1
40
0.958576
41
-0.0155976646451756
42
0.937122012273605
0
ELLIPSE
5
1E1
100
AcDbEntity
8
1
62
256
6
ByLayer
370
-1
48
1
60
0
100
AcDbEllipse
10
38.696968
20
-25.180428
30
0
11
-0.0123256273635035
21
-0.0992374874233324
31
0
210
0
220
0
230
1
40
0.174419
41
1.57514011778049
42
2.88413705677141
0
ELLIPSE
5
1E2
100
AcDbEntity
8
1
62
256
6
ByLayer
370
-1
48
1
60
0
100
AcDbEllipse
10
39.272597
20
-20.65936
30
0
11
-0.44893005863265
21
-4.53498638438203
31
0
210
0
220
0
230
1
40
0.984662
41
0.707544461731715
42
2.06987745421894
0
ELLIPSE
5
1E3
100
AcDbEntity
8
1
62
256
6
ByLayer
370
-1
48
1
60
0
100
AcDbEllipse
10
31.569426
20
-26.339923
30
0
11
-0.154902098007161
21
0.499601224808285
31
0
210
0
220
0
230
1
40
0.960584
41
2.33004026970402
42
-2.91260164380449
0
ELLIPSE
5
1E4
100
AcDbEntity
8
1
62
256
6
ByLayer
370
-1
48
1
60
0
100
AcDbEllipse
10
32.983231
20
-19.298833
30
0
11
-0.629825931599617
21
0.40499055634099
31
0
210
0
220
0
230
1
40
0.294763
41
1.50536774054567
42
1.51795536170085
0
ELLIPSE
5
1E5
100
AcDbEntity
8
1
62
256
6
ByLayer
370
-1
48
1
60
0
100
AcDbEllipse
10
38.764784
20
-25.747349
30
0
11
-0.2304067527789
21
0.227796117648439
31
0
210
0
220
0
230
1
40
0.628363
41
2.22114383679327
42
-2.56493088444751
0
ELLIPSE
5
1E6
100
AcDbEntity
8
1
62
256
6
ByLayer
370
-1
48
1
60
0
100
AcDbEllipse
10
44.212211
20
-16.861254
30
0
11
-0.15437069829724
21
0.244728101724917
31
0
210
0
220
0
230
1
40
0.105802
41
-2.55497475663452
42
-1.05786417070736
0
ELLIPSE
5
1E7
100
AcDbEntity
8
1
62
256
6
ByLayer
370
-1
48
1
60
0
100
AcDbEllipse
10
41.16622
20
-16.529009
30
0
11
0.0428840397794418
21
0.0903380270550296
31
0
210
0
220
0
230
1
40
0.164504
41
-2.82082945864298
42
-1.51183251964742
0
ELLIPSE
5
1E8
100
AcDbEntity
8
1
62
256
6
ByLayer
370
-1
48
1
60
0
100
AcDbEllipse
10
43.212835
20
-15.585616
30
0
11
-0.0581462248231527
21
0.196580814269387
31
0
210
0
220
0
230
1
40
0.525366
41
-2.2370087665096
42
-0.73989818057234
0
ELLIPSE
5
1E9
100
AcDbEntity
8
1
62
256
6
ByLayer
370
-1
48
1
60
0
100
AcDbEllipse
10
41.665447
20
-15.962447
30
0
11
0.00354357242274665
21
0.099937195750555
31
0
210
0
220
0
230
1
40
0.174133
41
-1.58182065981108
42
-0.62188957121357
0
ELLIPSE
5
1EA
100
AcDbEntity
8
1
62
256
6
ByLayer
370
-1
48
1
60
0
100
AcDbEllipse
10
38.138581
20
-11.134763
30
0
11
-0.216628510305695
21
-0.475166136938271
31
0
210
0
220
0
230
1
40
0.958576
41
-2.20447064128351
42
-1.16392724761428
0
ELLIPSE
5
1EB
100
AcDbEntity
8
1
62
256
6
ByLayer
370
-1
48
1
60
0
100
AcDbEllipse
10
35.670313
20
-13.819378
30
0
11
-0.0197022175593699
21
-0.199027190663095
31
0
210
0
220
0
230
1
40
0.984662
41
-3.1415834750601
42
-2.7211239868446
0
ELLIPSE
5
1EC
100
AcDbEntity
8
1
62
256
6
ByLayer
370
-1
48
1
60
0
100
AcDbEllipse
10
43.39085
20
-18.875236
30
0
11
0.0923403222557836
21
0.0383831328280801
31
0
210
0
220
0
230
1
40
0.083505
41
-2.72545470063893
42
-1.41645776164805
0
ELLIPSE
5
1ED
100
AcDbEntity
8
1
62
256
6
ByLayer
370
-1
48
1
60
0
100
AcDbEllipse
10
39.272597
20
-20.65936
30
0
11
0.470680391416666
21
4.75470315570215
31
0
210
0
220
0
230
1
40
0.984662
41
2.15665582885113
42
2.71516118948931
0
ELLIPSE
5
1EE
100
AcDbEntity
8
1
62
256
6
ByLayer
370
-1
48
1
60
0
100
AcDbEllipse
10
43.483239
20
-15.703786
30
0
11
-0.736608461719
21
-0.126306702567898
31
0
210
0
220
0
230
1
40
0.444539
41
-1.32325869316887
42
-1.31067128333542
0
ELLIPSE
5
1EF
100
AcDbEntity
8
1
62
256
6
ByLayer
370
-1
48
1
60
0
100
AcDbEllipse
10
44.934236
20
-22.07811
30
0
11
-0.728560147993158
21
0.17804524918174
31
0
210
0
220
0
230
1
40
0.024895
41
0.437254995420072
42
1.39718608401701
0
ELLIPSE
5
1F0
100
AcDbEntity
8
1
62
256
6
ByLayer
370
-1
48
1
60
0
100
AcDbEllipse
10
39.806296
20
-26.994492
30
0
11
-0.266397243581269
21
-0.000798625381328279
31
0
210
0
220
0
230
1
40
0.014886
41
0.813678103734891
42
2.31078868965129
0
ELLIPSE
5
1F1
100
AcDbEntity
8
1
62
256
6
ByLayer
370
-1
48
1
60
0
100
AcDbEllipse
10
41.125873
20
-24.674379
30
0
11
0.0402479264483287
21
-0.201010209732267
31
0
210
0
220
0
230
1
40
0.506688
41
-2.73040275290692
42
-1.499940585639
0
ELLIPSE
5
1F2
100
AcDbEntity
8
1
62
256
6
ByLayer
370
-1
48
1
60
0
100
AcDbEllipse
10
38.950909
20
-20.627515
30
0
11
-0.139491700320339
21
-1.4091125098947
31
0
210
0
220
0
230
1
40
0.984662
41
-2.93634691015989
42
-2.36924401397461
0
ELLIPSE
5
1F3
100
AcDbEntity
8
1
62
256
6
ByLayer
370
-1
48
1
60
0
100
AcDbEllipse
10
38.950909
20
-20.627515
30
0
11
0.139491700320336
21
1.4091125098947
31
0
210
0
220
0
230
1
40
0.984662
41
3.13068153315556
42
-2.93634691015993
0
ELLIPSE
5
1F4
100
AcDbEntity
8
1
62
256
6
ByLayer
370
-1
48
1
60
0
100
AcDbEllipse
10
38.944285
20
-22.84668
30
0
11
-0.0813701585201968
21
-0.821982297438575
31
0
210
0
220
0
230
1
40
0.984662
41
-2.85843812004672
42
-2.24515216253979
0
ELLIPSE
5
1F5
100
AcDbEntity
8
1
62
256
6
ByLayer
370
-1
48
1
60
0
100
AcDbEllipse
10
40.870031
20
-19.513149
30
0
11
-0.0813701585201968
21
-0.821982297438575
31
0
210
0
220
0
230
1
40
0.984662
41
-0.953358775495272
42
-0.171493708188383
0
ELLIPSE
5
1F6
100
AcDbEntity
8
1
62
256
6
ByLayer
370
-1
48
1
60
0
100
AcDbEllipse
10
39.020358
20
-20.63439
30
0
11
0.352177138873728
21
3.55761103310279
31
0
210
0
220
0
230
1
40
0.984662
41
0.100197765555823
42
-3.14153307892347
0
ELLIPSE
5
1F7
100
AcDbEntity
8
1
62
256
6
ByLayer
370
-1
48
1
60
0
100
AcDbEllipse
10
39.020358
20
-20.63439
30
0
11
0.352177138873728
21
3.55761103310279
31
0
210
0
220
0
230
1
40
0.984662
41
0
42
0.100197928696285
0
ELLIPSE
5
1F8
100
AcDbEntity
8
1
62
256
6
ByLayer
370
-1
48
1
60
0
100
AcDbEllipse
10
39.228705
20
-20.655015
30
0
11
0.193919076328093
21
1.95892512410149
31
0
210
0
220
0
230
1
40
0.984662
41
2.70850411789635
42
-2.51416949490071
0
ELLIPSE
5
1F9
100
AcDbEntity
8
1
62
256
6
ByLayer
370
-1
48
1
60
0
100
AcDbEllipse
10
39.228705
20
-20.655015
30
0
11
0.193919076328093
21
1.95892512410149
31
0
210
0
220
0
230
1
40
0.984662
41
-2.51416949490071
42
-1.47362901529708
0
ELLIPSE
5
1FA
100
AcDbEntity
8
1
62
256
6
ByLayer
370
-1
48
1
60
0
100
AcDbEllipse
10
38.950909
20
-20.627515
30
0
11
-0.139491700320339
21
-1.4091125098947
31
0
210
0
220
0
230
1
40
0.984662
41
-1.71231949562669
42
-1.17753052047263
0
ELLIPSE
5
1FB
100
AcDbEntity
8
1
62
256
6
ByLayer
370
-1
48
1
60
0
100
AcDbEllipse
10
38.957533
20
-18.40835
30
0
11
-0.0813701585201968
21
-0.821982297438575
31
0
210
0
220
0
230
1
40
0.984662
41
-0.702105868054388
42
-0.088819910547536
0
ELLIPSE
5
1FC
100
AcDbEntity
8
1
62
256
6
ByLayer
370
-1
48
1
60
0
100
AcDbEllipse
10
39.173322
20
-20.649532
30
0
11
0.139491700320336
21
1.4091125098947
31
0
210
0
220
0
230
1
40
0.984662
41
-0.0109111204342893
42
0.205245743429897
0
ELLIPSE
5
1FD
100
AcDbEntity
8
1
62
256
6
ByLayer
370
-1
48
1
60
0
100
AcDbEllipse
10
39.173322
20
-20.649532
30
0
11
0.139491700320336
21
1.4091125098947
31
0
210
0
220
0
230
1
40
0.984662
41
3.13068153315557
42
-2.93634691015992
0
ELLIPSE
5
1FE
100
AcDbEntity
8
1
62
256
6
ByLayer
370
-1
48
1
60
0
100
AcDbEllipse
10
39.762779
20
-22.040804
30
0
11
-0.03250865897296
21
-0.328394864594104
31
0
210
0
220
0
230
1
40
0.984662
41
0.422767543732107
42
1.92955846579777
0
ELLIPSE
5
1FF
100
AcDbEntity
8
1
62
256
6
ByLayer
370
-1
48
1
60
0
100
AcDbEllipse
10
39.228705
20
-20.655015
30
0
11
0.193919076328093
21
1.95892512410149
31
0
210
0
220
0
230
1
40
0.984662
41
1.66796363829271
42
2.70850411789635
0
ELLIPSE
5
200
100
AcDbEntity
8
1
62
256
6
ByLayer
370
-1
48
1
60
0
100
AcDbEllipse
10
40.870031
20
-19.513149
30
0
11
-0.0813701585201968
21
-0.821982297438575
31
0
210
0
220
0
230
1
40
0.984662
41
-1.73522384280215
42
-0.953358775495272
0
ELLIPSE
5
201
100
AcDbEntity
8
1
62
256
6
ByLayer
370
-1
48
1
60
0
100
AcDbEllipse
10
39.146279
20
-20.646855
30
0
11
0.352177138873728
21
3.55761103310279
31
0
210
0
220
0
230
1
40
0.984662
41
0
42
6.28318530717959
0
ELLIPSE
5
202
100
AcDbEntity
8
1
62
256
6
ByLayer
370
-1
48
1
60
0
100
AcDbEllipse
10
40.863378
20
-21.741882
30
0
11
-0.0813701585201968
21
-0.821982297438575
31
0
210
0
220
0
230
1
40
0.984662
41
-1.9938992550989
42
-1.21203418779202
0
ELLIPSE
5
203
100
AcDbEntity
8
1
62
256
6
ByLayer
370
-1
48
1
60
0
100
AcDbEllipse
10
40.564517
20
-20.627515
30
0
11
-0.03250865897296
21
-0.328394864594104
31
0
210
0
220
0
230
1
40
0.984662
41
0.365828331183969
42
2.97009894540144
0
ELLIPSE
5
204
100
AcDbEntity
8
1
62
256
6
ByLayer
370
-1
48
1
60
0
100
AcDbEllipse
10
39.228705
20
-20.655015
30
0
11
0.193919076328093
21
1.95892512410149
31
0
210
0
220
0
230
1
40
0.984662
41
-1.47362901529708
42
-0.433088535693457
0
ELLIPSE
5
205
100
AcDbEntity
8
1
62
256
6
ByLayer
370
-1
48
1
60
0
100
AcDbEllipse
10
39.771216
20
-19.214226
30
0
11
-0.03250865897296
21
-0.328394864594104
31
0
210
0
220
0
230
1
40
0.984662
41
1.40636881078764
42
2.7225712258491
0
ELLIPSE
5
206
100
AcDbEntity
8
1
62
256
6
ByLayer
370
-1
48
1
60
0
100
AcDbEllipse
10
38.950909
20
-20.627515
30
0
11
-0.139491700320339
21
-1.4091125098947
31
0
210
0
220
0
230
1
40
0.984662
41
1.1476933984909
42
2.18823387809452
0
ELLIPSE
5
207
100
AcDbEntity
8
1
62
256
6
ByLayer
370
-1
48
1
60
0
100
AcDbEllipse
10
38.950909
20
-20.627515
30
0
11
-0.139491700320339
21
-1.4091125098947
31
0
210
0
220
0
230
1
40
0.984662
41
2.18823387809452
42
2.97282133984397
0
ELLIPSE
5
208
100
AcDbEntity
8
1
62
256
6
ByLayer
370
-1
48
1
60
0
100
AcDbEllipse
10
38.139039
20
-19.214226
30
0
11
-0.03250865897296
21
-0.328394864594104
31
0
210
0
220
0
230
1
40
0.984662
41
2.43948678553542
42
2.68961876492368
0
ELLIPSE
5
209
100
AcDbEntity
8
1
62
256
6
ByLayer
370
-1
48
1
60
0
100
AcDbEllipse
10
39.228705
20
-20.655015
30
0
11
0.193919076328093
21
1.95892512410149
31
0
210
0
220
0
230
1
40
0.984662
41
0.627423158689075
42
1.66796363829271
0
ELLIPSE
5
20A
100
AcDbEntity
8
1
62
256
6
ByLayer
370
-1
48
1
60
0
100
AcDbEllipse
10
39.228705
20
-20.655015
30
0
11
0.193919076328093
21
1.95892512410149
31
0
210
0
220
0
230
1
40
0.984662
41
-0.433088535693457
42
0.627423158689075
0
ELLIPSE
5
20B
100
AcDbEntity
8
1
62
256
6
ByLayer
370
-1
48
1
60
0
100
AcDbEllipse
10
38.130602
20
-22.040804
30
0
11
-0.03250865897296
21
-0.328394864594104
31
0
210
0
220
0
230
1
40
0.984662
41
0.466203722129005
42
0.896440491050008
0
ELLIPSE
5
20C
100
AcDbEntity
8
1
62
256
6
ByLayer
370
-1
48
1
60
0
100
AcDbEllipse
10
39.228705
20
-20.655015
30
0
11
0.236426610712431
21
2.3883262879571
31
0
210
0
220
0
230
1
40
0.984662
41
0
42
6.28318530717959
0
ELLIPSE
5
20D
100
AcDbEntity
8
1
62
256
6
ByLayer
370
-1
48
1
60
0
100
AcDbEllipse
10
38.950909
20
-20.627515
30
0
11
-0.139491700320339
21
-1.4091125098947
31
0
210
0
220
0
230
1
40
0.984662
41
0.205245743429861
42
1.1476933984909
0
ELLIPSE
5
20E
100
AcDbEntity
8
1
62
256
6
ByLayer
370
-1
48
1
60
0
100
AcDbEllipse
10
38.950909
20
-20.627515
30
0
11
0.139491700320336
21
1.4091125098947
31
0
210
0
220
0
230
1
40
0.984662
41
2.56054477153642
42
3.13068153315556
0
ELLIPSE
5
20F
100
AcDbEntity
8
1
62
256
6
ByLayer
370
-1
48
1
60
0
100
AcDbEllipse
10
40.863378
20
-21.741882
30
0
11
-0.0813701585201968
21
-0.821982297438575
31
0
210
0
220
0
230
1
40
0.984662
41
-2.77576432240577
42
-1.9938992550989
0
ELLIPSE
5
210
100
AcDbEntity
8
1
62
256
6
ByLayer
370
-1
48
1
60
0
100
AcDbEllipse
10
43.12683
20
-14.684274
30
0
11
-0.0585690370699765
21
-0.597134547565869
31
0
210
0
220
0
230
1
40
0.984665
41
3.14159150847991
42
-3.0453118993641
0
ELLIPSE
5
211
100
AcDbEntity
8
1
62
256
6
ByLayer
370
-1
48
1
60
0
100
AcDbEllipse
10
39.566653
20
-11.596705
30
0
11
-4.85074540862949
21
0.827581472646943
31
0
210
0
220
0
230
1
40
0.190838
41
-0.973077720621717
42
-0.713521195148847
0
ELLIPSE
5
212
100
AcDbEntity
8
1
62
256
6
ByLayer
370
-1
48
1
60
0
100
AcDbEllipse
10
44.159127
20
-14.61859
30
0
11
-5.5107285922007E-16
21
-3
31
0
210
0
220
0
230
1
40
0.173648
41
0.552528740896161
42
0.727061666095601
0
ELLIPSE
5
213
100
AcDbEntity
8
1
62
256
6
ByLayer
370
-1
48
1
60
0
100
AcDbEllipse
10
36.386323
20
-11.284767
30
0
11
-0.0976150617832942
21
-0.995224245943116
31
0
210
0
220
0
230
1
40
0.984665
41
-3.04531189936408
42
-2.64202029075123
0
ELLIPSE
5
214
100
AcDbEntity
8
1
62
256
6
ByLayer
370
-1
48
1
60
0
100
AcDbEllipse
10
44.436425
20
-16.298223
30
0
11
-1.10214571844014E-16
21
-0.599999999999999
31
0
210
0
220
0
230
1
40
0.173648
41
1.55609306079291
42
2.38512445549023
0
ELLIPSE
5
215
100
AcDbEntity
8
1
62
256
6
ByLayer
370
-1
48
1
60
0
100
AcDbEllipse
10
37.105946
20
-11.355351
30
0
11
-0.0843625974853762
21
-0.996437821597274
31
0
210
0
220
0
230
1
40
0.984699
41
-3.05841628701447
42
-2.91468120396226
0
ELLIPSE
5
216
100
AcDbEntity
8
1
62
256
6
ByLayer
370
-1
48
1
60
0
100
AcDbEllipse
10
44.436135
20
-16.411704
30
0
11
-1.10214571844014E-16
21
-0.599999999999999
31
0
210
0
220
0
230
1
40
0.173648
41
0.727061666095579
42
1.55609306079291
0
ELLIPSE
5
217
100
AcDbEntity
8
1
62
256
6
ByLayer
370
-1
48
1
60
0
100
AcDbEllipse
10
38.508288
20
-11.284767
30
0
11
-0.0976150617832942
21
-0.995224245943116
31
0
210
0
220
0
230
1
40
0.984665
41
3.14158846175828
42
-3.04531189936408
0
ELLIPSE
5
218
100
AcDbEntity
8
1
62
256
6
ByLayer
370
-1
48
1
60
0
100
AcDbEllipse
10
44.446211
20
-17.29987
30
0
11
-2.75536429610035E-17
21
-0.15
31
0
210
0
220
0
230
1
40
0.173648
41
-2.58906391269347
42
-2.15016447796859
0
ELLIPSE
5
219
100
AcDbEntity
8
1
62
256
6
ByLayer
370
-1
48
1
60
0
100
AcDbEllipse
10
43.847828
20
-14.754992
30
0
11
-0.0506175615122726
21
-0.597862692067035
31
0
210
0
220
0
230
1
40
0.984699
41
1.65397269847665
42
-3.05841628190732
0
ELLIPSE
5
21A
100
AcDbEntity
8
1
62
256
6
ByLayer
370
-1
48
1
60
0
100
AcDbEllipse
10
44.150382
20
-18.043659
30
0
11
-5.5107285922007E-16
21
-3
31
0
210
0
220
0
230
1
40
0.173648
41
2.38512445549022
42
2.55965738068965
0
ELLIPSE
5
21B
100
AcDbEntity
8
1
62
256
6
ByLayer
370
-1
48
1
60
0
100
AcDbEllipse
10
39.227912
20
-11.355351
30
0
11
-0.0843626025326139
21
-0.996437820111195
31
0
210
0
220
0
230
1
40
0.984699
41
1.65397269848909
42
-3.05841628189541
0
ELLIPSE
5
21C
100
AcDbEntity
8
1
62
256
6
ByLayer
370
-1
48
1
60
0
100
AcDbEllipse
10
44.451031
20
-15.412147
30
0
11
-2.75536429610035E-17
21
-0.15
31
0
210
0
220
0
230
1
40
0.173648
41
-2.58906391269372
42
-0.581935272900151
0
ELLIPSE
5
21D
100
AcDbEntity
8
1
62
256
6
ByLayer
370
-1
48
1
60
0
100
AcDbEllipse
10
30.058231
20
-26.828296
30
0
11
1.96849965818185
21
0.00116005943422189
31
0
210
0
220
0
230
1
40
0.053469
41
-2.77012322798434
42
-1.72292567678769
0
ELLIPSE
5
21E
100
AcDbEntity
8
1
62
256
6
ByLayer
370
-1
48
1
60
0
100
AcDbEllipse
10
30.058231
20
-26.828296
30
0
11
1.96849965818185
21
0.00116005943422189
31
0
210
0
220
0
230
1
40
0.053469
41
2.46586452799867
42
-2.77012322798434
0
ELLIPSE
5
21F
100
AcDbEntity
8
1
62
256
6
ByLayer
370
-1
48
1
60
0
100
AcDbEllipse
10
30.058231
20
-26.828296
30
0
11
1.96849965818185
21
0.00116005943422189
31
0
210
0
220
0
230
1
40
0.053469
41
-0.675728125591119
42
0.371469425605492
0
ELLIPSE
5
220
100
AcDbEntity
8
1
62
256
6
ByLayer
370
-1
48
1
60
0
100
AcDbEllipse
10
30.058231
20
-26.828296
30
0
11
1.96849965818185
21
0.00116005943422189
31
0
210
0
220
0
230
1
40
0.053469
41
0.371469425605492
42
0.432657031241932
0
ELLIPSE
5
221
100
AcDbEntity
8
1
62
256
6
ByLayer
370
-1
48
1
60
0
100
AcDbEllipse
10
30.058231
20
-26.828296
30
0
11
1.96849965818185
21
0.00116005943422189
31
0
210
0
220
0
230
1
40
0.053469
41
1.38661721655353
42
1.41850868771333
0
ELLIPSE
5
222
100
AcDbEntity
8
1
62
256
6
ByLayer
370
-1
48
1
60
0
100
AcDbEllipse
10
30.057464
20
-25.530156
30
0
11
-4.17499927503646
21
-0.002460374974793
31
0
210
0
220
0
230
1
40
0.053469
41
-1.57168771263188
42
-1.29699746566307
0
ELLIPSE
5
223
100
AcDbEntity
8
1
62
256
6
ByLayer
370
-1
48
1
60
0
100
AcDbEllipse
10
30.058231
20
-26.828296
30
0
11
1.96849965818185
21
0.00116005943422189
31
0
210
0
220
0
230
1
40
0.053469
41
-1.72292567678769
42
-0.675728125591119
0
ELLIPSE
5
224
100
AcDbEntity
8
1
62
256
6
ByLayer
370
-1
48
1
60
0
100
AcDbEllipse
10
30.058231
20
-26.828296
30
0
11
-2.14999962666548
21
-0.00126701944809699
31
0
210
0
220
0
230
1
40
0.053469
41
-1.72893629346602
42
0
0
ELLIPSE
5
225
100
AcDbEntity
8
1
62
256
6
ByLayer
370
-1
48
1
60
0
100
AcDbEllipse
10
30.058231
20
-26.828296
30
0
11
-2.14999962666548
21
-0.00126701944809699
31
0
210
0
220
0
230
1
40
0.053469
41
0
42
1.57090824447386
0
ELLIPSE
5
226
100
AcDbEntity
8
1
62
256
6
ByLayer
370
-1
48
1
60
0
100
AcDbEllipse
10
30.058231
20
-26.828296
30
0
11
-2.14999962666548
21
-0.00126701944809699
31
0
210
0
220
0
230
1
40
0.053469
41
1.57090848073588
42
-2.57689415482246
0
ELLIPSE
5
227
100
AcDbEntity
8
1
62
256
6
ByLayer
370
-1
48
1
60
0
100
AcDbEllipse
10
30.058231
20
-26.828296
30
0
11
1.96849965818185
21
0.00116005943422189
31
0
210
0
220
0
230
1
40
0.053469
41
1.4186669768021
42
2.46586452799867
0
POINT
5
41
100
AcDbEntity
8
80
62
256
6
ByLayer
370
-1
48
1
60
0
100
AcDbPoint
10
0
20
0
30
0
39
0
210
0
220
0
230
1
50
360
0
POINT
5
43
100
AcDbEntity
8
81
62
256
6
ByLayer
370
-1
48
1
60
0
100
AcDbPoint
10
50
20
-27
30
0
39
0
210
0
220
0
230
1
50
360
0
POINT
5
45
100
AcDbEntity
8
2
62
256
6
ByLayer
370
-1
48
1
60
0
100
AcDbPoint
10
50
20
27
30
0
39
0
210
0
220
0
230
1
50
360
0
SPLINE
5
228
100
AcDbEntity
8
SK1
62
256
6
ByLayer
370
-1
48
1
60
0
100
AcDbSpline
70
4
71
2
72
6
73
3
40
0
40
0
40
0
40
1
40
1
40
1
41
1
10
-22.5
20
-13.493394380475
30
0
41
1
10
-12.099999999963
20
-13.7545958471854
30
0
41
1
10
-1.69999999999999
20
-14.0157970602974
30
0
0
SPLINE
5
229
100
AcDbEntity
8
SK1
62
256
6
ByLayer
370
-1
48
1
60
0
100
AcDbSpline
70
4
71
2
72
6
73
3
40
0
40
0
40
0
40
1
40
1
40
1
41
1
10
-1.69999999999999
20
14.0157977997179
30
0
41
1
10
-12.0999999999449
20
13.7545973909208
30
0
41
1
10
-22.5
20
13.4933966698402
30
0
0
SPLINE
5
22A
100
AcDbEntity
8
SK1
62
256
6
ByLayer
370
-1
48
1
60
0
100
AcDbSpline
70
4
71
3
72
13
73
9
40
0
40
0
40
0
40
0
40
0.23945753129759
40
0.368361583423434
40
0.500001014483274
40
0.63164027658283
40
0.76054386300255
40
1
40
1
40
1
40
1
41
1
10
-1.49503997793928
20
13.8251858327438
30
0
41
1
10
-1.52111030874428
20
13.8247841935567
30
0
41
1
10
-1.5588406423667
20
13.830956449625
30
0
41
1
10
-1.60627712752267
20
13.8540002532836
30
0
41
1
10
-1.63886378681673
20
13.8791676243503
30
0
41
1
10
-1.66563592205637
20
13.9104491790265
30
0
41
1
10
-1.69103284110332
20
13.9566683539303
30
0
41
1
10
-1.6990919864528
20
13.9940409390257
30
0
41
1
10
-1.69999999999999
20
14.0200984156386
30
0
0
SPLINE
5
22B
100
AcDbEntity
8
SK1
62
256
6
ByLayer
370
-1
48
1
60
0
100
AcDbSpline
70
4
71
3
72
13
73
9
40
0
40
0
40
0
40
0
40
0.239456137017858
40
0.368359723444941
40
0.49999898554771
40
0.631638416605806
40
0.760542468725189
40
1
40
1
40
1
40
1
41
1
10
-1.69999999999999
20
-14.0200984122732
30
0
41
1
10
-1.69909198645308
20
-13.9940409356568
30
0
41
1
10
-1.69103284110358
20
-13.9566683505561
30
0
41
1
10
-1.66563592205674
20
-13.9104491756451
30
0
41
1
10
-1.63886378681727
20
-13.8791676209635
30
0
41
1
10
-1.6062771275233
20
-13.8540002498915
30
0
41
1
10
-1.5588406423679
20
-13.8309564462263
30
0
41
1
10
-1.52111030874488
20
-13.8247841901529
30
0
41
1
10
-1.49503997793931
20
-13.8251858293361
30
0
0
SPLINE
5
22C
100
AcDbEntity
8
SK1
62
256
6
ByLayer
370
-1
48
1
60
0
100
AcDbSpline
70
4
71
2
72
6
73
3
40
0
40
0
40
0
40
1
40
1
40
1
41
1
10
-22.5
20
13.4970856697526
30
0
41
1
10
-23.2499999989322
20
13.0640911753538
30
0
41
1
10
-24
20
12.6310964932104
30
0
0
SPLINE
5
22D
100
AcDbEntity
8
SK1
62
256
6
ByLayer
370
-1
48
1
60
0
100
AcDbSpline
70
4
71
2
72
6
73
3
40
0
40
0
40
0
40
1
40
1
40
1
41
1
10
-24
20
-12.6310961283886
30
0
41
1
10
-23.2499999989318
20
-13.0640908004416
30
0
41
1
10
-22.5
20
-13.4970852847173
30
0
0
SPLINE
5
22E
100
AcDbEntity
8
SK1
62
256
6
ByLayer
370
-1
48
1
60
0
100
AcDbSpline
70
4
71
2
72
6
73
3
40
0
40
0
40
0
40
1
40
1
40
1
41
1
10
-0.394976888875277
20
13.7403788260786
30
0
41
1
10
-0.945008433407281
20
13.7266599565288
30
0
41
1
10
-1.49503997793931
20
13.7129410868425
30
0
0
SPLINE
5
22F
100
AcDbEntity
8
SK1
62
256
6
ByLayer
370
-1
48
1
60
0
100
AcDbSpline
70
4
71
2
72
6
73
3
40
0
40
0
40
0
40
1
40
1
40
1
41
1
10
-1.49503997793931
20
-13.7129423752897
30
0
41
1
10
-0.945008433407281
20
-13.7266611372792
30
0
41
1
10
-0.394976888875277
20
-13.740379899128
30
0
0
SPLINE
5
230
100
AcDbEntity
8
1
62
256
6
ByLayer
370
-1
48
1
60
0
100
AcDbSpline
70
4
71
3
72
8
73
4
40
0
40
0
40
0
40
0
40
1
40
1
40
1
40
1
41
1
10
39.0984392858455
20
-9.17989227135405
30
0
41
1
10
39.3259363892693
20
-9.32569613266602
30
0
41
1
10
39.5415013573086
20
-9.46535369176462
30
0
41
1
10
39.7483594279742
20
-9.59952107249467
30
0
0
SPLINE
5
231
100
AcDbEntity
8
1
62
256
6
ByLayer
370
-1
48
1
60
0
100
AcDbSpline
70
4
71
3
72
8
73
4
40
0
40
0
40
0
40
0
40
1
40
1
40
1
40
1
41
1
10
21.0651433124845
20
-20.1454517250657
30
0
41
1
10
21.0169583050094
20
-19.9621122648152
30
0
41
1
10
20.968838563163
20
-19.7787535984854
30
0
41
1
10
20.92079238
20
-19.5953859168697
30
0
0
SPLINE
5
232
100
AcDbEntity
8
1
62
256
6
ByLayer
370
-1
48
1
60
0
100
AcDbSpline
70
4
71
3
72
16
73
12
40
0
40
0
40
0
40
0
40
0.114691258188364
40
0.114691258188364
40
0.256006982052491
40
0.256006982052491
40
0.478481509698431
40
0.478481509698431
40
0.904237458570125
40
0.904237458570125
40
1
40
1
40
1
40
1
41
1
10
9.07679491924313
20
-5.85988980456938
30
0
41
1
10
9.09376079941589
20
-5.85988980456938
30
0
41
1
10
9.11093746787589
20
-5.8629683550426
30
0
41
1
10
9.14653890153815
20
-5.87527238052311
30
0
41
1
10
9.1649283126321
20
-5.88582364044447
30
0
41
1
10
9.20694798227834
20
-5.91775860341619
30
0
41
1
10
9.22859635065211
20
-5.94228809980598
30
0
41
1
10
9.28185513895579
20
-6.01773563791645
30
0
41
1
10
9.30640600056208
20
-6.07398601286488
30
0
41
1
10
9.32912053427441
20
-6.14371014971229
30
0
41
1
10
9.33300496589203
20
-6.15668833929709
30
0
41
1
10
9.33660254037846
20
-6.16973001948568
30
0
0
SPLINE
5
233
100
AcDbEntity
8
1
62
256
6
ByLayer
370
-1
48
1
60
0
100
AcDbSpline
70
4
71
3
72
8
73
4
40
0
40
0
40
0
40
0
40
1
40
1
40
1
40
1
41
1
10
22.687709594237
20
-26.291686777001
30
0
41
1
10
22.6270537018302
20
-26.2685965860821
30
0
41
1
10
22.5967781846735
20
-26.2456381730613
30
0
41
1
10
22.5944511216946
20
-26.2228009892392
30
0
0
SPLINE
5
234
100
AcDbEntity
8
1
62
256
6
ByLayer
370
-1
48
1
60
0
100
AcDbSpline
70
4
71
3
72
16
73
12
40
0
40
0
40
0
40
0
40
0.464304267159293
40
0.464304267159293
40
0.647533485141969
40
0.647533485141969
40
0.833383675860506
40
0.833383675860506
40
0.950238074309852
40
0.950238074309852
40
1
40
1
40
1
40
1
41
1
10
6.66339745962156
20
19.0245744101322
30
0
41
1
10
6.68070356543041
20
19.0449201888242
30
0
41
1
10
6.70445583204739
20
19.0647708693882
30
0
41
1
10
6.75332706552712
20
19.0892734034403
30
0
41
1
10
6.76920288341026
20
19.0959253431035
30
0
41
1
10
6.80605435144608
20
19.1078085849622
30
0
41
1
10
6.82759190740043
20
19.1131587398644
30
0
41
1
10
6.86713065155234
20
19.1192406569511
30
0
41
1
10
6.8838647446556
20
19.1209710216544
30
0
41
1
10
6.90829201976607
20
19.1221075563677
30
0
41
1
10
6.91575967688848
20
19.1222825906926
30
0
41
1
10
6.92320508075687
20
19.1222825906926
30
0
0
SPLINE
5
235
100
AcDbEntity
8
1
62
256
6
ByLayer
370
-1
48
1
60
0
100
AcDbSpline
70
4
71
3
72
16
73
12
40
0
40
0
40
0
40
0
40
0.114691258188364
40
0.114691258188364
40
0.256006982052499
40
0.256006982052499
40
0.478481509698429
40
0.478481509698429
40
0.904237458570111
40
0.904237458570111
40
1
40
1
40
1
40
1
41
1
10
6.9232050807569
20
-19.1222825906926
30
0
41
1
10
6.90623920058411
20
-19.1222825906926
30
0
41
1
10
6.88906253212411
20
-19.1213397893258
30
0
41
1
10
6.85346109846185
20
-19.117563257367
30
0
41
1
10
6.83507168736793
20
-19.1143205262483
30
0
41
1
10
6.79305201772169
20
-19.1044641374228
30
0
41
1
10
6.77140364934789
20
-19.0968571256395
30
0
41
1
10
6.71814486104421
20
-19.0732678361841
30
0
41
1
10
6.69359399943792
20
-19.0554522237109
30
0
41
1
10
6.67087946572559
20
-19.0329978954364
30
0
41
1
10
6.66699503410797
20
-19.0288038685174
30
0
41
1
10
6.66339745962154
20
-19.0245744101322
30
0
0
SPLINE
5
236
100
AcDbEntity
8
1
62
256
6
ByLayer
370
-1
48
1
60
0
100
AcDbSpline
70
4
71
3
72
17
73
13
40
0
40
0
40
0
40
0
40
0.156895749588472
40
0.156895749588472
40
0.156895749588472
40
0.381059395871227
40
0.381059395871227
40
0.605110850310146
40
0.605110850310146
40
0.830961206065573
40
0.830961206065573
40
1
40
1
40
1
40
1
41
1
10
20.92079238
20
-19.5953859168697
30
0
41
1
10
20.6102976551918
20
-19.5930956516629
30
0
41
1
10
20.2990119776101
20
-19.5833797213154
30
0
41
1
10
20
20
-19.5658823822857
30
0
41
1
10
19.575887769876
20
-19.5410645287121
30
0
41
1
10
19.1667187206606
20
-19.4997940453568
30
0
41
1
10
18.4460843917369
20
-19.3806129656425
30
0
41
1
10
18.1248248302939
20
-19.3007661107875
30
0
41
1
10
17.6071801605189
20
-19.0999023438915
30
0
41
1
10
17.4049239414974
20
-18.9756807333468
30
0
41
1
10
17.1710292609335
20
-18.7255892956132
30
0
41
1
10
17.1073261130092
20
-18.6061441236934
30
0
41
1
10
17.0803645201175
20
-18.4785397031245
30
0
0
SPLINE
5
237
100
AcDbEntity
8
1
62
256
6
ByLayer
370
-1
48
1
60
0
100
AcDbSpline
70
4
71
3
72
16
73
12
40
0
40
0
40
0
40
0
40
0.464304267159312
40
0.464304267159312
40
0.64753348514198
40
0.64753348514198
40
0.833383675860513
40
0.833383675860513
40
0.950238074309858
40
0.950238074309858
40
1
40
1
40
1
40
1
41
1
10
9.33660254037844
20
-19.0245744101322
30
0
41
1
10
9.31929643456959
20
-19.0449201888242
30
0
41
1
10
9.29554416795261
20
-19.0647708693882
30
0
41
1
10
9.24667293447288
20
-19.0892734034403
30
0
41
1
10
9.23079711658974
20
-19.0959253431035
30
0
41
1
10
9.19394564855392
20
-19.1078085849622
30
0
41
1
10
9.17240809259957
20
-19.1131587398644
30
0
41
1
10
9.13286934844766
20
-19.1192406569511
30
0
41
1
10
9.1161352553444
20
-19.1209710216544
30
0
41
1
10
9.09170798023393
20
-19.1221075563677
30
0
41
1
10
9.08424032311152
20
-19.1222825906926
30
0
41
1
10
9.07679491924313
20
-19.1222825906926
30
0
0
SPLINE
5
238
100
AcDbEntity
8
1
62
256
6
ByLayer
370
-1
48
1
60
0
100
AcDbSpline
70
4
71
3
72
16
73
12
40
0
40
0
40
0
40
0
40
0.46430426715929
40
0.46430426715929
40
0.647533485141967
40
0.647533485141967
40
0.833383675860504
40
0.833383675860504
40
0.950238074309844
40
0.950238074309844
40
1
40
1
40
1
40
1
41
1
10
6.66339745962156
20
-6.16973001948568
30
0
41
1
10
6.68070356543041
20
-6.10699311212741
30
0
41
1
10
6.70445583204739
20
-6.04466199750289
30
0
41
1
10
6.75332706552712
20
-5.96658891111872
30
0
41
1
10
6.76920288341026
20
-5.94525308185362
30
0
41
1
10
6.80605435144608
20
-5.90694983484818
30
0
41
1
10
6.82759190740043
20
-5.88959453036586
30
0
41
1
10
6.86713065155234
20
-5.86981268651903
30
0
41
1
10
6.8838647446556
20
-5.8641686994944
30
0
41
1
10
6.90829201976607
20
-5.86046107106307
30
0
41
1
10
6.91575967688848
20
-5.85988980456935
30
0
41
1
10
6.92320508075687
20
-5.85988980456935
30
0
0
SPLINE
5
239
100
AcDbEntity
8
1
62
256
6
ByLayer
370
-1
48
1
60
0
100
AcDbSpline
70
4
71
3
72
16
73
12
40
0
40
0
40
0
40
0
40
0.464304267159304
40
0.464304267159304
40
0.647533485141974
40
0.647533485141974
40
0.833383675860505
40
0.833383675860505
40
0.950238074309851
40
0.950238074309851
40
1
40
1
40
1
40
1
41
1
10
9.33660254037844
20
6.16973001948568
30
0
41
1
10
9.31929643456959
20
6.10699311212741
30
0
41
1
10
9.29554416795261
20
6.04466199750289
30
0
41
1
10
9.24667293447288
20
5.96658891111872
30
0
41
1
10
9.23079711658974
20
5.94525308185362
30
0
41
1
10
9.19394564855392
20
5.90694983484818
30
0
41
1
10
9.17240809259957
20
5.88959453036583
30
0
41
1
10
9.13286934844766
20
5.86981268651903
30
0
41
1
10
9.1161352553444
20
5.86416869949437
30
0
41
1
10
9.09170798023393
20
5.86046107106307
30
0
41
1
10
9.08424032311152
20
5.85988980456935
30
0
41
1
10
9.07679491924313
20
5.85988980456935
30
0
0
SPLINE
5
23A
100
AcDbEntity
8
1
62
256
6
ByLayer
370
-1
48
1
60
0
100
AcDbSpline
70
4
71
3
72
8
73
4
40
0
40
0
40
0
40
0
40
1
40
1
40
1
40
1
41
1
10
21.0651433124845
20
-20.1454517250657
30
0
41
1
10
21.6037411070052
20
-22.194766109641
30
0
41
1
10
22.1451114551442
20
-24.2433812656635
30
0
41
1
10
22.687709594237
20
-26.291686777001
30
0
0
SPLINE
5
23B
100
AcDbEntity
8
1
62
256
6
ByLayer
370
-1
48
1
60
0
100
AcDbSpline
70
4
71
3
72
16
73
12
40
0
40
0
40
0
40
0
40
0.114691258188362
40
0.114691258188362
40
0.256006982052503
40
0.256006982052503
40
0.47848150969845
40
0.47848150969845
40
0.904237458570186
40
0.904237458570186
40
1
40
1
40
1
40
1
41
1
10
9.07679491924313
20
19.1222825906926
30
0
41
1
10
9.09376079941589
20
19.1222825906926
30
0
41
1
10
9.11093746787589
20
19.1213397893258
30
0
41
1
10
9.14653890153815
20
19.117563257367
30
0
41
1
10
9.1649283126321
20
19.1143205262483
30
0
41
1
10
9.20694798227834
20
19.1044641374228
30
0
41
1
10
9.22859635065211
20
19.0968571256395
30
0
41
1
10
9.28185513895582
20
19.0732678361841
30
0
41
1
10
9.30640600056208
20
19.0554522237109
30
0
41
1
10
9.32912053427441
20
19.0329978954363
30
0
41
1
10
9.33300496589203
20
19.0288038685174
30
0
41
1
10
9.33660254037846
20
19.0245744101322
30
0
0
SPLINE
5
23C
100
AcDbEntity
8
1
62
256
6
ByLayer
370
-1
48
1
60
0
100
AcDbSpline
70
4
71
3
72
16
73
12
40
0
40
0
40
0
40
0
40
0.114691258188368
40
0.114691258188368
40
0.256006982052502
40
0.256006982052502
40
0.47848150969846
40
0.47848150969846
40
0.904237458570168
40
0.904237458570168
40
1
40
1
40
1
40
1
41
1
10
6.9232050807569
20
5.85988980456938
30
0
41
1
10
6.90623920058411
20
5.85988980456938
30
0
41
1
10
6.88906253212411
20
5.8629683550426
30
0
41
1
10
6.85346109846185
20
5.87527238052311
30
0
41
1
10
6.8350716873679
20
5.88582364044447
30
0
41
1
10
6.79305201772166
20
5.91775860341622
30
0
41
1
10
6.77140364934789
20
5.94228809980598
30
0
41
1
10
6.71814486104418
20
6.01773563791645
30
0
41
1
10
6.69359399943792
20
6.07398601286491
30
0
41
1
10
6.67087946572559
20
6.14371014971229
30
0
41
1
10
6.66699503410797
20
6.15668833929709
30
0
41
1
10
6.66339745962154
20
6.16973001948568
30
0
0
SPLINE
5
23D
100
AcDbEntity
8
1
62
256
6
ByLayer
370
-1
48
1
60
0
100
AcDbSpline
70
4
71
3
72
10
73
6
40
0
40
0
40
0
40
0
40
0.5
40
0.5
40
1
40
1
40
1
40
1
41
1
10
17.0803645201175
20
18.4785397031245
30
0
41
1
10
17.1539113924113
20
18.8266239599198
30
0
41
1
10
17.4993800283618
20
19.0970394067695
30
0
41
1
10
18.6908854180512
20
19.4615354225148
30
0
41
1
10
19.5247074838893
20
19.5551126705286
30
0
41
1
10
20.42466620749
20
19.5853124059125
30
0
0
SPLINE
5
23E
100
AcDbEntity
8
SK1
62
256
6
ByLayer
370
-1
48
1
60
0
100
AcDbSpline
70
4
71
3
72
10
73
6
40
0
40
0
40
0
40
0
40
0.5
40
0.5
40
1
40
1
40
1
40
1
41
1
10
-1.69999999999999
20
-2.58372509632821
30
0
41
1
10
-1.83222262461143
20
-1.751855044526
30
0
41
1
10
-1.92871617486691
20
-0.884329181036094
30
0
41
1
10
-1.92842303871006
20
0.888588835776119
30
0
41
1
10
-1.83224326233341
20
1.75172436897285
30
0
41
1
10
-1.69999999999999
20
2.58372503195247
30
0
0
SPLINE
5
23F
100
AcDbEntity
8
SK1
62
256
6
ByLayer
370
-1
48
1
60
0
100
AcDbSpline
70
4
71
3
72
8
73
4
40
0
40
0
40
0
40
0
40
1
40
1
40
1
40
1
41
1
10
-1.49503997793931
20
2.59465115086957
30
0
41
1
10
-1.43729564430089
20
2.94660231507382
30
0
41
1
10
-1.37345704405578
20
3.29127575598179
30
0
41
1
10
-1.30710678118655
20
3.6278161010051
30
0
0
SPLINE
5
240
100
AcDbEntity
8
SK1
62
256
6
ByLayer
370
-1
48
1
60
0
100
AcDbSpline
70
4
71
3
72
30
73
26
40
0
40
0
40
0
40
0
40
0.337353368376273
40
0.337353368376273
40
0.421572476570396
40
0.421572476570396
40
0.437870507614647
40
0.437870507614647
40
0.454360744150349
40
0.454360744150349
40
0.46102437321649
40
0.46102437321649
40
0.467802724987302
40
0.467802724987302
40
0.473791453396888
40
0.473791453396888
40
0.481264268969724
40
0.481264268969724
40
0.494804301393218
40
0.494804301393218
40
0.541069262252274
40
0.541069262252274
40
0.76221802419653
40
0.76221802419653
40
1
40
1
40
1
40
1
41
1
10
-1.69999999999999
20
2.5837250319525
30
0
41
1
10
-1.69946915813009
20
2.45210484593008
30
0
41
1
10
-1.69760670671556
20
2.31884997747196
30
0
41
1
10
-1.67915375522099
20
2.15294187932722
30
0
41
1
10
-1.67485152519237
20
2.11932442567118
30
0
41
1
10
-1.66472347048304
20
2.08095979549279
30
0
41
1
10
-1.66287560510222
20
2.07475454077749
30
0
41
1
10
-1.65846712486041
20
2.06274931231133
30
0
41
1
10
-1.65588139752759
20
2.05680133794195
30
0
41
1
10
-1.65120237663186
20
2.0497680665317
30
0
41
1
10
-1.64969999009787
20
2.04787870491481
30
0
41
1
10
-1.64639510213217
20
2.0447894938039
30
0
41
1
10
-1.64453557847699
20
2.04357912964019
30
0
41
1
10
-1.64096575658939
20
2.04240828386776
30
0
41
1
10
-1.63922229186966
20
2.04230771235822
30
0
41
1
10
-1.63551182442282
20
2.04297037181766
30
0
41
1
10
-1.63353448434609
20
2.04393506875687
30
0
41
1
10
-1.62845259442082
20
2.04750201060256
30
0
41
1
10
-1.62558657915471
20
2.0508033417303
30
0
41
1
10
-1.61425491864986
20
2.06649024761731
30
0
41
1
10
-1.60795428020356
20
2.08189579117942
30
0
41
1
10
-1.57473680217674
20
2.17064161742221
30
0
41
1
10
-1.55852136531561
20
2.25243693059593
30
0
41
1
10
-1.5247433730911
20
2.41950302647342
30
0
41
1
10
-1.50941945205861
20
2.5070083929059
30
0
41
1
10
-1.49503997793928
20
2.59465115086951
30
0
0
SPLINE
5
241
100
AcDbEntity
8
SK1
62
256
6
ByLayer
370
-1
48
1
60
0
100
AcDbSpline
70
4
71
3
72
114
73
110
40
0
40
0
40
0
40
0
40
0.0074724364175038
40
0.0154968089271374
40
0.0235211814367709
40
0.0315455539464044
40
0.0395699264560379
40
0.0475942989656715
40
0.0636430439849385
40
0.0796917890042056
40
0.0957405340234727
40
0.103764906533106
40
0.11178927904274
40
0.119813651552373
40
0.127838024062007
40
0.143886769081274
40
0.151911141590907
40
0.159935514100541
40
0.167959886610174
40
0.175984259119808
40
0.184008631629442
40
0.192033004139075
40
0.208081749158342
40
0.216106121667976
40
0.224130494177609
40
0.232154866687243
40
0.240179239196876
40
0.24820361170651
40
0.256227984216143
40
0.264252356725777
40
0.27227672923541
40
0.288325474254677
40
0.296349846764311
40
0.304374219273944
40
0.320422964293211
40
0.336471709312479
40
0.344496081822112
40
0.352520454331746
40
0.360544826841379
40
0.368569199351013
40
0.376593571860646
40
0.38461794437028
40
0.388630130625096
40
0.392642316879913
40
0.400666689389547
40
0.40869106189918
40
0.416715434408814
40
0.432764179428081
40
0.440788551937714
40
0.448812924447348
40
0.456837296956982
40
0.464861669466615
40
0.472886041976249
40
0.480910414485882
40
0.488934786995516
40
0.496959159505149
40
0.504983532014783
40
0.513007904524416
40
0.529056649543683
40
0.537081022053317
40
0.54510539456295
40
0.549117580817767
40
0.553129767072584
40
0.561154139582217
40
0.577202884601484
40
0.585227257111118
40
0.593251629620752
40
0.609300374640019
40
0.625349119659286
40
0.633373492168919
40
0.641397864678553
40
0.65744660969782
40
0.665470982207453
40
0.673495354717087
40
0.68151972722672
40
0.689544099736354
40
0.697568472245987
40
0.705592844755621
40
0.721641589774888
40
0.737690334794155
40
0.745714707303789
40
0.753739079813422
40
0.761763452323056
40
0.769787824832689
40
0.785836569851956
40
0.801885314871223
40
0.81793405989049
40
0.833982804909757
40
0.842007177419391
40
0.850031549929024
40
0.858055922438658
40
0.866080294948292
40
0.874104667457925
40
0.882129039967558
40
0.890153412477192
40
0.898177784986826
40
0.906202157496459
40
0.914226530006093
40
0.922250902515726
40
0.93027527502536
40
0.938299647534993
40
0.946324020044627
40
0.95434839255426
40
0.962372765063894
40
0.970397137573527
40
0.978421510083161
40
0.986445882592794
40
0.994470255102428
40
1
40
1
40
1
40
1
41
1
10
-1.69999999999999
20
-14.0157680957746
30
0
41
1
10
-1.70000000000002
20
-14.0144574461853
30
0
41
1
10
-1.69999999999999
20
-14.0111300278064
30
0
41
1
10
-1.69999999999999
20
-14.0041925984504
30
0
41
1
10
-1.69999999999999
20
-13.9951252442004
30
0
41
1
10
-1.69999999999999
20
-13.9841239086368
30
0
41
1
10
-1.69999999999999
20
-13.9712195253815
30
0
41
1
10
-1.69999999999999
20
-13.9515178138587
30
0
41
1
10
-1.69999999999999
20
-13.9222750232465
30
0
41
1
10
-1.69999999999999
20
-13.8800204120324
30
0
41
1
10
-1.69999999999999
20
-13.838998019961
30
0
41
1
10
-1.69999999999999
20
-13.8027899045868
30
0
41
1
10
-1.69999999999999
20
-13.773955994413
30
0
41
1
10
-1.69999999999999
20
-13.7434660879001
30
0
41
1
10
-1.69999999999999
20
-13.7006353174901
30
0
41
1
10
-1.69999999999999
20
-13.6545611373555
30
0
41
1
10
-1.69999999999999
20
-13.6053355893185
30
0
41
1
10
-1.69999999999999
20
-13.5668499361124
30
0
41
1
10
-1.69999999999999
20
-13.5268172028035
30
0
41
1
10
-1.69999999999999
20
-13.485252935173
30
0
41
1
10
-1.69999999999999
20
-13.4421723218484
30
0
41
1
10
-1.69999999999999
20
-13.3827344162836
30
0
41
1
10
-1.69999999999999
20
-13.3203101073726
30
0
41
1
10
-1.69999999999999
20
-13.254979960848
30
0
41
1
10
-1.69999999999999
20
-13.2045321061977
30
0
41
1
10
-1.69999999999999
20
-13.1526505121852
30
0
41
1
10
-1.69999999999999
20
-13.099347414251
30
0
41
1
10
-1.69999999999999
20
-13.0446338149516
30
0
41
1
10
-1.69999999999999
20
-12.9885220902628
30
0
41
1
10
-1.69999999999999
20
-12.9310230723471
30
0
41
1
10
-1.69999999999999
20
-12.8525264142953
30
0
41
1
10
-1.69999999999999
20
-12.7712834714132
30
0
41
1
10
-1.69999999999999
20
-12.6873624197502
30
0
41
1
10
-1.69999999999999
20
-12.6016598943421
30
0
41
1
10
-1.69999999999999
20
-12.4912006491746
30
0
41
1
10
-1.69999999999999
20
-12.3763763558488
30
0
41
1
10
-1.69999999999999
20
-12.2819406900945
30
0
41
1
10
-1.69999999999999
20
-12.209824815618
30
0
41
1
10
-1.69999999999999
20
-12.1364316894724
30
0
41
1
10
-1.69999999999999
20
-12.0617686582407
30
0
41
1
10
-1.69999999999999
20
-11.9858436758677
30
0
41
1
10
-1.69999999999999
20
-11.9215236068653
30
0
41
1
10
-1.69999999999999
20
-11.8694488081267
30
0
41
1
10
-1.69999999999999
20
-11.8169591426362
30
0
41
1
10
-1.69999999999999
20
-11.7505641289662
30
0
41
1
10
-1.69999999999999
20
-11.6696587742526
30
0
41
1
10
-1.69999999999999
20
-11.5601529159528
30
0
41
1
10
-1.69999999999999
20
-11.448182891669
30
0
41
1
10
-1.69999999999999
20
-11.3338110499831
30
0
41
1
10
-1.69999999999999
20
-11.2468221792499
30
0
41
1
10
-1.69999999999999
20
-11.1586337603462
30
0
41
1
10
-1.69999999999999
20
-11.0692509372408
30
0
41
1
10
-1.69999999999999
20
-10.9786794422307
30
0
41
1
10
-1.69999999999999
20
-10.8869237783616
30
0
41
1
10
-1.69999999999999
20
-10.7939888359847
30
0
41
1
10
-1.69999999999999
20
-10.6998796425436
30
0
41
1
10
-1.69999999999999
20
-10.6046008465563
30
0
41
1
10
-1.69999999999999
20
-10.4760157679139
30
0
41
1
10
-1.69999999999999
20
-10.3450861470912
30
0
41
1
10
-1.69999999999999
20
-10.2118742799613
30
0
41
1
10
-1.69999999999999
20
-10.1276505623382
30
0
41
1
10
-1.69999999999999
20
-10.0597065749413
30
0
41
1
10
-1.69999999999999
20
-9.9913814320609
30
0
41
1
10
-1.69999999999999
20
-9.87081043657869
30
0
41
1
10
-1.69999999999999
20
-9.73071862052217
30
0
41
1
10
-1.69999999999999
20
-9.58839008121353
30
0
41
1
10
-1.69999999999999
20
-9.44455854729449
30
0
41
1
10
-1.69999999999999
20
-9.26193698423123
30
0
41
1
10
-1.69999999999999
20
-9.07558727703642
30
0
41
1
10
-1.69999999999999
20
-8.92429760284432
30
0
41
1
10
-1.69999999999999
20
-8.77152766795061
30
0
41
1
10
-1.69999999999999
20
-8.61651162008161
30
0
41
1
10
-1.69999999999999
20
-8.45931945344486
30
0
41
1
10
-1.69999999999999
20
-8.34031606829598
30
0
41
1
10
-1.69999999999999
20
-8.22021379775831
30
0
41
1
10
-1.69999999999999
20
-8.09901464495698
30
0
41
1
10
-1.69999999999999
20
-7.9767200242907
30
0
41
1
10
-1.69999999999999
20
-7.81221411547432
30
0
41
1
10
-1.69999999999999
20
-7.60382755625838
30
0
41
1
10
-1.69999999999999
20
-7.39181445781463
30
0
41
1
10
-1.69999999999999
20
-7.22005470774221
30
0
41
1
10
-1.69999999999999
20
-7.09014226669851
30
0
41
1
10
-1.69999999999999
20
-6.95914717066265
30
0
41
1
10
-1.69999999999999
20
-6.7830583657493
30
0
41
1
10
-1.69999999999999
20
-6.56021848903171
30
0
41
1
10
-1.69999999999999
20
-6.28851700104784
30
0
41
1
10
-1.69999999999999
20
-6.01251447744062
30
0
41
1
10
-1.69999999999999
20
-5.77892152059965
30
0
41
1
10
-1.69999999999999
20
-5.58993216915877
30
0
41
1
10
-1.69999999999999
20
-5.44710899667646
30
0
41
1
10
-1.69999999999999
20
-5.30321729486519
30
0
41
1
10
-1.69999999999999
20
-5.15825857839869
30
0
41
1
10
-1.69999999999999
20
-5.01223405348068
30
0
41
1
10
-1.69999999999999
20
-4.86514556778678
30
0
41
1
10
-1.69999999999999
20
-4.71699468615466
30
0
41
1
10
-1.69999999999999
20
-4.56778337246482
30
0
41
1
10
-1.69999999999999
20
-4.41751381174834
30
0
41
1
10
-1.69999999999999
20
-4.26618872973953
30
0
41
1
10
-1.69999999999999
20
-4.11381092681606
30
0
41
1
10
-1.69999999999999
20
-3.96038358832212
30
0
41
1
10
-1.69999999999999
20
-3.80591077742719
30
0
41
1
10
-1.69999999999999
20
-3.65039714326571
30
0
41
1
10
-1.69999999999999
20
-3.49384789900154
30
0
41
1
10
-1.69999999999999
20
-3.33626943234705
30
0
41
1
10
-1.69999999999999
20
-3.17766893265431
30
0
41
1
10
-1.69999999999999
20
-3.01805527431182
30
0
41
1
10
-1.69999999999999
20
-2.85743846779499
30
0
41
1
10
-1.69999999999999
20
-2.71257747642741
30
0
41
1
10
-1.69999999999999
20
-2.62111404232408
30
0
41
1
10
-1.69999999999999
20
-2.58372509632827
30
0
0
SPLINE
5
242
100
AcDbEntity
8
SK1
62
256
6
ByLayer
370
-1
48
1
60
0
100
AcDbSpline
70
4
71
3
72
8
73
4
40
0
40
0
40
0
40
0
40
1
40
1
40
1
40
1
41
1
10
-1.30710678118655
20
-3.62781725664615
30
0
41
1
10
-1.37345758266253
20
-3.29127686428785
30
0
41
1
10
-1.4372955614198
20
-2.946602671997
30
0
41
1
10
-1.49503997793931
20
-2.59465115838313
30
0
0
SPLINE
5
243
100
AcDbEntity
8
SK1
62
256
6
ByLayer
370
-1
48
1
60
0
100
AcDbSpline
70
4
71
3
72
22
73
18
40
0
40
0
40
0
40
0
40
0.0262442859026881
40
0.0262442859026881
40
0.0530261157854851
40
0.0530261157854851
40
0.0713559655737796
40
0.0713559655737796
40
0.089587401263909
40
0.089587401263909
40
0.119482247898519
40
0.119482247898519
40
0.178618886842945
40
0.178618886842945
40
0.388022338076953
40
0.388022338076953
40
1
40
1
40
1
40
1
41
1
10
-0.394976888875277
20
-5.0009244140283
30
0
41
1
10
-0.389542958903149
20
-4.99654803778401
30
0
41
1
10
-0.383617633691586
20
-4.99263335383438
30
0
41
1
10
-0.370682657201087
20
-4.98677476419829
30
0
41
1
10
-0.363425194676552
20
-4.98483424058901
30
0
41
1
10
-0.350979181144169
20
-4.98462903203949
30
0
41
1
10
-0.345738268039327
20
-4.98542011278013
30
0
41
1
10
-0.335836240990062
20
-4.98861553627458
30
0
41
1
10
-0.331061456711979
20
-4.99102841332402
30
0
41
1
10
-0.319537139874143
20
-4.9986715699325
30
0
41
1
10
-0.313226756018622
20
-5.00478758784652
30
0
41
1
10
-0.29682625826149
20
-5.02421063341325
30
0
41
1
10
-0.288455270980251
20
-5.03906576138257
30
0
41
1
10
-0.256353055935392
20
-5.10678482490906
30
0
41
1
10
-0.244000373144985
20
-5.16381228581221
30
0
41
1
10
-0.204596889637315
20
-5.38213882730372
30
0
41
1
10
-0.200000000000046
20
-5.54465158381666
30
0
41
1
10
-0.200000000000046
20
-5.70317614351262
30
0
0
SPLINE
5
244
100
AcDbEntity
8
SK1
62
256
6
ByLayer
370
-1
48
1
60
0
100
AcDbSpline
70
4
71
3
72
24
73
20
40
0
40
0
40
0
40
0
40
0.470757791634908
40
0.470757791634908
40
0.661826126045254
40
0.661826126045254
40
0.85568916651581
40
0.85568916651581
40
0.884460546127643
40
0.884460546127643
40
0.91360691814161
40
0.91360691814161
40
0.932763100125268
40
0.932763100125268
40
0.95203909678233
40
0.95203909678233
40
0.974618894615272
40
0.974618894615272
40
1
40
1
40
1
40
1
41
1
10
-0.199999999999989
20
5.70317605472911
30
0
41
1
10
-0.199999999999989
20
5.58107998739831
30
0
41
1
10
-0.203895983734896
20
5.45705658909691
30
0
41
1
10
-0.223509916035709
20
5.28128624620587
30
0
41
1
10
-0.23086916609185
20
5.23019697507434
30
0
41
1
10
-0.252992963272021
20
5.12819212434212
30
0
41
1
10
-0.266168518183207
20
5.0748758166919
30
0
41
1
10
-0.299311339940942
20
5.02202983998879
30
0
41
1
10
-0.304166370278011
20
5.01525404855027
30
0
41
1
10
-0.315232060467963
20
5.00279573504582
30
0
41
1
10
-0.321587352348587
20
4.99699852204864
30
0
41
1
10
-0.333432884234497
20
4.98975078853741
30
0
41
1
10
-0.33858625385443
20
4.98746585289803
30
0
41
1
10
-0.3491574393544
20
4.98479989040243
30
0
41
1
10
-0.354703931885922
20
4.98441392730476
30
0
41
1
10
-0.366193082216228
20
4.98556317954746
30
0
41
1
10
-0.372213152675158
20
4.98741181161262
30
0
41
1
10
-0.383950186909431
20
4.99285513665984
30
0
41
1
10
-0.3896944310344
20
4.99667072159761
30
0
41
1
10
-0.394976888882155
20
5.00092508225598
30
0
0
SPLINE
5
245
100
AcDbEntity
8
SK1
62
256
6
ByLayer
370
-1
48
1
60
0
100
AcDbSpline
70
4
71
3
72
119
73
115
40
0
40
0
40
0
40
0
40
0.0017654123211486
40
0.0096870351192881
40
0.0176086579174275
40
0.025530280715567
40
0.0334519035137065
40
0.041373526311846
40
0.0492951491099854
40
0.0572167719081249
40
0.0651383947062644
40
0.0730600175044039
40
0.0809816403025433
40
0.0889032631006828
40
0.0968248858988223
40
0.104746508696962
40
0.112668131495101
40
0.120589754293241
40
0.12851137709138
40
0.13643299988952
40
0.144354622687659
40
0.152276245485799
40
0.160197868283938
40
0.176041113880217
40
0.191884359476496
40
0.207727605072775
40
0.223570850669054
40
0.231492473467193
40
0.239414096265333
40
0.247335719063472
40
0.255257341861612
40
0.271100587457891
40
0.28694383305417
40
0.294865455852309
40
0.302787078650449
40
0.310708701448588
40
0.318630324246728
40
0.326551947044867
40
0.334473569843007
40
0.350316815439286
40
0.358238438237425
40
0.366160061035564
40
0.382003306631844
40
0.397846552228122
40
0.405768175026262
40
0.413689797824401
40
0.42953304342068
40
0.43745466621882
40
0.44141547761789
40
0.445376289016959
40
0.453297911815099
40
0.461219534613238
40
0.477062780209517
40
0.484984403007657
40
0.492906025805796
40
0.500827648603936
40
0.508749271402075
40
0.516670894200215
40
0.524592516998354
40
0.532514139796494
40
0.540435762594633
40
0.548357385392772
40
0.556279008190912
40
0.572122253787191
40
0.58004387658533
40
0.58796549938347
40
0.595887122181609
40
0.599847933580679
40
0.603808744979749
40
0.611730367777888
40
0.619651990576028
40
0.627573613374167
40
0.635495236172307
40
0.643416858970446
40
0.651338481768586
40
0.667181727364865
40
0.683024972961144
40
0.690946595759283
40
0.698868218557423
40
0.714711464153702
40
0.722633086951841
40
0.73055470974998
40
0.73847633254812
40
0.746397955346259
40
0.754319578144399
40
0.762241200942538
40
0.770162823740678
40
0.778084446538817
40
0.793927692135096
40
0.801849314933236
40
0.809770937731375
40
0.817692560529515
40
0.825614183327654
40
0.833535806125794
40
0.841457428923933
40
0.857300674520212
40
0.865222297318352
40
0.873143920116491
40
0.881065542914631
40
0.88898716571277
40
0.904830411309049
40
0.912752034107188
40
0.920673656905328
40
0.928595279703467
40
0.936516902501607
40
0.944438525299746
40
0.952360148097886
40
0.960281770896025
40
0.968203393694165
40
0.976125016492304
40
0.984046639290444
40
0.991968262088583
40
0.999889884886723
40
1
40
1
40
1
40
1
41
1
10
-1.49503997793931
20
2.59465115086957
30
0
41
1
10
-1.49503997793931
20
2.606473243442
30
0
41
1
10
-1.49503997793931
20
2.67130382016646
30
0
41
1
10
-1.49503997793931
20
2.78881794693001
30
0
41
1
10
-1.49503997793931
20
2.94652921585708
30
0
41
1
10
-1.49503997793931
20
3.10333581737226
30
0
41
1
10
-1.49503997793931
20
3.25922160409144
30
0
41
1
10
-1.49503997793931
20
3.4141725129254
30
0
41
1
10
-1.49503997793931
20
3.56817684914566
30
0
41
1
10
-1.49503997793931
20
3.72122348266291
30
0
41
1
10
-1.49503997793931
20
3.87330241838259
30
0
41
1
10
-1.49503997793931
20
4.02440435063471
30
0
41
1
10
-1.49503997793931
20
4.17452257114442
30
0
41
1
10
-1.49503997793931
20
4.32365075555242
30
0
41
1
10
-1.49503997793931
20
4.47178250674139
30
0
41
1
10
-1.49503997793931
20
4.61891187892093
30
0
41
1
10
-1.49503997793931
20
4.7650335666859
30
0
41
1
10
-1.49503997793931
20
4.91014320448997
30
0
41
1
10
-1.49503997793931
20
5.05423700692032
30
0
41
1
10
-1.49503997793931
20
5.19731095699922
30
0
41
1
10
-1.49503997793931
20
5.33936160781602
30
0
41
1
10
-1.49503997793931
20
5.48038543010182
30
0
41
1
10
-1.49503997793931
20
5.66717892451575
30
0
41
1
10
-1.49503997793931
20
5.89779786635279
30
0
41
1
10
-1.49503997793931
20
6.17053537924178
30
0
41
1
10
-1.49503997793931
20
6.43910150489376
30
0
41
1
10
-1.49503997793931
20
6.65929861735816
30
0
41
1
10
-1.49503997793931
20
6.83355374310952
30
0
41
1
10
-1.49503997793931
20
6.96311018885424
30
0
41
1
10
-1.49503997793931
20
7.09160988853208
30
0
41
1
10
-1.49503997793931
20
7.26163684175143
30
0
41
1
10
-1.49503997793931
20
7.47128768043942
30
0
41
1
10
-1.49503997793931
20
7.67738590051292
30
0
41
1
10
-1.49503997793931
20
7.84029855153605
30
0
41
1
10
-1.49503997793931
20
7.96134018717205
30
0
41
1
10
-1.49503997793931
20
8.08130644558901
30
0
41
1
10
-1.49503997793931
20
8.2001957134178
30
0
41
1
10
-1.49503997793931
20
8.31800484031689
30
0
41
1
10
-1.49503997793931
20
8.47372856948019
30
0
41
1
10
-1.49503997793931
20
8.62702161678089
30
0
41
1
10
-1.49503997793931
20
8.7783873974316
30
0
41
1
10
-1.49503997793931
20
8.92829538452324
30
0
41
1
10
-1.49503997793931
20
9.11275364912453
30
0
41
1
10
-1.49503997793931
20
9.2935360539519
30
0
41
1
10
-1.49503997793931
20
9.43608247629777
30
0
41
1
10
-1.49503997793931
20
9.57714512355727
30
0
41
1
10
-1.49503997793931
20
9.71574945872365
30
0
41
1
10
-1.49503997793931
20
9.835227886979
30
0
41
1
10
-1.49503997793931
20
9.90295237623948
30
0
41
1
10
-1.49503997793931
20
9.97030028641953
30
0
41
1
10
-1.49503997793931
20
10.0536983203575
30
0
41
1
10
-1.49503997793931
20
10.1857467801784
30
0
41
1
10
-1.49503997793931
20
10.3153089526253
30
0
41
1
10
-1.49503997793931
20
10.4427777956644
30
0
41
1
10
-1.49503997793931
20
10.537175897834
30
0
41
1
10
-1.49503997793931
20
10.630416702033
30
0
41
1
10
-1.49503997793931
20
10.7224950525573
30
0
41
1
10
-1.49503997793931
20
10.8134058114344
30
0
41
1
10
-1.49503997793931
20
10.9031442186804
30
0
41
1
10
-1.49503997793931
20
10.9917054227684
30
0
41
1
10
-1.49503997793931
20
11.0790834618892
30
0
41
1
10
-1.49503997793931
20
11.165273297363
30
0
41
1
10
-1.49503997793931
20
11.2786601205037
30
0
41
1
10
-1.49503997793931
20
11.3894729046301
30
0
41
1
10
-1.49503997793931
20
11.4980349156059
30
0
41
1
10
-1.49503997793931
20
11.5781957427673
30
0
41
1
10
-1.49503997793931
20
11.6439487843731
30
0
41
1
10
-1.49503997793931
20
11.6959849306732
30
0
41
1
10
-1.49503997793931
20
11.747609354201
30
0
41
1
10
-1.49503997793931
20
11.8113057197552
30
0
41
1
10
-1.49503997793931
20
11.886528664654
30
0
41
1
10
-1.49503997793931
20
11.960500101414
30
0
41
1
10
-1.49503997793931
20
12.0332119519516
30
0
41
1
10
-1.49503997793931
20
12.1046570427268
30
0
41
1
10
-1.49503997793931
20
12.1982669205398
30
0
41
1
10
-1.49503997793931
20
12.3119621581916
30
0
41
1
10
-1.49503997793931
20
12.4213295969168
30
0
41
1
10
-1.49503997793931
20
12.5062717787185
30
0
41
1
10
-1.49503997793931
20
12.5894449263383
30
0
41
1
10
-1.49503997793931
20
12.6698142967672
30
0
41
1
10
-1.49503997793931
20
12.7476032540011
30
0
41
1
10
-1.49503997793931
20
12.8045464232669
30
0
41
1
10
-1.49503997793931
20
12.8601132308426
30
0
41
1
10
-1.49503997793931
20
12.9142926213842
30
0
41
1
10
-1.49503997793931
20
12.9670724454163
30
0
41
1
10
-1.49503997793931
20
13.0184419731185
30
0
41
1
10
-1.49503997793931
20
13.0683888234861
30
0
41
1
10
-1.49503997793931
20
13.133106637017
30
0
41
1
10
-1.49503997793931
20
13.1948224412614
30
0
41
1
10
-1.49503997793931
20
13.2536925631392
30
0
41
1
10
-1.49503997793931
20
13.296330722945
30
0
41
1
10
-1.49503997793931
20
13.3374647797226
30
0
41
1
10
-1.49503997793931
20
13.3770799229021
30
0
41
1
10
-1.49503997793931
20
13.4151607649325
30
0
41
1
10
-1.49503997793931
20
13.4638962511352
30
0
41
1
10
-1.49503997793931
20
13.5094130161235
30
0
41
1
10
-1.49503997793931
20
13.551806168738
30
0
41
1
10
-1.49503997793931
20
13.5819601013665
30
0
41
1
10
-1.49503997793931
20
13.6104729213425
30
0
41
1
10
-1.49503997793931
20
13.646298505966
30
0
41
1
10
-1.49503997793931
20
13.6786965897716
30
0
41
1
10
-1.49503997793931
20
13.7077055842542
30
0
41
1
10
-1.49503997793931
20
13.7276983600542
30
0
41
1
10
-1.49503997793931
20
13.7459180935577
30
0
41
1
10
-1.49503997793931
20
13.7623389110759
30
0
41
1
10
-1.49503997793931
20
13.7769347594832
30
0
41
1
10
-1.49503997793931
20
13.7896781016746
30
0
41
1
10
-1.49503997793931
20
13.800539960484
30
0
41
1
10
-1.49503997793931
20
13.8094907530557
30
0
41
1
10
-1.49503997793931
20
13.8164987457743
30
0
41
1
10
-1.49503997793931
20
13.821531562835
30
0
41
1
10
-1.49503997793931
20
13.8245545856003
30
0
41
1
10
-1.49503997793931
20
13.8252109204962
30
0
41
1
10
-1.49503997793931
20
13.8251847301353
30
0
41
1
10
-1.49503997793931
20
13.8251837300353
30
0
0
SPLINE
5
246
100
AcDbEntity
8
SK1
62
256
6
ByLayer
370
-1
48
1
60
0
100
AcDbSpline
70
4
71
3
72
22
73
18
40
0
40
0
40
0
40
0
40
0.0673639456886257
40
0.0673639456886257
40
0.136107657970654
40
0.136107657970654
40
0.183156971213638
40
0.183156971213638
40
0.229953669277197
40
0.229953669277197
40
0.306688394474774
40
0.306688394474774
40
0.458481492303285
40
0.458481492303285
40
0.995983340695515
40
0.995983340695515
40
1
40
1
40
1
40
1
41
1
10
-0.394976888875306
20
13.8446019297682
30
0
41
1
10
-0.389542940031561
20
13.8449158599001
30
0
41
1
10
-0.383617593481006
20
13.8454439659091
30
0
41
1
10
-0.370682577094897
20
13.8471856765741
30
0
41
1
10
-0.363425095790518
20
13.8484584409772
30
0
41
1
10
-0.350979043087193
20
13.8513238322133
30
0
41
1
10
-0.345738104843406
20
13.8527220431424
30
0
41
1
10
-0.335836036111374
20
13.8557300394867
30
0
41
1
10
-0.331061234651429
20
13.8573680363077
30
0
41
1
10
-0.319536857691617
20
13.8617043765564
30
0
41
1
10
-0.313226439154875
20
13.8644842406524
30
0
41
1
10
-0.296825865103983
20
13.8724174982475
30
0
41
1
10
-0.288454852011284
20
13.8774557840676
30
0
41
1
10
-0.256352537857253
20
13.8987262995108
30
0
41
1
10
-0.243999907013659
20
13.9124642192994
30
0
41
1
10
-0.233867583717569
20
13.9248285652553
30
0
41
1
10
-0.233792707073547
20
13.9249200593446
30
0
41
1
10
-0.233717991912812
20
13.9250114791248
30
0
0
SPLINE
5
247
100
AcDbEntity
8
SK1
62
256
6
ByLayer
370
-1
48
1
60
0
100
AcDbSpline
70
4
71
3
72
22
73
18
40
0
40
0
40
0
40
0
40
0.0408146055975421
40
0.0408146055975421
40
0.0823243808208714
40
0.0823243808208714
40
0.113722137960843
40
0.113722137960843
40
0.144934004837801
40
0.144934004837801
40
0.197663645148653
40
0.197663645148653
40
0.33040493622216
40
0.33040493622216
40
0.796191409884692
40
0.796191409884692
40
1
40
1
40
1
40
1
41
1
10
-0.394976888875306
20
5.00092508226666
30
0
41
1
10
-0.415530107853925
20
5.01747813555136
30
0
41
1
10
-0.438024560131566
20
5.03261131985604
30
0
41
1
10
-0.487324802537927
20
5.05682200266617
30
0
41
1
10
-0.514951385379703
20
5.065973715838
30
0
41
1
10
-0.565001076851473
20
5.07238571210249
30
0
41
1
10
-0.587551462055302
20
5.07198375916977
30
0
41
1
10
-0.630654498772856
20
5.06497384681828
30
0
41
1
10
-0.651690830573216
20
5.05839846240309
30
0
41
1
10
-0.704063404944179
20
5.0354696203506
30
0
41
1
10
-0.733646054998758
20
5.01537181535585
30
0
41
1
10
-0.825717517678271
20
4.93804001611764
30
0
41
1
10
-0.875568215521128
20
4.86927174197922
30
0
41
1
10
-1.06893868726922
20
4.55513362670803
30
0
41
1
10
-1.15213866111816
20
4.27852588598478
30
0
41
1
10
-1.25478905452405
20
3.87761185644086
30
0
41
1
10
-1.28234760083203
20
3.75339907142145
30
0
41
1
10
-1.30710678118763
20
3.62781610099955
30
0
0
SPLINE
5
248
100
AcDbEntity
8
SK1
62
256
6
ByLayer
370
-1
48
1
60
0
100
AcDbSpline
70
4
71
3
72
100
73
96
40
0
40
0
40
0
40
0
40
0.0043783247532282
40
0.0136712309453665
40
0.0229641371375048
40
0.0322570433296431
40
0.0415499495217814
40
0.0601357619060581
40
0.0787215742903348
40
0.0973073866746114
40
0.115893199058888
40
0.125186105251026
40
0.134479011443165
40
0.143771917635303
40
0.153064823827441
40
0.171650636211718
40
0.190236448595995
40
0.199529354788133
40
0.208822260980271
40
0.21811516717241
40
0.227408073364548
40
0.236700979556686
40
0.245993885748825
40
0.264579698133101
40
0.27387260432524
40
0.283165510517378
40
0.301751322901655
40
0.320337135285931
40
0.32963004147807
40
0.338922947670208
40
0.357508760054485
40
0.366801666246623
40
0.371448119342692
40
0.376094572438761
40
0.385387478630899
40
0.394680384823038
40
0.413266197207314
40
0.422559103399453
40
0.431852009591591
40
0.441144915783729
40
0.450437821975868
40
0.459730728168006
40
0.469023634360144
40
0.478316540552283
40
0.487609446744421
40
0.496902352936559
40
0.506195259128698
40
0.524781071512974
40
0.534073977705113
40
0.543366883897251
40
0.552659790089389
40
0.557306243185458
40
0.561952696281528
40
0.571245602473666
40
0.580538508665804
40
0.589831414857943
40
0.599124321050081
40
0.608417227242219
40
0.617710133434358
40
0.636295945818634
40
0.654881758202911
40
0.664174664395049
40
0.673467570587188
40
0.692053382971464
40
0.701346289163602
40
0.710639195355741
40
0.719932101547879
40
0.729225007740017
40
0.738517913932156
40
0.747810820124294
40
0.757103726316433
40
0.766396632508571
40
0.784982444892847
40
0.794275351084986
40
0.803568257277124
40
0.812861163469262
40
0.822154069661401
40
0.831446975853539
40
0.840739882045677
40
0.859325694429954
40
0.868618600622092
40
0.877911506814231
40
0.887204413006369
40
0.896497319198507
40
0.915083131582784
40
0.924376037774922
40
0.933668943967061
40
0.942961850159199
40
0.952254756351337
40
0.961547662543476
40
0.970840568735614
40
0.980133474927752
40
0.98942638111989
40
0.998719287312029
40
1
40
1
40
1
40
1
41
1
10
-0.394976888875277
20
5.00092508225416
30
0
41
1
10
-0.394976888875277
20
5.02359314607176
30
0
41
1
10
-0.394976888875277
20
5.09425535366776
30
0
41
1
10
-0.394976888875277
20
5.21232773830431
30
0
41
1
10
-0.394976888875277
20
5.35463943777347
30
0
41
1
10
-0.394976888875277
20
5.49591839522026
30
0
41
1
10
-0.394976888875277
20
5.68302324398948
30
0
41
1
10
-0.394976888875277
20
5.91406388300979
30
0
41
1
10
-0.394976888875277
20
6.18726435105106
30
0
41
1
10
-0.394976888875277
20
6.45627504712579
30
0
41
1
10
-0.394976888875277
20
6.6768468885183
30
0
41
1
10
-0.394976888875277
20
6.85136201549099
30
0
41
1
10
-0.394976888875277
20
6.98112245032084
30
0
41
1
10
-0.394976888875277
20
7.10982246715957
30
0
41
1
10
-0.394976888875277
20
7.28009512097313
30
0
41
1
10
-0.394976888875277
20
7.49008091096033
30
0
41
1
10
-0.394976888875277
20
7.69650359935568
30
0
41
1
10
-0.394976888875277
20
7.85964216476054
30
0
41
1
10
-0.394976888875277
20
7.98086146605701
30
0
41
1
10
-0.394976888875277
20
8.10100253994159
30
0
41
1
10
-0.394976888875277
20
8.22006380191277
30
0
41
1
10
-0.394976888875277
20
8.3380422654499
30
0
41
1
10
-0.394976888875277
20
8.49397420958985
30
0
41
1
10
-0.394976888875277
20
8.64751156797169
30
0
41
1
10
-0.394976888875277
20
8.79907644696402
30
0
41
1
10
-0.394976888875277
20
8.94918034619519
30
0
41
1
10
-0.394976888875277
20
9.13390680482667
30
0
41
1
10
-0.394976888875277
20
9.31494999082747
30
0
41
1
10
-0.394976888875277
20
9.45767863215664
30
0
41
1
10
-0.394976888875277
20
9.59892077296985
30
0
41
1
10
-0.394976888875277
20
9.73773602301958
30
0
41
1
10
-0.394976888875277
20
9.85736937045593
30
0
41
1
10
-0.394976888875277
20
9.92517902838179
30
0
41
1
10
-0.394976888875277
20
9.99261145812801
30
0
41
1
10
-0.394976888875277
20
10.0761265678462
30
0
41
1
10
-0.394976888875277
20
10.2083399899529
30
0
41
1
10
-0.394976888875277
20
10.338096057249
30
0
41
1
10
-0.394976888875277
20
10.4657231753345
30
0
41
1
10
-0.394976888875277
20
10.5602461538978
30
0
41
1
10
-0.394976888875277
20
10.6536100894112
30
0
41
1
10
-0.394976888875277
20
10.7458098983122
30
0
41
1
10
-0.394976888875277
20
10.8368404586376
30
0
41
1
10
-0.394976888875277
20
10.9266969919675
30
0
41
1
10
-0.394976888875277
20
11.0153746961414
30
0
41
1
10
-0.394976888875277
20
11.1028676417001
30
0
41
1
10
-0.394976888875277
20
11.1891707748317
30
0
41
1
10
-0.394976888875277
20
11.3026972665534
30
0
41
1
10
-0.394976888875277
20
11.413674138825
30
0
41
1
10
-0.394976888875277
20
11.5223699808134
30
0
41
1
10
-0.394976888875277
20
11.6026363770329
30
0
41
1
10
-0.394976888875277
20
11.6684804460587
30
0
41
1
10
-0.394976888875277
20
11.7205808983271
30
0
41
1
10
-0.394976888875277
20
11.7722691819395
30
0
41
1
10
-0.394976888875277
20
11.836053984022
30
0
41
1
10
-0.394976888875277
20
11.9113764724791
30
0
41
1
10
-0.394976888875277
20
11.9854459723214
30
0
41
1
10
-0.394976888875277
20
12.0582544232072
30
0
41
1
10
-0.394976888875277
20
12.1297946270485
30
0
41
1
10
-0.394976888875277
20
12.2235215963167
30
0
41
1
10
-0.394976888875277
20
12.3373769247913
30
0
41
1
10
-0.394976888875277
20
12.446899173783
30
0
41
1
10
-0.394976888875277
20
12.5319491682166
30
0
41
1
10
-0.394976888875277
20
12.6152283642396
30
0
41
1
10
-0.394976888875277
20
12.6957215996061
30
0
41
1
10
-0.394976888875277
20
12.773610902979
30
0
41
1
10
-0.394976888875277
20
12.8306328883531
30
0
41
1
10
-0.394976888875277
20
12.8862769625636
30
0
41
1
10
-0.394976888875277
20
12.940532100831
30
0
41
1
10
-0.394976888875277
20
12.9933861205259
30
0
41
1
10
-0.394976888875277
20
13.0448282543027
30
0
41
1
10
-0.394976888875277
20
13.0948461430692
30
0
41
1
10
-0.394976888875277
20
13.1596507828291
30
0
41
1
10
-0.394976888875277
20
13.221467049789
30
0
41
1
10
-0.394976888875277
20
13.2804176772461
30
0
41
1
10
-0.394976888875277
20
13.3231185723383
30
0
41
1
10
-0.394976888875277
20
13.3643136307331
30
0
41
1
10
-0.394976888875277
20
13.4039879870964
30
0
41
1
10
-0.394976888875277
20
13.4421262291561
30
0
41
1
10
-0.394976888875277
20
13.490931201485
30
0
41
1
10
-0.394976888875277
20
13.5365270011545
30
0
41
1
10
-0.394976888875277
20
13.5789822078612
30
0
41
1
10
-0.394976888875277
20
13.6091837809887
30
0
41
1
10
-0.394976888875277
20
13.6377421279937
30
0
41
1
10
-0.394976888875277
20
13.6736219491958
30
0
41
1
10
-0.394976888875277
20
13.706079968468
30
0
41
1
10
-0.394976888875277
20
13.7351343539634
30
0
41
1
10
-0.394976888875277
20
13.7551609910392
30
0
41
1
10
-0.394976888875277
20
13.7734119916164
30
0
41
1
10
-0.394976888875277
20
13.7898613788954
30
0
41
1
10
-0.394976888875277
20
13.8044829828858
30
0
41
1
10
-0.394976888875277
20
13.8172491473121
30
0
41
1
10
-0.394976888875277
20
13.8281307581185
30
0
41
1
10
-0.394976888875277
20
13.8370980881852
30
0
41
1
10
-0.394976888875277
20
13.8421014019358
30
0
41
1
10
-0.394976888875277
20
13.8443373794894
30
0
41
1
10
-0.394976888875277
20
13.8446019297682
30
0
0
SPLINE
5
249
100
AcDbEntity
8
SK1
62
256
6
ByLayer
370
-1
48
1
60
0
100
AcDbSpline
70
4
71
3
72
24
73
20
40
0
40
0
40
0
40
0
40
0.470755845821094
40
0.470755845821094
40
0.661827315353475
40
0.661827315353475
40
0.855693655803989
40
0.855693655803989
40
0.884463775465082
40
0.884463775465082
40
0.91360887641129
40
0.91360887641129
40
0.932764517652803
40
0.932764517652803
40
0.952039952208749
40
0.952039952208749
40
0.974619624640207
40
0.974619624640207
40
1
40
1
40
1
40
1
41
1
10
-0.199999999999989
20
-14.0034375575913
30
0
41
1
10
-0.199999999999989
20
-13.9892204633306
30
0
41
1
10
-0.203895974585635
20
-13.9712452436902
30
0
41
1
10
-0.223510113646824
20
-13.9380759054837
30
0
41
1
10
-0.230869554015214
20
-13.9275300777214
30
0
41
1
10
-0.252993763945881
20
-13.9036085654018
30
0
41
1
10
-0.266169306055218
20
-13.8900912648142
30
0
41
1
10
-0.299313210098944
20
-13.8713678522793
30
0
41
1
10
-0.304168151080091
20
-13.8688119846588
30
0
41
1
10
-0.315233613826848
20
-13.8635902765912
30
0
41
1
10
-0.321588767727178
20
-13.8608655729355
30
0
41
1
10
-0.333434048045547
20
-13.8565368608439
30
0
41
1
10
-0.338587345813778
20
-13.8548370746726
30
0
41
1
10
-0.349158334685967
20
-13.8517865918864
30
0
41
1
10
-0.354704697438706
20
-13.8504050227189
30
0
41
1
10
-0.366193697521936
20
-13.847969712967
30
0
41
1
10
-0.37221373013341
20
-13.8469665678177
30
0
41
1
10
-0.383950527302631
20
-13.8454141457692
30
0
41
1
10
-0.389694590782
20
-13.8449066720063
30
0
41
1
10
-0.394976888882155
20
-13.8446015176357
30
0
0
SPLINE
5
24A
100
AcDbEntity
8
SK1
62
256
6
ByLayer
370
-1
48
1
60
0
100
AcDbSpline
70
4
71
3
72
32
73
28
40
0
40
0
40
0
40
0
40
0.335339404831972
40
0.335339404831972
40
0.429287156787091
40
0.429287156787091
40
0.47567705376244
40
0.47567705376244
40
0.494539743197707
40
0.494539743197707
40
0.513645880085614
40
0.513645880085614
40
0.520504273461008
40
0.520504273461008
40
0.527488218290634
40
0.527488218290634
40
0.533551201014328
40
0.533551201014328
40
0.540998152878254
40
0.540998152878254
40
0.554393631774451
40
0.554393631774451
40
0.598967269657032
40
0.598967269657032
40
0.809317334416223
40
0.809317334416223
40
1
40
1
40
1
40
1
41
1
10
-1.49503997793931
20
-2.59465115838304
30
0
41
1
10
-1.51545804662706
20
-2.47020327904033
30
0
41
1
10
-1.5371392192427
20
-2.34554891087819
30
0
41
1
10
-1.57392592094843
20
-2.19043955590803
30
0
41
1
10
-1.58255890853934
20
-2.15670217135892
30
0
41
1
10
-1.5980595693656
20
-2.1081468839686
30
0
41
1
10
-1.60359902440038
20
-2.09231222948606
30
0
41
1
10
-1.61296122457534
20
-2.07152520286885
30
0
41
1
10
-1.6158696741316
20
-2.0656737244498
30
0
41
1
10
-1.62242426172162
20
-2.05481886173052
30
0
41
1
10
-1.62611615645159
20
-2.04963161073078
30
0
41
1
10
-1.63217263701876
20
-2.04479089552191
30
0
41
1
10
-1.63391092603902
20
-2.04372430879368
30
0
41
1
10
-1.63759701012464
20
-2.04243943769597
30
0
41
1
10
-1.63960513001732
20
-2.04224314885471
30
0
41
1
10
-1.64327142014687
20
-2.04303363449088
30
0
41
1
10
-1.64498274878696
20
-2.04388024545895
30
0
41
1
10
-1.64846923771176
20
-2.04652261877811
30
0
41
1
10
-1.65023197368771
20
-2.04850621085967
30
0
41
1
10
-1.65459297944469
20
-2.05462030362457
30
0
41
1
10
-1.65687449353447
20
-2.05928542847226
30
0
41
1
10
-1.66535432668744
20
-2.07982184742582
30
0
41
1
10
-1.66919635898847
20
-2.09736547364699
30
0
41
1
10
-1.68800967157858
20
-2.19569498442294
30
0
41
1
10
-1.6917465712958
20
-2.27904221250569
30
0
41
1
10
-1.69840552504974
20
-2.43548746422863
30
0
41
1
10
-1.69970172620592
20
-2.50976932903754
30
0
41
1
10
-1.69999999999999
20
-2.58372509632824
30
0
0
SPLINE
5
24B
100
AcDbEntity
8
SK1
62
256
6
ByLayer
370
-1
48
1
60
0
100
AcDbSpline
70
4
71
3
72
281
73
277
40
0
40
0
40
0
40
0
40
0.0026986478718096
40
0.006250804471116
40
0.0098029610704223
40
0.0133551176697288
40
0.0169072742690352
40
0.0204594308683415
40
0.0240115874676479
40
0.0311159006662607
40
0.0382202138648734
40
0.0453245270634862
40
0.0488766836627926
40
0.052428840262099
40
0.0559809968614054
40
0.0595331534607118
40
0.0666374666593245
40
0.0701896232586309
40
0.0737417798579372
40
0.0772939364572437
40
0.0808460930565501
40
0.0843982496558565
40
0.0879504062551629
40
0.0950547194537756
40
0.098606876053082
40
0.102159032652388
40
0.105711189251695
40
0.109263345851001
40
0.112815502450307
40
0.116367659049614
40
0.11991981564892
40
0.123471972248227
40
0.130576285446839
40
0.134128442046146
40
0.137680598645452
40
0.144784911844065
40
0.151889225042678
40
0.155441381641984
40
0.158993538241291
40
0.162545694840597
40
0.166097851439903
40
0.16965000803921
40
0.173202164638516
40
0.174978242938169
40
0.176754321237823
40
0.180306477837129
40
0.183858634436435
40
0.187410791035742
40
0.194515104234354
40
0.198067260833661
40
0.201619417432967
40
0.205171574032274
40
0.20872373063158
40
0.212275887230886
40
0.215828043830193
40
0.219380200429499
40
0.222932357028805
40
0.226484513628112
40
0.230036670227418
40
0.237140983426031
40
0.240693140025337
40
0.244245296624644
40
0.246021374924297
40
0.24779745322395
40
0.251349609823256
40
0.258453923021869
40
0.262006079621176
40
0.265558236220482
40
0.272662549419095
40
0.279766862617708
40
0.283319019217014
40
0.28687117581632
40
0.293975489014933
40
0.297527645614239
40
0.301079802213546
40
0.304631958812852
40
0.308184115412159
40
0.311736272011465
40
0.315288428610771
40
0.322392741809384
40
0.329497055007997
40
0.333049211607303
40
0.33660136820661
40
0.340153524805916
40
0.343705681405223
40
0.350809994603835
40
0.357914307802448
40
0.365018621001061
40
0.372122934199674
40
0.37567509079898
40
0.379227247398286
40
0.382779403997593
40
0.386331560596899
40
0.389883717196206
40
0.393435873795512
40
0.396988030394818
40
0.400540186994125
40
0.404092343593431
40
0.407644500192738
40
0.411196656792044
40
0.41474881339135
40
0.418300969990657
40
0.421853126589963
40
0.425405283189269
40
0.428957439788576
40
0.432509596387882
40
0.436061752987189
40
0.439613909586495
40
0.443166066185801
40
0.446718222785108
40
0.448494301084761
40
0.450270379384414
40
0.45382253598372
40
0.455598614283374
40
0.457374692583027
40
0.45915077088268
40
0.460926849182333
40
0.462702927481986
40
0.46447900578164
40
0.466255084081293
40
0.468031162380946
40
0.471583318980252
40
0.473359397279906
40
0.475135475579559
40
0.476911553879212
40
0.478687632178865
40
0.480463710478518
40
0.482239788778171
40
0.484015867077825
40
0.485791945377478
40
0.487568023677131
40
0.489344101976784
40
0.491120180276437
40
0.492896258576091
40
0.494672336875744
40
0.496448415175397
40
0.49822449347505
40
0.500000571774703
40
0.501776650074357
40
0.50355272837401
40
0.505328806673663
40
0.507104884973316
40
0.50888096327297
40
0.510657041572623
40
0.512433119872276
40
0.514209198171929
40
0.515985276471582
40
0.517761354771235
40
0.519537433070889
40
0.521313511370542
40
0.523089589670195
40
0.524865667969848
40
0.526641746269501
40
0.528417824569155
40
0.531969981168461
40
0.533746059468114
40
0.535522137767767
40
0.537298216067421
40
0.539074294367074
40
0.540850372666727
40
0.54262645096638
40
0.544402529266033
40
0.546178607565687
40
0.549730764164993
40
0.551506842464646
40
0.553282920764299
40
0.556835077363606
40
0.560387233962912
40
0.563939390562218
40
0.567491547161525
40
0.571043703760831
40
0.574595860360138
40
0.578148016959444
40
0.58170017355875
40
0.585252330158057
40
0.588804486757363
40
0.592356643356669
40
0.595908799955976
40
0.599460956555282
40
0.603013113154589
40
0.606565269753895
40
0.610117426353201
40
0.613669582952508
40
0.617221739551814
40
0.620773896151121
40
0.624326052750427
40
0.627878209349733
40
0.634982522548346
40
0.642086835746959
40
0.649191148945572
40
0.656295462144184
40
0.659847618743491
40
0.663399775342797
40
0.666951931942103
40
0.67050408854141
40
0.677608401740023
40
0.684712714938636
40
0.688264871537942
40
0.691817028137248
40
0.695369184736555
40
0.698921341335861
40
0.702473497935167
40
0.706025654534474
40
0.713129967733087
40
0.716682124332393
40
0.720234280931699
40
0.727338594130312
40
0.734442907328925
40
0.737995063928231
40
0.741547220527538
40
0.74865153372615
40
0.752203690325457
40
0.75397976862511
40
0.755755846924763
40
0.75930800352407
40
0.762860160123376
40
0.769964473321989
40
0.773516629921295
40
0.777068786520602
40
0.780620943119908
40
0.784173099719214
40
0.787725256318521
40
0.791277412917827
40
0.794829569517133
40
0.79838172611644
40
0.801933882715746
40
0.805486039315053
40
0.812590352513665
40
0.816142509112972
40
0.819694665712278
40
0.823246822311584
40
0.825022900611238
40
0.826798978910891
40
0.830351135510197
40
0.833903292109504
40
0.83745544870881
40
0.841007605308116
40
0.844559761907423
40
0.848111918506729
40
0.855216231705342
40
0.862320544903955
40
0.865872701503261
40
0.869424858102568
40
0.87652917130118
40
0.880081327900487
40
0.883633484499793
40
0.887185641099099
40
0.890737797698406
40
0.894289954297712
40
0.897842110897019
40
0.901394267496325
40
0.904946424095631
40
0.912050737294244
40
0.91560289389355
40
0.919155050492857
40
0.922707207092163
40
0.926259363691469
40
0.929811520290776
40
0.933363676890082
40
0.940467990088695
40
0.944020146688001
40
0.947572303287308
40
0.951124459886614
40
0.954676616485921
40
0.961780929684533
40
0.96533308628384
40
0.968885242883146
40
0.972437399482453
40
0.975989556081759
40
0.979541712681065
40
0.983093869280372
40
0.986646025879678
40
0.990198182478985
40
0.993750339078291
40
0.997302495677597
40
1
40
1
40
1
40
1
41
1
10
-24
20
-12.6301285431734
30
0
41
1
10
-24
20
-12.6295507125249
30
0
41
1
10
-24
20
-12.6277960232816
30
0
41
1
10
-24
20
-12.623548726994
30
0
41
1
10
-24
20
-12.6171099043118
30
0
41
1
10
-24
20
-12.6088736083307
30
0
41
1
10
-24
20
-12.5988647342338
30
0
41
1
10
-24
20
-12.5871069661155
30
0
41
1
10
-24
20
-12.569020437469
30
0
41
1
10
-24
20
-12.5424060911485
30
0
41
1
10
-24
20
-12.5036823998811
30
0
41
1
10
-24
20
-12.466179119183
30
0
41
1
10
-24
20
-12.4326960489613
30
0
41
1
10
-24
20
-12.4061495447384
30
0
41
1
10
-24
20
-12.3780532328159
30
0
41
1
10
-24
20
-12.3383402816863
30
0
41
1
10
-24
20
-12.2962370819873
30
0
41
1
10
-24
20
-12.2505027270978
30
0
41
1
10
-24
20
-12.2149010201899
30
0
41
1
10
-24
20
-12.1778433481664
30
0
41
1
10
-24
20
-12.139344023803
30
0
41
1
10
-24
20
-12.0994154546281
30
0
41
1
10
-24
20
-12.0440223921018
30
0
41
1
10
-24
20
-11.9866456328948
30
0
41
1
10
-24
20
-11.9256779328098
30
0
41
1
10
-24
20
-11.8787993022056
30
0
41
1
10
-24
20
-11.8305656793587
30
0
41
1
10
-24
20
-11.78099039585
30
0
41
1
10
-24
20
-11.7300825884547
30
0
41
1
10
-24
20
-11.6778529900837
30
0
41
1
10
-24
20
-11.6243139686469
30
0
41
1
10
-24
20
-11.5508590476175
30
0
41
1
10
-24
20
-11.4758394707542
30
0
41
1
10
-24
20
-11.3972466128896
30
0
41
1
10
-24
20
-11.3169609533628
30
0
41
1
10
-24
20
-11.2142799019792
30
0
41
1
10
-24
20
-11.1074990885262
30
0
41
1
10
-24
20
-11.0189464603389
30
0
41
1
10
-24
20
-10.9516093773873
30
0
41
1
10
-24
20
-10.8830697782116
30
0
41
1
10
-24
20
-10.8133337656712
30
0
41
1
10
-24
20
-10.7424101789121
30
0
41
1
10
-24
20
-10.6825334430363
30
0
41
1
10
-24
20
-10.6336671760819
30
0
41
1
10
-24
20
-10.5844084477176
30
0
41
1
10
-24
20
-10.5225869468266
30
0
41
1
10
-24
20
-10.4469857296791
30
0
41
1
10
-24
20
-10.3442039867663
30
0
41
1
10
-24
20
-10.2404782892815
30
0
41
1
10
-24
20
-10.133123847137
30
0
41
1
10
-24
20
-10.0518274139735
30
0
41
1
10
-24
20
-9.96941226524035
30
0
41
1
10
-24
20
-9.8858827890852
30
0
41
1
10
-24
20
-9.80124634105394
30
0
41
1
10
-24
20
-9.71550990056983
30
0
41
1
10
-24
20
-9.62867742465991
30
0
41
1
10
-24
20
-9.54075474090101
30
0
41
1
10
-24
20
-9.45175012870757
30
0
41
1
10
-24
20
-9.33111730296773
30
0
41
1
10
-24
20
-9.20992961158598
30
0
41
1
10
-24
20
-9.08500600225796
30
0
41
1
10
-24
20
-9.00666454438806
30
0
41
1
10
-24
20
-8.94296708063843
30
0
41
1
10
-24
20
-8.87892107357061
30
0
41
1
10
-24
20
-8.76613371827506
30
0
41
1
10
-24
20
-8.63663898523424
30
0
41
1
10
-24
20
-8.50332881313912
30
0
41
1
10
-24
20
-8.36865251940401
30
0
41
1
10
-24
20
-8.19913342470036
30
0
41
1
10
-24
20
-8.02625870426021
30
0
41
1
10
-24
20
-7.88481232676438
30
0
41
1
10
-24
20
-7.74204568631339
30
0
41
1
10
-24
20
-7.59930458489882
30
0
41
1
10
-24
20
-7.45257386795717
30
0
41
1
10
-24
20
-7.34207855908448
30
0
41
1
10
-24
20
-7.23061782890775
30
0
41
1
10
-24
20
-7.11820191301106
30
0
41
1
10
-24
20
-7.00483374343872
30
0
41
1
10
-24
20
-6.8516785758469
30
0
41
1
10
-24
20
-6.65959441745028
30
0
41
1
10
-24
20
-6.46441027855923
30
0
41
1
10
-24
20
-6.30499529459033
30
0
41
1
10
-24
20
-6.18514753468796
30
0
41
1
10
-24
20
-6.06440158167572
30
0
41
1
10
-24
20
-5.90137597131746
30
0
41
1
10
-24
20
-5.69736367955667
30
0
41
1
10
-24
20
-5.44799894794272
30
0
41
1
10
-24
20
-5.19525670130326
30
0
41
1
10
-24
20
-4.98285125019774
30
0
41
1
10
-24
20
-4.80950544532163
30
0
41
1
10
-24
20
-4.67950096380329
30
0
41
1
10
-24
20
-4.54872537799758
30
0
41
1
10
-24
20
-4.41719445888799
30
0
41
1
10
-24
20
-4.28492388892991
30
0
41
1
10
-24
20
-4.15193103870837
30
0
41
1
10
-24
20
-4.01823650200188
30
0
41
1
10
-24
20
-3.88386015063671
30
0
41
1
10
-24
20
-3.74882265025218
30
0
41
1
10
-24
20
-3.61314816606938
30
0
41
1
10
-24
20
-3.47686551917991
30
0
41
1
10
-24
20
-3.34000139230267
30
0
41
1
10
-24
20
-3.20258393847712
30
0
41
1
10
-24
20
-3.06464837689458
30
0
41
1
10
-24
20
-2.9262304523017
30
0
41
1
10
-24
20
-2.78737006373561
30
0
41
1
10
-24
20
-2.64810891556724
30
0
41
1
10
-24
20
-2.50849315364215
30
0
41
1
10
-24
20
-2.36857603859875
30
0
41
1
10
-24
20
-2.22840727338092
30
0
41
1
10
-24
20
-2.11231267734073
30
0
41
1
10
-24
20
-2.01771125590744
30
0
41
1
10
-24
20
-1.92310511773127
30
0
41
1
10
-24
20
-1.8313714962141
30
0
41
1
10
-24
20
-1.73663368976398
30
0
41
1
10
-24
20
-1.66636839269287
30
0
41
1
10
-24
20
-1.59612143913762
30
0
41
1
10
-24
20
-1.52590617425699
30
0
41
1
10
-24
20
-1.45572440081648
30
0
41
1
10
-24
20
-1.38559146347788
30
0
41
1
10
-24
20
-1.31551245865842
30
0
41
1
10
-24
20
-1.22103102890804
30
0
41
1
10
-24
20
-1.13019491172781
30
0
41
1
10
-24
20
-1.03590357373665
30
0
41
1
10
-24
20
-0.966211278320685
30
0
41
1
10
-24
20
-0.896616942008535
30
0
41
1
10
-24
20
-0.827119549474418
30
0
41
1
10
-24
20
-0.757724503129253
30
0
41
1
10
-24
20
-0.688430802184314
30
0
41
1
10
-24
20
-0.619238394305086
30
0
41
1
10
-24
20
-0.550143822342449
30
0
41
1
10
-24
20
-0.481142957404018
30
0
41
1
10
-24
20
-0.412229055265982
30
0
41
1
10
-24
20
-0.343394373554958
30
0
41
1
10
-24
20
-0.274627961865065
30
0
41
1
10
-24
20
-0.205919183520024
30
0
41
1
10
-24
20
-0.137254128872428
30
0
41
1
10
-24
20
-0.068619580615092
30
0
41
1
10
-24
20
-1.20069785E-08
30
0
41
1
10
-24
20
0.0686195837654395
30
0
41
1
10
-24
20
0.1372541822264
30
0
41
1
10
-24
20
0.205919229600312
30
0
41
1
10
-24
20
0.274627932715674
30
0
41
1
10
-24
20
0.343394334295567
30
0
41
1
10
-24
20
0.412229116407673
30
0
41
1
10
-24
20
0.48114304712405
30
0
41
1
10
-24
20
0.55014378989776
30
0
41
1
10
-24
20
0.619238310392802
30
0
41
1
10
-24
20
0.688430856535206
30
0
41
1
10
-24
20
0.757724640342815
30
0
41
1
10
-24
20
0.827119544713668
30
0
41
1
10
-24
20
0.896616816711344
30
0
41
1
10
-24
20
0.966211277672699
30
0
41
1
10
-24
20
1.03590373801057
30
0
41
1
10
-24
20
1.13019491751669
30
0
41
1
10
-24
20
1.22103090337816
30
0
41
1
10
-24
20
1.31551253110209
30
0
41
1
10
-24
20
1.38559165365194
30
0
41
1
10
-24
20
1.45572444737027
30
0
41
1
10
-24
20
1.52590604398472
30
0
41
1
10
-24
20
1.59612132289769
30
0
41
1
10
-24
20
1.66636846888792
30
0
41
1
10
-24
20
1.73663389391052
30
0
41
1
10
-24
20
1.83137150908334
30
0
41
1
10
-24
20
1.923104963833
30
0
41
1
10
-24
20
2.01771124909399
30
0
41
1
10
-24
20
2.11231287096447
30
0
41
1
10
-24
20
2.22840729138045
30
0
41
1
10
-24
20
2.36857592379664
30
0
41
1
10
-24
20
2.50849329023109
30
0
41
1
10
-24
20
2.64810899336408
30
0
41
1
10
-24
20
2.7873694745272
30
0
41
1
10
-24
20
2.92622914514115
30
0
41
1
10
-24
20
3.06464867495961
30
0
41
1
10
-24
20
3.20258694679339
30
0
41
1
10
-24
20
3.34000339886188
30
0
41
1
10
-24
20
3.47686412773234
30
0
41
1
10
-24
20
3.61314539193521
30
0
41
1
10
-24
20
3.74882070125759
30
0
41
1
10
-24
20
3.88386081960974
30
0
41
1
10
-24
20
4.01823910176785
30
0
41
1
10
-24
20
4.15193237523465
30
0
41
1
10
-24
20
4.28492323331267
30
0
41
1
10
-24
20
4.41719365917407
30
0
41
1
10
-24
20
4.54872525063163
30
0
41
1
10
-24
20
4.67950102029136
30
0
41
1
10
-24
20
4.8095053694127
30
0
41
1
10
-24
20
4.98285124277228
30
0
41
1
10
-24
20
5.19525677656026
30
0
41
1
10
-24
20
5.44799891971269
30
0
41
1
10
-24
20
5.69736372546626
30
0
41
1
10
-24
20
5.90137602298265
30
0
41
1
10
-24
20
6.0644015068855
30
0
41
1
10
-24
20
6.1851475156806
30
0
41
1
10
-24
20
6.30499537148731
30
0
41
1
10
-24
20
6.46441033734266
30
0
41
1
10
-24
20
6.65959438580623
30
0
41
1
10
-24
20
6.85167858307042
30
0
41
1
10
-24
20
7.00483382763792
30
0
41
1
10
-24
20
7.11820195418233
30
0
41
1
10
-24
20
7.2306178054078
30
0
41
1
10
-24
20
7.34207852113332
30
0
41
1
10
-24
20
7.45257387547733
30
0
41
1
10
-24
20
7.59930464836137
30
0
41
1
10
-24
20
7.74204572237986
30
0
41
1
10
-24
20
7.88481230085068
30
0
41
1
10
-24
20
8.02625870014725
30
0
41
1
10
-24
20
8.19913346952643
30
0
41
1
10
-24
20
8.36865254580422
30
0
41
1
10
-24
20
8.50332879773273
30
0
41
1
10
-24
20
8.63663898786112
30
0
41
1
10
-24
20
8.76613375581505
30
0
41
1
10
-24
20
8.87892111197036
30
0
41
1
10
-24
20
8.94296710462893
30
0
41
1
10
-24
20
9.00666455327519
30
0
41
1
10
-24
20
9.08500599911847
30
0
41
1
10
-24
20
9.20992961783276
30
0
41
1
10
-24
20
9.33111733072479
30
0
41
1
10
-24
20
9.45175015939358
30
0
41
1
10
-24
20
9.54075475929304
30
0
41
1
10
-24
20
9.62867743247332
30
0
41
1
10
-24
20
9.71550990736878
30
0
41
1
10
-24
20
9.80124635456619
30
0
41
1
10
-24
20
9.88588281033205
30
0
41
1
10
-24
20
9.9694122909747
30
0
41
1
10
-24
20
10.0518274374696
30
0
41
1
10
-24
20
10.1331238647016
30
0
41
1
10
-24
20
10.240478300249
30
0
41
1
10
-24
20
10.3442039980406
30
0
41
1
10
-24
20
10.4469857502475
30
0
41
1
10
-24
20
10.5225869730086
30
0
41
1
10
-24
20
10.5844084741421
30
0
41
1
10
-24
20
10.6336671988976
30
0
41
1
10
-24
20
10.6825334589273
30
0
41
1
10
-24
20
10.7424101865055
30
0
41
1
10
-24
20
10.8133337727233
30
0
41
1
10
-24
20
10.8830697936353
30
0
41
1
10
-24
20
10.951609404873
30
0
41
1
10
-24
20
11.0189464931514
30
0
41
1
10
-24
20
11.1074991058536
30
0
41
1
10
-24
20
11.2142799044294
30
0
41
1
10
-24
20
11.3169609751522
30
0
41
1
10
-24
20
11.3972466509688
30
0
41
1
10
-24
20
11.4758394909226
30
0
41
1
10
-24
20
11.5508590446085
30
0
41
1
10
-24
20
11.6243139791192
30
0
41
1
10
-24
20
11.6778530233414
30
0
41
1
10
-24
20
11.7300826287653
30
0
41
1
10
-24
20
11.7809904199399
30
0
41
1
10
-24
20
11.8305656793297
30
0
41
1
10
-24
20
11.8787992978642
30
0
41
1
10
-24
20
11.9256779481161
30
0
41
1
10
-24
20
11.9866456736684
30
0
41
1
10
-24
20
12.0440224201629
30
0
41
1
10
-24
20
12.099415447517
30
0
41
1
10
-24
20
12.1393440246738
30
0
41
1
10
-24
20
12.1778433772408
30
0
41
1
10
-24
20
12.2149010599454
30
0
41
1
10
-24
20
12.250502752964
30
0
41
1
10
-24
20
12.2962370828382
30
0
41
1
10
-24
20
12.3383402824608
30
0
41
1
10
-24
20
12.3780532736994
30
0
41
1
10
-24
20
12.4061495785297
30
0
41
1
10
-24
20
12.4326960530149
30
0
41
1
10
-24
20
12.4661791203578
30
0
41
1
10
-24
20
12.4959885477691
30
0
41
1
10
-24
20
12.523037071398
30
0
41
1
10
-24
20
12.5415673540695
30
0
41
1
10
-24
20
12.55843663992
30
0
41
1
10
-24
20
12.5736235086905
30
0
41
1
10
-24
20
12.5871069547276
30
0
41
1
10
-24
20
12.5988645879939
30
0
41
1
10
-24
20
12.6088733436887
30
0
41
1
10
-24
20
12.617109869821
30
0
41
1
10
-24
20
12.6235493215145
30
0
41
1
10
-24
20
12.6277964628136
30
0
41
1
10
-24
20
12.6295508301885
30
0
41
1
10
-24
20
12.6301284565113
30
0
0
SPLINE
5
24C
100
AcDbEntity
8
SK1
62
256
6
ByLayer
370
-1
48
1
60
0
100
AcDbSpline
70
4
71
3
72
98
73
94
40
0
40
0
40
0
40
0
40
0.0012808740763045
40
0.0105737783742241
40
0.0198666826721437
40
0.0291595869700633
40
0.0384524912679829
40
0.0477453955659025
40
0.0663312041617417
40
0.0849170127575809
40
0.10350282135342
40
0.11279572565134
40
0.122088629949259
40
0.131381534247179
40
0.140674438545099
40
0.159260247140938
40
0.168553151438857
40
0.177846055736777
40
0.187138960034696
40
0.196431864332616
40
0.205724768630536
40
0.215017672928455
40
0.233603481524295
40
0.242896385822214
40
0.252189290120134
40
0.261482194418053
40
0.270775098715973
40
0.280068003013893
40
0.289360907311812
40
0.298653811609732
40
0.307946715907651
40
0.326532524503491
40
0.33582542880141
40
0.34511833309933
40
0.363704141695169
40
0.382289950291008
40
0.391582854588928
40
0.400875758886847
40
0.410168663184767
40
0.419461567482687
40
0.428754471780606
40
0.438047376078526
40
0.442693828227486
40
0.447340280376445
40
0.456633184674365
40
0.465926088972284
40
0.475218993270204
40
0.493804801866043
40
0.503097706163963
40
0.512390610461883
40
0.521683514759802
40
0.530976419057722
40
0.540269323355641
40
0.549562227653561
40
0.558855131951481
40
0.5681480362494
40
0.57744094054732
40
0.586733844845239
40
0.605319653441079
40
0.614612557738998
40
0.623905462036918
40
0.628551914185878
40
0.633198366334837
40
0.642491270632757
40
0.661077079228596
40
0.670369983526516
40
0.679662887824435
40
0.698248696420275
40
0.716834505016114
40
0.726127409314034
40
0.735420313611953
40
0.754006122207792
40
0.763299026505712
40
0.772591930803632
40
0.781884835101551
40
0.791177739399471
40
0.80047064369739
40
0.80976354799531
40
0.828349356591149
40
0.846935165186988
40
0.856228069484908
40
0.865520973782828
40
0.874813878080747
40
0.884106782378667
40
0.902692590974506
40
0.921278399570345
40
0.939864208166184
40
0.958450016762024
40
0.967742921059943
40
0.977035825357863
40
0.986328729655782
40
0.995621633953702
40
1
40
1
40
1
40
1
41
1
10
-0.394976888875277
20
-13.8446015176322
30
0
41
1
10
-0.394976888875277
20
-13.8443369604552
30
0
41
1
10
-0.394976888875277
20
-13.842101166137
30
0
41
1
10
-0.394976888875277
20
-13.8370982474882
30
0
41
1
10
-0.394976888875277
20
-13.8281310063336
30
0
41
1
10
-0.394976888875277
20
-13.8172492272358
30
0
41
1
10
-0.394976888875277
20
-13.8044829705053
30
0
41
1
10
-0.394976888875277
20
-13.7849758313288
30
0
41
1
10
-0.394976888875277
20
-13.7560496751861
30
0
41
1
10
-0.394976888875277
20
-13.7142204148031
30
0
41
1
10
-0.394976888875277
20
-13.6736219510479
30
0
41
1
10
-0.394976888875277
20
-13.6377421071264
30
0
41
1
10
-0.394976888875277
20
-13.6091837483775
30
0
41
1
10
-0.394976888875277
20
-13.5789821852606
30
0
41
1
10
-0.394976888875277
20
-13.5365270016785
30
0
41
1
10
-0.394976888875277
20
-13.4909311840823
30
0
41
1
10
-0.394976888875277
20
-13.4421262012037
30
0
41
1
10
-0.394976888875277
20
-13.4039879614121
30
0
41
1
10
-0.394976888875277
20
-13.3643136176474
30
0
41
1
10
-0.394976888875277
20
-13.3231185671574
30
0
41
1
10
-0.394976888875277
20
-13.2804176635455
30
0
41
1
10
-0.394976888875277
20
-13.2214670183476
30
0
41
1
10
-0.394976888875277
20
-13.1596507604527
30
0
41
1
10
-0.394976888875277
20
-13.094846134259
30
0
41
1
10
-0.394976888875277
20
-13.0448282447276
30
0
41
1
10
-0.394976888875277
20
-12.9933861020735
30
0
41
1
10
-0.394976888875277
20
-12.9405320737836
30
0
41
1
10
-0.394976888875277
20
-12.8862769376535
30
0
41
1
10
-0.394976888875277
20
-12.8306328717281
30
0
41
1
10
-0.394976888875277
20
-12.7736108931729
30
0
41
1
10
-0.394976888875277
20
-12.6957215859151
30
0
41
1
10
-0.394976888875277
20
-12.6152283382819
30
0
41
1
10
-0.394976888875277
20
-12.5319491453114
30
0
41
1
10
-0.394976888875277
20
-12.4468991604423
30
0
41
1
10
-0.394976888875277
20
-12.3373769122162
30
0
41
1
10
-0.394976888875277
20
-12.2235215734124
30
0
41
1
10
-0.394976888875277
20
-12.1297946053789
30
0
41
1
10
-0.394976888875277
20
-12.0582544060742
30
0
41
1
10
-0.394976888875277
20
-11.9854459580753
30
0
41
1
10
-0.394976888875277
20
-11.9113764581405
30
0
41
1
10
-0.394976888875277
20
-11.8360539668501
30
0
41
1
10
-0.394976888875277
20
-11.7722691621604
30
0
41
1
10
-0.394976888875277
20
-11.7205808778945
30
0
41
1
10
-0.394976888875277
20
-11.6684804259269
30
0
41
1
10
-0.394976888875277
20
-11.6026363586083
30
0
41
1
10
-0.394976888875277
20
-11.5223699646631
30
0
41
1
10
-0.394976888875277
20
-11.4136741241806
30
0
41
1
10
-0.394976888875277
20
-11.3026972493618
30
0
41
1
10
-0.394976888875277
20
-11.1891707558493
30
0
41
1
10
-0.394976888875277
20
-11.102867622286
30
0
41
1
10
-0.394976888875277
20
-11.0153746780185
30
0
41
1
10
-0.394976888875277
20
-10.9266969759659
30
0
41
1
10
-0.394976888875277
20
-10.8368404439692
30
0
41
1
10
-0.394976888875277
20
-10.74580988339
30
0
41
1
10
-0.394976888875277
20
-10.6536100721469
30
0
41
1
10
-0.394976888875277
20
-10.5602461340712
30
0
41
1
10
-0.394976888875277
20
-10.4657231550753
30
0
41
1
10
-0.394976888875277
20
-10.3380960413352
30
0
41
1
10
-0.394976888875277
20
-10.2083399780688
30
0
41
1
10
-0.394976888875277
20
-10.0761265525343
30
0
41
1
10
-0.394976888875277
20
-9.99261143893298
30
0
41
1
10
-0.394976888875277
20
-9.92517900727512
30
0
41
1
10
-0.394976888875277
20
-9.85736934874495
30
0
41
1
10
-0.394976888875277
20
-9.73773600630287
30
0
41
1
10
-0.394976888875277
20
-9.59892076352932
30
0
41
1
10
-0.394976888875277
20
-9.45767861814849
30
0
41
1
10
-0.394976888875277
20
-9.3149499665038
30
0
41
1
10
-0.394976888875277
20
-9.13390678694702
30
0
41
1
10
-0.394976888875277
20
-8.94918033853523
30
0
41
1
10
-0.394976888875277
20
-8.79907643306458
30
0
41
1
10
-0.394976888875277
20
-8.64751154095558
30
0
41
1
10
-0.394976888875277
20
-8.49397418950429
30
0
41
1
10
-0.394976888875277
20
-8.33804225713789
30
0
41
1
10
-0.394976888875277
20
-8.22006379392718
30
0
41
1
10
-0.394976888875277
20
-8.10100252302422
30
0
41
1
10
-0.394976888875277
20
-7.98086143927398
30
0
41
1
10
-0.394976888875277
20
-7.85964213989763
30
0
41
1
10
-0.394976888875277
20
-7.69650359349293
30
0
41
1
10
-0.394976888875277
20
-7.49008089634199
30
0
41
1
10
-0.394976888875277
20
-7.28009509164627
30
0
41
1
10
-0.394976888875277
20
-7.10982244878713
30
0
41
1
10
-0.394976888875277
20
-6.98112244545175
30
0
41
1
10
-0.394976888875277
20
-6.85136200824962
30
0
41
1
10
-0.394976888875277
20
-6.67684685573994
30
0
41
1
10
-0.394976888875277
20
-6.45627503636445
30
0
41
1
10
-0.394976888875277
20
-6.18726433662556
30
0
41
1
10
-0.394976888875277
20
-5.91406385279547
30
0
41
1
10
-0.394976888875277
20
-5.68302324019061
30
0
41
1
10
-0.394976888875277
20
-5.49591838220567
30
0
41
1
10
-0.394976888875277
20
-5.35463940810163
30
0
41
1
10
-0.394976888875277
20
-5.21232773385495
30
0
41
1
10
-0.394976888875277
20
-5.09425517295406
30
0
41
1
10
-0.394976888875277
20
-5.02359271293304
30
0
41
1
10
-0.394976888875277
20
-5.0009244140283
30
0
0
SPLINE
5
24D
100
AcDbEntity
8
SK1
62
256
6
ByLayer
370
-1
48
1
60
0
100
AcDbSpline
70
4
71
3
72
287
73
283
40
0
40
0
40
0
40
0
40
0.0011280973058593
40
0.0046167197925832
40
0.0081053422793072
40
0.0115939647660312
40
0.0150825872527551
40
0.0185712097394791
40
0.022059832226203
40
0.025548454712927
40
0.0290370771996509
40
0.0325256996863748
40
0.0395029446598227
40
0.0464801896332706
40
0.0534574346067185
40
0.0569460570934424
40
0.0604346795801664
40
0.0639233020668903
40
0.0674119245536142
40
0.0743891695270621
40
0.0778777920137861
40
0.08136641450051
40
0.084855036987234
40
0.0883436594739579
40
0.0918322819606819
40
0.0953209044474058
40
0.102298149420854
40
0.105786771907578
40
0.109275394394302
40
0.112764016881025
40
0.11625263936775
40
0.119741261854473
40
0.123229884341197
40
0.126718506827921
40
0.130207129314645
40
0.137184374288093
40
0.140672996774817
40
0.144161619261541
40
0.151138864234989
40
0.158116109208437
40
0.161604731695161
40
0.165093354181885
40
0.168581976668609
40
0.172070599155332
40
0.175559221642056
40
0.17904784412878
40
0.180792155372142
40
0.182536466615504
40
0.186025089102228
40
0.189513711588952
40
0.193002334075676
40
0.199979579049124
40
0.203468201535848
40
0.206956824022572
40
0.210445446509296
40
0.21393406899602
40
0.217422691482744
40
0.220911313969468
40
0.224399936456192
40
0.227888558942916
40
0.23137718142964
40
0.234865803916364
40
0.241843048889812
40
0.245331671376535
40
0.248820293863259
40
0.250564605106621
40
0.252308916349983
40
0.255797538836707
40
0.262774783810155
40
0.266263406296879
40
0.269752028783603
40
0.276729273757051
40
0.283706518730499
40
0.287195141217223
40
0.290683763703947
40
0.297661008677394
40
0.301149631164119
40
0.304638253650842
40
0.308126876137566
40
0.31161549862429
40
0.315104121111014
40
0.318592743597738
40
0.325569988571186
40
0.332547233544634
40
0.336035856031358
40
0.339524478518082
40
0.343013101004806
40
0.34650172349153
40
0.353478968464978
40
0.360456213438425
40
0.367433458411873
40
0.374410703385321
40
0.377899325872045
40
0.381387948358769
40
0.384876570845493
40
0.388365193332217
40
0.391853815818941
40
0.395342438305665
40
0.398831060792389
40
0.402319683279113
40
0.405808305765837
40
0.409296928252561
40
0.412785550739285
40
0.416274173226009
40
0.419762795712733
40
0.423251418199456
40
0.42674004068618
40
0.430228663172904
40
0.433717285659628
40
0.437205908146352
40
0.440694530633076
40
0.4441831531198
40
0.447671775606524
40
0.449416086849886
40
0.451160398093248
40
0.454649020579972
40
0.456393331823334
40
0.458137643066696
40
0.459881954310058
40
0.46162626555342
40
0.463370576796782
40
0.465114888040144
40
0.466859199283506
40
0.468603510526868
40
0.472092133013592
40
0.473836444256954
40
0.475580755500316
40
0.477325066743678
40
0.47906937798704
40
0.480813689230402
40
0.482558000473764
40
0.484302311717125
40
0.486046622960487
40
0.487790934203849
40
0.489535245447211
40
0.491279556690573
40
0.493023867933935
40
0.494768179177297
40
0.496512490420659
40
0.498256801664021
40
0.500001112907383
40
0.501745424150745
40
0.503489735394107
40
0.505234046637469
40
0.506978357880831
40
0.508722669124193
40
0.510466980367555
40
0.512211291610917
40
0.513955602854279
40
0.515699914097641
40
0.517444225341003
40
0.519188536584365
40
0.520932847827727
40
0.522677159071089
40
0.524421470314451
40
0.526165781557813
40
0.527910092801175
40
0.531398715287899
40
0.533143026531261
40
0.534887337774623
40
0.536631649017985
40
0.538375960261346
40
0.540120271504708
40
0.541864582748071
40
0.543608893991433
40
0.545353205234794
40
0.548841827721519
40
0.55058613896488
40
0.552330450208242
40
0.555819072694966
40
0.55930769518169
40
0.562796317668414
40
0.566284940155138
40
0.569773562641862
40
0.573262185128586
40
0.57675080761531
40
0.580239430102034
40
0.583728052588758
40
0.587216675075482
40
0.590705297562206
40
0.59419392004893
40
0.597682542535653
40
0.601171165022377
40
0.604659787509101
40
0.608148409995825
40
0.611637032482549
40
0.615125654969273
40
0.618614277455997
40
0.622102899942721
40
0.625591522429445
40
0.632568767402893
40
0.639546012376341
40
0.646523257349789
40
0.653500502323237
40
0.656989124809961
40
0.660477747296684
40
0.663966369783409
40
0.667454992270132
40
0.67443223724358
40
0.681409482217028
40
0.684898104703752
40
0.688386727190476
40
0.6918753496772
40
0.695363972163924
40
0.698852594650648
40
0.702341217137372
40
0.70931846211082
40
0.712807084597544
40
0.716295707084268
40
0.723272952057715
40
0.730250197031163
40
0.733738819517887
40
0.737227442004611
40
0.744204686978059
40
0.747693309464783
40
0.749437620708145
40
0.751181931951507
40
0.754670554438231
40
0.758159176924955
40
0.765136421898403
40
0.768625044385127
40
0.772113666871851
40
0.775602289358575
40
0.779090911845299
40
0.782579534332022
40
0.786068156818746
40
0.78955677930547
40
0.793045401792194
40
0.796534024278918
40
0.800022646765642
40
0.80699989173909
40
0.810488514225814
40
0.813977136712538
40
0.817465759199262
40
0.819210070442624
40
0.820954381685986
40
0.82444300417271
40
0.827931626659434
40
0.831420249146158
40
0.834908871632882
40
0.838397494119606
40
0.84188611660633
40
0.848863361579777
40
0.855840606553225
40
0.859329229039949
40
0.862817851526673
40
0.869795096500121
40
0.873283718986845
40
0.876772341473569
40
0.880260963960293
40
0.883749586447017
40
0.887238208933741
40
0.890726831420465
40
0.894215453907189
40
0.897704076393913
40
0.904681321367361
40
0.908169943854084
40
0.911658566340808
40
0.915147188827532
40
0.918635811314256
40
0.92212443380098
40
0.925613056287704
40
0.932590301261152
40
0.936078923747876
40
0.9395675462346
40
0.943056168721324
40
0.946544791208048
40
0.953522036181496
40
0.95701065866822
40
0.960499281154944
40
0.963987903641667
40
0.967476526128392
40
0.970965148615115
40
0.97445377110184
40
0.977942393588563
40
0.981431016075287
40
0.984919638562011
40
0.988408261048735
40
0.991896883535459
40
0.995385506022183
40
0.998874128508907
40
1
40
1
40
1
40
1
41
1
10
-22.5
20
-13.4956558868332
30
0
41
1
10
-22.5
20
-13.4959561190345
30
0
41
1
10
-22.5
20
-13.4970362691947
30
0
41
1
10
-22.5
20
-13.4978716184631
30
0
41
1
10
-22.5
20
-13.4969161903089
30
0
41
1
10
-22.5
20
-13.4939625245411
30
0
41
1
10
-22.5
20
-13.4890441905268
30
0
41
1
10
-22.5
20
-13.4821928739338
30
0
41
1
10
-22.5
20
-13.4734382711797
30
0
41
1
10
-22.5
20
-13.4628104278487
30
0
41
1
10
-22.5
20
-13.4503375493538
30
0
41
1
10
-22.5
20
-13.4312436783152
30
0
41
1
10
-22.5
20
-13.402990048048
30
0
41
1
10
-22.5
20
-13.3620642251226
30
0
41
1
10
-22.5
20
-13.3223661774289
30
0
41
1
10
-22.5
20
-13.2871835761246
30
0
41
1
10
-22.5
20
-13.2592104836088
30
0
41
1
10
-22.5
20
-13.2296213566399
30
0
41
1
10
-22.5
20
-13.1879639126742
30
0
41
1
10
-22.5
20
-13.1433841284413
30
0
41
1
10
-22.5
20
-13.0954724183383
30
0
41
1
10
-22.5
20
-13.0580720783436
30
0
41
1
10
-22.5
20
-13.0191589474766
30
0
41
1
10
-22.5
20
-12.9787481075024
30
0
41
1
10
-22.5
20
-12.9368537004399
30
0
41
1
10
-22.5
20
-12.8789379874313
30
0
41
1
10
-22.5
20
-12.8184132188765
30
0
41
1
10
-22.5
20
-12.7547247883428
30
0
41
1
10
-22.5
20
-12.7056201369325
30
0
41
1
10
-22.5
20
-12.6551113810006
30
0
41
1
10
-22.5
20
-12.6032111684974
30
0
41
1
10
-22.5
20
-12.5499297998313
30
0
41
1
10
-22.5
20
-12.4952790326449
30
0
41
1
10
-22.5
20
-12.4392702770472
30
0
41
1
10
-22.5
20
-12.3626709718699
30
0
41
1
10
-22.5
20
-12.2837700633604
30
0
41
1
10
-22.5
20
-12.2018541666219
30
0
41
1
10
-22.5
20
-12.1181901660327
30
0
41
1
10
-22.5
20
-12.0106580823312
30
0
41
1
10
-22.5
20
-11.8988607853737
30
0
41
1
10
-22.5
20
-11.8066390784571
30
0
41
1
10
-22.5
20
-11.7363216027856
30
0
41
1
10
-22.5
20
-11.6647550005754
30
0
41
1
10
-22.5
20
-11.59194615036
30
0
41
1
10
-22.5
20
-11.5179033392113
30
0
41
1
10
-22.5
20
-11.4552554262223
30
0
41
1
10
-22.5
20
-11.4043880916922
30
0
41
1
10
-22.5
20
-11.3531143221947
30
0
41
1
10
-22.5
20
-11.2884404549429
30
0
41
1
10
-22.5
20
-11.2095312020912
30
0
41
1
10
-22.5
20
-11.1025558247745
30
0
41
1
10
-22.5
20
-10.9936883814227
30
0
41
1
10
-22.5
20
-10.881957392112
30
0
41
1
10
-22.5
20
-10.7971107518715
30
0
41
1
10
-22.5
20
-10.7110949831286
30
0
41
1
10
-22.5
20
-10.6239149454148
30
0
41
1
10
-22.5
20
-10.5355769819029
30
0
41
1
10
-22.5
20
-10.4460865275718
30
0
41
1
10
-22.5
20
-10.3554481215356
30
0
41
1
10
-22.5
20
-10.2636670923514
30
0
41
1
10
-22.5
20
-10.1707494549495
30
0
41
1
10
-22.5
20
-10.0451570413025
30
0
41
1
10
-22.5
20
-9.9178935930201
30
0
41
1
10
-22.5
20
-9.78780083934149
30
0
41
1
10
-22.5
20
-9.70579078784203
30
0
41
1
10
-22.5
20
-9.63944489130404
30
0
41
1
10
-22.5
20
-9.57273011219269
30
0
41
1
10
-22.5
20
-9.45508832781687
30
0
41
1
10
-22.5
20
-9.31898450356377
30
0
41
1
10
-22.5
20
-9.18004983919923
30
0
41
1
10
-22.5
20
-9.03966368952015
30
0
41
1
10
-22.5
20
-8.86197296792949
30
0
41
1
10
-22.5
20
-8.68069429175796
30
0
41
1
10
-22.5
20
-8.53310893756458
30
0
41
1
10
-22.5
20
-8.38410353449396
30
0
41
1
10
-22.5
20
-8.23370690743869
30
0
41
1
10
-22.5
20
-8.08045168982594
30
0
41
1
10
-22.5
20
-7.96465014223952
30
0
41
1
10
-22.5
20
-7.84779993569691
30
0
41
1
10
-22.5
20
-7.72990617143802
30
0
41
1
10
-22.5
20
-7.61097083499584
30
0
41
1
10
-22.5
20
-7.45073654157579
30
0
41
1
10
-22.5
20
-7.24848505186407
30
0
41
1
10
-22.5
20
-7.04280518235291
30
0
41
1
10
-22.5
20
-6.87569112826711
30
0
41
1
10
-22.5
20
-6.74956632065386
30
0
41
1
10
-22.5
20
-6.62242827644155
30
0
41
1
10
-22.5
20
-6.4512555331213
30
0
41
1
10
-22.5
20
-6.23550102644131
30
0
41
1
10
-22.5
20
-5.97220551217549
30
0
41
1
10
-22.5
20
-5.70495651005669
30
0
41
1
10
-22.5
20
-5.47933703035866
30
0
41
1
10
-22.5
20
-5.29623480232564
30
0
41
1
10
-22.5
20
-5.15823567759486
30
0
41
1
10
-22.5
20
-5.01927995326392
30
0
41
1
10
-22.5
20
-4.87937450907222
30
0
41
1
10
-22.5
20
-4.73852599905979
30
0
41
1
10
-22.5
20
-4.59674211262629
30
0
41
1
10
-22.5
20
-4.45403157575558
30
0
41
1
10
-22.5
20
-4.31040309161111
30
0
41
1
10
-22.5
20
-4.16586580001649
30
0
41
1
10
-22.5
20
-4.02043049501106
30
0
41
1
10
-22.5
20
-3.87410976932693
30
0
41
1
10
-22.5
20
-3.72691565105669
30
0
41
1
10
-22.5
20
-3.57886126909131
30
0
41
1
10
-22.5
20
-3.4299627769704
30
0
41
1
10
-22.5
20
-3.28023687778401
30
0
41
1
10
-22.5
20
-3.12970257053468
30
0
41
1
10
-22.5
20
-2.97838003358396
30
0
41
1
10
-22.5
20
-2.8262921676581
30
0
41
1
10
-22.5
20
-2.67346525953189
30
0
41
1
10
-22.5
20
-2.51992549648591
30
0
41
1
10
-22.5
20
-2.39172828921559
30
0
41
1
10
-22.5
20
-2.2882368400623
30
0
41
1
10
-22.5
20
-2.18454587114542
30
0
41
1
10
-22.5
20
-2.08161602870015
30
0
41
1
10
-22.5
20
-1.97729727415896
30
0
41
1
10
-22.5
20
-1.89920682890118
30
0
41
1
10
-22.5
20
-1.82098464012651
30
0
41
1
10
-22.5
20
-1.74263823347056
30
0
41
1
10
-22.5
20
-1.66417084854152
30
0
41
1
10
-22.5
20
-1.58559123041411
30
0
41
1
10
-22.5
20
-1.50690426712365
30
0
41
1
10
-22.5
20
-1.40144074045128
30
0
41
1
10
-22.5
20
-1.29707563275716
30
0
41
1
10
-22.5
20
-1.1912185842138
30
0
41
1
10
-22.5
20
-1.11209553564783
30
0
41
1
10
-22.5
20
-1.03290644237791
30
0
41
1
10
-22.5
20
-0.95365606681014
30
0
41
1
10
-22.5
20
-0.874352168955852
30
0
41
1
10
-22.5
20
-0.795000198505278
30
0
41
1
10
-22.5
20
-0.71560660892132
30
0
41
1
10
-22.5
20
-0.63617666680787
30
0
41
1
10
-22.5
20
-0.556715993884097
30
0
41
1
10
-22.5
20
-0.477229338262958
30
0
41
1
10
-22.5
20
-0.397721593521055
30
0
41
1
10
-22.5
20
-0.318196568076161
30
0
41
1
10
-22.5
20
-0.238658582119825
30
0
41
1
10
-22.5
20
-0.159110826532412
30
0
41
1
10
-22.5
20
-0.0795570008675952
30
0
41
1
10
-22.5
20
4.3520458E-09
30
0
41
1
10
-22.5
20
0.0795570195282949
30
0
41
1
10
-22.5
20
0.159110863620981
30
0
41
1
10
-22.5
20
0.238658616598514
30
0
41
1
10
-22.5
20
0.318196574925025
30
0
41
1
10
-22.5
20
0.397721596430074
30
0
41
1
10
-22.5
20
0.477229377934975
30
0
41
1
10
-22.5
20
0.556716044364009
30
0
41
1
10
-22.5
20
0.63617667254502
30
0
41
1
10
-22.5
20
0.715606595157226
30
0
41
1
10
-22.5
20
0.795000235128668
30
0
41
1
10
-22.5
20
0.874352236673616
30
0
41
1
10
-22.5
20
0.953656082911976
30
0
41
1
10
-22.5
20
1.03290641330761
30
0
41
1
10
-22.5
20
1.11209555133374
30
0
41
1
10
-22.5
20
1.19121866112906
30
0
41
1
10
-22.5
20
1.29707565327635
30
0
41
1
10
-22.5
20
1.40144071039387
30
0
41
1
10
-22.5
20
1.50690430877853
30
0
41
1
10
-22.5
20
1.58559131690836
30
0
41
1
10
-22.5
20
1.66417088377818
30
0
41
1
10
-22.5
20
1.74263820265685
30
0
41
1
10
-22.5
20
1.82098461234611
30
0
41
1
10
-22.5
20
1.89920687090043
30
0
41
1
10
-22.5
20
1.97729736527978
30
0
41
1
10
-22.5
20
2.08161605220536
30
0
41
1
10
-22.5
20
2.18454583019772
30
0
41
1
10
-22.5
20
2.28823685042076
30
0
41
1
10
-22.5
20
2.39172837491469
30
0
41
1
10
-22.5
20
2.51992552331163
30
0
41
1
10
-22.5
20
2.67346522993279
30
0
41
1
10
-22.5
20
2.82629223006825
30
0
41
1
10
-22.5
20
2.9783800820847
30
0
41
1
10
-22.5
20
3.12970236953149
30
0
41
1
10
-22.5
20
3.2802363758513
30
0
41
1
10
-22.5
20
3.42996282061054
30
0
41
1
10
-22.5
20
3.57886234252629
30
0
41
1
10
-22.5
20
3.72691655621918
30
0
41
1
10
-22.5
20
3.87410940415094
30
0
41
1
10
-22.5
20
4.02042950258553
30
0
41
1
10
-22.5
20
4.1658649918152
30
0
41
1
10
-22.5
20
4.31040320562681
30
0
41
1
10
-22.5
20
4.45403251641869
30
0
41
1
10
-22.5
20
4.59674271442694
30
0
41
1
10
-22.5
20
4.73852585442467
30
0
41
1
10
-22.5
20
4.87937424460151
30
0
41
1
10
-22.5
20
5.01927991936705
30
0
41
1
10
-22.5
20
5.15823571506778
30
0
41
1
10
-22.5
20
5.29623478947158
30
0
41
1
10
-22.5
20
5.47933703089231
30
0
41
1
10
-22.5
20
5.70495655337433
30
0
41
1
10
-22.5
20
5.97220551419213
30
0
41
1
10
-22.5
20
6.23550104742759
30
0
41
1
10
-22.5
20
6.451255571394
30
0
41
1
10
-22.5
20
6.6224282598192
30
0
41
1
10
-22.5
20
6.74956631857708
30
0
41
1
10
-22.5
20
6.87569116366484
30
0
41
1
10
-22.5
20
7.04280522024894
30
0
41
1
10
-22.5
20
7.24848505302427
30
0
41
1
10
-22.5
20
7.4507365478344
30
0
41
1
10
-22.5
20
7.6109708771202
30
0
41
1
10
-22.5
20
7.72990620240671
30
0
41
1
10
-22.5
20
7.84779994085653
30
0
41
1
10
-22.5
20
7.96465013686171
30
0
41
1
10
-22.5
20
8.08045169790759
30
0
41
1
10
-22.5
20
8.23370694014301
30
0
41
1
10
-22.5
20
8.38410356414289
30
0
41
1
10
-22.5
20
8.53310893988203
30
0
41
1
10
-22.5
20
8.68069429599308
30
0
41
1
10
-22.5
20
8.8619729936481
30
0
41
1
10
-22.5
20
9.0396637144479
30
0
41
1
10
-22.5
20
9.18004984465043
30
0
41
1
10
-22.5
20
9.31898451102214
30
0
41
1
10
-22.5
20
9.45508835059124
30
0
41
1
10
-22.5
20
9.57273013875857
30
0
41
1
10
-22.5
20
9.63944491324963
30
0
41
1
10
-22.5
20
9.70579080403837
30
0
41
1
10
-22.5
20
9.7878008492857
30
0
41
1
10
-22.5
20
9.91789360326428
30
0
41
1
10
-22.5
20
10.0451570606616
30
0
41
1
10
-22.5
20
10.1707494782419
30
0
41
1
10
-22.5
20
10.2636671117607
30
0
41
1
10
-22.5
20
10.3554481360506
30
0
41
1
10
-22.5
20
10.4460865401309
30
0
41
1
10
-22.5
20
10.5355769962349
30
0
41
1
10
-22.5
20
10.6239149629423
30
0
41
1
10
-22.5
20
10.7110950034658
30
0
41
1
10
-22.5
20
10.7971107724731
30
0
41
1
10
-22.5
20
10.881957410682
30
0
41
1
10
-22.5
20
10.9936883968037
30
0
41
1
10
-22.5
20
11.1025558384385
30
0
41
1
10
-22.5
20
11.2095312195267
30
0
41
1
10
-22.5
20
11.2884404756242
30
0
41
1
10
-22.5
20
11.3531143441571
30
0
41
1
10
-22.5
20
11.4043881128182
30
0
41
1
10
-22.5
20
11.4552554448703
30
0
41
1
10
-22.5
20
11.5179033535968
30
0
41
1
10
-22.5
20
11.5919461625789
30
0
41
1
10
-22.5
20
11.664755015164
30
0
41
1
10
-22.5
20
11.7363216229303
30
0
41
1
10
-22.5
20
11.8066391033683
30
0
41
1
10
-22.5
20
11.8988608066557
30
0
41
1
10
-22.5
20
12.0106580919609
30
0
41
1
10
-22.5
20
12.1181901818312
30
0
41
1
10
-22.5
20
12.2018541939414
30
0
41
1
10
-22.5
20
12.2837700876339
30
0
41
1
10
-22.5
20
12.3626709807027
30
0
41
1
10
-22.5
20
12.4392702870471
30
0
41
1
10
-22.5
20
12.4952790541085
30
0
41
1
10
-22.5
20
12.5499298292215
30
0
41
1
10
-22.5
20
12.6032111946844
30
0
41
1
10
-22.5
20
12.6551113940766
30
0
41
1
10
-22.5
20
12.7056201424592
30
0
41
1
10
-22.5
20
12.7547247990428
30
0
41
1
10
-22.5
20
12.8184132466048
30
0
41
1
10
-22.5
20
12.8789380178894
30
0
41
1
10
-22.5
20
12.9368537080862
30
0
41
1
10
-22.5
20
12.9787481114295
30
0
41
1
10
-22.5
20
13.0191589652135
30
0
41
1
10
-22.5
20
13.0580721081213
30
0
41
1
10
-22.5
20
13.0954724456838
30
0
41
1
10
-22.5
20
13.143384141029
30
0
41
1
10
-22.5
20
13.1879639125281
30
0
41
1
10
-22.5
20
13.2296213845592
30
0
41
1
10
-22.5
20
13.2592105165633
30
0
41
1
10
-22.5
20
13.2871835921006
30
0
41
1
10
-22.5
20
13.3223661764574
30
0
41
1
10
-22.5
20
13.3540536969874
30
0
41
1
10
-22.5
20
13.3825245595672
30
0
41
1
10
-22.5
20
13.4021158939438
30
0
41
1
10
-22.5
20
13.4199649415155
30
0
41
1
10
-22.5
20
13.4360470510206
30
0
41
1
10
-22.5
20
13.4503375548199
30
0
41
1
10
-22.5
20
13.4628103286331
30
0
41
1
10
-22.5
20
13.4734380181859
30
0
41
1
10
-22.5
20
13.4821927509398
30
0
41
1
10
-22.5
20
13.4890446841776
30
0
41
1
10
-22.5
20
13.4939634903146
30
0
41
1
10
-22.5
20
13.4969168014739
30
0
41
1
10
-22.5
20
13.4978715423881
30
0
41
1
10
-22.5
20
13.4970361710972
30
0
41
1
10
-22.5
20
13.4959567858614
30
0
41
1
10
-22.5
20
13.4956572822586
30
0
0
SPLINE
5
24E
100
AcDbEntity
8
SK1
62
256
6
ByLayer
370
-1
48
1
60
0
100
AcDbSpline
70
4
71
3
72
116
73
112
40
0
40
0
40
0
40
0
40
0.0055297479119424
40
0.0135541185103643
40
0.0215784891087861
40
0.0296028597072079
40
0.0376272303056297
40
0.0456516009040516
40
0.0536759715024734
40
0.0617003421008952
40
0.0697247126993171
40
0.0777490832977389
40
0.0857734538961607
40
0.0937978244945825
40
0.101822195093004
40
0.109846565691426
40
0.117870936289848
40
0.12589530688827
40
0.133919677486692
40
0.141944048085113
40
0.149968418683535
40
0.157992789281957
40
0.166017159880379
40
0.182065901077223
40
0.198114642274066
40
0.21416338347091
40
0.230212124667754
40
0.238236495266175
40
0.246260865864597
40
0.254285236463019
40
0.262309607061441
40
0.278358348258284
40
0.294407089455128
40
0.30243146005355
40
0.310455830651972
40
0.318480201250394
40
0.326504571848815
40
0.334528942447237
40
0.342553313045659
40
0.358602054242503
40
0.366626424840925
40
0.374650795439346
40
0.39069953663619
40
0.406748277833034
40
0.414772648431456
40
0.422797019029877
40
0.438845760226721
40
0.446870130825143
40
0.450882316124354
40
0.454894501423565
40
0.462918872021987
40
0.470943242620408
40
0.486991983817252
40
0.495016354415674
40
0.503040725014096
40
0.511065095612517
40
0.519089466210939
40
0.527113836809361
40
0.535138207407783
40
0.543162578006205
40
0.551186948604627
40
0.559211319203048
40
0.56723568980147
40
0.583284430998314
40
0.591308801596736
40
0.599333172195158
40
0.607357542793579
40
0.61136972809279
40
0.615381913392001
40
0.623406283990423
40
0.631430654588845
40
0.639455025187267
40
0.647479395785689
40
0.65550376638411
40
0.663528136982532
40
0.679576878179376
40
0.695625619376219
40
0.703649989974641
40
0.711674360573063
40
0.727723101769907
40
0.735747472368329
40
0.74377184296675
40
0.751796213565172
40
0.759820584163594
40
0.767844954762016
40
0.775869325360438
40
0.78389369595886
40
0.791918066557281
40
0.807966807754125
40
0.815991178352547
40
0.824015548950969
40
0.832039919549391
40
0.840064290147812
40
0.848088660746234
40
0.856113031344656
40
0.8721617725415
40
0.880186143139922
40
0.888210513738343
40
0.896234884336765
40
0.904259254935187
40
0.920307996132031
40
0.928332366730453
40
0.936356737328874
40
0.944381107927296
40
0.952405478525718
40
0.96042984912414
40
0.968454219722562
40
0.976478590320983
40
0.984502960919405
40
0.992527331517827
40
1
40
1
40
1
40
1
41
1
10
-1.69999999999999
20
2.5837250319525
30
0
41
1
10
-1.69999999999999
20
2.62111400924692
30
0
41
1
10
-1.69999999999999
20
2.71257747842986
30
0
41
1
10
-1.69999999999999
20
2.85743848960826
30
0
41
1
10
-1.69999999999999
20
3.01805529196176
30
0
41
1
10
-1.69999999999999
20
3.17766896347746
30
0
41
1
10
-1.69999999999999
20
3.33626946559076
30
0
41
1
10
-1.69999999999999
20
3.49384788295134
30
0
41
1
10
-1.69999999999999
20
3.65039703338328
30
0
41
1
10
-1.69999999999999
20
3.80591068333541
30
0
41
1
10
-1.69999999999999
20
3.9603838288908
30
0
41
1
10
-1.69999999999999
20
4.11381118090259
30
0
41
1
10
-1.69999999999999
20
4.26618881241484
30
0
41
1
10
-1.69999999999999
20
4.41751369191317
30
0
41
1
10
-1.69999999999999
20
4.56778315161375
30
0
41
1
10
-1.69999999999999
20
4.7169946256985
30
0
41
1
10
-1.69999999999999
20
4.86514572624662
30
0
41
1
10
-1.69999999999999
20
5.01223421717728
30
0
41
1
10
-1.69999999999999
20
5.15825863689906
30
0
41
1
10
-1.69999999999999
20
5.30321731736851
30
0
41
1
10
-1.69999999999999
20
5.44710902267545
30
0
41
1
10
-1.69999999999999
20
5.58993219435266
30
0
41
1
10
-1.69999999999999
20
5.77892152593586
30
0
41
1
10
-1.69999999999999
20
6.01251450148573
30
0
41
1
10
-1.69999999999999
20
6.28851702131561
30
0
41
1
10
-1.69999999999999
20
6.56021849497904
30
0
41
1
10
-1.69999999999999
20
6.78305839594086
30
0
41
1
10
-1.69999999999999
20
6.95914718913937
30
0
41
1
10
-1.69999999999999
20
7.0901422748378
30
0
41
1
10
-1.69999999999999
20
7.22005471809891
30
0
41
1
10
-1.69999999999999
20
7.391814483107
30
0
41
1
10
-1.69999999999999
20
7.60382757721297
30
0
41
1
10
-1.69999999999999
20
7.81221412115067
30
0
41
1
10
-1.69999999999999
20
7.97672004102665
30
0
41
1
10
-1.69999999999999
20
8.09901466976936
30
0
41
1
10
-1.69999999999999
20
8.22021382021134
30
0
41
1
10
-1.69999999999999
20
8.34031608257325
30
0
41
1
10
-1.69999999999999
20
8.45931946186533
30
0
41
1
10
-1.69999999999999
20
8.61651163422607
30
0
41
1
10
-1.69999999999999
20
8.77152769372714
30
0
41
1
10
-1.69999999999999
20
8.92429762219672
30
0
41
1
10
-1.69999999999999
20
9.07558728630886
30
0
41
1
10
-1.69999999999999
20
9.26193699842017
30
0
41
1
10
-1.69999999999999
20
9.44455857133374
30
0
41
1
10
-1.69999999999999
20
9.58839009925038
30
0
41
1
10
-1.69999999999999
20
9.73071863089592
30
0
41
1
10
-1.69999999999999
20
9.87081045044334
30
0
41
1
10
-1.69999999999999
20
9.99138145148612
30
0
41
1
10
-1.69999999999999
20
10.059706595653
30
0
41
1
10
-1.69999999999999
20
10.127650582945
30
0
41
1
10
-1.69999999999999
20
10.2118742978003
30
0
41
1
10
-1.69999999999999
20
10.3450861597474
30
0
41
1
10
-1.69999999999999
20
10.4760157822056
30
0
41
1
10
-1.69999999999999
20
10.6046008653873
30
0
41
1
10
-1.69999999999999
20
10.6998796625668
30
0
41
1
10
-1.69999999999999
20
10.7939888545435
30
0
41
1
10
-1.69999999999999
20
10.8869237943964
30
0
41
1
10
-1.69999999999999
20
10.9786794570574
30
0
41
1
10
-1.69999999999999
20
11.069250952524
30
0
41
1
10
-1.69999999999999
20
11.1586337774266
30
0
41
1
10
-1.69999999999999
20
11.2468221981049
30
0
41
1
10
-1.69999999999999
20
11.3338110691597
30
0
41
1
10
-1.69999999999999
20
11.4481829097131
30
0
41
1
10
-1.69999999999999
20
11.5601529310588
30
0
41
1
10
-1.69999999999999
20
11.6696587897978
30
0
41
1
10
-1.69999999999999
20
11.7505641463283
30
0
41
1
10
-1.69999999999999
20
11.8169591619061
30
0
41
1
10
-1.69999999999999
20
11.869448828233
30
0
41
1
10
-1.69999999999999
20
11.9215236271769
30
0
41
1
10
-1.69999999999999
20
11.9858436943514
30
0
41
1
10
-1.69999999999999
20
12.0617686735772
30
0
41
1
10
-1.69999999999999
20
12.1364317035572
30
0
41
1
10
-1.69999999999999
20
12.2098248313331
30
0
41
1
10
-1.69999999999999
20
12.2819407102379
30
0
41
1
10
-1.69999999999999
20
12.3763763795169
30
0
41
1
10
-1.69999999999999
20
12.4912006631364
30
0
41
1
10
-1.69999999999999
20
12.6016599065257
30
0
41
1
10
-1.69999999999999
20
12.687362440577
30
0
41
1
10
-1.69999999999999
20
12.7712834981639
30
0
41
1
10
-1.69999999999999
20
12.8525264302737
30
0
41
1
10
-1.69999999999999
20
12.9310230820619
30
0
41
1
10
-1.69999999999999
20
12.9885221046098
30
0
41
1
10
-1.69999999999999
20
13.0446338377524
30
0
41
1
10
-1.69999999999999
20
13.0993474417035
30
0
41
1
10
-1.69999999999999
20
13.1526505331688
30
0
41
1
10
-1.69999999999999
20
13.2045321176789
30
0
41
1
10
-1.69999999999999
20
13.2549799687684
30
0
41
1
10
-1.69999999999999
20
13.3203101272292
30
0
41
1
10
-1.69999999999999
20
13.3827344481881
30
0
41
1
10
-1.69999999999999
20
13.4421723383994
30
0
41
1
10
-1.69999999999999
20
13.4852529409442
30
0
41
1
10
-1.69999999999999
20
13.5268172136993
30
0
41
1
10
-1.69999999999999
20
13.5668499598694
30
0
41
1
10
-1.69999999999999
20
13.6053356175566
30
0
41
1
10
-1.69999999999999
20
13.6545611570253
30
0
41
1
10
-1.69999999999999
20
13.7006353167884
30
0
41
1
10
-1.69999999999999
20
13.7434661079967
30
0
41
1
10
-1.69999999999999
20
13.7739560268625
30
0
41
1
10
-1.69999999999999
20
13.8027899277569
30
0
41
1
10
-1.69999999999999
20
13.8389980176944
30
0
41
1
10
-1.69999999999999
20
13.8718187984145
30
0
41
1
10
-1.69999999999999
20
13.9011479145568
30
0
41
1
10
-1.69999999999999
20
13.9213794981548
30
0
41
1
10
-1.69999999999999
20
13.9398197437578
30
0
41
1
10
-1.69999999999999
20
13.9564420504847
30
0
41
1
10
-1.69999999999999
20
13.9712195410175
30
0
41
1
10
-1.69999999999999
20
13.9841238377961
30
0
41
1
10
-1.69999999999999
20
13.9951249982352
30
0
41
1
10
-1.69999999999999
20
14.0041924220526
30
0
41
1
10
-1.69999999999999
20
14.0111305156013
30
0
41
1
10
-1.69999999999999
20
14.0144583106362
30
0
41
1
10
-1.69999999999999
20
14.015769031905
30
0
0
SPLINE
5
24F
100
AcDbEntity
8
SK1
62
256
6
ByLayer
370
-1
48
1
60
0
100
AcDbSpline
70
4
71
3
72
117
73
113
40
0
40
0
40
0
40
0
40
0.0001127133181422
40
0.0080343155480626
40
0.0159559177779831
40
0.0238775200079036
40
0.031799122237824
40
0.0397207244677445
40
0.0476423266976649
40
0.0555639289275854
40
0.0634855311575059
40
0.0793287356173468
40
0.0951719400771877
40
0.111015144537029
40
0.118936746766949
40
0.12685834899687
40
0.13477995122679
40
0.142701553456711
40
0.158544757916551
40
0.166466360146472
40
0.174387962376392
40
0.182309564606313
40
0.190231166836233
40
0.198152769066154
40
0.206074371296074
40
0.221917575755915
40
0.229839177985836
40
0.237760780215756
40
0.245682382445676
40
0.253603984675597
40
0.261525586905517
40
0.269447189135438
40
0.277368791365358
40
0.285290393595279
40
0.30113359805512
40
0.30905520028504
40
0.316976802514961
40
0.332820006974802
40
0.348663211434643
40
0.356584813664563
40
0.364506415894483
40
0.372428018124404
40
0.380349620354324
40
0.388271222584245
40
0.396192824814165
40
0.400153625929125
40
0.404114427044086
40
0.412036029274006
40
0.419957631503927
40
0.427879233733847
40
0.443722438193688
40
0.451644040423608
40
0.459565642653529
40
0.467487244883449
40
0.47540884711337
40
0.48333044934329
40
0.491252051573211
40
0.499173653803131
40
0.507095256033052
40
0.515016858262972
40
0.522938460492893
40
0.538781664952734
40
0.546703267182654
40
0.554624869412574
40
0.558585670527535
40
0.562546471642495
40
0.570468073872415
40
0.586311278332256
40
0.594232880562177
40
0.602154482792097
40
0.617997687251938
40
0.633840891711779
40
0.641762493941699
40
0.64968409617162
40
0.665527300631461
40
0.673448902861381
40
0.681370505091302
40
0.689292107321222
40
0.697213709551143
40
0.705135311781063
40
0.713056914010984
40
0.728900118470824
40
0.744743322930665
40
0.752664925160586
40
0.760586527390506
40
0.768508129620427
40
0.776429731850347
40
0.792272936310188
40
0.808116140770029
40
0.82395934522987
40
0.839802549689711
40
0.847724151919631
40
0.855645754149552
40
0.863567356379472
40
0.871488958609393
40
0.879410560839313
40
0.887332163069234
40
0.895253765299154
40
0.903175367529075
40
0.911096969758995
40
0.919018571988916
40
0.926940174218836
40
0.934861776448756
40
0.942783378678677
40
0.950704980908597
40
0.958626583138518
40
0.966548185368438
40
0.974469787598359
40
0.982391389828279
40
0.9903129920582
40
0.99823459428812
40
1
40
1
40
1
40
1
41
1
10
-1.49503997793924
20
-13.8251837283163
30
0
41
1
10
-1.49503997793929
20
-13.8251847284163
30
0
41
1
10
-1.49503997793931
20
-13.8252108748304
30
0
41
1
10
-1.49503997793931
20
-13.8245539604948
30
0
41
1
10
-1.49503997793931
20
-13.8215305966481
30
0
41
1
10
-1.49503997793931
20
-13.8164982902869
30
0
41
1
10
-1.49503997793931
20
-13.8094909095343
30
0
41
1
10
-1.49503997793931
20
-13.8005402090708
30
0
41
1
10
-1.49503997793931
20
-13.7896781830989
30
0
41
1
10
-1.49503997793931
20
-13.7769347476405
30
0
41
1
10
-1.49503997793931
20
-13.7574597557179
30
0
41
1
10
-1.49503997793931
20
-13.7285859139399
30
0
41
1
10
-1.49503997793931
20
-13.6868269300449
30
0
41
1
10
-1.49503997793931
20
-13.6462985077496
30
0
41
1
10
-1.49503997793931
20
-13.6104729008558
30
0
41
1
10
-1.49503997793931
20
-13.5819600687286
30
0
41
1
10
-1.49503997793931
20
-13.5518061457236
30
0
41
1
10
-1.49503997793931
20
-13.509413016618
30
0
41
1
10
-1.49503997793931
20
-13.4638962341071
30
0
41
1
10
-1.49503997793931
20
-13.4151607370273
30
0
41
1
10
-1.49503997793931
20
-13.3770798968994
30
0
41
1
10
-1.49503997793931
20
-13.3374647662751
30
0
41
1
10
-1.49503997793931
20
-13.2963307178616
30
0
41
1
10
-1.49503997793931
20
-13.2536925499096
30
0
41
1
10
-1.49503997793931
20
-13.1948224098965
30
0
41
1
10
-1.49503997793931
20
-13.1331066142243
30
0
41
1
10
-1.49503997793931
20
-13.0683888145289
30
0
41
1
10
-1.49503997793931
20
-13.0184419638584
30
0
41
1
10
-1.49503997793931
20
-12.9670724273821
30
0
41
1
10
-1.49503997793931
20
-12.9142925944038
30
0
41
1
10
-1.49503997793931
20
-12.860113205584
30
0
41
1
10
-1.49503997793931
20
-12.8045464062654
30
0
41
1
10
-1.49503997793931
20
-12.74760324418
30
0
41
1
10
-1.49503997793931
20
-12.6698142834541
30
0
41
1
10
-1.49503997793931
20
-12.5894449005116
30
0
41
1
10
-1.49503997793931
20
-12.50627175547
30
0
41
1
10
-1.49503997793931
20
-12.4213295833849
30
0
41
1
10
-1.49503997793931
20
-12.3119621458456
30
0
41
1
10
-1.49503997793931
20
-12.1982668977617
30
0
41
1
10
-1.49503997793931
20
-12.1046570208051
30
0
41
1
10
-1.49503997793931
20
-12.0332119345842
30
0
41
1
10
-1.49503997793931
20
-11.9605000871413
30
0
41
1
10
-1.49503997793931
20
-11.8865286504803
30
0
41
1
10
-1.49503997793931
20
-11.8113057028001
30
0
41
1
10
-1.49503997793931
20
-11.7476093345099
30
0
41
1
10
-1.49503997793931
20
-11.6959849101866
30
0
41
1
10
-1.49503997793931
20
-11.643948764099
30
0
41
1
10
-1.49503997793931
20
-11.5781957241672
30
0
41
1
10
-1.49503997793931
20
-11.4980348993556
30
0
41
1
10
-1.49503997793931
20
-11.3894728900619
30
0
41
1
10
-1.49503997793931
20
-11.278660103453
30
0
41
1
10
-1.49503997793931
20
-11.1652732784127
30
0
41
1
10
-1.49503997793931
20
-11.0790834423827
30
0
41
1
10
-1.49503997793931
20
-10.9917054044732
30
0
41
1
10
-1.49503997793931
20
-10.9031442025602
30
0
41
1
10
-1.49503997793931
20
-10.8134057967923
30
0
41
1
10
-1.49503997793931
20
-10.7224950378189
30
0
41
1
10
-1.49503997793931
20
-10.6304166849825
30
0
41
1
10
-1.49503997793931
20
-10.5371758780398
30
0
41
1
10
-1.49503997793931
20
-10.4427777751693
30
0
41
1
10
-1.49503997793931
20
-10.3153089364435
30
0
41
1
10
-1.49503997793931
20
-10.1857467684219
30
0
41
1
10
-1.49503997793931
20
-10.0536983054632
30
0
41
1
10
-1.49503997793931
20
-9.97030026745779
30
0
41
1
10
-1.49503997793931
20
-9.90295235506755
30
0
41
1
10
-1.49503997793931
20
-9.83522786489038
30
0
41
1
10
-1.49503997793931
20
-9.71574944153573
30
0
41
1
10
-1.49503997793931
20
-9.57714511427093
30
0
41
1
10
-1.49503997793931
20
-9.43608246295526
30
0
41
1
10
-1.49503997793931
20
-9.29353602958125
30
0
41
1
10
-1.49503997793931
20
-9.11275363063515
30
0
41
1
10
-1.49503997793931
20
-8.92829537712967
30
0
41
1
10
-1.49503997793931
20
-8.77838738443313
30
0
41
1
10
-1.49503997793931
20
-8.62702158956
30
0
41
1
10
-1.49503997793931
20
-8.47372854841302
30
0
41
1
10
-1.49503997793931
20
-8.31800483202281
30
0
41
1
10
-1.49503997793931
20
-8.20019570647173
30
0
41
1
10
-1.49503997793931
20
-8.08130642958628
30
0
41
1
10
-1.49503997793931
20
-7.96134016006346
30
0
41
1
10
-1.49503997793931
20
-7.84029852533041
30
0
41
1
10
-1.49503997793931
20
-7.67738589461936
30
0
41
1
10
-1.49503997793931
20
-7.47128766686797
30
0
41
1
10
-1.49503997793931
20
-7.261636811758
30
0
41
1
10
-1.49503997793931
20
-7.09160986883526
30
0
41
1
10
-1.49503997793931
20
-6.96311018452545
30
0
41
1
10
-1.49503997793931
20
-6.83355373772449
30
0
41
1
10
-1.49503997793931
20
-6.6592985841524
30
0
41
1
10
-1.49503997793931
20
-6.43910149333703
30
0
41
1
10
-1.49503997793931
20
-6.17053536578155
30
0
41
1
10
-1.49503997793931
20
-5.89779783511918
30
0
41
1
10
-1.49503997793931
20
-5.66717892097088
30
0
41
1
10
-1.49503997793931
20
-5.48038541909952
30
0
41
1
10
-1.49503997793931
20
-5.33936157753735
30
0
41
1
10
-1.49503997793931
20
-5.19731095553271
30
0
41
1
10
-1.49503997793931
20
-5.05423706888553
30
0
41
1
10
-1.49503997793931
20
-4.91014315579861
30
0
41
1
10
-1.49503997793931
20
-4.7650332428635
30
0
41
1
10
-1.49503997793931
20
-4.61891156596767
30
0
41
1
10
-1.49503997793931
20
-4.47178260268984
30
0
41
1
10
-1.49503997793931
20
-4.32365113214263
30
0
41
1
10
-1.49503997793931
20
-4.17452288947305
30
0
41
1
10
-1.49503997793931
20
-4.02440432752809
30
0
41
1
10
-1.49503997793931
20
-3.87330192992579
30
0
41
1
10
-1.49503997793931
20
-3.7212231412766
30
0
41
1
10
-1.49503997793931
20
-3.56817690176541
30
0
41
1
10
-1.49503997793931
20
-3.41417271020586
30
0
41
1
10
-1.49503997793931
20
-3.25922165821993
30
0
41
1
10
-1.49503997793931
20
-3.1033357799555
30
0
41
1
10
-1.49503997793931
20
-2.94652918151195
30
0
41
1
10
-1.49503997793931
20
-2.78881794429316
30
0
41
1
10
-1.49503997793931
20
-2.67130381064959
30
0
41
1
10
-1.49503997793931
20
-2.60647323876154
30
0
41
1
10
-1.49503997793931
20
-2.59465115838313
30
0
0
SPLINE
5
250
100
AcDbEntity
8
SK1
62
256
6
ByLayer
370
-1
48
1
60
0
100
AcDbSpline
70
4
71
3
72
24
73
20
40
0
40
0
40
0
40
0
40
0.408002420194574
40
0.408002420194574
40
0.586477084363329
40
0.586477084363329
40
0.763728221544513
40
0.763728221544513
40
0.83464833042642
40
0.83464833042642
40
0.871680147904128
40
0.871680147904128
40
0.909315863704638
40
0.909315863704638
40
0.941446160303592
40
0.941446160303592
40
0.988233002766673
40
0.988233002766673
40
1
40
1
40
1
40
1
41
1
10
-1.30710678118655
20
-3.62781725664615
30
0
41
1
10
-1.25754709276271
20
-3.87919081380429
30
0
41
1
10
-1.19771793926938
20
-4.12580048883993
30
0
41
1
10
-1.07980138365164
20
-4.46640123366592
30
0
41
1
10
-1.03947389583291
20
-4.56855181342542
30
0
41
1
10
-0.943165684412492
20
-4.76452984977917
30
0
41
1
10
-0.887972849225292
20
-4.86076144162979
30
0
41
1
10
-0.781589632759733
20
-4.97623115222154
30
0
41
1
10
-0.746942513659576
20
-5.00751721259149
30
0
41
1
10
-0.685298347589708
20
-5.04425501792002
30
0
41
1
10
-0.662073057062713
20
-5.05499571071985
30
0
41
1
10
-0.612858105189787
20
-5.06918922724967
30
0
41
1
10
-0.586087478285805
20
-5.07253385323432
30
0
41
1
10
-0.537899014579068
20
-5.06994558199364
30
0
41
1
10
-0.515734678473706
20
-5.06532466911642
30
0
41
1
10
-0.465255653618982
20
-5.04798484569733
30
0
41
1
10
-0.437776087568892
20
-5.03248974169182
30
0
41
1
10
-0.406986543980821
20
-5.01034621255963
30
0
41
1
10
-0.400907252385935
20
-5.00570060770795
30
0
41
1
10
-0.394976888875277
20
-5.00092441402839
30
0
0
SPLINE
5
251
100
AcDbEntity
8
1
62
256
6
ByLayer
370
-1
48
1
60
0
100
AcDbSpline
70
4
71
3
72
14
73
10
40
0
40
0
40
0
40
0
40
0.250654849280892
40
0.250654849280892
40
0.50061605724523
40
0.50061605724523
40
0.761141676212504
40
0.761141676212504
40
1
40
1
40
1
40
1
41
1
10
41.4771707339442
20
-26.9944480978306
30
0
41
1
10
41.4653122080921
20
-26.9947163407132
30
0
41
1
10
41.4500845041361
20
-26.9949428518646
30
0
41
1
10
41.4156965664334
20
-26.9952764743705
30
0
41
1
10
41.3961086801661
20
-26.9953885828557
30
0
41
1
10
41.3544820687275
20
-26.9954983717762
30
0
41
1
10
41.3318660972631
20
-26.9954928684374
30
0
41
1
10
41.2888915059893
20
-26.9953763672058
30
0
41
1
10
41.2681081216703
20
-26.995273335455
30
0
41
1
10
41.2481073127981
20
-26.9951310006147
30
0
0
SPLINE
5
252
100
AcDbEntity
8
1
62
256
6
ByLayer
370
-1
48
1
60
0
100
AcDbSpline
70
4
71
3
72
10
73
6
40
0
40
0
40
0
40
0
40
0.303481278345307
40
0.303481278345307
40
1
40
1
40
1
40
1
41
1
10
42.6522121118403
20
-18.0925539581303
30
0
41
1
10
42.6793051208858
20
-18.097826520512
30
0
41
1
10
42.7055034855709
20
-18.1056819722515
30
0
41
1
10
42.7871034513252
20
-18.1378016289975
30
0
41
1
10
42.8382459472445
20
-18.1705717461099
30
0
41
1
10
42.8822792837801
20
-18.2091348808324
30
0
0
SPLINE
5
253
100
AcDbEntity
8
1
62
256
6
ByLayer
370
-1
48
1
60
0
100
AcDbSpline
70
4
71
3
72
10
73
6
40
0
40
0
40
0
40
0
40
0.33992222369292
40
0.33992222369292
40
1
40
1
40
1
40
1
41
1
10
38.7132949050034
20
-25.0850083396942
30
0
41
1
10
38.7752838695681
20
-25.0755062265464
30
0
41
1
10
38.8369355089899
20
-25.0641270293705
30
0
41
1
10
39.0170769893325
20
-25.0252250341656
30
0
41
1
10
39.1345741908806
20
-24.9925603273778
30
0
41
1
10
39.2502014204443
20
-24.95308923787
30
0
0
SPLINE
5
254
100
AcDbEntity
8
1
62
256
6
ByLayer
370
-1
48
1
60
0
100
AcDbSpline
70
4
71
3
72
12
73
8
40
0
40
0
40
0
40
0
40
0.0140782350445077
40
0.0140782350445077
40
0.529465610242867
40
0.529465610242867
40
1
40
1
40
1
40
1
41
1
10
41.7380268821224
20
-17.4934679592819
30
0
41
1
10
41.7374280034201
20
-17.4920775903667
30
0
41
1
10
41.736830011365
20
-17.4906871368825
30
0
41
1
10
41.7143041961999
20
-17.4383261054054
30
0
41
1
10
41.692628518234
20
-17.3873742980861
30
0
41
1
10
41.652736146086
20
-17.2928266553029
30
0
41
1
10
41.6341440947456
20
-17.2483723268677
30
0
41
1
10
41.6170917160078
20
-17.2074428290737
30
0
0
SPLINE
5
255
100
AcDbEntity
8
1
62
256
6
ByLayer
370
-1
48
1
60
0
100
AcDbSpline
70
4
71
3
72
10
73
6
40
0
40
0
40
0
40
0
40
0.691437525404656
40
0.691437525404656
40
1
40
1
40
1
40
1
41
1
10
34.9802469930723
20
-20.200724207561
30
0
41
1
10
34.9585436140746
20
-20.2406366727348
30
0
41
1
10
34.9449227917293
20
-20.2855563901885
30
0
41
1
10
34.9320582296927
20
-20.3516912839748
30
0
41
1
10
34.9290591192559
20
-20.3725105621872
30
0
41
1
10
34.9269225402559
20
-20.3935019941269
30
0
0
SPLINE
5
256
100
AcDbEntity
8
1
62
256
6
ByLayer
370
-1
48
1
60
0
100
AcDbSpline
70
4
71
3
72
12
73
8
40
0
40
0
40
0
40
0
40
0.0140782350444981
40
0.0140782350444981
40
0.529465610242863
40
0.529465610242863
40
1
40
1
40
1
40
1
41
1
10
35.1495851078469
20
-19.9400842950426
30
0
41
1
10
35.1486969874262
20
-19.9413096959207
30
0
41
1
10
35.1478091707205
20
-19.9425349540281
30
0
41
1
10
35.1144105146907
20
-19.9887036860207
30
0
41
1
10
35.0828726407817
20
-20.034203517871
30
0
41
1
10
35.0268450443051
20
-20.1202790404418
30
0
41
1
10
35.0015970367039
20
-20.161461525331
30
0
41
1
10
34.9802469930723
20
-20.200724207561
30
0
0
SPLINE
5
257
100
AcDbEntity
8
1
62
256
6
ByLayer
370
-1
48
1
60
0
100
AcDbSpline
70
4
71
3
72
8
73
4
40
0
40
0
40
0
40
0
40
1
40
1
40
1
40
1
41
1
10
43.2483199340065
20
-15.4172636692526
30
0
41
1
10
43.2913170255547
20
-15.4079752716685
30
0
41
1
10
43.3354924865532
20
-15.3993507399884
30
0
41
1
10
43.3804923826038
20
-15.3916930491081
30
0
0
SPLINE
5
258
100
AcDbEntity
8
1
62
256
6
ByLayer
370
-1
48
1
60
0
100
AcDbSpline
70
4
71
3
72
10
73
6
40
0
40
0
40
0
40
0
40
0.709213553058278
40
0.709213553058278
40
1
40
1
40
1
40
1
41
1
10
35.4427189925937
20
-18.5863263897906
30
0
41
1
10
35.4211841210026
20
-18.6309047325798
30
0
41
1
10
35.4036551388255
20
-18.6774080620261
30
0
41
1
10
35.3889763399519
20
-18.7443516506298
30
0
41
1
10
35.3859094941024
20
-18.764132762927
30
0
41
1
10
35.384625651789
20
-18.7839187144143
30
0
0
SPLINE
5
259
100
AcDbEntity
8
1
62
256
6
ByLayer
370
-1
48
1
60
0
100
AcDbSpline
70
4
71
3
72
14
73
10
40
0
40
0
40
0
40
0
40
0.250654849280886
40
0.250654849280886
40
0.500616057245225
40
0.500616057245225
40
0.761141676212494
40
0.761141676212494
40
1
40
1
40
1
40
1
41
1
10
32.5366494632251
20
-19.5500170850734
30
0
41
1
10
32.5466815517813
20
-19.5374761139316
30
0
41
1
10
32.5577736193374
20
-19.5223017057628
30
0
41
1
10
32.5801219517154
20
-19.489436304575
30
0
41
1
10
32.5916690174577
20
-19.4713299082484
30
0
41
1
10
32.6142580789163
20
-19.4338641279079
30
0
41
1
10
32.6255418857812
20
-19.4140222916138
30
0
41
1
10
32.6453735802093
20
-19.3771549189527
30
0
41
1
10
32.6542558842082
20
-19.359693116737
30
0
41
1
10
32.6621482586075
20
-19.3432291863635
30
0
0
SPLINE
5
25A
100
AcDbEntity
8
1
62
256
6
ByLayer
370
-1
48
1
60
0
100
AcDbSpline
70
4
71
3
72
10
73
6
40
0
40
0
40
0
40
0
40
0.296681385512609
40
0.296681385512609
40
1
40
1
40
1
40
1
41
1
10
41.0271288542051
20
-24.7089519769589
30
0
41
1
10
41.0019979672308
20
-24.713983890969
30
0
41
1
10
40.9764276034559
20
-24.7173874370077
30
0
41
1
10
40.8903102738208
20
-24.7225631830691
30
0
41
1
10
40.8273099862243
20
-24.7160455724148
30
0
41
1
10
40.7676821460126
20
-24.6953069719955
30
0
0
SPLINE
5
25B
100
AcDbEntity
8
1
62
256
6
ByLayer
370
-1
48
1
60
0
100
AcDbSpline
70
4
71
3
72
8
73
4
40
0
40
0
40
0
40
0
40
1
40
1
40
1
40
1
41
1
10
32.6621482586075
20
-19.3432291863635
30
0
41
1
10
32.7145964153651
20
-19.383082575836
30
0
41
1
10
32.7684977522788
20
-19.4211007584622
30
0
41
1
10
32.8229305045124
20
-19.457606751597
30
0
0
SPLINE
5
25C
100
AcDbEntity
8
1
62
256
6
ByLayer
370
-1
48
1
60
0
100
AcDbSpline
70
4
71
3
72
10
73
6
40
0
40
0
40
0
40
0
40
0.70921355305828
40
0.70921355305828
40
1
40
1
40
1
40
1
41
1
10
42.7873169772771
20
-18.4052485240975
30
0
41
1
10
42.7541530537826
20
-18.3668880937606
30
0
41
1
10
42.7171760290405
20
-18.3311650263148
30
0
41
1
10
42.6588959480016
20
-18.2889030642801
30
0
41
1
10
42.6410668546703
20
-18.2775181461225
30
0
41
1
10
42.6223795027999
20
-18.2676791672793
30
0
0
SPLINE
5
25D
100
AcDbEntity
8
1
62
256
6
ByLayer
370
-1
48
1
60
0
100
AcDbSpline
70
4
71
3
72
14
73
10
40
0
40
0
40
0
40
0
40
0.114560016218169
40
0.114560016218169
40
0.305723973353132
40
0.305723973353132
40
0.535366948315998
40
0.535366948315998
40
1
40
1
40
1
40
1
41
1
10
38.8291672113642
20
-25.2594663927211
30
0
41
1
10
38.8278241015491
20
-25.2539298830549
30
0
41
1
10
38.8257728388005
20
-25.2485351227686
30
0
41
1
10
38.8188524423339
20
-25.2351302553405
30
0
41
1
10
38.8129212558014
20
-25.2275426259149
30
0
41
1
10
38.7980905029706
20
-25.2132242399084
30
0
41
1
10
38.7886579034411
20
-25.2067359706096
30
0
41
1
10
38.758912419709
20
-25.1909586858945
30
0
41
1
10
38.7365671762939
20
-25.18490826145
30
0
41
1
10
38.7143305706229
20
-25.1821464007597
30
0
0
SPLINE
5
25E
100
AcDbEntity
8
1
62
256
6
ByLayer
370
-1
48
1
60
0
100
AcDbSpline
70
4
71
3
72
12
73
8
40
0
40
0
40
0
40
0
40
0.473794414023353
40
0.473794414023353
40
0.987278246530695
40
0.987278246530695
40
1
40
1
40
1
40
1
41
1
10
34.8773570431029
20
-20.059170607397
30
0
41
1
10
34.9129593663827
20
-20.040061429125
30
0
41
1
10
34.9545639707217
20
-20.0205778637113
30
0
41
1
10
35.0449302954275
20
-19.981181602532
30
0
41
1
10
35.0949796835866
20
-19.9609819488619
30
0
41
1
10
35.1470698502593
20
-19.9410450536426
30
0
41
1
10
35.1483272526827
20
-19.9405648052209
30
0
41
1
10
35.1495851078469
20
-19.9400842950426
30
0
0
SPLINE
5
25F
100
AcDbEntity
8
1
62
256
6
ByLayer
370
-1
48
1
60
0
100
AcDbSpline
70
4
71
3
72
14
73
10
40
0
40
0
40
0
40
0
40
0.305545320901986
40
0.305545320901986
40
0.618172577983475
40
0.618172577983475
40
0.807733277772227
40
0.807733277772227
40
1
40
1
40
1
40
1
41
1
10
41.8338214862782
20
-24.3930843902437
30
0
41
1
10
41.8216132075734
20
-24.40173595586
30
0
41
1
10
41.8101252343566
20
-24.4116319755125
30
0
41
1
10
41.7897534136766
20
-24.434069812542
30
0
41
1
10
41.78070455425
20
-24.446914642264
30
0
41
1
10
41.7705769587461
20
-24.4694588911442
30
0
41
1
10
41.7677235587555
20
-24.4785859447452
30
0
41
1
10
41.7650989919512
20
-24.497231746693
30
0
41
1
10
41.7653836250653
20
-24.5070274570083
30
0
41
1
10
41.7676088147974
20
-24.5162000386712
30
0
0
SPLINE
5
260
100
AcDbEntity
8
1
62
256
6
ByLayer
370
-1
48
1
60
0
100
AcDbSpline
70
4
71
3
72
14
73
10
40
0
40
0
40
0
40
0
40
0.305545320901991
40
0.305545320901991
40
0.618172577983461
40
0.618172577983461
40
0.80773327777223
40
0.80773327777223
40
1
40
1
40
1
40
1
41
1
10
34.8003860906276
20
-21.0542675804692
30
0
41
1
10
34.7991424655321
20
-21.039230310001
30
0
41
1
10
34.7964752749645
20
-21.0242074111215
30
0
41
1
10
34.7875751245259
20
-20.9951353500691
30
0
41
1
10
34.7811666334751
20
-20.9807903893499
30
0
41
1
10
34.7670267142012
20
-20.9606726913956
30
0
41
1
10
34.7606755048383
20
-20.9536242519948
30
0
41
1
10
34.7460897634427
20
-20.9420426238447
30
0
41
1
10
34.7375909357812
20
-20.9374207434022
30
0
41
1
10
34.7286482668979
20
-20.9348150366191
30
0
0
SPLINE
5
261
100
AcDbEntity
8
1
62
256
6
ByLayer
370
-1
48
1
60
0
100
AcDbSpline
70
4
71
3
72
9
73
5
40
0
40
0
40
0
40
0
40
0.501020281757985
40
1
40
1
40
1
40
1
41
1
10
44.2723438609132
20
-21.9244958400691
30
0
41
1
10
44.3132739672856
20
-21.7129853025928
30
0
41
1
10
44.3949674792305
20
-21.2908256711819
30
0
41
1
10
44.4078512065222
20
-20.8610045416235
30
0
41
1
10
44.414279925136
20
-20.646532515502
30
0
0
SPLINE
5
262
100
AcDbEntity
8
1
62
256
6
ByLayer
370
-1
48
1
60
0
100
AcDbSpline
70
4
71
3
72
12
73
8
40
0
40
0
40
0
40
0
40
0.473794414023362
40
0.473794414023362
40
0.987278246530699
40
0.987278246530699
40
1
40
1
40
1
40
1
41
1
10
40.7676821460125
20
-24.6953069719955
30
0
41
1
10
40.7276833301162
20
-24.6692493872491
30
0
41
1
10
40.686269461566
20
-24.6394773146634
30
0
41
1
10
40.6020392793528
20
-24.5756918539563
30
0
41
1
10
40.5585369879281
20
-24.5408354784928
30
0
41
1
10
40.5155550563499
20
-24.5050066973523
30
0
41
1
10
40.5145191908127
20
-24.5041419138404
30
0
41
1
10
40.5134836882413
20
-24.5032774541863
30
0
0
SPLINE
5
263
100
AcDbEntity
8
1
62
256
6
ByLayer
370
-1
48
1
60
0
100
AcDbSpline
70
4
71
3
72
10
73
6
40
0
40
0
40
0
40
0
40
0.7092135530583
40
0.7092135530583
40
1
40
1
40
1
40
1
41
1
10
39.2502014204443
20
-24.95308923787
30
0
41
1
10
39.293629513783
20
-24.9457556094338
30
0
41
1
10
39.3365668640818
20
-24.9338301361239
30
0
41
1
10
39.3933544517031
20
-24.9075476714087
30
0
41
1
10
39.4095299243488
20
-24.8986841860497
30
0
41
1
10
39.4248601396198
20
-24.8882777908717
30
0
0
SPLINE
5
264
100
AcDbEntity
8
1
62
256
6
ByLayer
370
-1
48
1
60
0
100
AcDbSpline
70
4
71
3
72
14
73
10
40
0
40
0
40
0
40
0
40
0.250654849280885
40
0.250654849280885
40
0.50061605724522
40
0.50061605724522
40
0.76114167621249
40
0.76114167621249
40
1
40
1
40
1
40
1
41
1
10
43.3804923826038
20
-15.3916930491081
30
0
41
1
10
43.3904480003596
20
-15.4047705060151
30
0
41
1
10
43.4014481246768
20
-15.4203979364868
30
0
41
1
10
43.4235982594208
20
-15.4539305826863
30
0
41
1
10
43.4350365609844
20
-15.4722611959833
30
0
41
1
10
43.4574012969029
20
-15.5099465541647
30
0
41
1
10
43.4685666811812
20
-15.5297773837813
30
0
41
1
10
43.488178973502
20
-15.5664117539793
30
0
41
1
10
43.4969576459223
20
-15.5836674926932
30
0
41
1
10
43.5047525806605
20
-15.5998467533861
30
0
0
SPLINE
5
265
100
AcDbEntity
8
1
62
256
6
ByLayer
370
-1
48
1
60
0
100
AcDbSpline
70
4
71
3
72
14
73
10
40
0
40
0
40
0
40
0
40
0.217576655773103
40
0.217576655773103
40
0.418639226347882
40
0.418639226347882
40
0.722992246166045
40
0.722992246166045
40
1
40
1
40
1
40
1
41
1
10
41.7020785325844
20
-24.5313460738987
30
0
41
1
10
41.6971115477895
20
-24.5140150827621
30
0
41
1
10
41.6945089275881
20
-24.4957637040961
30
0
41
1
10
41.6940959909857
20
-24.4612127528695
30
0
41
1
10
41.6959205762631
20
-24.4445644619407
30
0
41
1
10
41.7048561908682
20
-24.4047554603422
30
0
41
1
10
41.7143132301702
20
-24.3819405587463
30
0
41
1
10
41.7377006137243
20
-24.3434158537312
30
0
41
1
10
41.7513919351027
20
-24.3268182927562
30
0
41
1
10
41.7666656550098
20
-24.3126711449482
30
0
0
SPLINE
5
266
100
AcDbEntity
8
1
62
256
6
ByLayer
370
-1
48
1
60
0
100
AcDbSpline
70
4
71
3
72
9
73
5
40
0
40
0
40
0
40
0
40
0.501020281757982
40
1
40
1
40
1
40
1
41
1
10
37.6752993196044
20
-15.4893902206211
30
0
41
1
10
37.4764548180812
20
-15.5611183422815
30
0
41
1
10
37.0795756721402
20
-15.7042824501471
30
0
41
1
10
36.7070869932482
20
-15.9093988688568
30
0
41
1
10
36.5212226972063
20
-16.0117478016715
30
0
0
SPLINE
5
267
100
AcDbEntity
8
1
62
256
6
ByLayer
370
-1
48
1
60
0
100
AcDbSpline
70
4
71
3
72
8
73
4
40
0
40
0
40
0
40
0
40
1
40
1
40
1
40
1
41
1
10
41.5327308894117
20
-26.8604779757259
30
0
41
1
10
41.5148556571823
20
-26.9048317510352
30
0
41
1
10
41.4963841184441
20
-26.9496324425196
30
0
41
1
10
41.4771707339442
20
-26.9944480978306
30
0
0
SPLINE
5
268
100
AcDbEntity
8
1
62
256
6
ByLayer
370
-1
48
1
60
0
100
AcDbSpline
70
4
71
3
72
12
73
8
40
0
40
0
40
0
40
0
40
0.0127217534692974
40
0.0127217534692974
40
0.526205585976644
40
0.526205585976644
40
1
40
1
40
1
40
1
41
1
10
39.6769211774433
20
-24.7148823969592
30
0
41
1
10
39.6764005819159
20
-24.7161404650346
30
0
41
1
10
39.6758808696153
20
-24.7173987253698
30
0
41
1
10
39.6543350658169
20
-24.7695495237839
30
0
41
1
10
39.6335913275929
20
-24.8206566602506
30
0
41
1
10
39.5956511034248
20
-24.9153446076423
30
0
41
1
10
39.5779739628822
20
-24.9600635006224
30
0
41
1
10
39.5623099150041
20
-25.000200770929
30
0
0
SPLINE
5
269
100
AcDbEntity
8
1
62
256
6
ByLayer
370
-1
48
1
60
0
100
AcDbSpline
70
4
71
3
72
10
73
6
40
0
40
0
40
0
40
0
40
0.691437525404657
40
0.691437525404657
40
1
40
1
40
1
40
1
41
1
10
40.8345265851287
20
-24.5317086359305
30
0
41
1
10
40.8845323169805
20
-24.5344887640226
30
0
41
1
10
40.9349872266788
20
-24.527789583821
30
0
41
1
10
41.0053866806138
20
-24.5113803654249
30
0
41
1
10
41.0269803802166
20
-24.5052578461455
30
0
41
1
10
41.0482709669976
20
-24.4982751641538
30
0
0
SPLINE
5
26A
100
AcDbEntity
8
1
62
256
6
ByLayer
370
-1
48
1
60
0
100
AcDbSpline
70
4
71
3
72
8
73
4
40
0
40
0
40
0
40
0
40
1
40
1
40
1
40
1
41
1
10
43.5047525806605
20
-15.5998467533861
30
0
41
1
10
43.4473840262855
20
-15.6247635627354
30
0
41
1
10
43.3916004782917
20
-15.6515254256758
30
0
41
1
10
43.3376912740789
20
-15.6791144298369
30
0
0
SPLINE
5
26B
100
AcDbEntity
8
1
62
256
6
ByLayer
370
-1
48
1
60
0
100
AcDbSpline
70
4
71
3
72
16
73
12
40
0
40
0
40
0
40
0
40
0.201528222395016
40
0.201528222395016
40
0.425760925194182
40
0.425760925194182
40
0.658562188548508
40
0.658562188548508
40
0.868007617002681
40
0.868007617002681
40
1
40
1
40
1
40
1
41
1
10
43.3076857342717
20
-18.9134601176239
30
0
41
1
10
43.3037865077099
20
-18.8984156843657
30
0
41
1
10
43.3012832775936
20
-18.8827655849005
30
0
41
1
10
43.2993182645786
20
-18.8492995818097
30
0
41
1
10
43.3002212240152
20
-18.8312176543527
30
0
41
1
10
43.3063849883618
20
-18.794911435633
30
0
41
1
10
43.3118757189741
20
-18.7763986029875
30
0
41
1
10
43.3267611868265
20
-18.7432315234149
30
0
41
1
10
43.3358463563239
20
-18.7281057077287
30
0
41
1
10
43.3534510660876
20
-18.7059037469687
30
0
41
1
10
43.3610190173453
20
-18.6978182375524
30
0
41
1
10
43.3691518625938
20
-18.6904872636637
30
0
0
SPLINE
5
26C
100
AcDbEntity
8
1
62
256
6
ByLayer
370
-1
48
1
60
0
100
AcDbSpline
70
4
71
3
72
10
73
6
40
0
40
0
40
0
40
0
40
0.303481278345302
40
0.303481278345302
40
1
40
1
40
1
40
1
41
1
10
39.5623099150041
20
-25.000200770929
30
0
41
1
10
39.5489544520614
20
-25.0192076311231
30
0
41
1
10
39.5341014753369
20
-25.036025275017
30
0
41
1
10
39.4824583860572
20
-25.0840728060958
30
0
41
1
10
39.4412042296206
20
-25.1070274576995
30
0
41
1
10
39.3984084883092
20
-25.1209298929782
30
0
0
SPLINE
5
26D
100
AcDbEntity
8
1
62
256
6
ByLayer
370
-1
48
1
60
0
100
AcDbSpline
70
4
71
3
72
10
73
6
40
0
40
0
40
0
40
0
40
0.469696784645119
40
0.469696784645119
40
1
40
1
40
1
40
1
41
1
10
41.04827096699
20
-24.498275164101
30
0
41
1
10
41.1626599136056
20
-24.4766182965251
30
0
41
1
10
41.2763061682346
20
-24.4514603642213
30
0
41
1
10
41.5161317359762
20
-24.3905396311344
30
0
41
1
10
41.6421486795968
20
-24.3538015380092
30
0
41
1
10
41.7666656550098
20
-24.3126711449482
30
0
0
SPLINE
5
26E
100
AcDbEntity
8
1
62
256
6
ByLayer
370
-1
48
1
60
0
100
AcDbSpline
70
4
71
3
72
12
73
8
40
0
40
0
40
0
40
0
40
0.0127217534693047
40
0.0127217534693047
40
0.526205585976656
40
0.526205585976656
40
1
40
1
40
1
40
1
41
1
10
35.3895624635731
20
-19.0992851368905
30
0
41
1
10
35.3887509926328
20
-19.0982016683407
30
0
41
1
10
35.3879398251903
20
-19.0971184609303
30
0
41
1
10
35.3543601644352
20
-19.0522008295819
30
0
41
1
10
35.3227404717407
20
-19.0078290890692
30
0
41
1
10
35.2674201007956
20
-18.9244362298772
30
0
41
1
10
35.2427664163534
20
-18.8845295285047
30
0
41
1
10
35.2231316109679
20
-18.8476939466449
30
0
0
SPLINE
5
26F
100
AcDbEntity
8
1
62
256
6
ByLayer
370
-1
48
1
60
0
100
AcDbSpline
70
4
71
3
72
10
73
6
40
0
40
0
40
0
40
0
40
0.296681385512612
40
0.296681385512612
40
1
40
1
40
1
40
1
41
1
10
41.7207756549244
20
-16.9841440170718
30
0
41
1
10
41.7328796634903
20
-17.0003006973988
30
0
41
1
10
41.7438053482652
20
-17.0176564949167
30
0
41
1
10
41.7755100538481
20
-17.0794656920018
30
0
41
1
10
41.7903593900043
20
-17.1301856064973
30
0
41
1
10
41.7926144486969
20
-17.1859710963117
30
0
0
SPLINE
5
270
100
AcDbEntity
8
1
62
256
6
ByLayer
370
-1
48
1
60
0
100
AcDbSpline
70
4
71
3
72
14
73
10
40
0
40
0
40
0
40
0
40
0.114560016218189
40
0.114560016218189
40
0.305723973353157
40
0.305723973353157
40
0.535366948316044
40
0.535366948316044
40
1
40
1
40
1
40
1
41
1
10
43.4170492761172
20
-18.7371208122032
30
0
41
1
10
43.4129946501004
20
-18.7410845344773
30
0
41
1
10
43.4094131545094
20
-18.745599657282
30
0
41
1
10
43.4014208060596
20
-18.7584220685906
30
0
41
1
10
43.3978985666669
20
-18.7674508250275
30
0
41
1
10
43.3930614016068
20
-18.7876876163304
30
0
41
1
10
43.3922184357969
20
-18.7992424434477
30
0
41
1
10
43.3935550473822
20
-18.8333263699459
30
0
41
1
10
43.3995079960724
20
-18.8560146366318
30
0
41
1
10
43.4082120636774
20
-18.8769544700574
30
0
0
SPLINE
5
271
100
AcDbEntity
8
1
62
256
6
ByLayer
370
-1
48
1
60
0
100
AcDbSpline
70
4
71
3
72
10
73
6
40
0
40
0
40
0
40
0
40
0.339922223692916
40
0.339922223692916
40
1
40
1
40
1
40
1
41
1
10
35.7582033917586
20
-17.9757891973772
30
0
41
1
10
35.7173076705043
20
-18.043238598508
30
0
41
1
10
35.6781403947543
20
-18.1113444855489
30
0
41
1
10
35.5681084677744
20
-18.3133452059892
30
0
41
1
10
35.5020305391627
20
-18.4489699762515
30
0
41
1
10
35.4427189925937
20
-18.5863263897906
30
0
0
SPLINE
5
272
100
AcDbEntity
8
1
62
256
6
ByLayer
370
-1
48
1
60
0
100
AcDbSpline
70
4
71
3
72
9
73
5
40
0
40
0
40
0
40
0
40
0.50102028175798
40
1
40
1
40
1
40
1
41
1
10
35.4673468726234
20
-24.5243190880145
30
0
41
1
10
35.6293636158643
20
-24.6645076059028
30
0
41
1
10
35.9527372379311
20
-24.9443136796137
30
0
41
1
10
36.3135265554891
20
-25.1691356339188
30
0
41
1
10
36.4935531075088
20
-25.2813172293326
30
0
0
SPLINE
5
273
100
AcDbEntity
8
1
62
256
6
ByLayer
370
-1
48
1
60
0
100
AcDbSpline
70
4
71
3
72
12
73
8
40
0
40
0
40
0
40
0
40
0.470534389757145
40
0.470534389757145
40
0.9859217649555
40
0.9859217649555
40
1
40
1
40
1
40
1
41
1
10
39.4248601396198
20
-24.8882777908717
30
0
41
1
10
39.460499356196
20
-24.8640853209706
30
0
41
1
10
39.4994183223949
20
-24.8373210427619
30
0
41
1
10
39.5826688476943
20
-24.7799564413319
30
0
41
1
10
39.6277858153979
20
-24.7487779300728
30
0
41
1
10
39.6744426504302
20
-24.7165920628295
30
0
41
1
10
39.6756815316657
20
-24.7157370582717
30
0
41
1
10
39.6769211774433
20
-24.7148823969592
30
0
0
SPLINE
5
274
100
AcDbEntity
8
1
62
256
6
ByLayer
370
-1
48
1
60
0
100
AcDbSpline
70
4
71
3
72
8
73
4
40
0
40
0
40
0
40
0
40
1
40
1
40
1
40
1
41
1
10
32.6339392297227
20
-19.6604635037263
30
0
41
1
10
32.6009030227247
20
-19.6246146642073
30
0
41
1
10
32.5683475635909
20
-19.5877602530061
30
0
41
1
10
32.5366494632251
20
-19.5500170850734
30
0
0
SPLINE
5
275
100
AcDbEntity
8
1
62
256
6
ByLayer
370
-1
48
1
60
0
100
AcDbSpline
70
4
71
3
72
14
73
10
40
0
40
0
40
0
40
0
40
0.21757665577312
40
0.21757665577312
40
0.418639226347875
40
0.418639226347875
40
0.722992246166028
40
0.722992246166028
40
1
40
1
40
1
40
1
41
1
10
41.3613060850643
20
-16.5728935926585
30
0
41
1
10
41.3488574989177
20
-16.5858731165562
30
0
41
1
10
41.334222743981
20
-16.5970725949653
30
0
41
1
10
41.3038931005101
20
-16.6140284363237
30
0
41
1
10
41.2881019488891
20
-16.6202953512482
30
0
41
1
10
41.2476792195666
20
-16.6309770877221
30
0
41
1
10
41.2219869059217
20
-16.6330179440437
30
0
41
1
10
41.1742805377932
20
-16.6294806948004
30
0
41
1
10
41.1516206560114
20
-16.6245535382288
30
0
41
1
10
41.1302086911712
20
-16.6169632169096
30
0
0
SPLINE
5
276
100
AcDbEntity
8
1
62
256
6
ByLayer
370
-1
48
1
60
0
100
AcDbSpline
70
4
71
3
72
10
73
6
40
0
40
0
40
0
40
0
40
0.691437525404675
40
0.691437525404675
40
1
40
1
40
1
40
1
41
1
10
41.6170917160078
20
-17.2074428290737
30
0
41
1
10
41.5997571266765
20
-17.1658359631518
30
0
41
1
10
41.5743112998281
20
-17.1287427793297
30
0
41
1
10
41.5328869551214
20
-17.0806119287708
30
0
41
1
10
41.5192673782822
20
-17.0664076592052
30
0
41
1
10
41.5050438830714
20
-17.0528869934784
30
0
0
SPLINE
5
277
100
AcDbEntity
8
1
62
256
6
ByLayer
370
-1
48
1
60
0
100
AcDbSpline
70
4
71
3
72
16
73
12
40
0
40
0
40
0
40
0
40
0.201528222395016
40
0.201528222395016
40
0.425760925194188
40
0.425760925194188
40
0.658562188548519
40
0.658562188548519
40
0.868007617002687
40
0.868007617002687
40
1
40
1
40
1
40
1
41
1
10
38.7132949050178
20
-25.0850083396971
30
0
41
1
10
38.7295191118924
20
-25.0884033205266
30
0
41
1
10
38.7455224410953
20
-25.0933434953543
30
0
41
1
10
38.7778344385882
20
-25.1069814395492
30
0
41
1
10
38.7941855335395
20
-25.1161327603625
30
0
41
1
10
38.8245634632151
20
-25.1384554810938
30
0
41
1
10
38.8387296631831
20
-25.1519685020615
30
0
41
1
10
38.8612659786959
20
-25.1807578585341
30
0
41
1
10
38.8702501417402
20
-25.195970664229
30
0
41
1
10
38.8810369831621
20
-25.2221713254225
30
0
41
1
10
38.8843150814115
20
-25.2327618171551
30
0
41
1
10
38.886573502555
20
-25.2435161425617
30
0
0
SPLINE
5
278
100
AcDbEntity
8
1
62
256
6
ByLayer
370
-1
48
1
60
0
100
AcDbSpline
70
4
71
3
72
12
73
8
40
0
40
0
40
0
40
0
40
0.470534389757136
40
0.470534389757136
40
0.985921764955496
40
0.985921764955496
40
1
40
1
40
1
40
1
41
1
10
35.384625651789
20
-18.7839187144143
30
0
41
1
10
35.3816410143623
20
-18.8299164905546
30
0
41
1
10
35.3810629416185
20
-18.8792198206572
30
0
41
1
10
35.3827819172385
20
-18.9834232623598
30
0
41
1
10
35.3854162886908
20
-19.0391914874878
30
0
41
1
10
35.389350800635
20
-19.0962551103474
30
0
41
1
10
35.3894565118784
20
-19.0977700841772
30
0
41
1
10
35.3895624635731
20
-19.0992851368905
30
0
0
SPLINE
5
279
100
AcDbEntity
8
1
62
256
6
ByLayer
370
-1
48
1
60
0
100
AcDbSpline
70
4
71
3
72
12
73
8
40
0
40
0
40
0
40
0
40
0.0140782350445227
40
0.0140782350445227
40
0.529465610242863
40
0.529465610242863
40
1
40
1
40
1
40
1
41
1
10
40.5134836882413
20
-24.5032774541863
30
0
41
1
10
40.5149706873642
20
-24.5034424222235
30
0
41
1
10
40.5164582304923
20
-24.5036077892898
30
0
41
1
10
40.5725135796164
20
-24.5098130447197
30
0
41
1
10
40.6281543959662
20
-24.5155053013915
30
0
41
1
10
40.7342240508326
20
-24.524982165357
30
0
41
1
10
40.7853349566277
20
-24.5289737688818
30
0
41
1
10
40.8345265851287
20
-24.5317086359305
30
0
0
SPLINE
5
27A
100
AcDbEntity
8
1
62
256
6
ByLayer
370
-1
48
1
60
0
100
AcDbSpline
70
4
71
3
72
8
73
4
40
0
40
0
40
0
40
0
40
1
40
1
40
1
40
1
41
1
10
41.2481073127981
20
-26.9951310006147
30
0
41
1
10
41.2586762738133
20
-26.9309199677269
30
0
41
1
10
41.2676247112533
20
-26.8668394262261
30
0
41
1
10
41.2757770490041
20
-26.803603277354
30
0
0
SPLINE
5
27B
100
AcDbEntity
8
1
62
256
6
ByLayer
370
-1
48
1
60
0
100
AcDbSpline
70
4
71
3
72
12
73
8
40
0
40
0
40
0
40
0
40
0.470534389757143
40
0.470534389757143
40
0.985921764955484
40
0.985921764955484
40
1
40
1
40
1
40
1
41
1
10
42.6223795027999
20
-18.2676791672793
30
0
41
1
10
42.578935717519
20
-18.2448058095553
30
0
41
1
10
42.5333239772103
20
-18.2215469976825
30
0
41
1
10
42.4382047900492
20
-18.1737034136569
30
0
41
1
10
42.3880261864184
20
-18.1488734185853
30
0
41
1
10
42.3373039615125
20
-18.1239827070235
30
0
41
1
10
42.3359576346665
20
-18.1233225660619
30
0
41
1
10
42.3346120371941
20
-18.1226621746612
30
0
0
SPLINE
5
27C
100
AcDbEntity
8
1
62
256
6
ByLayer
370
-1
48
1
60
0
100
AcDbSpline
70
4
71
3
72
10
73
6
40
0
40
0
40
0
40
0
40
0.46969678464512
40
0.46969678464512
40
1
40
1
40
1
40
1
41
1
10
41.5050438830255
20
-17.0528869935083
30
0
41
1
10
41.4517696500652
20
-16.979269579685
30
0
41
1
10
41.3958845618202
20
-16.9080693879711
30
0
41
1
10
41.271595200872
20
-16.7619879092998
30
0
41
1
10
41.2024499295752
20
-16.6877469914585
30
0
41
1
10
41.1302086911712
20
-16.6169632169096
30
0
0
SPLINE
5
27D
100
AcDbEntity
8
1
62
256
6
ByLayer
370
-1
48
1
60
0
100
AcDbSpline
70
4
71
3
72
14
73
10
40
0
40
0
40
0
40
0
40
0.217576655773127
40
0.217576655773127
40
0.418639226347894
40
0.418639226347894
40
0.72299224616604
40
0.72299224616604
40
1
40
1
40
1
40
1
41
1
10
34.7422191400763
20
-20.8726333453865
30
0
41
1
10
34.7593466596246
20
-20.8769562976712
30
0
41
1
10
34.7758180436085
20
-20.883932370478
30
0
41
1
10
34.8043036509622
20
-20.9013040567658
30
0
41
1
10
34.8168208588398
20
-20.9115419570182
30
0
41
1
10
34.8440164760303
20
-20.9402443956774
30
0
41
1
10
34.857008607204
20
-20.9606973938019
30
0
41
1
10
34.8745069068986
20
-21.0020841507822
30
0
41
1
10
34.8798821029722
20
-21.0232531518785
30
0
41
1
10
34.8823096848562
20
-21.044623292851
30
0
0
SPLINE
5
27E
100
AcDbEntity
8
1
62
256
6
ByLayer
370
-1
48
1
60
0
100
AcDbSpline
70
4
71
3
72
10
73
6
40
0
40
0
40
0
40
0
40
0.296681385512609
40
0.296681385512609
40
1
40
1
40
1
40
1
41
1
10
34.7864933208957
20
-20.2569296400592
30
0
41
1
10
34.7895670592619
20
-20.2347557585869
30
0
41
1
10
34.7942418097069
20
-20.2130094659567
30
0
41
1
10
34.8156531975264
20
-20.1427576448835
30
0
41
1
10
34.8406057879147
20
-20.0962588751427
30
0
41
1
10
34.8773570431028
20
-20.059170607397
30
0
0
SPLINE
5
27F
100
AcDbEntity
8
1
62
256
6
ByLayer
370
-1
48
1
60
0
100
AcDbSpline
70
4
71
3
72
12
73
8
40
0
40
0
40
0
40
0
40
0.0127217534693029
40
0.0127217534693029
40
0.526205585976646
40
0.526205585976646
40
1
40
1
40
1
40
1
41
1
10
42.3346120371941
20
-18.1226621746612
30
0
41
1
10
42.3359441036619
20
-18.1224875751356
30
0
41
1
10
42.3372767062593
20
-18.1223126927605
30
0
41
1
10
42.3925451578297
20
-18.1150936803503
30
0
41
1
10
42.4478356949382
20
-18.1086480462263
30
0
41
1
10
42.5531543619571
20
-18.0985466178237
30
0
41
1
10
42.6041930920084
20
-18.094596444313
30
0
41
1
10
42.6522121118403
20
-18.0925539581303
30
0
0
SPLINE
5
280
100
AcDbEntity
8
1
62
256
6
ByLayer
370
-1
48
1
60
0
100
AcDbSpline
70
4
71
3
72
14
73
10
40
0
40
0
40
0
40
0
40
0.305545320902006
40
0.305545320902006
40
0.618172577983474
40
0.618172577983474
40
0.807733277772261
40
0.807733277772261
40
1
40
1
40
1
40
1
41
1
10
41.1835821673532
20
-16.5307273636287
30
0
41
1
10
41.1970340711534
20
-16.5371130684806
30
0
41
1
10
41.2111892349378
20
-16.5422399477075
30
0
41
1
10
41.2404612060565
20
-16.5488741717305
30
0
41
1
10
41.2559185565338
20
-16.5503743027276
30
0
41
1
10
41.2801860713117
20
-16.5479477518018
30
0
41
1
10
41.2893906806651
20
-16.5458691376016
30
0
41
1
10
41.306600988865
20
-16.5388049638038
30
0
41
1
10
41.3148151834125
20
-16.533631133931
30
0
41
1
10
41.3215326625636
20
-16.5270642590513
30
0
0
SPLINE
5
281
100
AcDbEntity
8
1
62
256
6
ByLayer
370
-1
48
1
60
0
100
AcDbSpline
70
4
71
3
72
12
73
8
40
0
40
0
40
0
40
0
40
0.473794414023359
40
0.473794414023359
40
0.987278246530694
40
0.987278246530694
40
1
40
1
40
1
40
1
41
1
10
41.7926144486968
20
-17.1859710963117
30
0
41
1
10
41.7842907747452
20
-17.2298786570659
30
0
41
1
10
41.7753921338899
20
-17.2782722769685
30
0
41
1
10
41.7571979194915
20
-17.3802603390578
30
0
41
1
10
41.7477237165673
20
-17.4350266063614
30
0
41
1
10
41.7384724944557
20
-17.4907781280658
30
0
41
1
10
41.7382492347151
20
-17.4921229894495
30
0
41
1
10
41.7380268821224
20
-17.4934679592819
30
0
0
SPLINE
5
282
100
AcDbEntity
8
1
62
256
6
ByLayer
370
-1
48
1
60
0
100
AcDbSpline
70
4
71
3
72
12
73
8
40
0
40
0
40
0
40
0
40
0.33997953876679
40
0.33997953876679
40
0.835812874070234
40
0.835812874070234
40
1
40
1
40
1
40
1
41
1
10
43.3076857342755
20
-18.9134601176373
30
0
41
1
10
43.2528625603358
20
-18.8521738163803
30
0
41
1
10
43.1965683836679
20
-18.7921002054786
30
0
41
1
10
43.0547479578102
20
-18.6475376730465
30
0
41
1
10
42.9675941618621
20
-18.564422086328
30
0
41
1
10
42.8478414118493
20
-18.4575253654561
30
0
41
1
10
42.8177315297901
20
-18.4312313921861
30
0
41
1
10
42.7873169772771
20
-18.4052485240975
30
0
0
SPLINE
5
283
100
AcDbEntity
8
1
62
256
6
ByLayer
370
-1
48
1
60
0
100
AcDbSpline
70
4
71
3
72
10
73
6
40
0
40
0
40
0
40
0
40
0.303481278345305
40
0.303481278345305
40
1
40
1
40
1
40
1
41
1
10
35.2231316109679
20
-18.8476939466449
30
0
41
1
10
35.2183911553544
20
-18.8243051693806
30
0
41
1
10
35.2165268203548
20
-18.8005706277585
30
0
41
1
10
35.2182684498545
20
-18.7235413572148
30
0
41
1
10
35.2318277363774
20
-18.6701377297823
30
0
41
1
10
35.2537100579358
20
-18.6199608602792
30
0
0
SPLINE
5
284
100
AcDbEntity
8
1
62
256
6
ByLayer
370
-1
48
1
60
0
100
AcDbSpline
70
4
71
3
72
14
73
10
40
0
40
0
40
0
40
0
40
0.114560016218201
40
0.114560016218201
40
0.30572397335316
40
0.30572397335316
40
0.535366948316017
40
0.535366948316017
40
1
40
1
40
1
40
1
41
1
10
35.5715732567775
20
-17.9814921294172
30
0
41
1
10
35.5769709926095
20
-17.9830649168092
30
0
41
1
10
35.582603750949
20
-17.9839445542909
30
0
41
1
10
35.5975164958654
20
-17.9845270104104
30
0
41
1
10
35.6069699217906
20
-17.9830858833991
30
0
41
1
10
35.6266378396816
20
-17.9771674781028
30
0
41
1
10
35.6369134050209
20
-17.9721009202843
30
0
41
1
10
35.6653222771678
20
-17.9537942785011
30
0
41
1
10
35.6817145718926
20
-17.9371564362597
30
0
41
1
10
35.6952471099586
20
-17.9189784635244
30
0
0
SPLINE
5
285
100
AcDbEntity
8
1
62
256
6
ByLayer
370
-1
48
1
60
0
100
AcDbSpline
70
4
71
3
72
10
73
6
40
0
40
0
40
0
40
0
40
0.469696784645118
40
0.469696784645118
40
1
40
1
40
1
40
1
41
1
10
34.9269225402996
20
-20.3935019941488
30
0
41
1
10
34.9127173845303
20
-20.4934199742908
30
0
41
1
10
34.9018788646682
20
-20.5944230927295
30
0
41
1
10
34.8860490055338
20
-20.8112954943199
30
0
41
1
10
34.8819826266107
20
-20.927501838172
30
0
41
1
10
34.8823096848562
20
-21.044623292851
30
0
0
SPLINE
5
286
100
AcDbEntity
8
1
62
256
6
ByLayer
370
-1
48
1
60
0
100
AcDbSpline
70
4
71
3
72
16
73
12
40
0
40
0
40
0
40
0
40
0.201528222394978
40
0.201528222394978
40
0.42576092519416
40
0.42576092519416
40
0.658562188548488
40
0.658562188548488
40
0.868007617002675
40
0.868007617002675
40
1
40
1
40
1
40
1
41
1
10
35.75820339175
20
-17.9757891973879
30
0
41
1
10
35.7485842027205
20
-17.9877065031103
30
0
41
1
10
35.7377221278357
20
-17.9986775726023
30
0
41
1
10
35.7126258792266
20
-18.0190254154537
30
0
41
1
10
35.6979823365272
20
-18.028214443417
30
0
41
1
10
35.66617900776
20
-18.0426670044656
30
0
41
1
10
35.6486665748024
20
-18.0478791055225
30
0
41
1
10
35.6145083998307
20
-18.0525799016779
30
0
41
1
10
35.5976644154136
20
-18.0526142120566
30
0
41
1
10
35.5705905339853
20
-18.0487459511683
30
0
41
1
10
35.5600941446114
20
-18.046275582615
30
0
41
1
10
35.5498783925761
20
-18.0428696057183
30
0
0
SPLINE
5
287
100
AcDbEntity
8
1
62
256
6
ByLayer
370
-1
48
1
60
0
100
AcDbSpline
70
4
71
3
72
18
73
14
40
0
40
0
40
0
40
0
40
0.207901775533402
40
0.207901775533402
40
0.382890954466097
40
0.382890954466097
40
0.55965006675278
40
0.55965006675278
40
0.71251813559407
40
0.71251813559407
40
0.915117683447279
40
0.915117683447279
40
1
40
1
40
1
40
1
41
1
10
40.9081428843803
20
-20.3347830203437
30
0
41
1
10
40.8215147419286
20
-20.3119081144124
30
0
41
1
10
40.7361215936241
20
-20.276013712799
30
0
41
1
10
40.5923557988929
20
-20.1862038800097
30
0
41
1
10
40.5303577690062
20
-20.1348557135026
30
0
41
1
10
40.4252010473958
20
-20.0160104512896
30
0
41
1
10
40.3809126091682
20
-19.946424620559
30
0
41
1
10
40.3236115487317
20
-19.8113452346125
30
0
41
1
10
40.3063713146512
20
-19.744999843414
30
0
41
1
10
40.2881987737607
20
-19.593784335281
30
0
41
1
10
40.2937172895993
20
-19.5073268756043
30
0
41
1
10
40.3194310107059
20
-19.3916212995877
30
0
41
1
10
40.3293464904411
20
-19.3578403204957
30
0
41
1
10
40.3413037543085
20
-19.3249418409304
30
0
0
SPLINE
5
288
100
AcDbEntity
8
1
62
256
6
ByLayer
370
-1
48
1
60
0
100
AcDbSpline
70
4
71
3
72
16
73
12
40
0
40
0
40
0
40
0
40
0.213538877707831
40
0.213538877707831
40
0.437190569935539
40
0.437190569935539
40
0.671932374615009
40
0.671932374615009
40
0.927916080141899
40
0.927916080141899
40
1
40
1
40
1
40
1
41
1
10
38.2431851018468
20
-22.3529450757701
30
0
41
1
10
38.2160729872512
20
-22.3367787660142
30
0
41
1
10
38.1906276578725
20
-22.3162481512842
30
0
41
1
10
38.1456818392724
20
-22.2686191630473
30
0
41
1
10
38.1259420125658
20
-22.2406508696718
30
0
41
1
10
38.0945729715792
20
-22.180682730868
30
0
41
1
10
38.0829719478248
20
-22.1478141013081
30
0
41
1
10
38.0686806080859
20
-22.079703911331
30
0
41
1
10
38.0666748074173
20
-22.0436695540676
30
0
41
1
10
38.0704812638733
20
-21.9998617823958
30
0
41
1
10
38.07172019179
20
-21.9902802473534
30
0
41
1
10
38.0733385294292
20
-21.9808541453347
30
0
0
SPLINE
5
289
100
AcDbEntity
8
1
62
256
6
ByLayer
370
-1
48
1
60
0
100
AcDbSpline
70
4
71
3
72
16
73
12
40
0
40
0
40
0
40
0
40
0.152937598148396
40
0.152937598148396
40
0.375689428467764
40
0.375689428467764
40
0.606320624574707
40
0.606320624574707
40
0.855690651943398
40
0.855690651943398
40
1
40
1
40
1
40
1
41
1
10
41.1672993111884
20
-20.6550148613723
30
0
41
1
10
41.1672309078393
20
-20.6779306183518
30
0
41
1
10
41.1645718151906
20
-20.700974571507
30
0
41
1
10
41.1520211628944
20
-20.7556717756712
30
0
41
1
10
41.1391537134336
20
-20.7871437785346
30
0
41
1
10
41.1045477183513
20
-20.8445886111153
30
0
41
1
10
41.0821039529707
20
-20.8710670706536
30
0
41
1
10
41.0294535628236
20
-20.917215973414
30
0
41
1
10
40.9981335494235
20
-20.9367638409253
30
0
41
1
10
40.9461731833882
20
-20.9593937587578
30
0
41
1
10
40.926344252612
20
-20.9660584058165
30
0
41
1
10
40.9062437431435
20
-20.9710129659233
30
0
0
SPLINE
5
28A
100
AcDbEntity
8
1
62
256
6
ByLayer
370
-1
48
1
60
0
100
AcDbSpline
70
4
71
3
72
18
73
14
40
0
40
0
40
0
40
0
40
0.196598884261235
40
0.196598884261235
40
0.37366702327427
40
0.37366702327427
40
0.552639135080419
40
0.552639135080419
40
0.706003143876186
40
0.706003143876186
40
0.906663000120465
40
0.906663000120465
40
1
40
1
40
1
40
1
41
1
10
38.0812664061564
20
-19.3249418409303
30
0
41
1
10
38.0940070743681
20
-19.4003902426187
30
0
41
1
10
38.0968255935929
20
-19.4810821647383
30
0
41
1
10
38.080715380923
20
-19.637415378956
30
0
41
1
10
38.0635648233748
20
-19.7145777629784
30
0
41
1
10
38.0101951514787
20
-19.8644654772798
30
0
41
1
10
37.9727850498147
20
-19.9393544527314
30
0
41
1
10
37.8904766818863
20
-20.0626062529838
30
0
41
1
10
37.8464786233273
20
-20.114755861957
30
0
41
1
10
37.7393408073233
20
-20.2166294548892
30
0
41
1
10
37.6727559846908
20
-20.2626162060287
30
0
41
1
10
37.5732628964597
20
-20.3114261503479
30
0
41
1
10
37.5409239453972
20
-20.324408312649
30
0
41
1
10
37.508398540594
20
-20.3347830203437
30
0
0
SPLINE
5
28B
100
AcDbEntity
8
1
62
256
6
ByLayer
370
-1
48
1
60
0
100
AcDbSpline
70
4
71
3
72
12
73
8
40
0
40
0
40
0
40
0
40
0.215516644879672
40
0.215516644879672
40
0.714865241664979
40
0.714865241664979
40
1
40
1
40
1
40
1
41
1
10
39.0271027454175
20
-19.2420023441484
30
0
41
1
10
38.9909898321487
20
-19.234996472993
30
0
41
1
10
38.9560241707971
20
-19.2254113919022
30
0
41
1
10
38.8462294963615
20
-19.186425229801
30
0
41
1
10
38.777496154597
20
-19.1468545755655
30
0
41
1
10
38.6858805104604
20
-19.0720925331369
30
0
41
1
10
38.6554574384215
20
-19.0418956256467
30
0
41
1
10
38.6282839170534
20
-19.0094769231049
30
0
0
SPLINE
5
28C
100
AcDbEntity
8
1
62
256
6
ByLayer
370
-1
48
1
60
0
100
AcDbSpline
70
4
71
3
72
16
73
12
40
0
40
0
40
0
40
0
40
0.0629457441396313
40
0.0629457441396313
40
0.374286864275373
40
0.374286864275373
40
0.654270571665997
40
0.654270571665997
40
0.900378573883605
40
0.900378573883605
40
1
40
1
40
1
40
1
41
1
10
39.7945281285718
20
-19.009476923104
30
0
41
1
10
39.8012407915016
20
-19.0033869481501
30
0
41
1
10
39.808205913339
20
-18.9975050419644
30
0
41
1
10
39.8505923249649
20
-18.9642517406221
30
0
41
1
10
39.8922786006927
20
-18.9418609934654
30
0
41
1
10
39.9767409028825
20
-18.9155306966455
30
0
41
1
10
40.0203467016636
20
-18.9096338598678
30
0
41
1
10
40.1006379360709
20
-18.9138457040956
30
0
41
1
10
40.1387065859131
20
-18.9222265191703
30
0
41
1
10
40.1874857332816
20
-18.9424408737881
30
0
41
1
10
40.201190651593
20
-18.9493123380379
30
0
41
1
10
40.2142253969209
20
-18.9570846469744
30
0
0
SPLINE
5
28D
100
AcDbEntity
8
1
62
256
6
ByLayer
370
-1
48
1
60
0
100
AcDbSpline
70
4
71
3
72
14
73
10
40
0
40
0
40
0
40
0
40
0.22661462379911
40
0.22661462379911
40
0.521306004459428
40
0.521306004459428
40
0.787273449838605
40
0.787273449838605
40
1
40
1
40
1
40
1
41
1
10
40.3333758775817
20
-21.9808541453346
30
0
41
1
10
40.343693003401
20
-22.010257393599
30
0
41
1
10
40.3500729320564
20
-22.0413813787837
30
0
41
1
10
40.3540972669372
20
-22.113322051212
30
0
41
1
10
40.3484867820367
20
-22.1554678403333
30
0
41
1
10
40.3219741616968
20
-22.2300603468757
30
0
41
1
10
40.3021363194755
20
-22.2641644708649
30
0
41
1
10
40.2559952317658
20
-22.3163094324831
30
0
41
1
10
40.2312571941015
20
-22.3368026596914
30
0
41
1
10
40.204088781033
20
-22.3529450757701
30
0
0
SPLINE
5
28E
100
AcDbEntity
8
1
62
256
6
ByLayer
370
-1
48
1
60
0
100
AcDbSpline
70
4
71
3
72
16
73
12
40
0
40
0
40
0
40
0
40
0.0787875328674663
40
0.0787875328674663
40
0.394338838009176
40
0.394338838009176
40
0.676533788437894
40
0.676533788437894
40
0.924926972378631
40
0.924926972378631
40
1
40
1
40
1
40
1
41
1
10
40.9081428843806
20
-20.3347830203413
30
0
41
1
10
40.9190999165814
20
-20.3376763189136
30
0
41
1
10
40.9299634191001
20
-20.341071796447
30
0
41
1
10
40.9830870177319
20
-20.3603906789802
30
0
41
1
10
41.0238777908637
20
-20.3842385625278
30
0
41
1
10
41.0888922679506
20
-20.4425565541217
30
0
41
1
10
41.1153669524672
20
-20.4766224074431
30
0
41
1
10
41.1505881959585
20
-20.5472102141171
30
0
41
1
10
41.1615445987127
20
-20.5840096435159
30
0
41
1
10
41.1667391317162
20
-20.6322938050477
30
0
41
1
10
41.1673331874973
20
-20.6436659833678
30
0
41
1
10
41.1672993111884
20
-20.6550148613723
30
0
0
SPLINE
5
28F
100
AcDbEntity
8
1
62
256
6
ByLayer
370
-1
48
1
60
0
100
AcDbSpline
70
4
71
3
72
16
73
12
40
0
40
0
40
0
40
0
40
0.192651042858077
40
0.192651042858077
40
0.48707292130117
40
0.48707292130117
40
0.752815930674451
40
0.752815930674451
40
0.988571524642466
40
0.988571524642466
40
1
40
1
40
1
40
1
41
1
10
38.6184732047678
20
-22.2961566212265
30
0
41
1
10
38.6028378892694
20
-22.315149352021
30
0
41
1
10
38.5845945793743
20
-22.3322683288486
30
0
41
1
10
38.5333569555349
20
-22.3686425613799
30
0
41
1
10
38.4966456770316
20
-22.3848044785835
30
0
41
1
10
38.4221386132649
20
-22.3994901615326
30
0
41
1
10
38.3836258818225
20
-22.3997235564411
30
0
41
1
10
38.3124654194301
20
-22.3859853280501
30
0
41
1
10
38.2786275918071
20
-22.3733756162521
30
0
41
1
10
38.2462090446851
20
-22.3547320685502
30
0
41
1
10
38.2446940407594
20
-22.3538448201917
30
0
41
1
10
38.2431851018468
20
-22.3529450757701
30
0
0
SPLINE
5
290
100
AcDbEntity
8
1
62
256
6
ByLayer
370
-1
48
1
60
0
100
AcDbSpline
70
4
71
3
72
12
73
8
40
0
40
0
40
0
40
0
40
0.497028833984344
40
0.497028833984344
40
0.945312370476817
40
0.945312370476817
40
1
40
1
40
1
40
1
41
1
10
39.7945281285732
20
-19.0094769231052
30
0
41
1
10
39.7326358912028
20
-19.0656278395698
30
0
41
1
10
39.6613880123611
20
-19.1153714991366
30
0
41
1
10
39.5135394639773
20
-19.1907393133398
30
0
41
1
10
39.4363653947651
20
-19.2189504715848
30
0
41
1
10
39.3475486824709
20
-19.2382536294044
30
0
41
1
10
39.337760186948
20
-19.2402111307765
30
0
41
1
10
39.3279443652621
20
-19.2420023441484
30
0
0
SPLINE
5
291
100
AcDbEntity
8
1
62
256
6
ByLayer
370
-1
48
1
60
0
100
AcDbSpline
70
4
71
3
72
16
73
12
40
0
40
0
40
0
40
0
40
0.0513580794937501
40
0.0513580794937501
40
0.274725697226067
40
0.274725697226067
40
0.500258795802078
40
0.500258795802078
40
0.739951195105451
40
0.739951195105451
40
1
40
1
40
1
40
1
41
1
10
37.2901111875793
20
-20.6550148613723
30
0
41
1
10
37.2901343286405
20
-20.6472623910316
30
0
41
1
10
37.290404252078
20
-20.6395017550906
30
0
41
1
10
37.2931416526988
20
-20.5983986031408
30
0
41
1
10
37.3001020317478
20
-20.5650086844485
30
0
41
1
10
37.3220838047219
20
-20.503162390778
30
0
41
1
10
37.3374395566498
20
-20.4739599289038
30
0
41
1
10
37.3749547467808
20
-20.4215428429338
30
0
41
1
10
37.3979240442894
20
-20.3981407100557
30
0
41
1
10
37.4493231455269
20
-20.3593355438508
30
0
41
1
10
37.4786613732145
20
-20.3442683571472
30
0
41
1
10
37.508398540594
20
-20.3347830203437
30
0
0
SPLINE
5
292
100
AcDbEntity
8
1
62
256
6
ByLayer
370
-1
48
1
60
0
100
AcDbSpline
70
4
71
3
72
14
73
10
40
0
40
0
40
0
40
0
40
0.280140124941057
40
0.280140124941057
40
0.568092970253085
40
0.568092970253085
40
0.828406595346682
40
0.828406595346682
40
1
40
1
40
1
40
1
41
1
10
38.081266406156
20
-19.3249418409305
30
0
41
1
10
38.0752455959945
20
-19.289287470531
30
0
41
1
10
38.0749327658396
20
-19.2508428751411
30
0
41
1
10
38.0874193006857
20
-19.1732388304404
30
0
41
1
10
38.1008526663164
20
-19.1328826622516
30
0
41
1
10
38.139157121303
20
-19.0622261758774
30
0
41
1
10
38.1634450736589
20
-19.0302938257498
30
0
41
1
10
38.210542234958
20
-18.985887069464
30
0
41
1
10
38.2313863071968
20
-18.9701178161502
30
0
41
1
10
38.2533217177347
20
-18.9570846469744
30
0
0
SPLINE
5
293
100
AcDbEntity
8
1
62
256
6
ByLayer
370
-1
48
1
60
0
100
AcDbSpline
70
4
71
3
72
12
73
8
40
0
40
0
40
0
40
0
40
0.537410795186616
40
0.537410795186616
40
0.978132403445553
40
0.978132403445553
40
1
40
1
40
1
40
1
41
1
10
38.6184732047664
20
-22.2961566212236
30
0
41
1
10
38.669725444533
20
-22.2338988437864
30
0
41
1
10
38.7328170245475
20
-22.1791432880569
30
0
41
1
10
38.8660058131688
20
-22.1021753867942
30
0
41
1
10
38.9344350791445
20
-22.0751876620431
30
0
41
1
10
39.0113026669371
20
-22.0585710253705
30
0
41
1
10
39.0149948149701
20
-22.0578029444147
30
0
41
1
10
39.0186998141394
20
-22.0570623334929
30
0
0
SPLINE
5
294
100
AcDbEntity
8
1
62
256
6
ByLayer
370
-1
48
1
60
0
100
AcDbSpline
70
4
71
3
72
12
73
8
40
0
40
0
40
0
40
0
40
0.238592977482811
40
0.238592977482811
40
0.7447896290929
40
0.7447896290929
40
1
40
1
40
1
40
1
41
1
10
39.3195414339838
20
-22.0570623334928
30
0
41
1
10
39.3619665502561
20
-22.0650576854265
30
0
41
1
10
39.4039743612239
20
-22.076313492832
30
0
41
1
10
39.5301531327779
20
-22.1198361627133
30
0
41
1
10
39.6110029954751
20
-22.1622342510107
30
0
41
1
10
39.718603059955
20
-22.2383535043898
30
0
41
1
10
39.7528536920208
20
-22.266346858261
30
0
41
1
10
39.7847174162821
20
-22.2961566212279
30
0
0
SPLINE
5
295
100
AcDbEntity
8
1
62
256
6
ByLayer
370
-1
48
1
60
0
100
AcDbSpline
70
4
71
3
72
18
73
14
40
0
40
0
40
0
40
0
40
0.112011648086672
40
0.112011648086672
40
0.306446977577049
40
0.306446977577049
40
0.465753631490069
40
0.465753631490069
40
0.625653969130925
40
0.625653969130925
40
0.778498773020515
40
0.778498773020515
40
1
40
1
40
1
40
1
41
1
10
37.5064993993572
20
-20.9710129659233
30
0
41
1
10
37.5451578004728
20
-20.9825623129617
30
0
41
1
10
37.5835516491584
20
-20.9978472070783
30
0
41
1
10
37.6860977867498
20
-21.0499332134463
30
0
41
1
10
37.7498136664199
20
-21.0951947608716
30
0
41
1
10
37.8550870513722
20
-21.1979878872146
30
0
41
1
10
37.8996516491875
20
-21.2531087563061
30
0
41
1
10
37.9754896219723
20
-21.3738646814578
30
0
41
1
10
38.0076357887683
20
-21.4410937110881
30
0
41
1
10
38.0541001370016
20
-21.5740763761823
30
0
41
1
10
38.0697791698678
20
-21.6412742572913
30
0
41
1
10
38.0904845191752
20
-21.8010094989013
30
0
41
1
10
38.0881945269169
20
-21.8943245210372
30
0
41
1
10
38.0733385294292
20
-21.9808541453348
30
0
0
SPLINE
5
296
100
AcDbEntity
8
1
62
256
6
ByLayer
370
-1
48
1
60
0
100
AcDbSpline
70
4
71
3
72
18
73
14
40
0
40
0
40
0
40
0
40
0.0611914818579937
40
0.0611914818579937
40
0.279419736756872
40
0.279419736756872
40
0.500404252544627
40
0.500404252544627
40
0.735751387169696
40
0.735751387169696
40
0.99449640010746
40
0.99449640010746
40
1
40
1
40
1
40
1
41
1
10
38.2533217177347
20
-18.9570846469744
30
0
41
1
10
38.2613525611669
20
-18.9523130316497
30
0
41
1
10
38.2695596738094
20
-18.9478827226318
30
0
41
1
10
38.3073870741178
20
-18.9294404413977
30
0
41
1
10
38.3389404161019
20
-18.9195968056773
30
0
41
1
10
38.4013878650297
20
-18.9100628291949
30
0
41
1
10
38.4330602885317
20
-18.9103542946388
30
0
41
1
10
38.4942502836219
20
-18.9205139129738
30
0
41
1
10
38.5242669127904
20
-18.931094467117
30
0
41
1
10
38.580101909701
20
-18.9618381087238
30
0
41
1
10
38.6059279584627
20
-18.9831995096564
30
0
41
1
10
38.6273866012118
20
-19.0084105011086
30
0
41
1
10
38.6278362953898
20
-19.0089428990683
30
0
41
1
10
38.6282839170536
20
-19.0094769231048
30
0
0
SPLINE
5
297
100
AcDbEntity
8
1
62
256
6
ByLayer
370
-1
48
1
60
0
100
AcDbSpline
70
4
71
3
72
18
73
14
40
0
40
0
40
0
40
0
40
0.0241452680582916
40
0.0241452680582916
40
0.243251449958434
40
0.243251449958434
40
0.462933467910855
40
0.462933467910855
40
0.695215358988481
40
0.695215358988481
40
0.94960103371315
40
0.94960103371315
40
1
40
1
40
1
40
1
41
1
10
40.204088781033
20
-22.3529450757701
30
0
41
1
10
40.2009071825626
20
-22.3548354580377
30
0
41
1
10
40.197688228763
20
-22.3566708368019
30
0
41
1
10
40.1652421150596
20
-22.374410123178
30
0
41
1
10
40.1327980158716
20
-22.385874378853
30
0
41
1
10
40.0667402151159
20
-22.3983073762014
30
0
41
1
10
40.0322854907507
20
-22.3994318907765
30
0
41
1
10
39.963846801394
20
-22.3919245228013
30
0
41
1
10
39.929143330827
20
-22.3826705970451
30
0
41
1
10
39.8621463105536
20
-22.3544549468419
30
0
41
1
10
39.8295405393713
20
-22.334336420908
30
0
41
1
10
39.7955588565913
20
-22.3060131248222
30
0
41
1
10
39.790057291368
20
-22.3011522836713
30
0
41
1
10
39.7847174162818
20
-22.2961566212281
30
0
0
SPLINE
5
298
100
AcDbEntity
8
1
62
256
6
ByLayer
370
-1
48
1
60
0
100
AcDbSpline
70
4
71
3
72
14
73
10
40
0
40
0
40
0
40
0
40
0.264403361323354
40
0.264403361323354
40
0.554346349806315
40
0.554346349806315
40
0.816286796968074
40
0.816286796968074
40
1
40
1
40
1
40
1
41
1
10
37.5064993993572
20
-20.9710129659233
30
0
41
1
10
37.4763039586867
20
-20.9619919610907
30
0
41
1
10
37.4465489628074
20
-20.9471593806664
30
0
41
1
10
37.3900283414027
20
-20.9048908552689
30
0
41
1
10
37.3629719197883
20
-20.8756223018354
30
0
41
1
10
37.3226679048267
20
-20.810485116556
30
0
41
1
10
37.3077825898971
20
-20.7744963290234
30
0
41
1
10
37.2931345890771
20
-20.710404813653
30
0
41
1
10
37.2900288548858
20
-20.6825970780391
30
0
41
1
10
37.2901111875793
20
-20.6550148613723
30
0
0
SPLINE
5
299
100
AcDbEntity
8
1
62
256
6
ByLayer
370
-1
48
1
60
0
100
AcDbSpline
70
4
71
3
72
18
73
14
40
0
40
0
40
0
40
0
40
0.211736715521567
40
0.211736715521567
40
0.386043728065631
40
0.386043728065631
40
0.562074977609647
40
0.562074977609647
40
0.714803156409166
40
0.714803156409166
40
0.918086007818349
40
0.918086007818349
40
1
40
1
40
1
40
1
41
1
10
40.3333758775809
20
-21.9808541453348
30
0
41
1
10
40.3043300839342
20
-21.8980752109101
30
0
41
1
10
40.2876458220322
20
-21.8091716776389
30
0
41
1
10
40.2864890842109
20
-21.6449194170431
30
0
41
1
10
40.2970647440792
20
-21.5681123949308
30
0
41
1
10
40.3431421601474
20
-21.4202236726293
30
0
41
1
10
40.3798583656007
20
-21.3470901572886
30
0
41
1
10
40.4674438180058
20
-21.2270562255756
30
0
41
1
10
40.5167197275715
20
-21.1764704810447
30
0
41
1
10
40.6411580773526
20
-21.0775336059694
30
0
41
1
10
40.7213958925227
20
-21.0335037396099
30
0
41
1
10
40.8374886711455
20
-20.9900553952157
30
0
41
1
10
40.8717133716172
20
-20.9795243323393
30
0
41
1
10
40.9062437431435
20
-20.9710129659233
30
0
0
SPLINE
5
29A
100
AcDbEntity
8
1
62
256
6
ByLayer
370
-1
48
1
60
0
100
AcDbSpline
70
4
71
3
72
16
73
12
40
0
40
0
40
0
40
0
40
0.127627815582672
40
0.127627815582672
40
0.350325478338704
40
0.350325478338704
40
0.579519261836767
40
0.579519261836767
40
0.826356513011946
40
0.826356513011946
40
1
40
1
40
1
40
1
41
1
10
40.2142253969209
20
-18.9570846469744
30
0
41
1
10
40.2304612324022
20
-18.9667656899123
30
0
41
1
10
40.2457874523024
20
-18.9779297052098
30
0
41
1
10
40.2841904009354
20
-19.0117282764258
30
0
41
1
10
40.3050013254072
20
-19.037231111627
30
0
41
1
10
40.3371493442645
20
-19.0927543373377
30
0
41
1
10
40.3486252345625
20
-19.123569874711
30
0
41
1
10
40.3616635066193
20
-19.1881210633427
30
0
41
1
10
40.3625955143694
20
-19.2226961289463
30
0
41
1
10
40.355131307375
20
-19.2795090858336
30
0
41
1
10
40.3493808085908
20
-19.3027191311032
30
0
41
1
10
40.3413037543085
20
-19.3249418409305
30
0
0
SPLINE
5
29B
100
AcDbEntity
8
1
62
256
6
ByLayer
370
-1
48
1
60
0
100
AcDbSpline
70
4
71
3
72
8
73
4
40
0
40
0
40
0
40
0
40
1
40
1
40
1
40
1
41
1
10
35.9097298115111
20
-10.5275192906119
30
0
41
1
10
35.8415679608772
20
-10.6467627780344
30
0
41
1
10
35.7699996263538
20
-10.765043505031
30
0
41
1
10
35.7018377757199
20
-10.8842869924535
30
0
0
SPLINE
5
29C
100
AcDbEntity
8
1
62
256
6
ByLayer
370
-1
48
1
60
0
100
AcDbSpline
70
4
71
3
72
14
73
10
40
0
40
0
40
0
40
0
40
0.142282681336746
40
0.142282681336746
40
0.426493461709814
40
0.426493461709814
40
0.866145857124144
40
0.866145857124144
40
1
40
1
40
1
40
1
41
1
10
30.3327576670276
20
-26.7174258832849
30
0
41
1
10
30.3263575052933
20
-26.7209491224187
30
0
41
1
10
30.3201862866231
20
-26.7246166120832
30
0
41
1
10
30.3024905884022
20
-26.7360405891658
30
0
41
1
10
30.2917052038405
20
-26.7442686636723
30
0
41
1
10
30.2684105410495
20
-26.7665271118696
30
0
41
1
10
30.2576311874129
20
-26.7817430501777
30
0
41
1
10
30.253099268122
20
-26.8026104810778
30
0
41
1
10
30.2527307825541
20
-26.8076481469098
30
0
41
1
10
30.2532010128486
20
-26.8126861332967
30
0
0
SPLINE
5
29D
100
AcDbEntity
8
1
62
256
6
ByLayer
370
-1
48
1
60
0
100
AcDbSpline
70
4
71
3
72
22
73
18
40
0
40
0
40
0
40
0
40
0.090488415977349
40
0.090488415977349
40
0.167615335033938
40
0.167615335033938
40
0.286482716021647
40
0.286482716021647
40
0.385988194077763
40
0.385988194077763
40
0.485170893000026
40
0.485170893000026
40
0.671495106342913
40
0.671495106342913
40
0.857309270881021
40
0.857309270881021
40
1
40
1
40
1
40
1
41
1
10
30.2544019041624
20
-26.8255525025563
30
0
41
1
10
30.2540121207182
20
-26.8349981456755
30
0
41
1
10
30.2501039954493
20
-26.8444157916081
30
0
41
1
10
30.2370651388323
20
-26.8599831850115
30
0
41
1
10
30.2286950038002
20
-26.8666063244357
30
0
41
1
10
30.2039635451847
20
-26.8813528499956
30
0
41
1
10
30.1854258971688
20
-26.8886755356918
30
0
41
1
10
30.1492167526119
20
-26.8997268326154
30
0
41
1
10
30.1315962468875
20
-26.9039415022495
30
0
41
1
10
30.0955754431664
20
-26.9111354868542
30
0
41
1
10
30.0770615127584
20
-26.9141382848929
30
0
41
1
10
30.0232596903026
20
-26.9215176241126
30
0
41
1
10
29.9872305920261
20
-26.9248552089543
30
0
41
1
10
29.9152144233212
20
-26.9296734707985
30
0
41
1
10
29.8789954983804
20
-26.9311561176418
30
0
41
1
10
29.8153205491969
20
-26.9325368745938
30
0
41
1
10
29.7877027518652
20
-26.9327187807348
30
0
41
1
10
29.7602882126429
20
-26.9325102053342
30
0
0
SPLINE
5
29E
100
AcDbEntity
8
1
62
256
6
ByLayer
370
-1
48
1
60
0
100
AcDbSpline
70
4
71
3
72
22
73
18
40
0
40
0
40
0
40
0
40
0.0904884159773389
40
0.0904884159773389
40
0.167615335033926
40
0.167615335033926
40
0.286482716021618
40
0.286482716021618
40
0.385988194077723
40
0.385988194077723
40
0.485170892999979
40
0.485170892999979
40
0.671495106342846
40
0.671495106342846
40
0.857309270880934
40
0.857309270880934
40
1
40
1
40
1
40
1
41
1
10
28.6084566650636
20
-26.7878049883951
30
0
41
1
10
28.595174699759
20
-26.7968358408017
30
0
41
1
10
28.5798669241524
20
-26.8056666705149
30
0
41
1
10
28.5508218608725
20
-26.819943806975
30
0
41
1
10
28.5368656482715
20
-26.8258807869821
30
0
41
1
10
28.5024982761783
20
-26.8388080842209
30
0
41
1
10
28.482065998675
20
-26.8449286254296
30
0
41
1
10
28.4471634200174
20
-26.8537835442444
30
0
41
1
10
28.4319650142078
20
-26.8569835193121
30
0
41
1
10
28.4032770279409
20
-26.8621753722704
30
0
41
1
10
28.3896928222229
20
-26.8641842922969
30
0
41
1
10
28.3526973813556
20
-26.868750563885
30
0
41
1
10
28.3308920670187
20
-26.870294307328
30
0
41
1
10
28.2914434222945
20
-26.8716523031283
30
0
41
1
10
28.2736825393621
20
-26.8714576717638
30
0
41
1
10
28.245550242381
20
-26.8699833600494
30
0
41
1
10
28.2343922365941
20
-26.8689585577615
30
0
41
1
10
28.2243241322475
20
-26.8675826852414
30
0
0
SPLINE
5
29F
100
AcDbEntity
8
1
62
256
6
ByLayer
370
-1
48
1
60
0
100
AcDbSpline
70
4
71
3
72
8
73
4
40
0
40
0
40
0
40
0
40
1
40
1
40
1
40
1
41
1
10
28.6255340405202
20
-26.7754184200674
30
0
41
1
10
28.6198415606988
20
-26.7795472327601
30
0
41
1
10
28.6141491024556
20
-26.783676089363
30
0
41
1
10
28.6084566650636
20
-26.7878049883951
30
0
0
SPLINE
5
2A0
100
AcDbEntity
8
1
62
256
6
ByLayer
370
-1
48
1
60
0
100
AcDbSpline
70
4
71
3
72
8
73
4
40
0
40
0
40
0
40
0
40
1
40
1
40
1
40
1
41
1
10
29.3361664698982
20
-26.8185663802651
30
0
41
1
10
29.3385822925661
20
-26.8142989737827
30
0
41
1
10
29.3409981241026
20
-26.8100316092231
30
0
41
1
10
29.3434139648169
20
-26.8057642880496
30
0
0
SPLINE
5
2A1
100
AcDbEntity
8
1
62
256
6
ByLayer
370
-1
48
1
60
0
100
AcDbSpline
70
4
71
3
72
14
73
10
40
0
40
0
40
0
40
0
40
0.0824380617966223
40
0.0824380617966223
40
0.438592191560538
40
0.438592191560538
40
0.795135777915559
40
0.795135777915559
40
1
40
1
40
1
40
1
41
1
10
28.2243241322475
20
-26.8675826852414
30
0
41
1
10
28.2212887528518
20
-26.8671678807306
30
0
41
1
10
28.2183516296074
20
-26.8667206826895
30
0
41
1
10
28.203270676093
20
-26.8641713438469
30
0
41
1
10
28.1928493026297
20
-26.8615052365612
30
0
41
1
10
28.1762305005915
20
-26.8547990689781
30
0
41
1
10
28.1699862970334
20
-26.8507507346339
30
0
41
1
10
28.1644499405883
20
-26.8428233370707
30
0
41
1
10
28.1633280063136
20
-26.8395920625383
30
0
41
1
10
28.1633472891477
20
-26.8359127374787
30
0
0
SPLINE
5
2A2
100
AcDbEntity
8
1
62
256
6
ByLayer
370
-1
48
1
60
0
100
AcDbSpline
70
4
71
3
72
10
73
6
40
0
40
0
40
0
40
0
40
0.89834731781608
40
0.89834731781608
40
1
40
1
40
1
40
1
41
1
10
29.3434139648169
20
-26.8057642880496
30
0
41
1
10
29.3487217382377
20
-26.7963886807222
30
0
41
1
10
29.351299246757
20
-26.7869569530344
30
0
41
1
10
29.3518158859673
20
-26.7769992757791
30
0
41
1
10
29.3518423027849
20
-26.7759956758254
30
0
41
1
10
29.3518436577327
20
-26.7749963236912
30
0
0
SPLINE
5
2A3
100
AcDbEntity
8
1
62
256
6
ByLayer
370
-1
48
1
60
0
100
AcDbSpline
70
4
71
3
72
24
73
20
40
0
40
0
40
0
40
0
40
0.042995226961602
40
0.042995226961602
40
0.228745926441343
40
0.228745926441343
40
0.414699745380244
40
0.414699745380244
40
0.538335079651942
40
0.538335079651942
40
0.632242005354075
40
0.632242005354075
40
0.783656353743872
40
0.783656353743872
40
0.875145603232519
40
0.875145603232519
40
0.967942630461902
40
0.967942630461902
40
1
40
1
40
1
40
1
41
1
10
29.7602882126429
20
-26.9325102053342
30
0
41
1
10
29.7520231485719
20
-26.9324473230426
30
0
41
1
10
29.7437733693733
20
-26.9323485898205
30
0
41
1
10
29.7000236303831
20
-26.9316322123084
30
0
41
1
10
29.664785433821
20
-26.9303901870904
30
0
41
1
10
29.5956847698525
20
-26.9263609449513
30
0
41
1
10
29.5616571271202
20
-26.9235720665641
30
0
41
1
10
29.5070891482767
20
-26.9170835122438
30
0
41
1
10
29.4857662657457
20
-26.9139883208009
30
0
41
1
10
29.4498543041644
20
-26.9073095399299
30
0
41
1
10
29.4348240232406
20
-26.9040107834238
30
0
41
1
10
29.3979093315483
20
-26.8939962711491
30
0
41
1
10
29.3768345889913
20
-26.8863138931258
30
0
41
1
10
29.3509763085668
20
-26.8702969454374
30
0
41
1
10
29.3429415069331
20
-26.8632583086266
30
0
41
1
10
29.3329674207705
20
-26.8473340208006
30
0
41
1
10
29.3310884368787
20
-26.8381549370034
30
0
41
1
10
29.3335806565629
20
-26.825355768815
30
0
41
1
10
29.3346699974685
20
-26.8219659230824
30
0
41
1
10
29.3361664698982
20
-26.8185663802651
30
0
0
SPLINE
5
2A4
100
AcDbEntity
8
1
62
256
6
ByLayer
370
-1
48
1
60
0
100
AcDbSpline
70
4
71
3
72
22
73
18
40
0
40
0
40
0
40
0
40
0.0450139638010657
40
0.0450139638010657
40
0.239486137884286
40
0.239486137884286
40
0.434170968409348
40
0.434170968409348
40
0.56361130062163
40
0.56361130062163
40
0.661927398778536
40
0.661927398778536
40
0.820451041495501
40
0.820451041495501
40
0.916235947302773
40
0.916235947302773
40
1
40
1
40
1
40
1
41
1
10
31.5945037820843
20
-26.8932236987535
30
0
41
1
10
31.589274097409
20
-26.8935756209727
30
0
41
1
10
31.58396142363
20
-26.8938938389655
30
0
41
1
10
31.5552924480315
20
-26.8954041819477
30
0
41
1
10
31.5304751426851
20
-26.896009940234
30
0
41
1
10
31.47799153481
20
-26.8957241797791
30
0
41
1
10
31.4502068322054
20
-26.8948397261858
30
0
41
1
10
31.4014898018915
20
-26.8915359932835
30
0
41
1
10
31.3813000915068
20
-26.8897215542951
30
0
41
1
10
31.3446031218277
20
-26.8852844991944
30
0
41
1
10
31.3283192685429
20
-26.8829530582631
30
0
41
1
10
31.2850831088997
20
-26.8754162393286
30
0
41
1
10
31.2570336094158
20
-26.8692542038206
30
0
41
1
10
31.2124412895975
20
-26.8554225901807
30
0
41
1
10
31.195412372017
20
-26.8491627383394
30
0
41
1
10
31.1657328138181
20
-26.8355547663828
30
0
41
1
10
31.152504494466
20
-26.8282575784785
30
0
41
1
10
31.1410851613537
20
-26.8205145173596
30
0
0
SPLINE
5
2A5
100
AcDbEntity
8
1
62
256
6
ByLayer
370
-1
48
1
60
0
100
AcDbSpline
70
4
71
3
72
18
73
14
40
0
40
0
40
0
40
0
40
0.0235065764905239
40
0.0235065764905239
40
0.159686101649575
40
0.159686101649575
40
0.295423883197747
40
0.295423883197747
40
0.550420325547971
40
0.550420325547971
40
0.804718733926613
40
0.804718733926613
40
1
40
1
40
1
40
1
41
1
10
31.7613084857713
20
-26.8349194237433
30
0
41
1
10
31.7613192710807
20
-26.8359263204916
30
0
41
1
10
31.7612716478265
20
-26.8369074757582
30
0
41
1
10
31.7605748820987
20
-26.8434371059573
30
0
41
1
10
31.7581550273634
20
-26.8482616356814
30
0
41
1
10
31.7508260483628
20
-26.85677722197
30
0
41
1
10
31.7458979293703
20
-26.8604958010096
30
0
41
1
10
31.7290955105214
20
-26.8700332236459
30
0
41
1
10
31.7148735430231
20
-26.8749093762722
30
0
41
1
10
31.6823087083276
20
-26.8829330780464
30
0
41
1
10
31.6638515401841
20
-26.8860932139751
30
0
41
1
10
31.6283098144213
20
-26.8905203539202
30
0
41
1
10
31.6118502169599
20
-26.892056401634
30
0
41
1
10
31.5945037820843
20
-26.8932236987535
30
0
0
SPLINE
5
2A6
100
AcDbEntity
8
1
62
256
6
ByLayer
370
-1
48
1
60
0
100
AcDbSpline
70
4
71
3
72
8
73
4
40
0
40
0
40
0
40
0
40
1
40
1
40
1
40
1
41
1
10
30.2532010128488
20
-26.8126861332969
30
0
41
1
10
30.2536013114165
20
-26.8169748802319
30
0
41
1
10
30.2540016085044
20
-26.8212636704719
30
0
41
1
10
30.2544019041624
20
-26.8255525025563
30
0
0
LINE
5
47
100
AcDbEntity
8
80
62
256
6
ByLayer
370
-1
48
1
60
0
100
AcDbLine
10
0
20
0
30
0
11
-5
21
0
31
0
39
0
210
0
220
0
230
1
0
LINE
5
48
100
AcDbEntity
8
4
62
256
6
ByLayer
370
-1
48
0.05
60
0
100
AcDbLine
10
0
20
0
30
0
11
50
21
0
31
0
39
0
210
0
220
0
230
1
0
LINE
5
4A
100
AcDbEntity
8
81
62
256
6
ByLayer
370
-1
48
1
60
0
100
AcDbLine
10
50
20
-27
30
0
11
55
21
-27
31
0
39
0
210
0
220
0
230
1
0
LINE
5
4B
100
AcDbEntity
8
1
62
256
6
ByLayer
370
-1
48
1
60
0
100
AcDbLine
10
30.568778
20
-26.763408
30
0
11
31.532694
21
-26.858828
31
0
39
0
210
0
220
0
230
1
0
LINE
5
4D
100
AcDbEntity
8
1
62
256
6
ByLayer
370
-1
48
1
60
0
100
AcDbLine
10
38.246152
20
-10.593181
30
0
11
37.28378
21
-10.497914
31
0
39
0
210
0
220
0
230
1
0
LINE
5
4E
100
AcDbEntity
8
SK4
62
256
6
ByLayer
370
-1
48
0.05
60
0
100
AcDbLine
10
-29
20
0
30
0
11
55
21
0
31
0
39
0
210
0
220
0
230
1
0
LINE
5
50
100
AcDbEntity
8
1
62
256
6
ByLayer
370
-1
48
1
60
0
100
AcDbLine
10
36.594217
20
-13.70986
30
0
11
35.690015
21
-13.620351
31
0
39
0
210
0
220
0
230
1
0
LINE
5
51
100
AcDbEntity
8
1
62
256
6
ByLayer
370
-1
48
1
60
0
100
AcDbLine
10
29.351843
20
-26.775206
30
0
11
29.351817
21
-26.730453
31
0
39
0
210
0
220
0
230
1
0
LINE
5
52
100
AcDbEntity
8
1
62
256
6
ByLayer
370
-1
48
1
60
0
100
AcDbLine
10
38.668181
20
-24.192001
30
0
11
38.794102
21
-24.204466
31
0
39
0
210
0
220
0
230
1
0
LINE
5
53
100
AcDbEntity
8
1
62
256
6
ByLayer
370
-1
48
1
60
0
100
AcDbLine
10
39.498456
20
-17.089244
30
0
11
39.372535
21
-17.076779
31
0
39
0
210
0
220
0
230
1
0
LINE
5
54
100
AcDbEntity
8
1
62
256
6
ByLayer
370
-1
48
1
60
0
100
AcDbLine
10
39.325125
20
-10.360087
30
0
11
38.605903
21
-10.289543
31
0
39
0
210
0
220
0
230
1
0
LINE
5
55
100
AcDbEntity
8
1
62
256
6
ByLayer
370
-1
48
1
60
0
100
AcDbLine
10
43.906155
20
-14.157834
30
0
11
43.185399
21
-14.08714
31
0
39
0
210
0
220
0
230
1
0
LINE
5
56
100
AcDbEntity
8
1
62
256
6
ByLayer
370
-1
48
1
60
0
100
AcDbLine
10
18.687318
20
-4.143145
30
0
11
18.87103
21
-4.037079
31
0
39
0
210
0
220
0
230
1
0
LINE
5
57
100
AcDbEntity
8
1
62
256
6
ByLayer
370
-1
48
1
60
0
100
AcDbLine
10
19.647487
20
-1.139302
30
0
11
19.541421
21
-0.95559
31
0
39
0
210
0
220
0
230
1
0
LINE
5
58
100
AcDbEntity
8
1
62
256
6
ByLayer
370
-1
48
1
60
0
100
AcDbLine
10
17.065429
20
-0.29215
30
0
11
16.647171
21
-0.404222
31
0
39
0
210
0
220
0
230
1
0
LINE
5
59
100
AcDbEntity
8
1
62
256
6
ByLayer
370
-1
48
1
60
0
100
AcDbLine
10
19.541421
20
-0.95559
30
0
11
17.065429
21
-0.29215
31
0
39
0
210
0
220
0
230
1
0
LINE
5
5A
100
AcDbEntity
8
1
62
256
6
ByLayer
370
-1
48
1
60
0
100
AcDbLine
10
16.333656
20
-3.512483
30
0
11
18.687318
21
-4.143145
31
0
39
0
210
0
220
0
230
1
0
LINE
5
5B
100
AcDbEntity
8
1
62
256
6
ByLayer
370
-1
48
1
60
0
100
AcDbLine
10
0.3
20
-20
30
0
11
20.920792
21
-20
31
0
39
0
210
0
220
0
230
1
0
LINE
5
5C
100
AcDbEntity
8
1
62
256
6
ByLayer
370
-1
48
1
60
0
100
AcDbLine
10
20.015102
20
20
30
0
11
0.3
21
20
31
0
39
0
210
0
220
0
230
1
0
LINE
5
5D
100
AcDbEntity
8
1
62
256
6
ByLayer
370
-1
48
1
60
0
100
AcDbLine
10
0.3
20
20
30
0
11
0
21
19.7
31
0
39
0
210
0
220
0
230
1
0
LINE
5
5E
100
AcDbEntity
8
1
62
256
6
ByLayer
370
-1
48
1
60
0
100
AcDbLine
10
0
20
-19.7
30
0
11
0.3
21
-20
31
0
39
0
210
0
220
0
230
1
0
LINE
5
5F
100
AcDbEntity
8
1
62
256
6
ByLayer
370
-1
48
1
60
0
100
AcDbLine
10
20.920792
20
-20
30
0
11
22.590479
21
-26.231355
31
0
39
0
210
0
220
0
230
1
0
LINE
5
60
100
AcDbEntity
8
1
62
256
6
ByLayer
370
-1
48
1
60
0
100
AcDbLine
10
17.080365
20
-18.47854
30
0
11
17.080365
21
-3.712618
31
0
39
0
210
0
220
0
230
1
0
LINE
5
61
100
AcDbEntity
8
1
62
256
6
ByLayer
370
-1
48
1
60
0
100
AcDbLine
10
6.923205
20
19.122283
30
0
11
9.076795
21
19.122283
31
0
39
0
210
0
220
0
230
1
0
LINE
5
62
100
AcDbEntity
8
1
62
256
6
ByLayer
370
-1
48
1
60
0
100
AcDbLine
10
20.920792
20
-20
30
0
11
20.920792
21
-19.595386
31
0
39
0
210
0
220
0
230
1
0
LINE
5
63
100
AcDbEntity
8
1
62
256
6
ByLayer
370
-1
48
1
60
0
100
AcDbLine
10
16.30621
20
1.845698
30
0
11
16.30621
21
-1.796924
31
0
39
0
210
0
220
0
230
1
0
LINE
5
64
100
AcDbEntity
8
1
62
256
6
ByLayer
370
-1
48
1
60
0
100
AcDbLine
10
45.144367
20
-5.443634
30
0
11
45.119504
21
-13.772976
31
0
39
0
210
0
220
0
230
1
0
LINE
5
65
100
AcDbEntity
8
1
62
256
6
ByLayer
370
-1
48
1
60
0
100
AcDbLine
10
17.096516
20
4.79516
30
0
11
17.096516
21
-0.300389
31
0
39
0
210
0
220
0
230
1
0
LINE
5
66
100
AcDbEntity
8
1
62
256
6
ByLayer
370
-1
48
1
60
0
100
AcDbLine
10
43.10873
20
-13.772976
30
0
11
45.119504
21
-13.772976
31
0
39
0
210
0
220
0
230
1
0
LINE
5
67
100
AcDbEntity
8
1
62
256
6
ByLayer
370
-1
48
1
60
0
100
AcDbLine
10
0
20
0
30
0
11
0
21
-19.7
31
0
39
0
210
0
220
0
230
1
0
LINE
5
68
100
AcDbEntity
8
1
62
256
6
ByLayer
370
-1
48
1
60
0
100
AcDbLine
10
0
20
19.7
30
0
11
0
21
0
31
0
39
0
210
0
220
0
230
1
0
LINE
5
69
100
AcDbEntity
8
1
62
256
6
ByLayer
370
-1
48
1
60
0
100
AcDbLine
10
16.30621
20
1.845698
30
0
11
17.080365
21
4.734881
31
0
39
0
210
0
220
0
230
1
0
LINE
5
6A
100
AcDbEntity
8
1
62
256
6
ByLayer
370
-1
48
1
60
0
100
AcDbLine
10
6.923205
20
-5.85989
30
0
11
6.923205
21
-19.122283
31
0
39
0
210
0
220
0
230
1
0
LINE
5
6B
100
AcDbEntity
8
1
62
256
6
ByLayer
370
-1
48
1
60
0
100
AcDbLine
10
6.923205
20
19.122283
30
0
11
6.923205
21
5.85989
31
0
39
0
210
0
220
0
230
1
0
LINE
5
6C
100
AcDbEntity
8
1
62
256
6
ByLayer
370
-1
48
1
60
0
100
AcDbLine
10
0.3
20
0
30
0
11
0.3
21
-20
31
0
39
0
210
0
220
0
230
1
0
LINE
5
6D
100
AcDbEntity
8
1
62
256
6
ByLayer
370
-1
48
1
60
0
100
AcDbLine
10
0.3
20
20
30
0
11
0.3
21
0
31
0
39
0
210
0
220
0
230
1
0
LINE
5
6E
100
AcDbEntity
8
1
62
256
6
ByLayer
370
-1
48
1
60
0
100
AcDbLine
10
36.232503
20
-12.33186
30
0
11
28.248186
21
-26.300309
31
0
39
0
210
0
220
0
230
1
0
LINE
5
6F
100
AcDbEntity
8
1
62
256
6
ByLayer
370
-1
48
1
60
0
100
AcDbLine
10
42.514936
20
-13.942802
30
0
11
44.020165
21
-13.942802
31
0
39
0
210
0
220
0
230
1
0
LINE
5
70
100
AcDbEntity
8
1
62
256
6
ByLayer
370
-1
48
1
60
0
100
AcDbLine
10
6.663397
20
-6.16973
30
0
11
6.663397
21
-19.024574
31
0
39
0
210
0
220
0
230
1
0
LINE
5
71
100
AcDbEntity
8
1
62
256
6
ByLayer
370
-1
48
1
60
0
100
AcDbLine
10
44.020165
20
-13.942802
30
0
11
44.020668
21
-13.772968
31
0
39
0
210
0
220
0
230
1
0
LINE
5
72
100
AcDbEntity
8
1
62
256
6
ByLayer
370
-1
48
1
60
0
100
AcDbLine
10
17.096516
20
4.79516
30
0
11
17.080365
21
4.734881
31
0
39
0
210
0
220
0
230
1
0
LINE
5
73
100
AcDbEntity
8
1
62
256
6
ByLayer
370
-1
48
1
60
0
100
AcDbLine
10
40.844233
20
-9.769881
30
0
11
43.10873
21
-13.772976
31
0
39
0
210
0
220
0
230
1
0
LINE
5
74
100
AcDbEntity
8
1
62
256
6
ByLayer
370
-1
48
1
60
0
100
AcDbLine
10
42.186798
20
-13.362651
30
0
11
43.10873
21
-13.772976
31
0
39
0
210
0
220
0
230
1
0
LINE
5
75
100
AcDbEntity
8
1
62
256
6
ByLayer
370
-1
48
1
60
0
100
AcDbLine
10
6.663397
20
19.024574
30
0
11
6.663397
21
6.16973
31
0
39
0
210
0
220
0
230
1
0
LINE
5
76
100
AcDbEntity
8
1
62
256
6
ByLayer
370
-1
48
1
60
0
100
AcDbLine
10
9.076795
20
-5.85989
30
0
11
9.076795
21
-19.122283
31
0
39
0
210
0
220
0
230
1
0
LINE
5
77
100
AcDbEntity
8
1
62
256
6
ByLayer
370
-1
48
1
60
0
100
AcDbLine
10
30.380687
20
-22.775049
30
0
11
28.373663
21
-26.286171
31
0
39
0
210
0
220
0
230
1
0
LINE
5
78
100
AcDbEntity
8
1
62
256
6
ByLayer
370
-1
48
1
60
0
100
AcDbLine
10
28.248186
20
-26.300309
30
0
11
25.576199
21
-26.300309
31
0
39
0
210
0
220
0
230
1
0
LINE
5
79
100
AcDbEntity
8
1
62
256
6
ByLayer
370
-1
48
1
60
0
100
AcDbLine
10
30.947609
20
-21.953661
30
0
11
35.008144
21
-14.850093
31
0
39
0
210
0
220
0
230
1
0
LINE
5
7A
100
AcDbEntity
8
1
62
256
6
ByLayer
370
-1
48
1
60
0
100
AcDbLine
10
29.235424
20
10.664331
30
0
11
45.144367
21
-5.443634
31
0
39
0
210
0
220
0
230
1
0
LINE
5
7B
100
AcDbEntity
8
1
62
256
6
ByLayer
370
-1
48
1
60
0
100
AcDbLine
10
9.076795
20
19.122283
30
0
11
9.076795
21
5.85989
31
0
39
0
210
0
220
0
230
1
0
LINE
5
7C
100
AcDbEntity
8
1
62
256
6
ByLayer
370
-1
48
1
60
0
100
AcDbLine
10
39.640396
20
-8.865176
30
0
11
41.768044
21
-12.626238
31
0
39
0
210
0
220
0
230
1
0
LINE
5
7D
100
AcDbEntity
8
1
62
256
6
ByLayer
370
-1
48
1
60
0
100
AcDbLine
10
6.923205
20
-5.85989
30
0
11
9.076795
21
-5.85989
31
0
39
0
210
0
220
0
230
1
0
LINE
5
7E
100
AcDbEntity
8
1
62
256
6
ByLayer
370
-1
48
1
60
0
100
AcDbLine
10
28.248186
20
-26.300309
30
0
11
28.373663
21
-26.286171
31
0
39
0
210
0
220
0
230
1
0
LINE
5
7F
100
AcDbEntity
8
1
62
256
6
ByLayer
370
-1
48
1
60
0
100
AcDbLine
10
21.065143
20
-20.145452
30
0
11
21.065143
21
18.936823
31
0
39
0
210
0
220
0
230
1
0
LINE
5
80
100
AcDbEntity
8
1
62
256
6
ByLayer
370
-1
48
1
60
0
100
AcDbLine
10
9.336603
20
-6.16973
30
0
11
9.336603
21
-19.024574
31
0
39
0
210
0
220
0
230
1
0
LINE
5
81
100
AcDbEntity
8
1
62
256
6
ByLayer
370
-1
48
1
60
0
100
AcDbLine
10
36.190214
20
-12.288793
30
0
11
36.232503
21
-12.33186
31
0
39
0
210
0
220
0
230
1
0
LINE
5
82
100
AcDbEntity
8
1
62
256
6
ByLayer
370
-1
48
1
60
0
100
AcDbLine
10
35.478825
20
-13.856281
30
0
11
36.238991
21
-12.526434
31
0
39
0
210
0
220
0
230
1
0
LINE
5
83
100
AcDbEntity
8
1
62
256
6
ByLayer
370
-1
48
1
60
0
100
AcDbLine
10
21.065143
20
18.936823
30
0
11
20.424666
21
19.585312
31
0
39
0
210
0
220
0
230
1
0
LINE
5
84
100
AcDbEntity
8
1
62
256
6
ByLayer
370
-1
48
1
60
0
100
AcDbLine
10
20.424666
20
19.585312
30
0
11
20.015102
21
20
31
0
39
0
210
0
220
0
230
1
0
LINE
5
85
100
AcDbEntity
8
1
62
256
6
ByLayer
370
-1
48
1
60
0
100
AcDbLine
10
9.076795
20
5.85989
30
0
11
6.923205
21
5.85989
31
0
39
0
210
0
220
0
230
1
0
LINE
5
86
100
AcDbEntity
8
1
62
256
6
ByLayer
370
-1
48
1
60
0
100
AcDbLine
10
21.065143
20
18.936823
30
0
11
29.235424
21
10.664331
31
0
39
0
210
0
220
0
230
1
0
LINE
5
87
100
AcDbEntity
8
1
62
256
6
ByLayer
370
-1
48
1
60
0
100
AcDbLine
10
9.336603
20
19.024574
30
0
11
9.336603
21
6.16973
31
0
39
0
210
0
220
0
230
1
0
LINE
5
88
100
AcDbEntity
8
1
62
256
6
ByLayer
370
-1
48
1
60
0
100
AcDbLine
10
22.68771
20
-26.291687
30
0
11
25.576199
21
-26.300309
31
0
39
0
210
0
220
0
230
1
0
LINE
5
89
100
AcDbEntity
8
1
62
256
6
ByLayer
370
-1
48
1
60
0
100
AcDbLine
10
43.389245
20
-14.10714
30
0
11
43.389731
21
-13.942917
31
0
39
0
210
0
220
0
230
1
0
LINE
5
8A
100
AcDbEntity
8
1
62
256
6
ByLayer
370
-1
48
1
60
0
100
AcDbLine
10
36.232503
20
-12.33186
30
0
11
36.238991
21
-12.526434
31
0
39
0
210
0
220
0
230
1
0
LINE
5
8B
100
AcDbEntity
8
1
62
256
6
ByLayer
370
-1
48
1
60
0
100
AcDbLine
10
25.576199
20
-26.300309
30
0
11
29.235424
21
10.664331
31
0
39
0
210
0
220
0
230
1
0
LINE
5
8C
100
AcDbEntity
8
1
62
256
6
ByLayer
370
-1
48
1
60
0
100
AcDbLine
10
9.076795
20
-19.122283
30
0
11
6.923205
21
-19.122283
31
0
39
0
210
0
220
0
230
1
0
LINE
5
8D
100
AcDbEntity
8
1
62
256
6
ByLayer
370
-1
48
1
60
0
100
AcDbLine
10
17.080365
20
4.734881
30
0
11
17.080365
21
18.47854
31
0
39
0
210
0
220
0
230
1
0
LINE
5
8E
100
AcDbEntity
8
SK1
62
256
6
ByLayer
370
-1
48
1
60
0
100
AcDbLine
10
-1.307107
20
3.627816
30
0
11
-1.307107
21
-3.627817
31
0
39
0
210
0
220
0
230
1
0
LINE
5
90
100
AcDbEntity
8
SK1
62
256
6
ByLayer
370
-1
48
1
60
0
100
AcDbLine
10
-0.2
20
-5.703176
30
0
11
-0.2
21
-14.083485
31
0
39
0
210
0
220
0
230
1
0
LINE
5
91
100
AcDbEntity
8
SK1
62
256
6
ByLayer
370
-1
48
1
60
0
100
AcDbLine
10
-0.2
20
14.083485
30
0
11
-0.2
21
5.703176
31
0
39
0
210
0
220
0
230
1
0
LINE
5
92
100
AcDbEntity
8
1
62
256
6
ByLayer
370
-1
48
1
60
0
100
AcDbLine
10
36.926427
20
-13.855751
30
0
11
36.655576
21
-13.726906
31
0
39
0
210
0
220
0
230
1
0
LINE
5
93
100
AcDbEntity
8
1
62
256
6
ByLayer
370
-1
48
1
60
0
100
AcDbLine
10
34.018759
20
-25.628597
30
0
11
34.291785
21
-25.788917
31
0
39
0
210
0
220
0
230
1
0
LINE
5
94
100
AcDbEntity
8
1
62
256
6
ByLayer
370
-1
48
1
60
0
100
AcDbLine
10
46.356202
20
-20.658652
30
0
11
45.100404
21
-18.502172
31
0
39
0
210
0
220
0
230
1
0
LINE
5
95
100
AcDbEntity
8
1
62
256
6
ByLayer
370
-1
48
1
60
0
100
AcDbLine
10
46.352939
20
-21.751576
30
0
11
46.356202
21
-20.658652
31
0
39
0
210
0
220
0
230
1
0
LINE
5
96
100
AcDbEntity
8
1
62
256
6
ByLayer
370
-1
48
1
60
0
100
AcDbLine
10
37.422763
20
-13.684288
30
0
11
37.14878
21
-13.844608
31
0
39
0
210
0
220
0
230
1
0
LINE
5
97
100
AcDbEntity
8
1
62
256
6
ByLayer
370
-1
48
1
60
0
100
AcDbLine
10
36.521223
20
-16.011748
30
0
11
33.591567
21
-17.726025
31
0
39
0
210
0
220
0
230
1
0
LINE
5
98
100
AcDbEntity
8
1
62
256
6
ByLayer
370
-1
48
1
60
0
100
AcDbLine
10
43.977952
20
-20.65936
30
0
11
43.984721
21
-18.391899
31
0
39
0
210
0
220
0
230
1
0
LINE
5
99
100
AcDbEntity
8
1
62
256
6
ByLayer
370
-1
48
1
60
0
100
AcDbLine
10
32.633939
20
-19.660464
30
0
11
34.460114
21
-23.167457
31
0
39
0
210
0
220
0
230
1
0
LINE
5
9A
100
AcDbEntity
8
1
62
256
6
ByLayer
370
-1
48
1
60
0
100
AcDbLine
10
43.316287
20
-23.233579
30
0
11
43.61591
21
-23.492103
31
0
39
0
210
0
220
0
230
1
0
LINE
5
9B
100
AcDbEntity
8
1
62
256
6
ByLayer
370
-1
48
1
60
0
100
AcDbLine
10
33.549455
20
-26.203662
30
0
11
33.521435
21
-25.893531
31
0
39
0
210
0
220
0
230
1
0
LINE
5
9C
100
AcDbEntity
8
1
62
256
6
ByLayer
370
-1
48
1
60
0
100
AcDbLine
10
30.911926
20
-22.566616
30
0
11
34.991951
21
-24.962397
31
0
39
0
210
0
220
0
230
1
0
LINE
5
9D
100
AcDbEntity
8
1
62
256
6
ByLayer
370
-1
48
1
60
0
100
AcDbLine
10
43.820168
20
-18.249583
30
0
11
44.159017
21
-16.726927
31
0
39
0
210
0
220
0
230
1
0
LINE
5
9E
100
AcDbEntity
8
1
62
256
6
ByLayer
370
-1
48
1
60
0
100
AcDbLine
10
48.334667
20
-24.525762
30
0
11
48.334819
21
-24.474977
31
0
39
0
210
0
220
0
230
1
0
LINE
5
9F
100
AcDbEntity
8
1
62
256
6
ByLayer
370
-1
48
1
60
0
100
AcDbLine
10
30.36261
20
-26.696204
30
0
11
30.319366
21
-26.670811
31
0
39
0
210
0
220
0
230
1
0
LINE
5
A0
100
AcDbEntity
8
1
62
256
6
ByLayer
370
-1
48
1
60
0
100
AcDbLine
10
41.117875
20
-26.994672
30
0
11
40.513484
21
-24.503277
31
0
39
0
210
0
220
0
230
1
0
LINE
5
A1
100
AcDbEntity
8
1
62
256
6
ByLayer
370
-1
48
1
60
0
100
AcDbLine
10
45.900351
20
-22.618083
30
0
11
45.901308
21
-22.297442
31
0
39
0
210
0
220
0
230
1
0
LINE
5
A2
100
AcDbEntity
8
1
62
256
6
ByLayer
370
-1
48
1
60
0
100
AcDbLine
10
44.92018
20
-26.780637
30
0
11
44.934255
21
-22.065415
31
0
39
0
210
0
220
0
230
1
0
LINE
5
A3
100
AcDbEntity
8
1
62
256
6
ByLayer
370
-1
48
1
60
0
100
AcDbLine
10
44.92018
20
-26.780637
30
0
11
48.072356
21
-24.97351
31
0
39
0
210
0
220
0
230
1
0
LINE
5
A4
100
AcDbEntity
8
1
62
256
6
ByLayer
370
-1
48
1
60
0
100
AcDbLine
10
41.792614
20
-17.185971
30
0
11
43.329963
21
-15.683089
31
0
39
0
210
0
220
0
230
1
0
LINE
5
A5
100
AcDbEntity
8
1
62
256
6
ByLayer
370
-1
48
1
60
0
100
AcDbLine
10
34.275155
20
-16.431229
30
0
11
36.102954
21
-15.361699
31
0
39
0
210
0
220
0
230
1
0
LINE
5
A6
100
AcDbEntity
8
1
62
256
6
ByLayer
370
-1
48
1
60
0
100
AcDbLine
10
41.678465
20
-15.88158
30
0
11
43.239523
21
-15.419838
31
0
39
0
210
0
220
0
230
1
0
LINE
5
A7
100
AcDbEntity
8
1
62
256
6
ByLayer
370
-1
48
1
60
0
100
AcDbLine
10
39.623335
20
-26.997923
30
0
11
39.412974
21
-26.995595
31
0
39
0
210
0
220
0
230
1
0
LINE
5
A8
100
AcDbEntity
8
1
62
256
6
ByLayer
370
-1
48
1
60
0
100
AcDbLine
10
30.914443
20
-22.717753
30
0
11
31.022134
21
-26.318787
31
0
39
0
210
0
220
0
230
1
0
LINE
5
A9
100
AcDbEntity
8
1
62
256
6
ByLayer
370
-1
48
1
60
0
100
AcDbLine
10
36.477694
20
-13.735821
30
0
11
35.597501
21
-13.648689
31
0
39
0
210
0
220
0
230
1
0
LINE
5
AA
100
AcDbEntity
8
1
62
256
6
ByLayer
370
-1
48
1
60
0
100
AcDbLine
10
34.949462
20
-17.867921
30
0
11
33.32313
21
-18.219652
31
0
39
0
210
0
220
0
230
1
0
LINE
5
AB
100
AcDbEntity
8
1
62
256
6
ByLayer
370
-1
48
1
60
0
100
AcDbLine
10
32.830756
20
-19.462834
30
0
11
34.141802
21
-20.697684
31
0
39
0
210
0
220
0
230
1
0
LINE
5
AC
100
AcDbEntity
8
1
62
256
6
ByLayer
370
-1
48
1
60
0
100
AcDbLine
10
44.355106
20
-17.056027
30
0
11
44.424514
21
-17.217978
31
0
39
0
210
0
220
0
230
1
0
LINE
5
AD
100
AcDbEntity
8
1
62
256
6
ByLayer
370
-1
48
1
60
0
100
AcDbLine
10
38.978568
20
-25.87532
30
0
11
38.829167
21
-25.259466
31
0
39
0
210
0
220
0
230
1
0
LINE
5
AE
100
AcDbEntity
8
1
62
256
6
ByLayer
370
-1
48
1
60
0
100
AcDbLine
10
37.892849
20
-26.990294
30
0
11
36.071435
21
-25.920764
31
0
39
0
210
0
220
0
230
1
0
LINE
5
AF
100
AcDbEntity
8
1
62
256
6
ByLayer
370
-1
48
1
60
0
100
AcDbLine
10
41.41972
20
-12.423912
30
0
11
37.390624
21
-14.781523
31
0
39
0
210
0
220
0
230
1
0
LINE
5
B0
100
AcDbEntity
8
1
62
256
6
ByLayer
370
-1
48
1
60
0
100
AcDbLine
10
34.41643
20
-25.982129
30
0
11
33.521435
21
-25.893531
31
0
39
0
210
0
220
0
230
1
0
LINE
5
B1
100
AcDbEntity
8
1
62
256
6
ByLayer
370
-1
48
1
60
0
100
AcDbLine
10
41.812322
20
-16.131989
30
0
11
41.361306
21
-16.572894
31
0
39
0
210
0
220
0
230
1
0
LINE
5
B2
100
AcDbEntity
8
1
62
256
6
ByLayer
370
-1
48
1
60
0
100
AcDbLine
10
34.551941
20
-26.447599
30
0
11
33.646596
21
-26.357977
31
0
39
0
210
0
220
0
230
1
0
LINE
5
B3
100
AcDbEntity
8
1
62
256
6
ByLayer
370
-1
48
1
60
0
100
AcDbLine
10
41.532731
20
-26.860478
30
0
11
43.61591
21
-23.492103
31
0
39
0
210
0
220
0
230
1
0
LINE
5
B4
100
AcDbEntity
8
1
62
256
6
ByLayer
370
-1
48
1
60
0
100
AcDbLine
10
43.316287
20
-23.233579
30
0
11
42.127056
21
-25.156495
31
0
39
0
210
0
220
0
230
1
0
LINE
5
B5
100
AcDbEntity
8
1
62
256
6
ByLayer
370
-1
48
1
60
0
100
AcDbLine
10
39.446718
20
-15.802446
30
0
11
39.338966
21
-15.278646
31
0
39
0
210
0
220
0
230
1
0
LINE
5
B6
100
AcDbEntity
8
1
62
256
6
ByLayer
370
-1
48
1
60
0
100
AcDbLine
10
44.051219
20
-20.658627
30
0
11
44.41428
21
-20.646533
31
0
39
0
210
0
220
0
230
1
0
LINE
5
B7
100
AcDbEntity
8
1
62
256
6
ByLayer
370
-1
48
1
60
0
100
AcDbLine
10
43.562583
20
-15.709818
30
0
11
41.738027
21
-17.493468
31
0
39
0
210
0
220
0
230
1
0
LINE
5
B8
100
AcDbEntity
8
1
62
256
6
ByLayer
370
-1
48
1
60
0
100
AcDbLine
10
34.452224
20
-26.293029
30
0
11
33.549455
21
-26.203662
31
0
39
0
210
0
220
0
230
1
0
LINE
5
B9
100
AcDbEntity
8
1
62
256
6
ByLayer
370
-1
48
1
60
0
100
AcDbLine
10
35.549878
20
-18.04287
30
0
11
34.949462
21
-17.867921
31
0
39
0
210
0
220
0
230
1
0
LINE
5
BA
100
AcDbEntity
8
1
62
256
6
ByLayer
370
-1
48
1
60
0
100
AcDbLine
10
36.373719
20
-13.688032
30
0
11
36.530986
21
-13.596008
31
0
39
0
210
0
220
0
230
1
0
LINE
5
BB
100
AcDbEntity
8
1
62
256
6
ByLayer
370
-1
48
1
60
0
100
AcDbLine
10
35.543805
20
-14.282283
30
0
11
34.275155
21
-16.431229
31
0
39
0
210
0
220
0
230
1
0
LINE
5
BC
100
AcDbEntity
8
1
62
256
6
ByLayer
370
-1
48
1
60
0
100
AcDbLine
10
36.493553
20
-25.281317
30
0
11
39.412974
21
-26.995595
31
0
39
0
210
0
220
0
230
1
0
LINE
5
BD
100
AcDbEntity
8
1
62
256
6
ByLayer
370
-1
48
1
60
0
100
AcDbLine
10
36.884741
20
-16.450488
30
0
11
36.521223
21
-16.011748
31
0
39
0
210
0
220
0
230
1
0
LINE
5
BE
100
AcDbEntity
8
1
62
256
6
ByLayer
370
-1
48
1
60
0
100
AcDbLine
10
35.482567
20
-26.994061
30
0
11
34.577223
21
-26.904438
31
0
39
0
210
0
220
0
230
1
0
LINE
5
BF
100
AcDbEntity
8
1
62
256
6
ByLayer
370
-1
48
1
60
0
100
AcDbLine
10
34.018759
20
-25.628597
30
0
11
33.818722
21
-25.608795
31
0
39
0
210
0
220
0
230
1
0
LINE
5
C0
100
AcDbEntity
8
1
62
256
6
ByLayer
370
-1
48
1
60
0
100
AcDbLine
10
39.676921
20
-24.714882
30
0
11
40.229979
21
-26.994672
31
0
39
0
210
0
220
0
230
1
0
LINE
5
C1
100
AcDbEntity
8
1
62
256
6
ByLayer
370
-1
48
1
60
0
100
AcDbLine
10
42.127056
20
-25.156495
30
0
11
41.536075
21
-26.850948
31
0
39
0
210
0
220
0
230
1
0
LINE
5
C2
100
AcDbEntity
8
1
62
256
6
ByLayer
370
-1
48
1
60
0
100
AcDbLine
10
33.277476
20
-18.280771
30
0
11
35.223132
21
-18.847694
31
0
39
0
210
0
220
0
230
1
0
LINE
5
C3
100
AcDbEntity
8
1
62
256
6
ByLayer
370
-1
48
1
60
0
100
AcDbLine
10
40.767682
20
-24.695307
30
0
11
41.276935
21
-26.794526
31
0
39
0
210
0
220
0
230
1
0
LINE
5
C4
100
AcDbEntity
8
1
62
256
6
ByLayer
370
-1
48
1
60
0
100
AcDbLine
10
43.562583
20
-15.709818
30
0
11
44.004201
21
-16.490505
31
0
39
0
210
0
220
0
230
1
0
LINE
5
C5
100
AcDbEntity
8
1
62
256
6
ByLayer
370
-1
48
1
60
0
100
AcDbLine
10
36.932268
20
-16.522151
30
0
11
34.994752
21
-17.655881
31
0
39
0
210
0
220
0
230
1
0
LINE
5
C6
100
AcDbEntity
8
1
62
256
6
ByLayer
370
-1
48
1
60
0
100
AcDbLine
10
36.654722
20
-13.381197
30
0
11
36.677081
21
-11.037318
31
0
39
0
210
0
220
0
230
1
0
LINE
5
C7
100
AcDbEntity
8
1
62
256
6
ByLayer
370
-1
48
1
60
0
100
AcDbLine
10
41.851479
20
-25.147199
30
0
11
41.702079
21
-24.531346
31
0
39
0
210
0
220
0
230
1
0
LINE
5
C8
100
AcDbEntity
8
1
62
256
6
ByLayer
370
-1
48
1
60
0
100
AcDbLine
10
33.32313
20
-18.219652
30
0
11
33.277476
21
-18.280771
31
0
39
0
210
0
220
0
230
1
0
LINE
5
C9
100
AcDbEntity
8
1
62
256
6
ByLayer
370
-1
48
1
60
0
100
AcDbLine
10
41.767609
20
-24.5162
30
0
11
41.91701
21
-25.132053
31
0
39
0
210
0
220
0
230
1
0
LINE
5
CA
100
AcDbEntity
8
1
62
256
6
ByLayer
370
-1
48
1
60
0
100
AcDbLine
10
32.720638
20
-19.23234
30
0
11
33.166916
21
-18.451653
31
0
39
0
210
0
220
0
230
1
0
LINE
5
CB
100
AcDbEntity
8
1
62
256
6
ByLayer
370
-1
48
1
60
0
100
AcDbLine
10
34.577223
20
-26.904438
30
0
11
33.646596
21
-26.357977
31
0
39
0
210
0
220
0
230
1
0
LINE
5
CC
100
AcDbEntity
8
1
62
256
6
ByLayer
370
-1
48
1
60
0
100
AcDbLine
10
30.693573
20
-22.282417
30
0
11
30.910988
21
-22.303939
31
0
39
0
210
0
220
0
230
1
0
LINE
5
CD
100
AcDbEntity
8
1
62
256
6
ByLayer
370
-1
48
1
60
0
100
AcDbLine
10
37.550282
20
-13.469851
30
0
11
36.654722
21
-13.381197
31
0
39
0
210
0
220
0
230
1
0
LINE
5
CE
100
AcDbEntity
8
1
62
256
6
ByLayer
370
-1
48
1
60
0
100
AcDbLine
10
35.543805
20
-14.282283
30
0
11
35.267859
21
-14.254966
31
0
39
0
210
0
220
0
230
1
0
LINE
5
CF
100
AcDbEntity
8
1
62
256
6
ByLayer
370
-1
48
1
60
0
100
AcDbLine
10
32.720638
20
-19.23234
30
0
11
35.149585
21
-19.940084
31
0
39
0
210
0
220
0
230
1
0
LINE
5
D0
100
AcDbEntity
8
1
62
256
6
ByLayer
370
-1
48
1
60
0
100
AcDbLine
10
35.032573
20
-22.939855
30
0
11
34.460114
21
-23.167457
31
0
39
0
210
0
220
0
230
1
0
LINE
5
D1
100
AcDbEntity
8
1
62
256
6
ByLayer
370
-1
48
1
60
0
100
AcDbLine
10
42.107366
20
-26.989634
30
0
11
44.072505
21
-23.812121
31
0
39
0
210
0
220
0
230
1
0
LINE
5
D2
100
AcDbEntity
8
1
62
256
6
ByLayer
370
-1
48
1
60
0
100
AcDbLine
10
41.276935
20
-26.794526
30
0
11
41.851479
21
-25.147199
31
0
39
0
210
0
220
0
230
1
0
LINE
5
D3
100
AcDbEntity
8
1
62
256
6
ByLayer
370
-1
48
1
60
0
100
AcDbLine
10
31.022134
20
-26.318787
30
0
11
30.064661
21
-26.224004
31
0
39
0
210
0
220
0
230
1
0
LINE
5
D4
100
AcDbEntity
8
1
62
256
6
ByLayer
370
-1
48
1
60
0
100
AcDbLine
10
37.94319
20
-10.660679
30
0
11
37.899795
21
-10.686072
31
0
39
0
210
0
220
0
230
1
0
LINE
5
D5
100
AcDbEntity
8
1
62
256
6
ByLayer
370
-1
48
1
60
0
100
AcDbLine
10
48.075185
20
-24.025671
30
0
11
46.025175
21
-22.834095
31
0
39
0
210
0
220
0
230
1
0
LINE
5
D6
100
AcDbEntity
8
1
62
256
6
ByLayer
370
-1
48
1
60
0
100
AcDbLine
10
38.790366
20
-26.000497
30
0
11
36.859618
21
-24.866766
31
0
39
0
210
0
220
0
230
1
0
LINE
5
D7
100
AcDbEntity
8
1
62
256
6
ByLayer
370
-1
48
1
60
0
100
AcDbLine
10
34.971156
20
-17.806543
30
0
11
35.571573
21
-17.981492
31
0
39
0
210
0
220
0
230
1
0
LINE
5
D8
100
AcDbEntity
8
1
62
256
6
ByLayer
370
-1
48
1
60
0
100
AcDbLine
10
34.41643
20
-25.982129
30
0
11
34.452224
21
-26.293029
31
0
39
0
210
0
220
0
230
1
0
LINE
5
D9
100
AcDbEntity
8
1
62
256
6
ByLayer
370
-1
48
1
60
0
100
AcDbLine
10
44.113733
20
-16.6638
30
0
11
42.652212
21
-18.092554
31
0
39
0
210
0
220
0
230
1
0
LINE
5
DA
100
AcDbEntity
8
1
62
256
6
ByLayer
370
-1
48
1
60
0
100
AcDbLine
10
43.329963
20
-15.683089
30
0
11
41.812322
21
-16.131989
31
0
39
0
210
0
220
0
230
1
0
LINE
5
DB
100
AcDbEntity
8
1
62
256
6
ByLayer
370
-1
48
1
60
0
100
AcDbLine
10
34.068804
20
-20.900088
30
0
11
35.11132
21
-22.902137
31
0
39
0
210
0
220
0
230
1
0
LINE
5
DC
100
AcDbEntity
8
1
62
256
6
ByLayer
370
-1
48
1
60
0
100
AcDbLine
10
44.057988
20
-18.391166
30
0
11
44.051219
21
-20.658627
31
0
39
0
210
0
220
0
230
1
0
LINE
5
DD
100
AcDbEntity
8
1
62
256
6
ByLayer
370
-1
48
1
60
0
100
AcDbLine
10
32.146818
20
-20.142068
30
0
11
33.869516
21
-23.450344
31
0
39
0
210
0
220
0
230
1
0
LINE
5
DE
100
AcDbEntity
8
1
62
256
6
ByLayer
370
-1
48
1
60
0
100
AcDbLine
10
32.146818
20
-20.142068
30
0
11
30.910988
21
-22.303939
31
0
39
0
210
0
220
0
230
1
0
LINE
5
DF
100
AcDbEntity
8
1
62
256
6
ByLayer
370
-1
48
1
60
0
100
AcDbLine
10
41.771301
20
-12.628142
30
0
11
41.546765
21
-12.498317
31
0
39
0
210
0
220
0
230
1
0
LINE
5
E0
100
AcDbEntity
8
1
62
256
6
ByLayer
370
-1
48
1
60
0
100
AcDbLine
10
30.914443
20
-22.717753
30
0
11
34.929463
21
-25.075364
31
0
39
0
210
0
220
0
230
1
0
LINE
5
E1
100
AcDbEntity
8
1
62
256
6
ByLayer
370
-1
48
1
60
0
100
AcDbLine
10
44.159017
20
-16.726927
30
0
11
44.113733
21
-16.6638
31
0
39
0
210
0
220
0
230
1
0
LINE
5
E2
100
AcDbEntity
8
1
62
256
6
ByLayer
370
-1
48
1
60
0
100
AcDbLine
10
35.389562
20
-19.099285
30
0
11
33.166916
21
-18.451653
31
0
39
0
210
0
220
0
230
1
0
LINE
5
E3
100
AcDbEntity
8
1
62
256
6
ByLayer
370
-1
48
1
60
0
100
AcDbLine
10
31.327951
20
-26.791765
30
0
11
30.36261
21
-26.696204
31
0
39
0
210
0
220
0
230
1
0
LINE
5
E4
100
AcDbEntity
8
1
62
256
6
ByLayer
370
-1
48
1
60
0
100
AcDbLine
10
36.907569
20
-24.796569
30
0
11
38.838317
21
-25.930299
31
0
39
0
210
0
220
0
230
1
0
LINE
5
E5
100
AcDbEntity
8
1
62
256
6
ByLayer
370
-1
48
1
60
0
100
AcDbLine
10
30.064661
20
-26.224004
30
0
11
30.054389
21
-23.345912
31
0
39
0
210
0
220
0
230
1
0
LINE
5
E6
100
AcDbEntity
8
1
62
256
6
ByLayer
370
-1
48
1
60
0
100
AcDbLine
10
44.566119
20
-26.989634
30
0
11
44.789716
21
-26.856781
31
0
39
0
210
0
220
0
230
1
0
LINE
5
E7
100
AcDbEntity
8
1
62
256
6
ByLayer
370
-1
48
1
60
0
100
AcDbLine
10
37.899795
20
-10.686072
30
0
11
36.934453
21
-10.59051
31
0
39
0
210
0
220
0
230
1
0
LINE
5
E8
100
AcDbEntity
8
1
62
256
6
ByLayer
370
-1
48
1
60
0
100
AcDbLine
10
44.41428
20
-20.646533
30
0
11
44.424514
21
-17.217978
31
0
39
0
210
0
220
0
230
1
0
LINE
5
E9
100
AcDbEntity
8
1
62
256
6
ByLayer
370
-1
48
1
60
0
100
AcDbLine
10
31.284707
20
-26.766373
30
0
11
31.327951
21
-26.791765
31
0
39
0
210
0
220
0
230
1
0
LINE
5
EA
100
AcDbEntity
8
1
62
256
6
ByLayer
370
-1
48
1
60
0
100
AcDbLine
10
41.546765
20
-12.498317
30
0
11
37.452438
21
-14.894098
31
0
39
0
210
0
220
0
230
1
0
LINE
5
EB
100
AcDbEntity
8
1
62
256
6
ByLayer
370
-1
48
1
60
0
100
AcDbLine
10
42.107366
20
-26.989634
30
0
11
44.566119
21
-26.989634
31
0
39
0
210
0
220
0
230
1
0
LINE
5
EC
100
AcDbEntity
8
1
62
256
6
ByLayer
370
-1
48
1
60
0
100
AcDbLine
10
36.934453
20
-10.59051
30
0
11
36.977849
21
-10.565118
31
0
39
0
210
0
220
0
230
1
0
LINE
5
ED
100
AcDbEntity
8
1
62
256
6
ByLayer
370
-1
48
1
60
0
100
AcDbLine
10
34.947225
20
-17.584218
30
0
11
36.884741
21
-16.450488
31
0
39
0
210
0
220
0
230
1
0
LINE
5
EE
100
AcDbEntity
8
1
62
256
6
ByLayer
370
-1
48
1
60
0
100
AcDbLine
10
33.521179
20
-17.892633
30
0
11
33.591567
21
-17.726025
31
0
39
0
210
0
220
0
230
1
0
LINE
5
EF
100
AcDbEntity
8
1
62
256
6
ByLayer
370
-1
48
1
60
0
100
AcDbLine
10
37.634554
20
-11.1321
30
0
11
36.677081
21
-11.037318
31
0
39
0
210
0
220
0
230
1
0
LINE
5
F0
100
AcDbEntity
8
1
62
256
6
ByLayer
370
-1
48
1
60
0
100
AcDbLine
10
46.00867
20
-22.094042
30
0
11
46.26705
21
-21.914296
31
0
39
0
210
0
220
0
230
1
0
LINE
5
F1
100
AcDbEntity
8
1
62
256
6
ByLayer
370
-1
48
1
60
0
100
AcDbLine
10
36.859618
20
-24.866766
30
0
11
36.493553
21
-25.281317
31
0
39
0
210
0
220
0
230
1
0
LINE
5
F2
100
AcDbEntity
8
1
62
256
6
ByLayer
370
-1
48
1
60
0
100
AcDbLine
10
34.291785
20
-25.788917
30
0
11
33.620026
21
-25.722418
31
0
39
0
210
0
220
0
230
1
0
LINE
5
F3
100
AcDbEntity
8
1
62
256
6
ByLayer
370
-1
48
1
60
0
100
AcDbLine
10
42.994224
20
-14.790013
30
0
11
39.306386
21
-14.65925
31
0
39
0
210
0
220
0
230
1
0
LINE
5
F4
100
AcDbEntity
8
1
62
256
6
ByLayer
370
-1
48
1
60
0
100
AcDbLine
10
39.623335
20
-26.997923
30
0
11
38.790366
21
-26.000497
31
0
39
0
210
0
220
0
230
1
0
LINE
5
F5
100
AcDbEntity
8
1
62
256
6
ByLayer
370
-1
48
1
60
0
100
AcDbLine
10
34.728648
20
-20.934815
30
0
11
34.128231
21
-20.759866
31
0
39
0
210
0
220
0
230
1
0
LINE
5
F6
100
AcDbEntity
8
1
62
256
6
ByLayer
370
-1
48
1
60
0
100
AcDbLine
10
35.032573
20
-22.939855
30
0
11
33.990058
21
-20.937806
31
0
39
0
210
0
220
0
230
1
0
LINE
5
F7
100
AcDbEntity
8
1
62
256
6
ByLayer
370
-1
48
1
60
0
100
AcDbLine
10
33.990058
20
-20.937806
30
0
11
32.641505
21
-19.667629
31
0
39
0
210
0
220
0
230
1
0
LINE
5
F8
100
AcDbEntity
8
1
62
256
6
ByLayer
370
-1
48
1
60
0
100
AcDbLine
10
39.985932
20
-26.996882
30
0
11
40.046444
21
-26.995878
31
0
39
0
210
0
220
0
230
1
0
LINE
5
F9
100
AcDbEntity
8
1
62
256
6
ByLayer
370
-1
48
1
60
0
100
AcDbLine
10
43.369152
20
-18.690487
30
0
11
43.820168
21
-18.249583
31
0
39
0
210
0
220
0
230
1
0
LINE
5
FA
100
AcDbEntity
8
1
62
256
6
ByLayer
370
-1
48
1
60
0
100
AcDbLine
10
44.355106
20
-17.056027
30
0
11
44.057988
21
-18.391166
31
0
39
0
210
0
220
0
230
1
0
LINE
5
FB
100
AcDbEntity
8
1
62
256
6
ByLayer
370
-1
48
1
60
0
100
AcDbLine
10
34.551941
20
-26.447599
30
0
11
35.482567
21
-26.994061
31
0
39
0
210
0
220
0
230
1
0
LINE
5
FC
100
AcDbEntity
8
1
62
256
6
ByLayer
370
-1
48
1
60
0
100
AcDbLine
10
43.24832
20
-15.417264
30
0
11
39.338966
21
-15.278646
31
0
39
0
210
0
220
0
230
1
0
LINE
5
FD
100
AcDbEntity
8
1
62
256
6
ByLayer
370
-1
48
1
60
0
100
AcDbLine
10
39.446718
20
-15.802446
30
0
11
41.678465
21
-15.88158
31
0
39
0
210
0
220
0
230
1
0
LINE
5
FE
100
AcDbEntity
8
1
62
256
6
ByLayer
370
-1
48
1
60
0
100
AcDbLine
10
42.334612
20
-18.122662
30
0
11
44.004201
21
-16.490505
31
0
39
0
210
0
220
0
230
1
0
LINE
5
FF
100
AcDbEntity
8
1
62
256
6
ByLayer
370
-1
48
1
60
0
100
AcDbLine
10
36.477694
20
-13.735821
30
0
11
35.543805
21
-14.282283
31
0
39
0
210
0
220
0
230
1
0
LINE
5
100
100
AcDbEntity
8
1
62
256
6
ByLayer
370
-1
48
1
60
0
100
AcDbLine
10
31.829221
20
-26.792706
30
0
11
33.777763
21
-25.628145
31
0
39
0
210
0
220
0
230
1
0
LINE
5
101
100
AcDbEntity
8
1
62
256
6
ByLayer
370
-1
48
1
60
0
100
AcDbLine
10
44.789716
20
-26.856781
30
0
11
44.804019
21
-22.065219
31
0
39
0
210
0
220
0
230
1
0
LINE
5
102
100
AcDbEntity
8
1
62
256
6
ByLayer
370
-1
48
1
60
0
100
AcDbLine
10
31.284707
20
-26.766373
30
0
11
30.319366
21
-26.670811
31
0
39
0
210
0
220
0
230
1
0
LINE
5
103
100
AcDbEntity
8
1
62
256
6
ByLayer
370
-1
48
1
60
0
100
AcDbLine
10
37.422763
20
-13.684288
30
0
11
36.530986
21
-13.596008
31
0
39
0
210
0
220
0
230
1
0
LINE
5
104
100
AcDbEntity
8
1
62
256
6
ByLayer
370
-1
48
1
60
0
100
AcDbLine
10
39.035974
20
-25.85937
30
0
11
39.985932
21
-26.996882
31
0
39
0
210
0
220
0
230
1
0
LINE
5
105
100
AcDbEntity
8
1
62
256
6
ByLayer
370
-1
48
1
60
0
100
AcDbLine
10
34.141802
20
-20.697684
30
0
11
34.742219
21
-20.872633
31
0
39
0
210
0
220
0
230
1
0
LINE
5
106
100
AcDbEntity
8
1
62
256
6
ByLayer
370
-1
48
1
60
0
100
AcDbLine
10
40.046444
20
-26.995878
30
0
11
39.56231
21
-25.000201
31
0
39
0
210
0
220
0
230
1
0
LINE
5
107
100
AcDbEntity
8
1
62
256
6
ByLayer
370
-1
48
1
60
0
100
AcDbLine
10
37.634554
20
-11.1321
30
0
11
37.550282
21
-13.469851
31
0
39
0
210
0
220
0
230
1
0
LINE
5
108
100
AcDbEntity
8
1
62
256
6
ByLayer
370
-1
48
1
60
0
100
AcDbLine
10
34.877357
20
-20.059171
30
0
11
32.830756
21
-19.462834
31
0
39
0
210
0
220
0
230
1
0
LINE
5
109
100
AcDbEntity
8
1
62
256
6
ByLayer
370
-1
48
1
60
0
100
AcDbLine
10
43.868065
20
-18.296216
30
0
11
43.417049
21
-18.737121
31
0
39
0
210
0
220
0
230
1
0
LINE
5
10A
100
AcDbEntity
8
1
62
256
6
ByLayer
370
-1
48
1
60
0
100
AcDbLine
10
45.100404
20
-18.502172
30
0
11
45.094019
21
-20.641232
31
0
39
0
210
0
220
0
230
1
0
LINE
5
10B
100
AcDbEntity
8
1
62
256
6
ByLayer
370
-1
48
1
60
0
100
AcDbLine
10
33.521179
20
-17.892633
30
0
11
34.947225
21
-17.584218
31
0
39
0
210
0
220
0
230
1
0
LINE
5
10C
100
AcDbEntity
8
1
62
256
6
ByLayer
370
-1
48
1
60
0
100
AcDbLine
10
37.94319
20
-10.660679
30
0
11
36.977849
21
-10.565118
31
0
39
0
210
0
220
0
230
1
0
LINE
5
10D
100
AcDbEntity
8
1
62
256
6
ByLayer
370
-1
48
1
60
0
100
AcDbLine
10
38.886574
20
-25.243516
30
0
11
39.035974
21
-25.85937
31
0
39
0
210
0
220
0
230
1
0
LINE
5
10E
100
AcDbEntity
8
1
62
256
6
ByLayer
370
-1
48
1
60
0
100
AcDbLine
10
41.682809
20
-15.964166
30
0
11
39.451062
21
-15.885032
31
0
39
0
210
0
220
0
230
1
0
LINE
5
10F
100
AcDbEntity
8
1
62
256
6
ByLayer
370
-1
48
1
60
0
100
AcDbLine
10
41.321533
20
-16.527064
30
0
11
41.772549
21
-16.08616
31
0
39
0
210
0
220
0
230
1
0
LINE
5
110
100
AcDbEntity
8
1
62
256
6
ByLayer
370
-1
48
1
60
0
100
AcDbLine
10
37.14878
20
-13.844608
30
0
11
36.838413
21
-13.813884
31
0
39
0
210
0
220
0
230
1
0
LINE
5
111
100
AcDbEntity
8
1
62
256
6
ByLayer
370
-1
48
1
60
0
100
AcDbLine
10
42.994224
20
-14.790013
30
0
11
41.771301
21
-12.628142
31
0
39
0
210
0
220
0
230
1
0
LINE
5
112
100
AcDbEntity
8
1
62
256
6
ByLayer
370
-1
48
1
60
0
100
AcDbLine
10
30.910988
20
-22.303939
30
0
11
30.911926
21
-22.566616
31
0
39
0
210
0
220
0
230
1
0
LINE
5
113
100
AcDbEntity
8
1
62
256
6
ByLayer
370
-1
48
1
60
0
100
AcDbLine
10
35.482567
20
-26.994061
30
0
11
37.892849
21
-26.990294
31
0
39
0
210
0
220
0
230
1
0
LINE
5
114
100
AcDbEntity
8
1
62
256
6
ByLayer
370
-1
48
1
60
0
100
AcDbLine
10
42.066176
20
-25.113826
30
0
11
43.255408
21
-23.19091
31
0
39
0
210
0
220
0
230
1
0
LINE
5
115
100
AcDbEntity
8
1
62
256
6
ByLayer
370
-1
48
1
60
0
100
AcDbLine
10
41.117875
20
-26.994672
30
0
11
40.229979
21
-26.994672
31
0
39
0
210
0
220
0
230
1
0
LINE
5
116
100
AcDbEntity
8
1
62
256
6
ByLayer
370
-1
48
1
60
0
100
AcDbLine
10
41.41972
20
-12.423912
30
0
11
38.44447
21
-10.658181
31
0
39
0
210
0
220
0
230
1
0
LINE
5
117
100
AcDbEntity
8
1
62
256
6
ByLayer
370
-1
48
1
60
0
100
AcDbLine
10
39.0187
20
-22.057062
30
0
11
38.796287
21
-22.035045
31
0
39
0
210
0
220
0
230
1
0
LINE
5
118
100
AcDbEntity
8
1
62
256
6
ByLayer
370
-1
48
1
60
0
100
AcDbLine
10
38.362882
20
-22.270855
30
0
11
38.618473
21
-22.296157
31
0
39
0
210
0
220
0
230
1
0
LINE
5
119
100
AcDbEntity
8
1
62
256
6
ByLayer
370
-1
48
1
60
0
100
AcDbLine
10
39.097129
20
-22.035045
30
0
11
39.319541
21
-22.057062
31
0
39
0
210
0
220
0
230
1
0
LINE
5
11A
100
AcDbEntity
8
1
62
256
6
ByLayer
370
-1
48
1
60
0
100
AcDbLine
10
40.651731
20
-20.3094
30
0
11
40.908143
21
-20.334783
31
0
39
0
210
0
220
0
230
1
0
LINE
5
11B
100
AcDbEntity
8
1
62
256
6
ByLayer
370
-1
48
1
60
0
100
AcDbLine
10
40.084892
20
-19.299559
30
0
11
40.341304
21
-19.324942
31
0
39
0
210
0
220
0
230
1
0
LINE
5
11C
100
AcDbEntity
8
1
62
256
6
ByLayer
370
-1
48
1
60
0
100
AcDbLine
10
38.372692
20
-18.984175
30
0
11
38.628284
21
-19.009477
31
0
39
0
210
0
220
0
230
1
0
LINE
5
11D
100
AcDbEntity
8
1
62
256
6
ByLayer
370
-1
48
1
60
0
100
AcDbLine
10
38.80469
20
-19.219985
30
0
11
39.027103
21
-19.242002
31
0
39
0
210
0
220
0
230
1
0
LINE
5
11E
100
AcDbEntity
8
1
62
256
6
ByLayer
370
-1
48
1
60
0
100
AcDbLine
10
40.076964
20
-21.955471
30
0
11
40.333376
21
-21.980854
31
0
39
0
210
0
220
0
230
1
0
LINE
5
11F
100
AcDbEntity
8
1
62
256
6
ByLayer
370
-1
48
1
60
0
100
AcDbLine
10
40.649832
20
-20.94563
30
0
11
40.906244
21
-20.971013
31
0
39
0
210
0
220
0
230
1
0
LINE
5
120
100
AcDbEntity
8
1
62
256
6
ByLayer
370
-1
48
1
60
0
100
AcDbLine
10
42.595008
20
-14.084361
30
0
11
43.128605
21
-14.084361
31
0
39
0
210
0
220
0
230
1
0
LINE
5
121
100
AcDbEntity
8
1
62
256
6
ByLayer
370
-1
48
1
60
0
100
AcDbLine
10
44.436714
20
-15.537457
30
0
11
43.472285
21
-15.537457
31
0
39
0
210
0
220
0
230
1
0
LINE
5
122
100
AcDbEntity
8
1
62
256
6
ByLayer
370
-1
48
1
60
0
100
AcDbLine
10
35.701838
20
-10.884287
30
0
11
35.62313
21
-11.021981
31
0
39
0
210
0
220
0
230
1
0
LINE
5
123
100
AcDbEntity
8
1
62
256
6
ByLayer
370
-1
48
1
60
0
100
AcDbLine
10
40.211822
20
-11.707063
30
0
11
40.21272
21
-11.355351
31
0
39
0
210
0
220
0
230
1
0
LINE
5
124
100
AcDbEntity
8
1
62
256
6
ByLayer
370
-1
48
1
60
0
100
AcDbLine
10
36.38928
20
-10.284912
30
0
11
38.511245
21
-10.284912
31
0
39
0
210
0
220
0
230
1
0
LINE
5
125
100
AcDbEntity
8
1
62
256
6
ByLayer
370
-1
48
1
60
0
100
AcDbLine
10
44.43736
20
-15.284467
30
0
11
44.438712
21
-14.754992
31
0
39
0
210
0
220
0
230
1
0
LINE
5
126
100
AcDbEntity
8
1
62
256
6
ByLayer
370
-1
48
1
60
0
100
AcDbLine
10
36.967408
20
-10.365767
30
0
11
35.999284
21
-12.061028
31
0
39
0
210
0
220
0
230
1
0
LINE
5
127
100
AcDbEntity
8
1
62
256
6
ByLayer
370
-1
48
1
60
0
100
AcDbLine
10
44.540602
20
-16.307045
30
0
11
44.540313
21
-16.420525
31
0
39
0
210
0
220
0
230
1
0
LINE
5
128
100
AcDbEntity
8
1
62
256
6
ByLayer
370
-1
48
1
60
0
100
AcDbLine
10
44.507936
20
-15.861865
30
0
11
43.648434
21
-15.861865
31
0
39
0
210
0
220
0
230
1
0
LINE
5
129
100
AcDbEntity
8
1
62
256
6
ByLayer
370
-1
48
1
60
0
100
AcDbLine
10
43.84936
20
-14.155055
30
0
11
42.634999
21
-14.155055
31
0
39
0
210
0
220
0
230
1
0
LINE
5
12A
100
AcDbEntity
8
1
62
256
6
ByLayer
370
-1
48
1
60
0
100
AcDbLine
10
39.230465
20
-10.355456
30
0
11
37.108499
21
-10.355456
31
0
39
0
210
0
220
0
230
1
0
LINE
5
12B
100
AcDbEntity
8
1
62
256
6
ByLayer
370
-1
48
1
60
0
100
AcDbLine
10
44.43736
20
-15.284467
30
0
11
43.302505
21
-15.284467
31
0
39
0
210
0
220
0
230
1
0
LINE
5
12C
100
AcDbEntity
8
1
62
256
6
ByLayer
370
-1
48
1
60
0
100
AcDbLine
10
44.540313
20
-16.420525
30
0
11
43.964526
21
-16.420525
31
0
39
0
210
0
220
0
230
1
0
LINE
5
12D
100
AcDbEntity
8
1
62
256
6
ByLayer
370
-1
48
1
60
0
100
AcDbLine
10
44.43254
20
-17.17219
30
0
11
44.404891
21
-17.17219
31
0
39
0
210
0
220
0
230
1
0
LINE
5
12E
100
AcDbEntity
8
1
62
256
6
ByLayer
370
-1
48
1
60
0
100
AcDbLine
10
43.84936
20
-14.155055
30
0
11
43.128605
21
-14.084361
31
0
39
0
210
0
220
0
230
1
0
LINE
5
12F
100
AcDbEntity
8
1
62
256
6
ByLayer
370
-1
48
1
60
0
100
AcDbLine
10
44.505387
20
-16.859982
30
0
11
44.247502
21
-16.859982
31
0
39
0
210
0
220
0
230
1
0
LINE
5
130
100
AcDbEntity
8
1
62
256
6
ByLayer
370
-1
48
1
60
0
100
AcDbLine
10
44.540602
20
-16.307045
30
0
11
43.900289
21
-16.307045
31
0
39
0
210
0
220
0
230
1
0
LINE
5
131
100
AcDbEntity
8
1
62
256
6
ByLayer
370
-1
48
1
60
0
100
AcDbLine
10
35.90973
20
-10.527519
30
0
11
36.002557
21
-10.365127
31
0
39
0
210
0
220
0
230
1
0
LINE
5
132
100
AcDbEntity
8
1
62
256
6
ByLayer
370
-1
48
1
60
0
100
AcDbLine
10
37.108499
20
-10.355456
30
0
11
36.38928
21
-10.284912
31
0
39
0
210
0
220
0
230
1
0
LINE
5
133
100
AcDbEntity
8
1
62
256
6
ByLayer
370
-1
48
1
60
0
100
AcDbLine
10
39.230465
20
-10.355456
30
0
11
38.511245
21
-10.284912
31
0
39
0
210
0
220
0
230
1
0
LINE
5
134
100
AcDbEntity
8
1
62
256
6
ByLayer
370
-1
48
1
60
0
100
AcDbLine
10
29.478186
20
-24.353981
30
0
11
30.058065
21
-24.353981
31
0
39
0
210
0
220
0
230
1
0
LINE
5
135
100
AcDbEntity
8
1
62
256
6
ByLayer
370
-1
48
1
60
0
100
AcDbLine
10
28.625523
20
-26.756961
30
0
11
28.625534
21
-26.775418
31
0
39
0
210
0
220
0
230
1
0
LINE
5
136
100
AcDbEntity
8
1
62
256
6
ByLayer
370
-1
48
1
60
0
100
AcDbLine
10
28.608439
20
-26.757955
30
0
11
28.608457
21
-26.787805
31
0
39
0
210
0
220
0
230
1
0
LINE
5
137
100
AcDbEntity
8
1
62
256
6
ByLayer
370
-1
48
1
60
0
100
AcDbLine
10
30.253148
20
-26.723422
30
0
11
30.253201
21
-26.812686
31
0
39
0
210
0
220
0
230
1
0
LINE
5
138
100
AcDbEntity
8
1
62
256
6
ByLayer
370
-1
48
1
60
0
100
AcDbLine
10
18.687318
20
-4.143145
30
0
11
19.114369
21
-2.549368
31
0
39
0
210
0
220
0
230
1
0
LINE
5
139
100
AcDbEntity
8
1
62
256
6
ByLayer
370
-1
48
1
60
0
100
AcDbLine
10
19.114369
20
-2.549368
30
0
11
19.541421
21
-0.95559
31
0
39
0
210
0
220
0
230
1
0
LINE
5
13A
100
AcDbEntity
8
1
62
256
6
ByLayer
370
-1
48
1
60
0
100
AcDbLine
10
16.32111
20
-3.069986
30
0
11
17.065429
21
-0.29215
31
0
39
0
210
0
220
0
230
1
0
LINE
5
13B
100
AcDbEntity
8
1
62
256
6
ByLayer
370
-1
48
1
60
0
100
AcDbLine
10
16.338999
20
-0.219518
30
0
11
16.306215
21
-0.341872
31
0
39
0
210
0
220
0
230
1
0
LINE
5
13C
100
AcDbEntity
8
1
62
256
6
ByLayer
370
-1
48
1
60
0
100
AcDbLine
10
16.647171
20
-0.404222
30
0
11
16.306245
21
-1.676574
31
0
39
0
210
0
220
0
230
1
0
LINE
5
13D
100
AcDbEntity
8
1
62
256
6
ByLayer
370
-1
48
1
60
0
100
AcDbLine
10
18.87103
20
-4.037079
30
0
11
18.87103
21
-4.037079
31
0
39
0
210
0
220
0
230
1
0
LINE
5
13E
100
AcDbEntity
8
2
62
256
6
ByLayer
370
-1
48
1
60
1
100
AcDbLine
10
0
20
0
30
0
11
0
21
-0.001
31
0
39
0
210
0
220
0
230
1
0
MTEXT
5
2A7
100
AcDbEntity
8
SK6
62
256
6
ByLayer
370
-1
48
1
60
0
100
AcDbMText
10
-11.125
20
31.81623
30
0
210
0
220
0
230
1
1
\W00.741;\fsimplex.shx,bigfont.shx;C4-266LFG-27050-22 
40
3.5
41
0
44
1.084337
50
0
71
7
72
5
7
DEFAULT
0
DIMENSION
5
2DA
100
AcDbEntity
8
2
62
256
6
ByLayer
370
-3
48
1
60
0
100
AcDbDimension
2
DimnDraft3D1
10
0
20
-51.25
30
0
11
22.371053
21
-51.25
31
0
70
32
71
5
72
1
41
1
210
0
220
0
230
1
3
Standard
100
AcDbAlignedDimension
13
50
23
-28.5
33
0
14
0
24
-1.501
34
0
50
0
100
AcDbRotatedDimension
1001
ACAD
1000
DSTYLE
1002
{
1070
   279
1070
     0
1070
   172
1070
     1
1070
   173
1070
     1
1070
   340
1005
2A8
1070
   271
1070
     3
1070
   272
1070
     3
1070
    77
1070
     1
1070
    73
1070
     0
1070
   171
1070
     4
1070
   274
1070
     4
1070
   177
1070
     2
1070
   176
1070
     2
1070
   178
1070
     7
1070
    78
1070
     8
1070
    41
1041
3.0
1070
   147
1041
2.25
1070
    42
1041
1.5
1070
    44
1041
3.0
1070
   140
1041
4.5
1070
   343
1005
2DB
1070
   344
1005
2DB
1002
}
0
DIMENSION
5
2F0
100
AcDbEntity
8
SK2
62
256
6
ByLayer
370
-3
48
1
60
0
100
AcDbDimension
2
DimnDraft3D2
10
-33.75
20
-20
30
0
11
-33.75
21
-5.021053
31
0
70
32
71
5
72
1
41
1
210
0
220
0
230
1
3
Standard
100
AcDbAlignedDimension
13
-1.5
23
20
33
0
14
-1.5
24
-20
34
0
50
90
100
AcDbRotatedDimension
1001
ACAD
1000
DSTYLE
1002
{
1070
    74
1070
     0
1070
   279
1070
     0
1070
   172
1070
     1
1070
   173
1070
     1
1070
   340
1005
2A8
1070
   271
1070
     3
1070
   272
1070
     3
1070
    77
1070
     1
1070
    73
1070
     0
1070
   171
1070
     4
1070
   274
1070
     4
1070
   177
1070
     2
1070
   176
1070
     2
1070
   178
1070
     7
1070
    78
1070
     8
1070
    41
1041
3.0
1070
   147
1041
2.25
1070
    42
1041
1.5
1070
    44
1041
3.0
1070
   140
1041
4.5
1070
   343
1005
2DB
1070
   344
1005
2DB
1002
}
0
DIMENSION
5
2FE
100
AcDbEntity
8
2
62
256
6
ByLayer
370
-3
48
1
60
0
100
AcDbDimension
2
DimnDraft3D3
10
64.25
20
-27
30
0
11
64.25
21
-16.128947
31
0
70
32
71
5
72
1
41
1
210
0
220
0
230
1
3
Standard
100
AcDbAlignedDimension
13
56.5
23
0
33
0
14
51.5
24
-27
34
0
50
90
100
AcDbRotatedDimension
1001
ACAD
1000
DSTYLE
1002
{
1070
    74
1070
     0
1070
   279
1070
     0
1070
   172
1070
     1
1070
   173
1070
     1
1070
   340
1005
2A8
1070
   271
1070
     3
1070
   272
1070
     3
1070
    77
1070
     1
1070
    73
1070
     0
1070
   171
1070
     4
1070
   274
1070
     4
1070
   177
1070
     2
1070
   176
1070
     2
1070
   178
1070
     7
1070
    78
1070
     8
1070
    41
1041
3.0
1070
   147
1041
2.25
1070
    42
1041
1.5
1070
    44
1041
3.0
1070
   140
1041
4.5
1070
   343
1005
2DB
1070
   344
1005
2DB
1002
}
0
ENDSEC
0
SECTION
2
OBJECTS
0
DICTIONARY
5
32f
330
0
100
AcDbDictionary
280
0
281
1
3
ACAD_GROUP
350
330
3
ACAD_MLINESTYLE
350
331
0
DICTIONARY
5
330
330
0
100
AcDbDictionary
280
0
281
1
0
DICTIONARY
5
331
330
0
100
AcDbDictionary
280
0
281
1
3
Standard
350
18
0
MLINESTYLE
5
18
330
331
100
AcDbMlineStyle
2
Standard
70
0
3

62
256
51
90
52
90
71
2
49
-0.5
62
256
6
ByLayer
49
0.5
62
256
6
ByLayer
0
RASTERVARIABLES
5
31d
330

100
AcDbRasterVariables
90
0
70
1
71
1
72
1
0
ENDSEC
0
EOF
