0
SECTION
2
HEADER
9
$ACADVER
1
AC1015
9
$DWGCODEPAGE
3
ANSI_1252
9
$HANDSEED
5
1d1
9
$ANGBASE
50
0
9
$ANGDIR
70
0
9
$ATTMODE
70
1
9
$AUNITS
70
0
9
$AUPREC
70
0
9
$CECOLOR
62
256
9
$CELTSCALE
40
1
9
$CELTYPE
6
ByLayer
9
$CELWEIGHT
370
-1
9
$CLAYER
8
0
9
$CMLJUST
70
0
9
$CMLSCALE
40
1
9
$CMLSTYLE
2
Standard
9
$DIMSTYLE
2
Standard
9
$TEXTSIZE
40
0.2
9
$TEXTSTYLE
7
Standard
9
$LUNITS
70
2
9
$LUPREC
70
4
9
$EXTNAMES
290
1
9
$INSUNITS
70
4
9
$LTSCALE
40
1
9
$LWDISPLAY
290
0
9
$PDMODE
70
0
9
$PDSIZE
40
0
9
$PLINEGEN
70
0
0
ENDSEC
0
SECTION
2
CLASSES
0
CLASS
1
RASTERVARIABLES
2
AcDbRasterVariables
3
ISM
90
0
280
0
281
0
0
ENDSEC
0
SECTION
2
TABLES
0
TABLE
2
VPORT
5
1c7
100
AcDbSymbolTable
0
VPORT
5
1
100
AcDbSymbolTableRecord
100
AcDbViewportTableRecord
2
*Active
70
0
10
0
20
0
11
1
21
1
12
-1
22
1
13
0
23
0
14
0.5
24
0.5
15
10
25
10
16
0
26
0
36
1
17
0
27
0
37
0
0
ENDTAB
0
TABLE
2
LTYPE
5
1c8
100
AcDbSymbolTable
0
LTYPE
5
14
100
AcDbSymbolTableRecord
100
AcDbLinetypeTableRecord
70
0
2
ByBlock
3

72
65
73
0
40
0
0
LTYPE
5
15
100
AcDbSymbolTableRecord
100
AcDbLinetypeTableRecord
70
0
2
ByLayer
3

72
65
73
0
40
0
0
LTYPE
5
16
100
AcDbSymbolTableRecord
100
AcDbLinetypeTableRecord
70
0
2
CONTINUOUS
3
Solid line
72
65
73
0
40
0
0
LTYPE
5
3B
100
AcDbSymbolTableRecord
100
AcDbLinetypeTableRecord
70
0
2
DASHED
3
__ __ __ __ __ __ __ __ __
72
65
73
2
40
25.72
49
12.86
74
0
49
-12.86
74
0
0
LTYPE
5
3C
100
AcDbSymbolTableRecord
100
AcDbLinetypeTableRecord
70
0
2
HIDDEN
3
_ _ _ _ _ _ _ _ _ _ _ _ _ _ _
72
65
73
2
40
0.5
49
0.25
74
0
49
-0.25
74
0
0
LTYPE
5
3D
100
AcDbSymbolTableRecord
100
AcDbLinetypeTableRecord
70
0
2
PHANTOM
3
____ _ _ ____ _ _ _____ _ _ ____
72
65
73
6
40
50.5
49
18
74
0
49
-6.5
74
0
49
6.5
74
0
49
-6.5
74
0
49
6.5
74
0
49
-6.5
74
0
0
LTYPE
5
3E
100
AcDbSymbolTableRecord
100
AcDbLinetypeTableRecord
70
0
2
CENTER
3
____ _ ____ _ ____ _ ____
72
65
73
4
40
47.5
49
22
74
0
49
-8.5
74
0
49
8.5
74
0
49
-8.5
74
0
0
LTYPE
5
3F
100
AcDbSymbolTableRecord
100
AcDbLinetypeTableRecord
70
0
2
DOT
3
.........................
72
65
73
2
40
10
49
0
74
0
49
-10
74
0
0
LTYPE
5
40
100
AcDbSymbolTableRecord
100
AcDbLinetypeTableRecord
70
0
2
DASHDOT
3
_._._._._._._._._._._._._._._._.
72
65
73
4
40
70
49
31
74
0
49
-13
74
0
49
13
74
0
49
-13
74
0
0
ENDTAB
0
TABLE
2
LAYER
5
1c9
100
AcDbSymbolTable
0
LAYER
5
10
100
AcDbSymbolTableRecord
100
AcDbLayerTableRecord
2
0
70
0
62
7
6
CONTINUOUS
290
1
370
-3
390
0
0
LAYER
5
42
100
AcDbSymbolTableRecord
100
AcDbLayerTableRecord
2
80
70
0
62
-6
6
CONTINUOUS
290
1
370
-3
390
0
0
LAYER
5
44
100
AcDbSymbolTableRecord
100
AcDbLayerTableRecord
2
81
70
0
62
-3
6
CONTINUOUS
290
1
370
-3
390
0
0
LAYER
5
46
100
AcDbSymbolTableRecord
100
AcDbLayerTableRecord
2
1
70
0
62
4
6
CONTINUOUS
290
1
370
-3
390
0
0
LAYER
5
48
100
AcDbSymbolTableRecord
100
AcDbLayerTableRecord
2
2
70
0
62
7
6
CONTINUOUS
290
1
370
-3
390
0
0
LAYER
5
5D
100
AcDbSymbolTableRecord
100
AcDbLayerTableRecord
2
4
70
0
62
-2
6
CENTER
290
1
370
-3
390
0
0
LAYER
5
1b3
100
AcDbSymbolTableRecord
100
AcDbLayerTableRecord
2
SK4
70
0
62
2
6
CENTER
290
1
370
-3
390
0
0
LAYER
5
1b4
100
AcDbSymbolTableRecord
100
AcDbLayerTableRecord
2
SK1
70
0
62
4
6
CONTINUOUS
290
1
370
-3
390
0
0
LAYER
5
1b5
100
AcDbSymbolTableRecord
100
AcDbLayerTableRecord
2
SK6
70
0
62
5
6
CONTINUOUS
290
1
370
-3
390
0
0
LAYER
5
1b6
100
AcDbSymbolTableRecord
100
AcDbLayerTableRecord
2
SK2
70
0
62
7
6
CONTINUOUS
290
1
370
-3
390
0
0
ENDTAB
0
TABLE
2
STYLE
5
1ca
100
AcDbSymbolTable
0
STYLE
5
11
100
AcDbSymbolTableRecord
100
AcDbTextStyleTableRecord
2
Standard
3
txt
70
0
71
0
40
0
41
1
42
0
50
0
0
STYLE
5
115
100
AcDbSymbolTableRecord
100
AcDbTextStyleTableRecord
2
DEFAULT
3
simplex.shx
70
0
71
0
40
0
41
1
42
0
50
0
0
STYLE
5
138
100
AcDbSymbolTableRecord
100
AcDbTextStyleTableRecord
2
DWGDirectTextStyle
3
SIMPLEX
70
0
71
0
40
0
41
1
42
0
50
0
0
ENDTAB
0
TABLE
2
DIMSTYLE
5
1cb
100
AcDbSymbolTable
100
AcDbDimStyleTable
0
DIMSTYLE
105
27
100
AcDbSymbolTableRecord
100
AcDbDimStyleTableRecord
2
Standard
70
0
3
<>
41
0.18
42
0.0625
44
0.18
140
0.18
147
0.09
73
0
74
0
77
1
271
2
275
0
278
52
280
0
340
11
0
ENDTAB
0
TABLE
2
VIEW
5
1cc
100
AcDbSymbolTable
0
ENDTAB
0
TABLE
2
UCS
5
1cd
100
AcDbSymbolTable
0
ENDTAB
0
TABLE
2
APPID
5
1ce
100
AcDbSymbolTable
0
APPID
5
12
100
AcDbSymbolTableRecord
100
AcDbRegAppTableRecord
2
ACAD
70
0
0
ENDTAB
0
TABLE
2
BLOCK_RECORD
5
1cf
100
AcDbSymbolTable
0
BLOCK_RECORD
5
1F
100
AcDbSymbolTableRecord
100
AcDbBlockTableRecord
2
*Model_Space
340
0
70
0
0
BLOCK_RECORD
5
1B
100
AcDbSymbolTableRecord
100
AcDbBlockTableRecord
2
*Paper_Space
340
0
70
0
0
BLOCK_RECORD
5
23
100
AcDbSymbolTableRecord
100
AcDbBlockTableRecord
2
*Paper_Space0
340
0
70
0
0
BLOCK_RECORD
5
13A
100
AcDbSymbolTableRecord
100
AcDbBlockTableRecord
2
DimnDraft3D1
340
0
70
0
0
BLOCK_RECORD
5
149
100
AcDbSymbolTableRecord
100
AcDbBlockTableRecord
2
_CLOSED
340
0
70
0
0
BLOCK_RECORD
5
150
100
AcDbSymbolTableRecord
100
AcDbBlockTableRecord
2
DimnDraft3D2
340
0
70
0
0
BLOCK_RECORD
5
15C
100
AcDbSymbolTableRecord
100
AcDbBlockTableRecord
2
DimnDraft3D3
340
0
70
0
0
BLOCK_RECORD
5
16A
100
AcDbSymbolTableRecord
100
AcDbBlockTableRecord
2
DimnDraft3D4
340
0
70
0
0
BLOCK_RECORD
5
178
100
AcDbSymbolTableRecord
100
AcDbBlockTableRecord
2
DimnDraft3D5
340
0
70
0
0
BLOCK_RECORD
5
186
100
AcDbSymbolTableRecord
100
AcDbBlockTableRecord
2
DimnDraft3D6
340
0
70
0
0
ENDTAB
0
ENDSEC
0
SECTION
2
BLOCKS
0
BLOCK
5
20
100
AcDbEntity
8
0
100
AcDbBlockBegin
2
*Model_Space
70
0
10
0
20
0
30
0
3
*Model_Space
0
ENDBLK
5
21
100
AcDbEntity
8
0
100
AcDbBlockEnd
0
BLOCK
5
1C
100
AcDbEntity
8
0
100
AcDbBlockBegin
2
*Paper_Space
70
0
10
0
20
0
30
0
3
*Paper_Space
0
ENDBLK
5
1D
100
AcDbEntity
8
0
100
AcDbBlockEnd
0
BLOCK
5
24
100
AcDbEntity
8
0
100
AcDbBlockBegin
2
*Paper_Space0
70
0
10
0
20
0
30
0
3
*Paper_Space0
0
ENDBLK
5
25
100
AcDbEntity
8
0
100
AcDbBlockEnd
0
BLOCK
5
146
100
AcDbEntity
8
0
100
AcDbBlockBegin
2
DimnDraft3D1
70
0
10
0
20
0
30
0
3
DimnDraft3D1
0
MTEXT
5
13B
100
AcDbEntity
8
SK2
62
256
6
ByLayer
370
-1
48
1
60
0
100
AcDbMText
10
-32.875
20
-3.659211
30
0
210
0
220
0
230
1
1
\W01.000;\fsimplex.shx,bigfont.shx;%%c32 
40
4.5
41
0
44
1.084337
50
90
71
7
72
5
7
DEFAULT
0
LINE
5
13D
100
AcDbEntity
8
SK2
62
256
6
ByLayer
370
-1
48
1
60
0
100
AcDbLine
10
-2
20
-16
30
0
11
-33.75
21
-16
31
0
39
0
210
0
220
0
230
1
0
LINE
5
13E
100
AcDbEntity
8
SK2
62
256
6
ByLayer
370
-1
48
1
60
0
100
AcDbLine
10
-2
20
16
30
0
11
-33.75
21
16
31
0
39
0
210
0
220
0
230
1
0
LINE
5
13F
100
AcDbEntity
8
SK2
62
256
6
ByLayer
370
-1
48
1
60
0
100
AcDbLine
10
-31.75
20
-16
30
0
11
-31.75
21
16
31
0
39
0
210
0
220
0
230
1
0
LINE
5
140
100
AcDbEntity
8
SK2
62
256
6
ByLayer
370
-1
48
1
60
0
100
AcDbLine
10
-31.75
20
-16
30
0
11
-32.167997
21
-12.825002
31
0
39
0
210
0
220
0
230
1
0
LINE
5
141
100
AcDbEntity
8
SK2
62
256
6
ByLayer
370
-1
48
1
60
0
100
AcDbLine
10
-31.75
20
-16
30
0
11
-31.332003
21
-12.824998
31
0
39
0
210
0
220
0
230
1
0
LINE
5
142
100
AcDbEntity
8
SK2
62
256
6
ByLayer
370
-1
48
1
60
0
100
AcDbLine
10
-32.167997
20
-12.825002
30
0
11
-31.332003
21
-12.824998
31
0
39
0
210
0
220
0
230
1
0
LINE
5
143
100
AcDbEntity
8
SK2
62
256
6
ByLayer
370
-1
48
1
60
0
100
AcDbLine
10
-31.75
20
16
30
0
11
-31.332003
21
12.825002
31
0
39
0
210
0
220
0
230
1
0
LINE
5
144
100
AcDbEntity
8
SK2
62
256
6
ByLayer
370
-1
48
1
60
0
100
AcDbLine
10
-31.75
20
16
30
0
11
-32.167997
21
12.824998
31
0
39
0
210
0
220
0
230
1
0
LINE
5
145
100
AcDbEntity
8
SK2
62
256
6
ByLayer
370
-1
48
1
60
0
100
AcDbLine
10
-31.332003
20
12.825002
30
0
11
-32.167997
21
12.824998
31
0
39
0
210
0
220
0
230
1
0
ENDBLK
5
147
100
AcDbEntity
8
0
100
AcDbBlockEnd
0
BLOCK
5
14A
100
AcDbEntity
8
0
100
AcDbBlockBegin
2
_CLOSED
70
0
10
0
20
0
30
0
3
_CLOSED
0
LINE
5
14C
100
AcDbEntity
8
0
62
256
6
ByLayer
370
-2
48
1
60
0
100
AcDbLine
10
-1
20
0.166667
30
0
11
0
21
0
31
0
39
0
210
0
220
0
230
1
0
LINE
5
14D
100
AcDbEntity
8
0
62
256
6
ByLayer
370
-2
48
1
60
0
100
AcDbLine
10
0
20
0
30
0
11
-1
21
-0.166667
31
0
39
0
210
0
220
0
230
1
0
LINE
5
14E
100
AcDbEntity
8
0
62
256
6
ByLayer
370
-2
48
1
60
0
100
AcDbLine
10
-1
20
0.166667
30
0
11
-1
21
-0.166667
31
0
39
0
210
0
220
0
230
1
0
LINE
5
14F
100
AcDbEntity
8
0
62
256
6
ByLayer
370
-2
48
1
60
0
100
AcDbLine
10
0
20
0
30
0
11
-1
21
0
31
0
39
0
210
0
220
0
230
1
0
ENDBLK
5
14B
100
AcDbEntity
8
0
100
AcDbBlockEnd
0
BLOCK
5
159
100
AcDbEntity
8
0
100
AcDbBlockBegin
2
DimnDraft3D2
70
0
10
0
20
0
30
0
3
DimnDraft3D2
0
MTEXT
5
151
100
AcDbEntity
8
2
62
256
6
ByLayer
370
-1
48
1
60
0
100
AcDbMText
10
30.725
20
-5.630921
30
0
210
0
220
0
230
1
1
\W01.000;\fsimplex.shx,bigfont.shx;%%c16.0 
40
4.5
41
0
44
1.084337
50
90
71
7
72
5
7
DEFAULT
0
LINE
5
152
100
AcDbEntity
8
2
62
256
6
ByLayer
370
-1
48
1
60
0
100
AcDbLine
10
31.85
20
-8
30
0
11
31.85
21
8
31
0
39
0
210
0
220
0
230
1
0
LINE
5
153
100
AcDbEntity
8
2
62
256
6
ByLayer
370
-1
48
1
60
0
100
AcDbLine
10
31.85
20
-8
30
0
11
31.432003
21
-4.825002
31
0
39
0
210
0
220
0
230
1
0
LINE
5
154
100
AcDbEntity
8
2
62
256
6
ByLayer
370
-1
48
1
60
0
100
AcDbLine
10
31.85
20
-8
30
0
11
32.267997
21
-4.824998
31
0
39
0
210
0
220
0
230
1
0
LINE
5
155
100
AcDbEntity
8
2
62
256
6
ByLayer
370
-1
48
1
60
0
100
AcDbLine
10
31.432003
20
-4.825002
30
0
11
32.267997
21
-4.824998
31
0
39
0
210
0
220
0
230
1
0
LINE
5
156
100
AcDbEntity
8
2
62
256
6
ByLayer
370
-1
48
1
60
0
100
AcDbLine
10
31.85
20
8
30
0
11
32.267997
21
4.825002
31
0
39
0
210
0
220
0
230
1
0
LINE
5
157
100
AcDbEntity
8
2
62
256
6
ByLayer
370
-1
48
1
60
0
100
AcDbLine
10
31.85
20
8
30
0
11
31.432003
21
4.824998
31
0
39
0
210
0
220
0
230
1
0
LINE
5
158
100
AcDbEntity
8
2
62
256
6
ByLayer
370
-1
48
1
60
0
100
AcDbLine
10
32.267997
20
4.825002
30
0
11
31.432003
21
4.824998
31
0
39
0
210
0
220
0
230
1
0
ENDBLK
5
15A
100
AcDbEntity
8
0
100
AcDbBlockEnd
0
BLOCK
5
167
100
AcDbEntity
8
0
100
AcDbBlockBegin
2
DimnDraft3D3
70
0
10
0
20
0
30
0
3
DimnDraft3D3
0
MTEXT
5
15D
100
AcDbEntity
8
2
62
256
6
ByLayer
370
-1
48
1
60
0
100
AcDbMText
10
76.125
20
22.28
30
0
210
0
220
0
230
1
1
\W01.000;\fsimplex.shx,bigfont.shx;11.0 
40
4.5
41
0
44
1.084337
50
90
71
7
72
5
7
DEFAULT
0
LINE
5
15E
100
AcDbEntity
8
2
62
256
6
ByLayer
370
-1
48
1
60
0
100
AcDbLine
10
67
20
10.9
30
0
11
79.25
21
10.9
31
0
39
0
210
0
220
0
230
1
0
LINE
5
15F
100
AcDbEntity
8
2
62
256
6
ByLayer
370
-1
48
1
60
0
100
AcDbLine
10
67
20
0
30
0
11
79.25
21
0
31
0
39
0
210
0
220
0
230
1
0
LINE
5
160
100
AcDbEntity
8
2
62
256
6
ByLayer
370
-1
48
1
60
0
100
AcDbLine
10
77.25
20
0
30
0
11
77.25
21
29.231316
31
0
39
0
210
0
220
0
230
1
0
LINE
5
161
100
AcDbEntity
8
2
62
256
6
ByLayer
370
-1
48
1
60
0
100
AcDbLine
10
77.25
20
10.9
30
0
11
77.667997
21
7.725002
31
0
39
0
210
0
220
0
230
1
0
LINE
5
162
100
AcDbEntity
8
2
62
256
6
ByLayer
370
-1
48
1
60
0
100
AcDbLine
10
77.25
20
10.9
30
0
11
76.832003
21
7.724998
31
0
39
0
210
0
220
0
230
1
0
LINE
5
163
100
AcDbEntity
8
2
62
256
6
ByLayer
370
-1
48
1
60
0
100
AcDbLine
10
77.667997
20
7.725002
30
0
11
76.832003
21
7.724998
31
0
39
0
210
0
220
0
230
1
0
LINE
5
164
100
AcDbEntity
8
2
62
256
6
ByLayer
370
-1
48
1
60
0
100
AcDbLine
10
77.25
20
0
30
0
11
76.832003
21
3.174998
31
0
39
0
210
0
220
0
230
1
0
LINE
5
165
100
AcDbEntity
8
2
62
256
6
ByLayer
370
-1
48
1
60
0
100
AcDbLine
10
77.25
20
0
30
0
11
77.667997
21
3.175002
31
0
39
0
210
0
220
0
230
1
0
LINE
5
166
100
AcDbEntity
8
2
62
256
6
ByLayer
370
-1
48
1
60
0
100
AcDbLine
10
76.832003
20
3.174998
30
0
11
77.667997
21
3.175002
31
0
39
0
210
0
220
0
230
1
0
ENDBLK
5
168
100
AcDbEntity
8
0
100
AcDbBlockEnd
0
BLOCK
5
175
100
AcDbEntity
8
0
100
AcDbBlockBegin
2
DimnDraft3D4
70
0
10
0
20
0
30
0
3
DimnDraft3D4
0
MTEXT
5
16B
100
AcDbEntity
8
2
62
256
6
ByLayer
370
-1
48
1
60
0
100
AcDbMText
10
28.461842
20
39.775
30
0
210
0
220
0
230
1
1
\W01.000;\fsimplex.shx,bigfont.shx;65.0 
40
4.5
41
0
44
1.084337
50
0
71
7
72
5
7
DEFAULT
0
LINE
5
16C
100
AcDbEntity
8
2
62
256
6
ByLayer
370
-1
48
1
60
0
100
AcDbLine
10
0
20
18
30
0
11
0
21
40.65
31
0
39
0
210
0
220
0
230
1
0
LINE
5
16D
100
AcDbEntity
8
2
62
256
6
ByLayer
370
-1
48
1
60
0
100
AcDbLine
10
65
20
12.9
30
0
11
65
21
40.65
31
0
39
0
210
0
220
0
230
1
0
LINE
5
16E
100
AcDbEntity
8
2
62
256
6
ByLayer
370
-1
48
1
60
0
100
AcDbLine
10
0
20
38.65
30
0
11
65
21
38.65
31
0
39
0
210
0
220
0
230
1
0
LINE
5
16F
100
AcDbEntity
8
2
62
256
6
ByLayer
370
-1
48
1
60
0
100
AcDbLine
10
0
20
38.65
30
0
11
3.174998
21
39.067997
31
0
39
0
210
0
220
0
230
1
0
LINE
5
170
100
AcDbEntity
8
2
62
256
6
ByLayer
370
-1
48
1
60
0
100
AcDbLine
10
0
20
38.65
30
0
11
3.175002
21
38.232003
31
0
39
0
210
0
220
0
230
1
0
LINE
5
171
100
AcDbEntity
8
2
62
256
6
ByLayer
370
-1
48
1
60
0
100
AcDbLine
10
3.174998
20
39.067997
30
0
11
3.175002
21
38.232003
31
0
39
0
210
0
220
0
230
1
0
LINE
5
172
100
AcDbEntity
8
2
62
256
6
ByLayer
370
-1
48
1
60
0
100
AcDbLine
10
65
20
38.65
30
0
11
61.825002
21
38.232003
31
0
39
0
210
0
220
0
230
1
0
LINE
5
173
100
AcDbEntity
8
2
62
256
6
ByLayer
370
-1
48
1
60
0
100
AcDbLine
10
65
20
38.65
30
0
11
61.824998
21
39.067997
31
0
39
0
210
0
220
0
230
1
0
LINE
5
174
100
AcDbEntity
8
2
62
256
6
ByLayer
370
-1
48
1
60
0
100
AcDbLine
10
61.825002
20
38.232003
30
0
11
61.824998
21
39.067997
31
0
39
0
210
0
220
0
230
1
0
ENDBLK
5
176
100
AcDbEntity
8
0
100
AcDbBlockEnd
0
BLOCK
5
183
100
AcDbEntity
8
0
100
AcDbBlockBegin
2
DimnDraft3D5
70
0
10
0
20
0
30
0
3
DimnDraft3D5
0
MTEXT
5
179
100
AcDbEntity
8
2
62
256
6
ByLayer
370
-1
48
1
60
0
100
AcDbMText
10
36.288158
20
24.775
30
0
210
0
220
0
230
1
1
\W01.000;\fsimplex.shx,bigfont.shx;48.4 
40
4.5
41
0
44
1.084337
50
0
71
7
72
5
7
DEFAULT
0
LINE
5
17A
100
AcDbEntity
8
2
62
256
6
ByLayer
370
-1
48
1
60
0
100
AcDbLine
10
16.6
20
10
30
0
11
16.6
21
25.65
31
0
39
0
210
0
220
0
230
1
0
LINE
5
17B
100
AcDbEntity
8
2
62
256
6
ByLayer
370
-1
48
1
60
0
100
AcDbLine
10
65
20
12.9
30
0
11
65
21
25.65
31
0
39
0
210
0
220
0
230
1
0
LINE
5
17C
100
AcDbEntity
8
2
62
256
6
ByLayer
370
-1
48
1
60
0
100
AcDbLine
10
16.6
20
23.65
30
0
11
65
21
23.65
31
0
39
0
210
0
220
0
230
1
0
LINE
5
17D
100
AcDbEntity
8
2
62
256
6
ByLayer
370
-1
48
1
60
0
100
AcDbLine
10
16.6
20
23.65
30
0
11
19.774998
21
24.067997
31
0
39
0
210
0
220
0
230
1
0
LINE
5
17E
100
AcDbEntity
8
2
62
256
6
ByLayer
370
-1
48
1
60
0
100
AcDbLine
10
16.6
20
23.65
30
0
11
19.775002
21
23.232003
31
0
39
0
210
0
220
0
230
1
0
LINE
5
17F
100
AcDbEntity
8
2
62
256
6
ByLayer
370
-1
48
1
60
0
100
AcDbLine
10
19.774998
20
24.067997
30
0
11
19.775002
21
23.232003
31
0
39
0
210
0
220
0
230
1
0
LINE
5
180
100
AcDbEntity
8
2
62
256
6
ByLayer
370
-1
48
1
60
0
100
AcDbLine
10
65
20
23.65
30
0
11
61.825002
21
23.232003
31
0
39
0
210
0
220
0
230
1
0
LINE
5
181
100
AcDbEntity
8
2
62
256
6
ByLayer
370
-1
48
1
60
0
100
AcDbLine
10
65
20
23.65
30
0
11
61.824998
21
24.067997
31
0
39
0
210
0
220
0
230
1
0
LINE
5
182
100
AcDbEntity
8
2
62
256
6
ByLayer
370
-1
48
1
60
0
100
AcDbLine
10
61.825002
20
23.232003
30
0
11
61.824998
21
24.067997
31
0
39
0
210
0
220
0
230
1
0
ENDBLK
5
184
100
AcDbEntity
8
0
100
AcDbBlockEnd
0
BLOCK
5
191
100
AcDbEntity
8
0
100
AcDbBlockBegin
2
DimnDraft3D6
70
0
10
0
20
0
30
0
3
DimnDraft3D6
0
MTEXT
5
187
100
AcDbEntity
8
2
62
256
6
ByLayer
370
-1
48
1
60
0
100
AcDbMText
10
93.571824
20
-35.950619
30
0
210
0
220
0
230
1
1
\W01.000;\fsimplex.shx,bigfont.shx;91%%d0' 
40
4.5
41
0
44
1.084337
50
44.5
71
7
72
5
7
DEFAULT
0
LINE
5
188
100
AcDbEntity
8
2
62
256
6
ByLayer
370
-1
48
1
60
0
100
AcDbLine
10
64.773119
20
-2.09802
30
0
11
63.955856
21
-48.918955
31
0
39
0
210
0
220
0
230
1
0
LINE
5
189
100
AcDbEntity
8
2
62
256
6
ByLayer
370
-1
48
1
60
0
100
AcDbLine
10
67
20
0
30
0
11
113.736147
21
0
31
0
39
0
210
0
220
0
230
1
0
ARC
5
18A
100
AcDbEntity
8
2
62
256
6
ByLayer
370
-1
48
1
60
0
100
AcDbCircle
39
0
10
64.80974
20
0
30
0
40
46.9264068782928
210
0
220
0
230
1
100
AcDbArc
50
269
51
0
0
LINE
5
18B
100
AcDbEntity
8
2
62
256
6
ByLayer
370
-1
48
1
60
0
100
AcDbLine
10
63.990761
20
-46.91926
30
0
11
67.165987
21
-46.502993
31
0
39
0
210
0
220
0
230
1
0
LINE
5
18C
100
AcDbEntity
8
2
62
256
6
ByLayer
370
-1
48
1
60
0
100
AcDbLine
10
63.990761
20
-46.91926
30
0
11
67.165534
21
-47.338987
31
0
39
0
210
0
220
0
230
1
0
LINE
5
18D
100
AcDbEntity
8
2
62
256
6
ByLayer
370
-1
48
1
60
0
100
AcDbLine
10
67.165987
20
-46.502993
30
0
11
67.165534
21
-47.338987
31
0
39
0
210
0
220
0
230
1
0
LINE
5
18E
100
AcDbEntity
8
2
62
256
6
ByLayer
370
-1
48
1
60
0
100
AcDbLine
10
111.736147
20
0
30
0
11
112.100402
21
-3.181612
31
0
39
0
210
0
220
0
230
1
0
LINE
5
18F
100
AcDbEntity
8
2
62
256
6
ByLayer
370
-1
48
1
60
0
100
AcDbLine
10
111.736147
20
0
30
0
11
111.264528
21
-3.16748
31
0
39
0
210
0
220
0
230
1
0
LINE
5
190
100
AcDbEntity
8
2
62
256
6
ByLayer
370
-1
48
1
60
0
100
AcDbLine
10
112.100402
20
-3.181612
30
0
11
111.264528
21
-3.16748
31
0
39
0
210
0
220
0
230
1
0
ENDBLK
5
192
100
AcDbEntity
8
0
100
AcDbBlockEnd
0
ENDSEC
0
SECTION
2
ENTITIES
0
ARC
5
98
100
AcDbEntity
8
SK1
62
256
6
ByLayer
370
-1
48
1
60
0
100
AcDbCircle
39
0
10
0.6
20
11.8
30
0
40
1
210
0
220
0
230
-1
100
AcDbArc
50
233.130102
51
246.421822
0
ARC
5
99
100
AcDbEntity
8
SK1
62
256
6
ByLayer
370
-1
48
1
60
0
100
AcDbCircle
39
0
10
0.6
20
-11.8
30
0
40
1
210
0
220
0
230
-1
100
AcDbArc
50
113.578178
51
126.869898
0
ARC
5
9A
100
AcDbEntity
8
1
62
256
6
ByLayer
370
-1
48
1
60
0
100
AcDbCircle
39
0
10
-21.228275
20
-14
30
0
40
6
210
0
220
0
230
-1
100
AcDbArc
50
14.708304
51
90
0
ARC
5
9B
100
AcDbEntity
8
1
62
256
6
ByLayer
370
-1
48
1
60
0
100
AcDbCircle
39
0
10
-21.228275
20
14
30
0
40
6
210
0
220
0
230
-1
100
AcDbArc
50
270
51
345.291696
0
ELLIPSE
5
9C
100
AcDbEntity
8
1
62
256
6
ByLayer
370
-1
48
1
60
0
100
AcDbEllipse
10
12.928203
20
0
30
0
11
7.49393430382661
21
15.7933993222013
31
0
210
0
220
0
230
-1
40
0.341999
41
-2.98012608239209
42
-2.05401345238933
0
ELLIPSE
5
9D
100
AcDbEntity
8
1
62
256
6
ByLayer
370
-1
48
1
60
0
100
AcDbEllipse
10
57.211451
20
6.20703
30
0
11
-1.24980961894549
21
0.0218155080466032
31
0
210
0
220
0
230
1
40
0.996388
41
-0.523598775598302
42
-0.327596007838549
0
ELLIPSE
5
9E
100
AcDbEntity
8
1
62
256
6
ByLayer
370
-1
48
1
60
0
100
AcDbEllipse
10
57.314448
20
6.377838
30
0
11
-1.24980961894549
21
0.0218155080466032
31
0
210
0
220
0
230
1
40
0.996388
41
-2.0943951023932
42
-0.523598775598312
0
ELLIPSE
5
9F
100
AcDbEntity
8
1
62
256
6
ByLayer
370
-1
48
1
60
0
100
AcDbEllipse
10
12.928203
20
0
30
0
11
7.49393430382675
21
-15.7933993222016
31
0
210
0
220
0
230
-1
40
0.341999
41
2.05401345238933
42
2.98012608239208
0
ELLIPSE
5
A0
100
AcDbEntity
8
1
62
256
6
ByLayer
370
-1
48
1
60
0
100
AcDbEllipse
10
56.137668
20
5.587163
30
0
11
-1.0498400799143
21
0.0183250267591482
31
0
210
0
220
0
230
1
40
0.996388
41
-1.99869881125066
42
-1.45556903857822
0
ELLIPSE
5
A1
100
AcDbEntity
8
1
62
256
6
ByLayer
370
-1
48
1
60
0
100
AcDbEllipse
10
57.215824
20
6.457514
30
0
11
-1.24980961894549
21
0.0218155080466032
31
0
210
0
220
0
230
1
40
0.996388
41
-0.523598775598283
42
-0.327596007838534
0
ELLIPSE
5
A2
100
AcDbEntity
8
1
62
256
6
ByLayer
370
-1
48
1
60
0
100
AcDbEllipse
10
56.137223
20
5.561691
30
0
11
1.04984007991436
21
-0.0183250267591354
31
0
210
0
220
0
230
1
40
0.996388
41
3.00923755680754
42
-3.10656023496198
0
ELLIPSE
5
A3
100
AcDbEntity
8
1
62
256
6
ByLayer
370
-1
48
1
60
0
100
AcDbEllipse
10
56.137223
20
5.561691
30
0
11
1.04984007991436
21
-0.0183250267591354
31
0
210
0
220
0
230
1
40
0.996388
41
1.1689520738723
42
3.00923851258072
0
ELLIPSE
5
A4
100
AcDbEntity
8
1
62
256
6
ByLayer
370
-1
48
1
60
0
100
AcDbEllipse
10
56.14204
20
5.837647
30
0
11
-1.0498400799143
21
0.0183250267591482
31
0
210
0
220
0
230
1
40
0.996388
41
-1.45556903857819
42
1.67989113595463
0
ELLIPSE
5
A5
100
AcDbEntity
8
1
62
256
6
ByLayer
370
-1
48
1
60
0
100
AcDbEllipse
10
-0.928203
20
0
30
0
11
7.49393430382716
21
15.7933993222021
31
0
210
0
220
0
230
-1
40
0.341999
41
0.161466571197704
42
1.08757920120044
0
ELLIPSE
5
A6
100
AcDbEntity
8
1
62
256
6
ByLayer
370
-1
48
1
60
0
100
AcDbEllipse
10
56.14204
20
5.837638
30
0
11
1.0498400799143
21
-0.0183250267591344
31
0
210
0
220
0
230
1
40
0.996388
41
-1.4617015176352
42
-0.860164223350527
0
ELLIPSE
5
A7
100
AcDbEntity
8
1
62
256
6
ByLayer
370
-1
48
1
60
0
100
AcDbEllipse
10
57.31882
20
6.628322
30
0
11
-1.24980961894549
21
0.0218155080466032
31
0
210
0
220
0
230
1
40
0.996388
41
-2.09439510239318
42
-0.523598775598337
0
ELLIPSE
5
A8
100
AcDbEntity
8
1
62
256
6
ByLayer
370
-1
48
1
60
0
100
AcDbEllipse
10
-0.928203
20
0
30
0
11
7.49393430382699
21
-15.7933993222019
31
0
210
0
220
0
230
-1
40
0.341999
41
-1.08757920120044
42
-0.161466571197697
0
ELLIPSE
5
A9
100
AcDbEntity
8
1
62
256
6
ByLayer
370
-1
48
1
60
0
100
AcDbEllipse
10
56.186345
20
5.856271
30
0
11
0.396814554015181
21
-0.00692642380479107
31
0
210
0
220
0
230
1
40
0.996388
41
2.09439510239329
42
-2.09439510239314
0
ELLIPSE
5
AA
100
AcDbEntity
8
1
62
256
6
ByLayer
370
-1
48
1
60
0
100
AcDbEllipse
10
64.435775
20
0.917074
30
0
11
0.396814554015181
21
-0.00692642380479107
31
0
210
0
220
0
230
1
40
0.996388
41
-2.09439510239312
42
7.27156285992677E-14
0
ELLIPSE
5
AB
100
AcDbEntity
8
1
62
256
6
ByLayer
370
-1
48
1
60
0
100
AcDbEllipse
10
61.740309
20
5.676824
30
0
11
-0.747886075976983
21
0.0130544000150874
31
0
210
0
220
0
230
1
40
0.996388
41
1.80756675567666
42
2.4994238914386
0
ELLIPSE
5
AC
100
AcDbEntity
8
1
62
256
6
ByLayer
370
-1
48
1
60
0
100
AcDbEllipse
10
61.741545
20
5.747662
30
0
11
0.747886075976984
21
-0.0130544000150775
31
0
210
0
220
0
230
1
40
0.996388
41
2.58026252607471
42
2.6557252299083
0
ELLIPSE
5
AD
100
AcDbEntity
8
1
62
256
6
ByLayer
370
-1
48
1
60
0
100
AcDbEllipse
10
61.741791
20
5.761731
30
0
11
1.03484236448687
21
-0.0180632406625739
31
0
210
0
220
0
230
1
40
0.996388
41
-2.09439510239321
42
-1.04805553085652
0
ELLIPSE
5
AE
100
AcDbEntity
8
1
62
256
6
ByLayer
370
-1
48
1
60
0
100
AcDbEllipse
10
61.741791
20
5.761731
30
0
11
1.03484236448687
21
-0.0180632406625739
31
0
210
0
220
0
230
1
40
0.996388
41
-3.14073467392988
42
-2.09439510239321
0
ELLIPSE
5
AF
100
AcDbEntity
8
1
62
256
6
ByLayer
370
-1
48
1
60
0
100
AcDbEllipse
10
61.740309
20
5.676824
30
0
11
-0.747886075976983
21
0.0130544000150874
31
0
210
0
220
0
230
1
40
0.996388
41
0.621043681993123
42
1.31596000106853
0
ELLIPSE
5
B0
100
AcDbEntity
8
1
62
256
6
ByLayer
370
-1
48
1
60
0
100
AcDbEllipse
10
61.741545
20
5.747662
30
0
11
0.747886075976984
21
-0.0130544000150775
31
0
210
0
220
0
230
1
40
0.996388
41
-0.561330127515424
42
-0.485867423681212
0
ELLIPSE
5
B1
100
AcDbEntity
8
1
62
256
6
ByLayer
370
-1
48
1
60
0
100
AcDbEllipse
10
61.740309
20
5.676824
30
0
11
0.747886075976981
21
-0.0130544000150775
31
0
210
0
220
0
230
1
40
0.996388
41
0.52402776542826
42
1.57036733696498
0
ELLIPSE
5
B2
100
AcDbEntity
8
1
62
256
6
ByLayer
370
-1
48
1
60
0
100
AcDbEllipse
10
61.740309
20
5.676824
30
0
11
-0.747886075976983
21
0.0130544000150874
31
0
210
0
220
0
230
1
40
0.996388
41
-1.57122531662482
42
-0.561330127515084
0
ELLIPSE
5
B3
100
AcDbEntity
8
1
62
256
6
ByLayer
370
-1
48
1
60
0
100
AcDbEllipse
10
61.741791
20
5.761731
30
0
11
1.03484236448687
21
-0.0180632406625739
31
0
210
0
220
0
230
1
40
0.996388
41
-1.04805553085652
42
0.000857979659905073
0
ELLIPSE
5
B4
100
AcDbEntity
8
1
62
256
6
ByLayer
370
-1
48
1
60
0
100
AcDbEllipse
10
61.761156
20
6.842412
30
0
11
-0.421935727355997
21
0.00736491551653323
31
0
210
0
220
0
230
1
40
0.996388
41
1.57036733696496
42
2.34526706481741
0
ELLIPSE
5
B5
100
AcDbEntity
8
1
62
256
6
ByLayer
370
-1
48
1
60
0
100
AcDbEllipse
10
61.741791
20
5.761731
30
0
11
1.03484236448687
21
-0.0180632406625739
31
0
210
0
220
0
230
1
40
0.996388
41
2.09353712273331
42
-3.14073467392988
0
ELLIPSE
5
B6
100
AcDbEntity
8
1
62
256
6
ByLayer
370
-1
48
1
60
0
100
AcDbEllipse
10
61.740309
20
5.676824
30
0
11
0.747886075976981
21
-0.0130544000150775
31
0
210
0
220
0
230
1
40
0.996388
41
2.58026252607472
42
2.6557252299083
0
ELLIPSE
5
B7
100
AcDbEntity
8
1
62
256
6
ByLayer
370
-1
48
1
60
0
100
AcDbEllipse
10
61.741791
20
5.761731
30
0
11
1.03484236448687
21
-0.0180632406625739
31
0
210
0
220
0
230
1
40
0.996388
41
0.000857979659905073
42
1.04719755119661
0
ELLIPSE
5
B8
100
AcDbEntity
8
1
62
256
6
ByLayer
370
-1
48
1
60
0
100
AcDbEllipse
10
60.738652
20
6.276548
30
0
11
-0.421935727355997
21
0.00736491551653323
31
0
210
0
220
0
230
1
40
0.996388
41
2.68490720030721
42
3.14158170831009
0
ELLIPSE
5
B9
100
AcDbEntity
8
1
62
256
6
ByLayer
370
-1
48
1
60
0
100
AcDbEllipse
10
61.740309
20
5.676824
30
0
11
-0.747886075976983
21
0.0130544000150874
31
0
210
0
220
0
230
1
40
0.996388
41
-0.4858674236815
42
0.298963051560349
0
ELLIPSE
5
BA
100
AcDbEntity
8
1
62
256
6
ByLayer
370
-1
48
1
60
0
100
AcDbEllipse
10
61.741791
20
5.761731
30
0
11
1.03484236448687
21
-0.0180632406625739
31
0
210
0
220
0
230
1
40
0.996388
41
1.04719755119661
42
2.09353712273331
0
ELLIPSE
5
BB
100
AcDbEntity
8
1
62
256
6
ByLayer
370
-1
48
1
60
0
100
AcDbEllipse
10
61.740309
20
5.676824
30
0
11
-0.747886075976983
21
0.0130544000150874
31
0
210
0
220
0
230
1
40
0.996388
41
2.81590449689248
42
-2.61756488816154
0
ELLIPSE
5
BC
100
AcDbEntity
8
1
62
256
6
ByLayer
370
-1
48
1
60
0
100
AcDbEllipse
10
62.763334
20
6.242376
30
0
11
-0.421935727355997
21
0.00736491551653323
31
0
210
0
220
0
230
1
40
0.996388
41
0.524027765428259
42
1.29892749328074
0
ELLIPSE
5
BD
100
AcDbEntity
8
1
62
256
6
ByLayer
370
-1
48
1
60
0
100
AcDbEllipse
10
60.890426
20
5.690932
30
0
11
-0.184971823603932
21
0.00322869519089726
31
0
210
0
220
0
230
1
40
0.996388
41
-1.30068497549018
42
-0.223835292436776
0
ELLIPSE
5
BE
100
AcDbEntity
8
1
62
256
6
ByLayer
370
-1
48
1
60
0
100
AcDbEllipse
10
60.738652
20
6.276548
30
0
11
-0.421935727355997
21
0.00736491551653323
31
0
210
0
220
0
230
1
40
0.996388
41
1.84090767809954
42
2.5510805556758
0
ELLIPSE
5
BF
100
AcDbEntity
8
1
62
256
6
ByLayer
370
-1
48
1
60
0
100
AcDbEllipse
10
61.328812
20
6.417945
30
0
11
-0.184971823603932
21
0.00322869519089726
31
0
210
0
220
0
230
1
40
0.996388
41
-2.34612504447729
42
-0.262698202279763
0
ELLIPSE
5
C0
100
AcDbEntity
8
1
62
256
6
ByLayer
370
-1
48
1
60
0
100
AcDbEllipse
10
61.761156
20
6.842412
30
0
11
-0.421935727355997
21
0.00736491551653323
31
0
210
0
220
0
230
1
40
0.996388
41
0.795467609112492
42
1.57036733696496
0
ELLIPSE
5
C1
100
AcDbEntity
8
1
62
256
6
ByLayer
370
-1
48
1
60
0
100
AcDbEllipse
10
62.178045
20
6.402758
30
0
11
-0.184971823603932
21
0.00322869519089726
31
0
210
0
220
0
230
1
40
0.996388
41
-2.93627670755677
42
-0.79632558877234
0
ELLIPSE
5
C2
100
AcDbEntity
8
1
62
256
6
ByLayer
370
-1
48
1
60
0
100
AcDbEllipse
10
62.763334
20
6.242376
30
0
11
-0.421935727355997
21
0.00736491551653323
31
0
210
0
220
0
230
1
40
0.996388
41
2.91338692494768E-06
42
0.524027765428259
0
ELLIPSE
5
C3
100
AcDbEntity
8
1
62
256
6
ByLayer
370
-1
48
1
60
0
100
AcDbEllipse
10
62.590192
20
5.662716
30
0
11
-0.184971823603932
21
0.00322869519089726
31
0
210
0
220
0
230
1
40
0.996388
41
-2.93161618102682
42
-1.84266516030912
0
ELLIPSE
5
C4
100
AcDbEntity
8
1
62
256
6
ByLayer
370
-1
48
1
60
0
100
AcDbEllipse
10
61.741791
20
5.761731
30
0
11
1.29980200370331
21
-0.0226881283684502
31
0
210
0
220
0
230
1
40
0.996388
41
0
42
6.28318530717959
0
ELLIPSE
5
C5
100
AcDbEntity
8
1
62
256
6
ByLayer
370
-1
48
1
60
0
100
AcDbEllipse
10
61.741533
20
5.746964
30
0
11
1.72473727414478
21
-0.0301054011042897
31
0
210
0
220
0
230
1
40
0.996388
41
0
42
6.28318530717959
0
ELLIPSE
5
C6
100
AcDbEntity
8
1
62
256
6
ByLayer
370
-1
48
1
60
0
100
AcDbEllipse
10
61.740457
20
5.685315
30
0
11
1.72473727414478
21
-0.0301054011042897
31
0
210
0
220
0
230
1
40
0.996388
41
3.14156414930191
42
0
0
ELLIPSE
5
C7
100
AcDbEntity
8
1
62
256
6
ByLayer
370
-1
48
1
60
0
100
AcDbEllipse
10
61.741748
20
5.759301
30
0
11
1.90439934775033
21
-0.0332414142642102
31
0
210
0
220
0
230
1
40
0.996388
41
0
42
6.28318530717959
0
ELLIPSE
5
C8
100
AcDbEntity
8
1
62
256
6
ByLayer
370
-1
48
1
60
0
100
AcDbEllipse
10
61.740952
20
5.713664
30
0
11
1.88093516011929
21
-0.0328318453456229
31
0
210
0
220
0
230
1
40
0.996388
41
-0.537830126981193
42
-9.47680073676691E-16
0
ELLIPSE
5
C9
100
AcDbEntity
8
1
62
256
6
ByLayer
370
-1
48
1
60
0
100
AcDbEllipse
10
61.740952
20
5.713664
30
0
11
1.88093516011929
21
-0.0328318453456229
31
0
210
0
220
0
230
1
40
0.996388
41
0
42
0.0175168198474216
0
ELLIPSE
5
CA
100
AcDbEntity
8
1
62
256
6
ByLayer
370
-1
48
1
60
0
100
AcDbEllipse
10
61.740952
20
5.713664
30
0
11
1.88093516011929
21
-0.0328318453456229
31
0
210
0
220
0
230
1
40
0.996388
41
0.0175166897484839
42
-2.60381962140542
0
ELLIPSE
5
CB
100
AcDbEntity
8
1
62
256
6
ByLayer
370
-1
48
1
60
0
100
AcDbEllipse
10
61.740581
20
5.692444
30
0
11
-1.80114027624332
21
0.0314390204666532
31
0
210
0
220
0
230
1
40
0.996388
41
0
42
6.28318530717959
0
ELLIPSE
5
CC
100
AcDbEntity
8
1
62
256
6
ByLayer
370
-1
48
1
60
0
100
AcDbEllipse
10
64.603125
20
10.504558
30
0
11
0.396814554015181
21
-0.00692642380479107
31
0
210
0
220
0
230
1
40
0.996388
41
0
42
2.09439510239325
0
POINT
5
41
100
AcDbEntity
8
80
62
256
6
ByLayer
370
-1
48
1
60
0
100
AcDbPoint
10
0
20
0
30
0
39
0
210
0
220
0
230
1
50
360
0
POINT
5
43
100
AcDbEntity
8
81
62
256
6
ByLayer
370
-1
48
1
60
0
100
AcDbPoint
10
65
20
10.9
30
0
39
0
210
0
220
0
230
1
50
360
0
POINT
5
45
100
AcDbEntity
8
1
62
256
6
ByLayer
370
-1
48
1
60
0
100
AcDbPoint
10
0
20
0
30
0
39
0
210
0
220
0
230
1
50
360
0
POINT
5
47
100
AcDbEntity
8
2
62
256
6
ByLayer
370
-1
48
1
60
0
100
AcDbPoint
10
65
20
10.9
30
0
39
0
210
0
220
0
230
1
50
360
0
SPLINE
5
CD
100
AcDbEntity
8
SK1
62
256
6
ByLayer
370
-1
48
1
60
0
100
AcDbSpline
70
4
71
2
72
6
73
3
40
0
40
0
40
0
40
1
40
1
40
1
41
1
10
-2.5
20
11.0000000216178
30
0
41
1
10
-10.2501577226355
20
10.805289083207
30
0
41
1
10
-18.0003154452711
20
10.6105781447962
30
0
0
SPLINE
5
CE
100
AcDbEntity
8
SK1
62
256
6
ByLayer
370
-1
48
1
60
0
100
AcDbSpline
70
4
71
2
72
6
73
3
40
0
40
0
40
0
40
1
40
1
40
1
41
1
10
-18.0003154452711
20
-10.6105781038671
30
0
41
1
10
-10.2501577226355
20
-10.8052890415268
30
0
41
1
10
-2.5
20
-10.9999999791865
30
0
0
SPLINE
5
CF
100
AcDbEntity
8
SK1
62
256
6
ByLayer
370
-1
48
1
60
0
100
AcDbSpline
70
4
71
2
72
6
73
3
40
0
40
0
40
0
40
1
40
1
40
1
41
1
10
-2.5
20
-10.9999999791865
30
0
41
1
10
-2.09751251213362
20
-11.0101118658039
30
0
41
1
10
-1.69502502426718
20
-11.0202237524214
30
0
0
SPLINE
5
D0
100
AcDbEntity
8
SK1
62
256
6
ByLayer
370
-1
48
1
60
0
100
AcDbSpline
70
4
71
2
72
6
73
3
40
0
40
0
40
0
40
1
40
1
40
1
41
1
10
-1.69502502426718
20
11.0202237949308
30
0
41
1
10
-2.09751251213362
20
11.0101119082743
30
0
41
1
10
-2.5
20
11.0000000216178
30
0
0
SPLINE
5
D1
100
AcDbEntity
8
SK1
62
256
6
ByLayer
370
-1
48
1
60
0
100
AcDbSpline
70
4
71
2
72
6
73
3
40
0
40
0
40
0
40
1
40
1
40
1
41
1
10
-18.0002077056275
20
10.6083539004405
30
0
41
1
10
-18.5001033313043
20
10.302566364032
30
0
41
1
10
-19
20
9.996785310587
30
0
0
SPLINE
5
D2
100
AcDbEntity
8
SK1
62
256
6
ByLayer
370
-1
48
1
60
0
100
AcDbSpline
70
4
71
2
72
6
73
3
40
0
40
0
40
0
40
1
40
1
40
1
41
1
10
-19
20
-9.99570806969172
30
0
41
1
10
-18.5001026802154
20
-10.301383051238
30
0
41
1
10
-18.0002062662752
20
-10.6070648849158
30
0
0
SPLINE
5
D3
100
AcDbEntity
8
SK1
62
256
6
ByLayer
370
-1
48
1
60
0
100
AcDbSpline
70
4
71
1
72
4
73
2
40
0
40
0
40
1
40
1
41
1
10
-1.69888700159413
20
2.43402506192237
30
0
41
1
10
-1.69922662732802
20
2.24422844727147
30
0
0
SPLINE
5
D4
100
AcDbEntity
8
SK1
62
256
6
ByLayer
370
-1
48
1
60
0
100
AcDbSpline
70
4
71
3
72
17
73
13
40
0
40
0
40
0
40
0
40
0.0392866625173973
40
0.170550180269656
40
0.306267841830521
40
0.441877177726809
40
0.572837070018367
40
0.695082953255911
40
0.80543433434289
40
0.901913637386678
40
0.9839446757459
40
1
40
1
40
1
40
1
41
1
10
-1.56567452769781
20
10.2638812175672
30
0
41
1
10
-1.56837676962044
20
10.2245859603521
30
0
41
1
10
-1.57990123387026
20
10.0392607309701
30
0
41
1
10
-1.59832201607208
20
9.54945885181181
30
0
41
1
10
-1.62100299527469
20
8.78178209812853
30
0
41
1
10
-1.64151606973775
20
7.85039594903401
30
0
41
1
10
-1.65947219868758
20
6.81412162908305
30
0
41
1
10
-1.67432269218028
20
5.72475663594554
30
0
41
1
10
-1.68593890843681
20
4.64272721566545
30
0
41
1
10
-1.69382509044453
20
3.61391268556145
30
0
41
1
10
-1.6981401872859
20
2.88632814749843
30
0
41
1
10
-1.69880380360394
20
2.49801692555494
30
0
41
1
10
-1.69888700159413
20
2.43402506192237
30
0
0
SPLINE
5
D5
100
AcDbEntity
8
SK1
62
256
6
ByLayer
370
-1
48
1
60
0
100
AcDbSpline
70
4
71
3
72
17
73
13
40
0
40
0
40
0
40
0
40
0.0152501717556091
40
0.0973482312938968
40
0.193906368356887
40
0.304347975168485
40
0.426693330616783
40
0.557760778534651
40
0.693481068639429
40
0.829309835481901
40
0.960680854666455
40
1
40
1
40
1
40
1
41
1
10
-1.69886963917708
20
-2.44372030622179
30
0
41
1
10
-1.69878943666447
20
-2.50443386260176
30
0
41
1
10
-1.69813046480016
20
-2.88950221283588
30
0
41
1
10
-1.69382102935219
20
-3.6138435285165
30
0
41
1
10
-1.68594024357441
20
-4.64273707781865
30
0
41
1
10
-1.67432230966455
20
-5.72474087089813
30
0
41
1
10
-1.65947223977321
20
-6.81410432775078
30
0
41
1
10
-1.64151608252496
20
-7.85038816857019
30
0
41
1
10
-1.62100299161011
20
-8.78177341465911
30
0
41
1
10
-1.59832201288242
20
-9.54945260193463
30
0
41
1
10
-1.57990121173282
20
-10.0392559882088
30
0
41
1
10
-1.5683767303633
20
-10.2245823345271
30
0
41
1
10
-1.56567446797743
20
-10.2638780538572
30
0
0
SPLINE
5
D6
100
AcDbEntity
8
SK1
62
256
6
ByLayer
370
-1
48
1
60
0
100
AcDbSpline
70
4
71
1
72
4
73
2
40
0
40
0
40
1
40
1
41
1
10
-1.69921111833776
20
-2.25288818144043
30
0
41
1
10
-1.69886963917708
20
-2.44372030622179
30
0
0
SPLINE
5
D7
100
AcDbEntity
8
SK1
62
256
6
ByLayer
370
-1
48
1
60
0
100
AcDbSpline
70
4
71
2
72
6
73
3
40
0
40
0
40
0
40
1
40
1
40
1
41
1
10
-0.89827076219018
20
10.7847407283835
30
0
41
1
10
-1.19913538109506
20
10.7847407283835
30
0
41
1
10
-1.5
20
10.7847407283835
30
0
0
SPLINE
5
D8
100
AcDbEntity
8
SK1
62
256
6
ByLayer
370
-1
48
1
60
0
100
AcDbSpline
70
4
71
2
72
6
73
3
40
0
40
0
40
0
40
1
40
1
40
1
41
1
10
-1.5
20
-10.7847407263988
30
0
41
1
10
-1.19260811024964
20
-10.7847407263988
30
0
41
1
10
-0.885216220499217
20
-10.7847407263988
30
0
0
SPLINE
5
D9
100
AcDbEntity
8
1
62
256
6
ByLayer
370
-1
48
1
60
0
100
AcDbSpline
70
4
71
3
72
18
73
14
40
0
40
0
40
0
40
0
40
0.0872973106982676
40
0.0872973106982676
40
0.542504713769245
40
0.542504713769245
40
0.700049237734301
40
0.700049237734301
40
0.859641035571716
40
0.859641035571716
40
0.970800525640281
40
0.970800525640281
40
1
40
1
40
1
40
1
41
1
10
7.33660254037846
20
15.1759383782004
30
0
41
1
10
7.33335951275456
20
15.1799220163035
30
0
41
1
10
7.32988124523558
20
15.1838732610658
30
0
41
1
10
7.30679603866884
20
15.2080620258526
30
0
41
1
10
7.28070949120797
20
15.2277749876852
30
0
41
1
10
7.22892472751983
20
15.2504441152008
30
0
41
1
10
7.21379801264527
20
15.2559954463097
30
0
41
1
10
7.17940149560854
20
15.2657445103485
30
0
41
1
10
7.15964797354849
20
15.2700240892114
30
0
41
1
10
7.12286471883334
20
15.2749451765724
30
0
41
1
10
7.10646334965821
20
15.2763144731655
30
0
41
1
10
7.08557733679538
20
15.2769004141622
30
0
41
1
10
7.08118372978328
20
15.2769622091385
30
0
41
1
10
7.07679491924313
20
15.2769622091385
30
0
0
SPLINE
5
DA
100
AcDbEntity
8
1
62
256
6
ByLayer
370
-1
48
1
60
0
100
AcDbSpline
70
4
71
3
72
8
73
4
40
0
40
0
40
0
40
0
40
1
40
1
40
1
40
1
41
1
10
62.484136158234
20
9.7864633512161
30
0
41
1
10
62.3933484664256
20
9.78014915352412
30
0
41
1
10
62.3025607911917
20
9.77383471968076
30
0
41
1
10
62.211773132627
20
9.76752004836243
30
0
0
SPLINE
5
DB
100
AcDbEntity
8
1
62
256
6
ByLayer
370
-1
48
1
60
0
100
AcDbSpline
70
4
71
3
72
16
73
12
40
0
40
0
40
0
40
0
40
0.0824510846571657
40
0.0824510846571657
40
0.188383068428384
40
0.188383068428384
40
0.365472907848039
40
0.365472907848039
40
0.680803291610384
40
0.680803291610384
40
1
40
1
40
1
40
1
41
1
10
4.92320508075693
20
-4.75546271781764
30
0
41
1
10
4.91089649083546
20
-4.75546271781764
30
0
41
1
10
4.89849486249386
20
-4.75706222436497
30
0
41
1
10
4.87125637552424
20
-4.76394233360963
30
0
41
1
10
4.85646478450172
20
-4.77020840137905
30
0
41
1
10
4.82023312564894
20
-4.79093881117953
30
0
41
1
10
4.80022243273464
20
-4.80829129424853
30
0
41
1
10
4.75215970503024
20
-4.86090601671924
30
0
41
1
10
4.72849000125774
20
-4.90053819345553
30
0
41
1
10
4.69009643205953
20
-4.98223274168748
30
0
41
1
10
4.67520403045438
20
-5.02519567059605
30
0
41
1
10
4.66339745962159
20
-5.06861858311177
30
0
0
SPLINE
5
DC
100
AcDbEntity
8
1
62
256
6
ByLayer
370
-1
48
1
60
0
100
AcDbSpline
70
4
71
3
72
18
73
14
40
0
40
0
40
0
40
0
40
0.0872973106983345
40
0.0872973106983345
40
0.542504713769339
40
0.542504713769339
40
0.700049237734365
40
0.700049237734365
40
0.859641035571757
40
0.859641035571757
40
0.970800525640322
40
0.970800525640322
40
1
40
1
40
1
40
1
41
1
10
7.33660254037846
20
-5.06861858311174
30
0
41
1
10
7.33335951275456
20
-5.05669118210821
30
0
41
1
10
7.32988124523558
20
-5.04481392106408
30
0
41
1
10
7.30679603866884
20
-4.97182102384326
30
0
41
1
10
7.28070949120792
20
-4.91100060572404
30
0
41
1
10
7.22892472751983
20
-4.83986869632048
30
0
41
1
10
7.21379801264521
20
-4.82232975779166
30
0
41
1
10
7.17940149560854
20
-4.79137868546457
30
0
41
1
10
7.15964797354843
20
-4.77770433946466
30
0
41
1
10
7.12286471883334
20
-4.76194246224051
30
0
41
1
10
7.10646334965821
20
-4.75754333105178
30
0
41
1
10
7.08557733679538
20
-4.75566124801017
30
0
41
1
10
7.08118372978328
20
-4.75546271781764
30
0
41
1
10
7.07679491924313
20
-4.75546271781764
30
0
0
SPLINE
5
DD
100
AcDbEntity
8
1
62
256
6
ByLayer
370
-1
48
1
60
0
100
AcDbSpline
70
4
71
3
72
28
73
24
40
-0.125000000000001
40
-0.125000000000001
40
0
40
0
40
0.125
40
0.125
40
0.187499999999999
40
0.187499999999999
40
0.249999999999999
40
0.249999999999999
40
0.374999999999999
40
0.374999999999999
40
0.499999999999998
40
0.499999999999998
40
0.624999999999998
40
0.624999999999998
40
0.687499999999998
40
0.687499999999998
40
0.718749999999997
40
0.718749999999997
40
0.749999999999997
40
0.749999999999997
40
0.874999999999999
40
0.874999999999999
40
1
40
1
40
1.125
40
1.125
41
1
10
49.478234122859
20
2.59253824400633
30
0
41
1
10
48.4211303042696
20
2.12542215254283
30
0
41
1
10
47.8730637659085
20
1.97051523465586
30
0
41
1
10
47.0443999434666
20
2.13221189859948
30
0
41
1
10
46.7684307250735
20
2.26283373139233
30
0
41
1
10
46.3574569845314
20
2.75366246968466
30
0
41
1
10
46.2582554064275
20
3.10140522195019
30
0
41
1
10
46.321331923568
20
4.03623593632395
30
0
41
1
10
46.7221635832897
20
4.48257108152285
30
0
41
1
10
47.6276508876998
20
5.10250940725308
30
0
41
1
10
48.1728148521203
20
5.30019624233879
30
0
41
1
10
49.3172929311816
20
5.56005242654632
30
0
41
1
10
49.9330245319317
20
5.63152051241971
30
0
41
1
10
50.8794347853387
20
5.59705775291755
30
0
41
1
10
51.2055635711769
20
5.57402723547207
30
0
41
1
10
51.6490095857446
20
5.37343017792298
30
0
41
1
10
51.792061622756
20
5.2538210372347
30
0
41
1
10
51.8498514193631
20
4.93183880875299
30
0
41
1
10
51.7863351580372
20
4.77143885196543
30
0
41
1
10
51.40997237463
20
4.06522510825633
30
0
41
1
10
50.9161031651295
20
3.655465818191
30
0
41
1
10
49.9709508865007
20
2.90892887096868
30
0
41
1
10
49.478234122859
20
2.59253824400633
30
0
41
1
10
48.4211303042696
20
2.12542215254283
30
0
0
SPLINE
5
DE
100
AcDbEntity
8
1
62
256
6
ByLayer
370
-1
48
1
60
0
100
AcDbSpline
70
4
71
3
72
8
73
4
40
0
40
0
40
0
40
0
40
1
40
1
40
1
40
1
41
1
10
51.534212261411
20
7.99667090712498
30
0
41
1
10
52.2262134834094
20
8.40112360731379
30
0
41
1
10
52.9261441504876
20
8.80362644056368
30
0
41
1
10
53.6305413147319
20
9.21005154773667
30
0
0
SPLINE
5
DF
100
AcDbEntity
8
1
62
256
6
ByLayer
370
-1
48
1
60
0
100
AcDbSpline
70
4
71
3
72
16
73
12
40
0
40
0
40
0
40
0
40
0.0824510846571659
40
0.0824510846571659
40
0.188383068428396
40
0.188383068428396
40
0.365472907848055
40
0.365472907848055
40
0.680803291610427
40
0.680803291610427
40
1
40
1
40
1
40
1
41
1
10
7.07679491924307
20
-15.2769622091386
30
0
41
1
10
7.08910350916454
20
-15.2769622091386
30
0
41
1
10
7.10150513750614
20
-15.2764645420423
30
0
41
1
10
7.12874362447576
20
-15.2743206039305
30
0
41
1
10
7.14353521549828
20
-15.2723664954752
30
0
41
1
10
7.17976687435106
20
-15.2658799044773
30
0
41
1
10
7.19977756726536
20
-15.2604302192604
30
0
41
1
10
7.24784029496976
20
-15.2437803206195
30
0
41
1
10
7.27150999874226
20
-15.231104729462
30
0
41
1
10
7.30990356794047
20
-15.2045789137682
30
0
41
1
10
7.32479596954562
20
-15.1904412165637
30
0
41
1
10
7.33660254037841
20
-15.1759383782004
30
0
0
SPLINE
5
E0
100
AcDbEntity
8
1
62
256
6
ByLayer
370
-1
48
1
60
0
100
AcDbSpline
70
4
71
3
72
16
73
12
40
0
40
0
40
0
40
0
40
0.0824510846571602
40
0.0824510846571602
40
0.188383068428385
40
0.188383068428385
40
0.365472907848031
40
0.365472907848031
40
0.680803291610383
40
0.680803291610383
40
1
40
1
40
1
40
1
41
1
10
4.92320508075693
20
15.2769622091385
30
0
41
1
10
4.91089649083546
20
15.2769622091385
30
0
41
1
10
4.89849486249386
20
15.2764645420423
30
0
41
1
10
4.87125637552424
20
15.2743206039304
30
0
41
1
10
4.85646478450172
20
15.2723664954752
30
0
41
1
10
4.82023312564894
20
15.2658799044772
30
0
41
1
10
4.80022243273464
20
15.2604302192603
30
0
41
1
10
4.75215970503024
20
15.2437803206194
30
0
41
1
10
4.72849000125774
20
15.231104729462
30
0
41
1
10
4.69009643205953
20
15.2045789137681
30
0
41
1
10
4.67520403045438
20
15.1904412165636
30
0
41
1
10
4.66339745962159
20
15.1759383782003
30
0
0
SPLINE
5
E1
100
AcDbEntity
8
1
62
256
6
ByLayer
370
-1
48
1
60
0
100
AcDbSpline
70
4
71
3
72
16
73
12
40
0
40
0
40
0
40
0
40
0.0824510846571695
40
0.0824510846571695
40
0.188383068428396
40
0.188383068428396
40
0.365472907848062
40
0.365472907848062
40
0.680803291610439
40
0.680803291610439
40
1
40
1
40
1
40
1
41
1
10
7.07679491924307
20
4.75546271781752
30
0
41
1
10
7.08910350916454
20
4.75546271781752
30
0
41
1
10
7.10150513750614
20
4.75706222436486
30
0
41
1
10
7.12874362447576
20
4.76394233360952
30
0
41
1
10
7.14353521549828
20
4.77020840137894
30
0
41
1
10
7.17976687435106
20
4.79093881117942
30
0
41
1
10
7.19977756726536
20
4.80829129424839
30
0
41
1
10
7.24784029496976
20
4.86090601671913
30
0
41
1
10
7.27150999874226
20
4.90053819345542
30
0
41
1
10
7.30990356794047
20
4.98223274168734
30
0
41
1
10
7.32479596954562
20
5.02519567059593
30
0
41
1
10
7.33660254037841
20
5.06861858311163
30
0
0
SPLINE
5
E2
100
AcDbEntity
8
1
62
256
6
ByLayer
370
-1
48
1
60
0
100
AcDbSpline
70
4
71
3
72
18
73
14
40
0
40
0
40
0
40
0
40
0.0872973106983427
40
0.0872973106983427
40
0.542504713769251
40
0.542504713769251
40
0.700049237734308
40
0.700049237734308
40
0.859641035571733
40
0.859641035571733
40
0.970800525640285
40
0.970800525640285
40
1
40
1
40
1
40
1
41
1
10
4.66339745962154
20
-15.1759383782004
30
0
41
1
10
4.66664048724545
20
-15.1799220163036
30
0
41
1
10
4.67011875476442
20
-15.1838732610658
30
0
41
1
10
4.69320396133111
20
-15.2080620258527
30
0
41
1
10
4.71929050879203
20
-15.2277749876852
30
0
41
1
10
4.77107527248018
20
-15.2504441152008
30
0
41
1
10
4.78620198735473
20
-15.2559954463097
30
0
41
1
10
4.82059850439146
20
-15.2657445103485
30
0
41
1
10
4.84035202645157
20
-15.2700240892114
30
0
41
1
10
4.87713528116666
20
-15.2749451765724
30
0
41
1
10
4.89353665034179
20
-15.2763144731656
30
0
41
1
10
4.91442266320462
20
-15.2769004141622
30
0
41
1
10
4.91881627021672
20
-15.2769622091386
30
0
41
1
10
4.92320508075687
20
-15.2769622091386
30
0
0
SPLINE
5
E3
100
AcDbEntity
8
1
62
256
6
ByLayer
370
-1
48
1
60
0
100
AcDbSpline
70
4
71
3
72
20
73
16
40
0
40
0
40
0
40
0
40
0.125
40
0.125
40
0.25
40
0.25
40
0.375
40
0.375
40
0.5
40
0.5
40
0.625
40
0.625
40
0.75
40
0.75
40
1
40
1
40
1
40
1
41
1
10
51.534212261411
20
7.99667090712498
30
0
41
1
10
50.3151261251963
20
7.99091104759981
30
0
41
1
10
49.1413252490807
20
7.97882084003936
30
0
41
1
10
46.8986528120682
20
7.81570247770071
30
0
41
1
10
45.8469868893836
20
7.6658571987272
30
0
41
1
10
44.1002420117247
20
6.96116816787116
30
0
41
1
10
43.4314808736195
20
6.3863275782081
30
0
41
1
10
42.7272737062634
20
4.68195472391832
30
0
41
1
10
42.6900731894971
20
3.57218822514946
30
0
41
1
10
43.0055944910449
20
1.24009871207022
30
0
41
1
10
43.3480381548931
20
0.0101776018072997
30
0
41
1
10
44.2530116483787
20
-2.25097819686545
30
0
41
1
10
44.8267286072265
20
-3.29813106947464
30
0
41
1
10
46.8908551934696
20
-5.91229746287655
30
0
41
1
10
48.7424253511497
20
-6.88228365545868
30
0
41
1
10
50.9158268358614
20
-7.34879049991468
30
0
0
SPLINE
5
E4
100
AcDbEntity
8
1
62
256
6
ByLayer
370
-1
48
1
60
0
100
AcDbSpline
70
4
71
3
72
8
73
4
40
0
40
0
40
0
40
0
40
1
40
1
40
1
40
1
41
1
10
62.2200909252055
20
10.2440460660392
30
0
41
1
10
61.8863080299956
20
10.2212027268299
30
0
41
1
10
61.5525251775124
20
10.1983587689296
30
0
41
1
10
61.2187423686352
20
10.1755141796557
30
0
0
SPLINE
5
E5
100
AcDbEntity
8
1
62
256
6
ByLayer
370
-1
48
1
60
0
100
AcDbSpline
70
4
71
3
72
8
73
4
40
0
40
0
40
0
40
0
40
1
40
1
40
1
40
1
41
1
10
53.6305413147319
20
9.21005154773667
30
0
41
1
10
53.9229413196641
20
9.37876134580836
30
0
41
1
10
54.2153542630085
20
9.54744888586586
30
0
41
1
10
54.50777821
20
9.71611748698263
30
0
0
SPLINE
5
E6
100
AcDbEntity
8
1
62
256
6
ByLayer
370
-1
48
1
60
0
100
AcDbSpline
70
4
71
3
72
8
73
4
40
0
40
0
40
0
40
0
40
1
40
1
40
1
40
1
41
1
10
61.2187423967654
20
10.1755157912368
30
0
41
1
10
58.9817522818436
20
10.0224127412555
30
0
41
1
10
56.7447641213251
20
9.86928138960283
30
0
41
1
10
54.50777821
20
9.71611748698263
30
0
0
SPLINE
5
E7
100
AcDbEntity
8
1
62
256
6
ByLayer
370
-1
48
1
60
0
100
AcDbSpline
70
4
71
3
72
18
73
14
40
0
40
0
40
0
40
0
40
0.0872973106983417
40
0.0872973106983417
40
0.542504713769245
40
0.542504713769245
40
0.700049237734307
40
0.700049237734307
40
0.859641035571736
40
0.859641035571736
40
0.97080052564029
40
0.97080052564029
40
1
40
1
40
1
40
1
41
1
10
4.66339745962154
20
5.06861858311169
30
0
41
1
10
4.66664048724545
20
5.05669118210812
30
0
41
1
10
4.67011875476442
20
5.04481392106402
30
0
41
1
10
4.69320396133111
20
4.97182102384318
30
0
41
1
10
4.71929050879203
20
4.91100060572398
30
0
41
1
10
4.77107527248018
20
4.83986869632042
30
0
41
1
10
4.78620198735473
20
4.82232975779158
30
0
41
1
10
4.82059850439146
20
4.79137868546448
30
0
41
1
10
4.84035202645157
20
4.77770433946458
30
0
41
1
10
4.87713528116666
20
4.76194246224043
30
0
41
1
10
4.89353665034179
20
4.75754333105169
30
0
41
1
10
4.91442266320462
20
4.75566124801006
30
0
41
1
10
4.91881627021672
20
4.75546271781752
30
0
41
1
10
4.92320508075687
20
4.75546271781752
30
0
0
SPLINE
5
E8
100
AcDbEntity
8
SK1
62
256
6
ByLayer
370
-1
48
1
60
0
100
AcDbSpline
70
4
71
3
72
24
73
20
40
0
40
0
40
0
40
0
40
0.0348890371140488
40
0.0348890371140488
40
0.0617027213621947
40
0.0617027213621947
40
0.0827724763829611
40
0.0827724763829611
40
0.103857289987096
40
0.103857289987096
40
0.132456700829786
40
0.132456700829786
40
0.183303847887376
40
0.183303847887376
40
0.342147323918191
40
0.342147323918191
40
0.999994163616029
40
0.999994163616029
40
1
40
1
40
1
40
1
41
1
10
-0.400000000000034
20
-10.7720903270618
30
0
41
1
10
-0.394111355098573
20
-10.7726946640025
30
0
41
1
10
-0.387638990857908
20
-10.7735074107736
30
0
41
1
10
-0.374999497999227
20
-10.7755463299797
30
0
41
1
10
-0.368988434639903
20
-10.7766582562045
30
0
41
1
10
-0.357779191188456
20
-10.7790947211554
30
0
41
1
10
-0.352573525529351
20
-10.7803510360362
30
0
41
1
10
-0.342444927003157
20
-10.7830631767083
30
0
41
1
10
-0.337408731680853
20
-10.7845489216127
30
0
41
1
10
-0.326477488214323
20
-10.7880399886084
30
0
41
1
10
-0.320718590221418
20
-10.790094933621
30
0
41
1
10
-0.306589885788867
20
-10.7955138573257
30
0
41
1
10
-0.299229318200901
20
-10.7987886768127
30
0
41
1
10
-0.273318263088015
20
-10.8111744132949
30
0
41
1
10
-0.26176150519791
20
-10.8187552826324
30
0
41
1
10
-0.212916331686188
20
-10.8527221106266
30
0
41
1
10
-0.206214896622498
20
-10.8665219361729
30
0
41
1
10
-0.201948096039862
20
-10.8745596594224
30
0
41
1
10
-0.20194762711857
20
-10.8745605427756
30
0
41
1
10
-0.201947158200441
20
-10.8745614261304
30
0
0
SPLINE
5
E9
100
AcDbEntity
8
SK1
62
256
6
ByLayer
370
-1
48
1
60
0
100
AcDbSpline
70
4
71
3
72
79
73
75
40
0
40
0
40
0
40
0
40
0.0064305959485858
40
0.020532581999657
40
0.0346345680507282
40
0.0487365541017994
40
0.0628385401528706
40
0.0769405262039419
40
0.0910425122550131
40
0.105144498306084
40
0.119246484357155
40
0.133348470408227
40
0.147450456459298
40
0.161552442510369
40
0.17565442856144
40
0.189756414612512
40
0.203858400663583
40
0.217960386714654
40
0.232062372765725
40
0.246164358816796
40
0.260266344867868
40
0.274368330918939
40
0.28847031697001
40
0.302572303021081
40
0.316674289072153
40
0.330776275123224
40
0.344878261174295
40
0.358980247225366
40
0.373082233276437
40
0.387184219327509
40
0.40128620537858
40
0.415388191429651
40
0.429490177480722
40
0.443592163531793
40
0.457694149582865
40
0.471796135633936
40
0.485898121685007
40
0.500000107736078
40
0.514102093787149
40
0.528204079838221
40
0.542306065889292
40
0.556408051940363
40
0.570510037991434
40
0.584612024042506
40
0.598714010093577
40
0.612815996144648
40
0.626917982195719
40
0.64101996824679
40
0.655121954297862
40
0.669223940348933
40
0.683325926400004
40
0.697427912451075
40
0.711529898502147
40
0.725631884553218
40
0.739733870604289
40
0.75383585665536
40
0.767937842706431
40
0.782039828757502
40
0.796141814808574
40
0.810243800859645
40
0.824345786910716
40
0.838447772961787
40
0.852549759012859
40
0.86665174506393
40
0.880753731115001
40
0.894855717166072
40
0.908957703217143
40
0.923059689268215
40
0.937161675319286
40
0.951263661370357
40
0.965365647421428
40
0.979467633472499
40
0.993569619523571
40
1
40
1
40
1
40
1
41
1
10
-2.5
20
-10.8686550022965
30
0
41
1
10
-2.5
20
-10.8790746710983
30
0
41
1
10
-2.5
20
-10.9108282721617
30
0
41
1
10
-2.5
20
-10.9553895973621
30
0
41
1
10
-2.5
20
-10.9911639635893
30
0
41
1
10
-2.5
20
-11.004418378241
30
0
41
1
10
-2.5
20
-10.9911623984962
30
0
41
1
10
-2.5
20
-10.9474686304738
30
0
41
1
10
-2.5
20
-10.8696664218331
30
0
41
1
10
-2.5
20
-10.7545189459148
30
0
41
1
10
-2.5
20
-10.5993939502378
30
0
41
1
10
-2.5
20
-10.4024076559292
30
0
41
1
10
-2.5
20
-10.1625416635539
30
0
41
1
10
-2.5
20
-9.87972833820902
30
0
41
1
10
-2.5
20
-9.55489716738788
30
0
41
1
10
-2.5
20
-9.18998633548568
30
0
41
1
10
-2.5
20
-8.7879102308668
30
0
41
1
10
-2.5
20
-8.35249429791335
30
0
41
1
10
-2.5
20
-7.88836739733654
30
0
41
1
10
-2.5
20
-7.40083249722349
30
0
41
1
10
-2.5
20
-6.89566660501004
30
0
41
1
10
-2.5
20
-6.37905265294063
30
0
41
1
10
-2.5
20
-5.85717357325984
30
0
41
1
10
-2.5
20
-5.3362171107967
30
0
41
1
10
-2.5
20
-4.82204796703348
30
0
41
1
10
-2.5
20
-4.32005112408754
30
0
41
1
10
-2.5
20
-3.83494636183181
30
0
41
1
10
-2.5
20
-3.37063352515292
30
0
41
1
10
-2.5
20
-2.93006538818366
30
0
41
1
10
-2.5
20
-2.515155240528
30
0
41
1
10
-2.5
20
-2.1267232238333
30
0
41
1
10
-2.5
20
-1.76448070218825
30
0
41
1
10
-2.5
20
-1.4270586722962
30
0
41
1
10
-2.5
20
-1.11207189529088
30
0
41
1
10
-2.5
20
-0.816225686754592
30
0
41
1
10
-2.5
20
-0.535450813753641
30
0
41
1
10
-2.5
20
-0.265073199113004
30
0
41
1
10
-2.5
20
5.5264195E-08
30
0
41
1
10
-2.5
20
0.265072978056168
30
0
41
1
10
-2.5
20
0.535450915490543
30
0
41
1
10
-2.5
20
0.816225500863794
30
0
41
1
10
-2.5
20
1.11207197195026
30
0
41
1
10
-2.5
20
1.42705855154932
30
0
41
1
10
-2.5
20
1.76448074117411
30
0
41
1
10
-2.5
20
2.12672318863659
30
0
41
1
10
-2.5
20
2.51515523478019
30
0
41
1
10
-2.5
20
2.93006544637146
30
0
41
1
10
-2.5
20
3.37063347415665
30
0
41
1
10
-2.5
20
3.83494650762893
30
0
41
1
10
-2.5
20
4.32005103389795
30
0
41
1
10
-2.5
20
4.82204818199463
30
0
41
1
10
-2.5
20
5.33621699307892
30
0
41
1
10
-2.5
20
5.85717382916968
30
0
41
1
10
-2.5
20
6.37904809202519
30
0
41
1
10
-2.5
20
6.89568136104162
30
0
41
1
10
-2.5
20
7.40082874697168
30
0
41
1
10
-2.5
20
7.88836763355843
30
0
41
1
10
-2.5
20
8.35249419387415
30
0
41
1
10
-2.5
20
8.78791041080157
30
0
41
1
10
-2.5
20
9.18998626466617
30
0
41
1
10
-2.5
20
9.55489727073115
30
0
41
1
10
-2.5
20
9.87972830774902
30
0
41
1
10
-2.5
20
10.1625416820507
30
0
41
1
10
-2.5
20
10.4024076666937
30
0
41
1
10
-2.5
20
10.5993938886828
30
0
41
1
10
-2.5
20
10.7545189924614
30
0
41
1
10
-2.5
20
10.8696662972013
30
0
41
1
10
-2.5
20
10.9474689380927
30
0
41
1
10
-2.5
20
10.991161771703
30
0
41
1
10
-2.5
20
11.0044184915466
30
0
41
1
10
-2.5
20
10.9911643916233
30
0
41
1
10
-2.5
20
10.9553894530377
30
0
41
1
10
-2.5
20
10.9108284078484
30
0
41
1
10
-2.5
20
10.8790752665164
30
0
41
1
10
-2.5
20
10.8686559989823
30
0
0
SPLINE
5
EA
100
AcDbEntity
8
SK1
62
256
6
ByLayer
370
-1
48
1
60
0
100
AcDbSpline
70
4
71
3
72
32
73
28
40
0
40
0
40
0
40
0
40
0.365927089807649
40
0.365927089807649
40
0.434988381544102
40
0.434988381544102
40
0.459470391973526
40
0.459470391973526
40
0.484523297819611
40
0.484523297819611
40
0.495000485667551
40
0.495000485667551
40
0.505685328487508
40
0.505685328487508
40
0.512277836854413
40
0.512277836854413
40
0.518861441140287
40
0.518861441140287
40
0.528508909357715
40
0.528508909357715
40
0.546991571884285
40
0.546991571884285
40
0.628302439414124
40
0.628302439414124
40
0.950686415613842
40
0.950686415613842
40
1
40
1
40
1
40
1
41
1
10
-1.5
20
2.30830602436802
30
0
41
1
10
-1.52221751736221
20
2.18593578325891
30
0
41
1
10
-1.5452299933437
20
2.06251508992042
30
0
41
1
10
-1.58645530727239
20
1.92421817182063
30
0
41
1
10
-1.59351669828698
20
1.90246957270816
30
0
41
1
10
-1.60499906250118
20
1.87469947052622
30
0
41
1
10
-1.6082003540161
20
1.8675788212021
30
0
41
1
10
-1.61534084307135
20
1.85393197437202
30
0
41
1
10
-1.61929930659136
20
1.84729792851803
30
0
41
1
10
-1.62596752666457
20
1.83957892922561
30
0
41
1
10
-1.62809255235374
20
1.83750162516705
30
0
41
1
10
-1.63273883786326
20
1.83425727265225
30
0
41
1
10
-1.63534521763034
20
1.8330769398703
30
0
41
1
10
-1.63973359946959
20
1.83275236286212
30
0
41
1
10
-1.64148920088587
20
1.83301807905258
30
0
41
1
10
-1.64485340276019
20
1.83436876713788
30
0
41
1
10
-1.64649922195929
20
1.83546324657846
30
0
41
1
10
-1.65020824529177
20
1.83881160526317
30
0
41
1
10
-1.65218279132313
20
1.84139532031719
30
0
41
1
10
-1.65723177402214
20
1.849484045693
30
0
41
1
10
-1.65984043101901
20
1.85563378259269
30
0
41
1
10
-1.67182065388494
20
1.888941134085
30
0
41
1
10
-1.67632598434432
20
1.91870567173245
30
0
41
1
10
-1.69605916878521
20
2.06239070530873
30
0
41
1
10
-1.69829182976605
20
2.17797320288884
30
0
41
1
10
-1.6997878183206
20
2.3091658731316
30
0
41
1
10
-1.69991061150085
20
2.32659131405609
30
0
41
1
10
-1.69996579751825
20
2.34399454350921
30
0
0
SPLINE
5
EB
100
AcDbEntity
8
SK1
62
256
6
ByLayer
370
-1
48
1
60
0
100
AcDbSpline
70
4
71
3
72
8
73
4
40
0
40
0
40
0
40
0
40
1
40
1
40
1
40
1
41
1
10
-1.5
20
-2.30830715862382
30
0
41
1
10
-1.43992566134762
20
-2.63918814774505
30
0
41
1
10
-1.3741866857074
20
-2.96137434366062
30
0
41
1
10
-1.30710678118675
20
-3.2741000776636
30
0
0
SPLINE
5
EC
100
AcDbEntity
8
SK1
62
256
6
ByLayer
370
-1
48
1
60
0
100
AcDbSpline
70
4
71
3
72
77
73
73
40
0
40
0
40
0
40
0
40
0.0137307202965801
40
0.0280335982065802
40
0.0423364761165802
40
0.0566393540265803
40
0.0709422319365804
40
0.0852451098465804
40
0.0995479877565805
40
0.113850865666581
40
0.128153743576581
40
0.142456621486581
40
0.156759499396581
40
0.171062377306581
40
0.185365255216581
40
0.199668133126581
40
0.213971011036581
40
0.228273888946581
40
0.242576766856581
40
0.256879644766581
40
0.271182522676581
40
0.285485400586581
40
0.299788278496581
40
0.314091156406581
40
0.328394034316581
40
0.342696912226582
40
0.356999790136582
40
0.371302668046582
40
0.385605545956582
40
0.399908423866582
40
0.414211301776582
40
0.428514179686582
40
0.442817057596582
40
0.457119935506582
40
0.471422813416582
40
0.485725691326582
40
0.500028569236582
40
0.514331447146582
40
0.528634325056582
40
0.542937202966582
40
0.557240080876582
40
0.571542958786582
40
0.585845836696583
40
0.600148714606583
40
0.614451592516583
40
0.628754470426583
40
0.643057348336583
40
0.657360226246583
40
0.671663104156583
40
0.685965982066583
40
0.700268859976583
40
0.714571737886583
40
0.728874615796583
40
0.743177493706583
40
0.757480371616583
40
0.771783249526583
40
0.786086127436583
40
0.800389005346583
40
0.814691883256584
40
0.828994761166584
40
0.843297639076584
40
0.857600516986584
40
0.871903394896584
40
0.886206272806584
40
0.900509150716584
40
0.914812028626584
40
0.929114906536584
40
0.943417784446584
40
0.957720662356584
40
0.972023540266584
40
0.986326418176584
40
1
40
1
40
1
40
1
41
1
10
-18.0003154452711
20
10.5149944987008
30
0
41
1
10
-18.0003154452711
20
10.5339393292834
30
0
41
1
10
-18.0003154452711
20
10.5680070257013
30
0
41
1
10
-18.0003154452711
20
10.6020553136752
30
0
41
1
10
-18.0003154452711
20
10.6148401921024
30
0
41
1
10
-18.0003154452711
20
10.6020527865053
30
0
41
1
10
-18.0003154452711
20
10.5599067660982
30
0
41
1
10
-18.0003154452711
20
10.484858493423
30
0
41
1
10
-18.0003154452711
20
10.3737876322681
30
0
41
1
10
-18.0003154452711
20
10.2241542656656
30
0
41
1
10
-18.0003154452711
20
10.0341417476878
30
0
41
1
10
-18.0003154452711
20
9.80276749593034
30
0
41
1
10
-18.0003154452711
20
9.52996627751907
30
0
41
1
10
-18.0003154452711
20
9.21663490521362
30
0
41
1
10
-18.0003154452711
20
8.8646424744737
30
0
41
1
10
-18.0003154452711
20
8.47680090545717
30
0
41
1
10
-18.0003154452711
20
8.0567992885353
30
0
41
1
10
-18.0003154452711
20
7.60910373147829
30
0
41
1
10
-18.0003154452711
20
7.13882469106107
30
0
41
1
10
-18.0003154452711
20
6.65156052719593
30
0
41
1
10
-18.0003154452711
20
6.15321710334797
30
0
41
1
10
-18.0003154452711
20
5.6498182272658
30
0
41
1
10
-18.0003154452711
20
5.14730429921639
30
0
41
1
10
-18.0003154452711
20
4.65133808658862
30
0
41
1
10
-18.0003154452711
20
4.16711263587257
30
0
41
1
10
-18.0003154452711
20
3.69918177457655
30
0
41
1
10
-18.0003154452711
20
3.25130634588356
30
0
41
1
10
-18.0003154452711
20
2.82633530245386
30
0
41
1
10
-18.0003154452711
20
2.4261137374983
30
0
41
1
10
-18.0003154452711
20
2.05143295827557
30
0
41
1
10
-18.0003154452711
20
1.70201461385656
30
0
41
1
10
-18.0003154452711
20
1.37653784078691
30
0
41
1
10
-18.0003154452711
20
1.07270241252968
30
0
41
1
10
-18.0003154452711
20
0.787329494879117
30
0
41
1
10
-18.0003154452711
20
0.5164948882136
30
0
41
1
10
-18.0003154452711
20
0.255688867473765
30
0
41
1
10
-18.0003154452711
20
5.33077298E-08
30
0
41
1
10
-18.0003154452711
20
-0.255689080704769
30
0
41
1
10
-18.0003154452711
20
-0.516494790078411
30
0
41
1
10
-18.0003154452711
20
-0.787329674189039
30
0
41
1
10
-18.0003154452711
20
-1.07270233858418
30
0
41
1
10
-18.0003154452711
20
-1.37653795725913
30
0
41
1
10
-18.0003154452711
20
-1.70201457625086
30
0
41
1
10
-18.0003154452711
20
-2.05143299222624
30
0
41
1
10
-18.0003154452711
20
-2.42611374304263
30
0
41
1
10
-18.0003154452711
20
-2.82633524632604
30
0
41
1
10
-18.0003154452711
20
-3.25130639507444
30
0
41
1
10
-18.0003154452711
20
-3.69918163394095
30
0
41
1
10
-18.0003154452711
20
-4.16711272286926
30
0
41
1
10
-18.0003154452711
20
-4.65133787923756
30
0
41
1
10
-18.0003154452711
20
-5.14730441276672
30
0
41
1
10
-18.0003154452711
20
-5.64981798041566
30
0
41
1
10
-18.0003154452711
20
-6.15322150279795
30
0
41
1
10
-18.0003154452711
20
-6.65154629355717
30
0
41
1
10
-18.0003154452711
20
-7.13882830854649
30
0
41
1
10
-18.0003154452711
20
-7.60910350361911
30
0
41
1
10
-18.0003154452711
20
-8.05679938889131
30
0
41
1
10
-18.0003154452711
20
-8.47680073189244
30
0
41
1
10
-18.0003154452711
20
-8.86464254278607
30
0
41
1
10
-18.0003154452711
20
-9.21663480552891
30
0
41
1
10
-18.0003154452711
20
-9.52996630690072
30
0
41
1
10
-18.0003154452711
20
-9.80276747808841
30
0
41
1
10
-18.0003154452711
20
-10.0341417373043
30
0
41
1
10
-18.0003154452711
20
-10.2241543250414
30
0
41
1
10
-18.0003154452711
20
-10.3737875873693
30
0
41
1
10
-18.0003154452711
20
-10.4848586136426
30
0
41
1
10
-18.0003154452711
20
-10.5599064693696
30
0
41
1
10
-18.0003154452711
20
-10.6020533911088
30
0
41
1
10
-18.0003154452711
20
-10.6148400828081
30
0
41
1
10
-18.0003154452711
20
-10.6020549007945
30
0
41
1
10
-18.0003154452711
20
-10.5680531093257
30
0
41
1
10
-18.0003154452711
20
-10.534078292877
30
0
41
1
10
-18.0003154452711
20
-10.5152309988178
30
0
0
SPLINE
5
ED
100
AcDbEntity
8
SK1
62
256
6
ByLayer
370
-1
48
1
60
0
100
AcDbSpline
70
4
71
3
72
22
73
18
40
0
40
0
40
0
40
0
40
0.0449734260287716
40
0.0449734260287716
40
0.0906738274120162
40
0.0906738274120162
40
0.122638717708356
40
0.122638717708356
40
0.154549770731825
40
0.154549770731825
40
0.201552050367308
40
0.201552050367308
40
0.290895290031139
40
0.290895290031139
40
0.598982552652836
40
0.598982552652836
40
1
40
1
40
1
40
1
41
1
10
-0.400000000000034
20
-4.48934893107537
30
0
41
1
10
-0.420456941468217
20
-4.50752512906291
30
0
41
1
10
-0.44279365957027
20
-4.52452287299627
30
0
41
1
10
-0.492193632877786
20
-4.5532875570679
30
0
41
1
10
-0.520039992485408
20
-4.56524258715393
30
0
41
1
10
-0.570193326457115
20
-4.57628050315313
30
0
41
1
10
-0.592133279247662
20
-4.57814021899074
30
0
41
1
10
-0.634912844043129
20
-4.57562166953767
30
0
41
1
10
-0.656221684239426
20
-4.57125895050498
30
0
41
1
10
-0.705207801022823
20
-4.55499593975378
30
0
41
1
10
-0.732067427106074
20
-4.54046143085233
30
0
41
1
10
-0.801682679231533
20
-4.49257590710445
30
0
41
1
10
-0.839313324772718
20
-4.45345948567501
30
0
41
1
10
-0.985377121353224
20
-4.27336869710479
30
0
41
1
10
-1.0562136843908
20
-4.11001095439886
30
0
41
1
10
-1.19814354028301
20
-3.73039497896576
30
0
41
1
10
-1.25757188978821
20
-3.50503116473169
30
0
41
1
10
-1.30710678118658
20
-3.27410007766451
30
0
0
SPLINE
5
EE
100
AcDbEntity
8
SK1
62
256
6
ByLayer
370
-1
48
1
60
0
100
AcDbSpline
70
4
71
3
72
28
73
24
40
0
40
0
40
0
40
0
40
0.0450694524493022
40
0.0450694524493022
40
0.158809158407753
40
0.158809158407753
40
0.272548864366203
40
0.272548864366203
40
0.386288570324653
40
0.386288570324653
40
0.500028276283104
40
0.500028276283104
40
0.556898129262329
40
0.556898129262329
40
0.613767982241554
40
0.613767982241554
40
0.727507688200005
40
0.727507688200005
40
0.841247394158455
40
0.841247394158455
40
0.954987100116906
40
0.954987100116906
40
1
40
1
40
1
40
1
41
1
10
-19
20
9.99701417807333
30
0
41
1
10
-19
20
9.98518859001805
30
0
41
1
10
-19
20
9.93357483441991
30
0
41
1
10
-19
20
9.64867768984556
30
0
41
1
10
-19
20
9.23780993670169
30
0
41
1
10
-19
20
8.14603193018394
30
0
41
1
10
-19
20
7.43345411730721
30
0
41
1
10
-19
20
5.77837410503321
30
0
41
1
10
-19
20
4.80540193943585
30
0
41
1
10
-19
20
2.62104554533028
30
0
41
1
10
-19
20
1.3838947953009
30
0
41
1
10
-19
20
-0.605684496272232
30
0
41
1
10
-19
20
-1.25707690377641
30
0
41
1
10
-19
20
-2.49720593938528
30
0
41
1
10
-19
20
-3.08077873820474
30
0
41
1
10
-19
20
-4.74586814612971
30
0
41
1
10
-19
20
-5.70718288821723
30
0
41
1
10
-19
20
-7.40302719902536
30
0
41
1
10
-19
20
-8.10117106535407
30
0
41
1
10
-19
20
-9.22362511721823
30
0
41
1
10
-19
20
-9.63194777304707
30
0
41
1
10
-19
20
-9.92641590119132
30
0
41
1
10
-19
20
-9.98028520480736
30
0
41
1
10
-19
20
-9.9946328219296
30
0
0
SPLINE
5
EF
100
AcDbEntity
8
SK1
62
256
6
ByLayer
370
-1
48
1
60
0
100
AcDbSpline
70
4
71
3
72
32
73
28
40
0
40
0
40
0
40
0
40
0.375967902692924
40
0.375967902692924
40
0.444464229653131
40
0.444464229653131
40
0.468990955108136
40
0.468990955108136
40
0.494558645555655
40
0.494558645555655
40
0.504755305769426
40
0.504755305769426
40
0.515140081750197
40
0.515140081750197
40
0.521985618949525
40
0.521985618949525
40
0.528815562517944
40
0.528815562517944
40
0.539106505973226
40
0.539106505973226
40
0.559131898627258
40
0.559131898627258
40
0.632403265174771
40
0.632403265174771
40
0.924267768423137
40
0.924267768423137
40
1
40
1
40
1
40
1
41
1
10
-1.50000000000006
20
-10.7291970110907
30
0
41
1
10
-1.52238821820077
20
-10.710281852142
30
0
41
1
10
-1.54551182698873
20
-10.6896066631374
30
0
41
1
10
-1.58732255241432
20
-10.6788393268745
30
0
41
1
10
-1.59428077326487
20
-10.6776449254147
30
0
41
1
10
-1.60562095811139
20
-10.6782121701821
30
0
41
1
10
-1.60880790601186
20
-10.6785812709992
30
0
41
1
10
-1.61598450313733
20
-10.6801894200945
30
0
41
1
10
-1.62001006403415
20
-10.6814211011701
30
0
41
1
10
-1.62671914901614
20
-10.684730344978
30
0
41
1
10
-1.62878476790775
20
-10.6858783555147
30
0
41
1
10
-1.63327245942486
20
-10.6888012949566
30
0
41
1
10
-1.63577098066594
20
-10.6906412359988
30
0
41
1
10
-1.64004954599722
20
-10.6943350345439
30
0
41
1
10
-1.64182373236196
20
-10.6960107552647
30
0
41
1
10
-1.64520857424037
20
-10.699508871149
30
0
41
1
10
-1.64685684987228
20
-10.7013674400397
30
0
41
1
10
-1.65062968719053
20
-10.705938586449
30
0
41
1
10
-1.65264929056326
20
-10.7086849260755
30
0
41
1
10
-1.65785750074656
20
-10.7163178808146
30
0
41
1
10
-1.66053888902616
20
-10.720995730557
30
0
41
1
10
-1.67118601277627
20
-10.7411944588538
30
0
41
1
10
-1.67553327655526
20
-10.7541659981155
30
0
41
1
10
-1.69413704527
20
-10.8147555719656
30
0
41
1
10
-1.69697811933361
20
-10.8517553017774
30
0
41
1
10
-1.69942780046676
20
-10.895169971226
30
0
41
1
10
-1.69973873227127
20
-10.9038635732803
30
0
41
1
10
-1.69989009581764
20
-10.9123175561691
30
0
0
SPLINE
5
F0
100
AcDbEntity
8
SK1
62
256
6
ByLayer
370
-1
48
1
60
0
100
AcDbSpline
70
4
71
3
72
20
73
16
40
0
40
0
40
0
40
0
40
0.140420538696895
40
0.140420538696895
40
0.283113565135699
40
0.283113565135699
40
0.383003749297727
40
0.383003749297727
40
0.482719595028362
40
0.482719595028362
40
0.629860782987078
40
0.629860782987078
40
0.90983598031622
40
0.90983598031622
40
1
40
1
40
1
40
1
41
1
10
-0.400000000000034
20
10.7720903551641
30
0
41
1
10
-0.420485425404365
20
10.7699879927591
30
0
41
1
10
-0.442853612204203
20
10.7679559042768
30
0
41
1
10
-0.492317942748457
20
10.7644479456746
30
0
41
1
10
-0.520199073627055
20
10.7629489681196
30
0
41
1
10
-0.57041474459777
20
10.7615601980511
30
0
41
1
10
-0.592388657551908
20
10.7613257206405
30
0
41
1
10
-0.635222276121908
20
10.7616521249958
30
0
41
1
10
-0.656551809000575
20
10.762210406105
30
0
41
1
10
-0.705635225108949
20
10.7642598717253
30
0
41
1
10
-0.732559682028807
20
10.7660705901044
30
0
41
1
10
-0.802383167639846
20
10.7718500865204
30
0
41
1
10
-0.840123259759594
20
10.7763551487408
30
0
41
1
10
-0.883850457362314
20
10.7820664301106
30
0
41
1
10
-0.894066349533773
20
10.783434797784
30
0
41
1
10
-0.903940088694981
20
10.7847858831467
30
0
0
SPLINE
5
F1
100
AcDbEntity
8
SK1
62
256
6
ByLayer
370
-1
48
1
60
0
100
AcDbSpline
70
4
71
3
72
33
73
29
40
0
40
0
40
0
40
0
40
0.0138898280766864
40
0.0538848653463865
40
0.0938799026160867
40
0.133874939885787
40
0.173869977155487
40
0.213865014425187
40
0.253860051694887
40
0.293855088964587
40
0.333850126234288
40
0.373845163503988
40
0.413840200773688
40
0.453835238043388
40
0.493830275313088
40
0.533825312582788
40
0.573820349852488
40
0.613815387122188
40
0.653810424391889
40
0.693805461661589
40
0.733800498931289
40
0.773795536200989
40
0.813790573470689
40
0.853785610740389
40
0.89378064801009
40
0.93377568527979
40
0.97377072254949
40
1
40
1
40
1
40
1
41
1
10
-1.5
20
-2.30830715862382
30
0
41
1
10
-1.5
20
-2.35274536835021
30
0
41
1
10
-1.5
20
-2.52722590203587
30
0
41
1
10
-1.5
20
-2.84536131291168
30
0
41
1
10
-1.5
20
-3.27800431136151
30
0
41
1
10
-1.5
20
-3.73479546756539
30
0
41
1
10
-1.5
20
-4.2127903847566
30
0
41
1
10
-1.5
20
-4.70809154586752
30
0
41
1
10
-1.5
20
-5.21597581842096
30
0
41
1
10
-1.5
20
-5.73105048063846
30
0
41
1
10
-1.5
20
-6.24743659384492
30
0
41
1
10
-1.5
20
-6.75893656128304
30
0
41
1
10
-1.5
20
-7.25934857263886
30
0
41
1
10
-1.5
20
-7.74247092873685
30
0
41
1
10
-1.5
20
-8.20251481389079
30
0
41
1
10
-1.5
20
-8.63416150202502
30
0
41
1
10
-1.5
20
-9.03277107731486
30
0
41
1
10
-1.5
20
-9.39451017773411
30
0
41
1
10
-1.5
20
-9.71646048768639
30
0
41
1
10
-1.5
20
-9.99668420392302
30
0
41
1
10
-1.5
20
-10.2342567136415
30
0
41
1
10
-1.5
20
-10.4292548968257
30
0
41
1
10
-1.5
20
-10.5827105102703
30
0
41
1
10
-1.5
20
-10.6965242483831
30
0
41
1
10
-1.5
20
-10.7733482106365
30
0
41
1
10
-1.5
20
-10.8164410190789
30
0
41
1
10
-1.5
20
-10.8279984269957
30
0
41
1
10
-1.5
20
-10.8232833841747
30
0
41
1
10
-1.5
20
-10.8197345245299
30
0
0
SPLINE
5
F2
100
AcDbEntity
8
SK1
62
256
6
ByLayer
370
-1
48
1
60
0
100
AcDbSpline
70
4
71
3
72
26
73
22
40
0
40
0
40
0
40
0
40
0.0252822053743131
40
0.0823689313925979
40
0.139455657410883
40
0.196542383429167
40
0.253629109447452
40
0.310715835465737
40
0.367802561484022
40
0.424889287502306
40
0.481976013520591
40
0.539062739538876
40
0.596149465557161
40
0.653236191575446
40
0.71032291759373
40
0.767409643612015
40
0.8244963696303
40
0.881583095648585
40
0.938669821666869
40
0.995756547685154
40
1
40
1
40
1
40
1
41
1
10
-0.400000000000034
20
-4.4893489310777
30
0
41
1
10
-0.400000000000034
20
-4.56250527649343
30
0
41
1
10
-0.400000000000034
20
-4.80241012018314
30
0
41
1
10
-0.400000000000034
20
-5.21597581842096
30
0
41
1
10
-0.400000000000034
20
-5.73105048063846
30
0
41
1
10
-0.400000000000034
20
-6.24743659384492
30
0
41
1
10
-0.400000000000034
20
-6.75893656128304
30
0
41
1
10
-0.400000000000034
20
-7.25934857263886
30
0
41
1
10
-0.400000000000034
20
-7.74247092873685
30
0
41
1
10
-0.400000000000034
20
-8.20251481389079
30
0
41
1
10
-0.400000000000034
20
-8.63416150202502
30
0
41
1
10
-0.400000000000034
20
-9.03277107731486
30
0
41
1
10
-0.400000000000034
20
-9.39451017773413
30
0
41
1
10
-0.400000000000034
20
-9.71646048768639
30
0
41
1
10
-0.400000000000034
20
-9.99668420392302
30
0
41
1
10
-0.400000000000034
20
-10.2342567136415
30
0
41
1
10
-0.400000000000034
20
-10.4292548968257
30
0
41
1
10
-0.400000000000034
20
-10.5827105102703
30
0
41
1
10
-0.400000000000034
20
-10.6965242483831
30
0
41
1
10
-0.400000000000034
20
-10.7496437528317
30
0
41
1
10
-0.400000000000034
20
-10.7706665633893
30
0
41
1
10
-0.400000000000034
20
-10.7720903270618
30
0
0
SPLINE
5
F3
100
AcDbEntity
8
SK1
62
256
6
ByLayer
370
-1
48
1
60
0
100
AcDbSpline
70
4
71
3
72
28
73
24
40
0
40
0
40
0
40
0
40
0.349178244038127
40
0.349178244038127
40
0.441485413895459
40
0.441485413895459
40
0.464418174627259
40
0.464418174627259
40
0.473297759398041
40
0.473297759398041
40
0.482336266147379
40
0.482336266147379
40
0.488860737631369
40
0.488860737631369
40
0.4953513510299
40
0.4953513510299
40
0.506128456733832
40
0.506128456733832
40
0.534013657527057
40
0.534013657527057
40
0.644941898339769
40
0.644941898339769
40
1
40
1
40
1
40
1
41
1
10
-1.69996579738211
20
-2.34399541728098
30
0
41
1
10
-1.69957351800008
20
-2.2202872660603
30
0
41
1
10
-1.6978568428512
20
-2.09468422296274
30
0
41
1
10
-1.67915903600471
20
-1.9362551896819
30
0
41
1
10
-1.67466133865747
20
-1.90240437328657
30
0
41
1
10
-1.66257453306423
20
-1.86273523592695
30
0
41
1
10
-1.65975033602422
20
-1.85482927921262
30
0
41
1
10
-1.65455231119012
20
-1.84507122970734
30
0
41
1
10
-1.65293210062902
20
-1.84245438467247
30
0
41
1
10
-1.64928001329514
20
-1.83786290531623
30
0
41
1
10
-1.64718169695362
20
-1.83585290038428
30
0
41
1
10
-1.64332341703022
20
-1.83361873011964
30
0
41
1
10
-1.64159303361367
20
-1.83304396936836
30
0
41
1
10
-1.6382124463716
20
-1.83273324875088
30
0
41
1
10
-1.63652572409745
20
-1.83298094253604
30
0
41
1
10
-1.63230470511542
20
-1.83441412291407
30
0
41
1
10
-1.62985912301394
20
-1.83609472866004
30
0
41
1
10
-1.62193294237829
20
-1.84325136454726
30
0
41
1
10
-1.61733263266495
20
-1.85052711231805
30
0
41
1
10
-1.59692149956965
20
-1.88783133301965
30
0
41
1
10
-1.58631748354395
20
-1.92357606741402
30
0
41
1
10
-1.54387296204186
20
-2.07163462791979
30
0
41
1
10
-1.52142094847255
20
-2.19032359396863
30
0
41
1
10
-1.5
20
-2.30830715862382
30
0
0
SPLINE
5
F4
100
AcDbEntity
8
SK1
62
256
6
ByLayer
370
-1
48
1
60
0
100
AcDbSpline
70
4
71
3
72
28
73
24
40
0
40
0
40
0
40
0
40
0.343154913050553
40
0.343154913050553
40
0.438240387752228
40
0.438240387752228
40
0.461906262757859
40
0.461906262757859
40
0.470082742892958
40
0.470082742892958
40
0.478403565799421
40
0.478403565799421
40
0.485616048076814
40
0.485616048076814
40
0.49498478208156
40
0.49498478208156
40
0.512255311898736
40
0.512255311898736
40
0.586224098711352
40
0.586224098711352
40
0.878018968214535
40
0.878018968214535
40
1
40
1
40
1
40
1
41
1
10
-1.69989009590069
20
10.912317360478
30
0
41
1
10
-1.69920451821673
20
10.8740263951111
30
0
41
1
10
-1.69726521816682
20
10.8323287812115
30
0
41
1
10
-1.67853907532424
20
10.7628347797173
30
0
41
1
10
-1.67397095661659
20
10.7468498525868
30
0
41
1
10
-1.66077432528931
20
10.7213614533972
30
0
41
1
10
-1.65762501801402
20
10.7157991042865
30
0
41
1
10
-1.65185849839088
20
10.7076227829041
30
0
41
1
10
-1.65019504375897
20
10.7054125901193
30
0
41
1
10
-1.64653422023201
20
10.7009758910414
30
0
41
1
10
-1.64447208533073
20
10.6986885686392
30
0
41
1
10
-1.64056382056441
20
10.6948016115452
30
0
41
1
10
-1.63868158902147
20
10.6931071977885
30
0
41
1
10
-1.63458346791265
20
10.6897506304862
30
0
41
1
10
-1.63236594562102
20
10.6881800310438
30
0
41
1
10
-1.6266026221515
20
10.6845313891021
30
0
41
1
10
-1.62334000067364
20
10.6829911152334
30
0
41
1
10
-1.60794500993575
20
10.6769624806516
30
0
41
1
10
-1.59958172790385
20
10.6775435877503
30
0
41
1
10
-1.56113270181959
20
10.6819813790051
30
0
41
1
10
-1.54173525187014
20
10.6971947890523
30
0
41
1
10
-1.51479102134942
20
10.7170184942906
30
0
41
1
10
-1.50724986451144
20
10.7230716034657
30
0
41
1
10
-1.5
20
10.7291967921706
30
0
0
SPLINE
5
F5
100
AcDbEntity
8
SK1
62
256
6
ByLayer
370
-1
48
1
60
0
100
AcDbSpline
70
4
71
3
72
24
73
20
40
0
40
0
40
0
40
0
40
0.394887530671275
40
0.394887530671275
40
0.583923275334675
40
0.583923275334675
40
0.775640263639324
40
0.775640263639324
40
0.824781731617119
40
0.824781731617119
40
0.862517656538363
40
0.862517656538363
40
0.89426261244368
40
0.89426261244368
40
0.925906833096296
40
0.925906833096296
40
0.974831011730869
40
0.974831011730869
40
1
40
1
40
1
40
1
41
1
10
-1.30710678118658
20
3.27410008506507
30
0
41
1
10
-1.25832942599459
20
3.50149952651384
30
0
41
1
10
-1.19991064580012
20
3.72346664111421
30
0
41
1
10
-1.08384884657397
20
4.0370771437056
30
0
41
1
10
-1.04153791965376
20
4.13675427692158
30
0
41
1
10
-0.938254289261693
20
4.32801751486153
30
0
41
1
10
-0.878155607060592
20
4.42371753851697
30
0
41
1
10
-0.767111712667372
20
4.51729029260753
30
0
41
1
10
-0.741708507810927
20
4.53512787407632
30
0
41
1
10
-0.691958906630077
20
4.55987158851019
30
0
41
1
10
-0.668248724766499
20
4.56845950218982
30
0
41
1
10
-0.622857383271423
20
4.57708046005288
30
0
41
1
10
-0.600993180994863
20
4.57825352233775
30
0
41
1
10
-0.558658423255963
20
4.57453349365301
30
0
41
1
10
-0.537724143555636
20
4.56966479399497
30
0
41
1
10
-0.488248270422446
20
4.55200346897223
30
0
41
1
10
-0.460806462020514
20
4.53627234602419
30
0
41
1
10
-0.423570034054364
20
4.50937867037399
30
0
41
1
10
-0.411500153524855
20
4.49956715918469
30
0
41
1
10
-0.400000000000034
20
4.48934914533075
30
0
0
SPLINE
5
F6
100
AcDbEntity
8
SK1
62
256
6
ByLayer
370
-1
48
1
60
0
100
AcDbSpline
70
4
71
3
72
34
73
30
40
0
40
0
40
0
40
0
40
0.0138699461135972
40
0.0138699461135972
40
0.061537697114
40
0.061537697114
40
0.109189261114138
40
0.109189261114138
40
0.156830572311387
40
0.156830572311387
40
0.252358343228762
40
0.252358343228762
40
0.347829116957435
40
0.347829116957435
40
0.443270849232482
40
0.443270849232482
40
0.538699345849843
40
0.538699345849843
40
0.6341261015298
40
0.6341261015298
40
0.729562062531977
40
0.729562062531977
40
0.825021175251272
40
0.825021175251272
40
0.872655105311735
40
0.872655105311735
40
0.920293090026119
40
0.920293090026119
40
1
40
1
40
1
40
1
41
1
10
-1.69996579738211
20
-2.34399541728098
30
0
41
1
10
-1.69996686313755
20
-2.41640598367121
30
0
41
1
10
-1.69996789580711
20
-2.48843835386174
30
0
41
1
10
-1.69997232375255
20
-2.80617464221731
30
0
41
1
10
-1.6999753518283
20
-3.04785091887862
30
0
41
1
10
-1.69998060299412
20
-3.52111771354691
30
0
41
1
10
-1.6999828378074
20
-3.75308301404428
30
0
41
1
10
-1.69998665823965
20
-4.20691759809461
30
0
41
1
10
-1.6999882494477
20
-4.42906881485823
30
0
41
1
10
-1.69999228100289
20
-5.08095958549046
30
0
41
1
10
-1.69999399832386
20
-5.49674568755356
30
0
41
1
10
-1.69999640677304
20
-6.28665686269224
30
0
41
1
10
-1.69999709786958
20
-6.66206466504687
30
0
41
1
10
-1.69999798189281
20
-7.3708282640267
30
0
41
1
10
-1.69999817407842
20
-7.70515361426863
30
0
41
1
10
-1.69999824533255
20
-8.3306008255654
30
0
41
1
10
-1.69999812372993
20
-8.6225172182109
30
0
41
1
10
-1.69999745591969
20
-9.16128938563259
30
0
41
1
10
-1.69999690935441
20
-9.40881093991047
30
0
41
1
10
-1.69999497540988
20
-9.85604515063557
30
0
41
1
10
-1.69999358833155
20
-10.0563309819064
30
0
41
1
10
-1.69998919708894
20
-10.4051496355369
30
0
41
1
10
-1.69998618942941
20
-10.5541774341773
30
0
41
1
10
-1.69997952914247
20
-10.7345238916283
30
0
41
1
10
-1.69997694129074
20
-10.7874883912928
30
0
41
1
10
-1.69997082738263
20
-10.8781161933101
30
0
41
1
10
-1.6999672899446
20
-10.9158197893435
30
0
41
1
10
-1.69995622914701
20
-10.9944425651824
30
0
41
1
10
-1.69994759490549
20
-11.0208189246444
30
0
41
1
10
-1.69993649660586
20
-11.0201007972386
30
0
0
SPLINE
5
F7
100
AcDbEntity
8
SK1
62
256
6
ByLayer
370
-1
48
1
60
0
100
AcDbSpline
70
4
71
3
72
26
73
22
40
0
40
0
40
0
40
0
40
0.0042434309448905
40
0.0613301591488156
40
0.118416887352741
40
0.175503615556666
40
0.232590343760591
40
0.289677071964516
40
0.346763800168441
40
0.403850528372367
40
0.460937256576292
40
0.518023984780217
40
0.575110712984142
40
0.632197441188068
40
0.689284169391993
40
0.746370897595918
40
0.803457625799843
40
0.860544354003768
40
0.917631082207694
40
0.974717810411619
40
1
40
1
40
1
40
1
41
1
10
-0.400000000000034
20
10.7720903551641
30
0
41
1
10
-0.400000000000034
20
10.7706666069312
30
0
41
1
10
-0.400000000000034
20
10.7496439100427
30
0
41
1
10
-0.400000000000034
20
10.6965241329296
30
0
41
1
10
-0.400000000000034
20
10.5827105539549
30
0
41
1
10
-0.400000000000034
20
10.4292548370654
30
0
41
1
10
-0.400000000000034
20
10.2342567210012
30
0
41
1
10
-0.400000000000034
20
9.99668422428971
30
0
41
1
10
-0.400000000000034
20
9.71646045325278
30
0
41
1
10
-0.400000000000034
20
9.39451028305967
30
0
41
1
10
-0.400000000000034
20
9.03277100198562
30
0
41
1
10
-0.400000000000034
20
8.63416168408222
30
0
41
1
10
-0.400000000000034
20
8.2025147049051
30
0
41
1
10
-0.400000000000034
20
7.74247141428037
30
0
41
1
10
-0.400000000000034
20
7.25934377839385
30
0
41
1
10
-0.400000000000034
20
6.75895136864708
30
0
41
1
10
-0.400000000000034
20
6.24743323087412
30
0
41
1
10
-0.400000000000034
20
5.73105035715909
30
0
41
1
10
-0.400000000000034
20
5.21597569580999
30
0
41
1
10
-0.400000000000034
20
4.80241032436584
30
0
41
1
10
-0.400000000000034
20
4.56250546597264
30
0
41
1
10
-0.400000000000034
20
4.48934914533311
30
0
0
SPLINE
5
F8
100
AcDbEntity
8
SK1
62
256
6
ByLayer
370
-1
48
1
60
0
100
AcDbSpline
70
4
71
3
72
8
73
4
40
0
40
0
40
0
40
0
40
1
40
1
40
1
40
1
41
1
10
-1.30710678118658
20
3.2741000850651
30
0
41
1
10
-1.37418676031894
20
2.96137403161117
30
0
41
1
10
-1.43992527842408
20
2.6391871954711
30
0
41
1
10
-1.5
20
2.30830602436779
30
0
0
SPLINE
5
F9
100
AcDbEntity
8
SK1
62
256
6
ByLayer
370
-1
48
1
60
0
100
AcDbSpline
70
4
71
3
72
26
73
22
40
0
40
0
40
0
40
0
40
0.0008023794763747
40
0.0008023794763747
40
0.38995581805206
40
0.38995581805206
40
0.588411381898546
40
0.588411381898546
40
0.738873838915886
40
0.738873838915886
40
0.814437133741706
40
0.814437133741706
40
0.849669814042658
40
0.849669814042658
40
0.885379597279911
40
0.885379597279911
40
0.917015756722974
40
0.917015756722974
40
0.964291651362238
40
0.964291651362238
40
1
40
1
40
1
40
1
41
1
10
-0.215811086592168
20
10.8563923645235
30
0
41
1
10
-0.21582320181551
20
10.8563793708356
30
0
41
1
10
-0.215835325590888
20
10.856366371465
30
0
41
1
10
-0.221736537161121
20
10.8500406644013
30
0
41
1
10
-0.229595996987712
20
10.842375997527
30
0
41
1
10
-0.248697987408263
20
10.8277247348159
30
0
41
1
10
-0.256401529113873
20
10.8222273926603
30
0
41
1
10
-0.274672330728549
20
10.8111348764243
30
0
41
1
10
-0.284031111048876
20
10.8058441112873
30
0
41
1
10
-0.303862792072039
20
10.7967411489855
30
0
41
1
10
-0.311673384937649
20
10.793419574543
30
0
41
1
10
-0.325697750675374
20
10.78834194919
30
0
41
1
10
-0.330659077403368
20
10.7866628614953
30
0
41
1
10
-0.341238014585599
20
10.7834040520235
30
0
41
1
10
-0.347013203094093
20
10.7817865260973
30
0
41
1
10
-0.357712157030278
20
10.77910778386
30
0
41
1
10
-0.362775636738434
20
10.7779724373213
30
0
41
1
10
-0.374620388322228
20
10.7755812023392
30
0
41
1
10
-0.381238297735365
20
10.7744865169402
30
0
41
1
10
-0.391758607838881
20
10.773005485568
30
0
41
1
10
-0.396007428966925
20
10.7725001016588
30
0
41
1
10
-0.400000000000091
20
10.7720903551647
30
0
0
SPLINE
5
FA
100
AcDbEntity
8
SK1
62
256
6
ByLayer
370
-1
48
1
60
0
100
AcDbSpline
70
4
71
3
72
10
73
6
40
0
40
0
40
0
40
0
40
0.5
40
0.5
40
1
40
1
40
1
40
1
41
1
10
-1.69996579751438
20
2.34399454350793
30
0
41
1
10
-1.82597576019367
20
1.61001532399777
30
0
41
1
10
-1.92804003196062
20
0.809037898581778
30
0
41
1
10
-1.92909522738216
20
-0.795359530273288
30
0
41
1
10
-1.82836818305549
20
-1.5960753900805
30
0
41
1
10
-1.69996579738211
20
-2.34399541728104
30
0
0
SPLINE
5
FB
100
AcDbEntity
8
SK1
62
256
6
ByLayer
370
-1
48
1
60
0
100
AcDbSpline
70
4
71
3
72
34
73
30
40
0
40
0
40
0
40
0
40
0.0112669685429872
40
0.0112669685429872
40
0.0589394571072341
40
0.0589394571072341
40
0.15453598693254
40
0.15453598693254
40
0.250071361960799
40
0.250071361960799
40
0.345575677081921
40
0.345575677081921
40
0.441065554334213
40
0.441065554334213
40
0.536552664115184
40
0.536552664115184
40
0.632047854665239
40
0.632047854665239
40
0.727564602396907
40
0.727564602396907
40
0.823124579527687
40
0.823124579527687
40
0.870792997061212
40
0.870792997061212
40
0.918469321595649
40
0.918469321595649
40
0.96615777529002
40
0.96615777529002
40
1
40
1
40
1
40
1
41
1
10
-1.69993676286356
20
11.0201001927739
30
0
41
1
10
-1.69993832691932
20
11.0201347387083
30
0
41
1
10
-1.69993984120725
20
11.0196274515765
30
0
41
1
10
-1.69994751366465
20
11.0142188011048
30
0
41
1
10
-1.69995287995744
20
11.000405024139
30
0
41
1
10
-1.69996695296891
20
10.9332843475555
30
0
41
1
10
-1.69997367173841
20
10.8542029227334
30
0
41
1
10
-1.69998386152667
20
10.6377999041158
30
0
41
1
10
-1.69998734498478
20
10.5001171728846
30
0
41
1
10
-1.69999246905712
20
10.1728975826325
30
0
41
1
10
-1.69999411792992
20
9.98292332235604
30
0
41
1
10
-1.69999643908523
20
9.55552993499316
30
0
41
1
10
-1.6999971168857
20
9.31759782738115
30
0
41
1
10
-1.69999798411868
20
8.79743010432028
30
0
41
1
10
-1.69999817542509
20
8.51459573987518
30
0
41
1
10
-1.69999824461598
20
7.90689005466763
30
0
41
1
10
-1.69999812267855
20
7.58130243438197
30
0
41
1
10
-1.69999744438479
20
6.8897188186929
30
0
41
1
10
-1.69999688682344
20
6.52282614529054
30
0
41
1
10
-1.69999489291331
20
5.74978712553676
30
0
41
1
10
-1.69999345206901
20
5.34244656677163
30
0
41
1
10
-1.69999000494022
20
4.70303852615055
30
0
41
1
10
-1.69998863813788
20
4.48501546085996
30
0
41
1
10
-1.69998532683127
20
4.03938656106379
30
0
41
1
10
-1.69998338085907
20
3.81152710629337
30
0
41
1
10
-1.69997876258685
20
3.34638056322453
30
0
41
1
10
-1.6999760835148
20
3.10876440414407
30
0
41
1
10
-1.69997079701295
20
2.69478121630701
30
0
41
1
10
-1.69996839509747
20
2.52048785703786
30
0
41
1
10
-1.69996579751813
20
2.34399454350842
30
0
0
SPLINE
5
FC
100
AcDbEntity
8
SK1
62
256
6
ByLayer
370
-1
48
1
60
0
100
AcDbSpline
70
4
71
3
72
20
73
16
40
0
40
0
40
0
40
0
40
0.289591250206954
40
0.289591250206954
40
0.445641579471242
40
0.445641579471242
40
0.565150656188353
40
0.565150656188353
40
0.665669956959896
40
0.665669956959896
40
0.765874026691298
40
0.765874026691298
40
0.920609475720815
40
0.920609475720815
40
1
40
1
40
1
40
1
41
1
10
-0.899903122953674
20
-10.7840848927913
30
0
41
1
10
-0.868449172464352
20
-10.7797260979509
30
0
41
1
10
-0.832767748820572
20
-10.775300420935
30
0
41
1
10
-0.767668067718603
20
-10.7688851018166
30
0
41
1
10
-0.742170086684837
20
-10.7667139324169
30
0
41
1
10
-0.692274786497364
20
-10.7636476309374
30
0
41
1
10
-0.668530490600347
20
-10.7625613907743
30
0
41
1
10
-0.62306916607713
20
-10.7614648455063
30
0
41
1
10
-0.601170315114928
20
-10.7613125350673
30
0
41
1
10
-0.558760887240567
20
-10.7617815137992
30
0
41
1
10
-0.537785827568314
20
-10.7623989525676
30
0
41
1
10
-0.488247839736005
20
-10.7646079926068
30
0
41
1
10
-0.460778861773292
20
-10.7665508551728
30
0
41
1
10
-0.423537546807495
20
-10.7697595930047
30
0
41
1
10
-0.411485089493112
20
-10.7709116409693
30
0
41
1
10
-0.400000000000034
20
-10.7720903270618
30
0
0
SPLINE
5
FD
100
AcDbEntity
8
SK1
62
256
6
ByLayer
370
-1
48
1
60
0
100
AcDbSpline
70
4
71
3
72
26
73
22
40
0
40
0
40
0
40
0
40
0.449738132477954
40
0.449738132477954
40
0.664402002683402
40
0.664402002683402
40
0.7737612207596
40
0.7737612207596
40
0.856245095717807
40
0.856245095717807
40
0.897662328372348
40
0.897662328372348
40
0.91706495237681
40
0.91706495237681
40
0.936734615560887
40
0.936734615560887
40
0.954124174419597
40
0.954124174419597
40
0.979939143819098
40
0.979939143819098
40
1
40
1
40
1
40
1
41
1
10
-0.200000000000046
20
-5.19704273475742
30
0
41
1
10
-0.200000000000046
20
-5.07975410009703
30
0
41
1
10
-0.203466682130625
20
-4.96017714586688
30
0
41
1
10
-0.221693360550034
20
-4.78102610938947
30
0
41
1
10
-0.2295609559024
20
-4.72253456210919
30
0
41
1
10
-0.248699491321418
20
-4.63442555966748
30
0
41
1
10
-0.256413494564128
20
-4.60458658946615
30
0
41
1
10
-0.274681296242647
20
-4.55329063876354
30
0
41
1
10
-0.284007523646267
20
-4.53119508230068
30
0
41
1
10
-0.303744106160423
20
-4.50098594538659
30
0
41
1
10
-0.311509525681402
20
-4.49116741345233
30
0
41
1
10
-0.325471651806765
20
-4.47968016512067
30
0
41
1
10
-0.330427279763057
20
-4.47641864212306
30
0
41
1
10
-0.341006642070965
20
-4.4716078953679
30
0
41
1
10
-0.346789289837659
20
-4.47005622337582
30
0
41
1
10
-0.35750171321132
20
-4.4692526659862
30
0
41
1
10
-0.362570628376432
20
-4.46973139878193
30
0
41
1
10
-0.374383227259841
20
-4.47254618031181
30
0
41
1
10
-0.380971575520618
20
-4.47565191427904
30
0
41
1
10
-0.391577664442764
20
-4.48234828370349
30
0
41
1
10
-0.395922839313982
20
-4.48572633284783
30
0
41
1
10
-0.400000000000148
20
-4.48934893107318
30
0
0
SPLINE
5
FE
100
AcDbEntity
8
SK1
62
256
6
ByLayer
370
-1
48
1
60
0
100
AcDbSpline
70
4
71
3
72
33
73
29
40
0
40
0
40
0
40
0
40
0.0262294113071146
40
0.0662244389595385
40
0.106219466611962
40
0.146214494264386
40
0.18620952191681
40
0.226204549569234
40
0.266199577221658
40
0.306194604874082
40
0.346189632526505
40
0.386184660178929
40
0.426179687831353
40
0.466174715483777
40
0.506169743136201
40
0.546164770788625
40
0.586159798441049
40
0.626154826093472
40
0.666149853745896
40
0.70614488139832
40
0.746139909050744
40
0.786134936703168
40
0.826129964355592
40
0.866124992008016
40
0.906120019660439
40
0.946115047312863
40
0.986110074965287
40
1
40
1
40
1
40
1
41
1
10
-1.5
20
10.8197347433149
30
0
41
1
10
-1.5
20
10.8232836062255
30
0
41
1
10
-1.5
20
10.8279984695651
30
0
41
1
10
-1.5
20
10.8164403957515
30
0
41
1
10
-1.5
20
10.7733485034928
30
0
41
1
10
-1.5
20
10.6965241329296
30
0
41
1
10
-1.5
20
10.5827105539549
30
0
41
1
10
-1.5
20
10.4292548370654
30
0
41
1
10
-1.5
20
10.2342567210012
30
0
41
1
10
-1.5
20
9.99668422428968
30
0
41
1
10
-1.5
20
9.71646045325278
30
0
41
1
10
-1.5
20
9.39451028305967
30
0
41
1
10
-1.5
20
9.03277100198562
30
0
41
1
10
-1.5
20
8.63416168408222
30
0
41
1
10
-1.5
20
8.2025147049051
30
0
41
1
10
-1.5
20
7.74247141428037
30
0
41
1
10
-1.5
20
7.25934377839385
30
0
41
1
10
-1.5
20
6.75895136864708
30
0
41
1
10
-1.5
20
6.24743323087412
30
0
41
1
10
-1.5
20
5.73105035715909
30
0
41
1
10
-1.5
20
5.21597569580999
30
0
41
1
10
-1.5
20
4.70809176356334
30
0
41
1
10
-1.5
20
4.21279029060338
30
0
41
1
10
-1.5
20
3.73479561610898
30
0
41
1
10
-1.5
20
3.27800425826317
30
0
41
1
10
-1.5
20
2.84536147075812
30
0
41
1
10
-1.5
20
2.52722557449198
30
0
41
1
10
-1.5
20
2.35274458205822
30
0
41
1
10
-1.5
20
2.30830602436802
30
0
0
SPLINE
5
FF
100
AcDbEntity
8
SK1
62
256
6
ByLayer
370
-1
48
1
60
0
100
AcDbSpline
70
4
71
3
72
24
73
20
40
0
40
0
40
0
40
0
40
0.0288407257317727
40
0.0288407257317727
40
0.0509955919663311
40
0.0509955919663311
40
0.0683898145862111
40
0.0683898145862111
40
0.0857973114187118
40
0.0857973114187118
40
0.109377904005675
40
0.109377904005675
40
0.151277300634705
40
0.151277300634705
40
0.282099488990439
40
0.282099488990439
40
0.823874497013243
40
0.823874497013243
40
1
40
1
40
1
40
1
41
1
10
-0.400000000000034
20
4.48934914533075
30
0
41
1
10
-0.394116473092879
20
4.48412156647126
30
0
41
1
10
-0.387649558798614
20
4.47936666342238
30
0
41
1
10
-0.375020695476792
20
4.47300024936567
30
0
41
1
10
-0.369015733581705
20
4.47088976573133
30
0
41
1
10
-0.357819037006664
20
4.46928378990089
30
0
41
1
10
-0.352620795543146
20
4.4693378300326
30
0
41
1
10
-0.342504208041191
20
4.47118331490236
30
0
41
1
10
-0.337472714781029
20
4.47299443494018
30
0
41
1
10
-0.326559027546409
20
4.47870654294016
30
0
41
1
10
-0.320811012640036
20
4.4831623835409
30
0
41
1
10
-0.3067126689985
20
4.49677058842062
30
0
41
1
10
-0.299366502504768
20
4.50708193062854
30
0
41
1
10
-0.273512837585713
20
4.55030240434653
30
0
41
1
10
-0.261969797101415
20
4.58649632348286
30
0
41
1
10
-0.213168679495254
20
4.76802497148651
30
0
41
1
10
-0.206388298823185
20
4.91574806320796
30
0
41
1
10
-0.200616563362587
20
5.1048724008445
30
0
41
1
10
-0.20000000000033
20
5.15111693550304
30
0
41
1
10
-0.200000000000046
20
5.19704283599549
30
0
0
SPLINE
5
100
100
AcDbEntity
8
1
62
256
6
ByLayer
370
-1
48
1
60
0
100
AcDbSpline
70
4
71
3
72
18
73
14
40
0
40
0
40
0
40
0
40
0.210893142552694
40
0.210893142552694
40
0.386935943016437
40
0.386935943016437
40
0.564646318392137
40
0.564646318392137
40
0.719649768833064
40
0.719649768833064
40
0.925442409393738
40
0.925442409393738
40
1
40
1
40
1
40
1
41
1
10
61.4619623447128
20
6.6264497972204
30
0
41
1
10
61.4920067298168
20
6.59416093954133
30
0
41
1
10
61.5277795559881
20
6.56559474748914
30
0
41
1
10
61.6013812056197
20
6.52485407099115
30
0
41
1
10
61.6387751151968
20
6.51038782269234
30
0
41
1
10
61.7168597587018
20
6.4933307357872
30
0
41
1
10
61.758753399759
20
6.49072895221619
30
0
41
1
10
61.8341937321506
20
6.49785454987511
30
0
41
1
10
61.8690270024592
20
6.50607182966752
30
0
41
1
10
61.9438222207109
20
6.53399817653445
30
0
41
1
10
61.9830723606716
20
6.55691520541177
30
0
41
1
10
62.0294133100707
20
6.59412593150282
30
0
41
1
10
62.0412237478156
20
6.60474202693786
30
0
41
1
10
62.0523678527347
20
6.61589178889139
30
0
0
SPLINE
5
101
100
AcDbEntity
8
1
62
256
6
ByLayer
370
-1
48
1
60
0
100
AcDbSpline
70
4
71
3
72
16
73
12
40
0
40
0
40
0
40
0
40
0.0611445832257301
40
0.0611445832257301
40
0.285705286888648
40
0.285705286888648
40
0.512923089776806
40
0.512923089776806
40
0.754437013864392
40
0.754437013864392
40
1
40
1
40
1
40
1
41
1
10
62.7766483262257
20
5.7445528469718
30
0
41
1
10
62.776733473804
20
5.7496841587915
30
0
41
1
10
62.7766029480231
20
5.75481582344847
30
0
41
1
10
62.7750002455217
20
5.77851397722401
30
0
41
1
10
62.7707872278955
20
5.79698308986639
30
0
41
1
10
62.7572908975581
20
5.83096140737126
30
0
41
1
10
62.7477900207221
20
5.84687156412704
30
0
41
1
10
62.7244632064786
20
5.8751106929995
30
0
41
1
10
62.7101261664474
20
5.88751801893375
30
0
41
1
10
62.6789952035936
20
5.90695398953739
30
0
41
1
10
62.6618407982706
20
5.91413216135973
30
0
41
1
10
62.6443428431649
20
5.91852092643279
30
0
0
SPLINE
5
102
100
AcDbEntity
8
1
62
256
6
ByLayer
370
-1
48
1
60
0
100
AcDbSpline
70
4
71
3
72
14
73
10
40
0
40
0
40
0
40
0
40
0.0493314155248689
40
0.0493314155248689
40
0.386340073918624
40
0.386340073918624
40
0.833732433544313
40
0.833732433544313
40
1
40
1
40
1
40
1
41
1
10
61.115347921573
20
6.15538473719403
30
0
41
1
10
61.1177385166242
20
6.16005260221354
30
0
41
1
10
61.1200408052759
20
6.16476899388599
30
0
41
1
10
61.1372260736078
20
6.20174391390441
30
0
41
1
10
61.1480466418705
20
6.23620908017037
30
0
41
1
10
61.1629124149397
20
6.31566313158118
30
0
41
1
10
61.1639839840625
20
6.36173462457072
30
0
41
1
10
61.1568230694301
20
6.42185708030243
30
0
41
1
10
61.1539846587282
20
6.43806673824878
30
0
41
1
10
61.1503255013643
20
6.45395915242642
30
0
0
SPLINE
5
103
100
AcDbEntity
8
1
62
256
6
ByLayer
370
-1
48
1
60
0
100
AcDbSpline
70
4
71
3
72
18
73
14
40
0
40
0
40
0
40
0
40
0.206387879206524
40
0.206387879206524
40
0.383219080763831
40
0.383219080763831
40
0.561770485974786
40
0.561770485974786
40
0.71693140260028
40
0.71693140260028
40
0.921927017856735
40
0.921927017856735
40
1
40
1
40
1
40
1
41
1
10
62.3578090474215
20
6.43301441538111
30
0
41
1
10
62.3466621455459
20
6.39089315169181
30
0
41
1
10
62.3412705980507
20
6.34589763589651
30
0
41
1
10
62.3443682910717
20
6.26156573773613
30
0
41
1
10
62.3511186804942
20
6.22138989513067
30
0
41
1
10
62.3759931335151
20
6.14446487329465
30
0
41
1
10
62.394709773007
20
6.10666148085087
30
0
41
1
10
62.4380140158592
20
6.04503758391357
30
0
41
1
10
62.4619845533661
20
6.01926044816656
30
0
41
1
10
62.5217161707042
20
5.96952225188221
30
0
41
1
10
62.5597252278191
20
5.94781254298991
30
0
41
1
10
62.6137014784999
20
5.9271705865709
30
0
41
1
10
62.6289593604898
20
5.92237934823447
30
0
41
1
10
62.6443428431649
20
5.91852092643271
30
0
0
SPLINE
5
104
100
AcDbEntity
8
1
62
256
6
ByLayer
370
-1
48
1
60
0
100
AcDbSpline
70
4
71
3
72
14
73
10
40
0
40
0
40
0
40
0
40
0.259478364305311
40
0.259478364305311
40
0.549827219547296
40
0.549827219547296
40
0.81261942443183
40
0.81261942443183
40
1
40
1
40
1
40
1
41
1
10
61.1255713293723
20
5.07890880375257
30
0
41
1
10
61.1204690820324
20
5.06120636868633
30
0
41
1
10
61.1181992863941
20
5.04214024310986
30
0
41
1
10
61.1204017965723
20
5.00152329342916
30
0
41
1
10
61.1257971136031
20
4.97929643074352
30
0
41
1
10
61.1441283831439
20
4.93991921541451
30
0
41
1
10
61.1566133759878
20
4.92190619039405
30
0
41
1
10
61.1827823652507
20
4.89566318962954
30
0
41
1
10
61.1953203156002
20
4.88586106389414
30
0
41
1
10
61.2087829999019
20
4.87780052593033
30
0
0
SPLINE
5
105
100
AcDbEntity
8
1
62
256
6
ByLayer
370
-1
48
1
60
0
100
AcDbSpline
70
4
71
3
72
16
73
12
40
0
40
0
40
0
40
0
40
0.0648960739146289
40
0.0648960739146289
40
0.289434751081799
40
0.289434751081799
40
0.516841462720464
40
0.516841462720464
40
0.758717845508759
40
0.758717845508759
40
1
40
1
40
1
40
1
41
1
10
60.7069334752106
20
5.77890998220124
30
0
41
1
10
60.7068431524189
20
5.77346679264147
30
0
41
1
10
60.7069952458628
20
5.76800330041169
30
0
41
1
10
60.708738203624
20
5.74384318070486
30
0
41
1
10
60.7130366410132
20
5.72503879103667
30
0
41
1
10
60.7266805821047
20
5.68998234196337
30
0
41
1
10
60.7362497461466
20
5.67331438518011
30
0
41
1
10
60.7596967993425
20
5.64318898995674
30
0
41
1
10
60.7740881972679
20
5.62961367138814
30
0
41
1
10
60.8050167503961
20
5.60779681271782
30
0
41
1
10
60.8218600826157
20
5.59928681194498
30
0
41
1
10
60.8390375336321
20
5.59340229269989
30
0
0
SPLINE
5
106
100
AcDbEntity
8
1
62
256
6
ByLayer
370
-1
48
1
60
0
100
AcDbSpline
70
4
71
3
72
18
73
14
40
0
40
0
40
0
40
0
40
0.213123175941704
40
0.213123175941704
40
0.388778116671717
40
0.388778116671717
40
0.56607446995155
40
0.56607446995155
40
0.721004693027614
40
0.721004693027614
40
0.927195465238636
40
0.927195465238636
40
1
40
1
40
1
40
1
41
1
10
62.021418032081
20
4.88547342191336
30
0
41
1
10
61.9909891649637
20
4.91431565601494
30
0
41
1
10
61.9547049628115
20
4.93958108748464
30
0
41
1
10
61.880477439379
20
4.97507016322419
30
0
41
1
10
61.8430636368421
20
4.98748057575736
30
0
41
1
10
61.7650370721048
20
5.00208668029313
30
0
41
1
10
61.7232294205418
20
5.00430633544732
30
0
41
1
10
61.6479487455515
20
4.99823177359619
30
0
41
1
10
61.6131875183287
20
4.991202623622
30
0
41
1
10
61.5384846748041
20
4.96710018188315
30
0
41
1
10
61.4992851166973
20
4.94717906207379
30
0
41
1
10
61.4533648404645
20
4.91471078280773
30
0
41
1
10
61.4418709804328
20
4.90560982523411
30
0
41
1
10
61.4310125240592
20
4.89603143024229
30
0
0
SPLINE
5
107
100
AcDbEntity
8
1
62
256
6
ByLayer
370
-1
48
1
60
0
100
AcDbSpline
70
4
71
3
72
18
73
14
40
0
40
0
40
0
40
0
40
0.0977511733231258
40
0.0977511733231258
40
0.296355629636234
40
0.296355629636234
40
0.458842505928269
40
0.458842505928269
40
0.621996525723866
40
0.621996525723866
40
0.77691668695526
40
0.77691668695526
40
1
40
1
40
1
40
1
41
1
10
61.1255713293723
20
5.07890880375257
30
0
41
1
10
61.1308379228912
20
5.09718144394006
30
0
41
1
10
61.1348015702948
20
5.11607593559813
30
0
41
1
10
61.1424422133499
20
5.1745697940884
30
0
41
1
10
61.141644252683
20
5.21635195356939
30
0
41
1
10
61.1275183544553
20
5.29250982462102
30
0
41
1
10
61.1162417521985
20
5.32768832704772
30
0
41
1
10
61.0846028393536
20
5.39437215033163
30
0
41
1
10
61.0637673437528
20
5.42670147098252
30
0
41
1
10
61.0172785079783
20
5.48224873831813
30
0
41
1
10
60.9914293039556
20
5.50653222893464
30
0
41
1
10
60.9252466977836
20
5.55625376544251
30
0
41
1
10
60.8824037311328
20
5.57854623381448
30
0
41
1
10
60.839037533632
20
5.59340229269992
30
0
0
SPLINE
5
108
100
AcDbEntity
8
1
62
256
6
ByLayer
370
-1
48
1
60
0
100
AcDbSpline
70
4
71
3
72
14
73
10
40
0
40
0
40
0
40
0
40
0.0515650633254385
40
0.0515650633254385
40
0.388183610732078
40
0.388183610732078
40
0.835836133008392
40
0.835836133008392
40
1
40
1
40
1
40
1
41
1
10
62.3677427278619
20
5.33994001267104
30
0
41
1
10
62.3652433663436
20
5.33511393777391
30
0
41
1
10
62.3628408603868
20
5.33025090894208
30
0
41
1
10
62.3456361258824
20
5.29369765689637
30
0
41
1
10
62.3349007976279
20
5.26049513394946
30
0
41
1
10
62.3202208963953
20
5.18498353476002
30
0
41
1
10
62.3192799036976
20
5.14198134317803
30
0
41
1
10
62.3266039457169
20
5.08680111978103
30
0
41
1
10
62.32943170203
20
5.072184550445
30
0
41
1
10
62.3330538933113
20
5.05790780119085
30
0
0
SPLINE
5
109
100
AcDbEntity
8
1
62
256
6
ByLayer
370
-1
48
1
60
0
100
AcDbSpline
70
4
71
3
72
14
73
10
40
0
40
0
40
0
40
0
40
0.283646483481806
40
0.283646483481806
40
0.570969523646586
40
0.570969523646586
40
0.831319474840643
40
0.831319474840643
40
1
40
1
40
1
40
1
41
1
10
61.4619623447128
20
6.6264497972204
30
0
41
1
10
61.4471701004713
20
6.64234709940894
30
0
41
1
10
61.4292744877686
20
6.65608435113398
30
0
41
1
10
61.3894228825815
20
6.6764559523173
30
0
41
1
10
61.3667836222185
20
6.68327467992347
30
0
41
1
10
61.3227186921001
20
6.68746732357926
30
0
41
1
10
61.3007121504119
20
6.68569309677969
30
0
41
1
10
61.2663804597995
20
6.67634195333275
30
0
41
1
10
61.253109464405
20
6.67097523122629
30
0
41
1
10
61.2407332637949
20
6.6641541235455
30
0
0
SPLINE
5
10A
100
AcDbEntity
8
1
62
256
6
ByLayer
370
-1
48
1
60
0
100
AcDbSpline
70
4
71
3
72
14
73
10
40
0
40
0
40
0
40
0
40
0.28361861718727
40
0.28361861718727
40
0.570384651574562
40
0.570384651574562
40
0.83020146860325
40
0.83020146860325
40
1
40
1
40
1
40
1
41
1
10
60.8455495235767
20
5.94852405385788
30
0
41
1
10
60.825089013704
20
5.94418439746369
30
0
41
1
10
60.8049106069172
20
5.93604606249991
30
0
41
1
10
60.7685574198973
20
5.91259355947096
30
0
41
1
10
60.7518897640157
20
5.89680500265354
30
0
41
1
10
60.7270526993574
20
5.86136001059953
30
0
41
1
10
60.7178885610633
20
5.84165059046515
30
0
41
1
10
60.7090904995274
20
5.80737529216213
30
0
41
1
10
60.7071695100037
20
5.79313432243549
30
0
41
1
10
60.7069334752106
20
5.77890998220124
30
0
0
SPLINE
5
10B
100
AcDbEntity
8
1
62
256
6
ByLayer
370
-1
48
1
60
0
100
AcDbSpline
70
4
71
3
72
16
73
12
40
0
40
0
40
0
40
0
40
0.0609983298189619
40
0.0609983298189619
40
0.284942414466335
40
0.284942414466335
40
0.511537520397933
40
0.511537520397933
40
0.752390501876574
40
0.752390501876574
40
1
40
1
40
1
40
1
41
1
10
62.2428485376414
20
4.85930870562754
30
0
41
1
10
62.2473569356531
20
4.86179349633792
30
0
41
1
10
62.2517655076437
20
4.8644603960519
30
0
41
1
10
62.2716546082563
20
4.87761597545699
30
0
41
1
10
62.2857786116038
20
4.89036646628699
30
0
41
1
10
62.3091029263121
20
4.91866381922213
30
0
41
1
10
62.318551658458
20
4.9345935953414
30
0
41
1
10
62.3323420442282
20
4.96830484037417
30
0
41
1
10
62.3365164035136
20
4.98655517511224
30
0
41
1
10
62.3390890876888
20
5.02263706078483
30
0
41
1
10
62.3373827250335
20
5.04084585159694
30
0
41
1
10
62.3330538933113
20
5.05790780119088
30
0
0
SPLINE
5
10C
100
AcDbEntity
8
1
62
256
6
ByLayer
370
-1
48
1
60
0
100
AcDbSpline
70
4
71
3
72
14
73
10
40
0
40
0
40
0
40
0
40
0.305572259491697
40
0.305572259491697
40
0.598138333063112
40
0.598138333063112
40
0.855635096047091
40
0.855635096047091
40
1
40
1
40
1
40
1
41
1
10
62.3578090474215
20
6.43301441538111
30
0
41
1
10
62.3638325799331
20
6.45577578926702
30
0
41
1
10
62.3659344035827
20
6.48038854095336
30
0
41
1
10
62.36093255716
20
6.52784411204055
30
0
41
1
10
62.3540724600343
20
6.55147344397699
30
0
41
1
10
62.3332217857446
20
6.59168095588413
30
0
41
1
10
62.3198396593303
20
6.60934879978279
30
0
41
1
10
62.2950358330282
20
6.63208988676118
30
0
41
1
10
62.2851993892335
20
6.6394351400622
30
0
41
1
10
62.2747988015344
20
6.64566230324272
30
0
0
SPLINE
5
10D
100
AcDbEntity
8
1
62
256
6
ByLayer
370
-1
48
1
60
0
100
AcDbSpline
70
4
71
3
72
12
73
8
40
0
40
0
40
0
40
0
40
0.463710643404841
40
0.463710643404841
40
0.845240462386311
40
0.845240462386311
40
1
40
1
40
1
40
1
41
1
10
62.6378298710989
20
5.56334289975939
30
0
41
1
10
62.5957743008678
20
5.55063377384767
30
0
41
1
10
62.5539917994324
20
5.53110625091571
30
0
41
1
10
62.4836073836765
20
5.48354043451258
30
0
41
1
10
62.4532410178342
20
5.45701394052887
30
0
41
1
10
62.4162470247344
20
5.41454167650249
30
0
41
1
10
62.4061348807844
20
5.40157708664265
30
0
41
1
10
62.3968046412549
20
5.38813577654645
30
0
0
SPLINE
5
10E
100
AcDbEntity
8
1
62
256
6
ByLayer
370
-1
48
1
60
0
100
AcDbSpline
70
4
71
3
72
14
73
10
40
0
40
0
40
0
40
0
40
0.276415027672827
40
0.276415027672827
40
0.564643361414484
40
0.564643361414484
40
0.825716159414035
40
0.825716159414035
40
1
40
1
40
1
40
1
41
1
10
62.021418032081
20
4.88547342191336
30
0
41
1
10
62.0358657126027
20
4.87177907758476
30
0
41
1
10
62.0532494908885
20
4.86005256425904
30
0
41
1
10
62.0924975956247
20
4.84262400219902
30
0
41
1
10
62.1151548445291
20
4.83696729468815
30
0
41
1
10
62.1593203873822
20
4.83440737426551
30
0
41
1
10
62.1814052115932
20
4.83672790008794
30
0
41
1
10
62.2163156000831
20
4.84662568626413
30
0
41
1
10
62.2300628751417
20
4.8522619241937
30
0
41
1
10
62.2428485376414
20
4.85930870562754
30
0
0
SPLINE
5
10F
100
AcDbEntity
8
1
62
256
6
ByLayer
370
-1
48
1
60
0
100
AcDbSpline
70
4
71
3
72
16
73
12
40
0
40
0
40
0
40
0
40
0.0662038031274406
40
0.0662038031274406
40
0.29010671124923
40
0.29010671124923
40
0.516953201312051
40
0.516953201312051
40
0.758297623007299
40
0.758297623007299
40
1
40
1
40
1
40
1
41
1
10
61.2407332637949
20
6.6641541235455
30
0
41
1
10
61.2358435518439
20
6.66145917274463
30
0
41
1
10
61.2310704924667
20
6.65852920972191
30
0
41
1
10
61.2109208553709
20
6.6448268378609
30
0
41
1
10
61.1968930005073
20
6.63161941257843
30
0
41
1
10
61.1737537334609
20
6.60201715258012
30
0
41
1
10
61.16440305161
20
6.58521536915225
30
0
41
1
10
61.1508110836996
20
6.54939712870356
30
0
41
1
10
61.1467454661792
20
6.52986662745332
30
0
41
1
10
61.1444231927874
20
6.49147474539225
30
0
41
1
10
61.1461240593984
20
6.47220681144302
30
0
41
1
10
61.1503255013643
20
6.45395915242642
30
0
0
SPLINE
5
110
100
AcDbEntity
8
1
62
256
6
ByLayer
370
-1
48
1
60
0
100
AcDbSpline
70
4
71
3
72
14
73
10
40
0
40
0
40
0
40
0
40
0.278438881128022
40
0.278438881128022
40
0.565852862625686
40
0.565852862625686
40
0.826187644038588
40
0.826187644038588
40
1
40
1
40
1
40
1
41
1
10
62.6378298710989
20
5.56334289975939
30
0
41
1
10
62.6579495894327
20
5.56942304638935
30
0
41
1
10
62.6777901552448
20
5.57907177722967
30
0
41
1
10
62.7140432165564
20
5.60515603723249
30
0
41
1
10
62.7308656126272
20
5.62224160291296
30
0
41
1
10
62.7559955501803
20
5.65960473934607
30
0
41
1
10
62.7653039306345
20
5.68001427190421
30
0
41
1
10
62.7743958331934
20
5.71527247727911
30
0
41
1
10
62.7764067336917
20
5.72999357646128
30
0
41
1
10
62.7766483262257
20
5.7445528469718
30
0
0
SPLINE
5
111
100
AcDbEntity
8
1
62
256
6
ByLayer
370
-1
48
1
60
0
100
AcDbSpline
70
4
71
3
72
16
73
12
40
0
40
0
40
0
40
0
40
0.0490572626883162
40
0.0490572626883162
40
0.273967622259204
40
0.273967622259204
40
0.500850404778806
40
0.500850404778806
40
0.741479019258364
40
0.741479019258364
40
1
40
1
40
1
40
1
41
1
10
61.2087829999019
20
4.87780052593033
30
0
41
1
10
61.2123277810021
20
4.87567815256173
30
0
41
1
10
61.2159464183289
20
4.87366734196033
30
0
41
1
10
61.2363463499643
20
4.86317669436246
30
0
41
1
10
61.2545929048999
20
4.85698754849108
30
0
41
1
10
61.2912808959147
20
4.85017758454762
30
0
41
1
10
61.3101883089058
20
4.849505355856
30
0
41
1
10
61.3472704636021
20
4.85340008114784
30
0
41
1
10
61.3657988617915
20
4.85831648971342
30
0
41
1
10
61.4006088259254
20
4.87321939056582
30
0
41
1
10
61.4170521634936
20
4.88371680253422
30
0
41
1
10
61.4310125240592
20
4.89603143024229
30
0
0
SPLINE
5
112
100
AcDbEntity
8
1
62
256
6
ByLayer
370
-1
48
1
60
0
100
AcDbSpline
70
4
71
3
72
12
73
8
40
0
40
0
40
0
40
0
40
0.460193784653477
40
0.460193784653477
40
0.842310761267242
40
0.842310761267242
40
1
40
1
40
1
40
1
41
1
10
60.8455495235767
20
5.94852405385788
30
0
41
1
10
60.8872219659633
20
5.95736274273665
30
0
41
1
10
60.928623211934
20
5.97312930905633
30
0
41
1
10
60.9987527531933
20
6.01511709000079
30
0
41
1
10
61.0291801921528
20
6.03968080063464
30
0
41
1
10
61.0664707915888
20
6.08078712431117
30
0
41
1
10
61.0767832033255
20
6.09366519279322
30
0
41
1
10
61.0862860081803
20
6.10718897331904
30
0
0
SPLINE
5
113
100
AcDbEntity
8
1
62
256
6
ByLayer
370
-1
48
1
60
0
100
AcDbSpline
70
4
71
3
72
16
73
12
40
0
40
0
40
0
40
0
40
0.088920256861949
40
0.088920256861949
40
0.313286728523973
40
0.313286728523973
40
0.54185818128103
40
0.54185818128103
40
0.785990844613551
40
0.785990844613551
40
1
40
1
40
1
40
1
41
1
10
62.2747988015344
20
6.64566230324272
30
0
41
1
10
62.2683989773106
20
6.64949408188079
30
0
41
1
10
62.2617506446941
20
6.65292806062226
30
0
41
1
10
62.2378425315185
20
6.66343778865291
30
0
41
1
10
62.2194009093993
20
6.66823452287247
30
0
41
1
10
62.1824840698003
20
6.67193964912417
30
0
41
1
10
62.1635476418751
20
6.67079885298952
30
0
41
1
10
62.1265733364027
20
6.66291290521696
30
0
41
1
10
62.1082176470595
20
6.65571318864991
30
0
41
1
10
62.0772722445244
20
6.63781231434589
30
0
41
1
10
62.063981521735
20
6.62751135328895
30
0
41
1
10
62.0523678527347
20
6.61589178889139
30
0
0
LINE
5
49
100
AcDbEntity
8
80
62
256
6
ByLayer
370
-1
48
1
60
0
100
AcDbLine
10
0
20
0
30
0
11
-10
21
0
31
0
39
0
210
0
220
0
230
1
0
LINE
5
4A
100
AcDbEntity
8
1
62
256
6
ByLayer
370
-1
48
1
60
0
100
AcDbLine
10
14.5
20
-16
30
0
11
15.42489
21
-12.476611
31
0
39
0
210
0
220
0
230
1
0
LINE
5
4B
100
AcDbEntity
8
1
62
256
6
ByLayer
370
-1
48
1
60
0
100
AcDbLine
10
15.42489
20
12.476611
30
0
11
14.5
21
16
31
0
39
0
210
0
220
0
230
1
0
LINE
5
4C
100
AcDbEntity
8
1
62
256
6
ByLayer
370
-1
48
1
60
0
100
AcDbLine
10
0.3
20
16
30
0
11
0
21
15.7
31
0
39
0
210
0
220
0
230
1
0
LINE
5
4D
100
AcDbEntity
8
1
62
256
6
ByLayer
370
-1
48
1
60
0
100
AcDbLine
10
0
20
-15.7
30
0
11
0.3
21
-16
31
0
39
0
210
0
220
0
230
1
0
LINE
5
4E
100
AcDbEntity
8
1
62
256
6
ByLayer
370
-1
48
1
60
0
100
AcDbLine
10
14.5
20
16
30
0
11
0.3
21
16
31
0
39
0
210
0
220
0
230
1
0
LINE
5
4F
100
AcDbEntity
8
1
62
256
6
ByLayer
370
-1
48
1
60
0
100
AcDbLine
10
0.3
20
-16
30
0
11
14.5
21
-16
31
0
39
0
210
0
220
0
230
1
0
LINE
5
50
100
AcDbEntity
8
1
62
256
6
ByLayer
370
-1
48
1
60
0
100
AcDbLine
10
51.534212
20
8
30
0
11
21.228275
21
8
31
0
39
0
210
0
220
0
230
1
0
LINE
5
51
100
AcDbEntity
8
1
62
256
6
ByLayer
370
-1
48
1
60
0
100
AcDbLine
10
21.228275
20
-8
30
0
11
49.534212
21
-8
31
0
39
0
210
0
220
0
230
1
0
LINE
5
52
100
AcDbEntity
8
1
62
256
6
ByLayer
370
-1
48
1
60
0
100
AcDbLine
10
52.910789
20
8.794767
30
0
11
51.534212
21
8
31
0
39
0
210
0
220
0
230
1
0
LINE
5
53
100
AcDbEntity
8
1
62
256
6
ByLayer
370
-1
48
1
60
0
100
AcDbLine
10
61.13922
20
5.103908
30
0
11
61.140532
21
5.17908
31
0
39
0
210
0
220
0
230
1
0
LINE
5
54
100
AcDbEntity
8
1
62
256
6
ByLayer
370
-1
48
1
60
0
100
AcDbLine
10
62.321341
20
5.159586
30
0
11
62.32003
21
5.084466
31
0
39
0
210
0
220
0
230
1
0
LINE
5
55
100
AcDbEntity
8
1
62
256
6
ByLayer
370
-1
48
1
60
0
100
AcDbLine
10
63.465194
20
5.65521
30
0
11
63.46627
21
5.716858
31
0
39
0
210
0
220
0
230
1
0
LINE
5
56
100
AcDbEntity
8
1
62
256
6
ByLayer
370
-1
48
1
60
0
100
AcDbLine
10
60.016796
20
5.777069
30
0
11
60.01572
21
5.715421
31
0
39
0
210
0
220
0
230
1
0
LINE
5
57
100
AcDbEntity
8
1
62
256
6
ByLayer
370
-1
48
1
60
0
100
AcDbLine
10
62.342708
20
6.32481
30
0
11
62.341398
21
6.249741
31
0
39
0
210
0
220
0
230
1
0
LINE
5
58
100
AcDbEntity
8
1
62
256
6
ByLayer
370
-1
48
1
60
0
100
AcDbLine
10
61.160588
20
6.269183
30
0
11
61.161899
21
6.344303
31
0
39
0
210
0
220
0
230
1
0
LINE
5
59
100
AcDbEntity
8
81
62
256
6
ByLayer
370
-1
48
1
60
0
100
AcDbLine
10
65
20
10.9
30
0
11
75
21
10.9
31
0
39
0
210
0
220
0
230
1
0
LINE
5
5A
100
AcDbEntity
8
SK4
62
256
6
ByLayer
370
-1
48
0.05
60
0
100
AcDbLine
10
-24
20
0
30
0
11
70.574659
21
0
31
0
39
0
210
0
220
0
230
1
0
LINE
5
5C
100
AcDbEntity
8
4
62
256
6
ByLayer
370
-1
48
0.05
60
0
100
AcDbLine
10
0
20
0
30
0
11
89.574659
21
0
31
0
39
0
210
0
220
0
230
1
0
LINE
5
5E
100
AcDbEntity
8
1
62
256
6
ByLayer
370
-1
48
1
60
0
100
AcDbLine
10
7.336603
20
5.068619
30
0
11
7.336603
21
15.175938
31
0
39
0
210
0
220
0
230
1
0
LINE
5
5F
100
AcDbEntity
8
1
62
256
6
ByLayer
370
-1
48
1
60
0
100
AcDbLine
10
21.228275
20
8
30
0
11
21.228275
21
-8
31
0
39
0
210
0
220
0
230
1
0
LINE
5
60
100
AcDbEntity
8
1
62
256
6
ByLayer
370
-1
48
1
60
0
100
AcDbLine
10
61.208578
20
9.593179
30
0
11
61.208578
21
9.59317
31
0
39
0
210
0
220
0
230
1
0
LINE
5
61
100
AcDbEntity
8
1
62
256
6
ByLayer
370
-1
48
1
60
0
100
AcDbLine
10
64.511135
20
-0.157451
30
0
11
64.497349
21
-0.947283
31
0
39
0
210
0
220
0
230
1
0
LINE
5
62
100
AcDbEntity
8
1
62
256
6
ByLayer
370
-1
48
1
60
0
100
AcDbLine
10
56.139953
20
6.84857
30
0
11
56.24295
21
7.019378
31
0
39
0
210
0
220
0
230
1
0
LINE
5
63
100
AcDbEntity
8
1
62
256
6
ByLayer
370
-1
48
1
60
0
100
AcDbLine
10
15.42489
20
-12.476611
30
0
11
15.42489
21
12.476611
31
0
39
0
210
0
220
0
230
1
0
LINE
5
64
100
AcDbEntity
8
1
62
256
6
ByLayer
370
-1
48
1
60
0
100
AcDbLine
10
61.208578
20
9.593179
30
0
11
61.218742
21
10.175516
31
0
39
0
210
0
220
0
230
1
0
LINE
5
65
100
AcDbEntity
8
1
62
256
6
ByLayer
370
-1
48
1
60
0
100
AcDbLine
10
7.076795
20
4.755463
30
0
11
4.923205
21
4.755463
31
0
39
0
210
0
220
0
230
1
0
LINE
5
66
100
AcDbEntity
8
1
62
256
6
ByLayer
370
-1
48
1
60
0
100
AcDbLine
10
4.923205
20
-15.276962
30
0
11
4.923205
21
-4.755463
31
0
39
0
210
0
220
0
230
1
0
LINE
5
67
100
AcDbEntity
8
1
62
256
6
ByLayer
370
-1
48
1
60
0
100
AcDbLine
10
64.511135
20
-0.157451
30
0
11
56.238194
21
4.795822
31
0
39
0
210
0
220
0
230
1
0
LINE
5
68
100
AcDbEntity
8
1
62
256
6
ByLayer
370
-1
48
1
60
0
100
AcDbLine
10
57.96255
20
7.695871
30
0
11
57.855115
21
7.760196
31
0
39
0
210
0
220
0
230
1
0
LINE
5
69
100
AcDbEntity
8
1
62
256
6
ByLayer
370
-1
48
1
60
0
100
AcDbLine
10
49.534212
20
-8
30
0
11
50.915827
21
-7.34879
31
0
39
0
210
0
220
0
230
1
0
LINE
5
6A
100
AcDbEntity
8
1
62
256
6
ByLayer
370
-1
48
1
60
0
100
AcDbLine
10
4.663397
20
-15.175938
30
0
11
4.663397
21
-5.068619
31
0
39
0
210
0
220
0
230
1
0
LINE
5
6B
100
AcDbEntity
8
1
62
256
6
ByLayer
370
-1
48
1
60
0
100
AcDbLine
10
56.144325
20
7.099054
30
0
11
56.247322
21
7.269862
31
0
39
0
210
0
220
0
230
1
0
LINE
5
6C
100
AcDbEntity
8
1
62
256
6
ByLayer
370
-1
48
1
60
0
100
AcDbLine
10
57.277112
20
-4.350466
30
0
11
64.497349
21
-0.947283
31
0
39
0
210
0
220
0
230
1
0
LINE
5
6D
100
AcDbEntity
8
1
62
256
6
ByLayer
370
-1
48
1
60
0
100
AcDbLine
10
7.336603
20
-15.175938
30
0
11
7.336603
21
-5.068619
31
0
39
0
210
0
220
0
230
1
0
LINE
5
6E
100
AcDbEntity
8
1
62
256
6
ByLayer
370
-1
48
1
60
0
100
AcDbLine
10
7.076795
20
-15.276962
30
0
11
7.076795
21
-4.755463
31
0
39
0
210
0
220
0
230
1
0
LINE
5
6F
100
AcDbEntity
8
1
62
256
6
ByLayer
370
-1
48
1
60
0
100
AcDbLine
10
7.076795
20
-15.276962
30
0
11
4.923205
21
-15.276962
31
0
39
0
210
0
220
0
230
1
0
LINE
5
70
100
AcDbEntity
8
1
62
256
6
ByLayer
370
-1
48
1
60
0
100
AcDbLine
10
4.663397
20
5.068619
30
0
11
4.663397
21
15.175938
31
0
39
0
210
0
220
0
230
1
0
LINE
5
71
100
AcDbEntity
8
1
62
256
6
ByLayer
370
-1
48
1
60
0
100
AcDbLine
10
57.958177
20
7.445387
30
0
11
57.962549
21
7.695862
31
0
39
0
210
0
220
0
230
1
0
LINE
5
72
100
AcDbEntity
8
1
62
256
6
ByLayer
370
-1
48
1
60
0
100
AcDbLine
10
0
20
-15.7
30
0
11
0
21
15.7
31
0
39
0
210
0
220
0
230
1
0
LINE
5
73
100
AcDbEntity
8
1
62
256
6
ByLayer
370
-1
48
1
60
0
100
AcDbLine
10
56.035103
20
6.628381
30
0
11
56.039475
21
6.878865
31
0
39
0
210
0
220
0
230
1
0
LINE
5
74
100
AcDbEntity
8
1
62
256
6
ByLayer
370
-1
48
1
60
0
100
AcDbLine
10
4.923205
20
15.276962
30
0
11
7.076795
21
15.276962
31
0
39
0
210
0
220
0
230
1
0
LINE
5
75
100
AcDbEntity
8
1
62
256
6
ByLayer
370
-1
48
1
60
0
100
AcDbLine
10
62.220091
20
10.244046
30
0
11
62.209456
21
9.634775
31
0
39
0
210
0
220
0
230
1
0
LINE
5
76
100
AcDbEntity
8
1
62
256
6
ByLayer
370
-1
48
1
60
0
100
AcDbLine
10
64.411776
20
0.522357
30
0
11
64.521163
21
0.417725
31
0
39
0
210
0
220
0
230
1
0
LINE
5
77
100
AcDbEntity
8
1
62
256
6
ByLayer
370
-1
48
1
60
0
100
AcDbLine
10
0.3
20
-16
30
0
11
0.3
21
16
31
0
39
0
210
0
220
0
230
1
0
LINE
5
78
100
AcDbEntity
8
1
62
256
6
ByLayer
370
-1
48
1
60
0
100
AcDbLine
10
58.315729
20
7.484402
30
0
11
57.962549
21
7.695862
31
0
39
0
210
0
220
0
230
1
0
LINE
5
79
100
AcDbEntity
8
1
62
256
6
ByLayer
370
-1
48
1
60
0
100
AcDbLine
10
14.5
20
-16
30
0
11
14.5
21
16
31
0
39
0
210
0
220
0
230
1
0
LINE
5
7A
100
AcDbEntity
8
1
62
256
6
ByLayer
370
-1
48
1
60
0
100
AcDbLine
10
51.534212
20
8
30
0
11
51.534212
21
7.996671
31
0
39
0
210
0
220
0
230
1
0
LINE
5
7B
100
AcDbEntity
8
1
62
256
6
ByLayer
370
-1
48
1
60
0
100
AcDbLine
10
53.630541
20
9.210052
30
0
11
57.277112
21
-4.350466
31
0
39
0
210
0
220
0
230
1
0
LINE
5
7C
100
AcDbEntity
8
1
62
256
6
ByLayer
370
-1
48
1
60
0
100
AcDbLine
10
50.915827
20
-7.34879
30
0
11
57.277112
21
-4.350466
31
0
39
0
210
0
220
0
230
1
0
LINE
5
7D
100
AcDbEntity
8
1
62
256
6
ByLayer
370
-1
48
1
60
0
100
AcDbLine
10
64.521163
20
0.417725
30
0
11
64.511123
21
-0.157452
31
0
39
0
210
0
220
0
230
1
0
LINE
5
7E
100
AcDbEntity
8
1
62
256
6
ByLayer
370
-1
48
1
60
0
100
AcDbLine
10
64.31762
20
0.539593
30
0
11
64.521163
21
0.417725
31
0
39
0
210
0
220
0
230
1
0
LINE
5
7F
100
AcDbEntity
8
1
62
256
6
ByLayer
370
-1
48
1
60
0
100
AcDbLine
10
61.208578
20
9.593179
30
0
11
57.855115
21
7.760196
31
0
39
0
210
0
220
0
230
1
0
LINE
5
80
100
AcDbEntity
8
1
62
256
6
ByLayer
370
-1
48
1
60
0
100
AcDbLine
10
4.923205
20
-4.755463
30
0
11
7.076795
21
-4.755463
31
0
39
0
210
0
220
0
230
1
0
LINE
5
81
100
AcDbEntity
8
1
62
256
6
ByLayer
370
-1
48
1
60
0
100
AcDbLine
10
57.96255
20
7.695871
30
0
11
57.962549
21
7.695862
31
0
39
0
210
0
220
0
230
1
0
LINE
5
82
100
AcDbEntity
8
1
62
256
6
ByLayer
370
-1
48
1
60
0
100
AcDbLine
10
4.923205
20
4.755463
30
0
11
4.923205
21
15.276962
31
0
39
0
210
0
220
0
230
1
0
LINE
5
83
100
AcDbEntity
8
1
62
256
6
ByLayer
370
-1
48
1
60
0
100
AcDbLine
10
7.076795
20
4.755463
30
0
11
7.076795
21
15.276962
31
0
39
0
210
0
220
0
230
1
0
LINE
5
84
100
AcDbEntity
8
1
62
256
6
ByLayer
370
-1
48
1
60
0
100
AcDbLine
10
58.095843
20
7.362962
30
0
11
57.958177
21
7.445387
31
0
39
0
210
0
220
0
230
1
0
LINE
5
85
100
AcDbEntity
8
1
62
256
6
ByLayer
370
-1
48
1
60
0
100
AcDbLine
10
57.855115
20
7.760187
30
0
11
61.208578
21
9.59317
31
0
39
0
210
0
220
0
230
1
0
LINE
5
86
100
AcDbEntity
8
1
62
256
6
ByLayer
370
-1
48
1
60
0
100
AcDbLine
10
56.24295
20
7.019378
30
0
11
56.247322
21
7.269862
31
0
39
0
210
0
220
0
230
1
0
LINE
5
87
100
AcDbEntity
8
1
62
256
6
ByLayer
370
-1
48
1
60
0
100
AcDbLine
10
56.139953
20
6.84857
30
0
11
56.144325
21
7.099054
31
0
39
0
210
0
220
0
230
1
0
LINE
5
88
100
AcDbEntity
8
SK1
62
256
6
ByLayer
370
-1
48
1
60
0
100
AcDbLine
10
-0.2
20
-5.197043
30
0
11
-0.2
21
-10.883485
31
0
39
0
210
0
220
0
230
1
0
LINE
5
8A
100
AcDbEntity
8
SK1
62
256
6
ByLayer
370
-1
48
1
60
0
100
AcDbLine
10
-0.2
20
10.883485
30
0
11
-0.2
21
5.197043
31
0
39
0
210
0
220
0
230
1
0
LINE
5
8B
100
AcDbEntity
8
SK1
62
256
6
ByLayer
370
-1
48
1
60
0
100
AcDbLine
10
-1.307107
20
3.2741
30
0
11
-1.307107
21
-3.2741
31
0
39
0
210
0
220
0
230
1
0
LINE
5
8C
100
AcDbEntity
8
1
62
256
6
ByLayer
370
-1
48
1
60
0
100
AcDbLine
10
55.981961
20
5.517324
30
0
11
64.231391
21
0.578127
31
0
39
0
210
0
220
0
230
1
0
LINE
5
8D
100
AcDbEntity
8
1
62
256
6
ByLayer
370
-1
48
1
60
0
100
AcDbLine
10
64.410695
20
10.850432
30
0
11
55.993914
21
6.202144
31
0
39
0
210
0
220
0
230
1
0
LINE
5
8E
100
AcDbEntity
8
1
62
256
6
ByLayer
370
-1
48
1
60
0
100
AcDbLine
10
64.83259
20
0.910148
30
0
11
64.99994
21
10.497632
31
0
39
0
210
0
220
0
230
1
0
LINE
5
8F
100
AcDbEntity
8
1
62
256
6
ByLayer
370
-1
48
1
60
0
100
AcDbLine
10
61.086286
20
6.107189
30
0
11
61.08505
21
6.036351
31
0
39
0
210
0
220
0
230
1
0
LINE
5
90
100
AcDbEntity
8
1
62
256
6
ByLayer
370
-1
48
1
60
0
100
AcDbLine
10
61.114111
20
6.084547
30
0
11
61.115348
21
6.155385
31
0
39
0
210
0
220
0
230
1
0
LINE
5
91
100
AcDbEntity
8
1
62
256
6
ByLayer
370
-1
48
1
60
0
100
AcDbLine
10
62.331673
20
4.978799
30
0
11
62.333054
21
5.057908
31
0
39
0
210
0
220
0
230
1
0
LINE
5
92
100
AcDbEntity
8
1
62
256
6
ByLayer
370
-1
48
1
60
0
100
AcDbLine
10
62.642961
20
5.839384
30
0
11
62.644343
21
5.918521
31
0
39
0
210
0
220
0
230
1
0
LINE
5
93
100
AcDbEntity
8
1
62
256
6
ByLayer
370
-1
48
1
60
0
100
AcDbLine
10
62.050987
20
6.536755
30
0
11
62.052368
21
6.615892
31
0
39
0
210
0
220
0
230
1
0
LINE
5
94
100
AcDbEntity
8
1
62
256
6
ByLayer
370
-1
48
1
60
0
100
AcDbLine
10
61.460581
20
6.547313
30
0
11
61.461962
21
6.62645
31
0
39
0
210
0
220
0
230
1
0
LINE
5
95
100
AcDbEntity
8
1
62
256
6
ByLayer
370
-1
48
1
60
0
100
AcDbLine
10
60.844169
20
5.869415
30
0
11
60.84555
21
5.948524
31
0
39
0
210
0
220
0
230
1
0
LINE
5
96
100
AcDbEntity
8
1
62
256
6
ByLayer
370
-1
48
1
60
0
100
AcDbLine
10
61.12419
20
4.999772
30
0
11
61.125571
21
5.078909
31
0
39
0
210
0
220
0
230
1
0
LINE
5
97
100
AcDbEntity
8
2
62
256
6
ByLayer
370
-1
48
1
60
1
100
AcDbLine
10
65
20
0
30
0
11
65.001
21
0.001
31
0
39
0
210
0
220
0
230
1
0
MTEXT
5
114
100
AcDbEntity
8
SK6
62
256
6
ByLayer
370
-1
48
1
60
0
100
AcDbMText
10
0.06233
20
-26.875
30
0
210
0
220
0
230
1
1
\W00.689;\fsimplex.shx,bigfont.shx;C3-STFCR-11065-11-B1 
40
3.5
41
0
44
1.084337
50
0
71
7
72
5
7
DEFAULT
0
DIMENSION
5
148
100
AcDbEntity
8
SK2
62
256
6
ByLayer
370
-3
48
1
60
0
100
AcDbDimension
2
DimnDraft3D1
10
-31.75
20
16
30
0
11
-31.75
21
-4.784211
31
0
70
32
71
5
72
1
41
1
210
0
220
0
230
1
3
Standard
100
AcDbAlignedDimension
13
-2
23
-16
33
0
14
-2
24
16
34
0
50
90
100
AcDbRotatedDimension
1001
ACAD
1000
DSTYLE
1002
{
1070
    74
1070
     0
1070
   279
1070
     0
1070
   172
1070
     1
1070
   173
1070
     1
1070
   340
1005
115
1070
    77
1070
     1
1070
    73
1070
     0
1070
   171
1070
     4
1070
   274
1070
     4
1070
   177
1070
     2
1070
   176
1070
     2
1070
   178
1070
     7
1070
    78
1070
     8
1070
    41
1041
3.175
1070
   147
1041
2.25
1070
    42
1041
2.0
1070
    44
1041
2.0
1070
   140
1041
4.5
1070
   343
1005
149
1070
   344
1005
149
1002
}
0
DIMENSION
5
15B
100
AcDbEntity
8
2
62
256
6
ByLayer
370
-3
48
1
60
0
100
AcDbDimension
2
DimnDraft3D2
10
31.85
20
8
30
0
11
31.85
21
0
31
0
70
32
71
5
72
1
41
1
210
0
220
0
230
1
3
Standard
100
AcDbAlignedDimension
13
16.6
23
8
33
0
14
0
24
0
34
0
50
90
100
AcDbRotatedDimension
1001
ACAD
1000
DSTYLE
1002
{
1070
    74
1070
     0
1070
   279
1070
     0
1070
   172
1070
     1
1070
   173
1070
     1
1070
   340
1005
115
1070
    75
1070
     1
1070
    76
1070
     1
1070
    77
1070
     1
1070
    73
1070
     0
1070
   171
1070
     4
1070
   274
1070
     4
1070
   177
1070
     2
1070
   176
1070
     2
1070
   178
1070
     7
1070
    78
1070
     8
1070
    41
1041
3.175
1070
   147
1041
2.25
1070
    42
1041
2.0
1070
    44
1041
2.0
1070
   140
1041
4.5
1070
   343
1005
149
1070
   344
1005
149
1002
}
0
DIMENSION
5
169
100
AcDbEntity
8
2
62
256
6
ByLayer
370
-3
48
1
60
0
100
AcDbDimension
2
DimnDraft3D3
10
77.25
20
0
30
0
11
77.25
21
21.155
31
0
70
32
71
5
72
1
41
1
210
0
220
0
230
1
3
Standard
100
AcDbAlignedDimension
13
67
23
10.9
33
0
14
67
24
0
34
0
50
90
100
AcDbRotatedDimension
1001
ACAD
1000
DSTYLE
1002
{
1070
    74
1070
     0
1070
   279
1070
     0
1070
   172
1070
     1
1070
   173
1070
     1
1070
   340
1005
115
1070
    77
1070
     1
1070
    73
1070
     0
1070
   171
1070
     4
1070
   274
1070
     4
1070
   177
1070
     2
1070
   176
1070
     2
1070
   178
1070
     7
1070
    78
1070
     8
1070
    41
1041
3.175
1070
   147
1041
2.25
1070
    42
1041
2.0
1070
    44
1041
2.0
1070
   140
1041
4.5
1070
   343
1005
149
1070
   344
1005
149
1002
}
0
DIMENSION
5
177
100
AcDbEntity
8
2
62
256
6
ByLayer
370
-3
48
1
60
0
100
AcDbDimension
2
DimnDraft3D4
10
65
20
38.65
30
0
11
27.336842
21
38.65
31
0
70
32
71
5
72
1
41
1
210
0
220
0
230
1
3
Standard
100
AcDbAlignedDimension
13
0
23
18
33
0
14
65
24
12.9
34
0
50
0
100
AcDbRotatedDimension
1001
ACAD
1000
DSTYLE
1002
{
1070
   279
1070
     0
1070
   172
1070
     1
1070
   173
1070
     1
1070
   340
1005
115
1070
    77
1070
     1
1070
    73
1070
     0
1070
   171
1070
     4
1070
   274
1070
     4
1070
   177
1070
     2
1070
   176
1070
     2
1070
   178
1070
     7
1070
    78
1070
     8
1070
    41
1041
3.175
1070
   147
1041
2.25
1070
    42
1041
2.0
1070
    44
1041
2.0
1070
   140
1041
4.5
1070
   343
1005
149
1070
   344
1005
149
1002
}
0
DIMENSION
5
185
100
AcDbEntity
8
2
62
256
6
ByLayer
370
-3
48
1
60
0
100
AcDbDimension
2
DimnDraft3D5
10
65
20
23.65
30
0
11
35.163158
21
23.65
31
0
70
32
71
5
72
1
41
1
210
0
220
0
230
1
3
Standard
100
AcDbAlignedDimension
13
16.6
23
10
33
0
14
65
24
12.9
34
0
50
0
100
AcDbRotatedDimension
1001
ACAD
1000
DSTYLE
1002
{
1070
   279
1070
     0
1070
   172
1070
     1
1070
   173
1070
     1
1070
   340
1005
115
1070
    77
1070
     1
1070
    73
1070
     0
1070
   171
1070
     4
1070
   274
1070
     4
1070
   177
1070
     2
1070
   176
1070
     2
1070
   178
1070
     7
1070
    78
1070
     8
1070
    41
1041
3.175
1070
   147
1041
2.25
1070
    42
1041
2.0
1070
    44
1041
2.0
1070
   140
1041
4.5
1070
   343
1005
149
1070
   344
1005
149
1002
}
0
DIMENSION
5
193
100
AcDbEntity
8
2
62
256
6
ByLayer
370
-3
48
1
60
0
100
AcDbDimension
2
DimnDraft3D6
10
113.736147
20
0
30
0
11
91.980894
21
-35.936736
31
0
70
34
71
5
72
1
41
1
210
0
220
0
230
1
3
Standard
100
AcDb2LineAngularDimension
13
64.773119
23
-2.09802
33
0
14
63.955856
24
-48.918955
34
0
15
67
25
0
35
0
16
94.546801
26
-30.260654
36
0
40
0
0
ENDSEC
0
SECTION
2
OBJECTS
0
DICTIONARY
5
1c4
330
0
100
AcDbDictionary
280
0
281
1
3
ACAD_GROUP
350
1c5
3
ACAD_MLINESTYLE
350
1c6
0
DICTIONARY
5
1c5
330
0
100
AcDbDictionary
280
0
281
1
0
DICTIONARY
5
1c6
330
0
100
AcDbDictionary
280
0
281
1
3
Standard
350
18
0
MLINESTYLE
5
18
330
1c6
100
AcDbMlineStyle
2
Standard
70
0
3

62
256
51
90
52
90
71
2
49
-0.5
62
256
6
ByLayer
49
0.5
62
256
6
ByLayer
0
RASTERVARIABLES
5
1b2
330

100
AcDbRasterVariables
90
0
70
1
71
1
72
1
0
ENDSEC
0
EOF
