0
SECTION
2
HEADER
9
$ACADVER
1
AC1015
9
$DWGCODEPAGE
3
ANSI_1252
9
$HANDSEED
5
1c1
9
$ANGBASE
50
0
9
$ANGDIR
70
0
9
$ATTMODE
70
1
9
$AUNITS
70
0
9
$AUPREC
70
0
9
$CECOLOR
62
256
9
$CELTSCALE
40
1
9
$CELTYPE
6
ByLayer
9
$CELWEIGHT
370
-1
9
$CLAYER
8
0
9
$CMLJUST
70
0
9
$CMLSCALE
40
1
9
$CMLSTYLE
2
Standard
9
$DIMSTYLE
2
Standard
9
$TEXTSIZE
40
0.2
9
$TEXTSTYLE
7
Standard
9
$LUNITS
70
2
9
$LUPREC
70
4
9
$EXTNAMES
290
1
9
$INSUNITS
70
4
9
$LTSCALE
40
1
9
$LWDISPLAY
290
0
9
$PDMODE
70
0
9
$PDSIZE
40
0
9
$PLINEGEN
70
0
0
ENDSEC
0
SECTION
2
CLASSES
0
CLASS
1
RASTERVARIABLES
2
AcDbRasterVariables
3
ISM
90
0
280
0
281
0
0
ENDSEC
0
SECTION
2
TABLES
0
TABLE
2
VPORT
5
1b7
100
AcDbSymbolTable
0
VPORT
5
1
100
AcDbSymbolTableRecord
100
AcDbViewportTableRecord
2
*Active
70
0
10
0
20
0
11
1
21
1
12
-1
22
1
13
0
23
0
14
0.5
24
0.5
15
10
25
10
16
0
26
0
36
1
17
0
27
0
37
0
0
ENDTAB
0
TABLE
2
LTYPE
5
1b8
100
AcDbSymbolTable
0
LTYPE
5
14
100
AcDbSymbolTableRecord
100
AcDbLinetypeTableRecord
70
0
2
ByBlock
3

72
65
73
0
40
0
0
LTYPE
5
15
100
AcDbSymbolTableRecord
100
AcDbLinetypeTableRecord
70
0
2
ByLayer
3

72
65
73
0
40
0
0
LTYPE
5
16
100
AcDbSymbolTableRecord
100
AcDbLinetypeTableRecord
70
0
2
CONTINUOUS
3
Solid line
72
65
73
0
40
0
0
LTYPE
5
3B
100
AcDbSymbolTableRecord
100
AcDbLinetypeTableRecord
70
0
2
DASHED
3
__ __ __ __ __ __ __ __ __
72
65
73
2
40
25.72
49
12.86
74
0
49
-12.86
74
0
0
LTYPE
5
3C
100
AcDbSymbolTableRecord
100
AcDbLinetypeTableRecord
70
0
2
HIDDEN
3
_ _ _ _ _ _ _ _ _ _ _ _ _ _ _
72
65
73
2
40
0.5
49
0.25
74
0
49
-0.25
74
0
0
LTYPE
5
3D
100
AcDbSymbolTableRecord
100
AcDbLinetypeTableRecord
70
0
2
PHANTOM
3
____ _ _ ____ _ _ _____ _ _ ____
72
65
73
6
40
50.5
49
18
74
0
49
-6.5
74
0
49
6.5
74
0
49
-6.5
74
0
49
6.5
74
0
49
-6.5
74
0
0
LTYPE
5
3E
100
AcDbSymbolTableRecord
100
AcDbLinetypeTableRecord
70
0
2
CENTER
3
____ _ ____ _ ____ _ ____
72
65
73
4
40
47.5
49
22
74
0
49
-8.5
74
0
49
8.5
74
0
49
-8.5
74
0
0
LTYPE
5
3F
100
AcDbSymbolTableRecord
100
AcDbLinetypeTableRecord
70
0
2
DOT
3
.........................
72
65
73
2
40
10
49
0
74
0
49
-10
74
0
0
LTYPE
5
40
100
AcDbSymbolTableRecord
100
AcDbLinetypeTableRecord
70
0
2
DASHDOT
3
_._._._._._._._._._._._._._._._.
72
65
73
4
40
70
49
31
74
0
49
-13
74
0
49
13
74
0
49
-13
74
0
0
ENDTAB
0
TABLE
2
LAYER
5
1b9
100
AcDbSymbolTable
0
LAYER
5
10
100
AcDbSymbolTableRecord
100
AcDbLayerTableRecord
2
0
70
0
62
7
6
CONTINUOUS
290
1
370
-3
390
0
0
LAYER
5
42
100
AcDbSymbolTableRecord
100
AcDbLayerTableRecord
2
80
70
0
62
-6
6
CONTINUOUS
290
1
370
-3
390
0
0
LAYER
5
44
100
AcDbSymbolTableRecord
100
AcDbLayerTableRecord
2
81
70
0
62
-3
6
CONTINUOUS
290
1
370
-3
390
0
0
LAYER
5
46
100
AcDbSymbolTableRecord
100
AcDbLayerTableRecord
2
1
70
0
62
4
6
CONTINUOUS
290
1
370
-3
390
0
0
LAYER
5
48
100
AcDbSymbolTableRecord
100
AcDbLayerTableRecord
2
2
70
0
62
7
6
CONTINUOUS
290
1
370
-3
390
0
0
LAYER
5
5D
100
AcDbSymbolTableRecord
100
AcDbLayerTableRecord
2
4
70
0
62
-2
6
CENTER
290
1
370
-3
390
0
0
LAYER
5
1a3
100
AcDbSymbolTableRecord
100
AcDbLayerTableRecord
2
SK4
70
0
62
2
6
CENTER
290
1
370
-3
390
0
0
LAYER
5
1a4
100
AcDbSymbolTableRecord
100
AcDbLayerTableRecord
2
SK1
70
0
62
4
6
CONTINUOUS
290
1
370
-3
390
0
0
LAYER
5
1a5
100
AcDbSymbolTableRecord
100
AcDbLayerTableRecord
2
SK6
70
0
62
5
6
CONTINUOUS
290
1
370
-3
390
0
0
LAYER
5
1a6
100
AcDbSymbolTableRecord
100
AcDbLayerTableRecord
2
SK2
70
0
62
7
6
CONTINUOUS
290
1
370
-3
390
0
0
ENDTAB
0
TABLE
2
STYLE
5
1ba
100
AcDbSymbolTable
0
STYLE
5
11
100
AcDbSymbolTableRecord
100
AcDbTextStyleTableRecord
2
Standard
3
txt
70
0
71
0
40
0
41
1
42
0
50
0
0
STYLE
5
105
100
AcDbSymbolTableRecord
100
AcDbTextStyleTableRecord
2
DEFAULT
3
simplex.shx
70
0
71
0
40
0
41
1
42
0
50
0
0
STYLE
5
128
100
AcDbSymbolTableRecord
100
AcDbTextStyleTableRecord
2
DWGDirectTextStyle
3
SIMPLEX
70
0
71
0
40
0
41
1
42
0
50
0
0
ENDTAB
0
TABLE
2
DIMSTYLE
5
1bb
100
AcDbSymbolTable
100
AcDbDimStyleTable
0
DIMSTYLE
105
27
100
AcDbSymbolTableRecord
100
AcDbDimStyleTableRecord
2
Standard
70
0
3
<>
41
0.18
42
0.0625
44
0.18
140
0.18
147
0.09
73
0
74
0
77
1
271
2
275
0
278
52
280
0
340
11
0
ENDTAB
0
TABLE
2
VIEW
5
1bc
100
AcDbSymbolTable
0
ENDTAB
0
TABLE
2
UCS
5
1bd
100
AcDbSymbolTable
0
ENDTAB
0
TABLE
2
APPID
5
1be
100
AcDbSymbolTable
0
APPID
5
12
100
AcDbSymbolTableRecord
100
AcDbRegAppTableRecord
2
ACAD
70
0
0
ENDTAB
0
TABLE
2
BLOCK_RECORD
5
1bf
100
AcDbSymbolTable
0
BLOCK_RECORD
5
1F
100
AcDbSymbolTableRecord
100
AcDbBlockTableRecord
2
*Model_Space
340
0
70
0
0
BLOCK_RECORD
5
1B
100
AcDbSymbolTableRecord
100
AcDbBlockTableRecord
2
*Paper_Space
340
0
70
0
0
BLOCK_RECORD
5
23
100
AcDbSymbolTableRecord
100
AcDbBlockTableRecord
2
*Paper_Space0
340
0
70
0
0
BLOCK_RECORD
5
12A
100
AcDbSymbolTableRecord
100
AcDbBlockTableRecord
2
DimnDraft3D1
340
0
70
0
0
BLOCK_RECORD
5
139
100
AcDbSymbolTableRecord
100
AcDbBlockTableRecord
2
_CLOSED
340
0
70
0
0
BLOCK_RECORD
5
140
100
AcDbSymbolTableRecord
100
AcDbBlockTableRecord
2
DimnDraft3D2
340
0
70
0
0
BLOCK_RECORD
5
14C
100
AcDbSymbolTableRecord
100
AcDbBlockTableRecord
2
DimnDraft3D3
340
0
70
0
0
BLOCK_RECORD
5
15A
100
AcDbSymbolTableRecord
100
AcDbBlockTableRecord
2
DimnDraft3D4
340
0
70
0
0
BLOCK_RECORD
5
168
100
AcDbSymbolTableRecord
100
AcDbBlockTableRecord
2
DimnDraft3D5
340
0
70
0
0
BLOCK_RECORD
5
176
100
AcDbSymbolTableRecord
100
AcDbBlockTableRecord
2
DimnDraft3D6
340
0
70
0
0
ENDTAB
0
ENDSEC
0
SECTION
2
BLOCKS
0
BLOCK
5
20
100
AcDbEntity
8
0
100
AcDbBlockBegin
2
*Model_Space
70
0
10
0
20
0
30
0
3
*Model_Space
0
ENDBLK
5
21
100
AcDbEntity
8
0
100
AcDbBlockEnd
0
BLOCK
5
1C
100
AcDbEntity
8
0
100
AcDbBlockBegin
2
*Paper_Space
70
0
10
0
20
0
30
0
3
*Paper_Space
0
ENDBLK
5
1D
100
AcDbEntity
8
0
100
AcDbBlockEnd
0
BLOCK
5
24
100
AcDbEntity
8
0
100
AcDbBlockBegin
2
*Paper_Space0
70
0
10
0
20
0
30
0
3
*Paper_Space0
0
ENDBLK
5
25
100
AcDbEntity
8
0
100
AcDbBlockEnd
0
BLOCK
5
136
100
AcDbEntity
8
0
100
AcDbBlockBegin
2
DimnDraft3D1
70
0
10
0
20
0
30
0
3
DimnDraft3D1
0
MTEXT
5
12B
100
AcDbEntity
8
SK2
62
256
6
ByLayer
370
-1
48
1
60
0
100
AcDbMText
10
-32.875
20
-3.659211
30
0
210
0
220
0
230
1
1
\W01.000;\fsimplex.shx,bigfont.shx;%%c32 
40
4.5
41
0
44
1.084337
50
90
71
7
72
5
7
DEFAULT
0
LINE
5
12D
100
AcDbEntity
8
SK2
62
256
6
ByLayer
370
-1
48
1
60
0
100
AcDbLine
10
-2
20
16
30
0
11
-33.75
21
16
31
0
39
0
210
0
220
0
230
1
0
LINE
5
12E
100
AcDbEntity
8
SK2
62
256
6
ByLayer
370
-1
48
1
60
0
100
AcDbLine
10
-2
20
-16
30
0
11
-33.75
21
-16
31
0
39
0
210
0
220
0
230
1
0
LINE
5
12F
100
AcDbEntity
8
SK2
62
256
6
ByLayer
370
-1
48
1
60
0
100
AcDbLine
10
-31.75
20
16
30
0
11
-31.75
21
-16
31
0
39
0
210
0
220
0
230
1
0
LINE
5
130
100
AcDbEntity
8
SK2
62
256
6
ByLayer
370
-1
48
1
60
0
100
AcDbLine
10
-31.75
20
16
30
0
11
-31.332003
21
12.825002
31
0
39
0
210
0
220
0
230
1
0
LINE
5
131
100
AcDbEntity
8
SK2
62
256
6
ByLayer
370
-1
48
1
60
0
100
AcDbLine
10
-31.75
20
16
30
0
11
-32.167997
21
12.824998
31
0
39
0
210
0
220
0
230
1
0
LINE
5
132
100
AcDbEntity
8
SK2
62
256
6
ByLayer
370
-1
48
1
60
0
100
AcDbLine
10
-31.332003
20
12.825002
30
0
11
-32.167997
21
12.824998
31
0
39
0
210
0
220
0
230
1
0
LINE
5
133
100
AcDbEntity
8
SK2
62
256
6
ByLayer
370
-1
48
1
60
0
100
AcDbLine
10
-31.75
20
-16
30
0
11
-32.167997
21
-12.825002
31
0
39
0
210
0
220
0
230
1
0
LINE
5
134
100
AcDbEntity
8
SK2
62
256
6
ByLayer
370
-1
48
1
60
0
100
AcDbLine
10
-31.75
20
-16
30
0
11
-31.332003
21
-12.824998
31
0
39
0
210
0
220
0
230
1
0
LINE
5
135
100
AcDbEntity
8
SK2
62
256
6
ByLayer
370
-1
48
1
60
0
100
AcDbLine
10
-32.167997
20
-12.825002
30
0
11
-31.332003
21
-12.824998
31
0
39
0
210
0
220
0
230
1
0
ENDBLK
5
137
100
AcDbEntity
8
0
100
AcDbBlockEnd
0
BLOCK
5
13A
100
AcDbEntity
8
0
100
AcDbBlockBegin
2
_CLOSED
70
0
10
0
20
0
30
0
3
_CLOSED
0
LINE
5
13C
100
AcDbEntity
8
0
62
256
6
ByLayer
370
-2
48
1
60
0
100
AcDbLine
10
-1
20
0.166667
30
0
11
0
21
0
31
0
39
0
210
0
220
0
230
1
0
LINE
5
13D
100
AcDbEntity
8
0
62
256
6
ByLayer
370
-2
48
1
60
0
100
AcDbLine
10
0
20
0
30
0
11
-1
21
-0.166667
31
0
39
0
210
0
220
0
230
1
0
LINE
5
13E
100
AcDbEntity
8
0
62
256
6
ByLayer
370
-2
48
1
60
0
100
AcDbLine
10
-1
20
0.166667
30
0
11
-1
21
-0.166667
31
0
39
0
210
0
220
0
230
1
0
LINE
5
13F
100
AcDbEntity
8
0
62
256
6
ByLayer
370
-2
48
1
60
0
100
AcDbLine
10
0
20
0
30
0
11
-1
21
0
31
0
39
0
210
0
220
0
230
1
0
ENDBLK
5
13B
100
AcDbEntity
8
0
100
AcDbBlockEnd
0
BLOCK
5
149
100
AcDbEntity
8
0
100
AcDbBlockBegin
2
DimnDraft3D2
70
0
10
0
20
0
30
0
3
DimnDraft3D2
0
MTEXT
5
141
100
AcDbEntity
8
2
62
256
6
ByLayer
370
-1
48
1
60
0
100
AcDbMText
10
29.525
20
-6.193421
30
0
210
0
220
0
230
1
1
\W01.000;\fsimplex.shx,bigfont.shx;%%c25.0 
40
4.5
41
0
44
1.084337
50
90
71
7
72
5
7
DEFAULT
0
LINE
5
142
100
AcDbEntity
8
2
62
256
6
ByLayer
370
-1
48
1
60
0
100
AcDbLine
10
30.65
20
-12.5
30
0
11
30.65
21
12.5
31
0
39
0
210
0
220
0
230
1
0
LINE
5
143
100
AcDbEntity
8
2
62
256
6
ByLayer
370
-1
48
1
60
0
100
AcDbLine
10
30.65
20
-12.5
30
0
11
30.232003
21
-9.325002
31
0
39
0
210
0
220
0
230
1
0
LINE
5
144
100
AcDbEntity
8
2
62
256
6
ByLayer
370
-1
48
1
60
0
100
AcDbLine
10
30.65
20
-12.5
30
0
11
31.067997
21
-9.324998
31
0
39
0
210
0
220
0
230
1
0
LINE
5
145
100
AcDbEntity
8
2
62
256
6
ByLayer
370
-1
48
1
60
0
100
AcDbLine
10
30.232003
20
-9.325002
30
0
11
31.067997
21
-9.324998
31
0
39
0
210
0
220
0
230
1
0
LINE
5
146
100
AcDbEntity
8
2
62
256
6
ByLayer
370
-1
48
1
60
0
100
AcDbLine
10
30.65
20
12.5
30
0
11
31.067997
21
9.325002
31
0
39
0
210
0
220
0
230
1
0
LINE
5
147
100
AcDbEntity
8
2
62
256
6
ByLayer
370
-1
48
1
60
0
100
AcDbLine
10
30.65
20
12.5
30
0
11
30.232003
21
9.324998
31
0
39
0
210
0
220
0
230
1
0
LINE
5
148
100
AcDbEntity
8
2
62
256
6
ByLayer
370
-1
48
1
60
0
100
AcDbLine
10
31.067997
20
9.325002
30
0
11
30.232003
21
9.324998
31
0
39
0
210
0
220
0
230
1
0
ENDBLK
5
14A
100
AcDbEntity
8
0
100
AcDbBlockEnd
0
BLOCK
5
157
100
AcDbEntity
8
0
100
AcDbBlockBegin
2
DimnDraft3D3
70
0
10
0
20
0
30
0
3
DimnDraft3D3
0
MTEXT
5
14D
100
AcDbEntity
8
2
62
256
6
ByLayer
370
-1
48
1
60
0
100
AcDbMText
10
101.125
20
-11.925658
30
0
210
0
220
0
230
1
1
\W01.000;\fsimplex.shx,bigfont.shx;17.0 
40
4.5
41
0
44
1.084337
50
90
71
7
72
5
7
DEFAULT
0
LINE
5
14E
100
AcDbEntity
8
2
62
256
6
ByLayer
370
-1
48
1
60
0
100
AcDbLine
10
92
20
0
30
0
11
104.25
21
0
31
0
39
0
210
0
220
0
230
1
0
LINE
5
14F
100
AcDbEntity
8
2
62
256
6
ByLayer
370
-1
48
1
60
0
100
AcDbLine
10
92
20
-16.9
30
0
11
104.25
21
-16.9
31
0
39
0
210
0
220
0
230
1
0
LINE
5
150
100
AcDbEntity
8
2
62
256
6
ByLayer
370
-1
48
1
60
0
100
AcDbLine
10
102.25
20
11.25
30
0
11
102.25
21
-28.15
31
0
39
0
210
0
220
0
230
1
0
LINE
5
151
100
AcDbEntity
8
2
62
256
6
ByLayer
370
-1
48
1
60
0
100
AcDbLine
10
102.25
20
0
30
0
11
101.832003
21
3.174998
31
0
39
0
210
0
220
0
230
1
0
LINE
5
152
100
AcDbEntity
8
2
62
256
6
ByLayer
370
-1
48
1
60
0
100
AcDbLine
10
102.25
20
0
30
0
11
102.667997
21
3.175002
31
0
39
0
210
0
220
0
230
1
0
LINE
5
153
100
AcDbEntity
8
2
62
256
6
ByLayer
370
-1
48
1
60
0
100
AcDbLine
10
101.832003
20
3.174998
30
0
11
102.667997
21
3.175002
31
0
39
0
210
0
220
0
230
1
0
LINE
5
154
100
AcDbEntity
8
2
62
256
6
ByLayer
370
-1
48
1
60
0
100
AcDbLine
10
102.25
20
-16.9
30
0
11
102.667997
21
-20.074998
31
0
39
0
210
0
220
0
230
1
0
LINE
5
155
100
AcDbEntity
8
2
62
256
6
ByLayer
370
-1
48
1
60
0
100
AcDbLine
10
102.25
20
-16.9
30
0
11
101.832003
21
-20.075002
31
0
39
0
210
0
220
0
230
1
0
LINE
5
156
100
AcDbEntity
8
2
62
256
6
ByLayer
370
-1
48
1
60
0
100
AcDbLine
10
102.667997
20
-20.074998
30
0
11
101.832003
21
-20.075002
31
0
39
0
210
0
220
0
230
1
0
ENDBLK
5
158
100
AcDbEntity
8
0
100
AcDbBlockEnd
0
BLOCK
5
165
100
AcDbEntity
8
0
100
AcDbBlockBegin
2
DimnDraft3D4
70
0
10
0
20
0
30
0
3
DimnDraft3D4
0
MTEXT
5
15B
100
AcDbEntity
8
2
62
256
6
ByLayer
370
-1
48
1
60
0
100
AcDbMText
10
40.961842
20
-48.025
30
0
210
0
220
0
230
1
1
\W01.000;\fsimplex.shx,bigfont.shx;90.0 
40
4.5
41
0
44
1.084337
50
0
71
7
72
5
7
DEFAULT
0
LINE
5
15C
100
AcDbEntity
8
2
62
256
6
ByLayer
370
-1
48
1
60
0
100
AcDbLine
10
0
20
-18
30
0
11
0
21
-51.15
31
0
39
0
210
0
220
0
230
1
0
LINE
5
15D
100
AcDbEntity
8
2
62
256
6
ByLayer
370
-1
48
1
60
0
100
AcDbLine
10
90
20
-18.9
30
0
11
90
21
-51.15
31
0
39
0
210
0
220
0
230
1
0
LINE
5
15E
100
AcDbEntity
8
2
62
256
6
ByLayer
370
-1
48
1
60
0
100
AcDbLine
10
0
20
-49.15
30
0
11
90
21
-49.15
31
0
39
0
210
0
220
0
230
1
0
LINE
5
15F
100
AcDbEntity
8
2
62
256
6
ByLayer
370
-1
48
1
60
0
100
AcDbLine
10
0
20
-49.15
30
0
11
3.174998
21
-48.732003
31
0
39
0
210
0
220
0
230
1
0
LINE
5
160
100
AcDbEntity
8
2
62
256
6
ByLayer
370
-1
48
1
60
0
100
AcDbLine
10
0
20
-49.15
30
0
11
3.175002
21
-49.567997
31
0
39
0
210
0
220
0
230
1
0
LINE
5
161
100
AcDbEntity
8
2
62
256
6
ByLayer
370
-1
48
1
60
0
100
AcDbLine
10
3.174998
20
-48.732003
30
0
11
3.175002
21
-49.567997
31
0
39
0
210
0
220
0
230
1
0
LINE
5
162
100
AcDbEntity
8
2
62
256
6
ByLayer
370
-1
48
1
60
0
100
AcDbLine
10
90
20
-49.15
30
0
11
86.825002
21
-49.567997
31
0
39
0
210
0
220
0
230
1
0
LINE
5
163
100
AcDbEntity
8
2
62
256
6
ByLayer
370
-1
48
1
60
0
100
AcDbLine
10
90
20
-49.15
30
0
11
86.824998
21
-48.732003
31
0
39
0
210
0
220
0
230
1
0
LINE
5
164
100
AcDbEntity
8
2
62
256
6
ByLayer
370
-1
48
1
60
0
100
AcDbLine
10
86.825002
20
-49.567997
30
0
11
86.824998
21
-48.732003
31
0
39
0
210
0
220
0
230
1
0
ENDBLK
5
166
100
AcDbEntity
8
0
100
AcDbBlockEnd
0
BLOCK
5
173
100
AcDbEntity
8
0
100
AcDbBlockBegin
2
DimnDraft3D5
70
0
10
0
20
0
30
0
3
DimnDraft3D5
0
MTEXT
5
169
100
AcDbEntity
8
2
62
256
6
ByLayer
370
-1
48
1
60
0
100
AcDbMText
10
48.425
20
-33.025
30
0
210
0
220
0
230
1
1
\W01.000;\fsimplex.shx,bigfont.shx;74.6 
40
4.5
41
0
44
1.084337
50
0
71
7
72
5
7
DEFAULT
0
LINE
5
16A
100
AcDbEntity
8
2
62
256
6
ByLayer
370
-1
48
1
60
0
100
AcDbLine
10
15.4
20
-14.5
30
0
11
15.4
21
-36.15
31
0
39
0
210
0
220
0
230
1
0
LINE
5
16B
100
AcDbEntity
8
2
62
256
6
ByLayer
370
-1
48
1
60
0
100
AcDbLine
10
90
20
-18.9
30
0
11
90
21
-36.15
31
0
39
0
210
0
220
0
230
1
0
LINE
5
16C
100
AcDbEntity
8
2
62
256
6
ByLayer
370
-1
48
1
60
0
100
AcDbLine
10
15.4
20
-34.15
30
0
11
90
21
-34.15
31
0
39
0
210
0
220
0
230
1
0
LINE
5
16D
100
AcDbEntity
8
2
62
256
6
ByLayer
370
-1
48
1
60
0
100
AcDbLine
10
15.4
20
-34.15
30
0
11
18.574998
21
-33.732003
31
0
39
0
210
0
220
0
230
1
0
LINE
5
16E
100
AcDbEntity
8
2
62
256
6
ByLayer
370
-1
48
1
60
0
100
AcDbLine
10
15.4
20
-34.15
30
0
11
18.575002
21
-34.567997
31
0
39
0
210
0
220
0
230
1
0
LINE
5
16F
100
AcDbEntity
8
2
62
256
6
ByLayer
370
-1
48
1
60
0
100
AcDbLine
10
18.574998
20
-33.732003
30
0
11
18.575002
21
-34.567997
31
0
39
0
210
0
220
0
230
1
0
LINE
5
170
100
AcDbEntity
8
2
62
256
6
ByLayer
370
-1
48
1
60
0
100
AcDbLine
10
90
20
-34.15
30
0
11
86.825002
21
-34.567997
31
0
39
0
210
0
220
0
230
1
0
LINE
5
171
100
AcDbEntity
8
2
62
256
6
ByLayer
370
-1
48
1
60
0
100
AcDbLine
10
90
20
-34.15
30
0
11
86.824998
21
-33.732003
31
0
39
0
210
0
220
0
230
1
0
LINE
5
172
100
AcDbEntity
8
2
62
256
6
ByLayer
370
-1
48
1
60
0
100
AcDbLine
10
86.825002
20
-34.567997
30
0
11
86.824998
21
-33.732003
31
0
39
0
210
0
220
0
230
1
0
ENDBLK
5
174
100
AcDbEntity
8
0
100
AcDbBlockEnd
0
BLOCK
5
181
100
AcDbEntity
8
0
100
AcDbBlockBegin
2
DimnDraft3D6
70
0
10
0
20
0
30
0
3
DimnDraft3D6
0
MTEXT
5
177
100
AcDbEntity
8
2
62
256
6
ByLayer
370
-1
48
1
60
0
100
AcDbMText
10
112.190171
20
31.938034
30
0
210
0
220
0
230
1
1
\W01.000;\fsimplex.shx,bigfont.shx;93%%d0' 
40
4.5
41
0
44
1.084337
50
316.5
71
7
72
5
7
DEFAULT
0
LINE
5
178
100
AcDbEntity
8
2
62
256
6
ByLayer
370
-1
48
1
60
0
100
AcDbLine
10
89.319633
20
-3.917816
30
0
11
87.024722
21
39.871689
31
0
39
0
210
0
220
0
230
1
0
LINE
5
179
100
AcDbEntity
8
2
62
256
6
ByLayer
370
-1
48
1
60
0
100
AcDbLine
10
92
20
0
30
0
11
129.040715
21
0
31
0
39
0
210
0
220
0
230
1
0
ARC
5
17A
100
AcDbEntity
8
2
62
256
6
ByLayer
370
-1
48
1
60
0
100
AcDbCircle
39
0
10
89.114309
20
0
30
0
40
37.9264068640928
210
0
220
0
230
1
100
AcDbArc
50
0
51
93
0
LINE
5
17B
100
AcDbEntity
8
2
62
256
6
ByLayer
370
-1
48
1
60
0
100
AcDbLine
10
87.129394
20
37.87443
30
0
11
90.289682
21
38.392036
31
0
39
0
210
0
220
0
230
1
0
LINE
5
17C
100
AcDbEntity
8
2
62
256
6
ByLayer
370
-1
48
1
60
0
100
AcDbLine
10
87.129394
20
37.87443
30
0
11
90.315967
21
37.556456
31
0
39
0
210
0
220
0
230
1
0
LINE
5
17D
100
AcDbEntity
8
2
62
256
6
ByLayer
370
-1
48
1
60
0
100
AcDbLine
10
90.289682
20
38.392036
30
0
11
90.315967
21
37.556456
31
0
39
0
210
0
220
0
230
1
0
LINE
5
17E
100
AcDbEntity
8
2
62
256
6
ByLayer
370
-1
48
1
60
0
100
AcDbLine
10
127.040715
20
0
30
0
11
126.556405
21
3.165562
31
0
39
0
210
0
220
0
230
1
0
LINE
5
17F
100
AcDbEntity
8
2
62
256
6
ByLayer
370
-1
48
1
60
0
100
AcDbLine
10
127.040715
20
0
30
0
11
127.392216
21
3.183049
31
0
39
0
210
0
220
0
230
1
0
LINE
5
180
100
AcDbEntity
8
2
62
256
6
ByLayer
370
-1
48
1
60
0
100
AcDbLine
10
126.556405
20
3.165562
30
0
11
127.392216
21
3.183049
31
0
39
0
210
0
220
0
230
1
0
ENDBLK
5
182
100
AcDbEntity
8
0
100
AcDbBlockEnd
0
ENDSEC
0
SECTION
2
ENTITIES
0
ARC
5
89
100
AcDbEntity
8
1
62
256
6
ByLayer
370
-1
48
1
60
0
100
AcDbCircle
39
0
10
-17.726168
20
-15.5
30
0
40
3
210
0
220
0
230
-1
100
AcDbArc
50
14.420773
51
90
0
ARC
5
8A
100
AcDbEntity
8
1
62
256
6
ByLayer
370
-1
48
1
60
0
100
AcDbCircle
39
0
10
-17.726168
20
15.5
30
0
40
3
210
0
220
0
230
-1
100
AcDbArc
50
270
51
345.579227
0
ARC
5
8B
100
AcDbEntity
8
SK1
62
256
6
ByLayer
370
-1
48
1
60
0
100
AcDbCircle
39
0
10
0.6
20
11.8
30
0
40
1
210
0
220
0
230
-1
100
AcDbArc
50
233.130102
51
246.421822
0
ARC
5
8C
100
AcDbEntity
8
SK1
62
256
6
ByLayer
370
-1
48
1
60
0
100
AcDbCircle
39
0
10
0.6
20
-11.8
30
0
40
1
210
0
220
0
230
-1
100
AcDbArc
50
113.578178
51
126.869898
0
ELLIPSE
5
8D
100
AcDbEntity
8
1
62
256
6
ByLayer
370
-1
48
1
60
0
100
AcDbEllipse
10
-0.928203
20
0
30
0
11
7.49393430382698
21
15.7933993222019
31
0
210
0
220
0
230
-1
40
0.341999
41
0.161466571197697
42
1.08757920120044
0
ELLIPSE
5
8E
100
AcDbEntity
8
1
62
256
6
ByLayer
370
-1
48
1
60
0
100
AcDbEllipse
10
12.928203
20
0
30
0
11
7.49393430382674
21
15.7933993222016
31
0
210
0
220
0
230
-1
40
0.341999
41
-2.98012608239209
42
-2.05401345238933
0
ELLIPSE
5
8F
100
AcDbEntity
8
1
62
256
6
ByLayer
370
-1
48
1
60
0
100
AcDbEllipse
10
80.154112
20
-14.205932
30
0
11
-3.19561451121466
21
-0.167475059977418
31
0
210
0
220
0
230
1
40
0.998215
41
-1.6361301134528
42
-0.83775804095731
0
ELLIPSE
5
90
100
AcDbEntity
8
1
62
256
6
ByLayer
370
-1
48
1
60
0
100
AcDbEllipse
10
12.928203
20
0
30
0
11
7.49393430382662
21
-15.7933993222013
31
0
210
0
220
0
230
-1
40
0.341999
41
2.05401345238933
42
2.98012608239209
0
ELLIPSE
5
91
100
AcDbEntity
8
1
62
256
6
ByLayer
370
-1
48
1
60
0
100
AcDbEllipse
10
80.174748
20
-0.778031
30
0
11
-1.49794430213186
21
-0.078503934364414
31
0
210
0
220
0
230
1
40
0.998215
41
2.86624161679942
42
0.77080101756168
0
ELLIPSE
5
92
100
AcDbEntity
8
1
62
256
6
ByLayer
370
-1
48
1
60
0
100
AcDbEllipse
10
80.163651
20
-0.566275
30
0
11
1.49794430213186
21
0.0785039343644141
31
0
210
0
220
0
230
1
40
0.998215
41
-2.26792026907299
42
-1.92082569612751
0
ELLIPSE
5
93
100
AcDbEntity
8
1
62
256
6
ByLayer
370
-1
48
1
60
0
100
AcDbEllipse
10
91.948734
20
-7.269986
30
0
11
-3.19561451121464
21
-0.167475059977417
31
0
210
0
220
0
230
1
40
0.998215
41
-0.616987723654025
42
-0.529363769472418
0
ELLIPSE
5
94
100
AcDbEntity
8
1
62
256
6
ByLayer
370
-1
48
1
60
0
100
AcDbEllipse
10
80.161619
20
-0.527504
30
0
11
1.49794430213186
21
0.0785039343644141
31
0
210
0
220
0
230
1
40
0.998215
41
-3.05768109634923
42
-1.9208174966338
0
ELLIPSE
5
95
100
AcDbEntity
8
1
62
256
6
ByLayer
370
-1
48
1
60
0
100
AcDbEllipse
10
80.161619
20
-0.527504
30
0
11
1.49794430213186
21
0.0785039343644141
31
0
210
0
220
0
230
1
40
0.998215
41
-0.417663796055022
42
-0.083869390657457
0
ELLIPSE
5
96
100
AcDbEntity
8
1
62
256
6
ByLayer
370
-1
48
1
60
0
100
AcDbEllipse
10
80.727995
20
-2.462668
30
0
11
-1.62277299397618
21
-0.0850459288947817
31
0
210
0
220
0
230
1
40
0.998215
41
0.0405217098461862
42
0.924407629803526
0
ELLIPSE
5
97
100
AcDbEntity
8
1
62
256
6
ByLayer
370
-1
48
1
60
0
100
AcDbEllipse
10
80.734873
20
-2.593893
30
0
11
-1.62277299397618
21
-0.0850459288947817
31
0
210
0
220
0
230
1
40
0.998215
41
-0.498363537933492
42
0.924408177739916
0
ELLIPSE
5
98
100
AcDbEntity
8
1
62
256
6
ByLayer
370
-1
48
1
60
0
100
AcDbEllipse
10
80.739093
20
-2.674424
30
0
11
1.77241514177124
21
0.0928883415478655
31
0
210
0
220
0
230
1
40
0.998215
41
2.62171087556609
42
-2.18166156499291
0
ELLIPSE
5
99
100
AcDbEntity
8
1
62
256
6
ByLayer
370
-1
48
1
60
0
100
AcDbEllipse
10
-0.928203
20
0
30
0
11
7.49393430382716
21
-15.7933993222021
31
0
210
0
220
0
230
-1
40
0.341999
41
-1.08757920120044
42
-0.161466571197699
0
ELLIPSE
5
9A
100
AcDbEntity
8
1
62
256
6
ByLayer
370
-1
48
1
60
0
100
AcDbEllipse
10
84.844651
20
-8.715515
30
0
11
3.0671162035353
21
0.160740749030314
31
0
210
0
220
0
230
1
40
0.998215
41
0
42
6.28318530717959
0
ELLIPSE
5
9B
100
AcDbEntity
8
1
62
256
6
ByLayer
370
-1
48
1
60
0
100
AcDbEllipse
10
88.699786
20
-6.448464
30
0
11
0.792911850595115
21
0.0415547492568957
31
0
210
0
220
0
230
1
40
0.998215
41
0
42
0.959931088596797
0
ELLIPSE
5
9C
100
AcDbEntity
8
1
62
256
6
ByLayer
370
-1
48
1
60
0
100
AcDbEllipse
10
80.483324
20
-1.323833
30
0
11
0.792911850595122
21
0.041554749256896
31
0
210
0
220
0
230
1
40
0.998215
41
0.959931088596782
42
3.14159265358969
0
ELLIPSE
5
9D
100
AcDbEntity
8
1
62
256
6
ByLayer
370
-1
48
1
60
0
100
AcDbEllipse
10
84.841463
20
-8.654674
30
0
11
2.99588860426372
21
0.157007868728828
31
0
210
0
220
0
230
1
40
0.998215
41
0
42
6.28318530717959
0
ELLIPSE
5
9E
100
AcDbEntity
8
1
62
256
6
ByLayer
370
-1
48
1
60
0
100
AcDbEllipse
10
80.989516
20
-10.982566
30
0
11
0.792911850595115
21
0.0415547492568957
31
0
210
0
220
0
230
1
40
0.998215
41
3.14159265358978
42
-2.18166156499291
0
ELLIPSE
5
9F
100
AcDbEntity
8
1
62
256
6
ByLayer
370
-1
48
1
60
0
100
AcDbEllipse
10
89.205979
20
-16.107198
30
0
11
0.792911850595122
21
0.041554749256896
31
0
210
0
220
0
230
1
40
0.998215
41
-2.18166156499292
42
4.48245165327984E-15
0
ELLIPSE
5
A0
100
AcDbEntity
8
1
62
256
6
ByLayer
370
-1
48
1
60
0
100
AcDbEllipse
10
84.840983
20
-8.645523
30
0
11
2.94083001014413
21
0.154122370080574
31
0
210
0
220
0
230
1
40
0.998215
41
0
42
6.28318530717959
0
ELLIPSE
5
A1
100
AcDbEntity
8
1
62
256
6
ByLayer
370
-1
48
1
60
0
100
AcDbEllipse
10
84.844119
20
-8.705365
30
0
11
1.67420241501604
21
0.0877412306412935
31
0
210
0
220
0
230
1
40
0.998215
41
2.05076187109329
42
3.09516887460862
0
ELLIPSE
5
A2
100
AcDbEntity
8
1
62
256
6
ByLayer
370
-1
48
1
60
0
100
AcDbEllipse
10
84.839743
20
-8.621858
30
0
11
2.62140252873076
21
0.137381885137725
31
0
210
0
220
0
230
1
40
0.998215
41
3.08913927558478
42
-3.14152262721255
0
ELLIPSE
5
A3
100
AcDbEntity
8
1
62
256
6
ByLayer
370
-1
48
1
60
0
100
AcDbEllipse
10
84.839743
20
-8.621858
30
0
11
2.62140252873076
21
0.137381885137725
31
0
210
0
220
0
230
1
40
0.998215
41
0
42
3.08913928241841
0
ELLIPSE
5
A4
100
AcDbEntity
8
1
62
256
6
ByLayer
370
-1
48
1
60
0
100
AcDbEllipse
10
83.215792
20
-9.575301
30
0
11
-0.685059860841638
21
-0.0359024659826584
31
0
210
0
220
0
230
1
40
0.998215
41
-2.54001306807447
42
-1.87036577437012
0
ELLIPSE
5
A5
100
AcDbEntity
8
1
62
256
6
ByLayer
370
-1
48
1
60
0
100
AcDbEllipse
10
83.455195
20
-8.628699
30
0
11
-0.291599824148336
21
-0.0152820992229393
31
0
210
0
220
0
230
1
40
0.998215
41
0.131289449357369
42
1.27122687921953
0
ELLIPSE
5
A6
100
AcDbEntity
8
1
62
256
6
ByLayer
370
-1
48
1
60
0
100
AcDbEllipse
10
84.843271
20
-8.689179
30
0
11
1.20484653368139
21
0.0631433312071105
31
0
210
0
220
0
230
1
40
0.998215
41
-2.73065974270319
42
-2.59259447587948
0
ELLIPSE
5
A7
100
AcDbEntity
8
1
62
256
6
ByLayer
370
-1
48
1
60
0
100
AcDbEllipse
10
84.839665
20
-8.620366
30
0
11
-1.2048465336814
21
-0.0631433312071102
31
0
210
0
220
0
230
1
40
0.998215
41
-2.5925944758795
42
-1.7748756697844
0
ELLIPSE
5
A8
100
AcDbEntity
8
1
62
256
6
ByLayer
370
-1
48
1
60
0
100
AcDbEllipse
10
84.844119
20
-8.705365
30
0
11
1.67420241501604
21
0.0877412306412935
31
0
210
0
220
0
230
1
40
0.998215
41
-0.0464237789812238
42
1.00635486757809
0
ELLIPSE
5
A9
100
AcDbEntity
8
1
62
256
6
ByLayer
370
-1
48
1
60
0
100
AcDbEllipse
10
84.839665
20
-8.620366
30
0
11
1.2048465336814
21
0.0631433312071106
31
0
210
0
220
0
230
1
40
0.998215
41
-2.73065974270321
42
-2.59259447587945
0
ELLIPSE
5
AA
100
AcDbEntity
8
1
62
256
6
ByLayer
370
-1
48
1
60
0
100
AcDbEllipse
10
84.839665
20
-8.620366
30
0
11
-1.2048465336814
21
-0.0631433312071102
31
0
210
0
220
0
230
1
40
0.998215
41
2.57296537285095
42
-2.8138458851982
0
ELLIPSE
5
AB
100
AcDbEntity
8
1
62
256
6
ByLayer
370
-1
48
1
60
0
100
AcDbEllipse
10
84.839665
20
-8.620366
30
0
11
-1.2048465336814
21
-0.0631433312071102
31
0
210
0
220
0
230
1
40
0.998215
41
-1.41707718012935
42
-0.643465111811041
0
ELLIPSE
5
AC
100
AcDbEntity
8
1
62
256
6
ByLayer
370
-1
48
1
60
0
100
AcDbEllipse
10
84.839665
20
-8.620366
30
0
11
-1.2048465336814
21
-0.0631433312071102
31
0
210
0
220
0
230
1
40
0.998215
41
-0.391540830861257
42
0.410932910886576
0
ELLIPSE
5
AD
100
AcDbEntity
8
1
62
256
6
ByLayer
370
-1
48
1
60
0
100
AcDbEllipse
10
84.839665
20
-8.620366
30
0
11
-1.2048465336814
21
-0.0631433312071102
31
0
210
0
220
0
230
1
40
0.998215
41
0.548998177710324
42
1.52855836933571
0
ELLIPSE
5
AE
100
AcDbEntity
8
1
62
256
6
ByLayer
370
-1
48
1
60
0
100
AcDbEllipse
10
83.193914
20
-7.687974
30
0
11
-0.685059860841638
21
-0.0359024659826584
31
0
210
0
220
0
230
1
40
0.998215
41
3.14159197474644
42
-2.92622929070779
0
ELLIPSE
5
AF
100
AcDbEntity
8
1
62
256
6
ByLayer
370
-1
48
1
60
0
100
AcDbEllipse
10
83.215792
20
-9.575301
30
0
11
-0.685059860841638
21
-0.0359024659826584
31
0
210
0
220
0
230
1
40
0.998215
41
-3.14158600851219
42
-2.78324115050819
0
ELLIPSE
5
B0
100
AcDbEntity
8
1
62
256
6
ByLayer
370
-1
48
1
60
0
100
AcDbEllipse
10
86.485416
20
-9.552758
30
0
11
-0.685059860841638
21
-0.0359024659826584
31
0
210
0
220
0
230
1
40
0.998215
41
-1.35261792435962
42
-0.568627280738821
0
ELLIPSE
5
B1
100
AcDbEntity
8
1
62
256
6
ByLayer
370
-1
48
1
60
0
100
AcDbEllipse
10
84.858643
20
-10.509398
30
0
11
-0.685059860841638
21
-0.0359024659826584
31
0
210
0
220
0
230
1
40
0.998215
41
-2.39702492787482
42
-1.61303428425407
0
ELLIPSE
5
B2
100
AcDbEntity
8
1
62
256
6
ByLayer
370
-1
48
1
60
0
100
AcDbEllipse
10
84.844119
20
-8.705365
30
0
11
1.67420241501604
21
0.0877412306412935
31
0
210
0
220
0
230
1
40
0.998215
41
1.00635486757809
42
2.05076187109329
0
ELLIPSE
5
B3
100
AcDbEntity
8
1
62
256
6
ByLayer
370
-1
48
1
60
0
100
AcDbEllipse
10
84.858643
20
-10.509398
30
0
11
-0.685059860841638
21
-0.0359024659826584
31
0
210
0
220
0
230
1
40
0.998215
41
-1.61303428425407
42
-0.829043640633268
0
ELLIPSE
5
B4
100
AcDbEntity
8
1
62
256
6
ByLayer
370
-1
48
1
60
0
100
AcDbEllipse
10
86.485416
20
-9.552758
30
0
11
-0.685059860841638
21
-0.0359024659826584
31
0
210
0
220
0
230
1
40
0.998215
41
-0.568627280738821
42
-1.85551895570069E-06
0
ELLIPSE
5
B5
100
AcDbEntity
8
1
62
256
6
ByLayer
370
-1
48
1
60
0
100
AcDbEllipse
10
84.844119
20
-8.705365
30
0
11
1.67420241501604
21
0.0877412306412935
31
0
210
0
220
0
230
1
40
0.998215
41
3.09516887460862
42
-2.13523778601166
0
ELLIPSE
5
B6
100
AcDbEntity
8
1
62
256
6
ByLayer
370
-1
48
1
60
0
100
AcDbEllipse
10
84.844119
20
-8.705365
30
0
11
1.67420241501604
21
0.0877412306412935
31
0
210
0
220
0
230
1
40
0.998215
41
-1.09083078249643
42
-0.0464237789812238
0
ELLIPSE
5
B7
100
AcDbEntity
8
1
62
256
6
ByLayer
370
-1
48
1
60
0
100
AcDbEllipse
10
86.224134
20
-8.612033
30
0
11
-0.291599824148336
21
-0.0152820992229393
31
0
210
0
220
0
230
1
40
0.998215
41
1.78897472923016
42
3.14156571713778
0
ELLIPSE
5
B8
100
AcDbEntity
8
1
62
256
6
ByLayer
370
-1
48
1
60
0
100
AcDbEllipse
10
84.16116
20
-9.825186
30
0
11
-0.291599824148336
21
-0.0152820992229393
31
0
210
0
220
0
230
1
40
0.998215
41
0.113274905490913
42
2.31254901295644
0
ELLIPSE
5
B9
100
AcDbEntity
8
1
62
256
6
ByLayer
370
-1
48
1
60
0
100
AcDbEllipse
10
86.463538
20
-7.665432
30
0
11
-0.685059860841638
21
-0.0359024659826584
31
0
210
0
220
0
230
1
40
0.998215
41
-0.311295790622787
42
6.23761902482679E-06
0
ELLIPSE
5
BA
100
AcDbEntity
8
1
62
256
6
ByLayer
370
-1
48
1
60
0
100
AcDbEllipse
10
84.839665
20
-8.620366
30
0
11
1.2048465336814
21
0.0631433312071106
31
0
210
0
220
0
230
1
40
0.998215
41
-1.61303428425407
42
-0.56862728073882
0
ELLIPSE
5
BB
100
AcDbEntity
8
1
62
256
6
ByLayer
370
-1
48
1
60
0
100
AcDbEllipse
10
85.542237
20
-9.811102
30
0
11
-0.291599824148336
21
-0.0152820992229393
31
0
210
0
220
0
230
1
40
0.998215
41
0.744567725714807
42
3.05873447968788
0
ELLIPSE
5
BC
100
AcDbEntity
8
1
62
256
6
ByLayer
370
-1
48
1
60
0
100
AcDbEllipse
10
84.844119
20
-8.705365
30
0
11
1.79753316255824
21
0.0942047212372972
31
0
210
0
220
0
230
1
40
0.998215
41
0
42
6.28318530717959
0
ELLIPSE
5
BD
100
AcDbEntity
8
1
62
256
6
ByLayer
370
-1
48
1
60
0
100
AcDbEllipse
10
84.843258
20
-8.688935
30
0
11
2.62140252873076
21
0.137381885137725
31
0
210
0
220
0
230
1
40
0.998215
41
0
42
6.28318530717959
0
ELLIPSE
5
BE
100
AcDbEntity
8
1
62
256
6
ByLayer
370
-1
48
1
60
0
100
AcDbEllipse
10
84.843271
20
-8.689179
30
0
11
1.20484653368139
21
0.0631433312071105
31
0
210
0
220
0
230
1
40
0.998215
41
0.410932910886597
42
0.548998177710284
0
ELLIPSE
5
BF
100
AcDbEntity
8
1
62
256
6
ByLayer
370
-1
48
1
60
0
100
AcDbEllipse
10
84.844119
20
-8.705365
30
0
11
1.67420241501604
21
0.0877412306412935
31
0
210
0
220
0
230
1
40
0.998215
41
-2.13523778601166
42
-1.09083078249643
0
POINT
5
41
100
AcDbEntity
8
80
62
256
6
ByLayer
370
-1
48
1
60
0
100
AcDbPoint
10
0
20
0
30
0
39
0
210
0
220
0
230
1
50
360
0
POINT
5
43
100
AcDbEntity
8
81
62
256
6
ByLayer
370
-1
48
1
60
0
100
AcDbPoint
10
90
20
-16.9
30
0
39
0
210
0
220
0
230
1
50
360
0
POINT
5
45
100
AcDbEntity
8
1
62
256
6
ByLayer
370
-1
48
1
60
0
100
AcDbPoint
10
0
20
0
30
0
39
0
210
0
220
0
230
1
50
360
0
POINT
5
47
100
AcDbEntity
8
2
62
256
6
ByLayer
370
-1
48
1
60
0
100
AcDbPoint
10
90
20
16.9
30
0
39
0
210
0
220
0
230
1
50
360
0
POINT
5
49
100
AcDbEntity
8
2
62
256
6
ByLayer
370
-1
48
1
60
0
100
AcDbPoint
10
89.786021
20
15.873079
30
0
39
0
210
0
220
0
230
1
50
360
0
SPLINE
5
C0
100
AcDbEntity
8
SK1
62
256
6
ByLayer
370
-1
48
1
60
0
100
AcDbSpline
70
4
71
2
72
6
73
3
40
0
40
0
40
0
40
1
40
1
40
1
41
1
10
-2.5
20
10.9999999791865
30
0
41
1
10
-10.2501577226355
20
10.8052890415268
30
0
41
1
10
-18.0003154452711
20
10.6105781038671
30
0
0
SPLINE
5
C1
100
AcDbEntity
8
SK1
62
256
6
ByLayer
370
-1
48
1
60
0
100
AcDbSpline
70
4
71
2
72
6
73
3
40
0
40
0
40
0
40
1
40
1
40
1
41
1
10
-18.0003154452711
20
-10.6105781447962
30
0
41
1
10
-10.2501577226355
20
-10.805289083207
30
0
41
1
10
-2.5
20
-11.0000000216178
30
0
0
SPLINE
5
C2
100
AcDbEntity
8
SK1
62
256
6
ByLayer
370
-1
48
1
60
0
100
AcDbSpline
70
4
71
2
72
6
73
3
40
0
40
0
40
0
40
1
40
1
40
1
41
1
10
-2.5
20
-11.0000000216178
30
0
41
1
10
-2.09751251213362
20
-11.0101119082743
30
0
41
1
10
-1.69502502426718
20
-11.0202237949308
30
0
0
SPLINE
5
C3
100
AcDbEntity
8
SK1
62
256
6
ByLayer
370
-1
48
1
60
0
100
AcDbSpline
70
4
71
2
72
6
73
3
40
0
40
0
40
0
40
1
40
1
40
1
41
1
10
-1.69502502426718
20
11.0202237524214
30
0
41
1
10
-2.09751251213362
20
11.0101118658039
30
0
41
1
10
-2.5
20
10.9999999791865
30
0
0
SPLINE
5
C4
100
AcDbEntity
8
SK1
62
256
6
ByLayer
370
-1
48
1
60
0
100
AcDbSpline
70
4
71
2
72
6
73
3
40
0
40
0
40
0
40
1
40
1
40
1
41
1
10
-18.0002062662752
20
10.6070648849158
30
0
41
1
10
-18.5001026802154
20
10.301383051238
30
0
41
1
10
-19
20
9.99570806969172
30
0
0
SPLINE
5
C5
100
AcDbEntity
8
SK1
62
256
6
ByLayer
370
-1
48
1
60
0
100
AcDbSpline
70
4
71
2
72
6
73
3
40
0
40
0
40
0
40
1
40
1
40
1
41
1
10
-19
20
-9.996785310587
30
0
41
1
10
-18.5001033313043
20
-10.302566364032
30
0
41
1
10
-18.0002077056275
20
-10.6083539004405
30
0
0
SPLINE
5
C6
100
AcDbEntity
8
SK1
62
256
6
ByLayer
370
-1
48
1
60
0
100
AcDbSpline
70
4
71
3
72
17
73
13
40
0
40
0
40
0
40
0
40
0.0147857283984951
40
0.096922612410325
40
0.193526403879446
40
0.30402017270381
40
0.426423791300417
40
0.557552662743554
40
0.693336977025398
40
0.829229756745751
40
0.960662645421235
40
1
40
1
40
1
40
1
41
1
10
-1.69885963580686
20
-2.44931817215209
30
0
41
1
10
-1.69878121045804
20
-2.50814386087498
30
0
41
1
10
-1.69812489743151
20
-2.89134404574403
30
0
41
1
10
-1.69381864805598
20
-3.61381721164045
30
0
41
1
10
-1.6859410395034
20
-4.64275879731954
30
0
41
1
10
-1.67432201824425
20
-5.72474664845239
30
0
41
1
10
-1.65947240173119
20
-6.81412463811753
30
0
41
1
10
-1.64151601153253
20
-7.85039508645337
30
0
41
1
10
-1.62100301117636
20
-8.78178233378625
30
0
41
1
10
-1.59832201180097
20
-9.54945878851581
30
0
41
1
10
-1.57990123420404
20
-10.0392607359167
30
0
41
1
10
-1.56837676962044
20
-10.224585960352
30
0
41
1
10
-1.56567452769786
20
-10.2638812175671
30
0
0
SPLINE
5
C7
100
AcDbEntity
8
SK1
62
256
6
ByLayer
370
-1
48
1
60
0
100
AcDbSpline
70
4
71
1
72
4
73
2
40
0
40
0
40
1
40
1
41
1
10
-1.69922662732802
20
-2.24422844727147
30
0
41
1
10
-1.69885963580686
20
-2.44931817215209
30
0
0
SPLINE
5
C8
100
AcDbEntity
8
SK1
62
256
6
ByLayer
370
-1
48
1
60
0
100
AcDbSpline
70
4
71
1
72
4
73
2
40
0
40
0
40
1
40
1
41
1
10
-1.69888663344005
20
2.43422323676444
30
0
41
1
10
-1.69921111833776
20
2.25288818144043
30
0
0
SPLINE
5
C9
100
AcDbEntity
8
SK1
62
256
6
ByLayer
370
-1
48
1
60
0
100
AcDbSpline
70
4
71
3
72
17
73
13
40
0
40
0
40
0
40
0
40
0.0392876794461218
40
0.170553566495534
40
0.306273633806252
40
0.44188531118983
40
0.572847869911188
40
0.695095316181934
40
0.80544854001527
40
0.901929404608446
40
0.983961763626605
40
1
40
1
40
1
40
1
41
1
10
-1.56567446797743
20
10.2638780538572
30
0
41
1
10
-1.5683767303633
20
10.2245823345271
30
0
41
1
10
-1.5799012115267
20
10.0392559851553
30
0
41
1
10
-1.59832201551916
20
9.54945264100604
30
0
41
1
10
-1.62100298179331
20
8.7817732691922
30
0
41
1
10
-1.64151611845767
20
7.85038870102488
30
0
41
1
10
-1.65947211442517
20
6.81410247033003
30
0
41
1
10
-1.6743227257129
20
5.7247470359481
30
0
41
1
10
-1.68593892797372
20
4.64271758310429
30
0
41
1
10
-1.6938250065179
20
3.61390246258944
30
0
41
1
10
-1.69813997988535
20
2.8863876355918
30
0
41
1
10
-1.69880349776554
20
2.49814548719061
30
0
41
1
10
-1.69888663344005
20
2.43422323676444
30
0
0
SPLINE
5
CA
100
AcDbEntity
8
SK1
62
256
6
ByLayer
370
-1
48
1
60
0
100
AcDbSpline
70
4
71
2
72
6
73
3
40
0
40
0
40
0
40
1
40
1
40
1
41
1
10
-1.5
20
-10.7847407283835
30
0
41
1
10
-1.19913538109506
20
-10.7847407283835
30
0
41
1
10
-0.89827076219018
20
-10.7847407283835
30
0
0
SPLINE
5
CB
100
AcDbEntity
8
SK1
62
256
6
ByLayer
370
-1
48
1
60
0
100
AcDbSpline
70
4
71
2
72
6
73
3
40
0
40
0
40
0
40
1
40
1
40
1
41
1
10
-0.885216220499217
20
10.7847407263988
30
0
41
1
10
-1.19260811024958
20
10.7847407263988
30
0
41
1
10
-1.5
20
10.7847407263988
30
0
0
SPLINE
5
CC
100
AcDbEntity
8
1
62
256
6
ByLayer
370
-1
48
1
60
0
100
AcDbSpline
70
4
71
3
72
12
73
8
40
0
40
0
40
0
40
0
40
0.181096875207386
40
0.181096875207386
40
0.543290625622191
40
0.543290625622191
40
1
40
1
40
1
40
1
41
1
10
75.0507538937849
20
-12.499508157714
30
0
41
1
10
75.1888610494532
20
-12.499504322951
30
0
41
1
10
75.3269682051209
20
-12.4995004657745
30
0
41
1
10
75.7412896721221
20
-12.4994888270061
30
0
41
1
10
76.0175039834537
20
-12.4994809781749
30
0
41
1
10
76.6420116189408
20
-12.4994630296417
30
0
41
1
10
76.9903049430949
20
-12.4994528770463
30
0
41
1
10
77.3385982672447
20
-12.4994425819137
30
0
0
SPLINE
5
CD
100
AcDbEntity
8
1
62
256
6
ByLayer
370
-1
48
1
60
0
100
AcDbSpline
70
4
71
3
72
28
73
24
40
-0.124999999999999
40
-0.124999999999999
40
0
40
0
40
0.125000000000001
40
0.125000000000001
40
0.187500000000001
40
0.187500000000001
40
0.250000000000001
40
0.250000000000001
40
0.375000000000001
40
0.375000000000001
40
0.5
40
0.5
40
0.625
40
0.625
40
0.6875
40
0.6875
40
0.718750000000001
40
0.718750000000001
40
0.750000000000001
40
0.750000000000001
40
0.875000000000001
40
0.875000000000001
40
1
40
1
40
1.125
40
1.125
41
1
10
68.1007243739288
20
-4.83250525939911
30
0
41
1
10
66.43799893981
20
-4.07078701233601
30
0
41
1
10
65.5831766361878
20
-3.78109543280394
30
0
41
1
10
64.2555822664201
20
-3.89648909898298
30
0
41
1
10
63.7868498971753
20
-4.04587335644013
30
0
41
1
10
63.1556419662288
20
-4.80527992661871
30
0
41
1
10
63.106908887124
20
-5.37416594480166
30
0
41
1
10
63.5141020774241
20
-6.72505069930014
30
0
41
1
10
64.2471830542363
20
-7.31705242165276
30
0
41
1
10
65.7760402451935
20
-8.22552189439662
30
0
41
1
10
66.6462079890111
20
-8.54643859415103
30
0
41
1
10
68.4426250090692
20
-9.01895944787356
30
0
41
1
10
69.3744444346897
20
-9.18440730567394
30
0
41
1
10
70.8408772609124
20
-9.24238013828645
30
0
41
1
10
71.3565191288411
20
-9.26914658338933
30
0
41
1
10
72.0384174654133
20
-8.9557856330498
30
0
41
1
10
72.1765846848264
20
-8.69409239274282
30
0
41
1
10
72.0492643879357
20
-8.21430494339464
30
0
41
1
10
71.9045906550396
20
-8.00777172533282
30
0
41
1
10
71.1636677579003
20
-7.04507859387681
30
0
41
1
10
70.4024359341567
20
-6.43807013108298
30
0
41
1
10
68.8914173434135
20
-5.32516228147085
30
0
41
1
10
68.1007243739288
20
-4.83250525939911
30
0
41
1
10
66.43799893981
20
-4.07078701233601
30
0
0
SPLINE
5
CE
100
AcDbEntity
8
1
62
256
6
ByLayer
370
-1
48
1
60
0
100
AcDbSpline
70
4
71
3
72
18
73
14
40
0
40
0
40
0
40
0
40
0.0872973106983417
40
0.0872973106983417
40
0.542504713769245
40
0.542504713769245
40
0.700049237734307
40
0.700049237734307
40
0.859641035571736
40
0.859641035571736
40
0.97080052564029
40
0.97080052564029
40
1
40
1
40
1
40
1
41
1
10
4.66339745962154
20
-5.06861858311169
30
0
41
1
10
4.66664048724545
20
-5.05669118210812
30
0
41
1
10
4.67011875476442
20
-5.04481392106402
30
0
41
1
10
4.69320396133111
20
-4.97182102384318
30
0
41
1
10
4.71929050879203
20
-4.91100060572398
30
0
41
1
10
4.77107527248018
20
-4.83986869632042
30
0
41
1
10
4.78620198735473
20
-4.82232975779158
30
0
41
1
10
4.82059850439146
20
-4.79137868546448
30
0
41
1
10
4.84035202645157
20
-4.77770433946458
30
0
41
1
10
4.87713528116666
20
-4.76194246224043
30
0
41
1
10
4.89353665034179
20
-4.75754333105169
30
0
41
1
10
4.91442266320462
20
-4.75566124801006
30
0
41
1
10
4.91881627021672
20
-4.75546271781752
30
0
41
1
10
4.92320508075687
20
-4.75546271781752
30
0
0
SPLINE
5
CF
100
AcDbEntity
8
1
62
256
6
ByLayer
370
-1
48
1
60
0
100
AcDbSpline
70
4
71
3
72
18
73
14
40
0
40
0
40
0
40
0
40
0.0872973106983427
40
0.0872973106983427
40
0.542504713769251
40
0.542504713769251
40
0.700049237734308
40
0.700049237734308
40
0.859641035571733
40
0.859641035571733
40
0.970800525640285
40
0.970800525640285
40
1
40
1
40
1
40
1
41
1
10
4.66339745962154
20
15.1759383782004
30
0
41
1
10
4.66664048724545
20
15.1799220163036
30
0
41
1
10
4.67011875476442
20
15.1838732610658
30
0
41
1
10
4.69320396133111
20
15.2080620258527
30
0
41
1
10
4.71929050879203
20
15.2277749876852
30
0
41
1
10
4.77107527248018
20
15.2504441152008
30
0
41
1
10
4.78620198735473
20
15.2559954463097
30
0
41
1
10
4.82059850439146
20
15.2657445103485
30
0
41
1
10
4.84035202645157
20
15.2700240892114
30
0
41
1
10
4.87713528116666
20
15.2749451765724
30
0
41
1
10
4.89353665034179
20
15.2763144731656
30
0
41
1
10
4.91442266320462
20
15.2769004141622
30
0
41
1
10
4.91881627021672
20
15.2769622091386
30
0
41
1
10
4.92320508075687
20
15.2769622091386
30
0
0
SPLINE
5
D0
100
AcDbEntity
8
1
62
256
6
ByLayer
370
-1
48
1
60
0
100
AcDbSpline
70
4
71
3
72
16
73
12
40
0
40
0
40
0
40
0
40
0.0824510846571695
40
0.0824510846571695
40
0.188383068428396
40
0.188383068428396
40
0.365472907848062
40
0.365472907848062
40
0.680803291610439
40
0.680803291610439
40
1
40
1
40
1
40
1
41
1
10
7.07679491924307
20
-4.75546271781752
30
0
41
1
10
7.08910350916454
20
-4.75546271781752
30
0
41
1
10
7.10150513750614
20
-4.75706222436486
30
0
41
1
10
7.12874362447576
20
-4.76394233360952
30
0
41
1
10
7.14353521549828
20
-4.77020840137894
30
0
41
1
10
7.17976687435106
20
-4.79093881117942
30
0
41
1
10
7.19977756726536
20
-4.80829129424839
30
0
41
1
10
7.24784029496976
20
-4.86090601671913
30
0
41
1
10
7.27150999874226
20
-4.90053819345542
30
0
41
1
10
7.30990356794047
20
-4.98223274168734
30
0
41
1
10
7.32479596954562
20
-5.02519567059593
30
0
41
1
10
7.33660254037841
20
-5.06861858311163
30
0
0
SPLINE
5
D1
100
AcDbEntity
8
1
62
256
6
ByLayer
370
-1
48
1
60
0
100
AcDbSpline
70
4
71
3
72
16
73
12
40
0
40
0
40
0
40
0
40
0.0824510846571659
40
0.0824510846571659
40
0.188383068428396
40
0.188383068428396
40
0.365472907848055
40
0.365472907848055
40
0.680803291610427
40
0.680803291610427
40
1
40
1
40
1
40
1
41
1
10
7.07679491924307
20
15.2769622091386
30
0
41
1
10
7.08910350916454
20
15.2769622091386
30
0
41
1
10
7.10150513750614
20
15.2764645420423
30
0
41
1
10
7.12874362447576
20
15.2743206039305
30
0
41
1
10
7.14353521549828
20
15.2723664954752
30
0
41
1
10
7.17976687435106
20
15.2658799044773
30
0
41
1
10
7.19977756726536
20
15.2604302192604
30
0
41
1
10
7.24784029496976
20
15.2437803206195
30
0
41
1
10
7.27150999874226
20
15.231104729462
30
0
41
1
10
7.30990356794047
20
15.2045789137682
30
0
41
1
10
7.32479596954562
20
15.1904412165637
30
0
41
1
10
7.33660254037841
20
15.1759383782004
30
0
0
SPLINE
5
D2
100
AcDbEntity
8
1
62
256
6
ByLayer
370
-1
48
1
60
0
100
AcDbSpline
70
4
71
3
72
16
73
12
40
0
40
0
40
0
40
0
40
0.0824510846571657
40
0.0824510846571657
40
0.188383068428384
40
0.188383068428384
40
0.365472907848039
40
0.365472907848039
40
0.680803291610384
40
0.680803291610384
40
1
40
1
40
1
40
1
41
1
10
4.92320508075693
20
4.75546271781764
30
0
41
1
10
4.91089649083546
20
4.75546271781764
30
0
41
1
10
4.89849486249386
20
4.75706222436497
30
0
41
1
10
4.87125637552424
20
4.76394233360963
30
0
41
1
10
4.85646478450172
20
4.77020840137905
30
0
41
1
10
4.82023312564894
20
4.79093881117953
30
0
41
1
10
4.80022243273464
20
4.80829129424853
30
0
41
1
10
4.75215970503024
20
4.86090601671924
30
0
41
1
10
4.72849000125774
20
4.90053819345553
30
0
41
1
10
4.69009643205953
20
4.98223274168748
30
0
41
1
10
4.67520403045438
20
5.02519567059605
30
0
41
1
10
4.66339745962159
20
5.06861858311177
30
0
0
SPLINE
5
D3
100
AcDbEntity
8
1
62
256
6
ByLayer
370
-1
48
1
60
0
100
AcDbSpline
70
4
71
3
72
18
73
14
40
0
40
0
40
0
40
0
40
0.0872973106982676
40
0.0872973106982676
40
0.542504713769245
40
0.542504713769245
40
0.700049237734301
40
0.700049237734301
40
0.859641035571716
40
0.859641035571716
40
0.970800525640281
40
0.970800525640281
40
1
40
1
40
1
40
1
41
1
10
7.33660254037846
20
-15.1759383782004
30
0
41
1
10
7.33335951275456
20
-15.1799220163035
30
0
41
1
10
7.32988124523558
20
-15.1838732610658
30
0
41
1
10
7.30679603866884
20
-15.2080620258526
30
0
41
1
10
7.28070949120797
20
-15.2277749876852
30
0
41
1
10
7.22892472751983
20
-15.2504441152008
30
0
41
1
10
7.21379801264527
20
-15.2559954463097
30
0
41
1
10
7.17940149560854
20
-15.2657445103485
30
0
41
1
10
7.15964797354849
20
-15.2700240892114
30
0
41
1
10
7.12286471883334
20
-15.2749451765724
30
0
41
1
10
7.10646334965821
20
-15.2763144731655
30
0
41
1
10
7.08557733679538
20
-15.2769004141622
30
0
41
1
10
7.08118372978328
20
-15.2769622091385
30
0
41
1
10
7.07679491924313
20
-15.2769622091385
30
0
0
SPLINE
5
D4
100
AcDbEntity
8
1
62
256
6
ByLayer
370
-1
48
1
60
0
100
AcDbSpline
70
4
71
3
72
8
73
4
40
0
40
0
40
0
40
0
40
1
40
1
40
1
40
1
41
1
10
79.2689055739991
20
-1.8943120463037
30
0
41
1
10
79.229587713253
20
-1.89059062759375
30
0
41
1
10
79.1914882126393
20
-1.88454223118208
30
0
41
1
10
79.1547905492944
20
-1.87611531696243
30
0
0
SPLINE
5
D5
100
AcDbEntity
8
1
62
256
6
ByLayer
370
-1
48
1
60
0
100
AcDbSpline
70
4
71
3
72
16
73
12
40
0
40
0
40
0
40
0
40
0.0824510846571602
40
0.0824510846571602
40
0.188383068428385
40
0.188383068428385
40
0.365472907848031
40
0.365472907848031
40
0.680803291610383
40
0.680803291610383
40
1
40
1
40
1
40
1
41
1
10
4.92320508075693
20
-15.2769622091385
30
0
41
1
10
4.91089649083546
20
-15.2769622091385
30
0
41
1
10
4.89849486249386
20
-15.2764645420423
30
0
41
1
10
4.87125637552424
20
-15.2743206039304
30
0
41
1
10
4.85646478450172
20
-15.2723664954752
30
0
41
1
10
4.82023312564894
20
-15.2658799044772
30
0
41
1
10
4.80022243273464
20
-15.2604302192603
30
0
41
1
10
4.75215970503024
20
-15.2437803206194
30
0
41
1
10
4.72849000125774
20
-15.231104729462
30
0
41
1
10
4.69009643205953
20
-15.2045789137681
30
0
41
1
10
4.67520403045438
20
-15.1904412165636
30
0
41
1
10
4.66339745962159
20
-15.1759383782003
30
0
0
SPLINE
5
D6
100
AcDbEntity
8
1
62
256
6
ByLayer
370
-1
48
1
60
0
100
AcDbSpline
70
4
71
3
72
22
73
18
40
0
40
0
40
0
40
0
40
0.125
40
0.125
40
0.25
40
0.25
40
0.375
40
0.375
40
0.5
40
0.5
40
0.625
40
0.625
40
0.75
40
0.75
40
0.875
40
0.875
40
1
40
1
40
1
40
1
41
1
10
75.0507538937902
20
-12.4995081577138
30
0
41
1
10
72.53654746091
20
-12.4995779686211
30
0
41
1
10
70.0802278365667
20
-12.5167404421733
30
0
41
1
10
65.2887413712227
20
-12.4143198485139
30
0
41
1
10
62.9737802919279
20
-12.3044191287403
30
0
41
1
10
58.8864600424205
20
-11.3445677414879
30
0
41
1
10
57.1752457997255
20
-10.4531146334293
30
0
41
1
10
55.3122402771799
20
-7.11686937416681
30
0
41
1
10
55.2345193328355
20
-4.73666148663946
30
0
41
1
10
56.1269079954341
20
0.109868835783743
30
0
41
1
10
57.0557920227893
20
2.57063467282973
30
0
41
1
10
59.4926174827656
20
6.63611773880177
30
0
41
1
10
61.04796915642
20
8.27479507388449
30
0
41
1
10
64.6350039855777
20
10.5629762509211
30
0
41
1
10
66.6869911385706
20
11.2519616557863
30
0
41
1
10
71.0833000434131
20
12.0882991987696
30
0
41
1
10
73.4417393156623
20
12.2529882122451
30
0
41
1
10
75.884588999993
20
12.3391012650359
30
0
0
SPLINE
5
D7
100
AcDbEntity
8
1
62
256
6
ByLayer
370
-1
48
1
60
0
100
AcDbSpline
70
4
71
3
72
18
73
14
40
0
40
0
40
0
40
0
40
0.0872973106983345
40
0.0872973106983345
40
0.542504713769339
40
0.542504713769339
40
0.700049237734365
40
0.700049237734365
40
0.859641035571757
40
0.859641035571757
40
0.970800525640322
40
0.970800525640322
40
1
40
1
40
1
40
1
41
1
10
7.33660254037846
20
5.06861858311174
30
0
41
1
10
7.33335951275456
20
5.05669118210821
30
0
41
1
10
7.32988124523558
20
5.04481392106408
30
0
41
1
10
7.30679603866884
20
4.97182102384326
30
0
41
1
10
7.28070949120792
20
4.91100060572404
30
0
41
1
10
7.22892472751983
20
4.83986869632048
30
0
41
1
10
7.21379801264521
20
4.82232975779166
30
0
41
1
10
7.17940149560854
20
4.79137868546457
30
0
41
1
10
7.15964797354843
20
4.77770433946466
30
0
41
1
10
7.12286471883334
20
4.76194246224051
30
0
41
1
10
7.10646334965821
20
4.75754333105178
30
0
41
1
10
7.08557733679538
20
4.75566124801017
30
0
41
1
10
7.08118372978328
20
4.75546271781764
30
0
41
1
10
7.07679491924313
20
4.75546271781764
30
0
0
SPLINE
5
D8
100
AcDbEntity
8
SK1
62
256
6
ByLayer
370
-1
48
1
60
0
100
AcDbSpline
70
4
71
3
72
24
73
20
40
0
40
0
40
0
40
0
40
0.394887530671275
40
0.394887530671275
40
0.583923275334675
40
0.583923275334675
40
0.775640263639324
40
0.775640263639324
40
0.824781731617119
40
0.824781731617119
40
0.862517656538363
40
0.862517656538363
40
0.89426261244368
40
0.89426261244368
40
0.925906833096296
40
0.925906833096296
40
0.974831011730869
40
0.974831011730869
40
1
40
1
40
1
40
1
41
1
10
-1.30710678118658
20
-3.27410008506507
30
0
41
1
10
-1.25832942599459
20
-3.50149952651384
30
0
41
1
10
-1.19991064580012
20
-3.72346664111421
30
0
41
1
10
-1.08384884657397
20
-4.0370771437056
30
0
41
1
10
-1.04153791965376
20
-4.13675427692158
30
0
41
1
10
-0.938254289261693
20
-4.32801751486153
30
0
41
1
10
-0.878155607060592
20
-4.42371753851697
30
0
41
1
10
-0.767111712667372
20
-4.51729029260753
30
0
41
1
10
-0.741708507810927
20
-4.53512787407632
30
0
41
1
10
-0.691958906630077
20
-4.55987158851019
30
0
41
1
10
-0.668248724766499
20
-4.56845950218982
30
0
41
1
10
-0.622857383271423
20
-4.57708046005288
30
0
41
1
10
-0.600993180994863
20
-4.57825352233775
30
0
41
1
10
-0.558658423255963
20
-4.57453349365301
30
0
41
1
10
-0.537724143555636
20
-4.56966479399497
30
0
41
1
10
-0.488248270422446
20
-4.55200346897223
30
0
41
1
10
-0.460806462020514
20
-4.53627234602419
30
0
41
1
10
-0.423570034054364
20
-4.50937867037399
30
0
41
1
10
-0.411500153524855
20
-4.49956715918469
30
0
41
1
10
-0.400000000000034
20
-4.48934914533075
30
0
0
SPLINE
5
D9
100
AcDbEntity
8
SK1
62
256
6
ByLayer
370
-1
48
1
60
0
100
AcDbSpline
70
4
71
3
72
8
73
4
40
0
40
0
40
0
40
0
40
1
40
1
40
1
40
1
41
1
10
-1.30710678118658
20
-3.2741000850651
30
0
41
1
10
-1.37418676031894
20
-2.96137403161117
30
0
41
1
10
-1.43992527842408
20
-2.6391871954711
30
0
41
1
10
-1.5
20
-2.30830602436779
30
0
0
SPLINE
5
DA
100
AcDbEntity
8
SK1
62
256
6
ByLayer
370
-1
48
1
60
0
100
AcDbSpline
70
4
71
3
72
22
73
18
40
0
40
0
40
0
40
0
40
0.0449734260287716
40
0.0449734260287716
40
0.0906738274120162
40
0.0906738274120162
40
0.122638717708356
40
0.122638717708356
40
0.154549770731825
40
0.154549770731825
40
0.201552050367308
40
0.201552050367308
40
0.290895290031139
40
0.290895290031139
40
0.598982552652836
40
0.598982552652836
40
1
40
1
40
1
40
1
41
1
10
-0.400000000000034
20
4.48934893107537
30
0
41
1
10
-0.420456941468217
20
4.50752512906291
30
0
41
1
10
-0.44279365957027
20
4.52452287299627
30
0
41
1
10
-0.492193632877786
20
4.5532875570679
30
0
41
1
10
-0.520039992485408
20
4.56524258715393
30
0
41
1
10
-0.570193326457115
20
4.57628050315313
30
0
41
1
10
-0.592133279247662
20
4.57814021899074
30
0
41
1
10
-0.634912844043129
20
4.57562166953767
30
0
41
1
10
-0.656221684239426
20
4.57125895050498
30
0
41
1
10
-0.705207801022823
20
4.55499593975378
30
0
41
1
10
-0.732067427106074
20
4.54046143085233
30
0
41
1
10
-0.801682679231533
20
4.49257590710445
30
0
41
1
10
-0.839313324772718
20
4.45345948567501
30
0
41
1
10
-0.985377121353224
20
4.27336869710479
30
0
41
1
10
-1.0562136843908
20
4.11001095439886
30
0
41
1
10
-1.19814354028301
20
3.73039497896576
30
0
41
1
10
-1.25757188978821
20
3.50503116473169
30
0
41
1
10
-1.30710678118658
20
3.27410007766451
30
0
0
SPLINE
5
DB
100
AcDbEntity
8
SK1
62
256
6
ByLayer
370
-1
48
1
60
0
100
AcDbSpline
70
4
71
3
72
8
73
4
40
0
40
0
40
0
40
0
40
1
40
1
40
1
40
1
41
1
10
-1.5
20
2.30830715862382
30
0
41
1
10
-1.43992566134762
20
2.63918814774505
30
0
41
1
10
-1.3741866857074
20
2.96137434366062
30
0
41
1
10
-1.30710678118675
20
3.2741000776636
30
0
0
SPLINE
5
DC
100
AcDbEntity
8
SK1
62
256
6
ByLayer
370
-1
48
1
60
0
100
AcDbSpline
70
4
71
3
72
20
73
16
40
0
40
0
40
0
40
0
40
0.140420538696899
40
0.140420538696899
40
0.283113565135709
40
0.283113565135709
40
0.38300374929774
40
0.38300374929774
40
0.482719595028378
40
0.482719595028378
40
0.629860782987099
40
0.629860782987099
40
0.90983598031625
40
0.90983598031625
40
1
40
1
40
1
40
1
41
1
10
-0.400000000000034
20
-10.7720903551641
30
0
41
1
10
-0.420485425404365
20
-10.7699879927591
30
0
41
1
10
-0.442853612204203
20
-10.7679559042768
30
0
41
1
10
-0.492317942748457
20
-10.7644479456746
30
0
41
1
10
-0.520199073627055
20
-10.7629489681196
30
0
41
1
10
-0.57041474459777
20
-10.7615601980511
30
0
41
1
10
-0.592388657551908
20
-10.7613257206405
30
0
41
1
10
-0.635222276121908
20
-10.7616521249958
30
0
41
1
10
-0.656551809000575
20
-10.762210406105
30
0
41
1
10
-0.705635225108949
20
-10.7642598717253
30
0
41
1
10
-0.732559682028807
20
-10.7660705901044
30
0
41
1
10
-0.802383167639846
20
-10.7718500865204
30
0
41
1
10
-0.840123259759594
20
-10.7763551487408
30
0
41
1
10
-0.883850457362314
20
-10.7820664301106
30
0
41
1
10
-0.89406634953383
20
-10.783434797784
30
0
41
1
10
-0.903940088695038
20
-10.7847858831467
30
0
0
SPLINE
5
DD
100
AcDbEntity
8
SK1
62
256
6
ByLayer
370
-1
48
1
60
0
100
AcDbSpline
70
4
71
3
72
20
73
16
40
0
40
0
40
0
40
0
40
0.289591250207097
40
0.289591250207097
40
0.445641579471354
40
0.445641579471354
40
0.565150656188441
40
0.565150656188441
40
0.665669956959963
40
0.665669956959963
40
0.765874026691345
40
0.765874026691345
40
0.920609475720831
40
0.920609475720831
40
1
40
1
40
1
40
1
41
1
10
-0.899903122953731
20
10.7840848927913
30
0
41
1
10
-0.868449172464409
20
10.7797260979509
30
0
41
1
10
-0.832767748820572
20
10.775300420935
30
0
41
1
10
-0.767668067718603
20
10.7688851018166
30
0
41
1
10
-0.742170086684837
20
10.7667139324169
30
0
41
1
10
-0.692274786497364
20
10.7636476309374
30
0
41
1
10
-0.668530490600347
20
10.7625613907743
30
0
41
1
10
-0.62306916607713
20
10.7614648455063
30
0
41
1
10
-0.601170315114928
20
10.7613125350673
30
0
41
1
10
-0.558760887240567
20
10.7617815137992
30
0
41
1
10
-0.537785827568314
20
10.7623989525676
30
0
41
1
10
-0.488247839736005
20
10.7646079926068
30
0
41
1
10
-0.460778861773292
20
10.7665508551728
30
0
41
1
10
-0.423537546807495
20
10.7697595930047
30
0
41
1
10
-0.411485089493112
20
10.7709116409693
30
0
41
1
10
-0.400000000000034
20
10.7720903270618
30
0
0
SPLINE
5
DE
100
AcDbEntity
8
SK1
62
256
6
ByLayer
370
-1
48
1
60
0
100
AcDbSpline
70
4
71
3
72
32
73
28
40
0
40
0
40
0
40
0
40
0.365927089807649
40
0.365927089807649
40
0.434988381544102
40
0.434988381544102
40
0.459470391973526
40
0.459470391973526
40
0.484523297819611
40
0.484523297819611
40
0.495000485667551
40
0.495000485667551
40
0.505685328487508
40
0.505685328487508
40
0.512277836854413
40
0.512277836854413
40
0.518861441140287
40
0.518861441140287
40
0.528508909357715
40
0.528508909357715
40
0.546991571884285
40
0.546991571884285
40
0.628302439414124
40
0.628302439414124
40
0.950686415613842
40
0.950686415613842
40
1
40
1
40
1
40
1
41
1
10
-1.5
20
-2.30830602436802
30
0
41
1
10
-1.52221751736221
20
-2.18593578325891
30
0
41
1
10
-1.5452299933437
20
-2.06251508992042
30
0
41
1
10
-1.58645530727239
20
-1.92421817182063
30
0
41
1
10
-1.59351669828698
20
-1.90246957270816
30
0
41
1
10
-1.60499906250118
20
-1.87469947052622
30
0
41
1
10
-1.6082003540161
20
-1.8675788212021
30
0
41
1
10
-1.61534084307135
20
-1.85393197437202
30
0
41
1
10
-1.61929930659136
20
-1.84729792851803
30
0
41
1
10
-1.62596752666457
20
-1.83957892922561
30
0
41
1
10
-1.62809255235374
20
-1.83750162516705
30
0
41
1
10
-1.63273883786326
20
-1.83425727265225
30
0
41
1
10
-1.63534521763034
20
-1.8330769398703
30
0
41
1
10
-1.63973359946959
20
-1.83275236286212
30
0
41
1
10
-1.64148920088587
20
-1.83301807905258
30
0
41
1
10
-1.64485340276019
20
-1.83436876713788
30
0
41
1
10
-1.64649922195929
20
-1.83546324657846
30
0
41
1
10
-1.65020824529177
20
-1.83881160526317
30
0
41
1
10
-1.65218279132313
20
-1.84139532031719
30
0
41
1
10
-1.65723177402214
20
-1.849484045693
30
0
41
1
10
-1.65984043101901
20
-1.85563378259269
30
0
41
1
10
-1.67182065388494
20
-1.888941134085
30
0
41
1
10
-1.67632598434432
20
-1.91870567173245
30
0
41
1
10
-1.69605916878521
20
-2.06239070530873
30
0
41
1
10
-1.69829182976605
20
-2.17797320288884
30
0
41
1
10
-1.6997878183206
20
-2.3091658731316
30
0
41
1
10
-1.69991061150085
20
-2.32659131405609
30
0
41
1
10
-1.69996579751825
20
-2.34399454350921
30
0
0
SPLINE
5
DF
100
AcDbEntity
8
SK1
62
256
6
ByLayer
370
-1
48
1
60
0
100
AcDbSpline
70
4
71
3
72
28
73
24
40
0
40
0
40
0
40
0
40
0.343154913050553
40
0.343154913050553
40
0.438240387752228
40
0.438240387752228
40
0.461906262757859
40
0.461906262757859
40
0.470082742892958
40
0.470082742892958
40
0.478403565799421
40
0.478403565799421
40
0.485616048076814
40
0.485616048076814
40
0.49498478208156
40
0.49498478208156
40
0.512255311898736
40
0.512255311898736
40
0.586224098711352
40
0.586224098711352
40
0.878018968214535
40
0.878018968214535
40
1
40
1
40
1
40
1
41
1
10
-1.69989009590069
20
-10.912317360478
30
0
41
1
10
-1.69920451821673
20
-10.8740263951111
30
0
41
1
10
-1.69726521816682
20
-10.8323287812115
30
0
41
1
10
-1.67853907532424
20
-10.7628347797173
30
0
41
1
10
-1.67397095661659
20
-10.7468498525868
30
0
41
1
10
-1.66077432528931
20
-10.7213614533972
30
0
41
1
10
-1.65762501801402
20
-10.7157991042865
30
0
41
1
10
-1.65185849839088
20
-10.7076227829041
30
0
41
1
10
-1.65019504375897
20
-10.7054125901193
30
0
41
1
10
-1.64653422023201
20
-10.7009758910414
30
0
41
1
10
-1.64447208533073
20
-10.6986885686392
30
0
41
1
10
-1.64056382056441
20
-10.6948016115452
30
0
41
1
10
-1.63868158902147
20
-10.6931071977885
30
0
41
1
10
-1.63458346791265
20
-10.6897506304862
30
0
41
1
10
-1.63236594562102
20
-10.6881800310438
30
0
41
1
10
-1.6266026221515
20
-10.6845313891021
30
0
41
1
10
-1.62334000067364
20
-10.6829911152334
30
0
41
1
10
-1.60794500993575
20
-10.6769624806516
30
0
41
1
10
-1.59958172790385
20
-10.6775435877503
30
0
41
1
10
-1.56113270181959
20
-10.6819813790051
30
0
41
1
10
-1.54173525187014
20
-10.6971947890523
30
0
41
1
10
-1.51479102134942
20
-10.7170184942906
30
0
41
1
10
-1.50724986451144
20
-10.7230716034657
30
0
41
1
10
-1.5
20
-10.7291967921706
30
0
0
SPLINE
5
E0
100
AcDbEntity
8
SK1
62
256
6
ByLayer
370
-1
48
1
60
0
100
AcDbSpline
70
4
71
3
72
28
73
24
40
0
40
0
40
0
40
0
40
0.349178244038127
40
0.349178244038127
40
0.441485413895459
40
0.441485413895459
40
0.464418174627259
40
0.464418174627259
40
0.473297759398041
40
0.473297759398041
40
0.482336266147379
40
0.482336266147379
40
0.488860737631369
40
0.488860737631369
40
0.4953513510299
40
0.4953513510299
40
0.506128456733832
40
0.506128456733832
40
0.534013657527057
40
0.534013657527057
40
0.644941898339769
40
0.644941898339769
40
1
40
1
40
1
40
1
41
1
10
-1.69996579738211
20
2.34399541728098
30
0
41
1
10
-1.69957351800008
20
2.2202872660603
30
0
41
1
10
-1.6978568428512
20
2.09468422296274
30
0
41
1
10
-1.67915903600471
20
1.9362551896819
30
0
41
1
10
-1.67466133865747
20
1.90240437328657
30
0
41
1
10
-1.66257453306423
20
1.86273523592695
30
0
41
1
10
-1.65975033602422
20
1.85482927921262
30
0
41
1
10
-1.65455231119012
20
1.84507122970734
30
0
41
1
10
-1.65293210062902
20
1.84245438467247
30
0
41
1
10
-1.64928001329514
20
1.83786290531623
30
0
41
1
10
-1.64718169695362
20
1.83585290038428
30
0
41
1
10
-1.64332341703022
20
1.83361873011964
30
0
41
1
10
-1.64159303361367
20
1.83304396936836
30
0
41
1
10
-1.6382124463716
20
1.83273324875088
30
0
41
1
10
-1.63652572409745
20
1.83298094253604
30
0
41
1
10
-1.63230470511542
20
1.83441412291407
30
0
41
1
10
-1.62985912301394
20
1.83609472866004
30
0
41
1
10
-1.62193294237829
20
1.84325136454726
30
0
41
1
10
-1.61733263266495
20
1.85052711231805
30
0
41
1
10
-1.59692149956965
20
1.88783133301965
30
0
41
1
10
-1.58631748354395
20
1.92357606741402
30
0
41
1
10
-1.54387296204186
20
2.07163462791979
30
0
41
1
10
-1.52142094847255
20
2.19032359396863
30
0
41
1
10
-1.5
20
2.30830715862382
30
0
0
SPLINE
5
E1
100
AcDbEntity
8
SK1
62
256
6
ByLayer
370
-1
48
1
60
0
100
AcDbSpline
70
4
71
3
72
32
73
28
40
0
40
0
40
0
40
0
40
0.375967902692924
40
0.375967902692924
40
0.444464229653131
40
0.444464229653131
40
0.468990955108136
40
0.468990955108136
40
0.494558645555655
40
0.494558645555655
40
0.504755305769426
40
0.504755305769426
40
0.515140081750197
40
0.515140081750197
40
0.521985618949525
40
0.521985618949525
40
0.528815562517944
40
0.528815562517944
40
0.539106505973226
40
0.539106505973226
40
0.559131898627258
40
0.559131898627258
40
0.632403265174771
40
0.632403265174771
40
0.924267768423137
40
0.924267768423137
40
1
40
1
40
1
40
1
41
1
10
-1.50000000000006
20
10.7291970110907
30
0
41
1
10
-1.52238821820077
20
10.710281852142
30
0
41
1
10
-1.54551182698873
20
10.6896066631374
30
0
41
1
10
-1.58732255241432
20
10.6788393268745
30
0
41
1
10
-1.59428077326487
20
10.6776449254147
30
0
41
1
10
-1.60562095811139
20
10.6782121701821
30
0
41
1
10
-1.60880790601186
20
10.6785812709992
30
0
41
1
10
-1.61598450313733
20
10.6801894200945
30
0
41
1
10
-1.62001006403415
20
10.6814211011701
30
0
41
1
10
-1.62671914901614
20
10.684730344978
30
0
41
1
10
-1.62878476790775
20
10.6858783555147
30
0
41
1
10
-1.63327245942486
20
10.6888012949566
30
0
41
1
10
-1.63577098066594
20
10.6906412359988
30
0
41
1
10
-1.64004954599722
20
10.6943350345439
30
0
41
1
10
-1.64182373236196
20
10.6960107552647
30
0
41
1
10
-1.64520857424037
20
10.699508871149
30
0
41
1
10
-1.64685684987228
20
10.7013674400397
30
0
41
1
10
-1.65062968719053
20
10.705938586449
30
0
41
1
10
-1.65264929056326
20
10.7086849260755
30
0
41
1
10
-1.65785750074656
20
10.7163178808146
30
0
41
1
10
-1.66053888902616
20
10.720995730557
30
0
41
1
10
-1.67118601277627
20
10.7411944588538
30
0
41
1
10
-1.67553327655526
20
10.7541659981155
30
0
41
1
10
-1.69413704527
20
10.8147555719656
30
0
41
1
10
-1.69697811933361
20
10.8517553017774
30
0
41
1
10
-1.69942780046676
20
10.895169971226
30
0
41
1
10
-1.69973873227127
20
10.9038635732803
30
0
41
1
10
-1.69989009581764
20
10.9123175561691
30
0
0
SPLINE
5
E2
100
AcDbEntity
8
SK1
62
256
6
ByLayer
370
-1
48
1
60
0
100
AcDbSpline
70
4
71
3
72
26
73
22
40
0
40
0
40
0
40
0
40
0.0042434309448905
40
0.0613301591488156
40
0.118416887352741
40
0.175503615556666
40
0.232590343760591
40
0.289677071964516
40
0.346763800168441
40
0.403850528372367
40
0.460937256576292
40
0.518023984780217
40
0.575110712984142
40
0.632197441188068
40
0.689284169391993
40
0.746370897595918
40
0.803457625799843
40
0.860544354003768
40
0.917631082207694
40
0.974717810411619
40
1
40
1
40
1
40
1
41
1
10
-0.400000000000034
20
-10.7720903551641
30
0
41
1
10
-0.400000000000034
20
-10.7706666069312
30
0
41
1
10
-0.400000000000034
20
-10.7496439100427
30
0
41
1
10
-0.400000000000034
20
-10.6965241329296
30
0
41
1
10
-0.400000000000034
20
-10.5827105539549
30
0
41
1
10
-0.400000000000034
20
-10.4292548370654
30
0
41
1
10
-0.400000000000034
20
-10.2342567210012
30
0
41
1
10
-0.400000000000034
20
-9.99668422428971
30
0
41
1
10
-0.400000000000034
20
-9.71646045325278
30
0
41
1
10
-0.400000000000034
20
-9.39451028305967
30
0
41
1
10
-0.400000000000034
20
-9.03277100198562
30
0
41
1
10
-0.400000000000034
20
-8.63416168408222
30
0
41
1
10
-0.400000000000034
20
-8.2025147049051
30
0
41
1
10
-0.400000000000034
20
-7.74247141428037
30
0
41
1
10
-0.400000000000034
20
-7.25934377839385
30
0
41
1
10
-0.400000000000034
20
-6.75895136864708
30
0
41
1
10
-0.400000000000034
20
-6.24743323087412
30
0
41
1
10
-0.400000000000034
20
-5.73105035715909
30
0
41
1
10
-0.400000000000034
20
-5.21597569580999
30
0
41
1
10
-0.400000000000034
20
-4.80241032436584
30
0
41
1
10
-0.400000000000034
20
-4.56250546597264
30
0
41
1
10
-0.400000000000034
20
-4.48934914533311
30
0
0
SPLINE
5
E3
100
AcDbEntity
8
SK1
62
256
6
ByLayer
370
-1
48
1
60
0
100
AcDbSpline
70
4
71
3
72
26
73
22
40
0
40
0
40
0
40
0
40
0.0252822053743131
40
0.0823689313925979
40
0.139455657410883
40
0.196542383429167
40
0.253629109447452
40
0.310715835465737
40
0.367802561484022
40
0.424889287502306
40
0.481976013520591
40
0.539062739538876
40
0.596149465557161
40
0.653236191575446
40
0.71032291759373
40
0.767409643612015
40
0.8244963696303
40
0.881583095648585
40
0.938669821666869
40
0.995756547685154
40
1
40
1
40
1
40
1
41
1
10
-0.400000000000034
20
4.4893489310777
30
0
41
1
10
-0.400000000000034
20
4.56250527649343
30
0
41
1
10
-0.400000000000034
20
4.80241012018314
30
0
41
1
10
-0.400000000000034
20
5.21597581842096
30
0
41
1
10
-0.400000000000034
20
5.73105048063846
30
0
41
1
10
-0.400000000000034
20
6.24743659384492
30
0
41
1
10
-0.400000000000034
20
6.75893656128304
30
0
41
1
10
-0.400000000000034
20
7.25934857263886
30
0
41
1
10
-0.400000000000034
20
7.74247092873685
30
0
41
1
10
-0.400000000000034
20
8.20251481389079
30
0
41
1
10
-0.400000000000034
20
8.63416150202502
30
0
41
1
10
-0.400000000000034
20
9.03277107731486
30
0
41
1
10
-0.400000000000034
20
9.39451017773413
30
0
41
1
10
-0.400000000000034
20
9.71646048768639
30
0
41
1
10
-0.400000000000034
20
9.99668420392302
30
0
41
1
10
-0.400000000000034
20
10.2342567136415
30
0
41
1
10
-0.400000000000034
20
10.4292548968257
30
0
41
1
10
-0.400000000000034
20
10.5827105102703
30
0
41
1
10
-0.400000000000034
20
10.6965242483831
30
0
41
1
10
-0.400000000000034
20
10.7496437528317
30
0
41
1
10
-0.400000000000034
20
10.7706665633893
30
0
41
1
10
-0.400000000000034
20
10.7720903270618
30
0
0
SPLINE
5
E4
100
AcDbEntity
8
SK1
62
256
6
ByLayer
370
-1
48
1
60
0
100
AcDbSpline
70
4
71
3
72
33
73
29
40
0
40
0
40
0
40
0
40
0.0262294112890123
40
0.0662244389421796
40
0.106219466595347
40
0.146214494248514
40
0.186209521901682
40
0.226204549554849
40
0.266199577208016
40
0.306194604861184
40
0.346189632514351
40
0.386184660167519
40
0.426179687820686
40
0.466174715473853
40
0.506169743127021
40
0.546164770780188
40
0.586159798433355
40
0.626154826086523
40
0.66614985373969
40
0.706144881392857
40
0.746139909046025
40
0.786134936699192
40
0.82612996435236
40
0.866124992005527
40
0.906120019658694
40
0.946115047311861
40
0.986110074965029
40
1
40
1
40
1
40
1
41
1
10
-1.5
20
-10.8197347433225
30
0
41
1
10
-1.5
20
-10.8232836062281
30
0
41
1
10
-1.5
20
-10.8279984695631
30
0
41
1
10
-1.5
20
-10.8164403957515
30
0
41
1
10
-1.5
20
-10.7733485034928
30
0
41
1
10
-1.5
20
-10.6965241329296
30
0
41
1
10
-1.5
20
-10.5827105539549
30
0
41
1
10
-1.5
20
-10.4292548370654
30
0
41
1
10
-1.5
20
-10.2342567210012
30
0
41
1
10
-1.5
20
-9.99668422428968
30
0
41
1
10
-1.5
20
-9.71646045325278
30
0
41
1
10
-1.5
20
-9.39451028305967
30
0
41
1
10
-1.5
20
-9.03277100198562
30
0
41
1
10
-1.5
20
-8.63416168408222
30
0
41
1
10
-1.5
20
-8.2025147049051
30
0
41
1
10
-1.5
20
-7.74247141428037
30
0
41
1
10
-1.5
20
-7.25934377839385
30
0
41
1
10
-1.5
20
-6.75895136864708
30
0
41
1
10
-1.5
20
-6.24743323087412
30
0
41
1
10
-1.5
20
-5.73105035715909
30
0
41
1
10
-1.5
20
-5.21597569580999
30
0
41
1
10
-1.5
20
-4.70809176356334
30
0
41
1
10
-1.5
20
-4.21279029060338
30
0
41
1
10
-1.5
20
-3.73479561610898
30
0
41
1
10
-1.5
20
-3.27800425826317
30
0
41
1
10
-1.5
20
-2.84536147075812
30
0
41
1
10
-1.5
20
-2.52722557449198
30
0
41
1
10
-1.5
20
-2.35274458205822
30
0
41
1
10
-1.5
20
-2.30830602436802
30
0
0
SPLINE
5
E5
100
AcDbEntity
8
SK1
62
256
6
ByLayer
370
-1
48
1
60
0
100
AcDbSpline
70
4
71
3
72
33
73
29
40
0
40
0
40
0
40
0
40
0.0138898280770035
40
0.0538848653476165
40
0.0938799026182296
40
0.133874939888843
40
0.173869977159456
40
0.213865014430069
40
0.253860051700682
40
0.293855088971295
40
0.333850126241908
40
0.373845163512521
40
0.413840200783134
40
0.453835238053747
40
0.49383027532436
40
0.533825312594973
40
0.573820349865586
40
0.613815387136199
40
0.653810424406812
40
0.693805461677426
40
0.733800498948039
40
0.773795536218652
40
0.813790573489265
40
0.853785610759878
40
0.893780648030491
40
0.933775685301104
40
0.973770722571717
40
1
40
1
40
1
40
1
41
1
10
-1.5
20
2.30830715862382
30
0
41
1
10
-1.5
20
2.35274536835021
30
0
41
1
10
-1.5
20
2.52722590203587
30
0
41
1
10
-1.5
20
2.84536131291168
30
0
41
1
10
-1.5
20
3.27800431136151
30
0
41
1
10
-1.5
20
3.73479546756539
30
0
41
1
10
-1.5
20
4.2127903847566
30
0
41
1
10
-1.5
20
4.70809154586752
30
0
41
1
10
-1.5
20
5.21597581842096
30
0
41
1
10
-1.5
20
5.73105048063846
30
0
41
1
10
-1.5
20
6.24743659384492
30
0
41
1
10
-1.5
20
6.75893656128304
30
0
41
1
10
-1.5
20
7.25934857263886
30
0
41
1
10
-1.5
20
7.74247092873685
30
0
41
1
10
-1.5
20
8.20251481389079
30
0
41
1
10
-1.5
20
8.63416150202502
30
0
41
1
10
-1.5
20
9.03277107731486
30
0
41
1
10
-1.5
20
9.39451017773411
30
0
41
1
10
-1.5
20
9.71646048768639
30
0
41
1
10
-1.5
20
9.99668420392302
30
0
41
1
10
-1.5
20
10.2342567136415
30
0
41
1
10
-1.5
20
10.4292548968257
30
0
41
1
10
-1.5
20
10.5827105102703
30
0
41
1
10
-1.5
20
10.6965242483831
30
0
41
1
10
-1.5
20
10.7733482106365
30
0
41
1
10
-1.5
20
10.8164410190789
30
0
41
1
10
-1.5
20
10.8279984269932
30
0
41
1
10
-1.5
20
10.8232833841779
30
0
41
1
10
-1.5
20
10.8197345245391
30
0
0
SPLINE
5
E6
100
AcDbEntity
8
1
62
256
6
ByLayer
370
-1
48
1
60
0
100
AcDbSpline
70
4
71
3
72
18
73
14
40
0
40
0
40
0
40
0
40
0.207641937931082
40
0.207641937931082
40
0.38262554027348
40
0.38262554027348
40
0.559347523242181
40
0.559347523242181
40
0.712487383398249
40
0.712487383398249
40
0.914492800239988
40
0.914492800239988
40
1
40
1
40
1
40
1
41
1
10
85.8279544213538
20
-9.81246883043769
30
0
41
1
10
85.8095022835747
20
-9.7435634261451
30
0
41
1
10
85.8007495190491
20
-9.66978607609605
30
0
41
1
10
85.8065608540932
20
-9.53235208199723
30
0
41
1
10
85.8179060384016
20
-9.46738108947096
30
0
41
1
10
85.8591549100378
20
-9.34269118452428
30
0
41
1
10
85.8900465868009
20
-9.28124762550189
30
0
41
1
10
85.9612427530936
20
-9.18096641677704
30
0
41
1
10
86.0005210149899
20
-9.13895124543203
30
0
41
1
10
86.0981604001321
20
-9.05772982762608
30
0
41
1
10
86.160138230277
20
-9.02208786334577
30
0
41
1
10
86.2507494895406
20
-8.98688016281099
30
0
41
1
10
86.2783954601606
20
-8.97821448371013
30
0
41
1
10
86.306258797183
20
-8.97140406645798
30
0
0
SPLINE
5
E7
100
AcDbEntity
8
1
62
256
6
ByLayer
370
-1
48
1
60
0
100
AcDbSpline
70
4
71
3
72
14
73
10
40
0
40
0
40
0
40
0
40
0.281483374970044
40
0.281483374970044
40
0.566301676413146
40
0.566301676413146
40
0.823993152753305
40
0.823993152753305
40
1
40
1
40
1
40
1
41
1
10
83.3878254698216
20
-8.98972102201634
30
0
41
1
10
83.3553892197573
20
-8.98258043272324
30
0
41
1
10
83.3233856501839
20
-8.96941407176973
30
0
41
1
10
83.2656661130728
20
-8.93172077626616
30
0
41
1
10
83.2391686678129
20
-8.90642279946837
30
0
41
1
10
83.1996888248231
20
-8.84978682936264
30
0
41
1
10
83.1851130478648
20
-8.81836109485829
30
0
41
1
10
83.1708690133152
20
-8.76281867610066
30
0
41
1
10
83.1677944581295
20
-8.7390847719887
30
0
41
1
10
83.1676561474106
20
-8.71545504606343
30
0
0
SPLINE
5
E8
100
AcDbEntity
8
1
62
256
6
ByLayer
370
-1
48
1
60
0
100
AcDbSpline
70
4
71
3
72
16
73
12
40
0
40
0
40
0
40
0
40
0.14209834742964
40
0.14209834742964
40
0.364496957945386
40
0.364496957945386
40
0.594066000669738
40
0.594066000669738
40
0.841610670480926
40
0.841610670480926
40
1
40
1
40
1
40
1
41
1
10
85.6948684513253
20
-10.1472344018824
30
0
41
1
10
85.6785803029141
20
-10.1568128116401
30
0
41
1
10
85.6612536159512
20
-10.164792217773
30
0
41
1
10
85.6157086262672
20
-10.1805064168556
30
0
41
1
10
85.586250648611
20
-10.1856994254482
30
0
41
1
10
85.5276914886917
20
-10.1870676760416
30
0
41
1
10
85.4978940599153
20
-10.182991617669
30
0
41
1
10
85.440156829694
20
-10.1661139108318
30
0
41
1
10
85.4118139492003
20
-10.1524758249851
30
0
41
1
10
85.3706803902479
20
-10.1243547903282
30
0
41
1
10
85.355735642756
20
-10.1117968651736
30
0
41
1
10
85.3422514352186
20
-10.0980913643368
30
0
0
SPLINE
5
E9
100
AcDbEntity
8
1
62
256
6
ByLayer
370
-1
48
1
60
0
100
AcDbSpline
70
4
71
3
72
16
73
12
40
0
40
0
40
0
40
0
40
0.0505596990167535
40
0.0505596990167535
40
0.273614755705239
40
0.273614755705239
40
0.498757020940633
40
0.498757020940633
40
0.737778360863402
40
0.737778360863402
40
1
40
1
40
1
40
1
41
1
10
83.9933702286369
20
-7.2634946335389
30
0
41
1
10
83.999207095484
20
-7.26006220518968
30
0
41
1
10
84.0051677565177
20
-7.25682360219568
30
0
41
1
10
84.0377384652233
20
-7.24052840953684
30
0
41
1
10
84.0665990044588
20
-7.23115018206715
30
0
41
1
10
84.1245271236139
20
-7.22127323781893
30
0
41
1
10
84.1543288910656
20
-7.22071014205252
30
0
41
1
10
84.2127052191249
20
-7.22792908963086
30
0
41
1
10
84.2418266719047
20
-7.23628729148345
30
0
41
1
10
84.2970166174703
20
-7.26132306637899
30
0
41
1
10
84.3232256713945
20
-7.27901071806704
30
0
41
1
10
84.3453061252665
20
-7.29964113724262
30
0
0
SPLINE
5
EA
100
AcDbEntity
8
1
62
256
6
ByLayer
370
-1
48
1
60
0
100
AcDbSpline
70
4
71
3
72
16
73
12
40
0
40
0
40
0
40
0
40
0.0564225019473652
40
0.0564225019473652
40
0.27929390092264
40
0.27929390092264
40
0.504589079185155
40
0.504589079185155
40
0.744032619698681
40
0.744032619698681
40
1
40
1
40
1
40
1
41
1
10
83.1676561474106
20
-8.71545504606343
30
0
41
1
10
83.1676119933122
20
-8.7079115291782
30
0
41
1
10
83.1678613687504
20
-8.70035093709873
30
0
41
1
10
83.1705233623916
20
-8.66326565325193
30
0
41
1
10
83.1772944404494
20
-8.63361734385805
30
0
41
1
10
83.1987869218775
20
-8.57849767610224
30
0
41
1
10
83.2138460218095
20
-8.55236495353878
30
0
41
1
10
83.2507310751889
20
-8.50526547427242
30
0
41
1
10
83.2733597911129
20
-8.48411682794568
30
0
41
1
10
83.3237117231224
20
-8.44907428746396
30
0
41
1
10
83.3522578662948
20
-8.43531805181851
30
0
41
1
10
83.3812987633021
20
-8.42632843512152
30
0
0
SPLINE
5
EB
100
AcDbEntity
8
1
62
256
6
ByLayer
370
-1
48
1
60
0
100
AcDbSpline
70
4
71
3
72
18
73
14
40
0
40
0
40
0
40
0
40
0.212071295667589
40
0.212071295667589
40
0.386267649012388
40
0.386267649012388
40
0.56215036720483
40
0.56215036720483
40
0.715124048215802
40
0.715124048215802
40
0.917906936475126
40
0.917906936475126
40
1
40
1
40
1
40
1
41
1
10
85.3140367129434
20
-7.28976241370952
30
0
41
1
10
85.2642685909364
20
-7.33800788227728
30
0
41
1
10
85.2048914916247
20
-7.38027864190914
30
0
41
1
10
85.0835756483989
20
-7.43949448419883
30
0
41
1
10
85.0225450654531
20
-7.46015159678402
30
0
41
1
10
84.8951995533783
20
-7.48433640496296
30
0
41
1
10
84.8269141042683
20
-7.48788699066196
30
0
41
1
10
84.7042536723959
20
-7.47732178689199
30
0
41
1
10
84.6477542323975
20
-7.46539846115945
30
0
41
1
10
84.5266832507312
20
-7.42488215338881
30
0
41
1
10
84.4632901750307
20
-7.39163437617862
30
0
41
1
10
84.386209415283
20
-7.33558821222451
30
0
41
1
10
84.3650774027812
20
-7.31811402485314
30
0
41
1
10
84.3453061252665
20
-7.29964113724265
30
0
0
SPLINE
5
EC
100
AcDbEntity
8
1
62
256
6
ByLayer
370
-1
48
1
60
0
100
AcDbSpline
70
4
71
3
72
12
73
8
40
0
40
0
40
0
40
0
40
0.321499323659192
40
0.321499323659192
40
0.790361623223694
40
0.790361623223694
40
1
40
1
40
1
40
1
41
1
10
85.8381712502446
20
-8.00770851085866
30
0
41
1
10
85.8174245191357
20
-7.96044215351307
30
0
41
1
10
85.8023081586077
20
-7.91122733385058
30
0
41
1
10
85.7796424100032
20
-7.79250880422057
30
0
41
1
10
85.7781834696797
20
-7.722048085609
30
0
41
1
10
85.79075645891
20
-7.62610121450177
30
0
41
1
10
85.7967084216715
20
-7.59690565337951
30
0
41
1
10
85.804535019417
20
-7.56855062579081
30
0
0
SPLINE
5
ED
100
AcDbEntity
8
1
62
256
6
ByLayer
370
-1
48
1
60
0
100
AcDbSpline
70
4
71
3
72
12
73
8
40
0
40
0
40
0
40
0
40
0.317744889416988
40
0.317744889416988
40
0.785788575726636
40
0.785788575726636
40
1
40
1
40
1
40
1
41
1
10
83.8483709139309
20
-9.37064907494531
30
0
41
1
10
83.8688956971147
20
-9.41800022836242
30
0
41
1
10
83.8839628949802
20
-9.46787146281244
30
0
41
1
10
83.9070478405658
20
-9.59008507330651
30
0
41
1
10
83.9089081812278
20
-9.66391498213943
30
0
41
1
10
83.8968810465504
20
-9.76617769097044
30
0
41
1
10
83.8909285964152
20
-9.79799081356876
30
0
41
1
10
83.8830116677429
20
-9.82897440038545
30
0
0
SPLINE
5
EE
100
AcDbEntity
8
1
62
256
6
ByLayer
370
-1
48
1
60
0
100
AcDbSpline
70
4
71
3
72
14
73
10
40
0
40
0
40
0
40
0
40
0.266548793019362
40
0.266548793019362
40
0.555058648155774
40
0.555058648155774
40
0.815998835543381
40
0.815998835543381
40
1
40
1
40
1
40
1
41
1
10
83.8596031391313
20
-7.58526367114177
30
0
41
1
10
83.8513303210868
20
-7.5559368132291
30
0
41
1
10
83.8478331815591
20
-7.52432631028512
30
0
41
1
10
83.8521873850572
20
-7.45837122635299
30
0
41
1
10
83.8611451271576
20
-7.42297116741662
30
0
41
1
10
83.8908587945818
20
-7.360531039178
30
0
41
1
10
83.9109126094819
20
-7.33209430497152
30
0
41
1
10
83.9525232698967
20
-7.29108021593927
30
0
41
1
10
83.9722461379819
20
-7.27591686784959
30
0
41
1
10
83.9933702286369
20
-7.2634946335389
30
0
0
SPLINE
5
EF
100
AcDbEntity
8
1
62
256
6
ByLayer
370
-1
48
1
60
0
100
AcDbSpline
70
4
71
3
72
18
73
14
40
0
40
0
40
0
40
0
40
0.0495733587936765
40
0.0495733587936765
40
0.272662104909032
40
0.272662104909032
40
0.497781275900801
40
0.497781275900801
40
0.736734166828067
40
0.736734166828067
40
0.998804076284653
40
0.998804076284653
40
1
40
1
40
1
40
1
41
1
10
86.5205825325515
20
-8.69527398935796
30
0
41
1
10
86.5206213400893
20
-8.70190407189648
30
0
41
1
10
86.5204328325759
20
-8.70853378627896
30
0
41
1
10
86.5181671590211
20
-8.74460142015749
30
0
41
1
10
86.5116438371264
20
-8.77395733039921
30
0
41
1
10
86.4905744733231
20
-8.82805147396272
30
0
41
1
10
86.4757088746911
20
-8.85344346212435
30
0
41
1
10
86.4391602140085
20
-8.89867074393192
30
0
41
1
10
86.4166813469398
20
-8.91865522807632
30
0
41
1
10
86.3658503548167
20
-8.95151550433673
30
0
41
1
10
86.3365216459165
20
-8.96395958895988
30
0
41
1
10
86.306534338994
20
-8.97133660895827
30
0
41
1
10
86.3063965773042
20
-8.97137038994202
30
0
41
1
10
86.306258797183
20
-8.97140406645801
30
0
0
SPLINE
5
F0
100
AcDbEntity
8
1
62
256
6
ByLayer
370
-1
48
1
60
0
100
AcDbSpline
70
4
71
3
72
18
73
14
40
0
40
0
40
0
40
0
40
0.20805228931394
40
0.20805228931394
40
0.382962737033171
40
0.382962737033171
40
0.559606760626744
40
0.559606760626744
40
0.712730742478142
40
0.712730742478142
40
0.914807813243688
40
0.914807813243688
40
1
40
1
40
1
40
1
41
1
10
84.3735208475415
20
-10.1079700878702
30
0
41
1
10
84.422118604642
20
-10.0563420256153
30
0
41
1
10
84.479951645319
20
-10.0107122891995
30
0
41
1
10
84.5993695976327
20
-9.94530109417573
30
0
41
1
10
84.6603262153773
20
-9.92197247219073
30
0
41
1
10
84.7878270467605
20
-9.8943892378804
30
0
41
1
10
84.8563663618897
20
-9.89012477376826
30
0
41
1
10
84.979516654227
20
-9.90151857814217
30
0
41
1
10
85.0362439747867
20
-9.91464185342781
30
0
41
1
10
85.1576231963894
20
-9.95915817731671
30
0
41
1
10
85.2211892064048
20
-9.99556883630143
30
0
41
1
10
85.2995587934732
20
-10.0573100153899
30
0
41
1
10
85.321637640518
20
-10.0771392705833
30
0
41
1
10
85.3422514352186
20
-10.0980913643368
30
0
0
SPLINE
5
F1
100
AcDbEntity
8
1
62
256
6
ByLayer
370
-1
48
1
60
0
100
AcDbSpline
70
4
71
3
72
12
73
8
40
0
40
0
40
0
40
0
40
0.494962671778599
40
0.494962671778599
40
0.899981336234424
40
0.899981336234424
40
1
40
1
40
1
40
1
41
1
10
86.2997212173383
20
-8.40780400415989
30
0
41
1
10
86.2305184912138
20
-8.38819030965124
30
0
41
1
10
86.1617767826026
20
-8.35720568109355
30
0
41
1
10
86.0462989008773
20
-8.28069532456578
30
0
41
1
10
85.9966176488077
20
-8.23784766376792
30
0
41
1
10
85.9428724429119
20
-8.17649199356029
30
0
41
1
10
85.9325338763573
20
-8.1638512897554
30
0
41
1
10
85.9226339026592
20
-8.15085782859518
30
0
0
SPLINE
5
F2
100
AcDbEntity
8
1
62
256
6
ByLayer
370
-1
48
1
60
0
100
AcDbSpline
70
4
71
3
72
14
73
10
40
0
40
0
40
0
40
0
40
0.271969763943066
40
0.271969763943066
40
0.557979173754246
40
0.557979173754246
40
0.816643577032445
40
0.816643577032445
40
1
40
1
40
1
40
1
41
1
10
86.2997212173383
20
-8.40780400415991
30
0
41
1
10
86.3311697560762
20
-8.41671726619583
30
0
41
1
10
86.3621933156808
20
-8.43115209221898
30
0
41
1
10
86.4196347147309
20
-8.4710005204202
30
0
41
1
10
86.4465966911808
20
-8.49762974772941
30
0
41
1
10
86.4869551450643
20
-8.55629289523816
30
0
41
1
10
86.5019626451545
20
-8.58849120381052
30
0
41
1
10
86.5170937099404
20
-8.64574574208848
30
0
41
1
10
86.5204384674489
20
-8.67066115445147
30
0
41
1
10
86.5205825325515
20
-8.69527398935796
30
0
0
SPLINE
5
F3
100
AcDbEntity
8
1
62
256
6
ByLayer
370
-1
48
1
60
0
100
AcDbSpline
70
4
71
3
72
18
73
14
40
0
40
0
40
0
40
0
40
0.146809564150026
40
0.146809564150026
40
0.333611955380029
40
0.333611955380029
40
0.490405534771604
40
0.490405534771604
40
0.647486799220377
40
0.647486799220377
40
0.802279757491752
40
0.802279757491752
40
1
40
1
40
1
40
1
41
1
10
83.8596031391313
20
-7.5852636711418
30
0
41
1
10
83.8724966195829
20
-7.63097061975
30
0
41
1
10
83.8805395294632
20
-7.67905831932558
30
0
41
1
10
83.8860618342062
20
-7.7911438387232
30
0
41
1
10
83.879962762882
20
-7.8573477873197
30
0
41
1
10
83.8495959751857
20
-7.97756516288666
30
0
41
1
10
83.8279237647526
20
-8.03313911108489
30
0
41
1
10
83.7712606250413
20
-8.13662634974116
30
0
41
1
10
83.7355404424678
20
-8.18578579937255
30
0
41
1
10
83.6564852836127
20
-8.27070415410876
30
0
41
1
10
83.6124295249277
20
-8.30771305039531
30
0
41
1
10
83.5079298456579
20
-8.37717799791082
30
0
41
1
10
83.4449442201197
20
-8.40662696856029
30
0
41
1
10
83.3812987633021
20
-8.42632843512155
30
0
0
SPLINE
5
F4
100
AcDbEntity
8
1
62
256
6
ByLayer
370
-1
48
1
60
0
100
AcDbSpline
70
4
71
3
72
16
73
12
40
0
40
0
40
0
40
0
40
0.0518354783318896
40
0.0518354783318896
40
0.272647744471586
40
0.272647744471586
40
0.495628613702197
40
0.495628613702197
40
0.732434036661682
40
0.732434036661682
40
1
40
1
40
1
40
1
41
1
10
85.6657247534572
20
-7.24644063709215
30
0
41
1
10
85.6718377294526
20
-7.24987021719744
30
0
41
1
10
85.6778311328783
20
-7.25351558844338
30
0
41
1
10
85.7083848464068
20
-7.27360464719763
30
0
41
1
10
85.7307764031371
20
-7.29376076563798
30
0
41
1
10
85.7677645687652
20
-7.33859484846298
30
0
41
1
10
85.7827718465796
20
-7.36387241758854
30
0
41
1
10
85.8047465580478
20
-7.41745479982151
30
0
41
1
10
85.8114625482476
20
-7.44650995574372
30
0
41
1
10
85.8160244604919
20
-7.50690883585915
30
0
41
1
10
85.8127278489731
20
-7.53886877479457
30
0
41
1
10
85.804535019417
20
-7.56855062579081
30
0
0
SPLINE
5
F5
100
AcDbEntity
8
1
62
256
6
ByLayer
370
-1
48
1
60
0
100
AcDbSpline
70
4
71
3
72
12
73
8
40
0
40
0
40
0
40
0
40
0.488246810185983
40
0.488246810185983
40
0.894430614571995
40
0.894430614571995
40
1
40
1
40
1
40
1
41
1
10
83.3878254698216
20
-8.98972102201634
30
0
41
1
10
83.4558640733185
20
-9.00469919374348
30
0
41
1
10
83.5234488008985
20
-9.030963992854
30
0
41
1
10
83.6381262938324
20
-9.10030214366145
30
0
41
1
10
83.6879694773179
20
-9.14074535397469
30
0
41
1
10
83.7425535328002
20
-9.20098644378083
30
0
41
1
10
83.7534736494147
20
-9.21401321643461
30
0
41
1
10
83.7639082615162
20
-9.22749975720873
30
0
0
SPLINE
5
F6
100
AcDbEntity
8
1
62
256
6
ByLayer
370
-1
48
1
60
0
100
AcDbSpline
70
4
71
3
72
14
73
10
40
0
40
0
40
0
40
0
40
0.269061426293176
40
0.269061426293176
40
0.557255928578645
40
0.557255928578645
40
0.817937684906043
40
0.817937684906043
40
1
40
1
40
1
40
1
41
1
10
85.3140367129433
20
-7.28976241370952
30
0
41
1
10
85.3363600490761
20
-7.26812205903499
30
0
41
1
10
85.3631072737879
20
-7.24948986141052
30
0
41
1
10
85.4243100593876
20
-7.22094036396123
30
0
41
1
10
85.4601818696946
20
-7.2113522532467
30
0
41
1
10
85.5301935488829
20
-7.20634528600965
30
0
41
1
10
85.5652379243691
20
-7.2096463101249
30
0
41
1
10
85.6217232729453
20
-7.22520765185371
30
0
41
1
10
85.644579684228
20
-7.23457755946706
30
0
41
1
10
85.6657247534572
20
-7.24644063709215
30
0
0
SPLINE
5
F7
100
AcDbEntity
8
1
62
256
6
ByLayer
370
-1
48
1
60
0
100
AcDbSpline
70
4
71
3
72
14
73
10
40
0
40
0
40
0
40
0
40
0.282556819548145
40
0.282556819548145
40
0.569056699950977
40
0.569056699950977
40
0.828364287555729
40
0.828364287555729
40
1
40
1
40
1
40
1
41
1
10
84.3735208475415
20
-10.1079700878702
30
0
41
1
10
84.3501895285572
20
-10.1327562274141
30
0
41
1
10
84.3219448393766
20
-10.154136913992
30
0
41
1
10
84.2589774383797
20
-10.185756747839
30
0
41
1
10
84.2231651847198
20
-10.1962687626485
30
0
41
1
10
84.1534634727404
20
-10.2024406899148
30
0
41
1
10
84.1186569840621
20
-10.199447524381
30
0
41
1
10
84.0638926019014
20
-10.1842889545329
30
0
41
1
10
84.0424525904897
20
-10.175474643029
30
0
41
1
10
84.0225139265049
20
-10.1642883983292
30
0
0
SPLINE
5
F8
100
AcDbEntity
8
1
62
256
6
ByLayer
370
-1
48
1
60
0
100
AcDbSpline
70
4
71
3
72
16
73
12
40
0
40
0
40
0
40
0
40
0.0718709331193693
40
0.0718709331193693
40
0.382782271082457
40
0.382782271082457
40
0.665014904903588
40
0.665014904903588
40
0.913906911032805
40
0.913906911032805
40
1
40
1
40
1
40
1
41
1
10
85.8279544213551
20
-9.81246883043713
30
0
41
1
10
85.8302286180433
20
-9.82096131212779
30
0
41
1
10
85.8321514772778
20
-9.82959032281482
30
0
41
1
10
85.8403469411588
20
-9.87565793227822
30
0
41
1
10
85.8401300139431
20
-9.91565985742699
30
0
41
1
10
85.8247859369671
20
-9.98930267423893
30
0
41
1
10
85.8107162233265
20
-10.024330503968
30
0
41
1
10
85.7728809206827
20
-10.0827296753546
30
0
41
1
10
85.7498588540251
20
-10.1078215167906
30
0
41
1
10
85.7144226364413
20
-10.1349190637681
30
0
41
1
10
85.7048098279701
20
-10.1413882751985
30
0
41
1
10
85.6948684513253
20
-10.1472344018824
30
0
0
SPLINE
5
F9
100
AcDbEntity
8
1
62
256
6
ByLayer
370
-1
48
1
60
0
100
AcDbSpline
70
4
71
3
72
16
73
12
40
0
40
0
40
0
40
0
40
0.0614390980880699
40
0.0614390980880699
40
0.282197352654117
40
0.282197352654117
40
0.50567309095054
40
0.50567309095054
40
0.743425178571365
40
0.743425178571365
40
1
40
1
40
1
40
1
41
1
10
84.0225139265049
20
-10.1642883983292
30
0
41
1
10
84.0152794847555
20
-10.1602296391397
30
0
41
1
10
84.0082103524717
20
-10.1558475579813
30
0
41
1
10
83.9768804990669
20
-10.1344857977701
30
0
41
1
10
83.9547718721175
20
-10.1136732717354
30
0
41
1
10
83.9183232739457
20
-10.0671370287805
30
0
41
1
10
83.903599783675
20
-10.0407786667869
30
0
41
1
10
83.8821957247033
20
-9.9846677717766
30
0
41
1
10
83.8757912282449
20
-9.95411523387983
30
0
41
1
10
83.8719791255973
20
-9.8918069829416
30
0
41
1
10
83.8752398119511
20
-9.85939023190554
30
0
41
1
10
83.8830116677429
20
-9.82897440038545
30
0
0
SPLINE
5
FA
100
AcDbEntity
8
SK1
62
256
6
ByLayer
370
-1
48
1
60
0
100
AcDbSpline
70
4
71
3
72
79
73
75
40
0
40
0
40
0
40
0
40
0.0064305960808711
40
0.0205325821317761
40
0.0346345681826811
40
0.0487365542335862
40
0.0628385402844912
40
0.0769405263353963
40
0.0910425123863013
40
0.105144498437206
40
0.119246484488111
40
0.133348470539016
40
0.147450456589922
40
0.161552442640826
40
0.175654428691732
40
0.189756414742637
40
0.203858400793542
40
0.217960386844447
40
0.232062372895352
40
0.246164358946257
40
0.260266344997162
40
0.274368331048067
40
0.288470317098972
40
0.302572303149877
40
0.316674289200782
40
0.330776275251687
40
0.344878261302592
40
0.358980247353497
40
0.373082233404402
40
0.387184219455307
40
0.401286205506212
40
0.415388191557117
40
0.429490177608022
40
0.443592163658927
40
0.457694149709832
40
0.471796135760737
40
0.485898121811642
40
0.500000107862548
40
0.514102093913453
40
0.528204079964358
40
0.542306066015263
40
0.556408052066168
40
0.570510038117073
40
0.584612024167978
40
0.598714010218883
40
0.612815996269788
40
0.626917982320693
40
0.641019968371598
40
0.655121954422503
40
0.669223940473408
40
0.683325926524313
40
0.697427912575218
40
0.711529898626123
40
0.725631884677028
40
0.739733870727933
40
0.753835856778838
40
0.767937842829743
40
0.782039828880648
40
0.796141814931553
40
0.810243800982458
40
0.824345787033363
40
0.838447773084268
40
0.852549759135174
40
0.866651745186079
40
0.880753731236984
40
0.894855717287889
40
0.908957703338794
40
0.923059689389699
40
0.937161675440604
40
0.951263661491509
40
0.965365647542414
40
0.979467633593319
40
0.993569619644224
40
1
40
1
40
1
40
1
41
1
10
-2.5
20
10.8686550016532
30
0
41
1
10
-2.5
20
10.8790746706889
30
0
41
1
10
-2.50000000000006
20
10.9108282719913
30
0
41
1
10
-2.5
20
10.9553895973621
30
0
41
1
10
-2.5
20
10.9911639635893
30
0
41
1
10
-2.5
20
11.004418378241
30
0
41
1
10
-2.5
20
10.9911623984962
30
0
41
1
10
-2.5
20
10.9474686304738
30
0
41
1
10
-2.5
20
10.8696664218331
30
0
41
1
10
-2.5
20
10.7545189459148
30
0
41
1
10
-2.5
20
10.5993939502378
30
0
41
1
10
-2.5
20
10.4024076559292
30
0
41
1
10
-2.5
20
10.1625416635539
30
0
41
1
10
-2.5
20
9.87972833820902
30
0
41
1
10
-2.5
20
9.55489716738788
30
0
41
1
10
-2.5
20
9.18998633548568
30
0
41
1
10
-2.5
20
8.7879102308668
30
0
41
1
10
-2.5
20
8.35249429791335
30
0
41
1
10
-2.5
20
7.88836739733654
30
0
41
1
10
-2.5
20
7.40083249722349
30
0
41
1
10
-2.5
20
6.89566660501004
30
0
41
1
10
-2.5
20
6.37905265294063
30
0
41
1
10
-2.5
20
5.85717357325984
30
0
41
1
10
-2.5
20
5.3362171107967
30
0
41
1
10
-2.5
20
4.82204796703348
30
0
41
1
10
-2.5
20
4.32005112408754
30
0
41
1
10
-2.5
20
3.83494636183181
30
0
41
1
10
-2.5
20
3.37063352515292
30
0
41
1
10
-2.5
20
2.93006538818366
30
0
41
1
10
-2.5
20
2.515155240528
30
0
41
1
10
-2.5
20
2.1267232238333
30
0
41
1
10
-2.5
20
1.76448070218825
30
0
41
1
10
-2.5
20
1.4270586722962
30
0
41
1
10
-2.5
20
1.11207189529088
30
0
41
1
10
-2.5
20
0.816225686754592
30
0
41
1
10
-2.5
20
0.535450813753641
30
0
41
1
10
-2.5
20
0.265073199113004
30
0
41
1
10
-2.5
20
-5.5264195E-08
30
0
41
1
10
-2.5
20
-0.265072978056168
30
0
41
1
10
-2.5
20
-0.535450915490543
30
0
41
1
10
-2.5
20
-0.816225500863794
30
0
41
1
10
-2.5
20
-1.11207197195026
30
0
41
1
10
-2.5
20
-1.42705855154932
30
0
41
1
10
-2.5
20
-1.76448074117411
30
0
41
1
10
-2.5
20
-2.12672318863659
30
0
41
1
10
-2.5
20
-2.51515523478019
30
0
41
1
10
-2.5
20
-2.93006544637146
30
0
41
1
10
-2.5
20
-3.37063347415665
30
0
41
1
10
-2.5
20
-3.83494650762893
30
0
41
1
10
-2.5
20
-4.32005103389795
30
0
41
1
10
-2.5
20
-4.82204818199463
30
0
41
1
10
-2.5
20
-5.33621699307892
30
0
41
1
10
-2.5
20
-5.85717382916968
30
0
41
1
10
-2.5
20
-6.37904809202519
30
0
41
1
10
-2.5
20
-6.89568136104162
30
0
41
1
10
-2.5
20
-7.40082874697168
30
0
41
1
10
-2.5
20
-7.88836763355843
30
0
41
1
10
-2.5
20
-8.35249419387415
30
0
41
1
10
-2.5
20
-8.78791041080157
30
0
41
1
10
-2.5
20
-9.18998626466617
30
0
41
1
10
-2.5
20
-9.55489727073115
30
0
41
1
10
-2.5
20
-9.87972830774902
30
0
41
1
10
-2.5
20
-10.1625416820507
30
0
41
1
10
-2.5
20
-10.4024076666937
30
0
41
1
10
-2.5
20
-10.5993938886828
30
0
41
1
10
-2.5
20
-10.7545189924614
30
0
41
1
10
-2.5
20
-10.8696662972013
30
0
41
1
10
-2.5
20
-10.9474689380927
30
0
41
1
10
-2.5
20
-10.991161771703
30
0
41
1
10
-2.5
20
-11.0044184915466
30
0
41
1
10
-2.5
20
-10.9911643916233
30
0
41
1
10
-2.5
20
-10.9553894530377
30
0
41
1
10
-2.5
20
-10.9108284080036
30
0
41
1
10
-2.5
20
-10.8790752668893
30
0
41
1
10
-2.5
20
-10.8686559995684
30
0
0
SPLINE
5
FB
100
AcDbEntity
8
SK1
62
256
6
ByLayer
370
-1
48
1
60
0
100
AcDbSpline
70
4
71
3
72
17
73
13
40
0
40
0
40
0
40
0
40
0.0453314398741335
40
0.158804635633543
40
0.272283041247701
40
0.385660391788537
40
0.498422014190353
40
0.611746502437293
40
0.725487043281
40
0.839246186984875
40
0.952964168223589
40
1
40
1
40
1
40
1
41
1
10
-19
20
-9.99543016428609
30
0
41
1
10
-19
20
-9.9835128180523
30
0
41
1
10
-19
20
-9.81027270009722
30
0
41
1
10
-19
20
-8.84228615051492
30
0
41
1
10
-19
20
-6.73030840132179
30
0
41
1
10
-19
20
-3.88225725729353
30
0
41
1
10
-19
20
-0.0568742514864482
30
0
41
1
10
-19
20
3.80709470138552
30
0
41
1
10
-19
20
6.67873341162661
30
0
41
1
10
-19
20
8.81280576388937
30
0
41
1
10
-19
20
9.80267743663777
30
0
41
1
10
-19
20
9.98226811564831
30
0
41
1
10
-19
20
9.99476283544661
30
0
0
SPLINE
5
FC
100
AcDbEntity
8
SK1
62
256
6
ByLayer
370
-1
48
1
60
0
100
AcDbSpline
70
4
71
3
72
28
73
24
40
0
40
0
40
0
40
0
40
0.0423879952790282
40
0.0423879952790282
40
0.156794666310423
40
0.156794666310423
40
0.271201337341818
40
0.271201337341818
40
0.385608008373213
40
0.385608008373213
40
0.500014679404607
40
0.500014679404607
40
0.557218014920305
40
0.557218014920305
40
0.614421350436002
40
0.614421350436002
40
0.728828021467397
40
0.728828021467397
40
0.843234692498792
40
0.843234692498792
40
0.957641363530186
40
0.957641363530186
40
1
40
1
40
1
40
1
41
1
10
-18.0001734295146
20
-10.6054878414895
30
0
41
1
10
-18.0000005467322
20
-10.5885153792434
30
0
41
1
10
-17.9998497172846
20
-10.5352314117592
30
0
41
1
10
-17.9993460601134
20
-10.2429088672824
30
0
41
1
10
-17.9990988056028
20
-9.81359720713402
30
0
41
1
10
-17.9988195891792
20
-8.67799587917008
30
0
41
1
10
-17.9987789888217
20
-7.93803669656467
30
0
41
1
10
-17.9988983953945
20
-6.21390741143236
30
0
41
1
10
-17.9990885772988
20
-5.2000970908768
30
0
41
1
10
-17.9995974783544
20
-2.89237914518125
30
0
41
1
10
-18.000287271437
20
-1.57655907424311
30
0
41
1
10
-18.0003286246019
20
0.690578498002651
30
0
41
1
10
-18.0000850867792
20
1.41417473709515
30
0
41
1
10
-17.9996934384014
20
2.75651088503116
30
0
41
1
10
-17.9994983534135
20
3.37778931845674
30
0
41
1
10
-17.9990930991172
20
5.13772388357202
30
0
41
1
10
-17.998907377526
20
6.13962641864131
30
0
41
1
10
-17.998777565303
20
7.90646294229808
30
0
41
1
10
-17.9988135429197
20
8.63135220704805
30
0
41
1
10
-17.9990900316852
20
9.79882231270327
30
0
41
1
10
-17.9993298221815
20
10.225403547372
30
0
41
1
10
-17.9998318423097
20
10.5275743203729
30
0
41
1
10
-17.999981658707
20
10.5829979488043
30
0
41
1
10
-18.0001534602723
20
10.6023204589937
30
0
0
SPLINE
5
FD
100
AcDbEntity
8
SK1
62
256
6
ByLayer
370
-1
48
1
60
0
100
AcDbSpline
70
4
71
3
72
24
73
20
40
0
40
0
40
0
40
0
40
0.034889037114014
40
0.034889037114014
40
0.0617027213621333
40
0.0617027213621333
40
0.0827724763828786
40
0.0827724763828786
40
0.103857289986993
40
0.103857289986993
40
0.132456700829654
40
0.132456700829654
40
0.183303847887193
40
0.183303847887193
40
0.34214732391785
40
0.34214732391785
40
0.999994163615033
40
0.999994163615033
40
1
40
1
40
1
40
1
41
1
10
-0.400000000000034
20
10.7720903270618
30
0
41
1
10
-0.394111355098573
20
10.7726946640025
30
0
41
1
10
-0.387638990857908
20
10.7735074107736
30
0
41
1
10
-0.374999497999227
20
10.7755463299797
30
0
41
1
10
-0.368988434639903
20
10.7766582562045
30
0
41
1
10
-0.357779191188456
20
10.7790947211554
30
0
41
1
10
-0.352573525529351
20
10.7803510360362
30
0
41
1
10
-0.342444927003157
20
10.7830631767083
30
0
41
1
10
-0.337408731680853
20
10.7845489216127
30
0
41
1
10
-0.326477488214323
20
10.7880399886084
30
0
41
1
10
-0.320718590221418
20
10.790094933621
30
0
41
1
10
-0.306589885788867
20
10.7955138573257
30
0
41
1
10
-0.299229318200901
20
10.7987886768127
30
0
41
1
10
-0.273318263088015
20
10.8111744132949
30
0
41
1
10
-0.26176150519791
20
10.8187552826324
30
0
41
1
10
-0.212916331686188
20
10.8527221106266
30
0
41
1
10
-0.206214896622498
20
10.8665219361729
30
0
41
1
10
-0.201948096039865
20
10.8745596594224
30
0
41
1
10
-0.201947627118576
20
10.8745605427756
30
0
41
1
10
-0.201947158200447
20
10.8745614261304
30
0
0
SPLINE
5
FE
100
AcDbEntity
8
SK1
62
256
6
ByLayer
370
-1
48
1
60
0
100
AcDbSpline
70
4
71
3
72
24
73
20
40
0
40
0
40
0
40
0
40
0.0288407257317727
40
0.0288407257317727
40
0.0509955919663311
40
0.0509955919663311
40
0.0683898145862111
40
0.0683898145862111
40
0.0857973114187118
40
0.0857973114187118
40
0.109377904005675
40
0.109377904005675
40
0.151277300634705
40
0.151277300634705
40
0.282099488990439
40
0.282099488990439
40
0.823874497013243
40
0.823874497013243
40
1
40
1
40
1
40
1
41
1
10
-0.400000000000034
20
-4.48934914533075
30
0
41
1
10
-0.394116473092879
20
-4.48412156647126
30
0
41
1
10
-0.387649558798614
20
-4.47936666342238
30
0
41
1
10
-0.375020695476792
20
-4.47300024936567
30
0
41
1
10
-0.369015733581705
20
-4.47088976573133
30
0
41
1
10
-0.357819037006664
20
-4.46928378990089
30
0
41
1
10
-0.352620795543146
20
-4.4693378300326
30
0
41
1
10
-0.342504208041191
20
-4.47118331490236
30
0
41
1
10
-0.337472714781029
20
-4.47299443494018
30
0
41
1
10
-0.326559027546409
20
-4.47870654294016
30
0
41
1
10
-0.320811012640036
20
-4.4831623835409
30
0
41
1
10
-0.3067126689985
20
-4.49677058842062
30
0
41
1
10
-0.299366502504768
20
-4.50708193062854
30
0
41
1
10
-0.273512837585713
20
-4.55030240434653
30
0
41
1
10
-0.261969797101415
20
-4.58649632348286
30
0
41
1
10
-0.213168679495254
20
-4.76802497148651
30
0
41
1
10
-0.206388298823185
20
-4.91574806320796
30
0
41
1
10
-0.200616563362587
20
-5.1048724008445
30
0
41
1
10
-0.20000000000033
20
-5.15111693550304
30
0
41
1
10
-0.200000000000046
20
-5.19704283599549
30
0
0
SPLINE
5
FF
100
AcDbEntity
8
SK1
62
256
6
ByLayer
370
-1
48
1
60
0
100
AcDbSpline
70
4
71
3
72
26
73
22
40
0
40
0
40
0
40
0
40
0.449738132477954
40
0.449738132477954
40
0.664402002683402
40
0.664402002683402
40
0.7737612207596
40
0.7737612207596
40
0.856245095717807
40
0.856245095717807
40
0.897662328372348
40
0.897662328372348
40
0.91706495237681
40
0.91706495237681
40
0.936734615560887
40
0.936734615560887
40
0.954124174419597
40
0.954124174419597
40
0.979939143819098
40
0.979939143819098
40
1
40
1
40
1
40
1
41
1
10
-0.200000000000046
20
5.19704273475742
30
0
41
1
10
-0.200000000000046
20
5.07975410009703
30
0
41
1
10
-0.203466682130625
20
4.96017714586688
30
0
41
1
10
-0.221693360550034
20
4.78102610938947
30
0
41
1
10
-0.2295609559024
20
4.72253456210919
30
0
41
1
10
-0.248699491321418
20
4.63442555966748
30
0
41
1
10
-0.256413494564128
20
4.60458658946615
30
0
41
1
10
-0.274681296242647
20
4.55329063876354
30
0
41
1
10
-0.284007523646267
20
4.53119508230068
30
0
41
1
10
-0.303744106160423
20
4.50098594538659
30
0
41
1
10
-0.311509525681402
20
4.49116741345233
30
0
41
1
10
-0.325471651806765
20
4.47968016512067
30
0
41
1
10
-0.330427279763057
20
4.47641864212306
30
0
41
1
10
-0.341006642070965
20
4.4716078953679
30
0
41
1
10
-0.346789289837659
20
4.47005622337582
30
0
41
1
10
-0.35750171321132
20
4.4692526659862
30
0
41
1
10
-0.362570628376432
20
4.46973139878193
30
0
41
1
10
-0.374383227259841
20
4.47254618031181
30
0
41
1
10
-0.380971575520618
20
4.47565191427904
30
0
41
1
10
-0.391577664442764
20
4.48234828370349
30
0
41
1
10
-0.395922839313982
20
4.48572633284783
30
0
41
1
10
-0.400000000000148
20
4.48934893107318
30
0
0
SPLINE
5
100
100
AcDbEntity
8
SK1
62
256
6
ByLayer
370
-1
48
1
60
0
100
AcDbSpline
70
4
71
3
72
26
73
22
40
0
40
0
40
0
40
0
40
0.000802379475081
40
0.000802379475081
40
0.38995581805127
40
0.38995581805127
40
0.588411381898013
40
0.588411381898013
40
0.738873838915548
40
0.738873838915548
40
0.814437133741466
40
0.814437133741466
40
0.849669814042463
40
0.849669814042463
40
0.885379597279763
40
0.885379597279763
40
0.917015756722867
40
0.917015756722867
40
0.964291651362191
40
0.964291651362191
40
1
40
1
40
1
40
1
41
1
10
-0.215811086592168
20
-10.8563923645235
30
0
41
1
10
-0.215823201815567
20
-10.8563793708356
30
0
41
1
10
-0.215835325590888
20
-10.856366371465
30
0
41
1
10
-0.221736537161121
20
-10.8500406644013
30
0
41
1
10
-0.229595996987712
20
-10.842375997527
30
0
41
1
10
-0.248697987408263
20
-10.8277247348159
30
0
41
1
10
-0.256401529113873
20
-10.8222273926603
30
0
41
1
10
-0.274672330728549
20
-10.8111348764243
30
0
41
1
10
-0.284031111048876
20
-10.8058441112873
30
0
41
1
10
-0.303862792072039
20
-10.7967411489855
30
0
41
1
10
-0.311673384937649
20
-10.793419574543
30
0
41
1
10
-0.325697750675374
20
-10.78834194919
30
0
41
1
10
-0.330659077403368
20
-10.7866628614953
30
0
41
1
10
-0.341238014585599
20
-10.7834040520235
30
0
41
1
10
-0.347013203094093
20
-10.7817865260973
30
0
41
1
10
-0.357712157030278
20
-10.77910778386
30
0
41
1
10
-0.362775636738434
20
-10.7779724373213
30
0
41
1
10
-0.374620388322228
20
-10.7755812023392
30
0
41
1
10
-0.381238297735365
20
-10.7744865169402
30
0
41
1
10
-0.391758607838881
20
-10.773005485568
30
0
41
1
10
-0.396007428966925
20
-10.7725001016588
30
0
41
1
10
-0.400000000000091
20
-10.7720903551647
30
0
0
SPLINE
5
101
100
AcDbEntity
8
SK1
62
256
6
ByLayer
370
-1
48
1
60
0
100
AcDbSpline
70
4
71
3
72
34
73
30
40
0
40
0
40
0
40
0
40
0.0112669685473899
40
0.0112669685473899
40
0.0589394571114245
40
0.0589394571114245
40
0.154535986936305
40
0.154535986936305
40
0.250071361964139
40
0.250071361964139
40
0.345575677084835
40
0.345575677084835
40
0.441065554336702
40
0.441065554336702
40
0.536552664117248
40
0.536552664117248
40
0.632047854666877
40
0.632047854666877
40
0.72756460239812
40
0.72756460239812
40
0.823124579528475
40
0.823124579528475
40
0.870792997061788
40
0.870792997061788
40
0.918469321596012
40
0.918469321596012
40
0.966157775290171
40
0.966157775290171
40
1
40
1
40
1
40
1
41
1
10
-1.69993676286356
20
-11.0201001927739
30
0
41
1
10
-1.69993832691932
20
-11.0201347387088
30
0
41
1
10
-1.69993984120725
20
-11.019627451577
30
0
41
1
10
-1.69994751366465
20
-11.0142188011048
30
0
41
1
10
-1.69995287995744
20
-11.000405024139
30
0
41
1
10
-1.69996695296891
20
-10.9332843475555
30
0
41
1
10
-1.69997367173841
20
-10.8542029227334
30
0
41
1
10
-1.69998386152667
20
-10.6377999041158
30
0
41
1
10
-1.69998734498478
20
-10.5001171728846
30
0
41
1
10
-1.69999246905712
20
-10.1728975826325
30
0
41
1
10
-1.69999411792992
20
-9.98292332235604
30
0
41
1
10
-1.69999643908523
20
-9.55552993499316
30
0
41
1
10
-1.6999971168857
20
-9.31759782738115
30
0
41
1
10
-1.69999798411868
20
-8.79743010432028
30
0
41
1
10
-1.69999817542509
20
-8.51459573987518
30
0
41
1
10
-1.69999824461598
20
-7.90689005466763
30
0
41
1
10
-1.69999812267855
20
-7.58130243438197
30
0
41
1
10
-1.69999744438479
20
-6.8897188186929
30
0
41
1
10
-1.69999688682344
20
-6.52282614529054
30
0
41
1
10
-1.69999489291331
20
-5.74978712553676
30
0
41
1
10
-1.69999345206901
20
-5.34244656677163
30
0
41
1
10
-1.69999000494022
20
-4.70303852615055
30
0
41
1
10
-1.69998863813788
20
-4.48501546085996
30
0
41
1
10
-1.69998532683127
20
-4.03938656106379
30
0
41
1
10
-1.69998338085907
20
-3.81152710629337
30
0
41
1
10
-1.69997876258685
20
-3.34638056322453
30
0
41
1
10
-1.6999760835148
20
-3.10876440414407
30
0
41
1
10
-1.69997079701295
20
-2.69478121630701
30
0
41
1
10
-1.69996839509747
20
-2.52048785703786
30
0
41
1
10
-1.69996579751813
20
-2.34399454350842
30
0
0
SPLINE
5
102
100
AcDbEntity
8
SK1
62
256
6
ByLayer
370
-1
48
1
60
0
100
AcDbSpline
70
4
71
3
72
34
73
30
40
0
40
0
40
0
40
0
40
0.0138699461135918
40
0.0138699461135918
40
0.0615376971139758
40
0.0615376971139758
40
0.109189261114095
40
0.109189261114095
40
0.156830572311325
40
0.156830572311325
40
0.252358343228663
40
0.252358343228663
40
0.347829116957299
40
0.347829116957299
40
0.443270849232308
40
0.443270849232308
40
0.538699345849632
40
0.538699345849632
40
0.634126101529552
40
0.634126101529552
40
0.729562062531691
40
0.729562062531691
40
0.825021175250949
40
0.825021175250949
40
0.872655105311393
40
0.872655105311393
40
0.920293090025758
40
0.920293090025758
40
1
40
1
40
1
40
1
41
1
10
-1.69996579738211
20
2.34399541728098
30
0
41
1
10
-1.69996686313755
20
2.41640598367121
30
0
41
1
10
-1.69996789580711
20
2.48843835386174
30
0
41
1
10
-1.69997232375255
20
2.80617464221731
30
0
41
1
10
-1.6999753518283
20
3.04785091887862
30
0
41
1
10
-1.69998060299412
20
3.52111771354691
30
0
41
1
10
-1.6999828378074
20
3.75308301404428
30
0
41
1
10
-1.69998665823965
20
4.20691759809461
30
0
41
1
10
-1.6999882494477
20
4.42906881485823
30
0
41
1
10
-1.69999228100289
20
5.08095958549046
30
0
41
1
10
-1.69999399832386
20
5.49674568755356
30
0
41
1
10
-1.69999640677304
20
6.28665686269224
30
0
41
1
10
-1.69999709786958
20
6.66206466504687
30
0
41
1
10
-1.69999798189281
20
7.3708282640267
30
0
41
1
10
-1.69999817407842
20
7.70515361426863
30
0
41
1
10
-1.69999824533255
20
8.3306008255654
30
0
41
1
10
-1.69999812372993
20
8.6225172182109
30
0
41
1
10
-1.69999745591969
20
9.16128938563259
30
0
41
1
10
-1.69999690935441
20
9.40881093991047
30
0
41
1
10
-1.69999497540988
20
9.85604515063557
30
0
41
1
10
-1.69999358833155
20
10.0563309819064
30
0
41
1
10
-1.69998919708894
20
10.4051496355369
30
0
41
1
10
-1.69998618942941
20
10.5541774341773
30
0
41
1
10
-1.69997952914247
20
10.7345238916283
30
0
41
1
10
-1.69997694129074
20
10.7874883912928
30
0
41
1
10
-1.69997082738263
20
10.8781161933101
30
0
41
1
10
-1.6999672899446
20
10.9158197893435
30
0
41
1
10
-1.69995622914701
20
10.9944425651827
30
0
41
1
10
-1.69994759490549
20
11.0208189246447
30
0
41
1
10
-1.69993649660586
20
11.0201007972385
30
0
0
SPLINE
5
103
100
AcDbEntity
8
SK1
62
256
6
ByLayer
370
-1
48
1
60
0
100
AcDbSpline
70
4
71
3
72
10
73
6
40
0
40
0
40
0
40
0
40
0.5
40
0.5
40
1
40
1
40
1
40
1
41
1
10
-1.69996579751438
20
-2.34399454350793
30
0
41
1
10
-1.82597576019367
20
-1.61001532399777
30
0
41
1
10
-1.92804003196062
20
-0.809037898581778
30
0
41
1
10
-1.92909522738216
20
0.795359530273288
30
0
41
1
10
-1.82836818305549
20
1.5960753900805
30
0
41
1
10
-1.69996579738211
20
2.34399541728104
30
0
0
LINE
5
4A
100
AcDbEntity
8
80
62
256
6
ByLayer
370
-1
48
1
60
0
100
AcDbLine
10
0
20
0
30
0
11
-10
21
0
31
0
39
0
210
0
220
0
230
1
0
LINE
5
4B
100
AcDbEntity
8
81
62
256
6
ByLayer
370
-1
48
1
60
0
100
AcDbLine
10
90
20
-16.9
30
0
11
100
21
-16.9
31
0
39
0
210
0
220
0
230
1
0
LINE
5
4C
100
AcDbEntity
8
1
62
256
6
ByLayer
370
-1
48
1
60
0
100
AcDbLine
10
83.882867
20
-7.726361
30
0
11
83.878974
21
-7.652072
31
0
39
0
210
0
220
0
230
1
0
LINE
5
4D
100
AcDbEntity
8
1
62
256
6
ByLayer
370
-1
48
1
60
0
100
AcDbLine
10
85.778478
20
-7.701334
30
0
11
85.782294
21
-7.774159
31
0
39
0
210
0
220
0
230
1
0
LINE
5
4E
100
AcDbEntity
8
1
62
256
6
ByLayer
370
-1
48
1
60
0
100
AcDbLine
10
85.800356
20
-9.588661
30
0
11
85.804259
21
-9.663142
31
0
39
0
210
0
220
0
230
1
0
LINE
5
4F
100
AcDbEntity
8
1
62
256
6
ByLayer
370
-1
48
1
60
0
100
AcDbLine
10
82.21834
20
-8.759239
30
0
11
82.221856
21
-8.826317
31
0
39
0
210
0
220
0
230
1
0
LINE
5
50
100
AcDbEntity
8
1
62
256
6
ByLayer
370
-1
48
1
60
0
100
AcDbLine
10
87.464661
20
-8.551553
30
0
11
87.461145
21
-8.484476
31
0
39
0
210
0
220
0
230
1
0
LINE
5
51
100
AcDbEntity
8
1
62
256
6
ByLayer
370
-1
48
1
60
0
100
AcDbLine
10
83.904668
20
-9.612225
30
0
11
83.900852
21
-9.539399
31
0
39
0
210
0
220
0
230
1
0
LINE
5
52
100
AcDbEntity
8
1
62
256
6
ByLayer
370
-1
48
1
60
0
100
AcDbLine
10
14.5
20
16
30
0
11
0.3
21
16
31
0
39
0
210
0
220
0
230
1
0
LINE
5
53
100
AcDbEntity
8
1
62
256
6
ByLayer
370
-1
48
1
60
0
100
AcDbLine
10
0.3
20
-16
30
0
11
14.5
21
-16
31
0
39
0
210
0
220
0
230
1
0
LINE
5
54
100
AcDbEntity
8
1
62
256
6
ByLayer
370
-1
48
1
60
0
100
AcDbLine
10
14.5
20
-16
30
0
11
14.820689
21
-14.752877
31
0
39
0
210
0
220
0
230
1
0
LINE
5
55
100
AcDbEntity
8
1
62
256
6
ByLayer
370
-1
48
1
60
0
100
AcDbLine
10
14.820689
20
14.752877
30
0
11
14.5
21
16
31
0
39
0
210
0
220
0
230
1
0
LINE
5
56
100
AcDbEntity
8
1
62
256
6
ByLayer
370
-1
48
1
60
0
100
AcDbLine
10
0.3
20
16
30
0
11
0
21
15.7
31
0
39
0
210
0
220
0
230
1
0
LINE
5
57
100
AcDbEntity
8
1
62
256
6
ByLayer
370
-1
48
1
60
0
100
AcDbLine
10
0
20
-15.7
30
0
11
0.3
21
-16
31
0
39
0
210
0
220
0
230
1
0
LINE
5
58
100
AcDbEntity
8
1
62
256
6
ByLayer
370
-1
48
1
60
0
100
AcDbLine
10
75.712045
20
12.5
30
0
11
17.726168
21
12.5
31
0
39
0
210
0
220
0
230
1
0
LINE
5
59
100
AcDbEntity
8
1
62
256
6
ByLayer
370
-1
48
1
60
0
100
AcDbLine
10
17.726168
20
-12.5
30
0
11
72.707116
21
-12.5
31
0
39
0
210
0
220
0
230
1
0
LINE
5
5A
100
AcDbEntity
8
SK4
62
256
6
ByLayer
370
-1
48
0.05
60
0
100
AcDbLine
10
-24
20
0
30
0
11
94.786021
21
0
31
0
39
0
210
0
220
0
230
1
0
LINE
5
5C
100
AcDbEntity
8
4
62
256
6
ByLayer
370
-1
48
0.05
60
0
100
AcDbLine
10
0
20
0
30
0
11
113.786021
21
0
31
0
39
0
210
0
220
0
230
1
0
LINE
5
5E
100
AcDbEntity
8
1
62
256
6
ByLayer
370
-1
48
1
60
0
100
AcDbLine
10
7.076795
20
15.276962
30
0
11
7.076795
21
4.755463
31
0
39
0
210
0
220
0
230
1
0
LINE
5
5F
100
AcDbEntity
8
1
62
256
6
ByLayer
370
-1
48
1
60
0
100
AcDbLine
10
4.923205
20
-4.755463
30
0
11
4.923205
21
-15.276962
31
0
39
0
210
0
220
0
230
1
0
LINE
5
60
100
AcDbEntity
8
1
62
256
6
ByLayer
370
-1
48
1
60
0
100
AcDbLine
10
79.798431
20
-4.176987
30
0
11
79.832796
21
-4.082214
31
0
39
0
210
0
220
0
230
1
0
LINE
5
61
100
AcDbEntity
8
1
62
256
6
ByLayer
370
-1
48
1
60
0
100
AcDbLine
10
79.798431
20
-4.176987
30
0
11
79.839089
21
-4.202346
31
0
39
0
210
0
220
0
230
1
0
LINE
5
62
100
AcDbEntity
8
1
62
256
6
ByLayer
370
-1
48
1
60
0
100
AcDbLine
10
7.076795
20
-4.755463
30
0
11
7.076795
21
-15.276962
31
0
39
0
210
0
220
0
230
1
0
LINE
5
63
100
AcDbEntity
8
1
62
256
6
ByLayer
370
-1
48
1
60
0
100
AcDbLine
10
77.891592
20
-11.94743
30
0
11
77.338598
21
-12.499443
31
0
39
0
210
0
220
0
230
1
0
LINE
5
64
100
AcDbEntity
8
1
62
256
6
ByLayer
370
-1
48
1
60
0
100
AcDbLine
10
14.820689
20
14.752877
30
0
11
14.820689
21
-14.752877
31
0
39
0
210
0
220
0
230
1
0
LINE
5
65
100
AcDbEntity
8
1
62
256
6
ByLayer
370
-1
48
1
60
0
100
AcDbLine
10
7.336603
20
-5.068619
30
0
11
7.336603
21
-15.175938
31
0
39
0
210
0
220
0
230
1
0
LINE
5
66
100
AcDbEntity
8
1
62
256
6
ByLayer
370
-1
48
1
60
0
100
AcDbLine
10
4.663397
20
15.175938
30
0
11
4.663397
21
5.068619
31
0
39
0
210
0
220
0
230
1
0
LINE
5
67
100
AcDbEntity
8
1
62
256
6
ByLayer
370
-1
48
1
60
0
100
AcDbLine
10
14.5
20
16
30
0
11
14.5
21
-16
31
0
39
0
210
0
220
0
230
1
0
LINE
5
68
100
AcDbEntity
8
1
62
256
6
ByLayer
370
-1
48
1
60
0
100
AcDbLine
10
75.050754
20
-12.499508
30
0
11
80.550005
21
7.988558
31
0
39
0
210
0
220
0
230
1
0
LINE
5
69
100
AcDbEntity
8
1
62
256
6
ByLayer
370
-1
48
1
60
0
100
AcDbLine
10
89.245586
20
-5.560962
30
0
11
88.945794
21
0.159407
31
0
39
0
210
0
220
0
230
1
0
LINE
5
6A
100
AcDbEntity
8
1
62
256
6
ByLayer
370
-1
48
1
60
0
100
AcDbLine
10
7.076795
20
15.276962
30
0
11
4.923205
21
15.276962
31
0
39
0
210
0
220
0
230
1
0
LINE
5
6B
100
AcDbEntity
8
1
62
256
6
ByLayer
370
-1
48
1
60
0
100
AcDbLine
10
80.550005
20
7.988558
30
0
11
88.945794
21
0.159407
31
0
39
0
210
0
220
0
230
1
0
LINE
5
6C
100
AcDbEntity
8
1
62
256
6
ByLayer
370
-1
48
1
60
0
100
AcDbLine
10
4.923205
20
15.276962
30
0
11
4.923205
21
4.755463
31
0
39
0
210
0
220
0
230
1
0
LINE
5
6D
100
AcDbEntity
8
1
62
256
6
ByLayer
370
-1
48
1
60
0
100
AcDbLine
10
79.268906
20
-1.894312
30
0
11
79.262028
21
-1.763087
31
0
39
0
210
0
220
0
230
1
0
LINE
5
6E
100
AcDbEntity
8
1
62
256
6
ByLayer
370
-1
48
1
60
0
100
AcDbLine
10
4.923205
20
-15.276962
30
0
11
7.076795
21
-15.276962
31
0
39
0
210
0
220
0
230
1
0
LINE
5
6F
100
AcDbEntity
8
1
62
256
6
ByLayer
370
-1
48
1
60
0
100
AcDbLine
10
7.076795
20
-4.755463
30
0
11
4.923205
21
-4.755463
31
0
39
0
210
0
220
0
230
1
0
LINE
5
70
100
AcDbEntity
8
1
62
256
6
ByLayer
370
-1
48
1
60
0
100
AcDbLine
10
17.726168
20
-12.5
30
0
11
17.726168
21
12.5
31
0
39
0
210
0
220
0
230
1
0
LINE
5
71
100
AcDbEntity
8
1
62
256
6
ByLayer
370
-1
48
1
60
0
100
AcDbLine
10
75.884589
20
12.339101
30
0
11
80.550005
21
7.988558
31
0
39
0
210
0
220
0
230
1
0
LINE
5
72
100
AcDbEntity
8
1
62
256
6
ByLayer
370
-1
48
1
60
0
100
AcDbLine
10
75.712045
20
12.5
30
0
11
75.884589
21
12.339101
31
0
39
0
210
0
220
0
230
1
0
LINE
5
73
100
AcDbEntity
8
1
62
256
6
ByLayer
370
-1
48
1
60
0
100
AcDbLine
10
4.923205
20
4.755463
30
0
11
7.076795
21
4.755463
31
0
39
0
210
0
220
0
230
1
0
LINE
5
74
100
AcDbEntity
8
1
62
256
6
ByLayer
370
-1
48
1
60
0
100
AcDbLine
10
7.336603
20
15.175938
30
0
11
7.336603
21
5.068619
31
0
39
0
210
0
220
0
230
1
0
LINE
5
75
100
AcDbEntity
8
1
62
256
6
ByLayer
370
-1
48
1
60
0
100
AcDbLine
10
0
20
15.7
30
0
11
0
21
-15.7
31
0
39
0
210
0
220
0
230
1
0
LINE
5
76
100
AcDbEntity
8
1
62
256
6
ByLayer
370
-1
48
1
60
0
100
AcDbLine
10
4.663397
20
-5.068619
30
0
11
4.663397
21
-15.175938
31
0
39
0
210
0
220
0
230
1
0
LINE
5
77
100
AcDbEntity
8
1
62
256
6
ByLayer
370
-1
48
1
60
0
100
AcDbLine
10
0.3
20
16
30
0
11
0.3
21
-16
31
0
39
0
210
0
220
0
230
1
0
LINE
5
78
100
AcDbEntity
8
SK1
62
256
6
ByLayer
370
-1
48
1
60
0
100
AcDbLine
10
-1.307107
20
-3.2741
30
0
11
-1.307107
21
3.2741
31
0
39
0
210
0
220
0
230
1
0
LINE
5
7A
100
AcDbEntity
8
1
62
256
6
ByLayer
370
-1
48
1
60
0
100
AcDbLine
10
89.492698
20
-6.406909
30
0
11
89.998891
21
-16.065643
31
0
39
0
210
0
220
0
230
1
0
LINE
5
7B
100
AcDbEntity
8
1
62
256
6
ByLayer
370
-1
48
1
60
0
100
AcDbLine
10
80.196604
20
-11.024121
30
0
11
79.690412
21
-1.365388
31
0
39
0
210
0
220
0
230
1
0
LINE
5
7C
100
AcDbEntity
8
1
62
256
6
ByLayer
370
-1
48
1
60
0
100
AcDbLine
10
80.90414
20
-0.651642
30
0
11
89.120603
21
-5.776274
31
0
39
0
210
0
220
0
230
1
0
LINE
5
7D
100
AcDbEntity
8
1
62
256
6
ByLayer
370
-1
48
1
60
0
100
AcDbLine
10
88.785162
20
-16.779388
30
0
11
80.5687
21
-11.654757
31
0
39
0
210
0
220
0
230
1
0
LINE
5
7E
100
AcDbEntity
8
1
62
256
6
ByLayer
370
-1
48
1
60
0
100
AcDbLine
10
83.855489
20
-7.506764
30
0
11
83.859603
21
-7.585264
31
0
39
0
210
0
220
0
230
1
0
LINE
5
7F
100
AcDbEntity
8
1
62
256
6
ByLayer
370
-1
48
1
60
0
100
AcDbLine
10
86.302145
20
-8.892904
30
0
11
86.306259
21
-8.971404
31
0
39
0
210
0
220
0
230
1
0
LINE
5
80
100
AcDbEntity
8
1
62
256
6
ByLayer
370
-1
48
1
60
0
100
AcDbLine
10
83.383717
20
-8.911325
30
0
11
83.387825
21
-8.989721
31
0
39
0
210
0
220
0
230
1
0
LINE
5
81
100
AcDbEntity
8
1
62
256
6
ByLayer
370
-1
48
1
60
0
100
AcDbLine
10
83.844765
20
-9.301837
30
0
11
83.848371
21
-9.370649
31
0
39
0
210
0
220
0
230
1
0
LINE
5
82
100
AcDbEntity
8
1
62
256
6
ByLayer
370
-1
48
1
60
0
100
AcDbLine
10
84.369407
20
-10.02947
30
0
11
84.373521
21
-10.10797
31
0
39
0
210
0
220
0
230
1
0
LINE
5
83
100
AcDbEntity
8
1
62
256
6
ByLayer
370
-1
48
1
60
0
100
AcDbLine
10
85.338137
20
-10.019591
30
0
11
85.342251
21
-10.098091
31
0
39
0
210
0
220
0
230
1
0
LINE
5
84
100
AcDbEntity
8
1
62
256
6
ByLayer
370
-1
48
1
60
0
100
AcDbLine
10
83.763908
20
-9.2275
30
0
11
83.760302
21
-9.158687
31
0
39
0
210
0
220
0
230
1
0
LINE
5
85
100
AcDbEntity
8
1
62
256
6
ByLayer
370
-1
48
1
60
0
100
AcDbLine
10
85.800426
20
-7.490154
30
0
11
85.804535
21
-7.568551
31
0
39
0
210
0
220
0
230
1
0
LINE
5
86
100
AcDbEntity
8
SK1
62
256
6
ByLayer
370
-1
48
1
60
0
100
AcDbLine
10
-0.2
20
5.197043
30
0
11
-0.2
21
10.883485
31
0
39
0
210
0
220
0
230
1
0
LINE
5
87
100
AcDbEntity
8
SK1
62
256
6
ByLayer
370
-1
48
1
60
0
100
AcDbLine
10
-0.2
20
-10.883485
30
0
11
-0.2
21
-5.197043
31
0
39
0
210
0
220
0
230
1
0
LINE
5
88
100
AcDbEntity
8
2
62
256
6
ByLayer
370
-1
48
1
60
1
100
AcDbLine
10
90
20
0
30
0
11
90.001
21
0.001
31
0
39
0
210
0
220
0
230
1
0
MTEXT
5
104
100
AcDbEntity
8
SK6
62
256
6
ByLayer
370
-1
48
1
60
0
100
AcDbMText
10
2.168011
20
24.675
30
0
210
0
220
0
230
1
1
\W00.702;\fsimplex.shx,bigfont.shx;C3-SDUCL-17090-11 
40
3.5
41
0
44
1.084337
50
0
71
7
72
5
7
DEFAULT
0
DIMENSION
5
138
100
AcDbEntity
8
SK2
62
256
6
ByLayer
370
-3
48
1
60
0
100
AcDbDimension
2
DimnDraft3D1
10
-31.75
20
-16
30
0
11
-31.75
21
-4.784211
31
0
70
32
71
5
72
1
41
1
210
0
220
0
230
1
3
Standard
100
AcDbAlignedDimension
13
-2
23
16
33
0
14
-2
24
-16
34
0
50
90
100
AcDbRotatedDimension
1001
ACAD
1000
DSTYLE
1002
{
1070
    74
1070
     0
1070
   279
1070
     0
1070
   172
1070
     1
1070
   173
1070
     1
1070
   340
1005
105
1070
    77
1070
     1
1070
    73
1070
     0
1070
   171
1070
     4
1070
   274
1070
     4
1070
   177
1070
     2
1070
   176
1070
     2
1070
   178
1070
     7
1070
    78
1070
     8
1070
    41
1041
3.175
1070
   147
1041
2.25
1070
    42
1041
2.0
1070
    44
1041
2.0
1070
   140
1041
4.5
1070
   343
1005
139
1070
   344
1005
139
1002
}
0
DIMENSION
5
14B
100
AcDbEntity
8
2
62
256
6
ByLayer
370
-3
48
1
60
0
100
AcDbDimension
2
DimnDraft3D2
10
30.65
20
12.5
30
0
11
30.65
21
-7.318421
31
0
70
32
71
5
72
1
41
1
210
0
220
0
230
1
3
Standard
100
AcDbAlignedDimension
13
15.4
23
12.5
33
0
14
0
24
0
34
0
50
90
100
AcDbRotatedDimension
1001
ACAD
1000
DSTYLE
1002
{
1070
    74
1070
     0
1070
   279
1070
     0
1070
   172
1070
     1
1070
   173
1070
     1
1070
   340
1005
105
1070
    75
1070
     1
1070
    76
1070
     1
1070
    77
1070
     1
1070
    73
1070
     0
1070
   171
1070
     4
1070
   274
1070
     4
1070
   177
1070
     2
1070
   176
1070
     2
1070
   178
1070
     7
1070
    78
1070
     8
1070
    41
1041
3.175
1070
   147
1041
2.25
1070
    42
1041
2.0
1070
    44
1041
2.0
1070
   140
1041
4.5
1070
   343
1005
139
1070
   344
1005
139
1002
}
0
DIMENSION
5
159
100
AcDbEntity
8
2
62
256
6
ByLayer
370
-3
48
1
60
0
100
AcDbDimension
2
DimnDraft3D3
10
102.25
20
-16.9
30
0
11
102.25
21
-13.050658
31
0
70
32
71
5
72
1
41
1
210
0
220
0
230
1
3
Standard
100
AcDbAlignedDimension
13
92
23
0
33
0
14
92
24
-16.9
34
0
50
90
100
AcDbRotatedDimension
1001
ACAD
1000
DSTYLE
1002
{
1070
    74
1070
     0
1070
   279
1070
     0
1070
   172
1070
     1
1070
   173
1070
     1
1070
   340
1005
105
1070
    77
1070
     1
1070
    73
1070
     0
1070
   171
1070
     4
1070
   274
1070
     4
1070
   177
1070
     2
1070
   176
1070
     2
1070
   178
1070
     7
1070
    78
1070
     8
1070
    41
1041
3.175
1070
   147
1041
2.25
1070
    42
1041
2.0
1070
    44
1041
2.0
1070
   140
1041
4.5
1070
   343
1005
139
1070
   344
1005
139
1002
}
0
DIMENSION
5
167
100
AcDbEntity
8
2
62
256
6
ByLayer
370
-3
48
1
60
0
100
AcDbDimension
2
DimnDraft3D4
10
90
20
-49.15
30
0
11
39.836842
21
-49.15
31
0
70
32
71
5
72
1
41
1
210
0
220
0
230
1
3
Standard
100
AcDbAlignedDimension
13
0
23
-18
33
0
14
90
24
-18.9
34
0
50
0
100
AcDbRotatedDimension
1001
ACAD
1000
DSTYLE
1002
{
1070
   279
1070
     0
1070
   172
1070
     1
1070
   173
1070
     1
1070
   340
1005
105
1070
    77
1070
     1
1070
    73
1070
     0
1070
   171
1070
     4
1070
   274
1070
     4
1070
   177
1070
     2
1070
   176
1070
     2
1070
   178
1070
     7
1070
    78
1070
     8
1070
    41
1041
3.175
1070
   147
1041
2.25
1070
    42
1041
2.0
1070
    44
1041
2.0
1070
   140
1041
4.5
1070
   343
1005
139
1070
   344
1005
139
1002
}
0
DIMENSION
5
175
100
AcDbEntity
8
2
62
256
6
ByLayer
370
-3
48
1
60
0
100
AcDbDimension
2
DimnDraft3D5
10
90
20
-34.15
30
0
11
47.3
21
-34.15
31
0
70
32
71
5
72
1
41
1
210
0
220
0
230
1
3
Standard
100
AcDbAlignedDimension
13
15.4
23
-14.5
33
0
14
90
24
-18.9
34
0
50
0
100
AcDbRotatedDimension
1001
ACAD
1000
DSTYLE
1002
{
1070
   279
1070
     0
1070
   172
1070
     1
1070
   173
1070
     1
1070
   340
1005
105
1070
    77
1070
     1
1070
    73
1070
     0
1070
   171
1070
     4
1070
   274
1070
     4
1070
   177
1070
     2
1070
   176
1070
     2
1070
   178
1070
     7
1070
    78
1070
     8
1070
    41
1041
3.175
1070
   147
1041
2.25
1070
    42
1041
2.0
1070
    44
1041
2.0
1070
   140
1041
4.5
1070
   343
1005
139
1070
   344
1005
139
1002
}
0
DIMENSION
5
183
100
AcDbEntity
8
2
62
256
6
ByLayer
370
-3
48
1
60
0
100
AcDbDimension
2
DimnDraft3D6
10
129.040715
20
0
30
0
11
112.148524
21
33.528479
31
0
70
34
71
5
72
1
41
1
210
0
220
0
230
1
3
Standard
100
AcDb2LineAngularDimension
13
89.319633
23
-3.917816
33
0
14
87.024722
24
39.871689
34
0
15
92
25
0
35
0
16
118.31872
26
30.775028
36
0
40
0
0
ENDSEC
0
SECTION
2
OBJECTS
0
DICTIONARY
5
1b4
330
0
100
AcDbDictionary
280
0
281
1
3
ACAD_GROUP
350
1b5
3
ACAD_MLINESTYLE
350
1b6
0
DICTIONARY
5
1b5
330
0
100
AcDbDictionary
280
0
281
1
0
DICTIONARY
5
1b6
330
0
100
AcDbDictionary
280
0
281
1
3
Standard
350
18
0
MLINESTYLE
5
18
330
1b6
100
AcDbMlineStyle
2
Standard
70
0
3

62
256
51
90
52
90
71
2
49
-0.5
62
256
6
ByLayer
49
0.5
62
256
6
ByLayer
0
RASTERVARIABLES
5
1a2
330

100
AcDbRasterVariables
90
0
70
1
71
1
72
1
0
ENDSEC
0
EOF
