0
SECTION
2
HEADER
9
$ACADVER
1
AC1015
9
$DWGCODEPAGE
3
ANSI_1252
9
$HANDSEED
5
1c8
9
$ANGBASE
50
0
9
$ANGDIR
70
0
9
$ATTMODE
70
1
9
$AUNITS
70
0
9
$AUPREC
70
0
9
$CECOLOR
62
256
9
$CELTSCALE
40
1
9
$CELTYPE
6
ByLayer
9
$CELWEIGHT
370
-1
9
$CLAYER
8
0
9
$CMLJUST
70
0
9
$CMLSCALE
40
1
9
$CMLSTYLE
2
Standard
9
$DIMSTYLE
2
Standard
9
$TEXTSIZE
40
0.2
9
$TEXTSTYLE
7
Standard
9
$LUNITS
70
2
9
$LUPREC
70
4
9
$EXTNAMES
290
1
9
$INSUNITS
70
4
9
$LTSCALE
40
1
9
$LWDISPLAY
290
0
9
$PDMODE
70
0
9
$PDSIZE
40
0
9
$PLINEGEN
70
0
0
ENDSEC
0
SECTION
2
CLASSES
0
CLASS
1
RASTERVARIABLES
2
AcDbRasterVariables
3
ISM
90
0
280
0
281
0
0
ENDSEC
0
SECTION
2
TABLES
0
TABLE
2
VPORT
5
1be
100
AcDbSymbolTable
0
VPORT
5
1
100
AcDbSymbolTableRecord
100
AcDbViewportTableRecord
2
*Active
70
0
10
0
20
0
11
1
21
1
12
-1
22
1
13
0
23
0
14
0.5
24
0.5
15
10
25
10
16
0
26
0
36
1
17
0
27
0
37
0
0
ENDTAB
0
TABLE
2
LTYPE
5
1bf
100
AcDbSymbolTable
0
LTYPE
5
14
100
AcDbSymbolTableRecord
100
AcDbLinetypeTableRecord
70
0
2
ByBlock
3

72
65
73
0
40
0
0
LTYPE
5
15
100
AcDbSymbolTableRecord
100
AcDbLinetypeTableRecord
70
0
2
ByLayer
3

72
65
73
0
40
0
0
LTYPE
5
16
100
AcDbSymbolTableRecord
100
AcDbLinetypeTableRecord
70
0
2
CONTINUOUS
3
Solid line
72
65
73
0
40
0
0
LTYPE
5
3B
100
AcDbSymbolTableRecord
100
AcDbLinetypeTableRecord
70
0
2
DASHED
3
__ __ __ __ __ __ __ __ __
72
65
73
2
40
25.72
49
12.86
74
0
49
-12.86
74
0
0
LTYPE
5
3C
100
AcDbSymbolTableRecord
100
AcDbLinetypeTableRecord
70
0
2
HIDDEN
3
_ _ _ _ _ _ _ _ _ _ _ _ _ _ _
72
65
73
2
40
0.5
49
0.25
74
0
49
-0.25
74
0
0
LTYPE
5
3D
100
AcDbSymbolTableRecord
100
AcDbLinetypeTableRecord
70
0
2
PHANTOM
3
____ _ _ ____ _ _ _____ _ _ ____
72
65
73
6
40
50.5
49
18
74
0
49
-6.5
74
0
49
6.5
74
0
49
-6.5
74
0
49
6.5
74
0
49
-6.5
74
0
0
LTYPE
5
3E
100
AcDbSymbolTableRecord
100
AcDbLinetypeTableRecord
70
0
2
CENTER
3
____ _ ____ _ ____ _ ____
72
65
73
4
40
47.5
49
22
74
0
49
-8.5
74
0
49
8.5
74
0
49
-8.5
74
0
0
LTYPE
5
3F
100
AcDbSymbolTableRecord
100
AcDbLinetypeTableRecord
70
0
2
DOT
3
.........................
72
65
73
2
40
10
49
0
74
0
49
-10
74
0
0
LTYPE
5
40
100
AcDbSymbolTableRecord
100
AcDbLinetypeTableRecord
70
0
2
DASHDOT
3
_._._._._._._._._._._._._._._._.
72
65
73
4
40
70
49
31
74
0
49
-13
74
0
49
13
74
0
49
-13
74
0
0
ENDTAB
0
TABLE
2
LAYER
5
1c0
100
AcDbSymbolTable
0
LAYER
5
10
100
AcDbSymbolTableRecord
100
AcDbLayerTableRecord
2
0
70
0
62
7
6
CONTINUOUS
290
1
370
-3
390
0
0
LAYER
5
42
100
AcDbSymbolTableRecord
100
AcDbLayerTableRecord
2
80
70
0
62
-6
6
CONTINUOUS
290
1
370
-3
390
0
0
LAYER
5
44
100
AcDbSymbolTableRecord
100
AcDbLayerTableRecord
2
81
70
0
62
-3
6
CONTINUOUS
290
1
370
-3
390
0
0
LAYER
5
46
100
AcDbSymbolTableRecord
100
AcDbLayerTableRecord
2
1
70
0
62
4
6
CONTINUOUS
290
1
370
-3
390
0
0
LAYER
5
48
100
AcDbSymbolTableRecord
100
AcDbLayerTableRecord
2
2
70
0
62
7
6
CONTINUOUS
290
1
370
-3
390
0
0
LAYER
5
4E
100
AcDbSymbolTableRecord
100
AcDbLayerTableRecord
2
4
70
0
62
-2
6
CENTER
290
1
370
-3
390
0
0
LAYER
5
1aa
100
AcDbSymbolTableRecord
100
AcDbLayerTableRecord
2
SK4
70
0
62
2
6
CENTER
290
1
370
-3
390
0
0
LAYER
5
1ab
100
AcDbSymbolTableRecord
100
AcDbLayerTableRecord
2
SK1
70
0
62
4
6
CONTINUOUS
290
1
370
-3
390
0
0
LAYER
5
1ac
100
AcDbSymbolTableRecord
100
AcDbLayerTableRecord
2
SK6
70
0
62
5
6
CONTINUOUS
290
1
370
-3
390
0
0
LAYER
5
1ad
100
AcDbSymbolTableRecord
100
AcDbLayerTableRecord
2
SK2
70
0
62
7
6
CONTINUOUS
290
1
370
-3
390
0
0
ENDTAB
0
TABLE
2
STYLE
5
1c1
100
AcDbSymbolTable
0
STYLE
5
11
100
AcDbSymbolTableRecord
100
AcDbTextStyleTableRecord
2
Standard
3
txt
70
0
71
0
40
0
41
1
42
0
50
0
0
STYLE
5
10C
100
AcDbSymbolTableRecord
100
AcDbTextStyleTableRecord
2
DEFAULT
3
simplex.shx
70
0
71
0
40
0
41
1
42
0
50
0
0
STYLE
5
12F
100
AcDbSymbolTableRecord
100
AcDbTextStyleTableRecord
2
DWGDirectTextStyle
3
SIMPLEX
70
0
71
0
40
0
41
1
42
0
50
0
0
ENDTAB
0
TABLE
2
DIMSTYLE
5
1c2
100
AcDbSymbolTable
100
AcDbDimStyleTable
0
DIMSTYLE
105
27
100
AcDbSymbolTableRecord
100
AcDbDimStyleTableRecord
2
Standard
70
0
3
<>
41
0.18
42
0.0625
44
0.18
140
0.18
147
0.09
73
0
74
0
77
1
271
2
275
0
278
52
280
0
340
11
0
ENDTAB
0
TABLE
2
VIEW
5
1c3
100
AcDbSymbolTable
0
ENDTAB
0
TABLE
2
UCS
5
1c4
100
AcDbSymbolTable
0
ENDTAB
0
TABLE
2
APPID
5
1c5
100
AcDbSymbolTable
0
APPID
5
12
100
AcDbSymbolTableRecord
100
AcDbRegAppTableRecord
2
ACAD
70
0
0
ENDTAB
0
TABLE
2
BLOCK_RECORD
5
1c6
100
AcDbSymbolTable
0
BLOCK_RECORD
5
1F
100
AcDbSymbolTableRecord
100
AcDbBlockTableRecord
2
*Model_Space
340
0
70
0
0
BLOCK_RECORD
5
1B
100
AcDbSymbolTableRecord
100
AcDbBlockTableRecord
2
*Paper_Space
340
0
70
0
0
BLOCK_RECORD
5
23
100
AcDbSymbolTableRecord
100
AcDbBlockTableRecord
2
*Paper_Space0
340
0
70
0
0
BLOCK_RECORD
5
131
100
AcDbSymbolTableRecord
100
AcDbBlockTableRecord
2
DimnDraft3D1
340
0
70
0
0
BLOCK_RECORD
5
140
100
AcDbSymbolTableRecord
100
AcDbBlockTableRecord
2
_CLOSED
340
0
70
0
0
BLOCK_RECORD
5
147
100
AcDbSymbolTableRecord
100
AcDbBlockTableRecord
2
DimnDraft3D2
340
0
70
0
0
BLOCK_RECORD
5
153
100
AcDbSymbolTableRecord
100
AcDbBlockTableRecord
2
DimnDraft3D3
340
0
70
0
0
BLOCK_RECORD
5
161
100
AcDbSymbolTableRecord
100
AcDbBlockTableRecord
2
DimnDraft3D4
340
0
70
0
0
BLOCK_RECORD
5
16F
100
AcDbSymbolTableRecord
100
AcDbBlockTableRecord
2
DimnDraft3D5
340
0
70
0
0
BLOCK_RECORD
5
17D
100
AcDbSymbolTableRecord
100
AcDbBlockTableRecord
2
DimnDraft3D6
340
0
70
0
0
ENDTAB
0
ENDSEC
0
SECTION
2
BLOCKS
0
BLOCK
5
20
100
AcDbEntity
8
0
100
AcDbBlockBegin
2
*Model_Space
70
0
10
0
20
0
30
0
3
*Model_Space
0
ENDBLK
5
21
100
AcDbEntity
8
0
100
AcDbBlockEnd
0
BLOCK
5
1C
100
AcDbEntity
8
0
100
AcDbBlockBegin
2
*Paper_Space
70
0
10
0
20
0
30
0
3
*Paper_Space
0
ENDBLK
5
1D
100
AcDbEntity
8
0
100
AcDbBlockEnd
0
BLOCK
5
24
100
AcDbEntity
8
0
100
AcDbBlockBegin
2
*Paper_Space0
70
0
10
0
20
0
30
0
3
*Paper_Space0
0
ENDBLK
5
25
100
AcDbEntity
8
0
100
AcDbBlockEnd
0
BLOCK
5
13D
100
AcDbEntity
8
0
100
AcDbBlockBegin
2
DimnDraft3D1
70
0
10
0
20
0
30
0
3
DimnDraft3D1
0
MTEXT
5
132
100
AcDbEntity
8
SK2
62
256
6
ByLayer
370
-1
48
1
60
0
100
AcDbMText
10
-32.875
20
-3.659211
30
0
210
0
220
0
230
1
1
\W01.000;\fsimplex.shx,bigfont.shx;%%c32 
40
4.5
41
0
44
1.084337
50
90
71
7
72
5
7
DEFAULT
0
LINE
5
134
100
AcDbEntity
8
SK2
62
256
6
ByLayer
370
-1
48
1
60
0
100
AcDbLine
10
-2
20
-16
30
0
11
-33.75
21
-16
31
0
39
0
210
0
220
0
230
1
0
LINE
5
135
100
AcDbEntity
8
SK2
62
256
6
ByLayer
370
-1
48
1
60
0
100
AcDbLine
10
-2
20
16
30
0
11
-33.75
21
16
31
0
39
0
210
0
220
0
230
1
0
LINE
5
136
100
AcDbEntity
8
SK2
62
256
6
ByLayer
370
-1
48
1
60
0
100
AcDbLine
10
-31.75
20
-16
30
0
11
-31.75
21
16
31
0
39
0
210
0
220
0
230
1
0
LINE
5
137
100
AcDbEntity
8
SK2
62
256
6
ByLayer
370
-1
48
1
60
0
100
AcDbLine
10
-31.75
20
-16
30
0
11
-32.167997
21
-12.825002
31
0
39
0
210
0
220
0
230
1
0
LINE
5
138
100
AcDbEntity
8
SK2
62
256
6
ByLayer
370
-1
48
1
60
0
100
AcDbLine
10
-31.75
20
-16
30
0
11
-31.332003
21
-12.824998
31
0
39
0
210
0
220
0
230
1
0
LINE
5
139
100
AcDbEntity
8
SK2
62
256
6
ByLayer
370
-1
48
1
60
0
100
AcDbLine
10
-32.167997
20
-12.825002
30
0
11
-31.332003
21
-12.824998
31
0
39
0
210
0
220
0
230
1
0
LINE
5
13A
100
AcDbEntity
8
SK2
62
256
6
ByLayer
370
-1
48
1
60
0
100
AcDbLine
10
-31.75
20
16
30
0
11
-31.332003
21
12.825002
31
0
39
0
210
0
220
0
230
1
0
LINE
5
13B
100
AcDbEntity
8
SK2
62
256
6
ByLayer
370
-1
48
1
60
0
100
AcDbLine
10
-31.75
20
16
30
0
11
-32.167997
21
12.824998
31
0
39
0
210
0
220
0
230
1
0
LINE
5
13C
100
AcDbEntity
8
SK2
62
256
6
ByLayer
370
-1
48
1
60
0
100
AcDbLine
10
-31.332003
20
12.825002
30
0
11
-32.167997
21
12.824998
31
0
39
0
210
0
220
0
230
1
0
ENDBLK
5
13E
100
AcDbEntity
8
0
100
AcDbBlockEnd
0
BLOCK
5
141
100
AcDbEntity
8
0
100
AcDbBlockBegin
2
_CLOSED
70
0
10
0
20
0
30
0
3
_CLOSED
0
LINE
5
143
100
AcDbEntity
8
0
62
256
6
ByLayer
370
-2
48
1
60
0
100
AcDbLine
10
-1
20
0.166667
30
0
11
0
21
0
31
0
39
0
210
0
220
0
230
1
0
LINE
5
144
100
AcDbEntity
8
0
62
256
6
ByLayer
370
-2
48
1
60
0
100
AcDbLine
10
0
20
0
30
0
11
-1
21
-0.166667
31
0
39
0
210
0
220
0
230
1
0
LINE
5
145
100
AcDbEntity
8
0
62
256
6
ByLayer
370
-2
48
1
60
0
100
AcDbLine
10
-1
20
0.166667
30
0
11
-1
21
-0.166667
31
0
39
0
210
0
220
0
230
1
0
LINE
5
146
100
AcDbEntity
8
0
62
256
6
ByLayer
370
-2
48
1
60
0
100
AcDbLine
10
0
20
0
30
0
11
-1
21
0
31
0
39
0
210
0
220
0
230
1
0
ENDBLK
5
142
100
AcDbEntity
8
0
100
AcDbBlockEnd
0
BLOCK
5
150
100
AcDbEntity
8
0
100
AcDbBlockBegin
2
DimnDraft3D2
70
0
10
0
20
0
30
0
3
DimnDraft3D2
0
MTEXT
5
148
100
AcDbEntity
8
2
62
256
6
ByLayer
370
-1
48
1
60
0
100
AcDbMText
10
30.225
20
-6.193421
30
0
210
0
220
0
230
1
1
\W01.000;\fsimplex.shx,bigfont.shx;%%c20.0 
40
4.5
41
0
44
1.084337
50
90
71
7
72
5
7
DEFAULT
0
LINE
5
149
100
AcDbEntity
8
2
62
256
6
ByLayer
370
-1
48
1
60
0
100
AcDbLine
10
31.35
20
-10
30
0
11
31.35
21
10
31
0
39
0
210
0
220
0
230
1
0
LINE
5
14A
100
AcDbEntity
8
2
62
256
6
ByLayer
370
-1
48
1
60
0
100
AcDbLine
10
31.35
20
-10
30
0
11
30.932003
21
-6.825002
31
0
39
0
210
0
220
0
230
1
0
LINE
5
14B
100
AcDbEntity
8
2
62
256
6
ByLayer
370
-1
48
1
60
0
100
AcDbLine
10
31.35
20
-10
30
0
11
31.767997
21
-6.824998
31
0
39
0
210
0
220
0
230
1
0
LINE
5
14C
100
AcDbEntity
8
2
62
256
6
ByLayer
370
-1
48
1
60
0
100
AcDbLine
10
30.932003
20
-6.825002
30
0
11
31.767997
21
-6.824998
31
0
39
0
210
0
220
0
230
1
0
LINE
5
14D
100
AcDbEntity
8
2
62
256
6
ByLayer
370
-1
48
1
60
0
100
AcDbLine
10
31.35
20
10
30
0
11
31.767997
21
6.825002
31
0
39
0
210
0
220
0
230
1
0
LINE
5
14E
100
AcDbEntity
8
2
62
256
6
ByLayer
370
-1
48
1
60
0
100
AcDbLine
10
31.35
20
10
30
0
11
30.932003
21
6.824998
31
0
39
0
210
0
220
0
230
1
0
LINE
5
14F
100
AcDbEntity
8
2
62
256
6
ByLayer
370
-1
48
1
60
0
100
AcDbLine
10
31.767997
20
6.825002
30
0
11
30.932003
21
6.824998
31
0
39
0
210
0
220
0
230
1
0
ENDBLK
5
151
100
AcDbEntity
8
0
100
AcDbBlockEnd
0
BLOCK
5
15E
100
AcDbEntity
8
0
100
AcDbBlockBegin
2
DimnDraft3D3
70
0
10
0
20
0
30
0
3
DimnDraft3D3
0
MTEXT
5
154
100
AcDbEntity
8
2
62
256
6
ByLayer
370
-1
48
1
60
0
100
AcDbMText
10
86.125
20
24.28
30
0
210
0
220
0
230
1
1
\W01.000;\fsimplex.shx,bigfont.shx;13.0 
40
4.5
41
0
44
1.084337
50
90
71
7
72
5
7
DEFAULT
0
LINE
5
155
100
AcDbEntity
8
2
62
256
6
ByLayer
370
-1
48
1
60
0
100
AcDbLine
10
77
20
12.9
30
0
11
89.25
21
12.9
31
0
39
0
210
0
220
0
230
1
0
LINE
5
156
100
AcDbEntity
8
2
62
256
6
ByLayer
370
-1
48
1
60
0
100
AcDbLine
10
77
20
0
30
0
11
89.25
21
0
31
0
39
0
210
0
220
0
230
1
0
LINE
5
157
100
AcDbEntity
8
2
62
256
6
ByLayer
370
-1
48
1
60
0
100
AcDbLine
10
87.25
20
0
30
0
11
87.25
21
32.356316
31
0
39
0
210
0
220
0
230
1
0
LINE
5
158
100
AcDbEntity
8
2
62
256
6
ByLayer
370
-1
48
1
60
0
100
AcDbLine
10
87.25
20
12.9
30
0
11
87.667997
21
9.725002
31
0
39
0
210
0
220
0
230
1
0
LINE
5
159
100
AcDbEntity
8
2
62
256
6
ByLayer
370
-1
48
1
60
0
100
AcDbLine
10
87.25
20
12.9
30
0
11
86.832003
21
9.724998
31
0
39
0
210
0
220
0
230
1
0
LINE
5
15A
100
AcDbEntity
8
2
62
256
6
ByLayer
370
-1
48
1
60
0
100
AcDbLine
10
87.667997
20
9.725002
30
0
11
86.832003
21
9.724998
31
0
39
0
210
0
220
0
230
1
0
LINE
5
15B
100
AcDbEntity
8
2
62
256
6
ByLayer
370
-1
48
1
60
0
100
AcDbLine
10
87.25
20
0
30
0
11
86.832003
21
3.174998
31
0
39
0
210
0
220
0
230
1
0
LINE
5
15C
100
AcDbEntity
8
2
62
256
6
ByLayer
370
-1
48
1
60
0
100
AcDbLine
10
87.25
20
0
30
0
11
87.667997
21
3.175002
31
0
39
0
210
0
220
0
230
1
0
LINE
5
15D
100
AcDbEntity
8
2
62
256
6
ByLayer
370
-1
48
1
60
0
100
AcDbLine
10
86.832003
20
3.174998
30
0
11
87.667997
21
3.175002
31
0
39
0
210
0
220
0
230
1
0
ENDBLK
5
15F
100
AcDbEntity
8
0
100
AcDbBlockEnd
0
BLOCK
5
16C
100
AcDbEntity
8
0
100
AcDbBlockBegin
2
DimnDraft3D4
70
0
10
0
20
0
30
0
3
DimnDraft3D4
0
MTEXT
5
162
100
AcDbEntity
8
2
62
256
6
ByLayer
370
-1
48
1
60
0
100
AcDbMText
10
33.461842
20
41.775
30
0
210
0
220
0
230
1
1
\W01.000;\fsimplex.shx,bigfont.shx;75.0 
40
4.5
41
0
44
1.084337
50
0
71
7
72
5
7
DEFAULT
0
LINE
5
163
100
AcDbEntity
8
2
62
256
6
ByLayer
370
-1
48
1
60
0
100
AcDbLine
10
0
20
18
30
0
11
0
21
42.65
31
0
39
0
210
0
220
0
230
1
0
LINE
5
164
100
AcDbEntity
8
2
62
256
6
ByLayer
370
-1
48
1
60
0
100
AcDbLine
10
75
20
14.9
30
0
11
75
21
42.65
31
0
39
0
210
0
220
0
230
1
0
LINE
5
165
100
AcDbEntity
8
2
62
256
6
ByLayer
370
-1
48
1
60
0
100
AcDbLine
10
0
20
40.65
30
0
11
75
21
40.65
31
0
39
0
210
0
220
0
230
1
0
LINE
5
166
100
AcDbEntity
8
2
62
256
6
ByLayer
370
-1
48
1
60
0
100
AcDbLine
10
0
20
40.65
30
0
11
3.174998
21
41.067997
31
0
39
0
210
0
220
0
230
1
0
LINE
5
167
100
AcDbEntity
8
2
62
256
6
ByLayer
370
-1
48
1
60
0
100
AcDbLine
10
0
20
40.65
30
0
11
3.175002
21
40.232003
31
0
39
0
210
0
220
0
230
1
0
LINE
5
168
100
AcDbEntity
8
2
62
256
6
ByLayer
370
-1
48
1
60
0
100
AcDbLine
10
3.174998
20
41.067997
30
0
11
3.175002
21
40.232003
31
0
39
0
210
0
220
0
230
1
0
LINE
5
169
100
AcDbEntity
8
2
62
256
6
ByLayer
370
-1
48
1
60
0
100
AcDbLine
10
75
20
40.65
30
0
11
71.825002
21
40.232003
31
0
39
0
210
0
220
0
230
1
0
LINE
5
16A
100
AcDbEntity
8
2
62
256
6
ByLayer
370
-1
48
1
60
0
100
AcDbLine
10
75
20
40.65
30
0
11
71.824998
21
41.067997
31
0
39
0
210
0
220
0
230
1
0
LINE
5
16B
100
AcDbEntity
8
2
62
256
6
ByLayer
370
-1
48
1
60
0
100
AcDbLine
10
71.825002
20
40.232003
30
0
11
71.824998
21
41.067997
31
0
39
0
210
0
220
0
230
1
0
ENDBLK
5
16D
100
AcDbEntity
8
0
100
AcDbBlockEnd
0
BLOCK
5
17A
100
AcDbEntity
8
0
100
AcDbBlockBegin
2
DimnDraft3D5
70
0
10
0
20
0
30
0
3
DimnDraft3D5
0
MTEXT
5
170
100
AcDbEntity
8
2
62
256
6
ByLayer
370
-1
48
1
60
0
100
AcDbMText
10
41.511842
20
26.775
30
0
210
0
220
0
230
1
1
\W01.000;\fsimplex.shx,bigfont.shx;58.9 
40
4.5
41
0
44
1.084337
50
0
71
7
72
5
7
DEFAULT
0
LINE
5
171
100
AcDbEntity
8
2
62
256
6
ByLayer
370
-1
48
1
60
0
100
AcDbLine
10
16.1
20
12
30
0
11
16.1
21
27.65
31
0
39
0
210
0
220
0
230
1
0
LINE
5
172
100
AcDbEntity
8
2
62
256
6
ByLayer
370
-1
48
1
60
0
100
AcDbLine
10
75
20
14.9
30
0
11
75
21
27.65
31
0
39
0
210
0
220
0
230
1
0
LINE
5
173
100
AcDbEntity
8
2
62
256
6
ByLayer
370
-1
48
1
60
0
100
AcDbLine
10
16.1
20
25.65
30
0
11
75
21
25.65
31
0
39
0
210
0
220
0
230
1
0
LINE
5
174
100
AcDbEntity
8
2
62
256
6
ByLayer
370
-1
48
1
60
0
100
AcDbLine
10
16.1
20
25.65
30
0
11
19.274998
21
26.067997
31
0
39
0
210
0
220
0
230
1
0
LINE
5
175
100
AcDbEntity
8
2
62
256
6
ByLayer
370
-1
48
1
60
0
100
AcDbLine
10
16.1
20
25.65
30
0
11
19.275002
21
25.232003
31
0
39
0
210
0
220
0
230
1
0
LINE
5
176
100
AcDbEntity
8
2
62
256
6
ByLayer
370
-1
48
1
60
0
100
AcDbLine
10
19.274998
20
26.067997
30
0
11
19.275002
21
25.232003
31
0
39
0
210
0
220
0
230
1
0
LINE
5
177
100
AcDbEntity
8
2
62
256
6
ByLayer
370
-1
48
1
60
0
100
AcDbLine
10
75
20
25.65
30
0
11
71.825002
21
25.232003
31
0
39
0
210
0
220
0
230
1
0
LINE
5
178
100
AcDbEntity
8
2
62
256
6
ByLayer
370
-1
48
1
60
0
100
AcDbLine
10
75
20
25.65
30
0
11
71.824998
21
26.067997
31
0
39
0
210
0
220
0
230
1
0
LINE
5
179
100
AcDbEntity
8
2
62
256
6
ByLayer
370
-1
48
1
60
0
100
AcDbLine
10
71.825002
20
25.232003
30
0
11
71.824998
21
26.067997
31
0
39
0
210
0
220
0
230
1
0
ENDBLK
5
17B
100
AcDbEntity
8
0
100
AcDbBlockEnd
0
BLOCK
5
188
100
AcDbEntity
8
0
100
AcDbBlockBegin
2
DimnDraft3D6
70
0
10
0
20
0
30
0
3
DimnDraft3D6
0
MTEXT
5
17E
100
AcDbEntity
8
2
62
256
6
ByLayer
370
-1
48
1
60
0
100
AcDbMText
10
100.946583
20
-37.312521
30
0
210
0
220
0
230
1
1
\W01.000;\fsimplex.shx,bigfont.shx;95%%d0' 
40
4.5
41
0
44
1.084337
50
42.5000000000001
71
7
72
5
7
DEFAULT
0
LINE
5
17F
100
AcDbEntity
8
2
62
256
6
ByLayer
370
-1
48
1
60
0
100
AcDbLine
10
74.041287
20
1.941858
30
0
11
69.607179
21
-48.740227
31
0
39
0
210
0
220
0
230
1
0
LINE
5
180
100
AcDbEntity
8
2
62
256
6
ByLayer
370
-1
48
1
60
0
100
AcDbLine
10
77
20
0
30
0
11
122.797803
21
0
31
0
39
0
210
0
220
0
230
1
0
ARC
5
181
100
AcDbEntity
8
2
62
256
6
ByLayer
370
-1
48
1
60
0
100
AcDbCircle
39
0
10
73.871396
20
0
30
0
40
46.9264068782928
210
0
220
0
230
1
100
AcDbArc
50
265
51
0
0
LINE
5
182
100
AcDbEntity
8
2
62
256
6
ByLayer
370
-1
48
1
60
0
100
AcDbLine
10
69.78149
20
-46.747838
30
0
11
72.978019
21
-46.554078
31
0
39
0
210
0
220
0
230
1
0
LINE
5
183
100
AcDbEntity
8
2
62
256
6
ByLayer
370
-1
48
1
60
0
100
AcDbLine
10
69.78149
20
-46.747838
30
0
11
72.919251
21
-47.388003
31
0
39
0
210
0
220
0
230
1
0
LINE
5
184
100
AcDbEntity
8
2
62
256
6
ByLayer
370
-1
48
1
60
0
100
AcDbLine
10
72.978019
20
-46.554078
30
0
11
72.919251
21
-47.388003
31
0
39
0
210
0
220
0
230
1
0
LINE
5
185
100
AcDbEntity
8
2
62
256
6
ByLayer
370
-1
48
1
60
0
100
AcDbLine
10
120.797803
20
0
30
0
11
121.162059
21
-3.181612
31
0
39
0
210
0
220
0
230
1
0
LINE
5
186
100
AcDbEntity
8
2
62
256
6
ByLayer
370
-1
48
1
60
0
100
AcDbLine
10
120.797803
20
0
30
0
11
120.326185
21
-3.16748
31
0
39
0
210
0
220
0
230
1
0
LINE
5
187
100
AcDbEntity
8
2
62
256
6
ByLayer
370
-1
48
1
60
0
100
AcDbLine
10
121.162059
20
-3.181612
30
0
11
120.326185
21
-3.16748
31
0
39
0
210
0
220
0
230
1
0
ENDBLK
5
189
100
AcDbEntity
8
0
100
AcDbBlockEnd
0
ENDSEC
0
SECTION
2
ENTITIES
0
ARC
5
8E
100
AcDbEntity
8
1
62
256
6
ByLayer
370
-1
48
1
60
0
100
AcDbCircle
39
0
10
-20.70967
20
-16
30
0
40
6
210
0
220
0
230
-1
100
AcDbArc
50
14.931417
51
90
0
ARC
5
8F
100
AcDbEntity
8
1
62
256
6
ByLayer
370
-1
48
1
60
0
100
AcDbCircle
39
0
10
-20.70967
20
16
30
0
40
6
210
0
220
0
230
-1
100
AcDbArc
50
270
51
345.068583
0
ARC
5
90
100
AcDbEntity
8
SK1
62
256
6
ByLayer
370
-1
48
1
60
0
100
AcDbCircle
39
0
10
0.6
20
11.8
30
0
40
1
210
0
220
0
230
-1
100
AcDbArc
50
233.130102
51
246.421822
0
ARC
5
91
100
AcDbEntity
8
SK1
62
256
6
ByLayer
370
-1
48
1
60
0
100
AcDbCircle
39
0
10
0.6
20
-11.8
30
0
40
1
210
0
220
0
230
-1
100
AcDbArc
50
113.578178
51
126.869898
0
ELLIPSE
5
92
100
AcDbEntity
8
1
62
256
6
ByLayer
370
-1
48
1
60
0
100
AcDbEllipse
10
12.928203
20
0
30
0
11
7.49393430382675
21
-15.7933993222016
31
0
210
0
220
0
230
-1
40
0.341999
41
2.05401345238933
42
2.98012608239208
0
ELLIPSE
5
93
100
AcDbEntity
8
1
62
256
6
ByLayer
370
-1
48
1
60
0
100
AcDbEllipse
10
-0.928203
20
0
30
0
11
7.49393430382699
21
-15.7933993222019
31
0
210
0
220
0
230
-1
40
0.341999
41
-1.08757920120044
42
-0.161466571197697
0
ELLIPSE
5
94
100
AcDbEntity
8
1
62
256
6
ByLayer
370
-1
48
1
60
0
100
AcDbEllipse
10
65.538105
20
4.185476
30
0
11
-1.49429204713762
21
0.130733614121485
31
0
210
0
220
0
230
1
40
0.994969
41
-1.01866046625067
42
-0.00436332312998947
0
ELLIPSE
5
95
100
AcDbEntity
8
1
62
256
6
ByLayer
370
-1
48
1
60
0
100
AcDbEllipse
10
65.244802
20
3.154897
30
0
11
1.49429204713762
21
-0.130733614121498
31
0
210
0
220
0
230
1
40
0.994969
41
2.70464910207327
42
-0.187947344650416
0
ELLIPSE
5
96
100
AcDbEntity
8
1
62
256
6
ByLayer
370
-1
48
1
60
0
100
AcDbEllipse
10
12.928203
20
0
30
0
11
7.49393430382661
21
15.7933993222013
31
0
210
0
220
0
230
-1
40
0.341999
41
-2.98012608239209
42
-2.05401345238933
0
ELLIPSE
5
97
100
AcDbEntity
8
1
62
256
6
ByLayer
370
-1
48
1
60
0
100
AcDbEllipse
10
65.557314
20
4.405037
30
0
11
-1.49429204713762
21
0.130733614121485
31
0
210
0
220
0
230
1
40
0.994969
41
-1.01866046625067
42
-0.00436332312998947
0
ELLIPSE
5
98
100
AcDbEntity
8
1
62
256
6
ByLayer
370
-1
48
1
60
0
100
AcDbEllipse
10
65.546856
20
4.297727
30
0
11
1.64356934072491
21
-0.143793685032218
31
0
210
0
220
0
230
1
40
0.994969
41
3.1372293304598
42
-2.81074878326751
0
ELLIPSE
5
99
100
AcDbEntity
8
1
62
256
6
ByLayer
370
-1
48
1
60
0
100
AcDbEllipse
10
-0.928203
20
0
30
0
11
7.49393430382716
21
15.7933993222021
31
0
210
0
220
0
230
-1
40
0.341999
41
0.161466571197704
42
1.08757920120044
0
ELLIPSE
5
9A
100
AcDbEntity
8
1
62
256
6
ByLayer
370
-1
48
1
60
0
100
AcDbEllipse
10
65.569103
20
4.539779
30
0
11
1.6435693407249
21
-0.143793685032219
31
0
210
0
220
0
230
1
40
0.994969
41
2.06787661607871
42
3.13722933045983
0
ELLIPSE
5
9B
100
AcDbEntity
8
1
62
256
6
ByLayer
370
-1
48
1
60
0
100
AcDbEllipse
10
65.213805
20
2.800594
30
0
11
1.49429204713762
21
-0.130733614121498
31
0
210
0
220
0
230
1
40
0.994969
41
1.97097623129005
42
2.5641969112607
0
ELLIPSE
5
9C
100
AcDbEntity
8
1
62
256
6
ByLayer
370
-1
48
1
60
0
100
AcDbEllipse
10
65.20813
20
2.735724
30
0
11
-1.49429204713762
21
0.130733614121485
31
0
210
0
220
0
230
1
40
0.994969
41
-1.17065227173332
42
-0.14138790635826
0
ELLIPSE
5
9D
100
AcDbEntity
8
1
62
256
6
ByLayer
370
-1
48
1
60
0
100
AcDbEllipse
10
65.535068
20
4.162986
30
0
11
-1.49429204713762
21
0.130733614121485
31
0
210
0
220
0
230
1
40
0.994969
41
-0.00436332312998947
42
0.236828448521984
0
ELLIPSE
5
9E
100
AcDbEntity
8
1
62
256
6
ByLayer
370
-1
48
1
60
0
100
AcDbEllipse
10
69.832984
20
7.659513
30
0
11
-2.93926815525669
21
0.257152642647712
31
0
210
0
220
0
230
1
40
0.994969
41
0
42
6.28318530717959
0
ELLIPSE
5
9F
100
AcDbEntity
8
1
62
256
6
ByLayer
370
-1
48
1
60
0
100
AcDbEllipse
10
69.834329
20
7.674883
30
0
11
2.99461313765101
21
-0.261994701190283
31
0
210
0
220
0
230
1
40
0.994969
41
-0.756507305290645
42
-2.96957410540986E-16
0
ELLIPSE
5
A0
100
AcDbEntity
8
1
62
256
6
ByLayer
370
-1
48
1
60
0
100
AcDbEllipse
10
69.834329
20
7.674883
30
0
11
2.99461313765101
21
-0.261994701190283
31
0
210
0
220
0
230
1
40
0.994969
41
0
42
0.0877053909238318
0
ELLIPSE
5
A1
100
AcDbEntity
8
1
62
256
6
ByLayer
370
-1
48
1
60
0
100
AcDbEllipse
10
69.834329
20
7.674883
30
0
11
2.99461313765101
21
-0.261994701190283
31
0
210
0
220
0
230
1
40
0.994969
41
-2.37393653318189
42
-0.767699214851943
0
ELLIPSE
5
A2
100
AcDbEntity
8
1
62
256
6
ByLayer
370
-1
48
1
60
0
100
AcDbEllipse
10
69.834329
20
7.674883
30
0
11
2.99461313765101
21
-0.261994701190283
31
0
210
0
220
0
230
1
40
0.994969
41
0.0877055867441885
42
-2.38512844517365
0
ELLIPSE
5
A3
100
AcDbEntity
8
1
62
256
6
ByLayer
370
-1
48
1
60
0
100
AcDbEllipse
10
69.828613
20
7.609545
30
0
11
-1.20190890324768
21
0.105153403625047
31
0
210
0
220
0
230
1
40
0.994969
41
-0.629099067385829
42
0.152696921594508
0
ELLIPSE
5
A4
100
AcDbEntity
8
1
62
256
6
ByLayer
370
-1
48
1
60
0
100
AcDbEllipse
10
69.838686
20
7.72468
30
0
11
1.20190890324769
21
-0.105153403625058
31
0
210
0
220
0
230
1
40
0.994969
41
2.37442831938013
42
2.51249358620398
0
ELLIPSE
5
A5
100
AcDbEntity
8
1
62
256
6
ByLayer
370
-1
48
1
60
0
100
AcDbEllipse
10
69.841055
20
7.751761
30
0
11
1.67012041135081
21
-0.146116602716461
31
0
210
0
220
0
230
1
40
0.994969
41
2.96985027607169
42
-2.26892802759262
0
ELLIPSE
5
A6
100
AcDbEntity
8
1
62
256
6
ByLayer
370
-1
48
1
60
0
100
AcDbEllipse
10
69.841055
20
7.751761
30
0
11
1.67012041135081
21
-0.146116602716461
31
0
210
0
220
0
230
1
40
0.994969
41
-2.26892802759262
42
-1.22452102407734
0
ELLIPSE
5
A7
100
AcDbEntity
8
1
62
256
6
ByLayer
370
-1
48
1
60
0
100
AcDbEllipse
10
69.828613
20
7.609545
30
0
11
-1.20190890324768
21
0.105153403625047
31
0
210
0
220
0
230
1
40
0.994969
41
0.403203332934495
42
1.12950639925391
0
ELLIPSE
5
A8
100
AcDbEntity
8
1
62
256
6
ByLayer
370
-1
48
1
60
0
100
AcDbEllipse
10
69.838686
20
7.72468
30
0
11
1.20190890324769
21
-0.105153403625058
31
0
210
0
220
0
230
1
40
0.994969
41
-0.76716433420956
42
-0.629099067385894
0
ELLIPSE
5
A9
100
AcDbEntity
8
1
62
256
6
ByLayer
370
-1
48
1
60
0
100
AcDbEllipse
10
69.828613
20
7.609545
30
0
11
1.20190890324769
21
-0.105153403625058
31
0
210
0
220
0
230
1
40
0.994969
41
0.350461124239539
42
1.39486812775478
0
ELLIPSE
5
AA
100
AcDbEntity
8
1
62
256
6
ByLayer
370
-1
48
1
60
0
100
AcDbEllipse
10
69.828613
20
7.609545
30
0
11
-1.20190890324768
21
0.105153403625047
31
0
210
0
220
0
230
1
40
0.994969
41
-1.74672452583502
42
-0.767164334209642
0
ELLIPSE
5
AB
100
AcDbEntity
8
1
62
256
6
ByLayer
370
-1
48
1
60
0
100
AcDbEllipse
10
69.841055
20
7.751761
30
0
11
1.67012041135081
21
-0.146116602716461
31
0
210
0
220
0
230
1
40
0.994969
41
-1.22452102407734
42
-0.171742377518076
0
ELLIPSE
5
AC
100
AcDbEntity
8
1
62
256
6
ByLayer
370
-1
48
1
60
0
100
AcDbEllipse
10
70.320161
20
9.427536
30
0
11
-0.683389562890938
21
0.0597888395248927
31
0
210
0
220
0
230
1
40
0.994969
41
1.39486812775476
42
2.17885877137555
0
ELLIPSE
5
AD
100
AcDbEntity
8
1
62
256
6
ByLayer
370
-1
48
1
60
0
100
AcDbEllipse
10
69.841055
20
7.751761
30
0
11
1.67012041135081
21
-0.146116602716461
31
0
210
0
220
0
230
1
40
0.994969
41
1.91707162951242
42
2.96985027607169
0
ELLIPSE
5
AE
100
AcDbEntity
8
1
62
256
6
ByLayer
370
-1
48
1
60
0
100
AcDbEllipse
10
69.828613
20
7.609545
30
0
11
1.20190890324769
21
-0.105153403625058
31
0
210
0
220
0
230
1
40
0.994969
41
2.37442831938015
42
2.51249358620396
0
ELLIPSE
5
AF
100
AcDbEntity
8
1
62
256
6
ByLayer
370
-1
48
1
60
0
100
AcDbEllipse
10
69.841055
20
7.751761
30
0
11
1.67012041135081
21
-0.146116602716461
31
0
210
0
220
0
230
1
40
0.994969
41
0.872664625997165
42
1.91707162951242
0
ELLIPSE
5
B0
100
AcDbEntity
8
1
62
256
6
ByLayer
370
-1
48
1
60
0
100
AcDbEllipse
10
68.495497
20
8.936059
30
0
11
-0.683389562890938
21
0.0597888395248927
31
0
210
0
220
0
230
1
40
0.994969
41
2.56507499400895
42
3.14158956067065
0
ELLIPSE
5
B1
100
AcDbEntity
8
1
62
256
6
ByLayer
370
-1
48
1
60
0
100
AcDbEllipse
10
69.828613
20
7.609545
30
0
11
-1.20190890324768
21
0.105153403625047
31
0
210
0
220
0
230
1
40
0.994969
41
1.62120770941397
42
2.28726311804783
0
ELLIPSE
5
B2
100
AcDbEntity
8
1
62
256
6
ByLayer
370
-1
48
1
60
0
100
AcDbEllipse
10
69.841055
20
7.751761
30
0
11
1.67012041135081
21
-0.146116602716461
31
0
210
0
220
0
230
1
40
0.994969
41
-0.171742377518076
42
0.872664625997165
0
ELLIPSE
5
B3
100
AcDbEntity
8
1
62
256
6
ByLayer
370
-1
48
1
60
0
100
AcDbEllipse
10
69.828613
20
7.609545
30
0
11
-1.20190890324768
21
0.105153403625047
31
0
210
0
220
0
230
1
40
0.994969
41
2.67462588045492
42
-2.79113152935026
0
ELLIPSE
5
B4
100
AcDbEntity
8
1
62
256
6
ByLayer
370
-1
48
1
60
0
100
AcDbEllipse
10
71.655657
20
8.098653
30
0
11
-0.683389562890938
21
0.0597888395248927
31
0
210
0
220
0
230
1
40
0.994969
41
0.350461124239525
42
1.13445176786032
0
ELLIPSE
5
B5
100
AcDbEntity
8
1
62
256
6
ByLayer
370
-1
48
1
60
0
100
AcDbEllipse
10
68.001568
20
7.120436
30
0
11
-0.683389562890938
21
0.0597888395248927
31
0
210
0
220
0
230
1
40
0.994969
41
2.70806313420852
42
3.14158600506386
0
ELLIPSE
5
B6
100
AcDbEntity
8
1
62
256
6
ByLayer
370
-1
48
1
60
0
100
AcDbEllipse
10
68.49019
20
7.962961
30
0
11
-0.29088885184279
21
0.0254494768823158
31
0
210
0
220
0
230
1
40
0.994969
41
-1.489393035719
42
-0.242205150445112
0
ELLIPSE
5
B7
100
AcDbEntity
8
1
62
256
6
ByLayer
370
-1
48
1
60
0
100
AcDbEllipse
10
68.495497
20
8.936059
30
0
11
-0.683389562890938
21
0.0597888395248927
31
0
210
0
220
0
230
1
40
0.994969
41
1.65219961787081
42
2.32184691157513
0
ELLIPSE
5
B8
100
AcDbEntity
8
1
62
256
6
ByLayer
370
-1
48
1
60
0
100
AcDbEllipse
10
69.47344
20
8.941337
30
0
11
-0.29088885184279
21
0.0254494768823158
31
0
210
0
220
0
230
1
40
0.994969
41
-2.53071516945584
42
-0.389164309064657
0
ELLIPSE
5
B9
100
AcDbEntity
8
1
62
256
6
ByLayer
370
-1
48
1
60
0
100
AcDbEllipse
10
70.320161
20
9.427536
30
0
11
-0.683389562890938
21
0.0597888395248927
31
0
210
0
220
0
230
1
40
0.994969
41
0.610877484133946
42
1.39486812775476
0
ELLIPSE
5
BA
100
AcDbEntity
8
1
62
256
6
ByLayer
370
-1
48
1
60
0
100
AcDbEllipse
10
70.807137
20
8.583219
30
0
11
-0.29088885184279
21
0.0254494768823158
31
0
210
0
220
0
230
1
40
0.994969
41
-2.93933308217939
42
-0.962733882214305
0
ELLIPSE
5
BB
100
AcDbEntity
8
1
62
256
6
ByLayer
370
-1
48
1
60
0
100
AcDbEllipse
10
71.655657
20
8.098653
30
0
11
-0.683389562890938
21
0.0597888395248927
31
0
210
0
220
0
230
1
40
0.994969
41
-6.95209500885045E-06
42
0.350461124239525
0
ELLIPSE
5
BC
100
AcDbEntity
8
1
62
256
6
ByLayer
370
-1
48
1
60
0
100
AcDbEllipse
10
71.167036
20
7.256129
30
0
11
-0.29088885184279
21
0.0254494768823158
31
0
210
0
220
0
230
1
40
0.994969
41
-2.80237158927385
42
-2.00714088572958
0
ELLIPSE
5
BD
100
AcDbEntity
8
1
62
256
6
ByLayer
370
-1
48
1
60
0
100
AcDbEllipse
10
69.828831
20
7.61204
30
0
11
2.61501108249083
21
-0.228783824712622
31
0
210
0
220
0
230
1
40
0.994969
41
3.14152211203519
42
-3.4006454843848E-16
0
ELLIPSE
5
BE
100
AcDbEntity
8
1
62
256
6
ByLayer
370
-1
48
1
60
0
100
AcDbEllipse
10
69.841055
20
7.751761
30
0
11
1.79315045656513
21
-0.156880336945797
31
0
210
0
220
0
230
1
40
0.994969
41
0
42
6.28318530717959
0
ELLIPSE
5
BF
100
AcDbEntity
8
1
62
256
6
ByLayer
370
-1
48
1
60
0
100
AcDbEllipse
10
69.83865
20
7.724272
30
0
11
2.61501108249083
21
-0.228783824712622
31
0
210
0
220
0
230
1
40
0.994969
41
0
42
6.28318530717959
0
ELLIPSE
5
C0
100
AcDbEntity
8
1
62
256
6
ByLayer
370
-1
48
1
60
0
100
AcDbEllipse
10
74.206005
20
12.109939
30
0
11
0.790978590284896
21
-0.0692016597416508
31
0
210
0
220
0
230
1
40
0.994969
41
0
42
1.74532925199436
0
ELLIPSE
5
C1
100
AcDbEntity
8
1
62
256
6
ByLayer
370
-1
48
1
60
0
100
AcDbEllipse
10
73.507113
20
4.121559
30
0
11
0.790978590284914
21
-0.0692016597416523
31
0
210
0
220
0
230
1
40
0.994969
41
-1.39626340159547
42
5.39649031527012E-14
0
ELLIPSE
5
C2
100
AcDbEntity
8
1
62
256
6
ByLayer
370
-1
48
1
60
0
100
AcDbEllipse
10
65.478954
20
3.426146
30
0
11
0.790978590284847
21
-0.0692016597416465
31
0
210
0
220
0
230
1
40
0.994969
41
-3.14159265358978
42
-1.39626340159547
0
ELLIPSE
5
C3
100
AcDbEntity
8
1
62
256
6
ByLayer
370
-1
48
1
60
0
100
AcDbEllipse
10
66.177847
20
11.414527
30
0
11
0.790978590284886
21
-0.0692016597416499
31
0
210
0
220
0
230
1
40
0.994969
41
1.74532925199437
42
-3.14159265358977
0
ELLIPSE
5
C4
100
AcDbEntity
8
1
62
256
6
ByLayer
370
-1
48
1
60
0
100
AcDbEllipse
10
69.84248
20
7.768043
30
0
11
3.05963802797407
21
-0.267683641940567
31
0
210
0
220
0
230
1
40
0.994969
41
0
42
6.28318530717959
0
POINT
5
41
100
AcDbEntity
8
80
62
256
6
ByLayer
370
-1
48
1
60
0
100
AcDbPoint
10
0
20
0
30
0
39
0
210
0
220
0
230
1
50
360
0
POINT
5
43
100
AcDbEntity
8
81
62
256
6
ByLayer
370
-1
48
1
60
0
100
AcDbPoint
10
75
20
12.9
30
0
39
0
210
0
220
0
230
1
50
360
0
POINT
5
45
100
AcDbEntity
8
1
62
256
6
ByLayer
370
-1
48
1
60
0
100
AcDbPoint
10
0
20
0
30
0
39
0
210
0
220
0
230
1
50
360
0
POINT
5
47
100
AcDbEntity
8
2
62
256
6
ByLayer
370
-1
48
1
60
0
100
AcDbPoint
10
75
20
12.9
30
0
39
0
210
0
220
0
230
1
50
360
0
SPLINE
5
C5
100
AcDbEntity
8
SK1
62
256
6
ByLayer
370
-1
48
1
60
0
100
AcDbSpline
70
4
71
2
72
6
73
3
40
0
40
0
40
0
40
1
40
1
40
1
41
1
10
-2.5
20
-10.9999999791865
30
0
41
1
10
-2.09751251213362
20
-11.0101118658039
30
0
41
1
10
-1.69502502426718
20
-11.0202237524214
30
0
0
SPLINE
5
C6
100
AcDbEntity
8
SK1
62
256
6
ByLayer
370
-1
48
1
60
0
100
AcDbSpline
70
4
71
2
72
6
73
3
40
0
40
0
40
0
40
1
40
1
40
1
41
1
10
-1.69502502426718
20
11.0202237949308
30
0
41
1
10
-2.09751251213362
20
11.0101119082743
30
0
41
1
10
-2.5
20
11.0000000216178
30
0
0
SPLINE
5
C7
100
AcDbEntity
8
SK1
62
256
6
ByLayer
370
-1
48
1
60
0
100
AcDbSpline
70
4
71
2
72
6
73
3
40
0
40
0
40
0
40
1
40
1
40
1
41
1
10
-2.5
20
11.0000000216178
30
0
41
1
10
-10.2501577226355
20
10.805289083207
30
0
41
1
10
-18.0003154452711
20
10.6105781447962
30
0
0
SPLINE
5
C8
100
AcDbEntity
8
SK1
62
256
6
ByLayer
370
-1
48
1
60
0
100
AcDbSpline
70
4
71
2
72
6
73
3
40
0
40
0
40
0
40
1
40
1
40
1
41
1
10
-18.0003154452711
20
-10.6105781038671
30
0
41
1
10
-10.2501577226355
20
-10.8052890415268
30
0
41
1
10
-2.5
20
-10.9999999791865
30
0
0
SPLINE
5
C9
100
AcDbEntity
8
SK1
62
256
6
ByLayer
370
-1
48
1
60
0
100
AcDbSpline
70
4
71
2
72
6
73
3
40
0
40
0
40
0
40
1
40
1
40
1
41
1
10
-18.0002077056275
20
10.6083539004405
30
0
41
1
10
-18.5001033313043
20
10.302566364032
30
0
41
1
10
-19
20
9.996785310587
30
0
0
SPLINE
5
CA
100
AcDbEntity
8
SK1
62
256
6
ByLayer
370
-1
48
1
60
0
100
AcDbSpline
70
4
71
2
72
6
73
3
40
0
40
0
40
0
40
1
40
1
40
1
41
1
10
-19
20
-9.99570806969172
30
0
41
1
10
-18.5001026802154
20
-10.301383051238
30
0
41
1
10
-18.0002062662752
20
-10.6070648849158
30
0
0
SPLINE
5
CB
100
AcDbEntity
8
SK1
62
256
6
ByLayer
370
-1
48
1
60
0
100
AcDbSpline
70
4
71
1
72
4
73
2
40
0
40
0
40
1
40
1
41
1
10
-1.69888700159413
20
2.43402506192237
30
0
41
1
10
-1.69922662732802
20
2.24422844727147
30
0
0
SPLINE
5
CC
100
AcDbEntity
8
SK1
62
256
6
ByLayer
370
-1
48
1
60
0
100
AcDbSpline
70
4
71
3
72
17
73
13
40
0
40
0
40
0
40
0
40
0.0392866625173973
40
0.170550180269656
40
0.306267841830521
40
0.441877177726809
40
0.572837070018367
40
0.695082953255911
40
0.80543433434289
40
0.901913637386678
40
0.9839446757459
40
1
40
1
40
1
40
1
41
1
10
-1.56567452769781
20
10.2638812175672
30
0
41
1
10
-1.56837676962044
20
10.2245859603521
30
0
41
1
10
-1.57990123387026
20
10.0392607309701
30
0
41
1
10
-1.59832201607208
20
9.54945885181181
30
0
41
1
10
-1.62100299527469
20
8.78178209812853
30
0
41
1
10
-1.64151606973775
20
7.85039594903401
30
0
41
1
10
-1.65947219868758
20
6.81412162908305
30
0
41
1
10
-1.67432269218028
20
5.72475663594554
30
0
41
1
10
-1.68593890843681
20
4.64272721566545
30
0
41
1
10
-1.69382509044453
20
3.61391268556145
30
0
41
1
10
-1.6981401872859
20
2.88632814749843
30
0
41
1
10
-1.69880380360394
20
2.49801692555494
30
0
41
1
10
-1.69888700159413
20
2.43402506192237
30
0
0
SPLINE
5
CD
100
AcDbEntity
8
SK1
62
256
6
ByLayer
370
-1
48
1
60
0
100
AcDbSpline
70
4
71
3
72
17
73
13
40
0
40
0
40
0
40
0
40
0.0152501717556091
40
0.0973482312938968
40
0.193906368356887
40
0.304347975168485
40
0.426693330616783
40
0.557760778534651
40
0.693481068639429
40
0.829309835481901
40
0.960680854666455
40
1
40
1
40
1
40
1
41
1
10
-1.69886963917708
20
-2.44372030622179
30
0
41
1
10
-1.69878943666447
20
-2.50443386260176
30
0
41
1
10
-1.69813046480016
20
-2.88950221283588
30
0
41
1
10
-1.69382102935219
20
-3.6138435285165
30
0
41
1
10
-1.68594024357441
20
-4.64273707781865
30
0
41
1
10
-1.67432230966455
20
-5.72474087089813
30
0
41
1
10
-1.65947223977321
20
-6.81410432775078
30
0
41
1
10
-1.64151608252496
20
-7.85038816857019
30
0
41
1
10
-1.62100299161011
20
-8.78177341465911
30
0
41
1
10
-1.59832201288242
20
-9.54945260193463
30
0
41
1
10
-1.57990121173282
20
-10.0392559882088
30
0
41
1
10
-1.5683767303633
20
-10.2245823345271
30
0
41
1
10
-1.56567446797743
20
-10.2638780538572
30
0
0
SPLINE
5
CE
100
AcDbEntity
8
SK1
62
256
6
ByLayer
370
-1
48
1
60
0
100
AcDbSpline
70
4
71
1
72
4
73
2
40
0
40
0
40
1
40
1
41
1
10
-1.69921111833776
20
-2.25288818144043
30
0
41
1
10
-1.69886963917708
20
-2.44372030622179
30
0
0
SPLINE
5
CF
100
AcDbEntity
8
SK1
62
256
6
ByLayer
370
-1
48
1
60
0
100
AcDbSpline
70
4
71
2
72
6
73
3
40
0
40
0
40
0
40
1
40
1
40
1
41
1
10
-0.89827076219018
20
10.7847407283835
30
0
41
1
10
-1.19913538109506
20
10.7847407283835
30
0
41
1
10
-1.5
20
10.7847407283835
30
0
0
SPLINE
5
D0
100
AcDbEntity
8
SK1
62
256
6
ByLayer
370
-1
48
1
60
0
100
AcDbSpline
70
4
71
2
72
6
73
3
40
0
40
0
40
0
40
1
40
1
40
1
41
1
10
-1.5
20
-10.7847407263988
30
0
41
1
10
-1.19260811024964
20
-10.7847407263988
30
0
41
1
10
-0.885216220499217
20
-10.7847407263988
30
0
0
SPLINE
5
D1
100
AcDbEntity
8
1
62
256
6
ByLayer
370
-1
48
1
60
0
100
AcDbSpline
70
4
71
3
72
8
73
4
40
0
40
0
40
0
40
0
40
1
40
1
40
1
40
1
41
1
10
63.9459447170589
20
3.90250978163107
30
0
41
1
10
63.977963796488
20
3.91951874266619
30
0
41
1
10
64.0135369454463
20
3.93237448151518
30
0
41
1
10
64.0519673763071
20
3.94124247020548
30
0
0
SPLINE
5
D2
100
AcDbEntity
8
1
62
256
6
ByLayer
370
-1
48
1
60
0
100
AcDbSpline
70
4
71
3
72
16
73
12
40
0
40
0
40
0
40
0
40
0.0824510846571659
40
0.0824510846571659
40
0.188383068428396
40
0.188383068428396
40
0.365472907848055
40
0.365472907848055
40
0.680803291610427
40
0.680803291610427
40
1
40
1
40
1
40
1
41
1
10
7.07679491924307
20
-15.2769622091386
30
0
41
1
10
7.08910350916454
20
-15.2769622091386
30
0
41
1
10
7.10150513750614
20
-15.2764645420423
30
0
41
1
10
7.12874362447576
20
-15.2743206039305
30
0
41
1
10
7.14353521549828
20
-15.2723664954752
30
0
41
1
10
7.17976687435106
20
-15.2658799044773
30
0
41
1
10
7.19977756726536
20
-15.2604302192604
30
0
41
1
10
7.24784029496976
20
-15.2437803206195
30
0
41
1
10
7.27150999874226
20
-15.231104729462
30
0
41
1
10
7.30990356794047
20
-15.2045789137682
30
0
41
1
10
7.32479596954562
20
-15.1904412165637
30
0
41
1
10
7.33660254037841
20
-15.1759383782004
30
0
0
SPLINE
5
D3
100
AcDbEntity
8
1
62
256
6
ByLayer
370
-1
48
1
60
0
100
AcDbSpline
70
4
71
3
72
18
73
14
40
0
40
0
40
0
40
0
40
0.0872973106983427
40
0.0872973106983427
40
0.542504713769251
40
0.542504713769251
40
0.700049237734308
40
0.700049237734308
40
0.859641035571733
40
0.859641035571733
40
0.970800525640285
40
0.970800525640285
40
1
40
1
40
1
40
1
41
1
10
4.66339745962154
20
-15.1759383782004
30
0
41
1
10
4.66664048724545
20
-15.1799220163036
30
0
41
1
10
4.67011875476442
20
-15.1838732610658
30
0
41
1
10
4.69320396133111
20
-15.2080620258527
30
0
41
1
10
4.71929050879203
20
-15.2277749876852
30
0
41
1
10
4.77107527248018
20
-15.2504441152008
30
0
41
1
10
4.78620198735473
20
-15.2559954463097
30
0
41
1
10
4.82059850439146
20
-15.2657445103485
30
0
41
1
10
4.84035202645157
20
-15.2700240892114
30
0
41
1
10
4.87713528116666
20
-15.2749451765724
30
0
41
1
10
4.89353665034179
20
-15.2763144731656
30
0
41
1
10
4.91442266320462
20
-15.2769004141622
30
0
41
1
10
4.91881627021672
20
-15.2769622091386
30
0
41
1
10
4.92320508075687
20
-15.2769622091386
30
0
0
SPLINE
5
D4
100
AcDbEntity
8
1
62
256
6
ByLayer
370
-1
48
1
60
0
100
AcDbSpline
70
4
71
3
72
28
73
24
40
-0.125
40
-0.125
40
0
40
0
40
0.125
40
0.125
40
0.187500000000001
40
0.187500000000001
40
0.250000000000001
40
0.250000000000001
40
0.375000000000001
40
0.375000000000001
40
0.500000000000001
40
0.500000000000001
40
0.625000000000001
40
0.625000000000001
40
0.687500000000001
40
0.687500000000001
40
0.718750000000001
40
0.718750000000001
40
0.75
40
0.75
40
0.875
40
0.875
40
1
40
1
40
1.125
40
1.125
41
1
10
55.8478927077455
20
3.24143525488339
30
0
41
1
10
54.7157216242194
20
2.7551661017107
30
0
41
1
10
54.1265818185402
20
2.58627708395079
30
0
41
1
10
53.2366107577153
20
2.67813945334757
30
0
41
1
10
52.9252603989381
20
2.77558238343406
30
0
41
1
10
52.4382543084266
20
3.21730023597155
30
0
41
1
10
52.296507467923
20
3.58872768288688
30
0
41
1
10
52.3701654135537
20
4.58097314394155
30
0
41
1
10
52.8352125832714
20
5.03157008411549
30
0
41
1
10
53.816700596125
20
5.6783716320418
30
0
41
1
10
54.3938803431568
20
5.89239448031904
30
0
41
1
10
55.5996992866353
20
6.18791487002366
30
0
41
1
10
56.2446079479944
20
6.27755012966054
30
0
41
1
10
57.238531319681
20
6.27228894453913
30
0
41
1
10
57.5798747888723
20
6.255706819208
30
0
41
1
10
58.0612190714379
20
6.0895114200913
30
0
41
1
10
58.2305619434095
20
6.00087545884239
30
0
41
1
10
58.372881294388
20
5.67973336620253
30
0
41
1
10
58.3200427188158
20
5.49825484755848
30
0
41
1
10
57.9516373755302
20
4.7439159925664
30
0
41
1
10
57.4054320593781
20
4.32985201370738
30
0
41
1
10
56.3852019713583
20
3.56571849785289
30
0
41
1
10
55.8478927077455
20
3.24143525488339
30
0
41
1
10
54.7157216242194
20
2.7551661017107
30
0
0
SPLINE
5
D5
100
AcDbEntity
8
1
62
256
6
ByLayer
370
-1
48
1
60
0
100
AcDbSpline
70
4
71
3
72
16
73
12
40
0
40
0
40
0
40
0
40
0.0824510846571695
40
0.0824510846571695
40
0.188383068428396
40
0.188383068428396
40
0.365472907848062
40
0.365472907848062
40
0.680803291610439
40
0.680803291610439
40
1
40
1
40
1
40
1
41
1
10
7.07679491924307
20
4.75546271781752
30
0
41
1
10
7.08910350916454
20
4.75546271781752
30
0
41
1
10
7.10150513750614
20
4.75706222436486
30
0
41
1
10
7.12874362447576
20
4.76394233360952
30
0
41
1
10
7.14353521549828
20
4.77020840137894
30
0
41
1
10
7.17976687435106
20
4.79093881117942
30
0
41
1
10
7.19977756726536
20
4.80829129424839
30
0
41
1
10
7.24784029496976
20
4.86090601671913
30
0
41
1
10
7.27150999874226
20
4.90053819345542
30
0
41
1
10
7.30990356794047
20
4.98223274168734
30
0
41
1
10
7.32479596954562
20
5.02519567059593
30
0
41
1
10
7.33660254037841
20
5.06861858311163
30
0
0
SPLINE
5
D6
100
AcDbEntity
8
1
62
256
6
ByLayer
370
-1
48
1
60
0
100
AcDbSpline
70
4
71
3
72
18
73
14
40
0
40
0
40
0
40
0
40
0.0872973106983345
40
0.0872973106983345
40
0.542504713769339
40
0.542504713769339
40
0.700049237734365
40
0.700049237734365
40
0.859641035571757
40
0.859641035571757
40
0.970800525640322
40
0.970800525640322
40
1
40
1
40
1
40
1
41
1
10
7.33660254037846
20
-5.06861858311174
30
0
41
1
10
7.33335951275456
20
-5.05669118210821
30
0
41
1
10
7.32988124523558
20
-5.04481392106408
30
0
41
1
10
7.30679603866884
20
-4.97182102384326
30
0
41
1
10
7.28070949120792
20
-4.91100060572404
30
0
41
1
10
7.22892472751983
20
-4.83986869632048
30
0
41
1
10
7.21379801264521
20
-4.82232975779166
30
0
41
1
10
7.17940149560854
20
-4.79137868546457
30
0
41
1
10
7.15964797354843
20
-4.77770433946466
30
0
41
1
10
7.12286471883334
20
-4.76194246224051
30
0
41
1
10
7.10646334965821
20
-4.75754333105178
30
0
41
1
10
7.08557733679538
20
-4.75566124801017
30
0
41
1
10
7.08118372978328
20
-4.75546271781764
30
0
41
1
10
7.07679491924313
20
-4.75546271781764
30
0
0
SPLINE
5
D7
100
AcDbEntity
8
1
62
256
6
ByLayer
370
-1
48
1
60
0
100
AcDbSpline
70
4
71
3
72
16
73
12
40
0
40
0
40
0
40
0
40
0.0824510846571657
40
0.0824510846571657
40
0.188383068428384
40
0.188383068428384
40
0.365472907848039
40
0.365472907848039
40
0.680803291610384
40
0.680803291610384
40
1
40
1
40
1
40
1
41
1
10
4.92320508075693
20
-4.75546271781764
30
0
41
1
10
4.91089649083546
20
-4.75546271781764
30
0
41
1
10
4.89849486249386
20
-4.75706222436497
30
0
41
1
10
4.87125637552424
20
-4.76394233360963
30
0
41
1
10
4.85646478450172
20
-4.77020840137905
30
0
41
1
10
4.82023312564894
20
-4.79093881117953
30
0
41
1
10
4.80022243273464
20
-4.80829129424853
30
0
41
1
10
4.75215970503024
20
-4.86090601671924
30
0
41
1
10
4.72849000125774
20
-4.90053819345553
30
0
41
1
10
4.69009643205953
20
-4.98223274168748
30
0
41
1
10
4.67520403045438
20
-5.02519567059605
30
0
41
1
10
4.66339745962159
20
-5.06861858311177
30
0
0
SPLINE
5
D8
100
AcDbEntity
8
1
62
256
6
ByLayer
370
-1
48
1
60
0
100
AcDbSpline
70
4
71
3
72
8
73
4
40
0
40
0
40
0
40
0
40
1
40
1
40
1
40
1
41
1
10
61.0649122796515
20
10.9609318981429
30
0
41
1
10
61.2117663722345
20
11.0456281178291
30
0
41
1
10
61.3586252631932
20
11.1303161086068
30
0
41
1
10
61.50548863
20
11.2149964207024
30
0
0
SPLINE
5
D9
100
AcDbEntity
8
1
62
256
6
ByLayer
370
-1
48
1
60
0
100
AcDbSpline
70
4
71
3
72
18
73
14
40
0
40
0
40
0
40
0
40
0.0872973106983417
40
0.0872973106983417
40
0.542504713769245
40
0.542504713769245
40
0.700049237734307
40
0.700049237734307
40
0.859641035571736
40
0.859641035571736
40
0.97080052564029
40
0.97080052564029
40
1
40
1
40
1
40
1
41
1
10
4.66339745962154
20
5.06861858311169
30
0
41
1
10
4.66664048724545
20
5.05669118210812
30
0
41
1
10
4.67011875476442
20
5.04481392106402
30
0
41
1
10
4.69320396133111
20
4.97182102384318
30
0
41
1
10
4.71929050879203
20
4.91100060572398
30
0
41
1
10
4.77107527248018
20
4.83986869632042
30
0
41
1
10
4.78620198735473
20
4.82232975779158
30
0
41
1
10
4.82059850439146
20
4.79137868546448
30
0
41
1
10
4.84035202645157
20
4.77770433946458
30
0
41
1
10
4.87713528116666
20
4.76194246224043
30
0
41
1
10
4.89353665034179
20
4.75754333105169
30
0
41
1
10
4.91442266320462
20
4.75566124801006
30
0
41
1
10
4.91881627021672
20
4.75546271781752
30
0
41
1
10
4.92320508075687
20
4.75546271781752
30
0
0
SPLINE
5
DA
100
AcDbEntity
8
1
62
256
6
ByLayer
370
-1
48
1
60
0
100
AcDbSpline
70
4
71
3
72
8
73
4
40
0
40
0
40
0
40
0
40
1
40
1
40
1
40
1
41
1
10
65.4083593467279
20
11.5561773085617
30
0
41
1
10
64.1073973201158
20
11.4425077940896
30
0
41
1
10
62.8064402533033
20
11.3287826099691
30
0
41
1
10
61.50548863
20
11.2149964207024
30
0
0
SPLINE
5
DB
100
AcDbEntity
8
1
62
256
6
ByLayer
370
-1
48
1
60
0
100
AcDbSpline
70
4
71
3
72
16
73
12
40
0
40
0
40
0
40
0
40
0.0824510846571602
40
0.0824510846571602
40
0.188383068428385
40
0.188383068428385
40
0.365472907848031
40
0.365472907848031
40
0.680803291610383
40
0.680803291610383
40
1
40
1
40
1
40
1
41
1
10
4.92320508075693
20
15.2769622091385
30
0
41
1
10
4.91089649083546
20
15.2769622091385
30
0
41
1
10
4.89849486249386
20
15.2764645420423
30
0
41
1
10
4.87125637552424
20
15.2743206039304
30
0
41
1
10
4.85646478450172
20
15.2723664954752
30
0
41
1
10
4.82023312564894
20
15.2658799044772
30
0
41
1
10
4.80022243273464
20
15.2604302192603
30
0
41
1
10
4.75215970503024
20
15.2437803206194
30
0
41
1
10
4.72849000125774
20
15.231104729462
30
0
41
1
10
4.69009643205953
20
15.2045789137681
30
0
41
1
10
4.67520403045438
20
15.1904412165636
30
0
41
1
10
4.66339745962159
20
15.1759383782003
30
0
0
SPLINE
5
DC
100
AcDbEntity
8
1
62
256
6
ByLayer
370
-1
48
1
60
0
100
AcDbSpline
70
4
71
3
72
8
73
4
40
0
40
0
40
0
40
0
40
1
40
1
40
1
40
1
41
1
10
59.3996544337632
20
9.99949710228501
30
0
41
1
10
59.9507467905855
20
10.3186861227446
30
0
41
1
10
60.5074445039863
20
10.6394194883405
30
0
41
1
10
61.0649122796515
20
10.9609318981429
30
0
0
SPLINE
5
DD
100
AcDbEntity
8
1
62
256
6
ByLayer
370
-1
48
1
60
0
100
AcDbSpline
70
4
71
3
72
18
73
14
40
0
40
0
40
0
40
0
40
0.0872973106982676
40
0.0872973106982676
40
0.542504713769245
40
0.542504713769245
40
0.700049237734301
40
0.700049237734301
40
0.859641035571716
40
0.859641035571716
40
0.970800525640281
40
0.970800525640281
40
1
40
1
40
1
40
1
41
1
10
7.33660254037846
20
15.1759383782004
30
0
41
1
10
7.33335951275456
20
15.1799220163035
30
0
41
1
10
7.32988124523558
20
15.1838732610658
30
0
41
1
10
7.30679603866884
20
15.2080620258526
30
0
41
1
10
7.28070949120797
20
15.2277749876852
30
0
41
1
10
7.22892472751983
20
15.2504441152008
30
0
41
1
10
7.21379801264527
20
15.2559954463097
30
0
41
1
10
7.17940149560854
20
15.2657445103485
30
0
41
1
10
7.15964797354849
20
15.2700240892114
30
0
41
1
10
7.12286471883334
20
15.2749451765724
30
0
41
1
10
7.10646334965821
20
15.2763144731655
30
0
41
1
10
7.08557733679538
20
15.2769004141622
30
0
41
1
10
7.08118372978328
20
15.2769622091385
30
0
41
1
10
7.07679491924313
20
15.2769622091385
30
0
0
SPLINE
5
DE
100
AcDbEntity
8
1
62
256
6
ByLayer
370
-1
48
1
60
0
100
AcDbSpline
70
4
71
3
72
22
73
18
40
0
40
0
40
0
40
0
40
0.125
40
0.125
40
0.25
40
0.25
40
0.375
40
0.375
40
0.5
40
0.5
40
0.625
40
0.625
40
0.75
40
0.75
40
0.875
40
0.875
40
1
40
1
40
1
40
1
41
1
10
59.3996544337632
20
9.99949710228501
30
0
41
1
10
57.7683727579702
20
9.99773776012341
30
0
41
1
10
56.1856271327639
20
9.99677564331131
30
0
41
1
10
53.130389918818
20
9.848540538386
30
0
41
1
10
51.6909555332756
20
9.70502553297052
30
0
41
1
10
49.2343829404642
20
8.91807681367646
30
0
41
1
10
48.2470343736478
20
8.24709116667259
30
0
41
1
10
47.1603639841881
20
6.0745372904905
30
0
41
1
10
47.0762895464069
20
4.63194496207151
30
0
41
1
10
47.486808011278
20
1.52526142721885
30
0
41
1
10
47.9556597700094
20
-0.0879284079295246
30
0
41
1
10
49.2341617068094
20
-3.07351349257559
30
0
41
1
10
50.0491104496713
20
-4.42449738581325
30
0
41
1
10
51.9901497628341
20
-6.61008281916048
30
0
41
1
10
53.1307059813184
20
-7.45500582092782
30
0
41
1
10
55.6608934172865
20
-8.66922662914126
30
0
41
1
10
57.0660050838625
20
-9.05460864437302
30
0
41
1
10
58.5524474185748
20
-9.30464993630991
30
0
0
SPLINE
5
DF
100
AcDbEntity
8
1
62
256
6
ByLayer
370
-1
48
1
60
0
100
AcDbSpline
70
4
71
3
72
18
73
14
40
0
40
0
40
0
40
0
40
0.203692075014306
40
0.203692075014306
40
0.379382242173234
40
0.379382242173234
40
0.556856890033953
40
0.556856890033953
40
0.710154627947668
40
0.710154627947668
40
0.911474298197889
40
0.911474298197889
40
1
40
1
40
1
40
1
41
1
10
69.7377353615858
20
9.21784412221169
30
0
41
1
10
69.7714684354934
20
9.15568560812815
30
0
41
1
10
69.8151746289661
20
9.09696910687023
30
0
41
1
10
69.9132044975672
20
9.00217294253969
30
0
41
1
10
69.9664838645839
20
8.96314425360444
30
0
41
1
10
70.0833193602721
20
8.90279303000651
30
0
41
1
10
70.1488275711657
20
8.88095864020647
30
0
41
1
10
70.2711290987168
20
8.86102336899953
30
0
41
1
10
70.3293401334892
20
8.85976021698406
30
0
41
1
10
70.4576091559662
20
8.87347137752855
30
0
41
1
10
70.527892314242
20
8.89361605067023
30
0
41
1
10
70.6199016266104
20
8.93557174469217
30
0
41
1
10
70.6471841707885
20
8.95031930275744
30
0
41
1
10
70.673232468238
20
8.96664873003607
30
0
0
SPLINE
5
E0
100
AcDbEntity
8
1
62
256
6
ByLayer
370
-1
48
1
60
0
100
AcDbSpline
70
4
71
3
72
18
73
14
40
0
40
0
40
0
40
0
40
0.0367925991118587
40
0.0367925991118587
40
0.260193680085027
40
0.260193680085027
40
0.484885924389195
40
0.484885924389195
40
0.722812750348726
40
0.722812750348726
40
0.983414337975016
40
0.983414337975016
40
1
40
1
40
1
40
1
41
1
10
71.4617599611285
20
7.32380737910179
30
0
41
1
10
71.4630220514197
20
7.32855436778272
30
0
41
1
10
71.4641630111776
20
7.33332924381571
30
0
41
1
10
71.4712980670387
20
7.36693716659477
30
0
41
1
10
71.4728960299757
20
7.39681965319039
30
0
41
1
10
71.4671262825751
20
7.45402717743289
30
0
41
1
10
71.4596553408716
20
7.48206963112781
30
0
41
1
10
71.436718694198
20
7.53441565956342
30
0
41
1
10
71.4205494343074
20
7.5590705104527
30
0
41
1
10
71.3807437104956
20
7.60295539523653
30
0
41
1
10
71.3560698180299
20
7.62201925783296
30
0
41
1
10
71.3278510403443
20
7.63723958069269
30
0
41
1
10
71.326136579831
20
7.63814098352935
30
0
41
1
10
71.3244137642505
20
7.63902370687046
30
0
0
SPLINE
5
E1
100
AcDbEntity
8
1
62
256
6
ByLayer
370
-1
48
1
60
0
100
AcDbSpline
70
4
71
3
72
12
73
8
40
0
40
0
40
0
40
0
40
0.310329229679866
40
0.310329229679866
40
0.776213352624684
40
0.776213352624684
40
1
40
1
40
1
40
1
41
1
10
69.046072940434
20
8.63042157015437
30
0
41
1
10
69.0770164913329
20
8.67028124524208
30
0
41
1
10
69.1034761700161
20
8.7139665098619
30
0
41
1
10
69.1560796059746
20
8.82608725765951
30
0
41
1
10
69.1764263970534
20
8.89774230286281
30
0
41
1
10
69.1907401764794
20
9.00258236110025
30
0
41
1
10
69.1929897262789
20
9.03691718281004
30
0
41
1
10
69.1929329097702
20
9.0709309121643
30
0
0
SPLINE
5
E2
100
AcDbEntity
8
1
62
256
6
ByLayer
370
-1
48
1
60
0
100
AcDbSpline
70
4
71
3
72
18
73
14
40
0
40
0
40
0
40
0
40
0.20361510081271
40
0.20361510081271
40
0.379319127941797
40
0.379319127941797
40
0.556808532394242
40
0.556808532394242
40
0.710109472906353
40
0.710109472906353
40
0.911415887511151
40
0.911415887511151
40
1
40
1
40
1
40
1
41
1
10
71.0719696267617
20
8.56988630787512
30
0
41
1
10
71.0378508765418
20
8.5076859113264
30
0
41
1
10
71.0115778609232
20
8.43874698676822
30
0
41
1
10
70.9827051251203
20
8.30397374129745
30
0
41
1
10
70.9771883263044
20
8.23744380570631
30
0
41
1
10
70.9854175740739
20
8.10532198901353
30
0
41
1
10
70.9996895395936
20
8.03780146337422
30
0
41
1
10
71.0430445217687
20
7.92316207965553
30
0
41
1
10
71.0702832939799
20
7.87310332725048
30
0
41
1
10
71.1436720138715
20
7.77174664051978
30
0
41
1
10
71.1941332196946
20
7.72305116081972
30
0
41
1
10
71.2730593027702
20
7.66758734143659
30
0
41
1
10
71.2983772679993
20
7.65236409177436
30
0
41
1
10
71.3244137642505
20
7.63902370687046
30
0
0
SPLINE
5
E3
100
AcDbEntity
8
1
62
256
6
ByLayer
370
-1
48
1
60
0
100
AcDbSpline
70
4
71
3
72
16
73
12
40
0
40
0
40
0
40
0
40
0.0387378935960219
40
0.0387378935960219
40
0.261989821252286
40
0.261989821252286
40
0.486646287153576
40
0.486646287153576
40
0.724623923841171
40
0.724623923841171
40
1
40
1
40
1
40
1
41
1
10
68.656153742823
20
6.57273287797531
30
0
41
1
10
68.6598308879978
20
6.56907394377521
30
0
41
1
10
68.6636072674122
20
6.56550452079964
30
0
41
1
10
68.6895442570539
20
6.54221765822984
30
0
41
1
10
68.71496032994
20
6.52541257211686
30
0
41
1
10
68.7683434635455
20
6.5001761339079
30
0
41
1
10
68.7969977823431
20
6.49145622261878
30
0
41
1
10
68.8553196566695
20
6.48221156552034
30
0
41
1
10
68.8856735668966
20
6.48205734607285
30
0
41
1
10
68.9473615294297
20
6.49059298047752
30
0
41
1
10
68.9789729001461
20
6.50074899322757
30
0
41
1
10
69.0069753495353
20
6.51512780448951
30
0
0
SPLINE
5
E4
100
AcDbEntity
8
1
62
256
6
ByLayer
370
-1
48
1
60
0
100
AcDbSpline
70
4
71
3
72
16
73
12
40
0
40
0
40
0
40
0
40
0.0553587102536582
40
0.0553587102536582
40
0.278318968675651
40
0.278318968675651
40
0.503641848905274
40
0.503641848905274
40
0.743067234935875
40
0.743067234935875
40
1
40
1
40
1
40
1
41
1
10
68.2203503306415
20
8.17971453270923
30
0
41
1
10
68.2184548542143
20
8.17258524472794
30
0
41
1
10
68.2168300032397
20
8.16536396621277
30
0
41
1
10
68.2101025691945
20
8.12900751257789
30
0
41
1
10
68.2092184529968
20
8.09856619769928
30
0
41
1
10
68.216236603328
20
8.03955683837418
30
0
41
1
10
68.2242983818044
20
8.01025813565806
30
0
41
1
10
68.2483038082631
20
7.95479658668947
30
0
41
1
10
68.2649809357674
20
7.92823787286915
30
0
41
1
10
68.3052238443528
20
7.88058010975641
30
0
41
1
10
68.329662091729
20
7.85942186121085
30
0
41
1
10
68.3557940535227
20
7.84275282765546
30
0
0
SPLINE
5
E5
100
AcDbEntity
8
1
62
256
6
ByLayer
370
-1
48
1
60
0
100
AcDbSpline
70
4
71
3
72
18
73
14
40
0
40
0
40
0
40
0
40
0.210942991247494
40
0.210942991247494
40
0.385332516875107
40
0.385332516875107
40
0.56142155379561
40
0.56142155379561
40
0.714431257064025
40
0.714431257064025
40
0.917009888389203
40
0.917009888389203
40
1
40
1
40
1
40
1
41
1
10
69.9424724561864
20
6.26393241231622
30
0
41
1
10
69.9068981590623
20
6.32101507867583
30
0
41
1
10
69.860624961838
20
6.37484723913121
30
0
41
1
10
69.7589008003927
20
6.45999331790384
30
0
41
1
10
69.7051716554912
20
6.49445595461353
30
0
41
1
10
69.5881007898176
20
6.54884278736927
30
0
41
1
10
69.5228494310111
20
6.56928930909027
30
0
41
1
10
69.4012529915852
20
6.59032896335626
30
0
41
1
10
69.3434238569646
20
6.59349366262776
30
0
41
1
10
69.2157129982754
20
6.58636425197136
30
0
41
1
10
69.1457585187102
20
6.57146450406796
30
0
41
1
10
69.0563774090853
20
6.53862255050282
30
0
41
1
10
69.0311327973117
20
6.5275322687319
30
0
41
1
10
69.0069753495353
20
6.51512780448951
30
0
0
SPLINE
5
E6
100
AcDbEntity
8
1
62
256
6
ByLayer
370
-1
48
1
60
0
100
AcDbSpline
70
4
71
3
72
20
73
16
40
0
40
0
40
0
40
0
40
0.0760398114941646
40
0.0760398114941646
40
0.278271053887823
40
0.278271053887823
40
0.441232649053934
40
0.441232649053934
40
0.60509221003756
40
0.60509221003756
40
0.757348000890251
40
0.757348000890251
40
0.972290761107587
40
0.972290761107587
40
1
40
1
40
1
40
1
41
1
10
68.6082381910118
20
6.91189022665066
30
0
41
1
10
68.6208068487173
20
6.93258406520857
30
0
41
1
10
68.6322484649251
20
6.9542013647399
30
0
41
1
10
68.6693583477806
20
7.0360193835883
30
0
41
1
10
68.6877668747942
20
7.10235946151823
30
0
41
1
10
68.7002598673006
20
7.22864809604238
30
0
41
1
10
68.6983481929919
20
7.28877271482383
30
0
41
1
10
68.6779684601802
20
7.40797412999262
30
0
41
1
10
68.6590552113263
20
7.46860842880517
30
0
41
1
10
68.6094400303521
20
7.57663670260837
30
0
41
1
10
68.5791829345185
20
7.62596294549436
30
0
41
1
10
68.4971743771326
20
7.73170075267376
30
0
41
1
10
68.440406518441
20
7.78472002113153
30
0
41
1
10
68.3718575373513
20
7.83228613869855
30
0
41
1
10
68.3638623955462
20
7.83760620051021
30
0
41
1
10
68.3557940535227
20
7.84275282765546
30
0
0
SPLINE
5
E7
100
AcDbEntity
8
1
62
256
6
ByLayer
370
-1
48
1
60
0
100
AcDbSpline
70
4
71
3
72
12
73
8
40
0
40
0
40
0
40
0
40
0.320722480798515
40
0.320722480798515
40
0.789170775262113
40
0.789170775262113
40
1
40
1
40
1
40
1
41
1
10
70.6312987154907
20
6.81893748610108
30
0
41
1
10
70.5993799754031
20
6.77882762738807
30
0
41
1
10
70.5723563994592
20
6.73567577668004
30
0
41
1
10
70.5203401542217
20
6.62844837836877
30
0
41
1
10
70.5009784159186
20
6.56211900246672
30
0
41
1
10
70.4886201392832
20
6.46834312512215
30
0
41
1
10
70.4869138392434
20
6.43923823248633
30
0
41
1
10
70.4872445370933
20
6.4104984812717
30
0
0
SPLINE
5
E8
100
AcDbEntity
8
1
62
256
6
ByLayer
370
-1
48
1
60
0
100
AcDbSpline
70
4
71
3
72
14
73
10
40
0
40
0
40
0
40
0
40
0.27867726921389
40
0.27867726921389
40
0.565664379420307
40
0.565664379420307
40
0.82536456965452
40
0.82536456965452
40
1
40
1
40
1
40
1
41
1
10
69.7377353615858
20
9.21784412221169
30
0
41
1
10
69.7214200528217
20
9.24790765429194
30
0
41
1
10
69.6996620744301
20
9.27592727811194
30
0
41
1
10
69.6469169412287
20
9.32335551079493
30
0
41
1
10
69.6148068219247
20
9.34317022593748
30
0
41
1
10
69.5487167127236
20
9.36766392786944
30
0
41
1
10
69.5141858332524
20
9.37391416604703
30
0
41
1
10
69.4568647267248
20
9.37346260795357
30
0
41
1
10
69.4334666253674
20
9.37035763441639
30
0
41
1
10
69.4109741800943
20
9.36443669197971
30
0
0
SPLINE
5
E9
100
AcDbEntity
8
1
62
256
6
ByLayer
370
-1
48
1
60
0
100
AcDbSpline
70
4
71
3
72
14
73
10
40
0
40
0
40
0
40
0
40
0.279988533445295
40
0.279988533445295
40
0.564994032877967
40
0.564994032877967
40
0.822837594281057
40
0.822837594281057
40
1
40
1
40
1
40
1
41
1
10
68.5032503548653
20
8.38466697915817
30
0
41
1
10
68.4700707566013
20
8.38660984199666
30
0
41
1
10
68.4358228702987
20
8.38266022260703
30
0
41
1
10
68.3703447919684
20
8.36213389537366
30
0
41
1
10
68.3381824998022
20
8.3449507774078
30
0
41
1
10
68.2854888043607
20
8.30105436423392
30
0
41
1
10
68.2633839770232
20
8.27469314967982
30
0
41
1
10
68.2354560411486
20
8.22484374557729
30
0
41
1
10
68.2264427143506
20
8.20262927716655
30
0
41
1
10
68.2203503306415
20
8.17971453270923
30
0
0
SPLINE
5
EA
100
AcDbEntity
8
1
62
256
6
ByLayer
370
-1
48
1
60
0
100
AcDbSpline
70
4
71
3
72
18
73
14
40
0
40
0
40
0
40
0
40
0.0188027550706781
40
0.0188027550706781
40
0.240625985472156
40
0.240625985472156
40
0.462695088474267
40
0.462695088474267
40
0.69703625813721
40
0.69703625813721
40
0.953212834401728
40
0.953212834401728
40
1
40
1
40
1
40
1
41
1
10
70.2711361116757
20
6.13908521983131
30
0
41
1
10
70.2736020125775
20
6.13973434699898
30
0
41
1
10
70.2760594534973
20
6.14041412551867
30
0
41
1
10
70.3070410007689
20
6.14940178961649
30
0
41
1
10
70.3345843920069
20
6.16204041011156
30
0
41
1
10
70.3833477170294
20
6.19371526332182
30
0
41
1
10
70.4051966862032
20
6.21314684944713
30
0
41
1
10
70.4420283301235
20
6.25695918457023
30
0
41
1
10
70.4570507870258
20
6.28208506994085
30
0
41
1
10
70.4790660769307
20
6.33602367753045
30
0
41
1
10
70.4854896951713
20
6.36562620142115
30
0
41
1
10
70.4872038409669
20
6.3998689275796
30
0
41
1
10
70.4873055730161
20
6.40519407050002
30
0
41
1
10
70.4872445370933
20
6.4104984812717
30
0
0
SPLINE
5
EB
100
AcDbEntity
8
1
62
256
6
ByLayer
370
-1
48
1
60
0
100
AcDbSpline
70
4
71
3
72
16
73
12
40
0
40
0
40
0
40
0
40
0.16997074946418
40
0.16997074946418
40
0.476073625214476
40
0.476073625214476
40
0.747041214543856
40
0.747041214543856
40
0.987456975362394
40
0.987456975362394
40
1
40
1
40
1
40
1
41
1
10
71.0719696267689
20
8.56988630787026
30
0
41
1
10
71.0820478107853
20
8.58825940296512
30
0
41
1
10
71.0904575416766
20
8.6078909552071
30
0
41
1
10
71.1082689117625
20
8.66486511122247
30
0
41
1
10
71.1132926902392
20
8.70499731172166
30
0
41
1
10
71.1077847948829
20
8.77963597637782
30
0
41
1
10
71.0988120636458
20
8.81540534163517
30
0
41
1
10
71.0703707127778
20
8.87693499923151
30
0
41
1
10
71.0517583495467
20
8.9042379521326
30
0
41
1
10
71.0283439290379
20
8.92839195689996
30
0
41
1
10
71.0271554569065
20
8.92959606343953
30
0
41
1
10
71.025956548947
20
8.93078903383568
30
0
0
SPLINE
5
EC
100
AcDbEntity
8
1
62
256
6
ByLayer
370
-1
48
1
60
0
100
AcDbSpline
70
4
71
3
72
12
73
8
40
0
40
0
40
0
40
0
40
0.493928210730306
40
0.493928210730306
40
0.899125646083845
40
0.899125646083845
40
1
40
1
40
1
40
1
41
1
10
71.1769270919968
20
7.09676241427789
30
0
41
1
10
71.1055007566695
20
7.09350964308547
30
0
41
1
10
71.0316673730333
20
7.0793023854861
30
0
41
1
10
70.9012779869964
20
7.03220452834117
30
0
41
1
10
70.8425794269983
20
7.00246336630332
30
0
41
1
10
70.7751394646434
20
6.9560178275039
30
0
41
1
10
70.7618690942916
20
6.94622238033554
30
0
41
1
10
70.7489361176553
20
6.93599178260916
30
0
0
SPLINE
5
ED
100
AcDbEntity
8
1
62
256
6
ByLayer
370
-1
48
1
60
0
100
AcDbSpline
70
4
71
3
72
14
73
10
40
0
40
0
40
0
40
0
40
0.221923280999842
40
0.221923280999842
40
0.516004967219315
40
0.516004967219315
40
0.781659746665106
40
0.781659746665106
40
1
40
1
40
1
40
1
41
1
10
69.9424724561854
20
6.26393241231582
30
0
41
1
10
69.9557132514294
20
6.24268617673636
30
0
41
1
10
69.9723364849726
20
6.22267878329546
30
0
41
1
10
70.0174852440587
20
6.18184129905376
30
0
41
1
10
70.0489735023011
20
6.16223149883413
30
0
41
1
10
70.1148406667671
20
6.13703875141624
30
0
41
1
10
70.1496800929693
20
6.12995814298617
30
0
41
1
10
70.2134183791458
20
6.12829379369933
30
0
41
1
10
70.2430408979189
20
6.13168939686139
30
0
41
1
10
70.2711361116757
20
6.13908521983131
30
0
0
SPLINE
5
EE
100
AcDbEntity
8
1
62
256
6
ByLayer
370
-1
48
1
60
0
100
AcDbSpline
70
4
71
3
72
16
73
12
40
0
40
0
40
0
40
0
40
0.0586832580554692
40
0.0586832580554692
40
0.279497098604282
40
0.279497098604282
40
0.502871187494347
40
0.502871187494347
40
0.740394583855639
40
0.740394583855639
40
1
40
1
40
1
40
1
41
1
10
69.4109741800943
20
9.36443669197971
30
0
41
1
10
69.4033107382143
20
9.36241935692837
30
0
41
1
10
69.3957212360253
20
9.36007315779307
30
0
41
1
10
69.3603423154534
20
9.34747395837911
30
0
41
1
10
69.3336883392235
20
9.33285912658368
30
0
41
1
10
69.2867030611356
20
9.29676385163765
30
0
41
1
10
69.2658362796118
20
9.27476548495216
30
0
41
1
10
69.2310615283037
20
9.22531851109775
30
0
41
1
10
69.2172167803153
20
9.19701295731701
30
0
41
1
10
69.1978185748754
20
9.13642802006115
30
0
41
1
10
69.192878874557
20
9.10327959318516
30
0
41
1
10
69.1929329097702
20
9.0709309121643
30
0
0
SPLINE
5
EF
100
AcDbEntity
8
1
62
256
6
ByLayer
370
-1
48
1
60
0
100
AcDbSpline
70
4
71
3
72
14
73
10
40
0
40
0
40
0
40
0
40
0.254170598164235
40
0.254170598164235
40
0.542404623393082
40
0.542404623393082
40
0.802920175439186
40
0.802920175439186
40
1
40
1
40
1
40
1
41
1
10
71.1769270919968
20
7.09676241427783
30
0
41
1
10
71.2073315632665
20
7.09814704065988
30
0
41
1
10
71.238559997297
20
7.10423461798976
30
0
41
1
10
71.3023822657937
20
7.1274489814825
30
0
41
1
10
71.3356046918458
20
7.14640275910318
30
0
41
1
10
71.3904254141963
20
7.19296406947109
30
0
41
1
10
71.4136276506255
20
7.22032139540576
30
0
41
1
10
71.444544348892
20
7.2733405667837
30
0
41
1
10
71.4549853302548
20
7.29832655867483
30
0
41
1
10
71.4617599611285
20
7.32380737910179
30
0
0
SPLINE
5
F0
100
AcDbEntity
8
1
62
256
6
ByLayer
370
-1
48
1
60
0
100
AcDbSpline
70
4
71
3
72
14
73
10
40
0
40
0
40
0
40
0
40
0.249945076700693
40
0.249945076700693
40
0.540535861416621
40
0.540535861416621
40
0.803203311417006
40
0.803203311417006
40
1
40
1
40
1
40
1
41
1
10
68.6082381910116
20
6.91189022665074
30
0
41
1
10
68.5936940857859
20
6.88794388547723
30
0
41
1
10
68.5827225904192
20
6.86101174735777
30
0
41
1
10
68.5691556546204
20
6.7996595422012
30
0
41
1
10
68.568080248041
20
6.76371118018943
30
0
41
1
10
68.5797580666591
20
6.69639361837494
30
0
41
1
10
68.5914336360946
20
6.66390099466827
30
0
41
1
10
68.6214169585198
20
6.61220351071918
30
0
41
1
10
68.6376111447049
20
6.59118364431401
30
0
41
1
10
68.656153742823
20
6.57273287797531
30
0
0
SPLINE
5
F1
100
AcDbEntity
8
1
62
256
6
ByLayer
370
-1
48
1
60
0
100
AcDbSpline
70
4
71
3
72
12
73
8
40
0
40
0
40
0
40
0
40
0.47561519964259
40
0.47561519964259
40
0.884019282274064
40
0.884019282274064
40
1
40
1
40
1
40
1
41
1
10
68.5032503548653
20
8.38466697915814
30
0
41
1
10
68.5714165946575
20
8.38067544034882
30
0
41
1
10
68.6417981494326
20
8.38719971068784
30
0
41
1
10
68.7693166054029
20
8.42166221371963
30
0
41
1
10
68.8283350037281
20
8.44701761761877
30
0
41
1
10
68.8983553513658
20
8.49139310059007
30
0
41
1
10
68.9136134916346
20
8.50202542986116
30
0
41
1
10
68.9284355382693
20
8.51336727364617
30
0
0
SPLINE
5
F2
100
AcDbEntity
8
1
62
256
6
ByLayer
370
-1
48
1
60
0
100
AcDbSpline
70
4
71
3
72
16
73
12
40
0
40
0
40
0
40
0
40
0.212360588450642
40
0.212360588450642
40
0.435680512214064
40
0.435680512214064
40
0.669849754412401
40
0.669849754412401
40
0.924882910952005
40
0.924882910952005
40
1
40
1
40
1
40
1
41
1
10
71.025956548947
20
8.93078903383568
30
0
41
1
10
71.0060011480075
20
8.95064560612317
30
0
41
1
10
70.9828111939505
20
8.96758233268866
30
0
41
1
10
70.9322560177556
20
8.99394696210766
30
0
41
1
10
70.9040922165066
20
9.00328174957676
30
0
41
1
10
70.8463548112179
20
9.01305021876738
30
0
41
1
10
70.8160596831701
20
9.01318193499563
30
0
41
1
10
70.7556823324201
20
9.00426331643621
30
0
41
1
10
70.725099229171
20
8.9943173802771
30
0
41
1
10
70.6890813223958
20
8.97609080640294
30
0
41
1
10
70.6810341254342
20
8.9715395139381
30
0
41
1
10
70.6732324682379
20
8.9666487300361
30
0
0
SPLINE
5
F3
100
AcDbEntity
8
SK1
62
256
6
ByLayer
370
-1
48
1
60
0
100
AcDbSpline
70
4
71
3
72
24
73
20
40
0
40
0
40
0
40
0
40
0.0288407257317727
40
0.0288407257317727
40
0.0509955919663311
40
0.0509955919663311
40
0.0683898145862111
40
0.0683898145862111
40
0.0857973114187118
40
0.0857973114187118
40
0.109377904005675
40
0.109377904005675
40
0.151277300634705
40
0.151277300634705
40
0.282099488990439
40
0.282099488990439
40
0.823874497013243
40
0.823874497013243
40
1
40
1
40
1
40
1
41
1
10
-0.400000000000034
20
4.48934914533075
30
0
41
1
10
-0.394116473092879
20
4.48412156647126
30
0
41
1
10
-0.387649558798614
20
4.47936666342238
30
0
41
1
10
-0.375020695476792
20
4.47300024936567
30
0
41
1
10
-0.369015733581705
20
4.47088976573133
30
0
41
1
10
-0.357819037006664
20
4.46928378990089
30
0
41
1
10
-0.352620795543146
20
4.4693378300326
30
0
41
1
10
-0.342504208041191
20
4.47118331490236
30
0
41
1
10
-0.337472714781029
20
4.47299443494018
30
0
41
1
10
-0.326559027546409
20
4.47870654294016
30
0
41
1
10
-0.320811012640036
20
4.4831623835409
30
0
41
1
10
-0.3067126689985
20
4.49677058842062
30
0
41
1
10
-0.299366502504768
20
4.50708193062854
30
0
41
1
10
-0.273512837585713
20
4.55030240434653
30
0
41
1
10
-0.261969797101415
20
4.58649632348286
30
0
41
1
10
-0.213168679495254
20
4.76802497148651
30
0
41
1
10
-0.206388298823185
20
4.91574806320796
30
0
41
1
10
-0.200616563362587
20
5.1048724008445
30
0
41
1
10
-0.20000000000033
20
5.15111693550304
30
0
41
1
10
-0.200000000000046
20
5.19704283599549
30
0
0
SPLINE
5
F4
100
AcDbEntity
8
SK1
62
256
6
ByLayer
370
-1
48
1
60
0
100
AcDbSpline
70
4
71
3
72
24
73
20
40
0
40
0
40
0
40
0
40
0.394887530671275
40
0.394887530671275
40
0.583923275334675
40
0.583923275334675
40
0.775640263639324
40
0.775640263639324
40
0.824781731617119
40
0.824781731617119
40
0.862517656538363
40
0.862517656538363
40
0.89426261244368
40
0.89426261244368
40
0.925906833096296
40
0.925906833096296
40
0.974831011730869
40
0.974831011730869
40
1
40
1
40
1
40
1
41
1
10
-1.30710678118658
20
3.27410008506507
30
0
41
1
10
-1.25832942599459
20
3.50149952651384
30
0
41
1
10
-1.19991064580012
20
3.72346664111421
30
0
41
1
10
-1.08384884657397
20
4.0370771437056
30
0
41
1
10
-1.04153791965376
20
4.13675427692158
30
0
41
1
10
-0.938254289261693
20
4.32801751486153
30
0
41
1
10
-0.878155607060592
20
4.42371753851697
30
0
41
1
10
-0.767111712667372
20
4.51729029260753
30
0
41
1
10
-0.741708507810927
20
4.53512787407632
30
0
41
1
10
-0.691958906630077
20
4.55987158851019
30
0
41
1
10
-0.668248724766499
20
4.56845950218982
30
0
41
1
10
-0.622857383271423
20
4.57708046005288
30
0
41
1
10
-0.600993180994863
20
4.57825352233775
30
0
41
1
10
-0.558658423255963
20
4.57453349365301
30
0
41
1
10
-0.537724143555636
20
4.56966479399497
30
0
41
1
10
-0.488248270422446
20
4.55200346897223
30
0
41
1
10
-0.460806462020514
20
4.53627234602419
30
0
41
1
10
-0.423570034054364
20
4.50937867037399
30
0
41
1
10
-0.411500153524855
20
4.49956715918469
30
0
41
1
10
-0.400000000000034
20
4.48934914533075
30
0
0
SPLINE
5
F5
100
AcDbEntity
8
SK1
62
256
6
ByLayer
370
-1
48
1
60
0
100
AcDbSpline
70
4
71
3
72
28
73
24
40
0
40
0
40
0
40
0
40
0.349178244038127
40
0.349178244038127
40
0.441485413895459
40
0.441485413895459
40
0.464418174627259
40
0.464418174627259
40
0.473297759398041
40
0.473297759398041
40
0.482336266147379
40
0.482336266147379
40
0.488860737631369
40
0.488860737631369
40
0.4953513510299
40
0.4953513510299
40
0.506128456733832
40
0.506128456733832
40
0.534013657527057
40
0.534013657527057
40
0.644941898339769
40
0.644941898339769
40
1
40
1
40
1
40
1
41
1
10
-1.69996579738211
20
-2.34399541728098
30
0
41
1
10
-1.69957351800008
20
-2.2202872660603
30
0
41
1
10
-1.6978568428512
20
-2.09468422296274
30
0
41
1
10
-1.67915903600471
20
-1.9362551896819
30
0
41
1
10
-1.67466133865747
20
-1.90240437328657
30
0
41
1
10
-1.66257453306423
20
-1.86273523592695
30
0
41
1
10
-1.65975033602422
20
-1.85482927921262
30
0
41
1
10
-1.65455231119012
20
-1.84507122970734
30
0
41
1
10
-1.65293210062902
20
-1.84245438467247
30
0
41
1
10
-1.64928001329514
20
-1.83786290531623
30
0
41
1
10
-1.64718169695362
20
-1.83585290038428
30
0
41
1
10
-1.64332341703022
20
-1.83361873011964
30
0
41
1
10
-1.64159303361367
20
-1.83304396936836
30
0
41
1
10
-1.6382124463716
20
-1.83273324875088
30
0
41
1
10
-1.63652572409745
20
-1.83298094253604
30
0
41
1
10
-1.63230470511542
20
-1.83441412291407
30
0
41
1
10
-1.62985912301394
20
-1.83609472866004
30
0
41
1
10
-1.62193294237829
20
-1.84325136454726
30
0
41
1
10
-1.61733263266495
20
-1.85052711231805
30
0
41
1
10
-1.59692149956965
20
-1.88783133301965
30
0
41
1
10
-1.58631748354395
20
-1.92357606741402
30
0
41
1
10
-1.54387296204186
20
-2.07163462791979
30
0
41
1
10
-1.52142094847255
20
-2.19032359396863
30
0
41
1
10
-1.5
20
-2.30830715862382
30
0
0
SPLINE
5
F6
100
AcDbEntity
8
SK1
62
256
6
ByLayer
370
-1
48
1
60
0
100
AcDbSpline
70
4
71
3
72
8
73
4
40
0
40
0
40
0
40
0
40
1
40
1
40
1
40
1
41
1
10
-1.30710678118658
20
3.2741000850651
30
0
41
1
10
-1.37418676031894
20
2.96137403161117
30
0
41
1
10
-1.43992527842408
20
2.6391871954711
30
0
41
1
10
-1.5
20
2.30830602436779
30
0
0
SPLINE
5
F7
100
AcDbEntity
8
SK1
62
256
6
ByLayer
370
-1
48
1
60
0
100
AcDbSpline
70
4
71
3
72
79
73
75
40
0
40
0
40
0
40
0
40
0.0064305959485858
40
0.020532581999657
40
0.0346345680507282
40
0.0487365541017994
40
0.0628385401528706
40
0.0769405262039419
40
0.0910425122550131
40
0.105144498306084
40
0.119246484357155
40
0.133348470408227
40
0.147450456459298
40
0.161552442510369
40
0.17565442856144
40
0.189756414612512
40
0.203858400663583
40
0.217960386714654
40
0.232062372765725
40
0.246164358816796
40
0.260266344867868
40
0.274368330918939
40
0.28847031697001
40
0.302572303021081
40
0.316674289072153
40
0.330776275123224
40
0.344878261174295
40
0.358980247225366
40
0.373082233276437
40
0.387184219327509
40
0.40128620537858
40
0.415388191429651
40
0.429490177480722
40
0.443592163531793
40
0.457694149582865
40
0.471796135633936
40
0.485898121685007
40
0.500000107736078
40
0.514102093787149
40
0.528204079838221
40
0.542306065889292
40
0.556408051940363
40
0.570510037991434
40
0.584612024042506
40
0.598714010093577
40
0.612815996144648
40
0.626917982195719
40
0.64101996824679
40
0.655121954297862
40
0.669223940348933
40
0.683325926400004
40
0.697427912451075
40
0.711529898502147
40
0.725631884553218
40
0.739733870604289
40
0.75383585665536
40
0.767937842706431
40
0.782039828757502
40
0.796141814808574
40
0.810243800859645
40
0.824345786910716
40
0.838447772961787
40
0.852549759012859
40
0.86665174506393
40
0.880753731115001
40
0.894855717166072
40
0.908957703217143
40
0.923059689268215
40
0.937161675319286
40
0.951263661370357
40
0.965365647421428
40
0.979467633472499
40
0.993569619523571
40
1
40
1
40
1
40
1
41
1
10
-2.5
20
-10.8686550022965
30
0
41
1
10
-2.5
20
-10.8790746710983
30
0
41
1
10
-2.5
20
-10.9108282721617
30
0
41
1
10
-2.5
20
-10.9553895973621
30
0
41
1
10
-2.5
20
-10.9911639635893
30
0
41
1
10
-2.5
20
-11.004418378241
30
0
41
1
10
-2.5
20
-10.9911623984962
30
0
41
1
10
-2.5
20
-10.9474686304738
30
0
41
1
10
-2.5
20
-10.8696664218331
30
0
41
1
10
-2.5
20
-10.7545189459148
30
0
41
1
10
-2.5
20
-10.5993939502378
30
0
41
1
10
-2.5
20
-10.4024076559292
30
0
41
1
10
-2.5
20
-10.1625416635539
30
0
41
1
10
-2.5
20
-9.87972833820902
30
0
41
1
10
-2.5
20
-9.55489716738788
30
0
41
1
10
-2.5
20
-9.18998633548568
30
0
41
1
10
-2.5
20
-8.7879102308668
30
0
41
1
10
-2.5
20
-8.35249429791335
30
0
41
1
10
-2.5
20
-7.88836739733654
30
0
41
1
10
-2.5
20
-7.40083249722349
30
0
41
1
10
-2.5
20
-6.89566660501004
30
0
41
1
10
-2.5
20
-6.37905265294063
30
0
41
1
10
-2.5
20
-5.85717357325984
30
0
41
1
10
-2.5
20
-5.3362171107967
30
0
41
1
10
-2.5
20
-4.82204796703348
30
0
41
1
10
-2.5
20
-4.32005112408754
30
0
41
1
10
-2.5
20
-3.83494636183181
30
0
41
1
10
-2.5
20
-3.37063352515292
30
0
41
1
10
-2.5
20
-2.93006538818366
30
0
41
1
10
-2.5
20
-2.515155240528
30
0
41
1
10
-2.5
20
-2.1267232238333
30
0
41
1
10
-2.5
20
-1.76448070218825
30
0
41
1
10
-2.5
20
-1.4270586722962
30
0
41
1
10
-2.5
20
-1.11207189529088
30
0
41
1
10
-2.5
20
-0.816225686754592
30
0
41
1
10
-2.5
20
-0.535450813753641
30
0
41
1
10
-2.5
20
-0.265073199113004
30
0
41
1
10
-2.5
20
5.5264195E-08
30
0
41
1
10
-2.5
20
0.265072978056168
30
0
41
1
10
-2.5
20
0.535450915490543
30
0
41
1
10
-2.5
20
0.816225500863794
30
0
41
1
10
-2.5
20
1.11207197195026
30
0
41
1
10
-2.5
20
1.42705855154932
30
0
41
1
10
-2.5
20
1.76448074117411
30
0
41
1
10
-2.5
20
2.12672318863659
30
0
41
1
10
-2.5
20
2.51515523478019
30
0
41
1
10
-2.5
20
2.93006544637146
30
0
41
1
10
-2.5
20
3.37063347415665
30
0
41
1
10
-2.5
20
3.83494650762893
30
0
41
1
10
-2.5
20
4.32005103389795
30
0
41
1
10
-2.5
20
4.82204818199463
30
0
41
1
10
-2.5
20
5.33621699307892
30
0
41
1
10
-2.5
20
5.85717382916968
30
0
41
1
10
-2.5
20
6.37904809202519
30
0
41
1
10
-2.5
20
6.89568136104162
30
0
41
1
10
-2.5
20
7.40082874697168
30
0
41
1
10
-2.5
20
7.88836763355843
30
0
41
1
10
-2.5
20
8.35249419387415
30
0
41
1
10
-2.5
20
8.78791041080157
30
0
41
1
10
-2.5
20
9.18998626466617
30
0
41
1
10
-2.5
20
9.55489727073115
30
0
41
1
10
-2.5
20
9.87972830774902
30
0
41
1
10
-2.5
20
10.1625416820507
30
0
41
1
10
-2.5
20
10.4024076666937
30
0
41
1
10
-2.5
20
10.5993938886828
30
0
41
1
10
-2.5
20
10.7545189924614
30
0
41
1
10
-2.5
20
10.8696662972013
30
0
41
1
10
-2.5
20
10.9474689380927
30
0
41
1
10
-2.5
20
10.991161771703
30
0
41
1
10
-2.5
20
11.0044184915466
30
0
41
1
10
-2.5
20
10.9911643916233
30
0
41
1
10
-2.5
20
10.9553894530377
30
0
41
1
10
-2.5
20
10.9108284078484
30
0
41
1
10
-2.5
20
10.8790752665164
30
0
41
1
10
-2.5
20
10.8686559989823
30
0
0
SPLINE
5
F8
100
AcDbEntity
8
SK1
62
256
6
ByLayer
370
-1
48
1
60
0
100
AcDbSpline
70
4
71
3
72
28
73
24
40
0
40
0
40
0
40
0
40
0.343154913050553
40
0.343154913050553
40
0.438240387752228
40
0.438240387752228
40
0.461906262757859
40
0.461906262757859
40
0.470082742892958
40
0.470082742892958
40
0.478403565799421
40
0.478403565799421
40
0.485616048076814
40
0.485616048076814
40
0.49498478208156
40
0.49498478208156
40
0.512255311898736
40
0.512255311898736
40
0.586224098711352
40
0.586224098711352
40
0.878018968214535
40
0.878018968214535
40
1
40
1
40
1
40
1
41
1
10
-1.69989009590069
20
10.912317360478
30
0
41
1
10
-1.69920451821673
20
10.8740263951111
30
0
41
1
10
-1.69726521816682
20
10.8323287812115
30
0
41
1
10
-1.67853907532424
20
10.7628347797173
30
0
41
1
10
-1.67397095661659
20
10.7468498525868
30
0
41
1
10
-1.66077432528931
20
10.7213614533972
30
0
41
1
10
-1.65762501801402
20
10.7157991042865
30
0
41
1
10
-1.65185849839088
20
10.7076227829041
30
0
41
1
10
-1.65019504375897
20
10.7054125901193
30
0
41
1
10
-1.64653422023201
20
10.7009758910414
30
0
41
1
10
-1.64447208533073
20
10.6986885686392
30
0
41
1
10
-1.64056382056441
20
10.6948016115452
30
0
41
1
10
-1.63868158902147
20
10.6931071977885
30
0
41
1
10
-1.63458346791265
20
10.6897506304862
30
0
41
1
10
-1.63236594562102
20
10.6881800310438
30
0
41
1
10
-1.6266026221515
20
10.6845313891021
30
0
41
1
10
-1.62334000067364
20
10.6829911152334
30
0
41
1
10
-1.60794500993575
20
10.6769624806516
30
0
41
1
10
-1.59958172790385
20
10.6775435877503
30
0
41
1
10
-1.56113270181959
20
10.6819813790051
30
0
41
1
10
-1.54173525187014
20
10.6971947890523
30
0
41
1
10
-1.51479102134942
20
10.7170184942906
30
0
41
1
10
-1.50724986451144
20
10.7230716034657
30
0
41
1
10
-1.5
20
10.7291967921706
30
0
0
SPLINE
5
F9
100
AcDbEntity
8
SK1
62
256
6
ByLayer
370
-1
48
1
60
0
100
AcDbSpline
70
4
71
3
72
34
73
30
40
0
40
0
40
0
40
0
40
0.0138699461135972
40
0.0138699461135972
40
0.0615376971140001
40
0.0615376971140001
40
0.109189261114138
40
0.109189261114138
40
0.156830572311387
40
0.156830572311387
40
0.252358343228762
40
0.252358343228762
40
0.347829116957436
40
0.347829116957436
40
0.443270849232482
40
0.443270849232482
40
0.538699345849844
40
0.538699345849844
40
0.634126101529802
40
0.634126101529802
40
0.729562062531979
40
0.729562062531979
40
0.825021175251274
40
0.825021175251274
40
0.872655105311737
40
0.872655105311737
40
0.920293090026121
40
0.920293090026121
40
1
40
1
40
1
40
1
41
1
10
-1.69996579738211
20
-2.34399541728098
30
0
41
1
10
-1.69996686313755
20
-2.41640598367121
30
0
41
1
10
-1.69996789580711
20
-2.48843835386174
30
0
41
1
10
-1.69997232375255
20
-2.80617464221731
30
0
41
1
10
-1.6999753518283
20
-3.04785091887862
30
0
41
1
10
-1.69998060299412
20
-3.52111771354691
30
0
41
1
10
-1.6999828378074
20
-3.75308301404428
30
0
41
1
10
-1.69998665823965
20
-4.20691759809461
30
0
41
1
10
-1.6999882494477
20
-4.42906881485823
30
0
41
1
10
-1.69999228100289
20
-5.08095958549046
30
0
41
1
10
-1.69999399832386
20
-5.49674568755356
30
0
41
1
10
-1.69999640677304
20
-6.28665686269224
30
0
41
1
10
-1.69999709786958
20
-6.66206466504687
30
0
41
1
10
-1.69999798189281
20
-7.3708282640267
30
0
41
1
10
-1.69999817407842
20
-7.70515361426863
30
0
41
1
10
-1.69999824533255
20
-8.3306008255654
30
0
41
1
10
-1.69999812372993
20
-8.6225172182109
30
0
41
1
10
-1.69999745591969
20
-9.16128938563259
30
0
41
1
10
-1.69999690935441
20
-9.40881093991047
30
0
41
1
10
-1.69999497540988
20
-9.85604515063557
30
0
41
1
10
-1.69999358833155
20
-10.0563309819064
30
0
41
1
10
-1.69998919708894
20
-10.4051496355369
30
0
41
1
10
-1.69998618942941
20
-10.5541774341773
30
0
41
1
10
-1.69997952914247
20
-10.7345238916283
30
0
41
1
10
-1.69997694129074
20
-10.7874883912928
30
0
41
1
10
-1.69997082738263
20
-10.8781161933101
30
0
41
1
10
-1.6999672899446
20
-10.9158197893435
30
0
41
1
10
-1.69995622914706
20
-10.9944425651824
30
0
41
1
10
-1.69994759490555
20
-11.0208189246444
30
0
41
1
10
-1.69993649660586
20
-11.0201007972386
30
0
0
SPLINE
5
FA
100
AcDbEntity
8
SK1
62
256
6
ByLayer
370
-1
48
1
60
0
100
AcDbSpline
70
4
71
3
72
32
73
28
40
0
40
0
40
0
40
0
40
0.375967902692924
40
0.375967902692924
40
0.444464229653131
40
0.444464229653131
40
0.468990955108136
40
0.468990955108136
40
0.494558645555655
40
0.494558645555655
40
0.504755305769426
40
0.504755305769426
40
0.515140081750197
40
0.515140081750197
40
0.521985618949525
40
0.521985618949525
40
0.528815562517944
40
0.528815562517944
40
0.539106505973226
40
0.539106505973226
40
0.559131898627258
40
0.559131898627258
40
0.632403265174771
40
0.632403265174771
40
0.924267768423137
40
0.924267768423137
40
1
40
1
40
1
40
1
41
1
10
-1.50000000000006
20
-10.7291970110907
30
0
41
1
10
-1.52238821820077
20
-10.710281852142
30
0
41
1
10
-1.54551182698873
20
-10.6896066631374
30
0
41
1
10
-1.58732255241432
20
-10.6788393268745
30
0
41
1
10
-1.59428077326487
20
-10.6776449254147
30
0
41
1
10
-1.60562095811139
20
-10.6782121701821
30
0
41
1
10
-1.60880790601186
20
-10.6785812709992
30
0
41
1
10
-1.61598450313733
20
-10.6801894200945
30
0
41
1
10
-1.62001006403415
20
-10.6814211011701
30
0
41
1
10
-1.62671914901614
20
-10.684730344978
30
0
41
1
10
-1.62878476790775
20
-10.6858783555147
30
0
41
1
10
-1.63327245942486
20
-10.6888012949566
30
0
41
1
10
-1.63577098066594
20
-10.6906412359988
30
0
41
1
10
-1.64004954599722
20
-10.6943350345439
30
0
41
1
10
-1.64182373236196
20
-10.6960107552647
30
0
41
1
10
-1.64520857424037
20
-10.699508871149
30
0
41
1
10
-1.64685684987228
20
-10.7013674400397
30
0
41
1
10
-1.65062968719053
20
-10.705938586449
30
0
41
1
10
-1.65264929056326
20
-10.7086849260755
30
0
41
1
10
-1.65785750074656
20
-10.7163178808146
30
0
41
1
10
-1.66053888902616
20
-10.720995730557
30
0
41
1
10
-1.67118601277627
20
-10.7411944588538
30
0
41
1
10
-1.67553327655526
20
-10.7541659981155
30
0
41
1
10
-1.69413704527
20
-10.8147555719656
30
0
41
1
10
-1.69697811933361
20
-10.8517553017774
30
0
41
1
10
-1.69942780046676
20
-10.895169971226
30
0
41
1
10
-1.69973873227127
20
-10.9038635732803
30
0
41
1
10
-1.69989009581764
20
-10.9123175561691
30
0
0
SPLINE
5
FB
100
AcDbEntity
8
SK1
62
256
6
ByLayer
370
-1
48
1
60
0
100
AcDbSpline
70
4
71
3
72
26
73
22
40
0
40
0
40
0
40
0
40
0.000802379476094
40
0.000802379476094
40
0.389955818051888
40
0.389955818051888
40
0.58841138189843
40
0.58841138189843
40
0.738873838915812
40
0.738873838915812
40
0.814437133741654
40
0.814437133741654
40
0.849669814042615
40
0.849669814042615
40
0.885379597279879
40
0.885379597279879
40
0.917015756722951
40
0.917015756722951
40
0.964291651362228
40
0.964291651362228
40
1
40
1
40
1
40
1
41
1
10
-0.215811086592112
20
10.8563923645235
30
0
41
1
10
-0.21582320181551
20
10.8563793708356
30
0
41
1
10
-0.215835325590888
20
10.856366371465
30
0
41
1
10
-0.221736537161121
20
10.8500406644013
30
0
41
1
10
-0.229595996987712
20
10.842375997527
30
0
41
1
10
-0.248697987408263
20
10.8277247348159
30
0
41
1
10
-0.256401529113873
20
10.8222273926603
30
0
41
1
10
-0.274672330728549
20
10.8111348764243
30
0
41
1
10
-0.284031111048876
20
10.8058441112873
30
0
41
1
10
-0.303862792072039
20
10.7967411489855
30
0
41
1
10
-0.311673384937649
20
10.793419574543
30
0
41
1
10
-0.325697750675374
20
10.78834194919
30
0
41
1
10
-0.330659077403368
20
10.7866628614953
30
0
41
1
10
-0.341238014585599
20
10.7834040520235
30
0
41
1
10
-0.347013203094093
20
10.7817865260973
30
0
41
1
10
-0.357712157030278
20
10.77910778386
30
0
41
1
10
-0.362775636738434
20
10.7779724373213
30
0
41
1
10
-0.374620388322228
20
10.7755812023392
30
0
41
1
10
-0.381238297735365
20
10.7744865169402
30
0
41
1
10
-0.391758607838881
20
10.773005485568
30
0
41
1
10
-0.396007428966925
20
10.7725001016588
30
0
41
1
10
-0.400000000000091
20
10.7720903551647
30
0
0
SPLINE
5
FC
100
AcDbEntity
8
SK1
62
256
6
ByLayer
370
-1
48
1
60
0
100
AcDbSpline
70
4
71
3
72
28
73
24
40
0
40
0
40
0
40
0
40
0.0450694524493022
40
0.0450694524493022
40
0.158809158407753
40
0.158809158407753
40
0.272548864366203
40
0.272548864366203
40
0.386288570324653
40
0.386288570324653
40
0.500028276283104
40
0.500028276283104
40
0.556898129262329
40
0.556898129262329
40
0.613767982241554
40
0.613767982241554
40
0.727507688200005
40
0.727507688200005
40
0.841247394158455
40
0.841247394158455
40
0.954987100116906
40
0.954987100116906
40
1
40
1
40
1
40
1
41
1
10
-19
20
9.99701417807333
30
0
41
1
10
-19
20
9.98518859001805
30
0
41
1
10
-19
20
9.93357483441991
30
0
41
1
10
-19
20
9.64867768984556
30
0
41
1
10
-19
20
9.23780993670169
30
0
41
1
10
-19
20
8.14603193018394
30
0
41
1
10
-19
20
7.43345411730721
30
0
41
1
10
-19
20
5.77837410503321
30
0
41
1
10
-19
20
4.80540193943585
30
0
41
1
10
-19
20
2.62104554533028
30
0
41
1
10
-19
20
1.3838947953009
30
0
41
1
10
-19
20
-0.605684496272232
30
0
41
1
10
-19
20
-1.25707690377641
30
0
41
1
10
-19
20
-2.49720593938528
30
0
41
1
10
-19
20
-3.08077873820474
30
0
41
1
10
-19
20
-4.74586814612971
30
0
41
1
10
-19
20
-5.70718288821723
30
0
41
1
10
-19
20
-7.40302719902536
30
0
41
1
10
-19
20
-8.10117106535407
30
0
41
1
10
-19
20
-9.22362511721823
30
0
41
1
10
-19
20
-9.63194777304707
30
0
41
1
10
-19
20
-9.92641590119132
30
0
41
1
10
-19
20
-9.98028520480736
30
0
41
1
10
-18.9999999999999
20
-9.9946328219296
30
0
0
SPLINE
5
FD
100
AcDbEntity
8
SK1
62
256
6
ByLayer
370
-1
48
1
60
0
100
AcDbSpline
70
4
71
3
72
33
73
29
40
0
40
0
40
0
40
0
40
0.0138898280766864
40
0.0538848653463865
40
0.0938799026160867
40
0.133874939885787
40
0.173869977155487
40
0.213865014425187
40
0.253860051694887
40
0.293855088964587
40
0.333850126234288
40
0.373845163503988
40
0.413840200773688
40
0.453835238043388
40
0.493830275313088
40
0.533825312582788
40
0.573820349852488
40
0.613815387122188
40
0.653810424391889
40
0.693805461661589
40
0.733800498931289
40
0.773795536200989
40
0.813790573470689
40
0.853785610740389
40
0.89378064801009
40
0.93377568527979
40
0.97377072254949
40
1
40
1
40
1
40
1
41
1
10
-1.5
20
-2.30830715862382
30
0
41
1
10
-1.5
20
-2.35274536835021
30
0
41
1
10
-1.5
20
-2.52722590203587
30
0
41
1
10
-1.5
20
-2.84536131291168
30
0
41
1
10
-1.5
20
-3.27800431136151
30
0
41
1
10
-1.5
20
-3.73479546756539
30
0
41
1
10
-1.5
20
-4.2127903847566
30
0
41
1
10
-1.5
20
-4.70809154586752
30
0
41
1
10
-1.5
20
-5.21597581842096
30
0
41
1
10
-1.5
20
-5.73105048063846
30
0
41
1
10
-1.5
20
-6.24743659384492
30
0
41
1
10
-1.5
20
-6.75893656128304
30
0
41
1
10
-1.5
20
-7.25934857263886
30
0
41
1
10
-1.5
20
-7.74247092873685
30
0
41
1
10
-1.5
20
-8.20251481389079
30
0
41
1
10
-1.5
20
-8.63416150202502
30
0
41
1
10
-1.5
20
-9.03277107731486
30
0
41
1
10
-1.5
20
-9.39451017773411
30
0
41
1
10
-1.5
20
-9.71646048768639
30
0
41
1
10
-1.5
20
-9.99668420392302
30
0
41
1
10
-1.5
20
-10.2342567136415
30
0
41
1
10
-1.5
20
-10.4292548968257
30
0
41
1
10
-1.5
20
-10.5827105102703
30
0
41
1
10
-1.5
20
-10.6965242483831
30
0
41
1
10
-1.5
20
-10.7733482106365
30
0
41
1
10
-1.5
20
-10.8164410190789
30
0
41
1
10
-1.5
20
-10.8279984269957
30
0
41
1
10
-1.5
20
-10.8232833841747
30
0
41
1
10
-1.5
20
-10.8197345245299
30
0
0
SPLINE
5
FE
100
AcDbEntity
8
SK1
62
256
6
ByLayer
370
-1
48
1
60
0
100
AcDbSpline
70
4
71
3
72
10
73
6
40
0
40
0
40
0
40
0
40
0.5
40
0.5
40
1
40
1
40
1
40
1
41
1
10
-1.69996579751438
20
2.34399454350793
30
0
41
1
10
-1.82597576019367
20
1.61001532399777
30
0
41
1
10
-1.92804003196062
20
0.809037898581778
30
0
41
1
10
-1.92909522738216
20
-0.795359530273288
30
0
41
1
10
-1.82836818305549
20
-1.5960753900805
30
0
41
1
10
-1.69996579738211
20
-2.34399541728104
30
0
0
SPLINE
5
FF
100
AcDbEntity
8
SK1
62
256
6
ByLayer
370
-1
48
1
60
0
100
AcDbSpline
70
4
71
3
72
20
73
16
40
0
40
0
40
0
40
0
40
0.140420538696892
40
0.140420538696892
40
0.283113565135693
40
0.283113565135693
40
0.383003749297718
40
0.383003749297718
40
0.482719595028351
40
0.482719595028351
40
0.629860782987064
40
0.629860782987064
40
0.9098359803162
40
0.9098359803162
40
1
40
1
40
1
40
1
41
1
10
-0.400000000000034
20
10.7720903551641
30
0
41
1
10
-0.420485425404365
20
10.7699879927591
30
0
41
1
10
-0.442853612204203
20
10.7679559042768
30
0
41
1
10
-0.492317942748457
20
10.7644479456746
30
0
41
1
10
-0.520199073627055
20
10.7629489681196
30
0
41
1
10
-0.57041474459777
20
10.7615601980511
30
0
41
1
10
-0.592388657551908
20
10.7613257206405
30
0
41
1
10
-0.635222276121908
20
10.7616521249958
30
0
41
1
10
-0.656551809000575
20
10.762210406105
30
0
41
1
10
-0.705635225108949
20
10.7642598717253
30
0
41
1
10
-0.732559682028807
20
10.7660705901044
30
0
41
1
10
-0.802383167639846
20
10.7718500865204
30
0
41
1
10
-0.840123259759594
20
10.7763551487408
30
0
41
1
10
-0.883850457362314
20
10.7820664301106
30
0
41
1
10
-0.894066349533773
20
10.783434797784
30
0
41
1
10
-0.903940088695038
20
10.7847858831467
30
0
0
SPLINE
5
100
100
AcDbEntity
8
SK1
62
256
6
ByLayer
370
-1
48
1
60
0
100
AcDbSpline
70
4
71
3
72
26
73
22
40
0
40
0
40
0
40
0
40
0.0042434309448905
40
0.0613301591488156
40
0.118416887352741
40
0.175503615556666
40
0.232590343760591
40
0.289677071964516
40
0.346763800168441
40
0.403850528372367
40
0.460937256576292
40
0.518023984780217
40
0.575110712984142
40
0.632197441188068
40
0.689284169391993
40
0.746370897595918
40
0.803457625799843
40
0.860544354003768
40
0.917631082207694
40
0.974717810411619
40
1
40
1
40
1
40
1
41
1
10
-0.400000000000034
20
10.7720903551641
30
0
41
1
10
-0.400000000000034
20
10.7706666069312
30
0
41
1
10
-0.400000000000034
20
10.7496439100427
30
0
41
1
10
-0.400000000000034
20
10.6965241329296
30
0
41
1
10
-0.400000000000034
20
10.5827105539549
30
0
41
1
10
-0.400000000000034
20
10.4292548370654
30
0
41
1
10
-0.400000000000034
20
10.2342567210012
30
0
41
1
10
-0.400000000000034
20
9.99668422428971
30
0
41
1
10
-0.400000000000034
20
9.71646045325278
30
0
41
1
10
-0.400000000000034
20
9.39451028305967
30
0
41
1
10
-0.400000000000034
20
9.03277100198562
30
0
41
1
10
-0.400000000000034
20
8.63416168408222
30
0
41
1
10
-0.400000000000034
20
8.2025147049051
30
0
41
1
10
-0.400000000000034
20
7.74247141428037
30
0
41
1
10
-0.400000000000034
20
7.25934377839385
30
0
41
1
10
-0.400000000000034
20
6.75895136864708
30
0
41
1
10
-0.400000000000034
20
6.24743323087412
30
0
41
1
10
-0.400000000000034
20
5.73105035715909
30
0
41
1
10
-0.400000000000034
20
5.21597569580999
30
0
41
1
10
-0.400000000000034
20
4.80241032436584
30
0
41
1
10
-0.400000000000034
20
4.56250546597264
30
0
41
1
10
-0.400000000000034
20
4.48934914533311
30
0
0
SPLINE
5
101
100
AcDbEntity
8
SK1
62
256
6
ByLayer
370
-1
48
1
60
0
100
AcDbSpline
70
4
71
3
72
34
73
30
40
0
40
0
40
0
40
0
40
0.0112669685429872
40
0.0112669685429872
40
0.0589394571072341
40
0.0589394571072341
40
0.15453598693254
40
0.15453598693254
40
0.250071361960799
40
0.250071361960799
40
0.345575677081921
40
0.345575677081921
40
0.441065554334213
40
0.441065554334213
40
0.536552664115184
40
0.536552664115184
40
0.632047854665239
40
0.632047854665239
40
0.727564602396907
40
0.727564602396907
40
0.823124579527687
40
0.823124579527687
40
0.870792997061212
40
0.870792997061212
40
0.918469321595649
40
0.918469321595649
40
0.96615777529002
40
0.96615777529002
40
1
40
1
40
1
40
1
41
1
10
-1.69993676286356
20
11.0201001927739
30
0
41
1
10
-1.69993832691927
20
11.0201347387083
30
0
41
1
10
-1.6999398412072
20
11.0196274515765
30
0
41
1
10
-1.69994751366465
20
11.0142188011048
30
0
41
1
10
-1.69995287995744
20
11.000405024139
30
0
41
1
10
-1.69996695296891
20
10.9332843475555
30
0
41
1
10
-1.69997367173841
20
10.8542029227334
30
0
41
1
10
-1.69998386152667
20
10.6377999041158
30
0
41
1
10
-1.69998734498478
20
10.5001171728846
30
0
41
1
10
-1.69999246905712
20
10.1728975826325
30
0
41
1
10
-1.69999411792992
20
9.98292332235604
30
0
41
1
10
-1.69999643908523
20
9.55552993499316
30
0
41
1
10
-1.6999971168857
20
9.31759782738115
30
0
41
1
10
-1.69999798411868
20
8.79743010432028
30
0
41
1
10
-1.69999817542509
20
8.51459573987518
30
0
41
1
10
-1.69999824461598
20
7.90689005466763
30
0
41
1
10
-1.69999812267855
20
7.58130243438197
30
0
41
1
10
-1.69999744438479
20
6.8897188186929
30
0
41
1
10
-1.69999688682344
20
6.52282614529054
30
0
41
1
10
-1.69999489291331
20
5.74978712553676
30
0
41
1
10
-1.69999345206901
20
5.34244656677163
30
0
41
1
10
-1.69999000494022
20
4.70303852615055
30
0
41
1
10
-1.69998863813788
20
4.48501546085996
30
0
41
1
10
-1.69998532683127
20
4.03938656106379
30
0
41
1
10
-1.69998338085907
20
3.81152710629337
30
0
41
1
10
-1.69997876258685
20
3.34638056322453
30
0
41
1
10
-1.6999760835148
20
3.10876440414407
30
0
41
1
10
-1.69997079701295
20
2.69478121630701
30
0
41
1
10
-1.69996839509747
20
2.52048785703786
30
0
41
1
10
-1.69996579751813
20
2.34399454350842
30
0
0
SPLINE
5
102
100
AcDbEntity
8
SK1
62
256
6
ByLayer
370
-1
48
1
60
0
100
AcDbSpline
70
4
71
3
72
33
73
29
40
0
40
0
40
0
40
0
40
0.0262294113071146
40
0.0662244389595385
40
0.106219466611962
40
0.146214494264386
40
0.18620952191681
40
0.226204549569234
40
0.266199577221658
40
0.306194604874082
40
0.346189632526505
40
0.386184660178929
40
0.426179687831353
40
0.466174715483777
40
0.506169743136201
40
0.546164770788625
40
0.586159798441049
40
0.626154826093472
40
0.666149853745896
40
0.70614488139832
40
0.746139909050744
40
0.786134936703168
40
0.826129964355592
40
0.866124992008016
40
0.906120019660439
40
0.946115047312863
40
0.986110074965287
40
1
40
1
40
1
40
1
41
1
10
-1.5
20
10.8197347433149
30
0
41
1
10
-1.5
20
10.8232836062255
30
0
41
1
10
-1.5
20
10.8279984695651
30
0
41
1
10
-1.5
20
10.8164403957515
30
0
41
1
10
-1.5
20
10.7733485034928
30
0
41
1
10
-1.5
20
10.6965241329296
30
0
41
1
10
-1.5
20
10.5827105539549
30
0
41
1
10
-1.5
20
10.4292548370654
30
0
41
1
10
-1.5
20
10.2342567210012
30
0
41
1
10
-1.5
20
9.99668422428968
30
0
41
1
10
-1.5
20
9.71646045325278
30
0
41
1
10
-1.5
20
9.39451028305967
30
0
41
1
10
-1.5
20
9.03277100198562
30
0
41
1
10
-1.5
20
8.63416168408222
30
0
41
1
10
-1.5
20
8.2025147049051
30
0
41
1
10
-1.5
20
7.74247141428037
30
0
41
1
10
-1.5
20
7.25934377839385
30
0
41
1
10
-1.5
20
6.75895136864708
30
0
41
1
10
-1.5
20
6.24743323087412
30
0
41
1
10
-1.5
20
5.73105035715909
30
0
41
1
10
-1.5
20
5.21597569580999
30
0
41
1
10
-1.5
20
4.70809176356334
30
0
41
1
10
-1.5
20
4.21279029060338
30
0
41
1
10
-1.5
20
3.73479561610898
30
0
41
1
10
-1.5
20
3.27800425826317
30
0
41
1
10
-1.5
20
2.84536147075812
30
0
41
1
10
-1.5
20
2.52722557449198
30
0
41
1
10
-1.5
20
2.35274458205822
30
0
41
1
10
-1.5
20
2.30830602436802
30
0
0
SPLINE
5
103
100
AcDbEntity
8
SK1
62
256
6
ByLayer
370
-1
48
1
60
0
100
AcDbSpline
70
4
71
3
72
24
73
20
40
0
40
0
40
0
40
0
40
0.0348890371140332
40
0.0348890371140332
40
0.0617027213621672
40
0.0617027213621672
40
0.0827724763829241
40
0.0827724763829241
40
0.10385728998705
40
0.10385728998705
40
0.132456700829727
40
0.132456700829727
40
0.183303847887294
40
0.183303847887294
40
0.342147323918038
40
0.342147323918038
40
0.999994163615582
40
0.999994163615582
40
1
40
1
40
1
40
1
41
1
10
-0.400000000000034
20
-10.7720903270618
30
0
41
1
10
-0.394111355098573
20
-10.7726946640025
30
0
41
1
10
-0.387638990857908
20
-10.7735074107736
30
0
41
1
10
-0.374999497999227
20
-10.7755463299797
30
0
41
1
10
-0.368988434639903
20
-10.7766582562045
30
0
41
1
10
-0.357779191188456
20
-10.7790947211554
30
0
41
1
10
-0.352573525529351
20
-10.7803510360362
30
0
41
1
10
-0.342444927003157
20
-10.7830631767083
30
0
41
1
10
-0.337408731680853
20
-10.7845489216127
30
0
41
1
10
-0.326477488214323
20
-10.7880399886084
30
0
41
1
10
-0.320718590221418
20
-10.790094933621
30
0
41
1
10
-0.306589885788867
20
-10.7955138573257
30
0
41
1
10
-0.299229318200901
20
-10.7987886768127
30
0
41
1
10
-0.273318263088015
20
-10.8111744132949
30
0
41
1
10
-0.26176150519791
20
-10.8187552826324
30
0
41
1
10
-0.212916331686188
20
-10.8527221106266
30
0
41
1
10
-0.206214896622498
20
-10.8665219361729
30
0
41
1
10
-0.201948096039838
20
-10.8745596594224
30
0
41
1
10
-0.201947627118398
20
-10.8745605427755
30
0
41
1
10
-0.201947158199978
20
-10.8745614261302
30
0
0
SPLINE
5
104
100
AcDbEntity
8
SK1
62
256
6
ByLayer
370
-1
48
1
60
0
100
AcDbSpline
70
4
71
3
72
26
73
22
40
0
40
0
40
0
40
0
40
0.449738132477954
40
0.449738132477954
40
0.664402002683402
40
0.664402002683402
40
0.7737612207596
40
0.7737612207596
40
0.856245095717807
40
0.856245095717807
40
0.897662328372348
40
0.897662328372348
40
0.91706495237681
40
0.91706495237681
40
0.936734615560887
40
0.936734615560887
40
0.954124174419597
40
0.954124174419597
40
0.979939143819098
40
0.979939143819098
40
1
40
1
40
1
40
1
41
1
10
-0.200000000000046
20
-5.19704273475742
30
0
41
1
10
-0.200000000000046
20
-5.07975410009703
30
0
41
1
10
-0.203466682130625
20
-4.96017714586688
30
0
41
1
10
-0.221693360550034
20
-4.78102610938947
30
0
41
1
10
-0.2295609559024
20
-4.72253456210919
30
0
41
1
10
-0.248699491321418
20
-4.63442555966748
30
0
41
1
10
-0.256413494564128
20
-4.60458658946615
30
0
41
1
10
-0.274681296242647
20
-4.55329063876354
30
0
41
1
10
-0.284007523646267
20
-4.53119508230068
30
0
41
1
10
-0.303744106160423
20
-4.50098594538659
30
0
41
1
10
-0.311509525681402
20
-4.49116741345233
30
0
41
1
10
-0.325471651806765
20
-4.47968016512067
30
0
41
1
10
-0.330427279763057
20
-4.47641864212306
30
0
41
1
10
-0.341006642070965
20
-4.4716078953679
30
0
41
1
10
-0.346789289837659
20
-4.47005622337582
30
0
41
1
10
-0.35750171321132
20
-4.4692526659862
30
0
41
1
10
-0.362570628376432
20
-4.46973139878193
30
0
41
1
10
-0.374383227259841
20
-4.47254618031181
30
0
41
1
10
-0.380971575520618
20
-4.47565191427904
30
0
41
1
10
-0.391577664442764
20
-4.48234828370349
30
0
41
1
10
-0.395922839313982
20
-4.48572633284783
30
0
41
1
10
-0.400000000000148
20
-4.48934893107318
30
0
0
SPLINE
5
105
100
AcDbEntity
8
SK1
62
256
6
ByLayer
370
-1
48
1
60
0
100
AcDbSpline
70
4
71
3
72
32
73
28
40
0
40
0
40
0
40
0
40
0.365927089807649
40
0.365927089807649
40
0.434988381544102
40
0.434988381544102
40
0.459470391973526
40
0.459470391973526
40
0.484523297819611
40
0.484523297819611
40
0.495000485667551
40
0.495000485667551
40
0.505685328487508
40
0.505685328487508
40
0.512277836854413
40
0.512277836854413
40
0.518861441140287
40
0.518861441140287
40
0.528508909357715
40
0.528508909357715
40
0.546991571884285
40
0.546991571884285
40
0.628302439414124
40
0.628302439414124
40
0.950686415613842
40
0.950686415613842
40
1
40
1
40
1
40
1
41
1
10
-1.5
20
2.30830602436802
30
0
41
1
10
-1.52221751736221
20
2.18593578325891
30
0
41
1
10
-1.5452299933437
20
2.06251508992042
30
0
41
1
10
-1.58645530727239
20
1.92421817182063
30
0
41
1
10
-1.59351669828698
20
1.90246957270816
30
0
41
1
10
-1.60499906250118
20
1.87469947052622
30
0
41
1
10
-1.6082003540161
20
1.8675788212021
30
0
41
1
10
-1.61534084307135
20
1.85393197437202
30
0
41
1
10
-1.61929930659136
20
1.84729792851803
30
0
41
1
10
-1.62596752666457
20
1.83957892922561
30
0
41
1
10
-1.62809255235374
20
1.83750162516705
30
0
41
1
10
-1.63273883786326
20
1.83425727265225
30
0
41
1
10
-1.63534521763034
20
1.8330769398703
30
0
41
1
10
-1.63973359946959
20
1.83275236286212
30
0
41
1
10
-1.64148920088587
20
1.83301807905258
30
0
41
1
10
-1.64485340276019
20
1.83436876713788
30
0
41
1
10
-1.64649922195929
20
1.83546324657846
30
0
41
1
10
-1.65020824529177
20
1.83881160526317
30
0
41
1
10
-1.65218279132313
20
1.84139532031719
30
0
41
1
10
-1.65723177402214
20
1.849484045693
30
0
41
1
10
-1.65984043101901
20
1.85563378259269
30
0
41
1
10
-1.67182065388494
20
1.888941134085
30
0
41
1
10
-1.67632598434432
20
1.91870567173245
30
0
41
1
10
-1.69605916878521
20
2.06239070530873
30
0
41
1
10
-1.69829182976605
20
2.17797320288884
30
0
41
1
10
-1.6997878183206
20
2.3091658731316
30
0
41
1
10
-1.69991061150085
20
2.32659131405609
30
0
41
1
10
-1.69996579751825
20
2.34399454350921
30
0
0
SPLINE
5
106
100
AcDbEntity
8
SK1
62
256
6
ByLayer
370
-1
48
1
60
0
100
AcDbSpline
70
4
71
3
72
8
73
4
40
0
40
0
40
0
40
0
40
1
40
1
40
1
40
1
41
1
10
-1.5
20
-2.30830715862382
30
0
41
1
10
-1.43992566134762
20
-2.63918814774505
30
0
41
1
10
-1.3741866857074
20
-2.96137434366062
30
0
41
1
10
-1.30710678118675
20
-3.2741000776636
30
0
0
SPLINE
5
107
100
AcDbEntity
8
SK1
62
256
6
ByLayer
370
-1
48
1
60
0
100
AcDbSpline
70
4
71
3
72
22
73
18
40
0
40
0
40
0
40
0
40
0.0449734260287716
40
0.0449734260287716
40
0.0906738274120162
40
0.0906738274120162
40
0.122638717708356
40
0.122638717708356
40
0.154549770731825
40
0.154549770731825
40
0.201552050367308
40
0.201552050367308
40
0.290895290031139
40
0.290895290031139
40
0.598982552652836
40
0.598982552652836
40
1
40
1
40
1
40
1
41
1
10
-0.400000000000034
20
-4.48934893107537
30
0
41
1
10
-0.420456941468217
20
-4.50752512906291
30
0
41
1
10
-0.44279365957027
20
-4.52452287299627
30
0
41
1
10
-0.492193632877786
20
-4.5532875570679
30
0
41
1
10
-0.520039992485408
20
-4.56524258715393
30
0
41
1
10
-0.570193326457115
20
-4.57628050315313
30
0
41
1
10
-0.592133279247662
20
-4.57814021899074
30
0
41
1
10
-0.634912844043129
20
-4.57562166953767
30
0
41
1
10
-0.656221684239426
20
-4.57125895050498
30
0
41
1
10
-0.705207801022823
20
-4.55499593975378
30
0
41
1
10
-0.732067427106074
20
-4.54046143085233
30
0
41
1
10
-0.801682679231533
20
-4.49257590710445
30
0
41
1
10
-0.839313324772718
20
-4.45345948567501
30
0
41
1
10
-0.985377121353224
20
-4.27336869710479
30
0
41
1
10
-1.0562136843908
20
-4.11001095439886
30
0
41
1
10
-1.19814354028301
20
-3.73039497896576
30
0
41
1
10
-1.25757188978821
20
-3.50503116473169
30
0
41
1
10
-1.30710678118658
20
-3.27410007766451
30
0
0
SPLINE
5
108
100
AcDbEntity
8
SK1
62
256
6
ByLayer
370
-1
48
1
60
0
100
AcDbSpline
70
4
71
3
72
77
73
73
40
0
40
0
40
0
40
0
40
0.0137307202965801
40
0.0280335982065802
40
0.0423364761165802
40
0.0566393540265803
40
0.0709422319365804
40
0.0852451098465804
40
0.0995479877565805
40
0.113850865666581
40
0.128153743576581
40
0.142456621486581
40
0.156759499396581
40
0.171062377306581
40
0.185365255216581
40
0.199668133126581
40
0.213971011036581
40
0.228273888946581
40
0.242576766856581
40
0.256879644766581
40
0.271182522676581
40
0.285485400586581
40
0.299788278496581
40
0.314091156406581
40
0.328394034316581
40
0.342696912226582
40
0.356999790136582
40
0.371302668046582
40
0.385605545956582
40
0.399908423866582
40
0.414211301776582
40
0.428514179686582
40
0.442817057596582
40
0.457119935506582
40
0.471422813416582
40
0.485725691326582
40
0.500028569236582
40
0.514331447146582
40
0.528634325056582
40
0.542937202966582
40
0.557240080876582
40
0.571542958786582
40
0.585845836696583
40
0.600148714606583
40
0.614451592516583
40
0.628754470426583
40
0.643057348336583
40
0.657360226246583
40
0.671663104156583
40
0.685965982066583
40
0.700268859976583
40
0.714571737886583
40
0.728874615796583
40
0.743177493706583
40
0.757480371616583
40
0.771783249526583
40
0.786086127436583
40
0.800389005346583
40
0.814691883256584
40
0.828994761166584
40
0.843297639076584
40
0.857600516986584
40
0.871903394896584
40
0.886206272806584
40
0.900509150716584
40
0.914812028626584
40
0.929114906536584
40
0.943417784446584
40
0.957720662356584
40
0.972023540266584
40
0.986326418176584
40
1
40
1
40
1
40
1
41
1
10
-18.0003154452711
20
10.5149944987008
30
0
41
1
10
-18.0003154452711
20
10.5339393292834
30
0
41
1
10
-18.0003154452711
20
10.5680070257013
30
0
41
1
10
-18.0003154452711
20
10.6020553136752
30
0
41
1
10
-18.0003154452711
20
10.6148401921024
30
0
41
1
10
-18.0003154452711
20
10.6020527865053
30
0
41
1
10
-18.0003154452711
20
10.5599067660982
30
0
41
1
10
-18.0003154452711
20
10.484858493423
30
0
41
1
10
-18.0003154452711
20
10.3737876322681
30
0
41
1
10
-18.0003154452711
20
10.2241542656656
30
0
41
1
10
-18.0003154452711
20
10.0341417476878
30
0
41
1
10
-18.0003154452711
20
9.80276749593034
30
0
41
1
10
-18.0003154452711
20
9.52996627751907
30
0
41
1
10
-18.0003154452711
20
9.21663490521362
30
0
41
1
10
-18.0003154452711
20
8.8646424744737
30
0
41
1
10
-18.0003154452711
20
8.47680090545717
30
0
41
1
10
-18.0003154452711
20
8.0567992885353
30
0
41
1
10
-18.0003154452711
20
7.60910373147829
30
0
41
1
10
-18.0003154452711
20
7.13882469106107
30
0
41
1
10
-18.0003154452711
20
6.65156052719593
30
0
41
1
10
-18.0003154452711
20
6.15321710334797
30
0
41
1
10
-18.0003154452711
20
5.6498182272658
30
0
41
1
10
-18.0003154452711
20
5.14730429921639
30
0
41
1
10
-18.0003154452711
20
4.65133808658862
30
0
41
1
10
-18.0003154452711
20
4.16711263587257
30
0
41
1
10
-18.0003154452711
20
3.69918177457655
30
0
41
1
10
-18.0003154452711
20
3.25130634588356
30
0
41
1
10
-18.0003154452711
20
2.82633530245386
30
0
41
1
10
-18.0003154452711
20
2.4261137374983
30
0
41
1
10
-18.0003154452711
20
2.05143295827557
30
0
41
1
10
-18.0003154452711
20
1.70201461385656
30
0
41
1
10
-18.0003154452711
20
1.37653784078691
30
0
41
1
10
-18.0003154452711
20
1.07270241252968
30
0
41
1
10
-18.0003154452711
20
0.787329494879117
30
0
41
1
10
-18.0003154452711
20
0.5164948882136
30
0
41
1
10
-18.0003154452711
20
0.255688867473765
30
0
41
1
10
-18.0003154452711
20
5.33077298E-08
30
0
41
1
10
-18.0003154452711
20
-0.255689080704769
30
0
41
1
10
-18.0003154452711
20
-0.516494790078411
30
0
41
1
10
-18.0003154452711
20
-0.787329674189039
30
0
41
1
10
-18.0003154452711
20
-1.07270233858418
30
0
41
1
10
-18.0003154452711
20
-1.37653795725913
30
0
41
1
10
-18.0003154452711
20
-1.70201457625086
30
0
41
1
10
-18.0003154452711
20
-2.05143299222624
30
0
41
1
10
-18.0003154452711
20
-2.42611374304263
30
0
41
1
10
-18.0003154452711
20
-2.82633524632604
30
0
41
1
10
-18.0003154452711
20
-3.25130639507444
30
0
41
1
10
-18.0003154452711
20
-3.69918163394095
30
0
41
1
10
-18.0003154452711
20
-4.16711272286926
30
0
41
1
10
-18.0003154452711
20
-4.65133787923756
30
0
41
1
10
-18.0003154452711
20
-5.14730441276672
30
0
41
1
10
-18.0003154452711
20
-5.64981798041566
30
0
41
1
10
-18.0003154452711
20
-6.15322150279795
30
0
41
1
10
-18.0003154452711
20
-6.65154629355717
30
0
41
1
10
-18.0003154452711
20
-7.13882830854649
30
0
41
1
10
-18.0003154452711
20
-7.60910350361911
30
0
41
1
10
-18.0003154452711
20
-8.05679938889131
30
0
41
1
10
-18.0003154452711
20
-8.47680073189244
30
0
41
1
10
-18.0003154452711
20
-8.86464254278607
30
0
41
1
10
-18.0003154452711
20
-9.21663480552891
30
0
41
1
10
-18.0003154452711
20
-9.52996630690072
30
0
41
1
10
-18.0003154452711
20
-9.80276747808841
30
0
41
1
10
-18.0003154452711
20
-10.0341417373043
30
0
41
1
10
-18.0003154452711
20
-10.2241543250414
30
0
41
1
10
-18.0003154452711
20
-10.3737875873693
30
0
41
1
10
-18.0003154452711
20
-10.4848586136426
30
0
41
1
10
-18.0003154452711
20
-10.5599064693696
30
0
41
1
10
-18.0003154452711
20
-10.6020533911088
30
0
41
1
10
-18.0003154452711
20
-10.6148400828081
30
0
41
1
10
-18.0003154452711
20
-10.6020549007945
30
0
41
1
10
-18.0003154452711
20
-10.5680531093257
30
0
41
1
10
-18.0003154452711
20
-10.534078292877
30
0
41
1
10
-18.0003154452711
20
-10.5152309988178
30
0
0
SPLINE
5
109
100
AcDbEntity
8
SK1
62
256
6
ByLayer
370
-1
48
1
60
0
100
AcDbSpline
70
4
71
3
72
26
73
22
40
0
40
0
40
0
40
0
40
0.0252822053743131
40
0.0823689313925979
40
0.139455657410883
40
0.196542383429167
40
0.253629109447452
40
0.310715835465737
40
0.367802561484022
40
0.424889287502306
40
0.481976013520591
40
0.539062739538876
40
0.596149465557161
40
0.653236191575446
40
0.71032291759373
40
0.767409643612015
40
0.8244963696303
40
0.881583095648585
40
0.938669821666869
40
0.995756547685154
40
1
40
1
40
1
40
1
41
1
10
-0.400000000000034
20
-4.4893489310777
30
0
41
1
10
-0.400000000000034
20
-4.56250527649343
30
0
41
1
10
-0.400000000000034
20
-4.80241012018314
30
0
41
1
10
-0.400000000000034
20
-5.21597581842096
30
0
41
1
10
-0.400000000000034
20
-5.73105048063846
30
0
41
1
10
-0.400000000000034
20
-6.24743659384492
30
0
41
1
10
-0.400000000000034
20
-6.75893656128304
30
0
41
1
10
-0.400000000000034
20
-7.25934857263886
30
0
41
1
10
-0.400000000000034
20
-7.74247092873685
30
0
41
1
10
-0.400000000000034
20
-8.20251481389079
30
0
41
1
10
-0.400000000000034
20
-8.63416150202502
30
0
41
1
10
-0.400000000000034
20
-9.03277107731486
30
0
41
1
10
-0.400000000000034
20
-9.39451017773413
30
0
41
1
10
-0.400000000000034
20
-9.71646048768639
30
0
41
1
10
-0.400000000000034
20
-9.99668420392302
30
0
41
1
10
-0.400000000000034
20
-10.2342567136415
30
0
41
1
10
-0.400000000000034
20
-10.4292548968257
30
0
41
1
10
-0.400000000000034
20
-10.5827105102703
30
0
41
1
10
-0.400000000000034
20
-10.6965242483831
30
0
41
1
10
-0.400000000000034
20
-10.7496437528317
30
0
41
1
10
-0.400000000000034
20
-10.7706665633893
30
0
41
1
10
-0.400000000000034
20
-10.7720903270618
30
0
0
SPLINE
5
10A
100
AcDbEntity
8
SK1
62
256
6
ByLayer
370
-1
48
1
60
0
100
AcDbSpline
70
4
71
3
72
20
73
16
40
0
40
0
40
0
40
0
40
0.289591250207017
40
0.289591250207017
40
0.445641579471292
40
0.445641579471292
40
0.565150656188392
40
0.565150656188392
40
0.665669956959926
40
0.665669956959926
40
0.765874026691319
40
0.765874026691319
40
0.920609475720822
40
0.920609475720822
40
1
40
1
40
1
40
1
41
1
10
-0.899903122953674
20
-10.7840848927913
30
0
41
1
10
-0.868449172464352
20
-10.7797260979509
30
0
41
1
10
-0.832767748820515
20
-10.775300420935
30
0
41
1
10
-0.767668067718603
20
-10.7688851018166
30
0
41
1
10
-0.742170086684837
20
-10.7667139324169
30
0
41
1
10
-0.692274786497364
20
-10.7636476309374
30
0
41
1
10
-0.668530490600347
20
-10.7625613907743
30
0
41
1
10
-0.62306916607713
20
-10.7614648455063
30
0
41
1
10
-0.601170315114928
20
-10.7613125350673
30
0
41
1
10
-0.558760887240567
20
-10.7617815137992
30
0
41
1
10
-0.537785827568314
20
-10.7623989525676
30
0
41
1
10
-0.488247839736005
20
-10.7646079926068
30
0
41
1
10
-0.460778861773292
20
-10.7665508551728
30
0
41
1
10
-0.423537546807495
20
-10.7697595930047
30
0
41
1
10
-0.411485089493112
20
-10.7709116409693
30
0
41
1
10
-0.400000000000034
20
-10.7720903270618
30
0
0
LINE
5
49
100
AcDbEntity
8
80
62
256
6
ByLayer
370
-1
48
1
60
0
100
AcDbLine
10
0
20
0
30
0
11
-10
21
0
31
0
39
0
210
0
220
0
230
1
0
LINE
5
4A
100
AcDbEntity
8
81
62
256
6
ByLayer
370
-1
48
1
60
0
100
AcDbLine
10
75
20
12.9
30
0
11
85
21
12.9
31
0
39
0
210
0
220
0
230
1
0
LINE
5
4B
100
AcDbEntity
8
SK4
62
256
6
ByLayer
370
-1
48
0.05
60
0
100
AcDbLine
10
-24
20
0
30
0
11
80.411995
21
0
31
0
39
0
210
0
220
0
230
1
0
LINE
5
4D
100
AcDbEntity
8
4
62
256
6
ByLayer
370
-1
48
0.05
60
0
100
AcDbLine
10
0
20
0
30
0
11
99.411995
21
0
31
0
39
0
210
0
220
0
230
1
0
LINE
5
4F
100
AcDbEntity
8
1
62
256
6
ByLayer
370
-1
48
1
60
0
100
AcDbLine
10
14.5
20
16
30
0
11
0.3
21
16
31
0
39
0
210
0
220
0
230
1
0
LINE
5
50
100
AcDbEntity
8
1
62
256
6
ByLayer
370
-1
48
1
60
0
100
AcDbLine
10
0.3
20
-16
30
0
11
14.5
21
-16
31
0
39
0
210
0
220
0
230
1
0
LINE
5
51
100
AcDbEntity
8
1
62
256
6
ByLayer
370
-1
48
1
60
0
100
AcDbLine
10
0.3
20
16
30
0
11
0
21
15.7
31
0
39
0
210
0
220
0
230
1
0
LINE
5
52
100
AcDbEntity
8
1
62
256
6
ByLayer
370
-1
48
1
60
0
100
AcDbLine
10
0
20
-15.7
30
0
11
0.3
21
-16
31
0
39
0
210
0
220
0
230
1
0
LINE
5
53
100
AcDbEntity
8
1
62
256
6
ByLayer
370
-1
48
1
60
0
100
AcDbLine
10
14.5
20
-16
30
0
11
14.91226
21
-14.454024
31
0
39
0
210
0
220
0
230
1
0
LINE
5
54
100
AcDbEntity
8
1
62
256
6
ByLayer
370
-1
48
1
60
0
100
AcDbLine
10
14.91226
20
14.454024
30
0
11
14.5
21
16
31
0
39
0
210
0
220
0
230
1
0
LINE
5
55
100
AcDbEntity
8
1
62
256
6
ByLayer
370
-1
48
1
60
0
100
AcDbLine
10
59.399654
20
10
30
0
11
20.70967
21
10
31
0
39
0
210
0
220
0
230
1
0
LINE
5
56
100
AcDbEntity
8
1
62
256
6
ByLayer
370
-1
48
1
60
0
100
AcDbLine
10
20.70967
20
-10
30
0
11
57.399654
21
-10
31
0
39
0
210
0
220
0
230
1
0
LINE
5
57
100
AcDbEntity
8
1
62
256
6
ByLayer
370
-1
48
1
60
0
100
AcDbLine
10
60.212023
20
10.469021
30
0
11
59.399654
21
10
31
0
39
0
210
0
220
0
230
1
0
LINE
5
58
100
AcDbEntity
8
1
62
256
6
ByLayer
370
-1
48
1
60
0
100
AcDbLine
10
70.489537
20
6.470811
30
0
11
70.478339
21
6.34282
31
0
39
0
210
0
220
0
230
1
0
LINE
5
59
100
AcDbEntity
8
1
62
256
6
ByLayer
370
-1
48
1
60
0
100
AcDbLine
10
68.684958
20
7.060647
30
0
11
68.695359
21
7.179529
31
0
39
0
210
0
220
0
230
1
0
LINE
5
5A
100
AcDbEntity
8
1
62
256
6
ByLayer
370
-1
48
1
60
0
100
AcDbLine
10
72.443842
20
7.383256
30
0
11
72.453661
21
7.495488
31
0
39
0
210
0
220
0
230
1
0
LINE
5
5B
100
AcDbEntity
8
1
62
256
6
ByLayer
370
-1
48
1
60
0
100
AcDbLine
10
67.223639
20
7.953056
30
0
11
67.21382
21
7.840824
31
0
39
0
210
0
220
0
230
1
0
LINE
5
5C
100
AcDbEntity
8
1
62
256
6
ByLayer
370
-1
48
1
60
0
100
AcDbLine
10
70.982704
20
8.277734
30
0
11
70.972268
21
8.158442
31
0
39
0
210
0
220
0
230
1
0
LINE
5
5D
100
AcDbEntity
8
1
62
256
6
ByLayer
370
-1
48
1
60
0
100
AcDbLine
10
69.178886
20
8.87627
30
0
11
69.190085
21
9.004272
31
0
39
0
210
0
220
0
230
1
0
LINE
5
5E
100
AcDbEntity
8
1
62
256
6
ByLayer
370
-1
48
1
60
0
100
AcDbLine
10
0.3
20
-16
30
0
11
0.3
21
16
31
0
39
0
210
0
220
0
230
1
0
LINE
5
5F
100
AcDbEntity
8
1
62
256
6
ByLayer
370
-1
48
1
60
0
100
AcDbLine
10
61.064912
20
10.960932
30
0
11
65.407607
21
-5.169705
31
0
39
0
210
0
220
0
230
1
0
LINE
5
60
100
AcDbEntity
8
1
62
256
6
ByLayer
370
-1
48
1
60
0
100
AcDbLine
10
64.044395
20
4.322695
30
0
11
64.037417
21
4.24677
31
0
39
0
210
0
220
0
230
1
0
LINE
5
61
100
AcDbEntity
8
1
62
256
6
ByLayer
370
-1
48
1
60
0
100
AcDbLine
10
65.407607
20
-5.169705
30
0
11
73.553118
21
-0.256436
31
0
39
0
210
0
220
0
230
1
0
LINE
5
62
100
AcDbEntity
8
1
62
256
6
ByLayer
370
-1
48
1
60
0
100
AcDbLine
10
59.399654
20
10
30
0
11
59.399654
21
9.999497
31
0
39
0
210
0
220
0
230
1
0
LINE
5
63
100
AcDbEntity
8
1
62
256
6
ByLayer
370
-1
48
1
60
0
100
AcDbLine
10
63.903927
20
4.448655
30
0
11
63.926173
21
4.690706
31
0
39
0
210
0
220
0
230
1
0
LINE
5
64
100
AcDbEntity
8
1
62
256
6
ByLayer
370
-1
48
1
60
0
100
AcDbLine
10
4.923205
20
15.276962
30
0
11
7.076795
21
15.276962
31
0
39
0
210
0
220
0
230
1
0
LINE
5
65
100
AcDbEntity
8
1
62
256
6
ByLayer
370
-1
48
1
60
0
100
AcDbLine
10
0
20
-15.7
30
0
11
0
21
15.7
31
0
39
0
210
0
220
0
230
1
0
LINE
5
66
100
AcDbEntity
8
1
62
256
6
ByLayer
370
-1
48
1
60
0
100
AcDbLine
10
57.399654
20
-10
30
0
11
58.552447
21
-9.30465
31
0
39
0
210
0
220
0
230
1
0
LINE
5
67
100
AcDbEntity
8
1
62
256
6
ByLayer
370
-1
48
1
60
0
100
AcDbLine
10
64.032758
20
3.721681
30
0
11
64.051967
21
3.941242
31
0
39
0
210
0
220
0
230
1
0
LINE
5
68
100
AcDbEntity
8
1
62
256
6
ByLayer
370
-1
48
1
60
0
100
AcDbLine
10
73.75816
20
3.371836
30
0
11
73.870459
21
3.370788
31
0
39
0
210
0
220
0
230
1
0
LINE
5
69
100
AcDbEntity
8
1
62
256
6
ByLayer
370
-1
48
1
60
0
100
AcDbLine
10
73.870459
20
3.370788
30
0
11
73.705946
21
3.356538
31
0
39
0
210
0
220
0
230
1
0
LINE
5
6A
100
AcDbEntity
8
1
62
256
6
ByLayer
370
-1
48
1
60
0
100
AcDbLine
10
64.044395
20
4.322695
30
0
11
64.063604
21
4.542257
31
0
39
0
210
0
220
0
230
1
0
LINE
5
6B
100
AcDbEntity
8
1
62
256
6
ByLayer
370
-1
48
1
60
0
100
AcDbLine
10
4.923205
20
4.755463
30
0
11
4.923205
21
15.276962
31
0
39
0
210
0
220
0
230
1
0
LINE
5
6C
100
AcDbEntity
8
1
62
256
6
ByLayer
370
-1
48
1
60
0
100
AcDbLine
10
4.923205
20
-4.755463
30
0
11
7.076795
21
-4.755463
31
0
39
0
210
0
220
0
230
1
0
LINE
5
6D
100
AcDbEntity
8
1
62
256
6
ByLayer
370
-1
48
1
60
0
100
AcDbLine
10
7.076795
20
4.755463
30
0
11
7.076795
21
15.276962
31
0
39
0
210
0
220
0
230
1
0
LINE
5
6E
100
AcDbEntity
8
1
62
256
6
ByLayer
370
-1
48
1
60
0
100
AcDbLine
10
14.91226
20
-14.454024
30
0
11
14.91226
21
14.454024
31
0
39
0
210
0
220
0
230
1
0
LINE
5
6F
100
AcDbEntity
8
1
62
256
6
ByLayer
370
-1
48
1
60
0
100
AcDbLine
10
7.076795
20
4.755463
30
0
11
4.923205
21
4.755463
31
0
39
0
210
0
220
0
230
1
0
LINE
5
70
100
AcDbEntity
8
1
62
256
6
ByLayer
370
-1
48
1
60
0
100
AcDbLine
10
7.076795
20
-15.276962
30
0
11
7.076795
21
-4.755463
31
0
39
0
210
0
220
0
230
1
0
LINE
5
71
100
AcDbEntity
8
1
62
256
6
ByLayer
370
-1
48
1
60
0
100
AcDbLine
10
7.336603
20
-15.175938
30
0
11
7.336603
21
-5.068619
31
0
39
0
210
0
220
0
230
1
0
LINE
5
72
100
AcDbEntity
8
1
62
256
6
ByLayer
370
-1
48
1
60
0
100
AcDbLine
10
73.870459
20
3.370788
30
0
11
73.553118
21
-0.256436
31
0
39
0
210
0
220
0
230
1
0
LINE
5
73
100
AcDbEntity
8
1
62
256
6
ByLayer
370
-1
48
1
60
0
100
AcDbLine
10
63.903927
20
4.448655
30
0
11
64.041357
21
4.300206
31
0
39
0
210
0
220
0
230
1
0
LINE
5
74
100
AcDbEntity
8
1
62
256
6
ByLayer
370
-1
48
1
60
0
100
AcDbLine
10
4.923205
20
-15.276962
30
0
11
4.923205
21
-4.755463
31
0
39
0
210
0
220
0
230
1
0
LINE
5
75
100
AcDbEntity
8
1
62
256
6
ByLayer
370
-1
48
1
60
0
100
AcDbLine
10
64.063604
20
4.542257
30
0
11
64.041357
21
4.300206
31
0
39
0
210
0
220
0
230
1
0
LINE
5
76
100
AcDbEntity
8
1
62
256
6
ByLayer
370
-1
48
1
60
0
100
AcDbLine
10
58.552447
20
-9.30465
30
0
11
65.407607
21
-5.169705
31
0
39
0
210
0
220
0
230
1
0
LINE
5
77
100
AcDbEntity
8
1
62
256
6
ByLayer
370
-1
48
1
60
0
100
AcDbLine
10
7.336603
20
5.068619
30
0
11
7.336603
21
15.175938
31
0
39
0
210
0
220
0
230
1
0
LINE
5
78
100
AcDbEntity
8
1
62
256
6
ByLayer
370
-1
48
1
60
0
100
AcDbLine
10
20.70967
20
10
30
0
11
20.70967
21
-10
31
0
39
0
210
0
220
0
230
1
0
LINE
5
79
100
AcDbEntity
8
1
62
256
6
ByLayer
370
-1
48
1
60
0
100
AcDbLine
10
4.663397
20
-15.175938
30
0
11
4.663397
21
-5.068619
31
0
39
0
210
0
220
0
230
1
0
LINE
5
7A
100
AcDbEntity
8
1
62
256
6
ByLayer
370
-1
48
1
60
0
100
AcDbLine
10
7.076795
20
-15.276962
30
0
11
4.923205
21
-15.276962
31
0
39
0
210
0
220
0
230
1
0
LINE
5
7B
100
AcDbEntity
8
1
62
256
6
ByLayer
370
-1
48
1
60
0
100
AcDbLine
10
4.663397
20
5.068619
30
0
11
4.663397
21
15.175938
31
0
39
0
210
0
220
0
230
1
0
LINE
5
7C
100
AcDbEntity
8
1
62
256
6
ByLayer
370
-1
48
1
60
0
100
AcDbLine
10
14.5
20
-16
30
0
11
14.5
21
16
31
0
39
0
210
0
220
0
230
1
0
LINE
5
7D
100
AcDbEntity
8
1
62
256
6
ByLayer
370
-1
48
1
60
0
100
AcDbLine
10
63.926173
20
4.690706
30
0
11
64.063604
21
4.542257
31
0
39
0
210
0
220
0
230
1
0
LINE
5
7E
100
AcDbEntity
8
1
62
256
6
ByLayer
370
-1
48
1
60
0
100
AcDbLine
10
68.928436
20
8.513367
30
0
11
68.918363
21
8.398232
31
0
39
0
210
0
220
0
230
1
0
LINE
5
7F
100
AcDbEntity
8
1
62
256
6
ByLayer
370
-1
48
1
60
0
100
AcDbLine
10
69.036
20
8.515287
30
0
11
69.046073
21
8.630422
31
0
39
0
210
0
220
0
230
1
0
LINE
5
80
100
AcDbEntity
8
1
62
256
6
ByLayer
370
-1
48
1
60
0
100
AcDbLine
10
71.312923
20
7.50768
30
0
11
71.324414
21
7.639024
31
0
39
0
210
0
220
0
230
1
0
LINE
5
81
100
AcDbEntity
8
1
62
256
6
ByLayer
370
-1
48
1
60
0
100
AcDbLine
10
70.661741
20
8.835305
30
0
11
70.673232
21
8.966649
31
0
39
0
210
0
220
0
230
1
0
LINE
5
82
100
AcDbEntity
8
1
62
256
6
ByLayer
370
-1
48
1
60
0
100
AcDbLine
10
69.726244
20
9.086501
30
0
11
69.737735
21
9.217844
31
0
39
0
210
0
220
0
230
1
0
LINE
5
83
100
AcDbEntity
8
1
62
256
6
ByLayer
370
-1
48
1
60
0
100
AcDbLine
10
68.491774
20
8.253497
30
0
11
68.50325
21
8.384667
31
0
39
0
210
0
220
0
230
1
0
LINE
5
84
100
AcDbEntity
8
1
62
256
6
ByLayer
370
-1
48
1
60
0
100
AcDbLine
10
68.596747
20
6.780547
30
0
11
68.608238
21
6.91189
31
0
39
0
210
0
220
0
230
1
0
LINE
5
85
100
AcDbEntity
8
1
62
256
6
ByLayer
370
-1
48
1
60
0
100
AcDbLine
10
65.386868
20
11.483728
30
0
11
64.687975
21
3.495348
31
0
39
0
210
0
220
0
230
1
0
LINE
5
86
100
AcDbEntity
8
1
62
256
6
ByLayer
370
-1
48
1
60
0
100
AcDbLine
10
74.136461
20
12.896999
30
0
11
66.108302
21
12.201586
31
0
39
0
210
0
220
0
230
1
0
LINE
5
87
100
AcDbEntity
8
1
62
256
6
ByLayer
370
-1
48
1
60
0
100
AcDbLine
10
74.298091
20
4.052357
30
0
11
74.996984
21
12.040738
31
0
39
0
210
0
220
0
230
1
0
LINE
5
88
100
AcDbEntity
8
1
62
256
6
ByLayer
370
-1
48
1
60
0
100
AcDbLine
10
65.548498
20
2.639086
30
0
11
73.576657
21
3.334499
31
0
39
0
210
0
220
0
230
1
0
LINE
5
89
100
AcDbEntity
8
SK1
62
256
6
ByLayer
370
-1
48
1
60
0
100
AcDbLine
10
-0.2
20
10.883485
30
0
11
-0.2
21
5.197043
31
0
39
0
210
0
220
0
230
1
0
LINE
5
8B
100
AcDbEntity
8
SK1
62
256
6
ByLayer
370
-1
48
1
60
0
100
AcDbLine
10
-0.2
20
-5.197043
30
0
11
-0.2
21
-10.883485
31
0
39
0
210
0
220
0
230
1
0
LINE
5
8C
100
AcDbEntity
8
SK1
62
256
6
ByLayer
370
-1
48
1
60
0
100
AcDbLine
10
-1.307107
20
3.2741
30
0
11
-1.307107
21
-3.2741
31
0
39
0
210
0
220
0
230
1
0
LINE
5
8D
100
AcDbEntity
8
2
62
256
6
ByLayer
370
-1
48
1
60
1
100
AcDbLine
10
75
20
0
30
0
11
75.001
21
0.001
31
0
39
0
210
0
220
0
230
1
0
MTEXT
5
10B
100
AcDbEntity
8
SK6
62
256
6
ByLayer
370
-1
48
1
60
0
100
AcDbMText
10
0.980998
20
-26.875
30
0
210
0
220
0
230
1
1
\W00.718;\fsimplex.shx,bigfont.shx;C3-SCLCR-13075-09 
40
3.5
41
0
44
1.084337
50
0
71
7
72
5
7
DEFAULT
0
DIMENSION
5
13F
100
AcDbEntity
8
SK2
62
256
6
ByLayer
370
-3
48
1
60
0
100
AcDbDimension
2
DimnDraft3D1
10
-31.75
20
16
30
0
11
-31.75
21
-4.784211
31
0
70
32
71
5
72
1
41
1
210
0
220
0
230
1
3
Standard
100
AcDbAlignedDimension
13
-2
23
-16
33
0
14
-2
24
16
34
0
50
90
100
AcDbRotatedDimension
1001
ACAD
1000
DSTYLE
1002
{
1070
    74
1070
     0
1070
   279
1070
     0
1070
   172
1070
     1
1070
   173
1070
     1
1070
   340
1005
10C
1070
    77
1070
     1
1070
    73
1070
     0
1070
   171
1070
     4
1070
   274
1070
     4
1070
   177
1070
     2
1070
   176
1070
     2
1070
   178
1070
     7
1070
    78
1070
     8
1070
    41
1041
3.175
1070
   147
1041
2.25
1070
    42
1041
2.0
1070
    44
1041
2.0
1070
   140
1041
4.5
1070
   343
1005
140
1070
   344
1005
140
1002
}
0
DIMENSION
5
152
100
AcDbEntity
8
2
62
256
6
ByLayer
370
-3
48
1
60
0
100
AcDbDimension
2
DimnDraft3D2
10
31.35
20
10
30
0
11
31.35
21
0
31
0
70
32
71
5
72
1
41
1
210
0
220
0
230
1
3
Standard
100
AcDbAlignedDimension
13
16.1
23
10
33
0
14
0
24
0
34
0
50
90
100
AcDbRotatedDimension
1001
ACAD
1000
DSTYLE
1002
{
1070
    74
1070
     0
1070
   279
1070
     0
1070
   172
1070
     1
1070
   173
1070
     1
1070
   340
1005
10C
1070
    75
1070
     1
1070
    76
1070
     1
1070
    77
1070
     1
1070
    73
1070
     0
1070
   171
1070
     4
1070
   274
1070
     4
1070
   177
1070
     2
1070
   176
1070
     2
1070
   178
1070
     7
1070
    78
1070
     8
1070
    41
1041
3.175
1070
   147
1041
2.25
1070
    42
1041
2.0
1070
    44
1041
2.0
1070
   140
1041
4.5
1070
   343
1005
140
1070
   344
1005
140
1002
}
0
DIMENSION
5
160
100
AcDbEntity
8
2
62
256
6
ByLayer
370
-3
48
1
60
0
100
AcDbDimension
2
DimnDraft3D3
10
87.25
20
0
30
0
11
87.25
21
23.155
31
0
70
32
71
5
72
1
41
1
210
0
220
0
230
1
3
Standard
100
AcDbAlignedDimension
13
77
23
12.9
33
0
14
77
24
0
34
0
50
90
100
AcDbRotatedDimension
1001
ACAD
1000
DSTYLE
1002
{
1070
    74
1070
     0
1070
   279
1070
     0
1070
   172
1070
     1
1070
   173
1070
     1
1070
   340
1005
10C
1070
    77
1070
     1
1070
    73
1070
     0
1070
   171
1070
     4
1070
   274
1070
     4
1070
   177
1070
     2
1070
   176
1070
     2
1070
   178
1070
     7
1070
    78
1070
     8
1070
    41
1041
3.175
1070
   147
1041
2.25
1070
    42
1041
2.0
1070
    44
1041
2.0
1070
   140
1041
4.5
1070
   343
1005
140
1070
   344
1005
140
1002
}
0
DIMENSION
5
16E
100
AcDbEntity
8
2
62
256
6
ByLayer
370
-3
48
1
60
0
100
AcDbDimension
2
DimnDraft3D4
10
75
20
40.65
30
0
11
32.336842
21
40.65
31
0
70
32
71
5
72
1
41
1
210
0
220
0
230
1
3
Standard
100
AcDbAlignedDimension
13
0
23
18
33
0
14
75
24
14.9
34
0
50
0
100
AcDbRotatedDimension
1001
ACAD
1000
DSTYLE
1002
{
1070
   279
1070
     0
1070
   172
1070
     1
1070
   173
1070
     1
1070
   340
1005
10C
1070
    77
1070
     1
1070
    73
1070
     0
1070
   171
1070
     4
1070
   274
1070
     4
1070
   177
1070
     2
1070
   176
1070
     2
1070
   178
1070
     7
1070
    78
1070
     8
1070
    41
1041
3.175
1070
   147
1041
2.25
1070
    42
1041
2.0
1070
    44
1041
2.0
1070
   140
1041
4.5
1070
   343
1005
140
1070
   344
1005
140
1002
}
0
DIMENSION
5
17C
100
AcDbEntity
8
2
62
256
6
ByLayer
370
-3
48
1
60
0
100
AcDbDimension
2
DimnDraft3D5
10
75
20
25.65
30
0
11
40.386842
21
25.65
31
0
70
32
71
5
72
1
41
1
210
0
220
0
230
1
3
Standard
100
AcDbAlignedDimension
13
16.1
23
12
33
0
14
75
24
14.9
34
0
50
0
100
AcDbRotatedDimension
1001
ACAD
1000
DSTYLE
1002
{
1070
   279
1070
     0
1070
   172
1070
     1
1070
   173
1070
     1
1070
   340
1005
10C
1070
    77
1070
     1
1070
    73
1070
     0
1070
   171
1070
     4
1070
   274
1070
     4
1070
   177
1070
     2
1070
   176
1070
     2
1070
   178
1070
     7
1070
    78
1070
     8
1070
    41
1041
3.175
1070
   147
1041
2.25
1070
    42
1041
2.0
1070
    44
1041
2.0
1070
   140
1041
4.5
1070
   343
1005
140
1070
   344
1005
140
1002
}
0
DIMENSION
5
18A
100
AcDbEntity
8
2
62
256
6
ByLayer
370
-3
48
1
60
0
100
AcDbDimension
2
DimnDraft3D6
10
122.797803
20
0
30
0
11
99.357107
21
-37.243123
31
0
70
34
71
5
72
1
41
1
210
0
220
0
230
1
3
Standard
100
AcDb2LineAngularDimension
13
74.041287
23
1.941858
33
0
14
69.607179
24
-48.740227
34
0
15
77
25
0
35
0
16
102.534261
26
-31.280028
36
0
40
0
0
ENDSEC
0
SECTION
2
OBJECTS
0
DICTIONARY
5
1bb
330
0
100
AcDbDictionary
280
0
281
1
3
ACAD_GROUP
350
1bc
3
ACAD_MLINESTYLE
350
1bd
0
DICTIONARY
5
1bc
330
0
100
AcDbDictionary
280
0
281
1
0
DICTIONARY
5
1bd
330
0
100
AcDbDictionary
280
0
281
1
3
Standard
350
18
0
MLINESTYLE
5
18
330
1bd
100
AcDbMlineStyle
2
Standard
70
0
3

62
256
51
90
52
90
71
2
49
-0.5
62
256
6
ByLayer
49
0.5
62
256
6
ByLayer
0
RASTERVARIABLES
5
1a9
330

100
AcDbRasterVariables
90
0
70
1
71
1
72
1
0
ENDSEC
0
EOF
