0
SECTION
2
HEADER
9
$ACADVER
1
AC1015
9
$DWGCODEPAGE
3
ANSI_1252
9
$HANDSEED
5
1e1
9
$ANGBASE
50
0
9
$ANGDIR
70
0
9
$ATTMODE
70
1
9
$AUNITS
70
0
9
$AUPREC
70
0
9
$CECOLOR
62
256
9
$CELTSCALE
40
1
9
$CELTYPE
6
ByLayer
9
$CELWEIGHT
370
18
9
$CLAYER
8
0
9
$CMLJUST
70
0
9
$CMLSCALE
40
1
9
$CMLSTYLE
2
Standard
9
$DIMSTYLE
2
Standard
9
$TEXTSIZE
40
0.2
9
$TEXTSTYLE
7
Standard
9
$LUNITS
70
2
9
$LUPREC
70
4
9
$EXTNAMES
290
1
9
$INSUNITS
70
4
9
$LTSCALE
40
1
9
$LWDISPLAY
290
1
9
$PDMODE
70
0
9
$PDSIZE
40
0
9
$PLINEGEN
70
0
0
ENDSEC
0
SECTION
2
CLASSES
0
CLASS
1
RASTERVARIABLES
2
AcDbRasterVariables
3
ISM
90
0
280
0
281
0
0
ENDSEC
0
SECTION
2
TABLES
0
TABLE
2
VPORT
5
1d7
100
AcDbSymbolTable
0
VPORT
5
1
100
AcDbSymbolTableRecord
100
AcDbViewportTableRecord
2
*Active
70
0
10
0
20
0
11
1
21
1
12
-1
22
1
13
0
23
0
14
0.5
24
0.5
15
10
25
10
16
0
26
0
36
1
17
0
27
0
37
0
0
ENDTAB
0
TABLE
2
LTYPE
5
1d8
100
AcDbSymbolTable
0
LTYPE
5
14
100
AcDbSymbolTableRecord
100
AcDbLinetypeTableRecord
70
0
2
ByBlock
3

72
65
73
0
40
0
0
LTYPE
5
15
100
AcDbSymbolTableRecord
100
AcDbLinetypeTableRecord
70
0
2
ByLayer
3

72
65
73
0
40
0
0
LTYPE
5
16
100
AcDbSymbolTableRecord
100
AcDbLinetypeTableRecord
70
0
2
CONTINUOUS
3
Solid line
72
65
73
0
40
0
0
LTYPE
5
6A
100
AcDbSymbolTableRecord
100
AcDbLinetypeTableRecord
70
0
2
CENTER
3
____ _ ____ _ ____ _ ____
72
65
73
4
40
47.5
49
22
74
0
49
-8.5
74
0
49
8.5
74
0
49
-8.5
74
0
0
LTYPE
5
6B
100
AcDbSymbolTableRecord
100
AcDbLinetypeTableRecord
70
0
2
DASHED
3
__ __ __ __ __ __ __ __ __
72
65
73
2
40
25.72
49
12.86
74
0
49
-12.86
74
0
0
ENDTAB
0
TABLE
2
LAYER
5
1d9
100
AcDbSymbolTable
0
LAYER
5
10
100
AcDbSymbolTableRecord
100
AcDbLayerTableRecord
2
0
70
0
62
7
6
CONTINUOUS
290
1
370
-3
390
0
0
LAYER
5
6D
100
AcDbSymbolTableRecord
100
AcDbLayerTableRecord
2
81
70
0
62
-3
6
CONTINUOUS
290
1
370
-3
390
0
0
LAYER
5
6F
100
AcDbSymbolTableRecord
100
AcDbLayerTableRecord
2
80
70
0
62
-6
6
CONTINUOUS
290
1
370
-3
390
0
0
LAYER
5
71
100
AcDbSymbolTableRecord
100
AcDbLayerTableRecord
2
1
70
0
62
4
6
CONTINUOUS
290
1
370
-3
390
0
0
LAYER
5
11E
100
AcDbSymbolTableRecord
100
AcDbLayerTableRecord
2
2
70
0
62
7
6
CONTINUOUS
290
1
370
-3
390
0
0
LAYER
5
1c4
100
AcDbSymbolTableRecord
100
AcDbLayerTableRecord
2
SK1
70
0
62
4
6
CONTINUOUS
290
1
370
-3
390
0
0
LAYER
5
1c5
100
AcDbSymbolTableRecord
100
AcDbLayerTableRecord
2
SK6
70
0
62
5
6
CONTINUOUS
290
1
370
-3
390
0
0
LAYER
5
1c6
100
AcDbSymbolTableRecord
100
AcDbLayerTableRecord
2
SK2
70
0
62
7
6
CONTINUOUS
290
1
370
-3
390
0
0
ENDTAB
0
TABLE
2
STYLE
5
1da
100
AcDbSymbolTable
0
STYLE
5
11
100
AcDbSymbolTableRecord
100
AcDbTextStyleTableRecord
2
Standard
3
txt
70
0
71
0
40
0
41
1
42
0
50
0
0
STYLE
5
119
100
AcDbSymbolTableRecord
100
AcDbTextStyleTableRecord
2
iso_b_vert
3
simplex.shx
70
0
71
0
40
0
41
1
42
0
50
0
0
STYLE
5
11A
100
AcDbSymbolTableRecord
100
AcDbTextStyleTableRecord
2
DWGDirectTextStyle
3
simplex
70
0
71
0
40
0
41
1
42
0
50
0
0
ENDTAB
0
TABLE
2
DIMSTYLE
5
1db
100
AcDbSymbolTable
100
AcDbDimStyleTable
0
DIMSTYLE
105
27
100
AcDbSymbolTableRecord
100
AcDbDimStyleTableRecord
2
Standard
70
0
3
<>
41
0.18
42
0.0625
44
0.18
140
0.18
147
0.09
73
0
74
0
77
1
271
2
275
0
278
52
280
0
340
11
0
ENDTAB
0
TABLE
2
VIEW
5
1dc
100
AcDbSymbolTable
0
ENDTAB
0
TABLE
2
UCS
5
1dd
100
AcDbSymbolTable
0
ENDTAB
0
TABLE
2
APPID
5
1de
100
AcDbSymbolTable
0
APPID
5
12
100
AcDbSymbolTableRecord
100
AcDbRegAppTableRecord
2
ACAD
70
0
0
ENDTAB
0
TABLE
2
BLOCK_RECORD
5
1df
100
AcDbSymbolTable
0
BLOCK_RECORD
5
1F
100
AcDbSymbolTableRecord
100
AcDbBlockTableRecord
2
*Model_Space
340
0
70
0
0
BLOCK_RECORD
5
1B
100
AcDbSymbolTableRecord
100
AcDbBlockTableRecord
2
*Paper_Space
340
0
70
0
0
BLOCK_RECORD
5
23
100
AcDbSymbolTableRecord
100
AcDbBlockTableRecord
2
*Paper_Space0
340
0
70
0
0
BLOCK_RECORD
5
11C
100
AcDbSymbolTableRecord
100
AcDbBlockTableRecord
2
DimnDraft3D1
340
0
70
0
0
BLOCK_RECORD
5
12B
100
AcDbSymbolTableRecord
100
AcDbBlockTableRecord
2
_CLOSED
340
0
70
0
0
BLOCK_RECORD
5
132
100
AcDbSymbolTableRecord
100
AcDbBlockTableRecord
2
DimnDraft3D2
340
0
70
0
0
BLOCK_RECORD
5
141
100
AcDbSymbolTableRecord
100
AcDbBlockTableRecord
2
DimnDraft3D3
340
0
70
0
0
BLOCK_RECORD
5
14F
100
AcDbSymbolTableRecord
100
AcDbBlockTableRecord
2
DimnDraft3D4
340
0
70
0
0
BLOCK_RECORD
5
15D
100
AcDbSymbolTableRecord
100
AcDbBlockTableRecord
2
DimnDraft3D5
340
0
70
0
0
ENDTAB
0
ENDSEC
0
SECTION
2
BLOCKS
0
BLOCK
5
20
100
AcDbEntity
8
0
100
AcDbBlockBegin
2
*Model_Space
70
0
10
0
20
0
30
0
3
*Model_Space
0
ENDBLK
5
21
100
AcDbEntity
8
0
100
AcDbBlockEnd
0
BLOCK
5
1C
100
AcDbEntity
8
0
100
AcDbBlockBegin
2
*Paper_Space
70
0
10
0
20
0
30
0
3
*Paper_Space
0
ENDBLK
5
1D
100
AcDbEntity
8
0
100
AcDbBlockEnd
0
BLOCK
5
24
100
AcDbEntity
8
0
100
AcDbBlockBegin
2
*Paper_Space0
70
0
10
0
20
0
30
0
3
*Paper_Space0
0
ENDBLK
5
25
100
AcDbEntity
8
0
100
AcDbBlockEnd
0
BLOCK
5
128
100
AcDbEntity
8
0
100
AcDbBlockBegin
2
DimnDraft3D1
70
0
10
0
20
0
30
0
3
DimnDraft3D1
0
MTEXT
5
11D
100
AcDbEntity
8
2
62
256
6
ByLayer
370
18
48
1
60
0
100
AcDbMText
10
79.225
20
9.784211
30
0
210
0
220
0
230
1
1
\W0.6740;22
40
3.5
41
0
44
1.084337
50
90
71
7
72
5
7
iso_b_vert
0
LINE
5
11F
100
AcDbEntity
8
2
62
256
6
ByLayer
370
13
48
1
60
0
100
AcDbLine
10
42
20
0
30
0
11
82.1
21
0
31
0
39
0
210
0
220
0
230
1
0
LINE
5
120
100
AcDbEntity
8
2
62
256
6
ByLayer
370
13
48
1
60
0
100
AcDbLine
10
57
20
22
30
0
11
82.1
21
22
31
0
39
0
210
0
220
0
230
1
0
LINE
5
121
100
AcDbEntity
8
2
62
256
6
ByLayer
370
13
48
1
60
0
100
AcDbLine
10
80.1
20
0
30
0
11
80.1
21
22
31
0
39
0
210
0
220
0
230
1
0
LINE
5
122
100
AcDbEntity
8
2
62
256
6
ByLayer
370
13
48
1
60
0
100
AcDbLine
10
80.1
20
0
30
0
11
79.682003
21
3.174998
31
0
39
0
210
0
220
0
230
1
0
LINE
5
123
100
AcDbEntity
8
2
62
256
6
ByLayer
370
13
48
1
60
0
100
AcDbLine
10
80.1
20
0
30
0
11
80.517997
21
3.175002
31
0
39
0
210
0
220
0
230
1
0
LINE
5
124
100
AcDbEntity
8
2
62
256
6
ByLayer
370
13
48
1
60
0
100
AcDbLine
10
79.682003
20
3.174998
30
0
11
80.517997
21
3.175002
31
0
39
0
210
0
220
0
230
1
0
LINE
5
125
100
AcDbEntity
8
2
62
256
6
ByLayer
370
13
48
1
60
0
100
AcDbLine
10
80.1
20
22
30
0
11
80.517997
21
18.825002
31
0
39
0
210
0
220
0
230
1
0
LINE
5
126
100
AcDbEntity
8
2
62
256
6
ByLayer
370
13
48
1
60
0
100
AcDbLine
10
80.1
20
22
30
0
11
79.682003
21
18.824998
31
0
39
0
210
0
220
0
230
1
0
LINE
5
127
100
AcDbEntity
8
2
62
256
6
ByLayer
370
13
48
1
60
0
100
AcDbLine
10
80.517997
20
18.825002
30
0
11
79.682003
21
18.824998
31
0
39
0
210
0
220
0
230
1
0
ENDBLK
5
129
100
AcDbEntity
8
0
100
AcDbBlockEnd
0
BLOCK
5
12C
100
AcDbEntity
8
0
100
AcDbBlockBegin
2
_CLOSED
70
0
10
0
20
0
30
0
3
_CLOSED
0
LINE
5
12E
100
AcDbEntity
8
0
62
256
6
ByLayer
370
-2
48
1
60
0
100
AcDbLine
10
-1
20
0.166667
30
0
11
0
21
0
31
0
39
0
210
0
220
0
230
1
0
LINE
5
12F
100
AcDbEntity
8
0
62
256
6
ByLayer
370
-2
48
1
60
0
100
AcDbLine
10
0
20
0
30
0
11
-1
21
-0.166667
31
0
39
0
210
0
220
0
230
1
0
LINE
5
130
100
AcDbEntity
8
0
62
256
6
ByLayer
370
-2
48
1
60
0
100
AcDbLine
10
-1
20
0.166667
30
0
11
-1
21
-0.166667
31
0
39
0
210
0
220
0
230
1
0
LINE
5
131
100
AcDbEntity
8
0
62
256
6
ByLayer
370
-2
48
1
60
0
100
AcDbLine
10
0
20
0
30
0
11
-1
21
0
31
0
39
0
210
0
220
0
230
1
0
ENDBLK
5
12D
100
AcDbEntity
8
0
100
AcDbBlockEnd
0
BLOCK
5
13E
100
AcDbEntity
8
0
100
AcDbBlockBegin
2
DimnDraft3D2
70
0
10
0
20
0
30
0
3
DimnDraft3D2
0
MTEXT
5
133
100
AcDbEntity
8
SK2
62
256
6
ByLayer
370
18
48
1
60
0
100
AcDbMText
10
26.284211
20
45.475
30
0
210
0
220
0
230
1
1
\W0.6740;55
40
3.5
41
0
44
1.084337
50
0
71
7
72
5
7
iso_b_vert
0
LINE
5
135
100
AcDbEntity
8
SK2
62
256
6
ByLayer
370
13
48
1
60
0
100
AcDbLine
10
0
20
2
30
0
11
0
21
46.6
31
0
39
0
210
0
220
0
230
1
0
LINE
5
136
100
AcDbEntity
8
SK2
62
256
6
ByLayer
370
13
48
1
60
0
100
AcDbLine
10
55
20
24
30
0
11
55
21
46.6
31
0
39
0
210
0
220
0
230
1
0
LINE
5
137
100
AcDbEntity
8
SK2
62
256
6
ByLayer
370
13
48
1
60
0
100
AcDbLine
10
0
20
44.6
30
0
11
55
21
44.6
31
0
39
0
210
0
220
0
230
1
0
LINE
5
138
100
AcDbEntity
8
SK2
62
256
6
ByLayer
370
13
48
1
60
0
100
AcDbLine
10
0
20
44.6
30
0
11
3.174998
21
45.017997
31
0
39
0
210
0
220
0
230
1
0
LINE
5
139
100
AcDbEntity
8
SK2
62
256
6
ByLayer
370
13
48
1
60
0
100
AcDbLine
10
0
20
44.6
30
0
11
3.175002
21
44.182003
31
0
39
0
210
0
220
0
230
1
0
LINE
5
13A
100
AcDbEntity
8
SK2
62
256
6
ByLayer
370
13
48
1
60
0
100
AcDbLine
10
3.174998
20
45.017997
30
0
11
3.175002
21
44.182003
31
0
39
0
210
0
220
0
230
1
0
LINE
5
13B
100
AcDbEntity
8
SK2
62
256
6
ByLayer
370
13
48
1
60
0
100
AcDbLine
10
55
20
44.6
30
0
11
51.825002
21
44.182003
31
0
39
0
210
0
220
0
230
1
0
LINE
5
13C
100
AcDbEntity
8
SK2
62
256
6
ByLayer
370
13
48
1
60
0
100
AcDbLine
10
55
20
44.6
30
0
11
51.824998
21
45.017997
31
0
39
0
210
0
220
0
230
1
0
LINE
5
13D
100
AcDbEntity
8
SK2
62
256
6
ByLayer
370
13
48
1
60
0
100
AcDbLine
10
51.825002
20
44.182003
30
0
11
51.824998
21
45.017997
31
0
39
0
210
0
220
0
230
1
0
ENDBLK
5
13F
100
AcDbEntity
8
0
100
AcDbBlockEnd
0
BLOCK
5
14C
100
AcDbEntity
8
0
100
AcDbBlockBegin
2
DimnDraft3D3
70
0
10
0
20
0
30
0
3
DimnDraft3D3
0
MTEXT
5
142
100
AcDbEntity
8
2
62
256
6
ByLayer
370
18
48
1
60
0
100
AcDbMText
10
46.721711
20
-28.225
30
0
210
0
220
0
230
1
1
\W0.5321;15
40
3.5
41
0
44
1.084337
50
0
71
7
72
5
7
iso_b_vert
0
LINE
5
143
100
AcDbEntity
8
2
62
256
6
ByLayer
370
13
48
1
60
0
100
AcDbLine
10
55
20
20
30
0
11
55
21
-31.1
31
0
39
0
210
0
220
0
230
1
0
LINE
5
144
100
AcDbEntity
8
2
62
256
6
ByLayer
370
13
48
1
60
0
100
AcDbLine
10
40
20
-2
30
0
11
40
21
-31.1
31
0
39
0
210
0
220
0
230
1
0
LINE
5
145
100
AcDbEntity
8
2
62
256
6
ByLayer
370
13
48
1
60
0
100
AcDbLine
10
55
20
-29.1
30
0
11
40
21
-29.1
31
0
39
0
210
0
220
0
230
1
0
LINE
5
146
100
AcDbEntity
8
2
62
256
6
ByLayer
370
13
48
1
60
0
100
AcDbLine
10
55
20
-29.1
30
0
11
51.825002
21
-29.517997
31
0
39
0
210
0
220
0
230
1
0
LINE
5
147
100
AcDbEntity
8
2
62
256
6
ByLayer
370
13
48
1
60
0
100
AcDbLine
10
55
20
-29.1
30
0
11
51.824998
21
-28.682003
31
0
39
0
210
0
220
0
230
1
0
LINE
5
148
100
AcDbEntity
8
2
62
256
6
ByLayer
370
13
48
1
60
0
100
AcDbLine
10
51.825002
20
-29.517997
30
0
11
51.824998
21
-28.682003
31
0
39
0
210
0
220
0
230
1
0
LINE
5
149
100
AcDbEntity
8
2
62
256
6
ByLayer
370
13
48
1
60
0
100
AcDbLine
10
40
20
-29.1
30
0
11
43.174998
21
-28.682003
31
0
39
0
210
0
220
0
230
1
0
LINE
5
14A
100
AcDbEntity
8
2
62
256
6
ByLayer
370
13
48
1
60
0
100
AcDbLine
10
40
20
-29.1
30
0
11
43.175002
21
-29.517997
31
0
39
0
210
0
220
0
230
1
0
LINE
5
14B
100
AcDbEntity
8
2
62
256
6
ByLayer
370
13
48
1
60
0
100
AcDbLine
10
43.174998
20
-28.682003
30
0
11
43.175002
21
-29.517997
31
0
39
0
210
0
220
0
230
1
0
ENDBLK
5
14D
100
AcDbEntity
8
0
100
AcDbBlockEnd
0
BLOCK
5
15A
100
AcDbEntity
8
0
100
AcDbBlockBegin
2
DimnDraft3D4
70
0
10
0
20
0
30
0
3
DimnDraft3D4
0
MTEXT
5
150
100
AcDbEntity
8
SK2
62
256
6
ByLayer
370
18
48
1
60
0
100
AcDbMText
10
-29.475
20
-1.215789
30
0
210
0
220
0
230
1
1
\W0.6740;32
40
3.5
41
0
44
1.084337
50
90
71
7
72
5
7
iso_b_vert
0
LINE
5
151
100
AcDbEntity
8
SK2
62
256
6
ByLayer
370
13
48
1
60
0
100
AcDbLine
10
-2
20
16
30
0
11
-30.6
21
16
31
0
39
0
210
0
220
0
230
1
0
LINE
5
152
100
AcDbEntity
8
SK2
62
256
6
ByLayer
370
13
48
1
60
0
100
AcDbLine
10
-2
20
-16
30
0
11
-30.6
21
-16
31
0
39
0
210
0
220
0
230
1
0
LINE
5
153
100
AcDbEntity
8
SK2
62
256
6
ByLayer
370
13
48
1
60
0
100
AcDbLine
10
-28.6
20
16
30
0
11
-28.6
21
-16
31
0
39
0
210
0
220
0
230
1
0
LINE
5
154
100
AcDbEntity
8
SK2
62
256
6
ByLayer
370
13
48
1
60
0
100
AcDbLine
10
-28.6
20
16
30
0
11
-28.182003
21
12.825002
31
0
39
0
210
0
220
0
230
1
0
LINE
5
155
100
AcDbEntity
8
SK2
62
256
6
ByLayer
370
13
48
1
60
0
100
AcDbLine
10
-28.6
20
16
30
0
11
-29.017997
21
12.824998
31
0
39
0
210
0
220
0
230
1
0
LINE
5
156
100
AcDbEntity
8
SK2
62
256
6
ByLayer
370
13
48
1
60
0
100
AcDbLine
10
-28.182003
20
12.825002
30
0
11
-29.017997
21
12.824998
31
0
39
0
210
0
220
0
230
1
0
LINE
5
157
100
AcDbEntity
8
SK2
62
256
6
ByLayer
370
13
48
1
60
0
100
AcDbLine
10
-28.6
20
-16
30
0
11
-29.017997
21
-12.825002
31
0
39
0
210
0
220
0
230
1
0
LINE
5
158
100
AcDbEntity
8
SK2
62
256
6
ByLayer
370
13
48
1
60
0
100
AcDbLine
10
-28.6
20
-16
30
0
11
-28.182003
21
-12.824998
31
0
39
0
210
0
220
0
230
1
0
LINE
5
159
100
AcDbEntity
8
SK2
62
256
6
ByLayer
370
13
48
1
60
0
100
AcDbLine
10
-29.017997
20
-12.825002
30
0
11
-28.182003
21
-12.824998
31
0
39
0
210
0
220
0
230
1
0
ENDBLK
5
15B
100
AcDbEntity
8
0
100
AcDbBlockEnd
0
BLOCK
5
168
100
AcDbEntity
8
0
100
AcDbBlockBegin
2
DimnDraft3D5
70
0
10
0
20
0
30
0
3
DimnDraft3D5
0
MTEXT
5
15E
100
AcDbEntity
8
2
62
256
6
ByLayer
370
18
48
1
60
0
100
AcDbMText
10
72.225
20
8.054211
30
0
210
0
220
0
230
1
1
\W0.5404;3
40
3.5
41
0
44
1.084337
50
90
71
7
72
5
7
iso_b_vert
0
LINE
5
15F
100
AcDbEntity
8
2
62
256
6
ByLayer
370
13
48
1
60
0
100
AcDbLine
10
57
20
22
30
0
11
75.1
21
22
31
0
39
0
210
0
220
0
230
1
0
LINE
5
160
100
AcDbEntity
8
2
62
256
6
ByLayer
370
13
48
1
60
0
100
AcDbLine
10
57
20
19
30
0
11
75.1
21
19
31
0
39
0
210
0
220
0
230
1
0
LINE
5
161
100
AcDbEntity
8
2
62
256
6
ByLayer
370
13
48
1
60
0
100
AcDbLine
10
73.1
20
7.179211
30
0
11
73.1
21
30.75
31
0
39
0
210
0
220
0
230
1
0
LINE
5
162
100
AcDbEntity
8
2
62
256
6
ByLayer
370
13
48
1
60
0
100
AcDbLine
10
73.1
20
22
30
0
11
72.682003
21
25.174998
31
0
39
0
210
0
220
0
230
1
0
LINE
5
163
100
AcDbEntity
8
2
62
256
6
ByLayer
370
13
48
1
60
0
100
AcDbLine
10
73.1
20
22
30
0
11
73.517997
21
25.175002
31
0
39
0
210
0
220
0
230
1
0
LINE
5
164
100
AcDbEntity
8
2
62
256
6
ByLayer
370
13
48
1
60
0
100
AcDbLine
10
72.682003
20
25.174998
30
0
11
73.517997
21
25.175002
31
0
39
0
210
0
220
0
230
1
0
LINE
5
165
100
AcDbEntity
8
2
62
256
6
ByLayer
370
13
48
1
60
0
100
AcDbLine
10
73.1
20
19
30
0
11
73.517997
21
15.825002
31
0
39
0
210
0
220
0
230
1
0
LINE
5
166
100
AcDbEntity
8
2
62
256
6
ByLayer
370
13
48
1
60
0
100
AcDbLine
10
73.1
20
19
30
0
11
72.682003
21
15.824998
31
0
39
0
210
0
220
0
230
1
0
LINE
5
167
100
AcDbEntity
8
2
62
256
6
ByLayer
370
13
48
1
60
0
100
AcDbLine
10
73.517997
20
15.825002
30
0
11
72.682003
21
15.824998
31
0
39
0
210
0
220
0
230
1
0
ENDBLK
5
169
100
AcDbEntity
8
0
100
AcDbBlockEnd
0
ENDSEC
0
SECTION
2
ENTITIES
0
ARC
5
CD
100
AcDbEntity
8
1
62
256
6
ByLayer
370
13
48
1
60
0
100
AcDbCircle
39
0
10
-15.279208
20
17.2
30
0
40
1.2
210
0
220
0
230
-1
100
AcDbArc
50
240.863381
51
270
0
ARC
5
CE
100
AcDbEntity
8
1
62
256
6
ByLayer
370
13
48
1
60
0
100
AcDbCircle
39
0
10
19.021969
20
-13.5
30
0
40
4
210
0
220
0
230
1
100
AcDbArc
50
90
51
90.237507
0
ARC
5
CF
100
AcDbEntity
8
1
62
256
6
ByLayer
370
13
48
1
60
0
100
AcDbCircle
39
0
10
24.6
20
16.65
30
0
40
0.5
210
0
220
0
230
1
100
AcDbArc
50
275.73917
51
0
0
ARC
5
D0
100
AcDbEntity
8
1
62
256
6
ByLayer
370
18
48
1
60
0
100
AcDbCircle
39
0
10
54.8
20
21.8
30
0
40
0.2
210
0
220
0
230
1
100
AcDbArc
50
0
51
92.5
0
ARC
5
D1
100
AcDbEntity
8
1
62
256
6
ByLayer
370
18
48
1
60
0
100
AcDbCircle
39
0
10
-48.832089
20
20.5
30
0
40
0.499999999990696
210
0
220
0
230
-1
100
AcDbArc
50
160
51
200
0
ARC
5
D2
100
AcDbEntity
8
1
62
256
6
ByLayer
370
18
48
1
60
0
100
AcDbCircle
39
0
10
-35.2
20
21.8
30
0
40
0.2
210
0
220
0
230
-1
100
AcDbArc
50
0
51
92.5
0
ARC
5
D3
100
AcDbEntity
8
1
62
256
6
ByLayer
370
18
48
1
60
0
100
AcDbCircle
39
0
10
-54.8
20
19.2
30
0
40
0.2
210
0
220
0
230
-1
100
AcDbArc
50
180
51
272.5
0
ELLIPSE
5
D4
100
AcDbEntity
8
1
62
256
6
ByLayer
370
13
48
1
60
0
100
AcDbEllipse
10
47.565216
20
20.5
30
0
11
3.2319535310932E-16
21
1.14092468943064
31
0
210
0
220
0
230
1
40
0.775497
41
-1.93877420639901
42
-1.20281844719078
0
ELLIPSE
5
D5
100
AcDbEntity
8
1
62
256
6
ByLayer
370
13
48
1
60
0
100
AcDbEllipse
10
46.998043
20
20.5
30
0
11
1.16156599013738
21
1.17392395468825E-15
31
0
210
0
220
0
230
-1
40
0.516544
41
0
42
6.28318530717959
0
ELLIPSE
5
D6
100
AcDbEntity
8
1
62
256
6
ByLayer
370
13
48
1
60
0
100
AcDbEllipse
10
15.13963
20
0
30
0
11
-9.79685083033502E-16
21
15.9999999996015
31
0
210
0
220
0
230
-1
40
0.008727
41
-1.85345118894402
42
-1.28814146464577
0
ELLIPSE
5
D7
100
AcDbEntity
8
1
62
256
6
ByLayer
370
13
48
1
60
0
100
AcDbEllipse
10
-0.928203
20
0
30
0
11
7.49393430382603
21
15.7933993222001
31
0
210
0
220
0
230
-1
40
0.341999
41
0.16146657119773
42
1.08757920120049
0
ELLIPSE
5
D8
100
AcDbEntity
8
1
62
256
6
ByLayer
370
13
48
1
60
0
100
AcDbEllipse
10
12.928203
20
0
30
0
11
7.49393430382504
21
15.7933993222003
31
0
210
0
220
0
230
-1
40
0.341999
41
-2.98012608239206
42
-2.05401345238925
0
ELLIPSE
5
D9
100
AcDbEntity
8
1
62
256
6
ByLayer
370
13
48
1
60
0
100
AcDbEllipse
10
-0.928203
20
0
30
0
11
7.49393430382559
21
-15.7933993221996
31
0
210
0
220
0
230
-1
40
0.341999
41
-1.08757920120052
42
-0.161466571197725
0
ELLIPSE
5
DA
100
AcDbEntity
8
1
62
256
6
ByLayer
370
13
48
1
60
0
100
AcDbEllipse
10
12.928203
20
0
30
0
11
7.49393430382456
21
-15.7933993221997
31
0
210
0
220
0
230
-1
40
0.341999
41
2.05401345238923
42
2.98012608239205
0
ELLIPSE
5
DB
100
AcDbEntity
8
1
62
256
6
ByLayer
370
13
48
1
60
0
100
AcDbEllipse
10
37.128821
20
19.325
30
0
11
-2.78951487299376
21
3.41605763755018E-16
31
0
210
0
220
0
230
1
40
0.573576
41
0
42
1.5707963267949
0
ELLIPSE
5
DC
100
AcDbEntity
8
1
62
256
6
ByLayer
370
18
48
1
60
0
100
AcDbEllipse
10
49.168406
20
21.476449
30
0
11
0.148598737940782
21
0.0204551975397926
31
0
210
0
220
0
230
-1
40
1
41
2.92932101834023
42
-3.00479843854824
0
ELLIPSE
5
DD
100
AcDbEntity
8
1
62
256
6
ByLayer
370
18
48
1
60
0
100
AcDbEllipse
10
49.168406
20
19.523551
30
0
11
0.148598737940782
21
-0.0204551975397924
31
0
210
0
220
0
230
-1
40
1
41
3.00479843854824
42
-2.92932101834023
0
POINT
5
6C
100
AcDbEntity
8
81
62
256
6
ByLayer
370
18
48
1
60
0
100
AcDbPoint
10
55
20
22
30
0
39
0
210
0
220
0
230
1
50
360
0
POINT
5
6E
100
AcDbEntity
8
80
62
256
6
ByLayer
370
18
48
1
60
0
100
AcDbPoint
10
0
20
0
30
0
39
0
210
0
220
0
230
1
50
360
0
SPLINE
5
DE
100
AcDbEntity
8
SK1
62
256
6
ByLayer
370
13
48
1
60
0
100
AcDbSpline
70
4
71
2
72
6
73
3
40
0
40
0
40
0
40
1
40
1
40
1
41
1
10
-18
20
-10.607592753875
30
0
41
1
10
-9.74999999580729
20
-10.8147118141342
30
0
41
1
10
-1.5
20
-11.0218291766808
30
0
0
SPLINE
5
DF
100
AcDbEntity
8
SK1
62
256
6
ByLayer
370
13
48
1
60
0
100
AcDbSpline
70
4
71
2
72
6
73
3
40
0
40
0
40
0
40
1
40
1
40
1
41
1
10
-1.5
20
11.0218290347139
30
0
41
1
10
-9.74999999580731
20
10.8147116728235
30
0
41
1
10
-18
20
10.6075926131751
30
0
0
SPLINE
5
E0
100
AcDbEntity
8
SK1
62
256
6
ByLayer
370
13
48
1
60
0
100
AcDbSpline
70
4
71
2
72
6
73
3
40
0
40
0
40
0
40
1
40
1
40
1
41
1
10
-19
20
-10.0329645549392
30
0
41
1
10
-18.4999993685751
20
-10.3214765556861
30
0
41
1
10
-18
20
-10.6099829102617
30
0
0
SPLINE
5
E1
100
AcDbEntity
8
SK1
62
256
6
ByLayer
370
13
48
1
60
0
100
AcDbSpline
70
4
71
2
72
6
73
3
40
0
40
0
40
0
40
1
40
1
40
1
41
1
10
-18
20
10.6099827775057
30
0
41
1
10
-18.4999993686076
20
10.3214764228909
30
0
41
1
10
-19
20
10.0329644221717
30
0
0
SPLINE
5
E2
100
AcDbEntity
8
SK1
62
256
6
ByLayer
370
13
48
1
60
0
100
AcDbSpline
70
4
71
3
72
13
73
9
40
0
40
0
40
0
40
0
40
0.239519409344954
40
0.368436717937889
40
0.500075274086367
40
0.631702862900131
40
0.760587757609288
40
1
40
1
40
1
40
1
41
1
10
-1.2950399779393
20
10.8302906518511
30
0
41
1
10
-1.32110811439466
20
10.8298878106463
30
0
41
1
10
-1.35883625148526
20
10.8360574938784
30
0
41
1
10
-1.40627518083028
20
10.859091779441
30
0
41
1
10
-1.43886259270593
20
10.8842489053808
30
0
41
1
10
-1.46563525678505
20
10.9155177526731
30
0
41
1
10
-1.49103252451872
20
10.9617179528093
30
0
41
1
10
-1.49909162766022
20
10.9990755987901
30
0
41
1
10
-1.5
20
11.0251228679297
30
0
0
SPLINE
5
E3
100
AcDbEntity
8
SK1
62
256
6
ByLayer
370
13
48
1
60
0
100
AcDbSpline
70
4
71
3
72
13
73
9
40
0
40
0
40
0
40
0
40
0.239418216240478
40
0.368302331661132
40
0.499928754022108
40
0.631568038325907
40
0.760485869348366
40
1
40
1
40
1
40
1
41
1
10
-1.5
20
-11.0251229634028
30
0
41
1
10
-1.49909191796948
20
-10.9990761096856
30
0
41
1
10
-1.49103287968461
20
-10.9617189548704
30
0
41
1
10
-1.46563532904142
20
-10.9155178559453
30
0
41
1
10
-1.43886232936765
20
-10.8842487422284
30
0
41
1
10
-1.40627519739928
20
-10.8590919385496
30
0
41
1
10
-1.35883704267306
20
-10.8360578591166
30
0
41
1
10
-1.32110848256454
20
-10.8298881386429
30
0
41
1
10
-1.2950399779393
20
-10.8302907478373
30
0
0
SPLINE
5
E4
100
AcDbEntity
8
SK1
62
256
6
ByLayer
370
13
48
1
60
0
100
AcDbSpline
70
4
71
3
72
8
73
4
40
0
40
0
40
0
40
0
40
1
40
1
40
1
40
1
41
1
10
-1.31543506509499
20
3.31204737779191
30
0
41
1
10
-1.3084940853183
20
3.34178487516777
30
0
41
1
10
-1.30169623454367
20
3.37164876172554
30
0
41
1
10
-1.29503997793927
20
3.40161292972357
30
0
0
SPLINE
5
E5
100
AcDbEntity
8
SK1
62
256
6
ByLayer
370
13
48
1
60
0
100
AcDbSpline
70
4
71
3
72
32
73
28
40
0
40
0
40
0
40
0
40
0.234684261976194
40
0.234684261976194
40
0.348361654478704
40
0.348361654478704
40
0.38828287366443
40
0.38828287366443
40
0.428640259988402
40
0.428640259988402
40
0.446531340707995
40
0.446531340707995
40
0.46178704472878
40
0.46178704472878
40
0.472436918420036
40
0.472436918420036
40
0.483126928721232
40
0.483126928721232
40
0.496698906764343
40
0.496698906764343
40
0.520507652640363
40
0.520507652640363
40
0.596306394907747
40
0.596306394907747
40
0.939869450450622
40
0.939869450450622
40
1
40
1
40
1
40
1
41
1
10
-1.31543506509499
20
-3.31204600014951
30
0
41
1
10
-1.32893238660856
20
-3.25421882997398
30
0
41
1
10
-1.343558796286
20
-3.19678036801619
30
0
41
1
10
-1.36981668623915
20
-3.11480234743343
30
0
41
1
10
-1.3790811266627
20
-3.08844302825827
30
0
41
1
10
-1.39410000150988
20
-3.0552471091751
30
0
41
1
10
-1.39825515114947
20
-3.04683139978442
30
0
41
1
10
-1.40744013157325
20
-3.03092633348942
30
0
41
1
10
-1.412483387511
20
-3.02331055838153
30
0
41
1
10
-1.42104470873161
20
-3.01444691763069
30
0
41
1
10
-1.42388428770926
20
-3.01200316638372
30
0
41
1
10
-1.42960772890066
20
-3.0086696311358
30
0
41
1
10
-1.4324814168601
20
-3.0075858671008
30
0
41
1
10
-1.4375997836967
20
-3.00725807173117
30
0
41
1
10
-1.43981857045927
20
-3.00757652239244
30
0
41
1
10
-1.44414537374561
20
-3.00926961951748
30
0
41
1
10
-1.44630176453481
20
-3.01067112756525
30
0
41
1
10
-1.4507797194174
20
-3.01469802776816
30
0
41
1
10
-1.45306667342629
20
-3.01758589787721
30
0
41
1
10
-1.45860172249979
20
-3.02614271079284
30
0
41
1
10
-1.46144813218245
20
-3.03239945973192
30
0
41
1
10
-1.4715652000524
20
-3.05873512386901
30
0
41
1
10
-1.47595142428835
20
-3.08032205392721
30
0
41
1
10
-1.49603914243229
20
-3.19664641835908
30
0
41
1
10
-1.49803585788607
20
-3.29188422241913
30
0
41
1
10
-1.49975607766783
20
-3.40131696134552
30
0
41
1
10
-1.49991842293903
20
-3.41763054375733
30
0
41
1
10
-1.5
20
-3.43390791500585
30
0
0
SPLINE
5
E6
100
AcDbEntity
8
SK1
62
256
6
ByLayer
370
13
48
1
60
0
100
AcDbSpline
70
4
71
3
72
10
73
6
40
0
40
0
40
0
40
0
40
0.5
40
0.5
40
1
40
1
40
1
40
1
41
1
10
-1.5
20
-3.43390791500588
30
0
41
1
10
-1.7169249683698
20
-2.37752637479556
30
0
41
1
10
-1.93485042889137
20
-1.20950788444222
30
0
41
1
10
-1.93573790230081
20
1.20204294303988
30
0
41
1
10
-1.71715856246283
20
2.37639193543936
30
0
41
1
10
-1.49999999999957
20
3.43390926803013
30
0
0
SPLINE
5
E7
100
AcDbEntity
8
SK1
62
256
6
ByLayer
370
13
48
1
60
0
100
AcDbSpline
70
4
71
3
72
24
73
20
40
0
40
0
40
0
40
0
40
0.0961745797006293
40
0.0961745797006293
40
0.194283388716264
40
0.194283388716264
40
0.224865974099251
40
0.224865974099251
40
0.255924800747818
40
0.255924800747818
40
0.283007420751334
40
0.283007420751334
40
0.322155407812284
40
0.322155407812284
40
0.3966358952527
40
0.3966358952527
40
0.655257204705547
40
0.655257204705547
40
1
40
1
40
1
40
1
41
1
10
-0.194976888875288
20
-4.37579839097887
30
0
41
1
10
-0.225778603393707
20
-4.43247910089602
30
0
41
1
10
-0.260015938127083
20
-4.48781319119914
30
0
41
1
10
-0.341702551245703
20
-4.59153420481002
30
0
41
1
10
-0.390118921162383
20
-4.64237259472065
30
0
41
1
10
-0.473016748626321
20
-4.68771235181498
30
0
41
1
10
-0.494887129060544
20
-4.69691757833218
30
0
41
1
10
-0.541277938016208
20
-4.70885491730422
30
0
41
1
10
-0.566511484960415
20
-4.71148681970905
30
0
41
1
10
-0.612595492696869
20
-4.70858984525526
30
0
41
1
10
-0.634102058640849
20
-4.70407498906408
30
0
41
1
10
-0.682980774672473
20
-4.68755425299921
30
0
41
1
10
-0.709628474198922
20
-4.67305795132461
30
0
41
1
10
-0.778816689935098
20
-4.62544783848193
30
0
41
1
10
-0.816326813882284
20
-4.58672309278137
30
0
41
1
10
-0.962957354385878
20
-4.40775966937633
30
0
41
1
10
-1.03461938473916
20
-4.2457367277562
30
0
41
1
10
-1.18088300049376
20
-3.86444045923261
30
0
41
1
10
-1.24300370483729
20
-3.63586143768137
30
0
41
1
10
-1.2950399779393
20
-3.40161170366483
30
0
0
SPLINE
5
E8
100
AcDbEntity
8
SK1
62
256
6
ByLayer
370
13
48
1
60
0
100
AcDbSpline
70
4
71
3
72
8
73
4
40
0
40
0
40
0
40
0
40
1
40
1
40
1
40
1
41
1
10
-1.29503997793932
20
-3.40161170366457
30
0
41
1
10
-1.30169623417879
20
-3.3716474852321
30
0
41
1
10
-1.30849408485741
20
-3.3417835480756
30
0
41
1
10
-1.31543506509502
20
-3.31204600014948
30
0
0
SPLINE
5
E9
100
AcDbEntity
8
SK1
62
256
6
ByLayer
370
13
48
1
60
0
100
AcDbSpline
70
4
71
3
72
17
73
13
40
0
40
0
40
0
40
0
40
0.0457689714904902
40
0.114047078934366
40
0.182325186378243
40
0.318881401265995
40
0.455437616153748
40
0.5919938310415
40
0.728550045929253
40
0.865106260817005
40
0.933384368260882
40
1
40
1
40
1
40
1
41
1
10
-1.5
20
-3.43390791500582
30
0
41
1
10
-1.5
20
-3.64663887345904
30
0
41
1
10
-1.5
20
-4.16680079382431
30
0
41
1
10
-1.5
20
-4.95838595424942
30
0
41
1
10
-1.5
20
-6.07164761580376
30
0
41
1
10
-1.5
20
-7.32680507487891
30
0
41
1
10
-1.5
20
-8.60740509388052
30
0
41
1
10
-1.5
20
-9.65050499182064
30
0
41
1
10
-1.5
20
-10.4366160019974
30
0
41
1
10
-1.5
20
-10.8518854949361
30
0
41
1
10
-1.5
20
-11.0128506934053
30
0
41
1
10
-1.50000000000003
20
-11.0305320513714
30
0
41
1
10
-1.50000000000003
20
-11.0218290119059
30
0
0
SPLINE
5
EA
100
AcDbEntity
8
SK1
62
256
6
ByLayer
370
13
48
1
60
0
100
AcDbSpline
70
4
71
3
72
35
73
31
40
0
40
0
40
0
40
0
40
0.0158969531549387
40
0.0443712395863052
40
0.101319812449038
40
0.158268385311772
40
0.215216958174505
40
0.272165531037238
40
0.329114103899971
40
0.357588390331338
40
0.386062676762704
40
0.414536963194071
40
0.443011249625438
40
0.471485536056804
40
0.485722679272488
40
0.499959822488171
40
0.514196965703854
40
0.528434108919537
40
0.556908395350904
40
0.585382681782271
40
0.613856968213637
40
0.642331254645004
40
0.670805541076371
40
0.727754113939104
40
0.784702686801837
40
0.84165125966457
40
0.898599832527303
40
0.955548405390036
40
0.984022691821403
40
1
40
1
40
1
40
1
41
1
10
-18
20
10.6092651409259
30
0
41
1
10
-18
20
10.6060349463571
30
0
41
1
10
-18
20
10.5825021069607
30
0
41
1
10
-18
20
10.4427418173596
30
0
41
1
10
-18
20
10.0398013894459
30
0
41
1
10
-18
20
9.27403601894571
30
0
41
1
10
-18
20
8.25699665980406
30
0
41
1
10
-18
20
7.00895321986485
30
0
41
1
10
-18
20
5.78965132899592
30
0
41
1
10
-18
20
4.70769937196638
30
0
41
1
10
-18
20
3.84817166067384
30
0
41
1
10
-18
20
2.9411794741566
30
0
41
1
10
-18
20
1.99095585453037
30
0
41
1
10
-18
20
1.17129189084346
30
0
41
1
10
-18
20
0.50159905970753
30
0
41
1
10
-18
20
7.85939847E-08
30
0
41
1
10
-18
20
-0.501599044412444
30
0
41
1
10
-18
20
-1.17129192458177
30
0
41
1
10
-18
20
-1.99095571595879
30
0
41
1
10
-18
20
-2.94117931205884
30
0
41
1
10
-18
20
-3.84817175180618
30
0
41
1
10
-18
20
-4.70769924070137
30
0
41
1
10
-18
20
-5.78965120402762
30
0
41
1
10
-18
20
-7.00895314702166
30
0
41
1
10
-18
20
-8.25699691773568
30
0
41
1
10
-18
20
-9.27403581023771
30
0
41
1
10
-18
20
-10.0398019205168
30
0
41
1
10
-18
20
-10.4427418393662
30
0
41
1
10
-18
20
-10.5826132731819
30
0
41
1
10
-18
20
-10.6061202352253
30
0
41
1
10
-18
20
-10.6093138589359
30
0
0
SPLINE
5
EB
100
AcDbEntity
8
SK1
62
256
6
ByLayer
370
13
48
1
60
0
100
AcDbSpline
70
4
71
3
72
24
73
20
40
0
40
0
40
0
40
0
40
0.0962392347060708
40
0.0962392347060708
40
0.194419571814973
40
0.194419571814973
40
0.224980323085376
40
0.224980323085376
40
0.25601656558498
40
0.25601656558498
40
0.283076636965131
40
0.283076636965131
40
0.322241448517725
40
0.322241448517725
40
0.396807099691422
40
0.396807099691422
40
0.65607894767341
40
0.65607894767341
40
1
40
1
40
1
40
1
41
1
10
-0.194976888875288
20
10.8215956059619
30
0
41
1
10
-0.225800270974958
20
10.8153713475797
30
0
41
1
10
-0.260059369691788
20
10.808546539551
30
0
41
1
10
-0.341803934200897
20
10.7942702716737
30
0
41
1
10
-0.390260016176114
20
10.786425926963
30
0
41
1
10
-0.473222837684318
20
10.7780887432033
30
0
41
1
10
-0.495087626886004
20
10.7762370295384
30
0
41
1
10
-0.541459979792222
20
10.7733404617968
30
0
41
1
10
-0.566679982514756
20
10.7722927243579
30
0
41
1
10
-0.61272866991564
20
10.7714551070537
30
0
41
1
10
-0.634214108805509
20
10.7715049109724
30
0
41
1
10
-0.683080106698895
20
10.7724623164841
30
0
41
1
10
-0.709729978200244
20
10.7737217298434
30
0
41
1
10
-0.778953436207445
20
10.7781755666156
30
0
41
1
10
-0.816482927716152
20
10.7820991609815
30
0
41
1
10
-0.963349723037652
20
10.7994211291879
30
0
41
1
10
-1.03512095929034
20
10.8126881790273
30
0
41
1
10
-1.18120463075834
20
10.8317285533686
30
0
41
1
10
-1.24312046576111
20
10.834837438425
30
0
41
1
10
-1.2950399779393
20
10.8279545871449
30
0
0
SPLINE
5
EC
100
AcDbEntity
8
SK1
62
256
6
ByLayer
370
13
48
1
60
0
100
AcDbSpline
70
4
71
3
72
17
73
13
40
0
40
0
40
0
40
0
40
0.0509999824511551
40
0.12074833646386
40
0.260245044489269
40
0.399741752514678
40
0.539238460540088
40
0.678735168565497
40
0.818231876590906
40
0.887980230603611
40
0.957728584616315
40
1
40
1
40
1
40
1
41
1
10
-1.2950399779393
20
10.8302903739747
30
0
41
1
10
-1.29503997793935
20
10.8303490939174
30
0
41
1
10
-1.2950399779393
20
10.808452020191
30
0
41
1
10
-1.2950399779393
20
10.6595078070701
30
0
41
1
10
-1.2950399779393
20
10.2500351152373
30
0
41
1
10
-1.2950399779393
20
9.47349094524563
30
0
41
1
10
-1.2950399779393
20
8.44264434291844
30
0
41
1
10
-1.2950399779393
20
7.17735249314515
30
0
41
1
10
-1.2950399779393
20
5.93905418532486
30
0
41
1
10
-1.2950399779393
20
4.84051419704485
30
0
41
1
10
-1.2950399779393
20
4.08014769325379
30
0
41
1
10
-1.2950399779393
20
3.58970381899363
30
0
41
1
10
-1.2950399779393
20
3.40161292972354
30
0
0
SPLINE
5
ED
100
AcDbEntity
8
SK1
62
256
6
ByLayer
370
13
48
1
60
0
100
AcDbSpline
70
4
71
3
72
28
73
24
40
0
40
0
40
0
40
0
40
0.512389772634255
40
0.512389772634255
40
0.598731913641543
40
0.598731913641543
40
0.676265860997057
40
0.676265860997057
40
0.732149327534266
40
0.732149327534266
40
0.756724770902816
40
0.756724770902816
40
0.781793306260081
40
0.781793306260081
40
0.799361847027438
40
0.799361847027438
40
0.816826010501522
40
0.816826010501522
40
0.846186813770718
40
0.846186813770718
40
0.905539732456045
40
0.905539732456045
40
1
40
1
40
1
40
1
41
1
10
0
20
-4.85235750507826
30
0
41
1
10
0
20
-4.73258035965034
30
0
41
1
10
-0.0021341972527296
20
-4.60969891010157
30
0
41
1
10
-0.0232786507929745
20
-4.46302637227424
30
0
41
1
10
-0.0269092785203213
20
-4.44166333235856
30
0
41
1
10
-0.0357027926591513
20
-4.40116175451485
30
0
41
1
10
-0.0406406591744712
20
-4.38191437517153
30
0
41
1
10
-0.052011784602854
20
-4.34944869087826
30
0
41
1
10
-0.0576636066332412
20
-4.3358329459021
30
0
41
1
10
-0.0685385681380808
20
-4.31781684750925
30
0
41
1
10
-0.0722984771588528
20
-4.31246867438259
30
0
41
1
10
-0.0809092003856335
20
-4.30291138710965
30
0
41
1
10
-0.0859393324079747
20
-4.29861365633235
30
0
41
1
10
-0.0951339015150268
20
-4.29362932415063
30
0
41
1
10
-0.0992015134459052
20
-4.29221665297021
30
0
41
1
10
-0.107162338092792
20
-4.29091978708661
30
0
41
1
10
-0.111142011696245
20
-4.2909959970348
30
0
41
1
10
-0.121216352207654
20
-4.29265629948992
30
0
41
1
10
-0.127113045572202
20
-4.2951863980015
30
0
41
1
10
-0.143301351325618
20
-4.30481339036544
30
0
41
1
10
-0.15249188517447
20
-4.31398732373052
30
0
41
1
10
-0.173901568136046
20
-4.33947815148531
30
0
41
1
10
-0.184949910857767
20
-4.357346943024
30
0
41
1
10
-0.194976888875288
20
-4.37579839097887
30
0
0
SPLINE
5
EE
100
AcDbEntity
8
SK1
62
256
6
ByLayer
370
13
48
1
60
0
100
AcDbSpline
70
4
71
3
72
35
73
31
40
0
40
0
40
0
40
0
40
0.0183913897863281
40
0.0467212636092287
40
0.10338101125503
40
0.160040758900831
40
0.216700506546632
40
0.273360254192434
40
0.330020001838235
40
0.358349875661135
40
0.386679749484036
40
0.415009623306937
40
0.443339497129837
40
0.471669370952738
40
0.485834307864188
40
0.499999244775638
40
0.514164181687089
40
0.528329118598539
40
0.556658992421439
40
0.58498886624434
40
0.613318740067241
40
0.641648613890141
40
0.669978487713042
40
0.726638235358843
40
0.783297983004644
40
0.839957730650445
40
0.896617478296247
40
0.953277225942048
40
0.981607099764948
40
1
40
1
40
1
40
1
41
1
10
-19
20
10.0333172292247
30
0
41
1
10
-19
20
10.0315838839425
30
0
41
1
10
-19
20
10.010082881029
30
0
41
1
10
-19
20
9.87290376557468
30
0
41
1
10
-19
20
9.4871354620816
30
0
41
1
10
-19
20
8.74970557959307
30
0
41
1
10
-19
20
7.76896293179382
30
0
41
1
10
-19
20
6.56626239951902
30
0
41
1
10
-19
20
5.39689860660033
30
0
41
1
10
-19
20
4.35855354299241
30
0
41
1
10
-19
20
3.54050705744919
30
0
41
1
10
-19
20
2.6838095858885
30
0
41
1
10
-19
20
1.79728192772166
30
0
41
1
10
-19
20
1.05021111926757
30
0
41
1
10
-19
20
0.444753991208046
30
0
41
1
10
-19
20
1.75160352E-07
30
0
41
1
10
-19
20
-0.444754022193052
30
0
41
1
10
-19
20
-1.05021119288875
30
0
41
1
10
-19
20
-1.79728161122438
30
0
41
1
10
-19
20
-2.68380947355118
30
0
41
1
10
-19
20
-3.54050720156596
30
0
41
1
10
-19
20
-4.35855334822477
30
0
41
1
10
-19
20
-5.39689848302669
30
0
41
1
10
-19
20
-6.56626237391905
30
0
41
1
10
-19
20
-7.76896317370662
30
0
41
1
10
-19
20
-8.74970539585971
30
0
41
1
10
-19
20
-9.48713598675062
30
0
41
1
10
-19
20
-9.87290379428879
30
0
41
1
10
-19
20
-10.0100852073074
30
0
41
1
10
-19
20
-10.0315854337424
30
0
41
1
10
-19
20
-10.033317770556
30
0
0
SPLINE
5
EF
100
AcDbEntity
8
SK1
62
256
6
ByLayer
370
13
48
1
60
0
100
AcDbSpline
70
4
71
3
72
17
73
13
40
0
40
0
40
0
40
0
40
0.0666167806814242
40
0.134894810676299
40
0.271450870666049
40
0.408006930655799
40
0.544562990645549
40
0.6811190506353
40
0.81767511062505
40
0.885953140619925
40
0.9542311706148
40
1
40
1
40
1
40
1
41
1
10
-1.5
20
11.0218284678589
30
0
41
1
10
-1.5
20
11.0305322948708
30
0
41
1
10
-1.5
20
11.0128510511806
30
0
41
1
10
-1.5
20
10.8518854777454
30
0
41
1
10
-1.5
20
10.4366154663299
30
0
41
1
10
-1.5
20
9.65050521846041
30
0
41
1
10
-1.5
20
8.6074048244474
30
0
41
1
10
-1.5
20
7.32680518164273
30
0
41
1
10
-1.5
20
6.07164774177338
30
0
41
1
10
-1.5
20
4.95838603991956
30
0
41
1
10
-1.5
20
4.1668011475482
30
0
41
1
10
-1.5
20
3.64663976225091
30
0
41
1
10
-1.5
20
3.43390926802988
30
0
0
SPLINE
5
F0
100
AcDbEntity
8
SK1
62
256
6
ByLayer
370
13
48
1
60
0
100
AcDbSpline
70
4
71
3
72
12
73
8
40
0
40
0
40
0
40
0
40
0.5
40
0.5
40
0.75
40
0.75
40
1
40
1
40
1
40
1
41
1
10
-1.2950399779393
20
3.40161292972385
30
0
41
1
10
-1.21966153693805
20
3.74094063354119
30
0
41
1
10
-1.13234441385671
20
4.06572173503602
30
0
41
1
10
-0.888424605956999
20
4.51242811202499
30
0
41
1
10
-0.782090355090844
20
4.70587064177585
30
0
41
1
10
-0.381449312604985
20
4.71480920489856
30
0
41
1
10
-0.275877572630662
20
4.52467076184499
30
0
41
1
10
-0.19497688887509
20
4.3757988118069
30
0
0
SPLINE
5
F1
100
AcDbEntity
8
SK1
62
256
6
ByLayer
370
13
48
1
60
0
100
AcDbSpline
70
4
71
3
72
26
73
22
40
0
40
0
40
0
40
0
40
0.30998019812023
40
0.30998019812023
40
0.466121127891918
40
0.466121127891918
40
0.495339935924698
40
0.495339935924698
40
0.50847834991588
40
0.50847834991588
40
0.521870142767327
40
0.521870142767327
40
0.533321486910361
40
0.533321486910361
40
0.546914826759374
40
0.546914826759374
40
0.571024540940544
40
0.571024540940544
40
0.650283827224654
40
0.650283827224654
40
1
40
1
40
1
40
1
41
1
10
-1.5
20
3.43390926803414
30
0
41
1
10
-1.49957809424501
20
3.34972498522043
30
0
41
1
10
-1.49765792801546
20
3.26436078219538
30
0
41
1
10
-1.48532705686964
20
3.13479536440968
30
0
41
1
10
-1.4807641264899
20
3.08989854362901
30
0
41
1
10
-1.46447634382216
20
3.03979293840402
30
0
41
1
10
-1.46141372751509
20
3.03180695978688
30
0
41
1
10
-1.45566120817685
20
3.02143998205983
30
0
41
1
10
-1.45365299428386
20
3.0183578365492
30
0
41
1
10
-1.44914914006583
20
3.01303026786195
30
0
41
1
10
-1.44656555604138
20
3.01074941382342
30
0
41
1
10
-1.4415942405038
20
3.0080757149515
30
0
41
1
10
-1.4391733263669
20
3.00743313813317
30
0
41
1
10
-1.43412760501772
20
3.00729376115302
30
0
41
1
10
-1.43146783274835
20
3.00799377806251
30
0
41
1
10
-1.42468428977531
20
3.01114999104317
30
0
41
1
10
-1.42082982648512
20
3.01451655258916
30
0
41
1
10
-1.40597537013124
20
3.03067342263449
30
0
41
1
10
-1.39753320304286
20
3.04757090687599
30
0
41
1
10
-1.356077987422
20
3.13969304848826
30
0
41
1
10
-1.33538442090907
20
3.22657761195492
30
0
41
1
10
-1.31543506509439
20
3.31204737779171
30
0
0
SPLINE
5
F2
100
AcDbEntity
8
SK1
62
256
6
ByLayer
370
13
48
1
60
0
100
AcDbSpline
70
4
71
3
72
15
73
11
40
0
40
0
40
0
40
0
40
0.0708105463137976
40
0.231761271238503
40
0.392711996163208
40
0.553662721087914
40
0.714613446012619
40
0.875564170937325
40
0.956039533399677
40
1
40
1
40
1
40
1
41
1
10
-0.194976888875288
20
10.8215956059619
30
0
41
1
10
-0.194976888875288
20
10.7969736791353
30
0
41
1
10
-0.194976888875288
20
10.6769306168182
30
0
41
1
10
-0.194976888875288
20
10.2764909042798
30
0
41
1
10
-0.194976888875288
20
9.49859033133993
30
0
41
1
10
-0.194976888875288
20
8.46600622704153
30
0
41
1
10
-0.194976888875288
20
7.19854383926264
30
0
41
1
10
-0.194976888875288
20
5.95785502441245
30
0
41
1
10
-0.194976888875288
20
4.98207728872109
30
0
41
1
10
-0.194976888875288
20
4.53596278989474
30
0
41
1
10
-0.194976888875288
20
4.37579881180781
30
0
0
SPLINE
5
F3
100
AcDbEntity
8
SK1
62
256
6
ByLayer
370
13
48
1
60
0
100
AcDbSpline
70
4
71
3
72
17
73
13
40
0
40
0
40
0
40
0
40
0.0422810189914154
40
0.112045076478502
40
0.181809133965589
40
0.321337248939763
40
0.460865363913936
40
0.600393478888109
40
0.739921593862283
40
0.879449708836456
40
0.949213766323543
40
1
40
1
40
1
40
1
41
1
10
-1.2950399779393
20
-3.40161170366457
30
0
41
1
10
-1.2950399779393
20
-3.58970302045981
30
0
41
1
10
-1.2950399779393
20
-4.0801473794123
30
0
41
1
10
-1.2950399779393
20
-4.84051408993619
30
0
41
1
10
-1.2950399779393
20
-5.93905405982608
30
0
41
1
10
-1.2950399779393
20
-7.17735240233068
30
0
41
1
10
-1.2950399779393
20
-8.44264460694362
30
0
41
1
10
-1.2950399779393
20
-9.47349072703733
30
0
41
1
10
-1.2950399779393
20
-10.2500356487435
30
0
41
1
10
-1.2950399779393
20
-10.6595078265253
30
0
41
1
10
-1.2950399779393
20
-10.8083234871485
30
0
41
1
10
-1.2950399779393
20
-10.8302674023402
30
0
41
1
10
-1.2950399779393
20
-10.8302907036797
30
0
0
SPLINE
5
F4
100
AcDbEntity
8
SK1
62
256
6
ByLayer
370
13
48
1
60
0
100
AcDbSpline
70
4
71
3
72
24
73
20
40
0
40
0
40
0
40
0
40
0.128387595311507
40
0.128387595311507
40
0.159816787055122
40
0.159816787055122
40
0.191913564334086
40
0.191913564334086
40
0.209621992346782
40
0.209621992346782
40
0.227357368925265
40
0.227357368925265
40
0.251017095034499
40
0.251017095034499
40
0.29304286827397
40
0.29304286827397
40
0.426109841031166
40
0.426109841031166
40
1
40
1
40
1
40
1
41
1
10
-0.194976888875288
20
4.37579881180446
30
0
41
1
10
-0.18137660984678
20
4.35077182852018
30
0
41
1
10
-0.166084452907455
20
4.32613296449381
30
0
41
1
10
-0.140434718547681
20
4.30354219591192
30
0
41
1
10
-0.134934284841904
20
4.29948916182221
30
0
41
1
10
-0.12284602512824
20
4.2932953592844
30
0
41
1
10
-0.116020442370626
20
4.29111917578774
30
0
41
1
10
-0.104884728676012
20
4.29110815705053
30
0
41
1
10
-0.100717557341966
20
4.29180717572152
30
0
41
1
10
-0.0926853821895293
20
4.2947246489733
30
0
41
1
10
-0.0887307273815452
20
4.29697782288531
30
0
41
1
10
-0.0803221045947851
20
4.30341451620851
30
0
41
1
10
-0.0759893926376662
20
4.30805199521788
30
0
41
1
10
-0.0654876521097094
20
4.32177471162316
30
0
41
1
10
-0.0601619056930076
20
4.33174670235755
30
0
41
1
10
-0.0414836434769938
20
4.37335200507792
30
0
41
1
10
-0.0338202360857736
20
4.40700915263892
30
0
41
1
10
-0.0008505118824189
20
4.58041352034985
30
0
41
1
10
-2.84E-14
20
4.71858084962884
30
0
41
1
10
-2.84E-14
20
4.8523582667934
30
0
0
SPLINE
5
F5
100
AcDbEntity
8
SK1
62
256
6
ByLayer
370
13
48
1
60
0
100
AcDbSpline
70
4
71
3
72
28
73
24
40
0
40
0
40
0
40
0
40
0.512376218728305
40
0.512376218728305
40
0.598796503464061
40
0.598796503464061
40
0.676463520255591
40
0.676463520255591
40
0.732063551226405
40
0.732063551226405
40
0.756744297249684
40
0.756744297249684
40
0.781926249197071
40
0.781926249197071
40
0.799501894552107
40
0.799501894552107
40
0.816971939099323
40
0.816971939099323
40
0.846412145166982
40
0.846412145166982
40
0.906005120678649
40
0.906005120678649
40
1
40
1
40
1
40
1
41
1
10
0
20
10.977857676254
30
0
41
1
10
0
20
10.968940912515
30
0
41
1
10
-0.0021336807887735
20
10.9555532512504
30
0
41
1
10
-0.0232748724178009
20
10.9246518484714
30
0
41
1
10
-0.0269083003946662
20
10.9197287260978
30
0
41
1
10
-0.0357145212995817
20
10.9091097226555
30
0
41
1
10
-0.0406627960333594
20
10.9035431698626
30
0
41
1
10
-0.0520351547615689
20
10.892344182334
30
0
41
1
10
-0.0576624789276536
20
10.8871325052028
30
0
41
1
10
-0.0685022979990322
20
10.8783230690719
30
0
41
1
10
-0.0722755852240198
20
10.8753918789565
30
0
41
1
10
-0.0809223725233892
20
10.8691153689022
30
0
41
1
10
-0.085977985056445
20
10.8656564118426
30
0
41
1
10
-0.0952029059710924
20
10.8598435694815
30
0
41
1
10
-0.0992734436415788
20
10.8574159266206
30
0
41
1
10
-0.107237119508682
20
10.8529290307914
30
0
41
1
10
-0.111216792367031
20
10.850816610328
30
0
41
1
10
-0.121305075823329
20
10.8457309056931
30
0
41
1
10
-0.127212828813896
20
10.8430398605585
30
0
41
1
10
-0.143444252916282
20
10.8361482507471
30
0
41
1
10
-0.152658694618907
20
10.8329303827249
30
0
41
1
10
-0.174005802157438
20
10.8262219540922
30
0
41
1
10
-0.184997875213128
20
10.8236106982458
30
0
41
1
10
-0.194976888875288
20
10.8215956059619
30
0
0
SPLINE
5
F6
100
AcDbEntity
8
SK1
62
256
6
ByLayer
370
13
48
1
60
0
100
AcDbSpline
70
4
71
3
72
24
73
20
40
0
40
0
40
0
40
0
40
0.128390282722945
40
0.128390282722945
40
0.159820685571436
40
0.159820685571436
40
0.191919560201378
40
0.191919560201378
40
0.209629751442672
40
0.209629751442672
40
0.22736639512148
40
0.22736639512148
40
0.251045182234397
40
0.251045182234397
40
0.293121391520778
40
0.293121391520778
40
0.426409855476547
40
0.426409855476547
40
1
40
1
40
1
40
1
41
1
10
-0.194976888875288
20
-10.8215957545436
30
0
41
1
10
-0.181375896166998
20
-10.8243422473105
30
0
41
1
10
-0.166081841895561
20
-10.8279644857847
30
0
41
1
10
-0.140426444643396
20
-10.8375064215378
30
0
41
1
10
-0.134924488239108
20
-10.8396997158019
30
0
41
1
10
-0.122832871486764
20
-10.8450247330173
30
0
41
1
10
-0.116005084540149
20
-10.8482784930316
30
0
41
1
10
-0.104867300913639
20
-10.8542304518889
30
0
41
1
10
-0.100699542547403
20
-10.8565852604387
30
0
41
1
10
-0.0926672813067455
20
-10.8614000855953
30
0
41
1
10
-0.0887131267117809
20
-10.8639138269671
30
0
41
1
10
-0.0803023877863609
20
-10.8695389018216
30
0
41
1
10
-0.075967906629927
20
-10.8726604895888
30
0
41
1
10
-0.0654598680694107
20
-10.8806226953324
30
0
41
1
10
-0.0601314814749969
20
-10.8851372207405
30
0
41
1
10
-0.0414385869534613
20
-10.9019165369332
30
0
41
1
10
-0.0337743229471812
20
-10.9111229596336
30
0
41
1
10
-0.000860220666965
20
-10.9533220423454
30
0
41
1
10
-2.84E-14
20
-10.9679034889487
30
0
41
1
10
-2.84E-14
20
-10.9778577586146
30
0
0
SPLINE
5
F7
100
AcDbEntity
8
SK1
62
256
6
ByLayer
370
13
48
1
60
0
100
AcDbSpline
70
4
71
3
72
15
73
11
40
0
40
0
40
0
40
0
40
0.0439605062750149
40
0.124435874054463
40
0.285386609613358
40
0.446337345172253
40
0.607288080731149
40
0.768238816290044
40
0.929189551848939
40
1
40
1
40
1
40
1
41
1
10
-0.194976888875288
20
-4.37579839097887
30
0
41
1
10
-0.194976888875288
20
-4.53596249036622
30
0
41
1
10
-0.194976888875288
20
-4.98207705649128
30
0
41
1
10
-0.194976888875288
20
-5.95785489884688
30
0
41
1
10
-0.194976888875288
20
-7.19854374618666
30
0
41
1
10
-0.194976888875288
20
-8.4660064918335
30
0
41
1
10
-0.194976888875288
20
-9.4985901119361
30
0
41
1
10
-0.194976888875288
20
-10.2764914380924
30
0
41
1
10
-0.194976888875288
20
-10.6769305434497
30
0
41
1
10
-0.194976888875288
20
-10.7969738327038
30
0
41
1
10
-0.194976888875288
20
-10.8215957545436
30
0
0
SPLINE
5
F8
100
AcDbEntity
8
SK1
62
256
6
ByLayer
370
13
48
1
60
0
100
AcDbSpline
70
4
71
3
72
12
73
8
40
0
40
0
40
0
40
0
40
0.5
40
0.5
40
0.75
40
0.75
40
1
40
1
40
1
40
1
41
1
10
-1.2950399779393
20
-10.8279546620411
30
0
41
1
10
-1.21965219531936
20
-10.8379486625118
30
0
41
1
10
-1.13233363849667
20
-10.8263834256097
30
0
41
1
10
-0.888368938463373
20
-10.7902737230075
30
0
41
1
10
-0.782056939225953
20
-10.7672468480773
30
0
41
1
10
-0.381383282450116
20
-10.7768463845487
30
0
41
1
10
-0.275882860919523
20
-10.8052581480331
30
0
41
1
10
-0.194976888875288
20
-10.8215957545436
30
0
0
SPLINE
5
F9
100
AcDbEntity
8
1
62
256
6
ByLayer
370
13
48
1
60
0
100
AcDbSpline
70
4
71
3
72
16
73
12
40
0
40
0
40
0
40
0
40
0.462497527135845
40
0.462497527135845
40
0.645191851133738
40
0.645191851133738
40
0.8304651450849
40
0.8304651450849
40
0.946099677592288
40
0.946099677592288
40
1
40
1
40
1
40
1
41
1
10
4.66339745962171
20
-5.06861858311177
30
0
41
1
10
4.68049745427396
20
-5.00572719980335
30
0
41
1
10
4.70393430551667
20
-4.94318132289499
30
0
41
1
10
4.75230660037388
20
-4.86451341532705
30
0
41
1
10
4.76803751709795
20
-4.84296870144209
30
0
41
1
10
4.80461917683149
20
-4.8041518994564
30
0
41
1
10
4.82601832205691
20
-4.78648459402874
30
0
41
1
10
4.8653483060514
20
-4.76617783194871
30
0
41
1
10
4.88194300110763
20
-4.76031541807635
30
0
41
1
10
4.90693069677616
20
-4.75614889828651
30
0
41
1
10
4.91508241701416
20
-4.75546271781752
30
0
41
1
10
4.92320508075701
20
-4.75546271781752
30
0
0
SPLINE
5
FA
100
AcDbEntity
8
1
62
256
6
ByLayer
370
13
48
1
60
0
100
AcDbSpline
70
4
71
3
72
8
73
4
40
0
40
0
40
0
40
0
40
1
40
1
40
1
40
1
41
1
10
15.2792076144252
20
7.84366557527542
30
0
41
1
10
15.0457900052133
20
6.78050679555923
30
0
41
1
10
15.008551805235
20
5.65050428555381
30
0
41
1
10
15.0055407419607
20
4.46249826158513
30
0
0
SPLINE
5
FB
100
AcDbEntity
8
1
62
256
6
ByLayer
370
13
48
1
60
0
100
AcDbSpline
70
4
71
3
72
8
73
4
40
0
40
0
40
0
40
0
40
1
40
1
40
1
40
1
41
1
10
17.8091907607776
20
21.6749999999999
30
0
41
1
10
17.3672416386436
20
20.0004675428345
30
0
41
1
10
16.9266049675098
20
18.3256028253062
30
0
41
1
10
16.4888838722313
20
16.65
30
0
0
SPLINE
5
FC
100
AcDbEntity
8
1
62
256
6
ByLayer
370
13
48
1
60
0
100
AcDbSpline
70
4
71
3
72
16
73
12
40
0
40
0
40
0
40
0
40
0.462497527135797
40
0.462497527135797
40
0.645191851133672
40
0.645191851133672
40
0.830465145084795
40
0.830465145084795
40
0.946099677592142
40
0.946099677592142
40
1
40
1
40
1
40
1
41
1
10
7.33660254037849
20
5.06861858311211
30
0
41
1
10
7.31950254572621
20
5.00572719980369
30
0
41
1
10
7.29606569448353
20
4.94318132289533
30
0
41
1
10
7.24769339962629
20
4.86451341532739
30
0
41
1
10
7.23196248290225
20
4.84296870144243
30
0
41
1
10
7.19538082316868
20
4.80415189945677
30
0
41
1
10
7.17398167794326
20
4.78648459402908
30
0
41
1
10
7.1346516939488
20
4.76617783194908
30
0
41
1
10
7.11805699889257
20
4.76031541807671
30
0
41
1
10
7.09306930322404
20
4.75614889828688
30
0
41
1
10
7.08491758298601
20
4.75546271781789
30
0
41
1
10
7.07679491924318
20
4.75546271781789
30
0
0
SPLINE
5
FD
100
AcDbEntity
8
1
62
256
6
ByLayer
370
13
48
1
60
0
100
AcDbSpline
70
4
71
3
72
8
73
4
40
0
40
0
40
0
40
0
40
1
40
1
40
1
40
1
41
1
10
48.2807590907911
20
21.2697851262737
30
0
41
1
10
48.2278839911992
20
21.4054020875745
30
0
41
1
10
48.174403153259
20
21.5406380755941
30
0
41
1
10
48.1196350139087
20
21.6749999999998
30
0
0
SPLINE
5
FE
100
AcDbEntity
8
1
62
256
6
ByLayer
370
13
48
1
60
0
100
AcDbSpline
70
4
71
3
72
8
73
4
40
0
40
0
40
0
40
0
40
1
40
1
40
1
40
1
41
1
10
16.4888838722313
20
16.65
30
0
41
1
10
16.4724148009809
20
16.5869561517254
30
0
41
1
10
16.4549938620953
20
16.5230694406053
30
0
41
1
10
16.4383186059721
20
16.4645716010619
30
0
0
SPLINE
5
FF
100
AcDbEntity
8
1
62
256
6
ByLayer
370
13
48
1
60
0
100
AcDbSpline
70
4
71
3
72
14
73
10
40
0
40
0
40
0
40
0
40
0.264462129114293
40
0.264462129114293
40
0.526723831588179
40
0.526723831588179
40
0.826626211389558
40
0.826626211389558
40
1
40
1
40
1
40
1
41
1
10
16.2419745365982
20
16.15
30
0
41
1
10
16.2500758290234
20
16.15
30
0
41
1
10
16.2647339736032
20
16.1591235419352
30
0
41
1
10
16.299424125155
20
16.1920053543541
30
0
41
1
10
16.3197613112601
20
16.2160040899626
30
0
41
1
10
16.3629400318042
20
16.2801387375207
30
0
41
1
10
16.3863305996435
20
16.3230829767157
30
0
41
1
10
16.4181981961256
20
16.4008175976993
30
0
41
1
10
16.4290067624356
20
16.4319050725819
30
0
41
1
10
16.4383186059721
20
16.4645716010619
30
0
0
SPLINE
5
100
100
AcDbEntity
8
1
62
256
6
ByLayer
370
13
48
1
60
0
100
AcDbSpline
70
4
71
3
72
10
73
6
40
0
40
0
40
0
40
0
40
0.851843750262396
40
0.851843750262396
40
1
40
1
40
1
40
1
41
1
10
16.4383186059724
20
16.15
30
0
41
1
10
16.3301892166872
20
16.15
30
0
41
1
10
16.0147862259367
20
16.15
30
0
41
1
10
15.8766136520011
20
16.15
30
0
41
1
10
15.8675261029924
20
16.15
30
0
41
1
10
15.8675547409002
20
16.15
30
0
0
SPLINE
5
101
100
AcDbEntity
8
1
62
256
6
ByLayer
370
13
48
1
60
0
100
AcDbSpline
70
4
71
3
72
10
73
6
40
0
40
0
40
0
40
0
40
0.5
40
0.5
40
1
40
1
40
1
40
1
41
1
10
15.2792076144252
20
7.8436655752754
30
0
41
1
10
15.4121060120178
20
8.44898450852875
30
0
41
1
10
15.6115523720261
20
9.02504425825163
30
0
41
1
10
16.0675571870968
20
10.2236531487734
30
0
41
1
10
16.3280989875985
20
10.83906728054
30
0
41
1
10
16.4383186059721
20
11.5396816405889
30
0
0
SPLINE
5
102
100
AcDbEntity
8
1
62
256
6
ByLayer
370
13
48
1
60
0
100
AcDbSpline
70
4
71
3
72
16
73
12
40
0
40
0
40
0
40
0
40
0.112904383055068
40
0.112904383055068
40
0.25199580660172
40
0.25199580660172
40
0.471177478614354
40
0.471177478614354
40
0.892334804026107
40
0.892334804026107
40
1
40
1
40
1
40
1
41
1
10
4.92320508075701
20
-15.2769622091386
30
0
41
1
10
4.90636996355761
20
-15.2769622091386
30
0
41
1
10
4.88932551790376
20
-15.2760126621563
30
0
41
1
10
4.85400387216058
20
-15.2722082770661
30
0
41
1
10
4.8357615698869
20
-15.2689414463835
30
0
41
1
10
4.79405363685726
20
-15.2589992478797
30
0
41
1
10
4.77256184645856
20
-15.2513160232934
30
0
41
1
10
4.71952959058135
20
-15.2273927985289
30
0
41
1
10
4.69506482950487
20
-15.2092528380283
30
0
41
1
10
4.67177931116117
20
-15.1857432227236
30
0
41
1
10
4.66740846582638
20
-15.1808653782146
30
0
41
1
10
4.66339745962165
20
-15.1759383782004
30
0
0
SPLINE
5
103
100
AcDbEntity
8
1
62
256
6
ByLayer
370
13
48
1
60
0
100
AcDbSpline
70
4
71
3
72
8
73
4
40
0
40
0
40
0
40
0
40
1
40
1
40
1
40
1
41
1
10
48.2807590907913
20
19.7302148737262
30
0
41
1
10
48.2858826238497
20
19.7433559928894
30
0
41
1
10
48.2905400018884
20
19.7568171487161
30
0
41
1
10
48.2946971702203
20
19.7705139329337
30
0
0
SPLINE
5
104
100
AcDbEntity
8
1
62
256
6
ByLayer
370
13
48
1
60
0
100
AcDbSpline
70
4
71
3
72
16
73
12
40
0
40
0
40
0
40
0
40
0.112904383055276
40
0.112904383055276
40
0.251995806601907
40
0.251995806601907
40
0.47117747861441
40
0.47117747861441
40
0.892334804025923
40
0.892334804025923
40
1
40
1
40
1
40
1
41
1
10
7.07679491924316
20
15.2769622091384
30
0
41
1
10
7.09363003644259
20
15.2769622091384
30
0
41
1
10
7.11067448209641
20
15.2760126621561
30
0
41
1
10
7.1459961278396
20
15.2722082770659
30
0
41
1
10
7.16423843011327
20
15.2689414463833
30
0
41
1
10
7.20594636314291
20
15.2589992478795
30
0
41
1
10
7.22743815354161
20
15.2513160232932
30
0
41
1
10
7.28047040941883
20
15.2273927985287
30
0
41
1
10
7.30493517049527
20
15.2092528380282
30
0
41
1
10
7.328220688839
20
15.1857432227234
30
0
41
1
10
7.33259153417382
20
15.1808653782144
30
0
41
1
10
7.33660254037855
20
15.1759383782002
30
0
0
SPLINE
5
105
100
AcDbEntity
8
1
62
256
6
ByLayer
370
13
48
1
60
0
100
AcDbSpline
70
4
71
3
72
22
73
18
40
0
40
0
40
0
40
0
40
0.190469746336736
40
0.190469746336736
40
0.531247851869644
40
0.531247851869644
40
0.918342680520352
40
0.918342680520352
40
0.945436807871022
40
0.945436807871022
40
0.971706702803055
40
0.971706702803055
40
0.982990666469656
40
0.982990666469656
40
0.994515114529705
40
0.994515114529705
40
1
40
1
40
1
40
1
41
1
10
21.2647683254784
20
16.15
30
0
41
1
10
21.4197643688474
20
16.1499999999996
30
0
41
1
10
21.5780073203209
20
16.1570551839298
30
0
41
1
10
22.0180360969894
20
16.19123863796
30
0
41
1
10
22.3040167577088
20
16.2299518988814
30
0
41
1
10
22.8831928922951
20
16.3382145899353
30
0
41
1
10
23.186809281721
20
16.39610630038
30
0
41
1
10
23.4575654104082
20
16.5326945648385
30
0
41
1
10
23.4753218224626
20
16.5424672934374
30
0
41
1
10
23.5089258409344
20
16.5640731159956
30
0
41
1
10
23.5250407575958
20
16.5758059576209
30
0
41
1
10
23.5453620557103
20
16.5963133631256
30
0
41
1
10
23.5511551237329
20
16.6030441666296
30
0
41
1
10
23.5611149804548
20
16.6181322818293
30
0
41
1
10
23.5653773186513
20
16.6267971661569
30
0
41
1
10
23.5686113544451
20
16.6406124386648
30
0
41
1
10
23.5691843186709
20
16.6453251320117
30
0
41
1
10
23.5691843186726
20
16.649999999978
30
0
0
SPLINE
5
106
100
AcDbEntity
8
1
62
256
6
ByLayer
370
13
48
1
60
0
100
AcDbSpline
70
4
71
3
72
16
73
12
40
0
40
0
40
0
40
0
40
0.46249752713584
40
0.46249752713584
40
0.645191851133738
40
0.645191851133738
40
0.830465145084901
40
0.830465145084901
40
0.946099677592267
40
0.946099677592267
40
1
40
1
40
1
40
1
41
1
10
4.66339745962171
20
15.1759383782003
30
0
41
1
10
4.68049745427396
20
15.1969435000063
30
0
41
1
10
4.70393430551667
20
15.2173733040723
30
0
41
1
10
4.75230660037391
20
15.2426068177431
30
0
41
1
10
4.76803751709795
20
15.2494611471716
30
0
41
1
10
4.80461917683149
20
15.2617345707428
30
0
41
1
10
4.82601832205694
20
15.2672766430867
30
0
41
1
10
4.8653483060514
20
15.2736248541652
30
0
41
1
10
4.88194300110763
20
15.2754510872995
30
0
41
1
10
4.90693069677616
20
15.2767486596484
30
0
41
1
10
4.91508241701416
20
15.2769622091385
30
0
41
1
10
4.92320508075701
20
15.2769622091385
30
0
0
SPLINE
5
107
100
AcDbEntity
8
1
62
256
6
ByLayer
370
13
48
1
60
0
100
AcDbSpline
70
4
71
3
72
8
73
4
40
0
40
0
40
0
40
0
40
1
40
1
40
1
40
1
41
1
10
15.2792076144252
20
-12.0887120793423
30
0
41
1
10
15.0923756041254
20
-12.5841940527566
30
0
41
1
10
15.025783965325
20
-13.0454502184327
30
0
41
1
10
15.0221217907632
20
-13.4650938580065
30
0
0
SPLINE
5
108
100
AcDbEntity
8
1
62
256
6
ByLayer
370
13
48
1
60
0
100
AcDbSpline
70
4
71
3
72
8
73
4
40
0
40
0
40
0
40
0
40
1
40
1
40
1
40
1
41
1
10
48.2946971702203
20
21.2294860670663
30
0
41
1
10
48.2905400018884
20
21.2431828512839
30
0
41
1
10
48.2858826238497
20
21.2566440071106
30
0
41
1
10
48.2807590907913
20
21.2697851262738
30
0
0
SPLINE
5
109
100
AcDbEntity
8
1
62
256
6
ByLayer
370
13
48
1
60
0
100
AcDbSpline
70
4
71
3
72
8
73
4
40
0
40
0
40
0
40
0
40
1
40
1
40
1
40
1
41
1
10
17.2714792042256
20
16.15
30
0
41
1
10
16.9628158028293
20
14.6150851817435
30
0
41
1
10
16.6806230046151
20
13.079896928005
30
0
41
1
10
16.4383186059721
20
11.5396816405889
30
0
0
SPLINE
5
10A
100
AcDbEntity
8
1
62
256
6
ByLayer
370
13
48
1
60
0
100
AcDbSpline
70
4
71
3
72
8
73
4
40
0
40
0
40
0
40
0
40
1
40
1
40
1
40
1
41
1
10
15.2792076144252
20
-12.0887120793423
30
0
41
1
10
15.4952450362006
20
-11.5157768103763
30
0
41
1
10
15.8978605268071
20
-10.962741260583
30
0
41
1
10
16.2146215048678
20
-10.6506496653508
30
0
0
SPLINE
5
10B
100
AcDbEntity
8
1
62
256
6
ByLayer
370
13
48
1
60
0
100
AcDbSpline
70
4
71
3
72
8
73
4
40
0
40
0
40
0
40
0
40
1
40
1
40
1
40
1
41
1
10
48.1196350139086
20
19.325
30
0
41
1
10
48.1744031532589
20
19.4593619244057
30
0
41
1
10
48.2278839911991
20
19.5945979124254
30
0
41
1
10
48.2807590907911
20
19.7302148737263
30
0
0
SPLINE
5
10C
100
AcDbEntity
8
1
62
256
6
ByLayer
370
13
48
1
60
0
100
AcDbSpline
70
4
71
3
72
16
73
12
40
0
40
0
40
0
40
0
40
0.112904383055292
40
0.112904383055292
40
0.251995806601941
40
0.251995806601941
40
0.471177478614503
40
0.471177478614503
40
0.892334804026067
40
0.892334804026067
40
1
40
1
40
1
40
1
41
1
10
7.07679491924316
20
-4.75546271781792
30
0
41
1
10
7.09363003644256
20
-4.75546271781792
30
0
41
1
10
7.11067448209641
20
-4.75851551862698
30
0
41
1
10
7.1459961278396
20
-4.77071315953395
30
0
41
1
10
7.16423843011327
20
-4.78117073972231
30
0
41
1
10
7.20594636314294
20
-4.81283214608473
30
0
41
1
10
7.22743815354161
20
-4.83715715133653
30
0
41
1
10
7.28047040941883
20
-4.91214630601473
30
0
41
1
10
7.3049351704953
20
-4.9681154708372
30
0
41
1
10
7.328220688839
20
-5.03919021254711
30
0
41
1
10
7.33259153417382
20
-5.05386666454109
30
0
41
1
10
7.33660254037855
20
-5.06861858311206
30
0
0
SPLINE
5
10D
100
AcDbEntity
8
1
62
256
6
ByLayer
370
13
48
1
60
0
100
AcDbSpline
70
4
71
3
72
8
73
4
40
0
40
0
40
0
40
0
40
1
40
1
40
1
40
1
41
1
10
48.2946971702201
20
19.7705139329338
30
0
41
1
10
48.3269432484524
20
19.8767563412656
30
0
41
1
10
48.3589421587697
20
19.9831237373109
30
0
41
1
10
48.3907696367
20
20.0895758280092
30
0
0
SPLINE
5
10E
100
AcDbEntity
8
1
62
256
6
ByLayer
370
13
48
1
60
0
100
AcDbSpline
70
4
71
3
72
8
73
4
40
0
40
0
40
0
40
0
40
1
40
1
40
1
40
1
41
1
10
16.2146215048678
20
-10.6506496653508
30
0
41
1
10
15.8906363609286
20
-9.65665913604224
30
0
41
1
10
15.4857608976086
20
-8.78446407474166
30
0
41
1
10
15.2792076144252
20
-7.84366557527545
30
0
0
SPLINE
5
10F
100
AcDbEntity
8
1
62
256
6
ByLayer
370
13
48
1
60
0
100
AcDbSpline
70
4
71
3
72
8
73
4
40
0
40
0
40
0
40
0
40
1
40
1
40
1
40
1
41
1
10
24.6
20
16.15
30
0
41
1
10
24.6185626839466
20
16.15
30
0
41
1
10
24.6363078754431
20
16.1509785982053
30
0
41
1
10
24.6532217588177
20
16.1527377590378
30
0
0
SPLINE
5
110
100
AcDbEntity
8
1
62
256
6
ByLayer
370
13
48
1
60
0
100
AcDbSpline
70
4
71
3
72
12
73
8
40
0
40
0
40
0
40
0
40
0.0158434596559962
40
0.0158434596559962
40
0.566313430232047
40
0.566313430232047
40
1
40
1
40
1
40
1
41
1
10
24.8895651857741
20
16.368140247838
30
0
41
1
10
24.8904869277012
20
16.3694502657749
30
0
41
1
10
24.891402367301
20
16.370764740869
30
0
41
1
10
24.9234673185029
20
16.4172834196644
30
0
41
1
10
24.9473666169308
20
16.4684159259297
30
0
41
1
10
24.9733248107297
20
16.5630866814826
30
0
41
1
10
24.9792156108742
20
16.6067322409613
30
0
41
1
10
24.9792156108742
20
16.65
30
0
0
SPLINE
5
111
100
AcDbEntity
8
1
62
256
6
ByLayer
370
13
48
1
60
0
100
AcDbSpline
70
4
71
3
72
16
73
12
40
0
40
0
40
0
40
0
40
0.462497527135766
40
0.462497527135766
40
0.645191851133629
40
0.645191851133629
40
0.830465145084764
40
0.830465145084764
40
0.946099677592115
40
0.946099677592115
40
1
40
1
40
1
40
1
41
1
10
7.33660254037849
20
-15.1759383782003
30
0
41
1
10
7.31950254572621
20
-15.1969435000063
30
0
41
1
10
7.2960656944835
20
-15.2173733040722
30
0
41
1
10
7.24769339962629
20
-15.242606817743
30
0
41
1
10
7.23196248290225
20
-15.2494611471716
30
0
41
1
10
7.1953808231687
20
-15.2617345707428
30
0
41
1
10
7.17398167794326
20
-15.2672766430867
30
0
41
1
10
7.1346516939488
20
-15.2736248541652
30
0
41
1
10
7.11805699889257
20
-15.2754510872995
30
0
41
1
10
7.09306930322404
20
-15.2767486596484
30
0
41
1
10
7.08491758298601
20
-15.2769622091385
30
0
41
1
10
7.07679491924316
20
-15.2769622091385
30
0
0
SPLINE
5
112
100
AcDbEntity
8
1
62
256
6
ByLayer
370
13
48
1
60
0
100
AcDbSpline
70
4
71
3
72
8
73
4
40
0
40
0
40
0
40
0
40
1
40
1
40
1
40
1
41
1
10
15.0055407419607
20
-4.46249826158515
30
0
41
1
10
15.008551805235
20
-5.65050428555384
30
0
41
1
10
15.0457900052133
20
-6.78050679555926
30
0
41
1
10
15.2792076144252
20
-7.84366557527548
30
0
0
SPLINE
5
113
100
AcDbEntity
8
1
62
256
6
ByLayer
370
13
48
1
60
0
100
AcDbSpline
70
4
71
3
72
8
73
4
40
0
40
0
40
0
40
0
40
1
40
1
40
1
40
1
41
1
10
16.4383186059721
20
16.15
30
0
41
1
10
16.6175839772747
20
16.15
30
0
41
1
10
16.912154084841
20
16.15
30
0
41
1
10
17.2714792042256
20
16.15
30
0
0
SPLINE
5
114
100
AcDbEntity
8
1
62
256
6
ByLayer
370
13
48
1
60
0
100
AcDbSpline
70
4
71
3
72
18
73
14
40
0
40
0
40
0
40
0
40
0.19611614287838
40
0.19611614287838
40
0.387854637399487
40
0.387854637399487
40
0.580900146915785
40
0.580900146915785
40
0.775540164244303
40
0.775540164244303
40
0.969370984696611
40
0.969370984696611
40
1
40
1
40
1
40
1
41
1
10
38.4000001986277
20
17.7249950034464
30
0
41
1
10
38.3999998013724
20
17.7250049965535
30
0
41
1
10
38.3981021043843
20
17.7727422872408
30
0
41
1
10
38.4137928526336
20
17.952920718289
30
0
41
1
10
38.432986596924
20
18.0866007567464
30
0
41
1
10
38.5377311551588
20
18.3946364938856
30
0
41
1
10
38.6270523945639
20
18.5720919389974
30
0
41
1
10
38.887826376985
20
18.8938880140508
30
0
41
1
10
39.0629330762771
20
19.0406956544276
30
0
41
1
10
39.4551214818332
20
19.245470531712
30
0
41
1
10
39.675782717501
20
19.3070842938482
30
0
41
1
10
39.9297201052792
20
19.3238422803447
30
0
41
1
10
39.9648668224497
20
19.3250000000014
30
0
41
1
10
39.9999999999999
20
19.3250000000014
30
0
0
SPLINE
5
115
100
AcDbEntity
8
1
62
256
6
ByLayer
370
13
48
1
60
0
100
AcDbSpline
70
4
71
3
72
8
73
4
40
0
40
0
40
0
40
0
40
1
40
1
40
1
40
1
41
1
10
16.2146215048678
20
-10.6506496653508
30
0
41
1
10
16.8638540282403
20
-10.0109874975658
30
0
41
1
10
17.8776023938796
20
-9.5047093755544
30
0
41
1
10
19.0053884342174
20
-9.50003436654504
30
0
0
SPLINE
5
116
100
AcDbEntity
8
1
62
256
6
ByLayer
370
13
48
1
60
0
100
AcDbSpline
70
4
71
3
72
8
73
4
40
0
40
0
40
0
40
0
40
1
40
1
40
1
40
1
41
1
10
48.3907696367
20
20.9104241719908
30
0
41
1
10
48.3589421587697
20
21.0168762626891
30
0
41
1
10
48.3269432484524
20
21.1232436587344
30
0
41
1
10
48.2946971702201
20
21.2294860670662
30
0
0
SPLINE
5
117
100
AcDbEntity
8
1
62
256
6
ByLayer
370
13
48
1
60
0
100
AcDbSpline
70
4
71
3
72
16
73
12
40
0
40
0
40
0
40
0
40
0.112904383055067
40
0.112904383055067
40
0.251995806601754
40
0.251995806601754
40
0.471177478614382
40
0.471177478614382
40
0.892334804026131
40
0.892334804026131
40
1
40
1
40
1
40
1
41
1
10
4.92320508075701
20
4.75546271781764
30
0
41
1
10
4.90636996355761
20
4.75546271781764
30
0
41
1
10
4.88932551790376
20
4.7585155186267
30
0
41
1
10
4.85400387216058
20
4.77071315953367
30
0
41
1
10
4.8357615698869
20
4.78117073972203
30
0
41
1
10
4.79405363685723
20
4.81283214608448
30
0
41
1
10
4.77256184645856
20
4.83715715133627
30
0
41
1
10
4.71952959058135
20
4.91214630601448
30
0
41
1
10
4.6950648295049
20
4.96811547083701
30
0
41
1
10
4.67177931116117
20
5.03919021254691
30
0
41
1
10
4.66740846582638
20
5.05386666454083
30
0
41
1
10
4.66339745962165
20
5.0686185831118
30
0
0
LINE
5
70
100
AcDbEntity
8
1
62
256
6
ByLayer
370
13
48
1
60
0
100
AcDbLine
10
0.3
20
-16
30
0
11
15
21
-16
31
0
39
0
210
0
220
0
230
1
0
LINE
5
72
100
AcDbEntity
8
1
62
256
6
ByLayer
370
13
48
1
60
0
100
AcDbLine
10
15.279208
20
16
30
0
11
0.3
21
16
31
0
39
0
210
0
220
0
230
1
0
LINE
5
73
100
AcDbEntity
8
1
62
256
6
ByLayer
370
13
48
1
60
0
100
AcDbLine
10
0.3
20
16
30
0
11
0
21
15.7
31
0
39
0
210
0
220
0
230
1
0
LINE
5
74
100
AcDbEntity
8
1
62
256
6
ByLayer
370
13
48
1
60
0
100
AcDbLine
10
0
20
-15.7
30
0
11
0.3
21
-16
31
0
39
0
210
0
220
0
230
1
0
LINE
5
75
100
AcDbEntity
8
80
62
256
6
ByLayer
370
18
48
1
60
0
100
AcDbLine
10
0
20
0
30
0
11
-5
21
0
31
0
39
0
210
0
220
0
230
1
0
LINE
5
76
100
AcDbEntity
8
81
62
256
6
ByLayer
370
18
48
1
60
0
100
AcDbLine
10
55
20
22
30
0
11
60
21
22
31
0
39
0
210
0
220
0
230
1
0
LINE
5
77
100
AcDbEntity
8
SK1
62
256
6
ByLayer
370
13
48
1
60
0
100
AcDbLine
10
-1.29504
20
10.827955
30
0
11
-1.29504
21
10.830291
31
0
39
0
210
0
220
0
230
1
0
LINE
5
79
100
AcDbEntity
8
SK1
62
256
6
ByLayer
370
13
48
1
60
0
100
AcDbLine
10
-1.29504
20
-10.830291
30
0
11
-1.29504
21
-10.827955
31
0
39
0
210
0
220
0
230
1
0
LINE
5
7A
100
AcDbEntity
8
SK1
62
256
6
ByLayer
370
13
48
1
60
0
100
AcDbLine
10
-1.315435
20
-3.312046
30
0
11
-1.315435
21
3.312047
31
0
39
0
210
0
220
0
230
1
0
LINE
5
7B
100
AcDbEntity
8
1
62
256
6
ByLayer
370
13
48
1
60
0
100
AcDbLine
10
0.3
20
16
30
0
11
0.3
21
-16
31
0
39
0
210
0
220
0
230
1
0
LINE
5
7C
100
AcDbEntity
8
1
62
256
6
ByLayer
370
13
48
1
60
0
100
AcDbLine
10
20.9
20
21.675
30
0
11
20.9
21
16.65
31
0
39
0
210
0
220
0
230
1
0
LINE
5
7D
100
AcDbEntity
8
1
62
256
6
ByLayer
370
13
48
1
60
0
100
AcDbLine
10
33.4
20
-9.5
30
0
11
36.864393
21
-3.059597
31
0
39
0
210
0
220
0
230
1
0
LINE
5
7E
100
AcDbEntity
8
1
62
256
6
ByLayer
370
13
48
1
60
0
100
AcDbLine
10
24.336699
20
16.149718
30
0
11
24.336699
21
21.675
31
0
39
0
210
0
220
0
230
1
0
LINE
5
7F
100
AcDbEntity
8
1
62
256
6
ByLayer
370
13
48
1
60
0
100
AcDbLine
10
4.923205
20
15.276962
30
0
11
7.076795
21
15.276962
31
0
39
0
210
0
220
0
230
1
0
LINE
5
80
100
AcDbEntity
8
1
62
256
6
ByLayer
370
13
48
1
60
0
100
AcDbLine
10
4.923205
20
-15.276962
30
0
11
4.923205
21
-4.755463
31
0
39
0
210
0
220
0
230
1
0
LINE
5
81
100
AcDbEntity
8
1
62
256
6
ByLayer
370
13
48
1
60
0
100
AcDbLine
10
15.279208
20
16
30
0
11
15.279208
21
7.843666
31
0
39
0
210
0
220
0
230
1
0
LINE
5
82
100
AcDbEntity
8
1
62
256
6
ByLayer
370
13
48
1
60
0
100
AcDbLine
10
7.336603
20
-15.175938
30
0
11
7.336603
21
-5.068619
31
0
39
0
210
0
220
0
230
1
0
LINE
5
83
100
AcDbEntity
8
1
62
256
6
ByLayer
370
13
48
1
60
0
100
AcDbLine
10
19.005388
20
-9.500034
30
0
11
19.005388
21
16.15
31
0
39
0
210
0
220
0
230
1
0
LINE
5
84
100
AcDbEntity
8
1
62
256
6
ByLayer
370
13
48
1
60
0
100
AcDbLine
10
4.663397
20
5.068619
30
0
11
4.663397
21
15.175938
31
0
39
0
210
0
220
0
230
1
0
LINE
5
85
100
AcDbEntity
8
1
62
256
6
ByLayer
370
13
48
1
60
0
100
AcDbLine
10
34.339306
20
21.675
30
0
11
44.8
21
21.675
31
0
39
0
210
0
220
0
230
1
0
LINE
5
86
100
AcDbEntity
8
1
62
256
6
ByLayer
370
13
48
1
60
0
100
AcDbLine
10
4.923205
20
-4.755463
30
0
11
7.076795
21
-4.755463
31
0
39
0
210
0
220
0
230
1
0
LINE
5
87
100
AcDbEntity
8
1
62
256
6
ByLayer
370
13
48
1
60
0
100
AcDbLine
10
38.4
20
17.725
30
0
11
37.128821
21
17.725
31
0
39
0
210
0
220
0
230
1
0
LINE
5
88
100
AcDbEntity
8
1
62
256
6
ByLayer
370
13
48
1
60
0
100
AcDbLine
10
24.65
20
-9.5
30
0
11
24.65
21
16.152506
31
0
39
0
210
0
220
0
230
1
0
LINE
5
89
100
AcDbEntity
8
1
62
256
6
ByLayer
370
13
48
1
60
0
100
AcDbLine
10
25.1
20
21.675
30
0
11
24.979216
21
21.675
31
0
39
0
210
0
220
0
230
1
0
LINE
5
8A
100
AcDbEntity
8
1
62
256
6
ByLayer
370
13
48
1
60
0
100
AcDbLine
10
48.119516
20
19.325
30
0
11
51.186272
21
19.325
31
0
39
0
210
0
220
0
230
1
0
LINE
5
8B
100
AcDbEntity
8
1
62
256
6
ByLayer
370
13
48
1
60
0
100
AcDbLine
10
48.119588
20
21.675
30
0
11
51.186295
21
21.675
31
0
39
0
210
0
220
0
230
1
0
LINE
5
8C
100
AcDbEntity
8
1
62
256
6
ByLayer
370
13
48
1
60
0
100
AcDbLine
10
7.336603
20
5.068619
30
0
11
7.336603
21
15.175938
31
0
39
0
210
0
220
0
230
1
0
LINE
5
8D
100
AcDbEntity
8
1
62
256
6
ByLayer
370
13
48
1
60
0
100
AcDbLine
10
15.022122
20
-13.465094
30
0
11
15
21
-16
31
0
39
0
210
0
220
0
230
1
0
LINE
5
8E
100
AcDbEntity
8
1
62
256
6
ByLayer
370
13
48
1
60
0
100
AcDbLine
10
25.1
20
16.65
30
0
11
24.979216
21
16.65
31
0
39
0
210
0
220
0
230
1
0
LINE
5
8F
100
AcDbEntity
8
1
62
256
6
ByLayer
370
13
48
1
60
0
100
AcDbLine
10
23.569184
20
21.675
30
0
11
20.9
21
21.675
31
0
39
0
210
0
220
0
230
1
0
LINE
5
90
100
AcDbEntity
8
1
62
256
6
ByLayer
370
13
48
1
60
0
100
AcDbLine
10
24.65
20
-9.5
30
0
11
33.4
21
-9.5
31
0
39
0
210
0
220
0
230
1
0
LINE
5
91
100
AcDbEntity
8
1
62
256
6
ByLayer
370
13
48
1
60
0
100
AcDbLine
10
44.8
20
19.325
30
0
11
44.8
21
21.675
31
0
39
0
210
0
220
0
230
1
0
LINE
5
92
100
AcDbEntity
8
1
62
256
6
ByLayer
370
13
48
1
60
0
100
AcDbLine
10
7.076795
20
4.755463
30
0
11
4.923205
21
4.755463
31
0
39
0
210
0
220
0
230
1
0
LINE
5
93
100
AcDbEntity
8
1
62
256
6
ByLayer
370
13
48
1
60
0
100
AcDbLine
10
19.150018
20
16.15
30
0
11
24.6
21
16.15
31
0
39
0
210
0
220
0
230
1
0
LINE
5
94
100
AcDbEntity
8
1
62
256
6
ByLayer
370
13
48
1
60
0
100
AcDbLine
10
19.005388
20
16.15
30
0
11
19.15
21
16.15
31
0
39
0
210
0
220
0
230
1
0
LINE
5
95
100
AcDbEntity
8
1
62
256
6
ByLayer
370
13
48
1
60
0
100
AcDbLine
10
23.569184
20
16.65
30
0
11
23.569184
21
21.675
31
0
39
0
210
0
220
0
230
1
0
LINE
5
96
100
AcDbEntity
8
1
62
256
6
ByLayer
370
13
48
1
60
0
100
AcDbLine
10
0
20
15.7
30
0
11
0
21
-15.7
31
0
39
0
210
0
220
0
230
1
0
LINE
5
97
100
AcDbEntity
8
1
62
256
6
ByLayer
370
13
48
1
60
0
100
AcDbLine
10
7.076795
20
-15.276962
30
0
11
4.923205
21
-15.276962
31
0
39
0
210
0
220
0
230
1
0
LINE
5
98
100
AcDbEntity
8
1
62
256
6
ByLayer
370
13
48
1
60
0
100
AcDbLine
10
7.076795
20
4.755463
30
0
11
7.076795
21
15.276962
31
0
39
0
210
0
220
0
230
1
0
LINE
5
99
100
AcDbEntity
8
1
62
256
6
ByLayer
370
13
48
1
60
0
100
AcDbLine
10
23.569184
20
16.65
30
0
11
20.9
21
16.65
31
0
39
0
210
0
220
0
230
1
0
LINE
5
9A
100
AcDbEntity
8
1
62
256
6
ByLayer
370
13
48
1
60
0
100
AcDbLine
10
4.663397
20
-15.175938
30
0
11
4.663397
21
-5.068619
31
0
39
0
210
0
220
0
230
1
0
LINE
5
9B
100
AcDbEntity
8
1
62
256
6
ByLayer
370
13
48
1
60
0
100
AcDbLine
10
4.923205
20
4.755463
30
0
11
4.923205
21
15.276962
31
0
39
0
210
0
220
0
230
1
0
LINE
5
9C
100
AcDbEntity
8
1
62
256
6
ByLayer
370
13
48
1
60
0
100
AcDbLine
10
24.979255
20
21.675
30
0
11
24.336699
21
21.675
31
0
39
0
210
0
220
0
230
1
0
LINE
5
9D
100
AcDbEntity
8
1
62
256
6
ByLayer
370
13
48
1
60
0
100
AcDbLine
10
19.021969
20
-9.5
30
0
11
19.15
21
-9.5
31
0
39
0
210
0
220
0
230
1
0
LINE
5
9E
100
AcDbEntity
8
1
62
256
6
ByLayer
370
13
48
1
60
0
100
AcDbLine
10
34.339306
20
19.325
30
0
11
34.339306
21
21.675
31
0
39
0
210
0
220
0
230
1
0
LINE
5
9F
100
AcDbEntity
8
1
62
256
6
ByLayer
370
13
48
1
60
0
100
AcDbLine
10
20.9
20
16.15
30
0
11
20.9
21
16.65
31
0
39
0
210
0
220
0
230
1
0
LINE
5
A0
100
AcDbEntity
8
1
62
256
6
ByLayer
370
13
48
1
60
0
100
AcDbLine
10
15.279208
20
-7.843666
30
0
11
15.279208
21
-12.088712
31
0
39
0
210
0
220
0
230
1
0
LINE
5
A1
100
AcDbEntity
8
1
62
256
6
ByLayer
370
13
48
1
60
0
100
AcDbLine
10
24.649952
20
-9.5
30
0
11
19.150049
21
-9.5
31
0
39
0
210
0
220
0
230
1
0
LINE
5
A2
100
AcDbEntity
8
1
62
256
6
ByLayer
370
13
48
1
60
0
100
AcDbLine
10
25.1
20
21.675
30
0
11
34.339306
21
21.675
31
0
39
0
210
0
220
0
230
1
0
LINE
5
A3
100
AcDbEntity
8
1
62
256
6
ByLayer
370
13
48
1
60
0
100
AcDbLine
10
15.005541
20
4.462498
30
0
11
15.005541
21
-4.462498
31
0
39
0
210
0
220
0
230
1
0
LINE
5
A4
100
AcDbEntity
8
1
62
256
6
ByLayer
370
13
48
1
60
0
100
AcDbLine
10
24.979216
20
16.65
30
0
11
24.979216
21
21.675
31
0
39
0
210
0
220
0
230
1
0
LINE
5
A5
100
AcDbEntity
8
1
62
256
6
ByLayer
370
13
48
1
60
0
100
AcDbLine
10
44.8
20
19.325
30
0
11
40
21
19.325
31
0
39
0
210
0
220
0
230
1
0
LINE
5
A6
100
AcDbEntity
8
1
62
256
6
ByLayer
370
13
48
1
60
0
100
AcDbLine
10
19.005388
20
16.15
30
0
11
17.271479
21
16.15
31
0
39
0
210
0
220
0
230
1
0
LINE
5
A7
100
AcDbEntity
8
1
62
256
6
ByLayer
370
13
48
1
60
0
100
AcDbLine
10
20.9
20
16.65
30
0
11
16.488884
21
16.65
31
0
39
0
210
0
220
0
230
1
0
LINE
5
A8
100
AcDbEntity
8
1
62
256
6
ByLayer
370
13
48
1
60
0
100
AcDbLine
10
23.569184
20
21.675
30
0
11
24.336699
21
21.675
31
0
39
0
210
0
220
0
230
1
0
LINE
5
A9
100
AcDbEntity
8
1
62
256
6
ByLayer
370
13
48
1
60
0
100
AcDbLine
10
36.864393
20
-3.059597
30
0
11
38.4
21
8
31
0
39
0
210
0
220
0
230
1
0
LINE
5
AA
100
AcDbEntity
8
1
62
256
6
ByLayer
370
13
48
1
60
0
100
AcDbLine
10
20.9
20
21.675
30
0
11
17.809191
21
21.675
31
0
39
0
210
0
220
0
230
1
0
LINE
5
AB
100
AcDbEntity
8
1
62
256
6
ByLayer
370
13
48
1
60
0
100
AcDbLine
10
38.4
20
8
30
0
11
38.4
21
17.725
31
0
39
0
210
0
220
0
230
1
0
LINE
5
AC
100
AcDbEntity
8
1
62
256
6
ByLayer
370
13
48
1
60
0
100
AcDbLine
10
24.889565
20
16.36814
30
0
11
24.889565
21
16.269922
31
0
39
0
210
0
220
0
230
1
0
LINE
5
AD
100
AcDbEntity
8
1
62
256
6
ByLayer
370
13
48
1
60
0
100
AcDbLine
10
40
20
19.325
30
0
11
34.339306
21
19.325
31
0
39
0
210
0
220
0
230
1
0
LINE
5
AE
100
AcDbEntity
8
1
62
256
6
ByLayer
370
13
48
1
60
0
100
AcDbLine
10
48.119635
20
19.325
30
0
11
44.8
21
19.325
31
0
39
0
210
0
220
0
230
1
0
LINE
5
AF
100
AcDbEntity
8
1
62
256
6
ByLayer
370
13
48
1
60
0
100
AcDbLine
10
7.076795
20
-15.276962
30
0
11
7.076795
21
-4.755463
31
0
39
0
210
0
220
0
230
1
0
LINE
5
B0
100
AcDbEntity
8
1
62
256
6
ByLayer
370
13
48
1
60
0
100
AcDbLine
10
25.1
20
16.65
30
0
11
25.1
21
21.675
31
0
39
0
210
0
220
0
230
1
0
LINE
5
B1
100
AcDbEntity
8
1
62
256
6
ByLayer
370
13
48
1
60
0
100
AcDbLine
10
16.438319
20
11.539682
30
0
11
16.438319
21
16.15
31
0
39
0
210
0
220
0
230
1
0
LINE
5
B2
100
AcDbEntity
8
1
62
256
6
ByLayer
370
13
48
1
60
0
100
AcDbLine
10
44.8
20
21.675
30
0
11
48.119635
21
21.675
31
0
39
0
210
0
220
0
230
1
0
LINE
5
B3
100
AcDbEntity
8
1
62
256
6
ByLayer
370
13
48
1
60
0
100
AcDbLine
10
19.15
20
16.15
30
0
11
19.15
21
-9.5
31
0
39
0
210
0
220
0
230
1
0
LINE
5
B4
100
AcDbEntity
8
1
62
256
6
ByLayer
370
18
48
1
60
0
100
AcDbLine
10
49.018406
20
21.65
30
0
11
48.129459
21
21.65
31
0
39
0
210
0
220
0
230
1
0
LINE
5
B5
100
AcDbEntity
8
1
62
256
6
ByLayer
370
13
48
1
60
0
100
AcDbLine
10
48.218941
20
19.574854
30
0
11
49.027452
21
19.574854
31
0
39
0
210
0
220
0
230
1
0
LINE
5
B6
100
AcDbEntity
8
1
62
256
6
ByLayer
370
13
48
1
60
0
100
AcDbLine
10
48.198526
20
19.523551
30
0
11
49.018406
21
19.523551
31
0
39
0
210
0
220
0
230
1
0
LINE
5
B7
100
AcDbEntity
8
1
62
256
6
ByLayer
370
13
48
1
60
0
100
AcDbLine
10
48.439935
20
20.32899
30
0
11
49.301935
21
20.32899
31
0
39
0
210
0
220
0
230
1
0
LINE
5
B8
100
AcDbEntity
8
1
62
256
6
ByLayer
370
18
48
1
60
0
100
AcDbLine
10
49.018406
20
19.35
30
0
11
48.129459
21
19.35
31
0
39
0
210
0
220
0
230
1
0
LINE
5
B9
100
AcDbEntity
8
1
62
256
6
ByLayer
370
13
48
1
60
0
100
AcDbLine
10
48.218941
20
21.425146
30
0
11
49.027452
21
21.425146
31
0
39
0
210
0
220
0
230
1
0
LINE
5
BA
100
AcDbEntity
8
1
62
256
6
ByLayer
370
13
48
1
60
0
100
AcDbLine
10
48.198526
20
21.476449
30
0
11
49.018406
21
21.476449
31
0
39
0
210
0
220
0
230
1
0
LINE
5
BB
100
AcDbEntity
8
1
62
256
6
ByLayer
370
18
48
1
60
0
100
AcDbLine
10
38.81369
20
21.675
30
0
11
38.5
21
21.856109
31
0
39
0
210
0
220
0
230
1
0
LINE
5
BC
100
AcDbEntity
8
1
62
256
6
ByLayer
370
18
48
1
60
0
100
AcDbLine
10
35
20
21.674997
30
0
11
35
21
21.8
31
0
39
0
210
0
220
0
230
1
0
LINE
5
BD
100
AcDbEntity
8
1
62
256
6
ByLayer
370
13
48
1
60
0
100
AcDbLine
10
48.439935
20
20.67101
30
0
11
49.301935
21
20.67101
31
0
39
0
210
0
220
0
230
1
0
LINE
5
BE
100
AcDbEntity
8
1
62
256
6
ByLayer
370
18
48
1
60
0
100
AcDbLine
10
49.018406
20
21.65
30
0
11
50.2
21
21.65
31
0
39
0
210
0
220
0
230
1
0
LINE
5
BF
100
AcDbEntity
8
1
62
256
6
ByLayer
370
18
48
1
60
0
100
AcDbLine
10
50.2
20
21.65
30
0
11
51.143008
21
21.65
31
0
39
0
210
0
220
0
230
1
0
LINE
5
C0
100
AcDbEntity
8
1
62
256
6
ByLayer
370
18
48
1
60
0
100
AcDbLine
10
49.018406
20
21.476449
30
0
11
49.018406
21
21.65
31
0
39
0
210
0
220
0
230
1
0
LINE
5
C1
100
AcDbEntity
8
1
62
256
6
ByLayer
370
18
48
1
60
0
100
AcDbLine
10
49.027452
20
21.425146
30
0
11
49.301935
21
20.67101
31
0
39
0
210
0
220
0
230
1
0
LINE
5
C2
100
AcDbEntity
8
1
62
256
6
ByLayer
370
18
48
1
60
0
100
AcDbLine
10
50.2
20
21.65
30
0
11
50.2
21
19.35
31
0
39
0
210
0
220
0
230
1
0
LINE
5
C3
100
AcDbEntity
8
1
62
256
6
ByLayer
370
18
48
1
60
0
100
AcDbLine
10
55
20
19.2
30
0
11
55
21
21.8
31
0
39
0
210
0
220
0
230
1
0
LINE
5
C4
100
AcDbEntity
8
1
62
256
6
ByLayer
370
18
48
1
60
0
100
AcDbLine
10
54.791276
20
21.99981
30
0
11
51.5
21
21.856109
31
0
39
0
210
0
220
0
230
1
0
LINE
5
C5
100
AcDbEntity
8
1
62
256
6
ByLayer
370
18
48
1
60
0
100
AcDbLine
10
51.143008
20
21.65
30
0
11
51.5
21
21.856109
31
0
39
0
210
0
220
0
230
1
0
LINE
5
C6
100
AcDbEntity
8
1
62
256
6
ByLayer
370
18
48
1
60
0
100
AcDbLine
10
35.208724
20
21.99981
30
0
11
38.5
21
21.856109
31
0
39
0
210
0
220
0
230
1
0
LINE
5
C7
100
AcDbEntity
8
1
62
256
6
ByLayer
370
18
48
1
60
0
100
AcDbLine
10
54.791276
20
19.00019
30
0
11
51.5
21
19.143891
31
0
39
0
210
0
220
0
230
1
0
LINE
5
C8
100
AcDbEntity
8
1
62
256
6
ByLayer
370
18
48
1
60
0
100
AcDbLine
10
49.018406
20
19.35
30
0
11
50.2
21
19.35
31
0
39
0
210
0
220
0
230
1
0
LINE
5
C9
100
AcDbEntity
8
1
62
256
6
ByLayer
370
18
48
1
60
0
100
AcDbLine
10
49.018406
20
19.523551
30
0
11
49.018406
21
19.35
31
0
39
0
210
0
220
0
230
1
0
LINE
5
CA
100
AcDbEntity
8
1
62
256
6
ByLayer
370
18
48
1
60
0
100
AcDbLine
10
50.2
20
19.35
30
0
11
51.143008
21
19.35
31
0
39
0
210
0
220
0
230
1
0
LINE
5
CB
100
AcDbEntity
8
1
62
256
6
ByLayer
370
18
48
1
60
0
100
AcDbLine
10
51.143008
20
19.35
30
0
11
51.5
21
19.143891
31
0
39
0
210
0
220
0
230
1
0
LINE
5
CC
100
AcDbEntity
8
1
62
256
6
ByLayer
370
18
48
1
60
0
100
AcDbLine
10
49.027452
20
19.574854
30
0
11
49.301935
21
20.32899
31
0
39
0
210
0
220
0
230
1
0
MTEXT
5
118
100
AcDbEntity
8
SK6
62
256
6
ByLayer
370
18
48
1
60
0
100
AcDbMText
10
-13.625
20
-47.875
30
0
210
0
220
0
230
1
1
\W0.7399;C3-RF123G15C22055E
40
3.5
41
0
44
1.084337
50
0
71
7
72
5
7
iso_b_vert
0
DIMENSION
5
12A
100
AcDbEntity
8
2
62
256
6
ByLayer
370
13
48
1
60
0
100
AcDbDimension
2
DimnDraft3D1
10
80.1
20
22
30
0
11
80.1
21
8.909211
31
0
70
32
71
5
72
1
41
1
210
0
220
0
230
1
3
Standard
100
AcDbAlignedDimension
13
42
23
0
33
0
14
57
24
22
34
0
50
90
100
AcDbRotatedDimension
1001
ACAD
1000
DSTYLE
1002
{
1070
    74
1070
     0
1070
   279
1070
     0
1070
   172
1070
     1
1070
   173
1070
     1
1070
   340
1005
119
1070
   271
1070
     1
1070
    77
1070
     1
1070
    73
1070
     0
1070
   171
1070
     3
1070
   274
1070
     4
1070
   177
1070
     2
1070
   176
1070
     2
1070
   178
1070
     7
1070
    78
1070
     8
1070
    41
1041
3.175
1070
   147
1041
1.75
1070
    42
1041
2.0
1070
    44
1041
2.0
1070
   140
1041
3.5
1070
   343
1005
12B
1070
   344
1005
12B
1002
}
0
DIMENSION
5
140
100
AcDbEntity
8
SK2
62
256
6
ByLayer
370
13
48
1
60
0
100
AcDbDimension
2
DimnDraft3D2
10
55
20
44.6
30
0
11
25.409211
21
44.6
31
0
70
32
71
5
72
1
41
1
210
0
220
0
230
1
3
Standard
100
AcDbAlignedDimension
13
0
23
2
33
0
14
55
24
24
34
0
50
0
100
AcDbRotatedDimension
1001
ACAD
1000
DSTYLE
1002
{
1070
   279
1070
     0
1070
   172
1070
     1
1070
   173
1070
     1
1070
   340
1005
119
1070
   271
1070
     1
1070
    77
1070
     1
1070
    73
1070
     0
1070
   171
1070
     3
1070
   274
1070
     4
1070
   177
1070
     2
1070
   176
1070
     2
1070
   178
1070
     7
1070
    78
1070
     8
1070
    41
1041
3.175
1070
   147
1041
1.75
1070
    42
1041
2.0
1070
    44
1041
2.0
1070
   140
1041
3.5
1070
   343
1005
12B
1070
   344
1005
12B
1002
}
0
DIMENSION
5
14E
100
AcDbEntity
8
2
62
256
6
ByLayer
370
13
48
1
60
0
100
AcDbDimension
2
DimnDraft3D3
10
40
20
-29.1
30
0
11
45.846711
21
-29.1
31
0
70
32
71
5
72
1
41
1
210
0
220
0
230
1
3
Standard
100
AcDbAlignedDimension
13
55
23
20
33
0
14
40
24
-2
34
0
50
0
100
AcDbRotatedDimension
1001
ACAD
1000
DSTYLE
1002
{
1070
   279
1070
     0
1070
   172
1070
     1
1070
   173
1070
     1
1070
   340
1005
119
1070
   271
1070
     1
1070
    77
1070
     1
1070
    73
1070
     0
1070
   171
1070
     3
1070
   274
1070
     4
1070
   177
1070
     2
1070
   176
1070
     2
1070
   178
1070
     7
1070
    78
1070
     8
1070
    41
1041
3.175
1070
   147
1041
1.75
1070
    42
1041
2.0
1070
    44
1041
2.0
1070
   140
1041
3.5
1070
   343
1005
12B
1070
   344
1005
12B
1002
}
0
DIMENSION
5
15C
100
AcDbEntity
8
SK2
62
256
6
ByLayer
370
13
48
1
60
0
100
AcDbDimension
2
DimnDraft3D4
10
-28.6
20
-16
30
0
11
-28.6
21
-2.090789
31
0
70
32
71
5
72
1
41
1
210
0
220
0
230
1
3
Standard
100
AcDbAlignedDimension
13
-2
23
16
33
0
14
-2
24
-16
34
0
50
90
100
AcDbRotatedDimension
1001
ACAD
1000
DSTYLE
1002
{
1070
    74
1070
     0
1070
   279
1070
     0
1070
   172
1070
     1
1070
   173
1070
     1
1070
   340
1005
119
1070
   271
1070
     1
1070
    77
1070
     1
1070
    73
1070
     0
1070
   171
1070
     3
1070
   274
1070
     4
1070
   177
1070
     2
1070
   176
1070
     2
1070
   178
1070
     7
1070
    78
1070
     8
1070
    41
1041
3.175
1070
   147
1041
1.75
1070
    42
1041
2.0
1070
    44
1041
2.0
1070
   140
1041
3.5
1070
   343
1005
12B
1070
   344
1005
12B
1002
}
0
DIMENSION
5
16A
100
AcDbEntity
8
2
62
256
6
ByLayer
370
13
48
1
60
0
100
AcDbDimension
2
DimnDraft3D5
10
73.1
20
19
30
0
11
73.1
21
7.179211
31
0
70
32
71
5
72
1
41
1
210
0
220
0
230
1
3
Standard
100
AcDbAlignedDimension
13
57
23
22
33
0
14
57
24
19
34
0
50
90
100
AcDbRotatedDimension
1001
ACAD
1000
DSTYLE
1002
{
1070
    74
1070
     0
1070
   279
1070
     0
1070
   172
1070
     1
1070
   173
1070
     1
1070
   340
1005
119
1070
   271
1070
     1
1070
    77
1070
     1
1070
    73
1070
     0
1070
   171
1070
     3
1070
   274
1070
     4
1070
   177
1070
     2
1070
   176
1070
     2
1070
   178
1070
     7
1070
    78
1070
     8
1070
    41
1041
3.175
1070
   147
1041
1.75
1070
    42
1041
2.0
1070
    44
1041
2.0
1070
   140
1041
3.5
1070
   343
1005
12B
1070
   344
1005
12B
1002
}
0
ENDSEC
0
SECTION
2
OBJECTS
0
DICTIONARY
5
1d4
330
0
100
AcDbDictionary
280
0
281
1
3
ACAD_GROUP
350
1d5
3
ACAD_MLINESTYLE
350
1d6
0
DICTIONARY
5
1d5
330
0
100
AcDbDictionary
280
0
281
1
0
DICTIONARY
5
1d6
330
0
100
AcDbDictionary
280
0
281
1
3
Standard
350
18
0
MLINESTYLE
5
18
330
1d6
100
AcDbMlineStyle
2
Standard
70
0
3

62
256
51
90
52
90
71
2
49
-0.5
62
256
6
ByLayer
49
0.5
62
256
6
ByLayer
0
RASTERVARIABLES
5
1c3
330

100
AcDbRasterVariables
90
0
70
1
71
1
72
1
0
ENDSEC
0
EOF
