0
SECTION
2
HEADER
9
$ACADVER
1
AC1015
9
$DWGCODEPAGE
3
ANSI_1252
9
$HANDSEED
5
216
9
$ANGBASE
50
0
9
$ANGDIR
70
0
9
$ATTMODE
70
1
9
$AUNITS
70
0
9
$AUPREC
70
0
9
$CECOLOR
62
256
9
$CELTSCALE
40
1
9
$CELTYPE
6
ByLayer
9
$CELWEIGHT
370
18
9
$CLAYER
8
0
9
$CMLJUST
70
0
9
$CMLSCALE
40
1
9
$CMLSTYLE
2
Standard
9
$DIMSTYLE
2
Standard
9
$TEXTSIZE
40
0.2
9
$TEXTSTYLE
7
Standard
9
$LUNITS
70
2
9
$LUPREC
70
4
9
$EXTNAMES
290
1
9
$INSUNITS
70
4
9
$LTSCALE
40
1
9
$LWDISPLAY
290
1
9
$PDMODE
70
0
9
$PDSIZE
40
0
9
$PLINEGEN
70
0
0
ENDSEC
0
SECTION
2
CLASSES
0
CLASS
1
RASTERVARIABLES
2
AcDbRasterVariables
3
ISM
90
0
280
0
281
0
0
ENDSEC
0
SECTION
2
TABLES
0
TABLE
2
VPORT
5
20c
100
AcDbSymbolTable
0
VPORT
5
1
100
AcDbSymbolTableRecord
100
AcDbViewportTableRecord
2
*Active
70
0
10
0
20
0
11
1
21
1
12
-1
22
1
13
0
23
0
14
0.5
24
0.5
15
10
25
10
16
0
26
0
36
1
17
0
27
0
37
0
0
ENDTAB
0
TABLE
2
LTYPE
5
20d
100
AcDbSymbolTable
0
LTYPE
5
14
100
AcDbSymbolTableRecord
100
AcDbLinetypeTableRecord
70
0
2
ByBlock
3

72
65
73
0
40
0
0
LTYPE
5
15
100
AcDbSymbolTableRecord
100
AcDbLinetypeTableRecord
70
0
2
ByLayer
3

72
65
73
0
40
0
0
LTYPE
5
16
100
AcDbSymbolTableRecord
100
AcDbLinetypeTableRecord
70
0
2
CONTINUOUS
3
Solid line
72
65
73
0
40
0
0
LTYPE
5
6A
100
AcDbSymbolTableRecord
100
AcDbLinetypeTableRecord
70
0
2
CENTER
3
____ _ ____ _ ____ _ ____
72
65
73
4
40
47.5
49
22
74
0
49
-8.5
74
0
49
8.5
74
0
49
-8.5
74
0
0
LTYPE
5
6B
100
AcDbSymbolTableRecord
100
AcDbLinetypeTableRecord
70
0
2
DASHED
3
__ __ __ __ __ __ __ __ __
72
65
73
2
40
25.72
49
12.86
74
0
49
-12.86
74
0
0
ENDTAB
0
TABLE
2
LAYER
5
20e
100
AcDbSymbolTable
0
LAYER
5
10
100
AcDbSymbolTableRecord
100
AcDbLayerTableRecord
2
0
70
0
62
7
6
CONTINUOUS
290
1
370
-3
390
0
0
LAYER
5
6D
100
AcDbSymbolTableRecord
100
AcDbLayerTableRecord
2
2
70
0
62
7
6
CONTINUOUS
290
1
370
-3
390
0
0
LAYER
5
72
100
AcDbSymbolTableRecord
100
AcDbLayerTableRecord
2
80
70
0
62
-6
6
CONTINUOUS
290
1
370
-3
390
0
0
LAYER
5
74
100
AcDbSymbolTableRecord
100
AcDbLayerTableRecord
2
81
70
0
62
-3
6
CONTINUOUS
290
1
370
-3
390
0
0
LAYER
5
77
100
AcDbSymbolTableRecord
100
AcDbLayerTableRecord
2
1
70
0
62
4
6
CONTINUOUS
290
1
370
-3
390
0
0
LAYER
5
7D
100
AcDbSymbolTableRecord
100
AcDbLayerTableRecord
2
4
70
0
62
-2
6
CENTER
290
1
370
-3
390
0
0
LAYER
5
DD
100
AcDbSymbolTableRecord
100
AcDbLayerTableRecord
2
62
70
0
62
-5
6
CONTINUOUS
290
1
370
-3
390
0
0
LAYER
5
1f7
100
AcDbSymbolTableRecord
100
AcDbLayerTableRecord
2
CUT
70
0
62
-1
6
CONTINUOUS
290
1
370
-3
390
0
0
LAYER
5
1f8
100
AcDbSymbolTableRecord
100
AcDbLayerTableRecord
2
SK4
70
0
62
2
6
CENTER
290
1
370
-3
390
0
0
LAYER
5
1f9
100
AcDbSymbolTableRecord
100
AcDbLayerTableRecord
2
SK1
70
0
62
4
6
CONTINUOUS
290
1
370
-3
390
0
0
LAYER
5
1fa
100
AcDbSymbolTableRecord
100
AcDbLayerTableRecord
2
SK6
70
0
62
5
6
CONTINUOUS
290
1
370
-3
390
0
0
LAYER
5
1fb
100
AcDbSymbolTableRecord
100
AcDbLayerTableRecord
2
SK2
70
0
62
7
6
CONTINUOUS
290
1
370
-3
390
0
0
ENDTAB
0
TABLE
2
STYLE
5
20f
100
AcDbSymbolTable
0
STYLE
5
11
100
AcDbSymbolTableRecord
100
AcDbTextStyleTableRecord
2
Standard
3
txt
70
0
71
0
40
0
41
1
42
0
50
0
0
STYLE
5
14D
100
AcDbSymbolTableRecord
100
AcDbTextStyleTableRecord
2
iso_b_vert
3
simplex.shx
70
0
71
0
40
0
41
1
42
0
50
0
0
STYLE
5
14E
100
AcDbSymbolTableRecord
100
AcDbTextStyleTableRecord
2
DWGDirectTextStyle
3
simplex
70
0
71
0
40
0
41
1
42
0
50
0
0
ENDTAB
0
TABLE
2
DIMSTYLE
5
210
100
AcDbSymbolTable
100
AcDbDimStyleTable
0
DIMSTYLE
105
27
100
AcDbSymbolTableRecord
100
AcDbDimStyleTableRecord
2
Standard
70
0
3
<>
41
0.18
42
0.0625
44
0.18
140
0.18
147
0.09
73
0
74
0
77
1
271
2
275
0
278
52
280
0
340
11
0
ENDTAB
0
TABLE
2
VIEW
5
211
100
AcDbSymbolTable
0
ENDTAB
0
TABLE
2
UCS
5
212
100
AcDbSymbolTable
0
ENDTAB
0
TABLE
2
APPID
5
213
100
AcDbSymbolTable
0
APPID
5
12
100
AcDbSymbolTableRecord
100
AcDbRegAppTableRecord
2
ACAD
70
0
0
ENDTAB
0
TABLE
2
BLOCK_RECORD
5
214
100
AcDbSymbolTable
0
BLOCK_RECORD
5
1F
100
AcDbSymbolTableRecord
100
AcDbBlockTableRecord
2
*Model_Space
340
0
70
0
0
BLOCK_RECORD
5
1B
100
AcDbSymbolTableRecord
100
AcDbBlockTableRecord
2
*Paper_Space
340
0
70
0
0
BLOCK_RECORD
5
23
100
AcDbSymbolTableRecord
100
AcDbBlockTableRecord
2
*Paper_Space0
340
0
70
0
0
BLOCK_RECORD
5
150
100
AcDbSymbolTableRecord
100
AcDbBlockTableRecord
2
DimnDraft3D1
340
0
70
0
0
BLOCK_RECORD
5
15F
100
AcDbSymbolTableRecord
100
AcDbBlockTableRecord
2
_CLOSED
340
0
70
0
0
BLOCK_RECORD
5
166
100
AcDbSymbolTableRecord
100
AcDbBlockTableRecord
2
DimnDraft3D2
340
0
70
0
0
BLOCK_RECORD
5
174
100
AcDbSymbolTableRecord
100
AcDbBlockTableRecord
2
DimnDraft3D3
340
0
70
0
0
BLOCK_RECORD
5
182
100
AcDbSymbolTableRecord
100
AcDbBlockTableRecord
2
DimnDraft3D4
340
0
70
0
0
BLOCK_RECORD
5
190
100
AcDbSymbolTableRecord
100
AcDbBlockTableRecord
2
DimnDraft3D5
340
0
70
0
0
ENDTAB
0
ENDSEC
0
SECTION
2
BLOCKS
0
BLOCK
5
20
100
AcDbEntity
8
0
100
AcDbBlockBegin
2
*Model_Space
70
0
10
0
20
0
30
0
3
*Model_Space
0
ENDBLK
5
21
100
AcDbEntity
8
0
100
AcDbBlockEnd
0
BLOCK
5
1C
100
AcDbEntity
8
0
100
AcDbBlockBegin
2
*Paper_Space
70
0
10
0
20
0
30
0
3
*Paper_Space
0
ENDBLK
5
1D
100
AcDbEntity
8
0
100
AcDbBlockEnd
0
BLOCK
5
24
100
AcDbEntity
8
0
100
AcDbBlockBegin
2
*Paper_Space0
70
0
10
0
20
0
30
0
3
*Paper_Space0
0
ENDBLK
5
25
100
AcDbEntity
8
0
100
AcDbBlockEnd
0
BLOCK
5
15C
100
AcDbEntity
8
0
100
AcDbBlockBegin
2
DimnDraft3D1
70
0
10
0
20
0
30
0
3
DimnDraft3D1
0
MTEXT
5
151
100
AcDbEntity
8
SK2
62
256
6
ByLayer
370
18
48
1
60
0
100
AcDbMText
10
-34.355
20
-1.563158
30
0
210
0
220
0
230
1
1
\W0.6740;32
40
4.5
41
0
44
1.084337
50
90
71
7
72
5
7
iso_b_vert
0
LINE
5
153
100
AcDbEntity
8
SK2
62
256
6
ByLayer
370
13
48
1
60
0
100
AcDbLine
10
-1.5
20
-16
30
0
11
-36.23
21
-16
31
0
39
0
210
0
220
0
230
1
0
LINE
5
154
100
AcDbEntity
8
SK2
62
256
6
ByLayer
370
13
48
1
60
0
100
AcDbLine
10
-1.5
20
16
30
0
11
-36.23
21
16
31
0
39
0
210
0
220
0
230
1
0
LINE
5
155
100
AcDbEntity
8
SK2
62
256
6
ByLayer
370
13
48
1
60
0
100
AcDbLine
10
-33.23
20
-16
30
0
11
-33.23
21
16
31
0
39
0
210
0
220
0
230
1
0
LINE
5
156
100
AcDbEntity
8
SK2
62
256
6
ByLayer
370
13
48
1
60
0
100
AcDbLine
10
-33.23
20
-16
30
0
11
-33.624957
21
-13.000001
31
0
39
0
210
0
220
0
230
1
0
LINE
5
157
100
AcDbEntity
8
SK2
62
256
6
ByLayer
370
13
48
1
60
0
100
AcDbLine
10
-33.23
20
-16
30
0
11
-32.835043
21
-12.999999
31
0
39
0
210
0
220
0
230
1
0
LINE
5
158
100
AcDbEntity
8
SK2
62
256
6
ByLayer
370
13
48
1
60
0
100
AcDbLine
10
-33.624957
20
-13.000001
30
0
11
-32.835043
21
-12.999999
31
0
39
0
210
0
220
0
230
1
0
LINE
5
159
100
AcDbEntity
8
SK2
62
256
6
ByLayer
370
13
48
1
60
0
100
AcDbLine
10
-33.23
20
16
30
0
11
-32.835043
21
13.000001
31
0
39
0
210
0
220
0
230
1
0
LINE
5
15A
100
AcDbEntity
8
SK2
62
256
6
ByLayer
370
13
48
1
60
0
100
AcDbLine
10
-33.23
20
16
30
0
11
-33.624957
21
12.999999
31
0
39
0
210
0
220
0
230
1
0
LINE
5
15B
100
AcDbEntity
8
SK2
62
256
6
ByLayer
370
13
48
1
60
0
100
AcDbLine
10
-32.835043
20
13.000001
30
0
11
-33.624957
21
12.999999
31
0
39
0
210
0
220
0
230
1
0
ENDBLK
5
15D
100
AcDbEntity
8
0
100
AcDbBlockEnd
0
BLOCK
5
160
100
AcDbEntity
8
0
100
AcDbBlockBegin
2
_CLOSED
70
0
10
0
20
0
30
0
3
_CLOSED
0
LINE
5
162
100
AcDbEntity
8
0
62
256
6
ByLayer
370
-2
48
1
60
0
100
AcDbLine
10
-1
20
0.166667
30
0
11
0
21
0
31
0
39
0
210
0
220
0
230
1
0
LINE
5
163
100
AcDbEntity
8
0
62
256
6
ByLayer
370
-2
48
1
60
0
100
AcDbLine
10
0
20
0
30
0
11
-1
21
-0.166667
31
0
39
0
210
0
220
0
230
1
0
LINE
5
164
100
AcDbEntity
8
0
62
256
6
ByLayer
370
-2
48
1
60
0
100
AcDbLine
10
-1
20
0.166667
30
0
11
-1
21
-0.166667
31
0
39
0
210
0
220
0
230
1
0
LINE
5
165
100
AcDbEntity
8
0
62
256
6
ByLayer
370
-2
48
1
60
0
100
AcDbLine
10
0
20
0
30
0
11
-1
21
0
31
0
39
0
210
0
220
0
230
1
0
ENDBLK
5
161
100
AcDbEntity
8
0
100
AcDbBlockEnd
0
BLOCK
5
171
100
AcDbEntity
8
0
100
AcDbBlockBegin
2
DimnDraft3D2
70
0
10
0
20
0
30
0
3
DimnDraft3D2
0
MTEXT
5
167
100
AcDbEntity
8
2
62
256
6
ByLayer
370
18
48
1
60
0
100
AcDbMText
10
63.125
20
27.625
30
0
210
0
220
0
230
1
1
\W0.5404;3
40
4.5
41
0
44
1.084337
50
90
71
7
72
5
7
iso_b_vert
0
LINE
5
168
100
AcDbEntity
8
2
62
256
6
ByLayer
370
13
48
1
60
0
100
AcDbLine
10
51.5
20
19
30
0
11
67.25
21
19
31
0
39
0
210
0
220
0
230
1
0
LINE
5
169
100
AcDbEntity
8
2
62
256
6
ByLayer
370
13
48
1
60
0
100
AcDbLine
10
51.5
20
22
30
0
11
67.25
21
22
31
0
39
0
210
0
220
0
230
1
0
LINE
5
16A
100
AcDbEntity
8
2
62
256
6
ByLayer
370
13
48
1
60
0
100
AcDbLine
10
64.25
20
28.513158
30
0
11
64.25
21
7.75
31
0
39
0
210
0
220
0
230
1
0
LINE
5
16B
100
AcDbEntity
8
2
62
256
6
ByLayer
370
13
48
1
60
0
100
AcDbLine
10
64.25
20
19
30
0
11
64.644957
21
16.000001
31
0
39
0
210
0
220
0
230
1
0
LINE
5
16C
100
AcDbEntity
8
2
62
256
6
ByLayer
370
13
48
1
60
0
100
AcDbLine
10
64.25
20
19
30
0
11
63.855043
21
15.999999
31
0
39
0
210
0
220
0
230
1
0
LINE
5
16D
100
AcDbEntity
8
2
62
256
6
ByLayer
370
13
48
1
60
0
100
AcDbLine
10
64.644957
20
16.000001
30
0
11
63.855043
21
15.999999
31
0
39
0
210
0
220
0
230
1
0
LINE
5
16E
100
AcDbEntity
8
2
62
256
6
ByLayer
370
13
48
1
60
0
100
AcDbLine
10
64.25
20
22
30
0
11
63.855043
21
24.999999
31
0
39
0
210
0
220
0
230
1
0
LINE
5
16F
100
AcDbEntity
8
2
62
256
6
ByLayer
370
13
48
1
60
0
100
AcDbLine
10
64.25
20
22
30
0
11
64.644957
21
25.000001
31
0
39
0
210
0
220
0
230
1
0
LINE
5
170
100
AcDbEntity
8
2
62
256
6
ByLayer
370
13
48
1
60
0
100
AcDbLine
10
63.855043
20
24.999999
30
0
11
64.644957
21
25.000001
31
0
39
0
210
0
220
0
230
1
0
ENDBLK
5
172
100
AcDbEntity
8
0
100
AcDbBlockEnd
0
BLOCK
5
17F
100
AcDbEntity
8
0
100
AcDbBlockBegin
2
DimnDraft3D3
70
0
10
0
20
0
30
0
3
DimnDraft3D3
0
MTEXT
5
175
100
AcDbEntity
8
2
62
256
6
ByLayer
370
18
48
1
60
0
100
AcDbMText
10
73.125
20
9.436842
30
0
210
0
220
0
230
1
1
\W0.6740;22
40
4.5
41
0
44
1.084337
50
90
71
7
72
5
7
iso_b_vert
0
LINE
5
176
100
AcDbEntity
8
2
62
256
6
ByLayer
370
13
48
1
60
0
100
AcDbLine
10
51.5
20
22
30
0
11
77.25
21
22
31
0
39
0
210
0
220
0
230
1
0
LINE
5
177
100
AcDbEntity
8
2
62
256
6
ByLayer
370
13
48
1
60
0
100
AcDbLine
10
6.5
20
0
30
0
11
77.25
21
0
31
0
39
0
210
0
220
0
230
1
0
LINE
5
178
100
AcDbEntity
8
2
62
256
6
ByLayer
370
13
48
1
60
0
100
AcDbLine
10
74.25
20
22
30
0
11
74.25
21
0
31
0
39
0
210
0
220
0
230
1
0
LINE
5
179
100
AcDbEntity
8
2
62
256
6
ByLayer
370
13
48
1
60
0
100
AcDbLine
10
74.25
20
22
30
0
11
74.644957
21
19.000001
31
0
39
0
210
0
220
0
230
1
0
LINE
5
17A
100
AcDbEntity
8
2
62
256
6
ByLayer
370
13
48
1
60
0
100
AcDbLine
10
74.25
20
22
30
0
11
73.855043
21
18.999999
31
0
39
0
210
0
220
0
230
1
0
LINE
5
17B
100
AcDbEntity
8
2
62
256
6
ByLayer
370
13
48
1
60
0
100
AcDbLine
10
74.644957
20
19.000001
30
0
11
73.855043
21
18.999999
31
0
39
0
210
0
220
0
230
1
0
LINE
5
17C
100
AcDbEntity
8
2
62
256
6
ByLayer
370
13
48
1
60
0
100
AcDbLine
10
74.25
20
0
30
0
11
73.855043
21
2.999999
31
0
39
0
210
0
220
0
230
1
0
LINE
5
17D
100
AcDbEntity
8
2
62
256
6
ByLayer
370
13
48
1
60
0
100
AcDbLine
10
74.25
20
0
30
0
11
74.644957
21
3.000001
31
0
39
0
210
0
220
0
230
1
0
LINE
5
17E
100
AcDbEntity
8
2
62
256
6
ByLayer
370
13
48
1
60
0
100
AcDbLine
10
73.855043
20
2.999999
30
0
11
74.644957
21
3.000001
31
0
39
0
210
0
220
0
230
1
0
ENDBLK
5
180
100
AcDbEntity
8
0
100
AcDbBlockEnd
0
BLOCK
5
18D
100
AcDbEntity
8
0
100
AcDbBlockBegin
2
DimnDraft3D4
70
0
10
0
20
0
30
0
3
DimnDraft3D4
0
MTEXT
5
183
100
AcDbEntity
8
2
62
256
6
ByLayer
370
18
48
1
60
0
100
AcDbMText
10
23.436842
20
32.875
30
0
210
0
220
0
230
1
1
\W0.6740;50
40
4.5
41
0
44
1.084337
50
0
71
7
72
5
7
iso_b_vert
0
LINE
5
184
100
AcDbEntity
8
2
62
256
6
ByLayer
370
13
48
1
60
0
100
AcDbLine
10
0
20
1.5
30
0
11
0
21
34.75
31
0
39
0
210
0
220
0
230
1
0
LINE
5
185
100
AcDbEntity
8
2
62
256
6
ByLayer
370
13
48
1
60
0
100
AcDbLine
10
50
20
22
30
0
11
50
21
34.75
31
0
39
0
210
0
220
0
230
1
0
LINE
5
186
100
AcDbEntity
8
2
62
256
6
ByLayer
370
13
48
1
60
0
100
AcDbLine
10
0
20
31.75
30
0
11
50
21
31.75
31
0
39
0
210
0
220
0
230
1
0
LINE
5
187
100
AcDbEntity
8
2
62
256
6
ByLayer
370
13
48
1
60
0
100
AcDbLine
10
0
20
31.75
30
0
11
2.999999
21
32.144957
31
0
39
0
210
0
220
0
230
1
0
LINE
5
188
100
AcDbEntity
8
2
62
256
6
ByLayer
370
13
48
1
60
0
100
AcDbLine
10
0
20
31.75
30
0
11
3.000001
21
31.355043
31
0
39
0
210
0
220
0
230
1
0
LINE
5
189
100
AcDbEntity
8
2
62
256
6
ByLayer
370
13
48
1
60
0
100
AcDbLine
10
2.999999
20
32.144957
30
0
11
3.000001
21
31.355043
31
0
39
0
210
0
220
0
230
1
0
LINE
5
18A
100
AcDbEntity
8
2
62
256
6
ByLayer
370
13
48
1
60
0
100
AcDbLine
10
50
20
31.75
30
0
11
47.000001
21
31.355043
31
0
39
0
210
0
220
0
230
1
0
LINE
5
18B
100
AcDbEntity
8
2
62
256
6
ByLayer
370
13
48
1
60
0
100
AcDbLine
10
50
20
31.75
30
0
11
46.999999
21
32.144957
31
0
39
0
210
0
220
0
230
1
0
LINE
5
18C
100
AcDbEntity
8
2
62
256
6
ByLayer
370
13
48
1
60
0
100
AcDbLine
10
47.000001
20
31.355043
30
0
11
46.999999
21
32.144957
31
0
39
0
210
0
220
0
230
1
0
ENDBLK
5
18E
100
AcDbEntity
8
0
100
AcDbBlockEnd
0
BLOCK
5
19B
100
AcDbEntity
8
0
100
AcDbBlockBegin
2
DimnDraft3D5
70
0
10
0
20
0
30
0
3
DimnDraft3D5
0
MTEXT
5
191
100
AcDbEntity
8
2
62
256
6
ByLayer
370
18
48
1
60
0
100
AcDbMText
10
43.999342
20
-13.125
30
0
210
0
220
0
230
1
1
\W0.5321;10
40
4.5
41
0
44
1.084337
50
0
71
7
72
5
7
iso_b_vert
0
LINE
5
192
100
AcDbEntity
8
2
62
256
6
ByLayer
370
13
48
1
60
0
100
AcDbLine
10
40
20
16.5
30
0
11
40
21
-17.25
31
0
39
0
210
0
220
0
230
1
0
LINE
5
193
100
AcDbEntity
8
2
62
256
6
ByLayer
370
13
48
1
60
0
100
AcDbLine
10
50
20
17.5
30
0
11
50
21
-17.25
31
0
39
0
210
0
220
0
230
1
0
LINE
5
194
100
AcDbEntity
8
2
62
256
6
ByLayer
370
13
48
1
60
0
100
AcDbLine
10
28.75
20
-14.25
30
0
11
61.25
21
-14.25
31
0
39
0
210
0
220
0
230
1
0
LINE
5
195
100
AcDbEntity
8
2
62
256
6
ByLayer
370
13
48
1
60
0
100
AcDbLine
10
40
20
-14.25
30
0
11
37.000001
21
-14.644957
31
0
39
0
210
0
220
0
230
1
0
LINE
5
196
100
AcDbEntity
8
2
62
256
6
ByLayer
370
13
48
1
60
0
100
AcDbLine
10
40
20
-14.25
30
0
11
36.999999
21
-13.855043
31
0
39
0
210
0
220
0
230
1
0
LINE
5
197
100
AcDbEntity
8
2
62
256
6
ByLayer
370
13
48
1
60
0
100
AcDbLine
10
37.000001
20
-14.644957
30
0
11
36.999999
21
-13.855043
31
0
39
0
210
0
220
0
230
1
0
LINE
5
198
100
AcDbEntity
8
2
62
256
6
ByLayer
370
13
48
1
60
0
100
AcDbLine
10
50
20
-14.25
30
0
11
52.999999
21
-13.855043
31
0
39
0
210
0
220
0
230
1
0
LINE
5
199
100
AcDbEntity
8
2
62
256
6
ByLayer
370
13
48
1
60
0
100
AcDbLine
10
50
20
-14.25
30
0
11
53.000001
21
-14.644957
31
0
39
0
210
0
220
0
230
1
0
LINE
5
19A
100
AcDbEntity
8
2
62
256
6
ByLayer
370
13
48
1
60
0
100
AcDbLine
10
52.999999
20
-13.855043
30
0
11
53.000001
21
-14.644957
31
0
39
0
210
0
220
0
230
1
0
ENDBLK
5
19C
100
AcDbEntity
8
0
100
AcDbBlockEnd
0
ENDSEC
0
SECTION
2
ENTITIES
0
ARC
5
DA
100
AcDbEntity
8
SK1
62
256
6
ByLayer
370
18
48
1
60
0
100
AcDbCircle
39
0
10
0.6
20
-11.8
30
0
40
0.999999999999989
210
0
220
0
230
-1
100
AcDbArc
50
113.578178
51
126.869898
0
ARC
5
DB
100
AcDbEntity
8
SK1
62
256
6
ByLayer
370
18
48
1
60
0
100
AcDbCircle
39
0
10
0.6
20
11.8
30
0
40
0.999999999999989
210
0
220
0
230
-1
100
AcDbArc
50
233.130102
51
246.421822
0
ARC
5
DF
100
AcDbEntity
8
1
62
256
6
ByLayer
370
18
48
1
60
0
100
AcDbCircle
39
0
10
40.1
20
17.725
30
0
40
1.59999999999985
210
0
220
0
230
1
100
AcDbArc
50
90
51
180
0
ARC
5
E0
100
AcDbEntity
8
1
62
256
6
ByLayer
370
18
48
1
60
0
100
AcDbCircle
39
0
10
33
20
11.5
30
0
40
5.49999999999931
210
0
220
0
230
1
100
AcDbArc
50
140.169979
51
143.641416
0
ARC
5
E1
100
AcDbEntity
8
1
62
256
6
ByLayer
370
18
48
1
60
0
100
AcDbCircle
39
0
10
-33
20
11.5
30
0
40
5.5
210
0
220
0
230
-1
100
AcDbArc
50
360
51
11.298056
0
ARC
5
E2
100
AcDbEntity
8
1
62
256
6
ByLayer
370
18
48
1
60
0
100
AcDbCircle
39
0
10
33
20
11.5
30
0
40
5.49999999999129
210
0
220
0
230
1
100
AcDbArc
50
143.641355
51
168.701944
0
ARC
5
E3
100
AcDbEntity
8
1
62
256
6
ByLayer
370
18
48
1
60
0
100
AcDbCircle
39
0
10
-33
20
11.5
30
0
40
5.5
210
0
220
0
230
-1
100
AcDbArc
50
86.308582
51
90
0
ARC
5
E4
100
AcDbEntity
8
1
62
256
6
ByLayer
370
18
48
1
60
0
100
AcDbCircle
39
0
10
-33
20
11.5
30
0
40
5
210
0
220
0
230
-1
100
AcDbArc
50
0
51
90
0
ARC
5
E5
100
AcDbEntity
8
1
62
256
6
ByLayer
370
18
48
1
60
0
100
AcDbCircle
39
0
10
21
20
-5.105687
30
0
40
6
210
0
220
0
230
1
100
AcDbArc
50
110
51
121.653689
0
ARC
5
E6
100
AcDbEntity
8
1
62
256
6
ByLayer
370
18
48
1
60
0
100
AcDbCircle
39
0
10
33
20
11.5
30
0
40
1.416
210
0
220
0
230
1
100
AcDbArc
50
96.192438
51
150.190711
0
ARC
5
E7
100
AcDbEntity
8
1
62
256
6
ByLayer
370
18
48
1
60
0
100
AcDbCircle
39
0
10
33
20
11.5
30
0
40
1.416
210
0
220
0
230
1
100
AcDbArc
50
263.807562
51
276.192438
0
ARC
5
E8
100
AcDbEntity
8
1
62
256
6
ByLayer
370
18
48
1
60
0
100
AcDbCircle
39
0
10
33
20
11.5
30
0
40
1.9685
210
0
220
0
230
1
100
AcDbArc
50
120.381422
51
180
0
ARC
5
E9
100
AcDbEntity
8
1
62
256
6
ByLayer
370
18
48
1
60
0
100
AcDbCircle
39
0
10
33
20
11.5
30
0
40
1.416
210
0
220
0
230
1
100
AcDbArc
50
209.809289
51
263.807562
0
ARC
5
EB
100
AcDbEntity
8
1
62
256
6
ByLayer
370
18
48
1
60
0
100
AcDbCircle
39
0
10
33
20
11.5
30
0
40
1.416
210
0
220
0
230
1
100
AcDbArc
50
150.190711
51
209.809289
0
ARC
5
EC
100
AcDbEntity
8
1
62
256
6
ByLayer
370
18
48
1
60
0
100
AcDbCircle
39
0
10
33
20
11.5
30
0
40
1.9685
210
0
220
0
230
1
100
AcDbArc
50
59.618578
51
120.381422
0
ARC
5
ED
100
AcDbEntity
8
1
62
256
6
ByLayer
370
18
48
1
60
0
100
AcDbCircle
39
0
10
33
20
11.5
30
0
40
1.416
210
0
220
0
230
1
100
AcDbArc
50
83.807562
51
96.192438
0
ARC
5
EE
100
AcDbEntity
8
1
62
256
6
ByLayer
370
18
48
1
60
0
100
AcDbCircle
39
0
10
33
20
11.5
30
0
40
1.9685
210
0
220
0
230
1
100
AcDbArc
50
239.618578
51
300.381422
0
ARC
5
EF
100
AcDbEntity
8
1
62
256
6
ByLayer
370
18
48
1
60
0
100
AcDbCircle
39
0
10
33
20
11.5
30
0
40
1.9685
210
0
220
0
230
1
100
AcDbArc
50
180
51
239.618578
0
ARC
5
F1
100
AcDbEntity
8
1
62
256
6
ByLayer
370
18
48
1
60
0
100
AcDbCircle
39
0
10
33
20
11.5
30
0
40
1.9685
210
0
220
0
230
1
100
AcDbArc
50
360
51
59.618578
0
ARC
5
F2
100
AcDbEntity
8
1
62
256
6
ByLayer
370
18
48
1
60
0
100
AcDbCircle
39
0
10
33
20
11.5
30
0
40
1.9685
210
0
220
0
230
1
100
AcDbArc
50
300.381422
51
360
0
ARC
5
F3
100
AcDbEntity
8
1
62
256
6
ByLayer
370
18
48
1
60
0
100
AcDbCircle
39
0
10
33
20
11.5
30
0
40
1.416
210
0
220
0
230
1
100
AcDbArc
50
29.809289
51
83.807562
0
ARC
5
F4
100
AcDbEntity
8
1
62
256
6
ByLayer
370
18
48
1
60
0
100
AcDbCircle
39
0
10
33
20
11.5
30
0
40
1.416
210
0
220
0
230
1
100
AcDbArc
50
276.192438
51
330.190711
0
ARC
5
F5
100
AcDbEntity
8
1
62
256
6
ByLayer
370
18
48
1
60
0
100
AcDbCircle
39
0
10
33
20
11.5
30
0
40
1.416
210
0
220
0
230
1
100
AcDbArc
50
330.190711
51
29.809289
0
CIRCLE
5
DC
100
AcDbEntity
8
62
62
256
6
ByLayer
370
18
48
1
60
0
100
AcDbCircle
10
33
20
11.5
30
0
40
5
39
0
210
0
220
0
230
1
0
CIRCLE
5
DE
100
AcDbEntity
8
62
62
256
6
ByLayer
370
18
48
1
60
0
100
AcDbCircle
10
33
20
11.5
30
0
40
5
39
0
210
0
220
0
230
1
0
CIRCLE
5
EA
100
AcDbEntity
8
1
62
256
6
ByLayer
370
18
48
1
60
0
100
AcDbCircle
10
-33
20
11.5
30
0
40
4.25
39
0
210
0
220
0
230
-1
0
CIRCLE
5
F0
100
AcDbEntity
8
1
62
256
6
ByLayer
370
18
48
1
60
0
100
AcDbCircle
10
-33
20
11.5
30
0
40
3.75
39
0
210
0
220
0
230
-1
0
ELLIPSE
5
F6
100
AcDbEntity
8
1
62
256
6
ByLayer
370
18
48
1
60
0
100
AcDbEllipse
10
25.915296
20
19.399641
30
0
11
-1.29181829763487
21
1.02650157617791
31
0
210
0
220
0
230
1
40
0.656819
41
0
42
6.28318530717959
0
ELLIPSE
5
F7
100
AcDbEntity
8
1
62
256
6
ByLayer
370
18
48
1
60
0
100
AcDbEllipse
10
-0.928203
20
0
30
0
11
-7.49393430382631
21
-15.793399322201
31
0
210
0
220
0
230
1
40
0.341999
41
2.05401345238931
42
2.98012608239208
0
ELLIPSE
5
F8
100
AcDbEntity
8
1
62
256
6
ByLayer
370
18
48
1
60
0
100
AcDbEllipse
10
12.928203
20
0
30
0
11
-7.49393430382487
21
15.7933993221993
31
0
210
0
220
0
230
1
40
0.341999
41
0.16146657119772
42
1.08757920120057
0
ELLIPSE
5
F9
100
AcDbEntity
8
1
62
256
6
ByLayer
370
18
48
1
60
0
100
AcDbEllipse
10
28.404301
20
16.831291
30
0
11
-0.0208883033853647
21
-1.53134325688616
31
0
210
0
220
0
230
1
40
0.10765
41
0
42
6.28318530717959
0
ELLIPSE
5
FA
100
AcDbEntity
8
1
62
256
6
ByLayer
370
18
48
1
60
0
100
AcDbEllipse
10
12.928203
20
0
30
0
11
-7.49393430382492
21
-15.7933993221992
31
0
210
0
220
0
230
1
40
0.341999
41
-1.08757920120057
42
-0.161466571197725
0
ELLIPSE
5
FB
100
AcDbEntity
8
1
62
256
6
ByLayer
370
18
48
1
60
0
100
AcDbEllipse
10
-0.928203
20
0
30
0
11
-7.49393430382585
21
15.7933993222005
31
0
210
0
220
0
230
1
40
0.341999
41
-2.98012608239208
42
-2.05401345238928
0
ELLIPSE
5
FC
100
AcDbEntity
8
1
62
256
6
ByLayer
370
18
48
1
60
0
100
AcDbEllipse
10
44.966964
20
19.523551
30
0
11
-0.601617139973494
21
1.40953281883342E-15
31
0
210
0
220
0
230
1
40
0.249328
41
-0.349057207366364
42
0
0
ELLIPSE
5
FD
100
AcDbEntity
8
1
62
256
6
ByLayer
370
18
48
1
60
0
100
AcDbEllipse
10
44.966964
20
21.476449
30
0
11
-0.601617140164704
21
1.4095328192814E-15
31
0
210
0
220
0
230
1
40
0.249328
41
0
42
0.34905720730992
0
POINT
5
6C
100
AcDbEntity
8
2
62
256
6
ByLayer
370
18
48
1
60
0
100
AcDbPoint
10
50
20
22
30
0
39
0
210
0
220
0
230
1
50
360
0
POINT
5
6E
100
AcDbEntity
8
CUT
62
256
6
ByLayer
370
18
48
1
60
0
100
AcDbPoint
10
9
20
0
30
0
39
0
210
0
220
0
230
1
50
360
0
POINT
5
70
100
AcDbEntity
8
2
62
256
6
ByLayer
370
18
48
1
60
0
100
AcDbPoint
10
50
20
20.5
30
0
39
0
210
0
220
0
230
1
50
360
0
POINT
5
71
100
AcDbEntity
8
80
62
256
6
ByLayer
370
18
48
1
60
0
100
AcDbPoint
10
0
20
0
30
0
39
0
210
0
220
0
230
1
50
360
0
POINT
5
73
100
AcDbEntity
8
81
62
256
6
ByLayer
370
18
48
1
60
0
100
AcDbPoint
10
50
20
22
30
0
39
0
210
0
220
0
230
1
50
360
0
SPLINE
5
FE
100
AcDbEntity
8
SK1
62
256
6
ByLayer
370
18
48
1
60
0
100
AcDbSpline
70
4
71
2
72
6
73
3
40
0
40
0
40
0
40
1
40
1
40
1
41
1
10
-18
20
-10.6074546192069
30
0
41
1
10
-9.84999999997146
20
-10.8121484207173
30
0
41
1
10
-1.70000000000002
20
-11.0168420288686
30
0
0
SPLINE
5
FF
100
AcDbEntity
8
SK1
62
256
6
ByLayer
370
18
48
1
60
0
100
AcDbSpline
70
4
71
2
72
6
73
3
40
0
40
0
40
0
40
1
40
1
40
1
41
1
10
-1.69999999999999
20
11.0168421588455
30
0
41
1
10
-9.84999999997146
20
10.8121485451078
30
0
41
1
10
-18
20
10.6074547380105
30
0
0
SPLINE
5
100
100
AcDbEntity
8
SK1
62
256
6
ByLayer
370
18
48
1
60
0
100
AcDbSpline
70
4
71
3
72
13
73
9
40
0
40
0
40
0
40
0
40
0.239456136642628
40
0.368359723042934
40
0.499998985161607
40
0.63163841625772
40
0.760542468443639
40
1
40
1
40
1
40
1
41
1
10
-1.70000000000002
20
-11.0200974665178
30
0
41
1
10
-1.69909198644035
20
-10.9940399940815
30
0
41
1
10
-1.69103284108789
20
-10.9566674150535
30
0
41
1
10
-1.66563592205245
20
-10.9104482477181
30
0
41
1
10
-1.63886378681494
20
-10.8791666984849
30
0
41
1
10
-1.60627712751969
20
-10.8539993323472
30
0
41
1
10
-1.55884064234823
20
-10.8309555342783
30
0
41
1
10
-1.52111030873553
20
-10.8247832816898
30
0
41
1
10
-1.49503997793931
20
-10.8251849228641
30
0
0
SPLINE
5
101
100
AcDbEntity
8
SK1
62
256
6
ByLayer
370
18
48
1
60
0
100
AcDbSpline
70
4
71
3
72
13
73
9
40
0
40
0
40
0
40
0
40
0.239457531495147
40
0.368361583659749
40
0.500001014747379
40
0.631640276872677
40
0.760543863293349
40
1
40
1
40
1
40
1
41
1
10
-1.49503997793928
20
10.8251848163966
30
0
41
1
10
-1.5211103087367
20
10.824783175221
30
0
41
1
10
-1.55884064235042
20
10.8309554278117
30
0
41
1
10
-1.60627712752137
20
10.8539992258965
30
0
41
1
10
-1.63886378681656
20
10.8791665920526
30
0
41
1
10
-1.66563592205367
20
10.9104481413092
30
0
41
1
10
-1.69103284108888
20
10.9566673086801
30
0
41
1
10
-1.69909198644135
20
10.9940398877345
30
0
41
1
10
-1.69999999999999
20
11.0200973601888
30
0
0
SPLINE
5
102
100
AcDbEntity
8
SK1
62
256
6
ByLayer
370
18
48
1
60
0
100
AcDbSpline
70
4
71
2
72
6
73
3
40
0
40
0
40
0
40
1
40
1
40
1
41
1
10
-19
20
-10.0324637535503
30
0
41
1
10
-18.4999999996377
20
-10.3211141428551
30
0
41
1
10
-18
20
-10.6097644106826
30
0
0
SPLINE
5
103
100
AcDbEntity
8
SK1
62
256
6
ByLayer
370
18
48
1
60
0
100
AcDbSpline
70
4
71
2
72
6
73
3
40
0
40
0
40
0
40
1
40
1
40
1
41
1
10
-18
20
10.6097643575036
30
0
41
1
10
-18.499999999638
20
10.3211140865705
30
0
41
1
10
-19
20
10.0324636942008
30
0
0
SPLINE
5
104
100
AcDbEntity
8
SK1
62
256
6
ByLayer
370
18
48
1
60
0
100
AcDbSpline
70
4
71
2
72
6
73
3
40
0
40
0
40
0
40
1
40
1
40
1
41
1
10
-1.49503997793931
20
-10.7285973110991
30
0
41
1
10
-0.94500843340731
20
-10.7423064506887
30
0
41
1
10
-0.394976888875306
20
-10.7560155899517
30
0
0
SPLINE
5
105
100
AcDbEntity
8
SK1
62
256
6
ByLayer
370
18
48
1
60
0
100
AcDbSpline
70
4
71
2
72
6
73
3
40
0
40
0
40
0
40
1
40
1
40
1
41
1
10
-0.394976888875277
20
10.7560155133454
30
0
41
1
10
-0.945008433407281
20
10.7423063740663
30
0
41
1
10
-1.49503997793928
20
10.7285972344608
30
0
0
SPLINE
5
106
100
AcDbEntity
8
SK1
62
256
6
ByLayer
370
18
48
1
60
0
100
AcDbSpline
70
4
71
3
72
24
73
20
40
0
40
0
40
0
40
0
40
0.408376563842919
40
0.408376563842919
40
0.590835889028663
40
0.590835889028663
40
0.775086150017169
40
0.775086150017169
40
0.828531189558963
40
0.828531189558963
40
0.869657835859007
40
0.869657835859007
40
0.900601749045859
40
0.900601749045859
40
0.931618254112826
40
0.931618254112826
40
0.972400059148962
40
0.972400059148962
40
1
40
1
40
1
40
1
41
1
10
-1.30710678118655
20
3.31403271963518
30
0
41
1
10
-1.25598388032307
20
3.55942158652502
30
0
41
1
10
-1.19453871593757
20
3.79878086806582
30
0
41
1
10
-1.07463317102506
20
4.12991464169377
30
0
41
1
10
-1.03315372296908
20
4.23044470813102
30
0
41
1
10
-0.933421287209484
20
4.42439620445134
30
0
41
1
10
-0.876012164358116
20
4.52058411767737
30
0
41
1
10
-0.771196593353352
20
4.62470115719427
30
0
41
1
10
-0.744945905488407
20
4.64699527823979
30
0
41
1
10
-0.692659478740381
20
4.68003423159399
30
0
41
1
10
-0.667470836328533
20
4.69244795089361
30
0
41
1
10
-0.620248549564366
20
4.70666093811084
30
0
41
1
10
-0.598519884659027
20
4.71034447812073
30
0
41
1
10
-0.555414291762958
20
4.71130494933678
30
0
41
1
10
-0.533554485474468
20
4.70857045210869
30
0
41
1
10
-0.486310637142424
20
4.69632743776958
30
0
41
1
10
-0.461171363725498
20
4.68495700384938
30
0
41
1
10
-0.42312766746349
20
4.6623550622588
30
0
41
1
10
-0.408633205232604
20
4.65212577667924
30
0
41
1
10
-0.394976888875277
20
4.64126507959352
30
0
0
SPLINE
5
107
100
AcDbEntity
8
SK1
62
256
6
ByLayer
370
18
48
1
60
0
100
AcDbSpline
70
4
71
3
72
114
73
110
40
0
40
0
40
0
40
0
40
0.0069475820281132
40
0.015045302980837
40
0.0231430239335609
40
0.0312407448862848
40
0.0393384658390087
40
0.0474361867917325
40
0.0636316286971803
40
0.079827070602628
40
0.0960225125080758
40
0.112217954413524
40
0.120315675366247
40
0.128413396318971
40
0.136511117271695
40
0.144608838224419
40
0.160804280129867
40
0.168902001082591
40
0.176999722035314
40
0.185097442988038
40
0.193195163940762
40
0.201292884893486
40
0.20939060584621
40
0.217488326798934
40
0.225586047751658
40
0.233683768704382
40
0.241781489657105
40
0.249879210609829
40
0.257976931562553
40
0.266074652515277
40
0.274172373468001
40
0.282270094420725
40
0.290367815373449
40
0.298465536326172
40
0.306563257278896
40
0.31466097823162
40
0.322758699184344
40
0.338954141089792
40
0.35514958299524
40
0.363247303947963
40
0.371345024900687
40
0.379442745853411
40
0.387540466806135
40
0.395638187758859
40
0.403735908711583
40
0.411833629664307
40
0.419931350617031
40
0.436126792522478
40
0.452322234427926
40
0.46041995538065
40
0.468517676333374
40
0.476615397286098
40
0.484713118238822
40
0.492810839191545
40
0.500908560144269
40
0.509006281096993
40
0.517104002049717
40
0.533299443955165
40
0.549494885860612
40
0.557592606813336
40
0.56569032776606
40
0.573788048718784
40
0.581885769671508
40
0.589983490624232
40
0.598081211576956
40
0.60617893252968
40
0.614276653482403
40
0.630472095387851
40
0.646667537293299
40
0.654765258246023
40
0.662862979198746
40
0.67096070015147
40
0.679058421104194
40
0.687156142056918
40
0.695253863009642
40
0.703351583962366
40
0.71144930491509
40
0.719547025867814
40
0.727644746820537
40
0.735742467773261
40
0.743840188725985
40
0.751937909678709
40
0.760035630631433
40
0.768133351584157
40
0.776231072536881
40
0.784328793489605
40
0.792426514442328
40
0.808621956347776
40
0.824817398253224
40
0.841012840158672
40
0.857208282064119
40
0.873403723969567
40
0.881501444922291
40
0.889599165875015
40
0.897696886827739
40
0.905794607780463
40
0.913892328733187
40
0.92199004968591
40
0.930087770638634
40
0.938185491591358
40
0.946283212544082
40
0.954380933496806
40
0.96247865444953
40
0.970576375402254
40
0.978674096354977
40
0.986771817307701
40
0.994869538260425
40
0.998918398736787
40
1
40
1
40
1
40
1
41
1
10
-1.49503997793928
20
10.8251853684068
30
0
41
1
10
-1.49503997793928
20
10.8251991330729
30
0
41
1
10
-1.49503997793928
20
10.824795503384
30
0
41
1
10
-1.49503997793928
20
10.8227534746688
30
0
41
1
10
-1.49503997793928
20
10.8190321898994
30
0
41
1
10
-1.49503997793928
20
10.8137595050794
30
0
41
1
10
-1.49503997793928
20
10.8069601105976
30
0
41
1
10
-1.49503997793928
20
10.7958810888031
30
0
41
1
10
-1.49503997793928
20
10.7783612085532
30
0
41
1
10
-1.49503997793928
20
10.7515850402438
30
0
41
1
10
-1.49503997793928
20
10.7192320300799
30
0
41
1
10
-1.49503997793928
20
10.6877698984218
30
0
41
1
10
-1.49503997793928
20
10.659915170864
30
0
41
1
10
-1.49503997793928
20
10.6377347570968
30
0
41
1
10
-1.49503997793928
20
10.6142632763632
30
0
41
1
10
-1.49503997793928
20
10.5812410280458
30
0
41
1
10
-1.49503997793928
20
10.5457784732404
30
0
41
1
10
-1.49503997793928
20
10.5077654352017
30
0
41
1
10
-1.49503997793928
20
10.4780569133
30
0
41
1
10
-1.49503997793928
20
10.4471409696622
30
0
41
1
10
-1.49503997793928
20
10.4150297588919
30
0
41
1
10
-1.49503997793928
20
10.3817350495075
30
0
41
1
10
-1.49503997793928
20
10.3472683821575
30
0
41
1
10
-1.49503997793928
20
10.3116409824532
30
0
41
1
10
-1.49503997793928
20
10.274863259213
30
0
41
1
10
-1.49503997793928
20
10.2369461598887
30
0
41
1
10
-1.49503997793928
20
10.1978993403383
30
0
41
1
10
-1.49503997793928
20
10.1577327948517
30
0
41
1
10
-1.49503997793928
20
10.1164560583904
30
0
41
1
10
-1.49503997793928
20
10.0740780611805
30
0
41
1
10
-1.49503997793928
20
10.0306078935895
30
0
41
1
10
-1.49503997793928
20
9.9860543789782
30
0
41
1
10
-1.49503997793928
20
9.94042557325719
30
0
41
1
10
-1.49503997793928
20
9.89373010726783
30
0
41
1
10
-1.49503997793928
20
9.84597558452433
30
0
41
1
10
-1.49503997793928
20
9.79716969618076
30
0
41
1
10
-1.49503997793928
20
9.73065761931014
30
0
41
1
10
-1.49503997793928
20
9.64502984201664
30
0
41
1
10
-1.49503997793928
20
9.55599654929009
30
0
41
1
10
-1.49503997793928
20
9.48266256563366
30
0
41
1
10
-1.49503997793928
20
9.42669605087167
30
0
41
1
10
-1.49503997793928
20
9.36973273113713
30
0
41
1
10
-1.49503997793928
20
9.31177823255615
30
0
41
1
10
-1.49503997793928
20
9.25283895193832
30
0
41
1
10
-1.49503997793928
20
9.19292022720256
30
0
41
1
10
-1.49503997793928
20
9.13202746880455
30
0
41
1
10
-1.49503997793928
20
9.04949076260129
30
0
41
1
10
-1.49503997793928
20
8.94403651531519
30
0
41
1
10
-1.49503997793928
20
8.83540723159925
30
0
41
1
10
-1.49503997793928
20
8.74651063563283
30
0
41
1
10
-1.49503997793928
20
8.67894340179043
30
0
41
1
10
-1.49503997793928
20
8.61044160824594
30
0
41
1
10
-1.49503997793928
20
8.5410092251428
30
0
41
1
10
-1.49503997793928
20
8.47065101373664
30
0
41
1
10
-1.49503997793928
20
8.39937085059915
30
0
41
1
10
-1.49503997793928
20
8.32717256436729
30
0
41
1
10
-1.49503997793928
20
8.22962446603972
30
0
41
1
10
-1.49503997793928
20
8.10556188703811
30
0
41
1
10
-1.49503997793928
20
7.97849123285059
30
0
41
1
10
-1.49503997793928
20
7.87491789553508
30
0
41
1
10
-1.49503997793928
20
7.79639784158888
30
0
41
1
10
-1.49503997793928
20
7.71698853718178
30
0
41
1
10
-1.49503997793928
20
7.63669277063221
30
0
41
1
10
-1.49503997793928
20
7.55551412703409
30
0
41
1
10
-1.49503997793928
20
7.47345540258758
30
0
41
1
10
-1.49503997793928
20
7.39051935158955
30
0
41
1
10
-1.49503997793928
20
7.27869564084133
30
0
41
1
10
-1.49503997793928
20
7.13691290674728
30
0
41
1
10
-1.49503997793928
20
6.99224347204341
30
0
41
1
10
-1.49503997793928
20
6.87463790137696
30
0
41
1
10
-1.49503997793928
20
6.78563790735643
30
0
41
1
10
-1.49503997793928
20
6.6957817775326
30
0
41
1
10
-1.49503997793928
20
6.60507160913491
30
0
41
1
10
-1.49503997793928
20
6.51351005185586
30
0
41
1
10
-1.49503997793928
20
6.42109920426941
30
0
41
1
10
-1.49503997793928
20
6.32784123546003
30
0
41
1
10
-1.49503997793928
20
6.23373851513244
30
0
41
1
10
-1.49503997793928
20
6.13879288798532
30
0
41
1
10
-1.49503997793928
20
6.04300653314334
30
0
41
1
10
-1.49503997793928
20
5.94638166396859
30
0
41
1
10
-1.49503997793928
20
5.848919994997
30
0
41
1
10
-1.49503997793928
20
5.75062383535882
30
0
41
1
10
-1.49503997793928
20
5.65149506497363
30
0
41
1
10
-1.49503997793928
20
5.5515356485646
30
0
41
1
10
-1.49503997793928
20
5.45074779186143
30
0
41
1
10
-1.49503997793928
20
5.34913293126229
30
0
41
1
10
-1.49503997793928
20
5.21243881483207
30
0
41
1
10
-1.49503997793928
20
5.03976746321263
30
0
41
1
10
-1.49503997793928
20
4.82914721456726
30
0
41
1
10
-1.49503997793928
20
4.61526983908041
30
0
41
1
10
-1.49503997793928
20
4.39815363484092
30
0
41
1
10
-1.49503997793928
20
4.21466878117025
30
0
41
1
10
-1.49503997793928
20
4.06603787841615
30
0
41
1
10
-1.49503997793928
20
3.9538749194972
30
0
41
1
10
-1.49503997793928
20
3.84091905980895
30
0
41
1
10
-1.49503997793928
20
3.72717408116662
30
0
41
1
10
-1.49503997793928
20
3.61264394142361
30
0
41
1
10
-1.49503997793928
20
3.49733277811788
30
0
41
1
10
-1.49503997793928
20
3.38124503613648
30
0
41
1
10
-1.49503997793928
20
3.26438606521717
30
0
41
1
10
-1.49503997793928
20
3.1467617159237
30
0
41
1
10
-1.49503997793928
20
3.02837792756958
30
0
41
1
10
-1.49503997793928
20
2.90924142661461
30
0
41
1
10
-1.49503997793928
20
2.78936037077261
30
0
41
1
10
-1.49503997793928
20
2.66874317257185
30
0
41
1
10
-1.49503997793928
20
2.54739968477233
30
0
41
1
10
-1.49503997793928
20
2.44578144693816
30
0
41
1
10
-1.49503997793928
20
2.37894315632079
30
0
41
1
10
-1.49503997793928
20
2.35297427447952
30
0
41
1
10
-1.49503997793928
20
2.34749778874223
30
0
0
SPLINE
5
108
100
AcDbEntity
8
SK1
62
256
6
ByLayer
370
18
48
1
60
0
100
AcDbSpline
70
4
71
3
72
8
73
4
40
0
40
0
40
0
40
0
40
1
40
1
40
1
40
1
41
1
10
-1.4950399779394
20
-2.34749772747679
30
0
41
1
10
-1.43636647390605
20
-2.67845911204324
30
0
41
1
10
-1.37234124557347
20
-3.00091149187799
30
0
41
1
10
-1.30710678118655
20
-3.31403252781453
30
0
0
SPLINE
5
109
100
AcDbEntity
8
SK1
62
256
6
ByLayer
370
18
48
1
60
0
100
AcDbSpline
70
4
71
3
72
32
73
28
40
0
40
0
40
0
40
0
40
0.356636599161906
40
0.356636599161906
40
0.43891852351592
40
0.43891852351592
40
0.466852578885802
40
0.466852578885802
40
0.491648863255271
40
0.491648863255271
40
0.509433307376993
40
0.509433307376993
40
0.517845551817556
40
0.517845551817556
40
0.524955946811716
40
0.524955946811716
40
0.532136299556504
40
0.532136299556504
40
0.539988715042862
40
0.539988715042862
40
0.553068472451522
40
0.553068472451522
40
0.592506287500259
40
0.592506287500259
40
0.765129517161187
40
0.765129517161187
40
1
40
1
40
1
40
1
41
1
10
-1.49503997793931
20
2.34749778874212
30
0
41
1
10
-1.51674926438412
20
2.22504168094253
30
0
41
1
10
-1.53965959796295
20
2.10198973938301
30
0
41
1
10
-1.57929452892498
20
1.95694389798328
30
0
41
1
10
-1.58728688913916
20
1.92997452960571
30
0
41
1
10
-1.60014685041296
20
1.89558884836046
30
0
41
1
10
-1.60360996173446
20
1.88701586088285
30
0
41
1
10
-1.61080217017806
20
1.87149615869794
30
0
41
1
10
-1.61445737042806
20
1.8644190972937
30
0
41
1
10
-1.62165915554127
20
1.85350876899568
30
0
41
1
10
-1.62497669273341
20
1.84923962381322
30
0
41
1
10
-1.63063349736493
20
1.84456798020818
30
0
41
1
10
-1.63260114583201
20
1.8433090630092
30
0
41
1
10
-1.63644881746126
20
1.84189791662217
30
0
41
1
10
-1.63833413896836
20
1.84160704031282
30
0
41
1
10
-1.6421074918232
20
1.84204241824955
30
0
41
1
10
-1.64404339960066
20
1.84279760818922
30
0
41
1
10
-1.64777693783728
20
1.84528412040601
30
0
41
1
10
-1.64960310807172
20
1.84711345963706
30
0
41
1
10
-1.6539322874136
20
1.85260771701391
30
0
41
1
10
-1.65619857548441
20
1.85674952744043
30
0
41
1
10
-1.66403264866162
20
1.87382005025418
30
0
41
1
10
-1.66775630870623
20
1.88824132138959
30
0
41
1
10
-1.68468176544545
20
1.96436510563876
30
0
41
1
10
-1.68890392552055
20
2.02849690055311
30
0
41
1
10
-1.69788177008903
20
2.17720019173632
30
0
41
1
10
-1.69963442185517
20
2.26267094142102
30
0
41
1
10
-1.69999999999999
20
2.34751178615272
30
0
0
SPLINE
5
10A
100
AcDbEntity
8
SK1
62
256
6
ByLayer
370
18
48
1
60
0
100
AcDbSpline
70
4
71
3
72
115
73
111
40
0
40
0
40
0
40
0
40
0.0010816361681317
40
0.0051306208080162
40
0.0132285900877851
40
0.0213265593675541
40
0.029424528647323
40
0.037522497927092
40
0.0456204672068609
40
0.0537184364866299
40
0.0618164057663988
40
0.0699143750461678
40
0.0780123443259367
40
0.0861103136057057
40
0.0942082828854746
40
0.102306252165244
40
0.110404221445012
40
0.118502190724782
40
0.12660016000455
40
0.134698129284319
40
0.142796098564088
40
0.158992037123626
40
0.175187975683164
40
0.191383914242702
40
0.20757985280224
40
0.215677822082009
40
0.223775791361778
40
0.231873760641547
40
0.239971729921316
40
0.248069699201085
40
0.256167668480854
40
0.264265637760623
40
0.272363607040391
40
0.28046157632016
40
0.288559545599929
40
0.296657514879698
40
0.304755484159467
40
0.312853453439236
40
0.320951422719005
40
0.329049391998774
40
0.337147361278543
40
0.345245330558312
40
0.353343299838081
40
0.369539238397619
40
0.385735176957157
40
0.393833146236926
40
0.401931115516695
40
0.410029084796464
40
0.418127054076233
40
0.426225023356001
40
0.434322992635771
40
0.442420961915539
40
0.450518931195308
40
0.466714869754846
40
0.482910808314384
40
0.491008777594153
40
0.499106746873922
40
0.507204716153691
40
0.51530268543346
40
0.523400654713229
40
0.531498623992998
40
0.539596593272767
40
0.547694562552536
40
0.563890501112074
40
0.580086439671612
40
0.58818440895138
40
0.59628237823115
40
0.604380347510918
40
0.612478316790687
40
0.620576286070456
40
0.628674255350225
40
0.636772224629994
40
0.644870193909763
40
0.661066132469301
40
0.677262071028839
40
0.685360040308608
40
0.693458009588377
40
0.701555978868146
40
0.709653948147915
40
0.717751917427684
40
0.725849886707453
40
0.733947855987222
40
0.742045825266991
40
0.75014379454676
40
0.758241763826529
40
0.766339733106297
40
0.774437702386066
40
0.782535671665835
40
0.790633640945604
40
0.798731610225373
40
0.806829579505142
40
0.814927548784911
40
0.82302551806468
40
0.831123487344449
40
0.839221456624218
40
0.855417395183756
40
0.863515364463525
40
0.871613333743294
40
0.879711303023063
40
0.887809272302832
40
0.90400521086237
40
0.920201149421908
40
0.936397087981445
40
0.952593026540983
40
0.960690995820752
40
0.968788965100521
40
0.97688693438029
40
0.984984903660059
40
0.993082872939828
40
1
40
1
40
1
40
1
41
1
10
-1.49503997793928
20
-2.34749772747685
30
0
41
1
10
-1.49503997793928
20
-2.35297422288198
30
0
41
1
10
-1.49503997793928
20
-2.37894311658403
30
0
41
1
10
-1.49503997793928
20
-2.44578140509637
30
0
41
1
10
-1.49503997793928
20
-2.54739957461444
30
0
41
1
10
-1.49503997793928
20
-2.66874292602245
30
0
41
1
10
-1.49503997793928
20
-2.78936021153859
30
0
41
1
10
-1.49503997793928
20
-2.90924160987004
30
0
41
1
10
-1.49503997793928
20
-3.02837828417549
30
0
41
1
10
-1.49503997793931
20
-3.14676167980997
30
0
41
1
10
-1.49503997793931
20
-3.2643857571382
30
0
41
1
10
-1.49503997793931
20
-3.38124473142446
30
0
41
1
10
-1.49503997793931
20
-3.4973327007406
30
0
41
1
10
-1.49503997793931
20
-3.61264412544148
30
0
41
1
10
-1.49503997793931
20
-3.72717407208265
30
0
41
1
10
-1.49503997793931
20
-3.84091862322862
30
0
41
1
10
-1.49503997793931
20
-3.95387458058386
30
0
41
1
10
-1.49503997793931
20
-4.06603800642878
30
0
41
1
10
-1.49503997793931
20
-4.17740500301781
30
0
41
1
10
-1.49503997793931
20
-4.28797249574384
30
0
41
1
10
-1.49503997793931
20
-4.43446210322787
30
0
41
1
10
-1.49503997793931
20
-4.61526986323273
30
0
41
1
10
-1.49503997793931
20
-4.82914716155648
30
0
41
1
10
-1.49503997793931
20
-5.03976742322499
30
0
41
1
10
-1.49503997793931
20
-5.21243879366801
30
0
41
1
10
-1.49503997793931
20
-5.34913288542151
30
0
41
1
10
-1.49503997793931
20
-5.4507477456186
30
0
41
1
10
-1.49503997793931
20
-5.55153561657562
30
0
41
1
10
-1.49503997793931
20
-5.65149504114433
30
0
41
1
10
-1.49503997793931
20
-5.75062380699094
30
0
41
1
10
-1.49503997793931
20
-5.84891995701895
30
0
41
1
10
-1.49503997793931
20
-5.9463816204476
30
0
41
1
10
-1.49503997793931
20
-6.0430064968013
30
0
41
1
10
-1.49503997793931
20
-6.13879286433351
30
0
41
1
10
-1.49503997793931
20
-6.23373849191756
30
0
41
1
10
-1.49503997793931
20
-6.32784120271069
30
0
41
1
10
-1.49503997793931
20
-6.42109916514164
30
0
41
1
10
-1.49503997793931
20
-6.5135100149694
30
0
41
1
10
-1.49503997793931
20
-6.60507157996005
30
0
41
1
10
-1.49503997793931
20
-6.69578175553812
30
0
41
1
10
-1.49503997793931
20
-6.78563788330885
30
0
41
1
10
-1.49503997793931
20
-6.87463786848124
30
0
41
1
10
-1.49503997793931
20
-6.99224343614395
30
0
41
1
10
-1.49503997793931
20
-7.13691288017824
30
0
41
1
10
-1.49503997793931
20
-7.27869561996113
30
0
41
1
10
-1.49503997793931
20
-7.39051932186584
30
0
41
1
10
-1.49503997793931
20
-7.47345537056427
30
0
41
1
10
-1.49503997793931
20
-7.5555140988842
30
0
41
1
10
-1.49503997793931
20
-7.63669274732661
30
0
41
1
10
-1.49503997793931
20
-7.71698851670988
30
0
41
1
10
-1.49503997793931
20
-7.79639781976607
30
0
41
1
10
-1.49503997793931
20
-7.87491786951264
30
0
41
1
10
-1.49503997793931
20
-7.97849120537592
30
0
41
1
10
-1.49503997793931
20
-8.10556186458783
30
0
41
1
10
-1.49503997793931
20
-8.22962444741844
30
0
41
1
10
-1.49503997793931
20
-8.327172542867
30
0
41
1
10
-1.49503997793931
20
-8.39937082766957
30
0
41
1
10
-1.49503997793931
20
-8.47065099138817
30
0
41
1
10
-1.49503997793931
20
-8.54100920456628
30
0
41
1
10
-1.49503997793931
20
-8.61044158988983
30
0
41
1
10
-1.49503997793931
20
-8.67894338472402
30
0
41
1
10
-1.49503997793931
20
-8.74651061840999
30
0
41
1
10
-1.49503997793931
20
-8.83540721332508
30
0
41
1
10
-1.49503997793931
20
-8.94403649561855
30
0
41
1
10
-1.49503997793931
20
-9.04949074686073
30
0
41
1
10
-1.49503997793931
20
-9.13202745573767
30
0
41
1
10
-1.49503997793931
20
-9.19292021412031
30
0
41
1
10
-1.49503997793931
20
-9.25283893648347
30
0
41
1
10
-1.49503997793931
20
-9.31177821550872
30
0
41
1
10
-1.49503997793931
20
-9.36973271501176
30
0
41
1
10
-1.49503997793931
20
-9.42669603797344
30
0
41
1
10
-1.49503997793931
20
-9.48266255671325
30
0
41
1
10
-1.49503997793931
20
-9.55599654096136
30
0
41
1
10
-1.49503997793931
20
-9.64502982606291
30
0
41
1
10
-1.49503997793931
20
-9.73065760658244
30
0
41
1
10
-1.49503997793931
20
-9.79716969120634
30
0
41
1
10
-1.49503997793931
20
-9.84597558117031
30
0
41
1
10
-1.49503997793931
20
-9.89373009862075
30
0
41
1
10
-1.49503997793931
20
-9.94042555998314
30
0
41
1
10
-1.49503997793931
20
-9.9860543664019
30
0
41
1
10
-1.49503997793931
20
-10.0306078864835
30
0
41
1
10
-1.49503997793931
20
-10.0740780611422
30
0
41
1
10
-1.49503997793931
20
-10.1164560590941
30
0
41
1
10
-1.49503997793931
20
-10.1577327882333
30
0
41
1
10
-1.49503997793931
20
-10.1978993278187
30
0
41
1
10
-1.49503997793931
20
-10.2369461506972
30
0
41
1
10
-1.49503997793931
20
-10.2748632577403
30
0
41
1
10
-1.49503997793931
20
-10.3116409871695
30
0
41
1
10
-1.49503997793931
20
-10.3472683849274
30
0
41
1
10
-1.49503997793931
20
-10.3817350419115
30
0
41
1
10
-1.49503997793931
20
-10.4150297473557
30
0
41
1
10
-1.49503997793931
20
-10.4471409666571
30
0
41
1
10
-1.49503997793931
20
-10.4780569204745
30
0
41
1
10
-1.49503997793931
20
-10.5077654424246
30
0
41
1
10
-1.49503997793931
20
-10.5457784712346
30
0
41
1
10
-1.49503997793931
20
-10.5812410164663
30
0
41
1
10
-1.49503997793931
20
-10.6142632847113
30
0
41
1
10
-1.49503997793931
20
-10.6377347714484
30
0
41
1
10
-1.49503997793931
20
-10.659915174236
30
0
41
1
10
-1.49503997793931
20
-10.6877698864739
30
0
41
1
10
-1.49503997793931
20
-10.719232045291
30
0
41
1
10
-1.49503997793931
20
-10.751585043016
30
0
41
1
10
-1.49503997793931
20
-10.7783612166035
30
0
41
1
10
-1.49503997793931
20
-10.7958810461951
30
0
41
1
10
-1.49503997793931
20
-10.806959847905
30
0
41
1
10
-1.49503997793931
20
-10.8137591702554
30
0
41
1
10
-1.49503997793931
20
-10.8190319435411
30
0
41
1
10
-1.49503997793931
20
-10.8227533881918
30
0
41
1
10
-1.49503997793931
20
-10.8247928632007
30
0
41
1
10
-1.49503997793928
20
-10.8251975933007
30
0
41
1
10
-1.49503997793931
20
-10.8251856485542
30
0
0
SPLINE
5
10B
100
AcDbEntity
8
SK1
62
256
6
ByLayer
370
18
48
1
60
0
100
AcDbSpline
70
4
71
3
72
30
73
26
40
0
40
0
40
0
40
0
40
0.360052108286739
40
0.360052108286739
40
0.414182795369029
40
0.414182795369029
40
0.441319094800672
40
0.441319094800672
40
0.451195262960072
40
0.451195262960072
40
0.461224946381245
40
0.461224946381245
40
0.467711236499062
40
0.467711236499062
40
0.474212016079713
40
0.474212016079713
40
0.482847947921514
40
0.482847947921514
40
0.498532582458581
40
0.498532582458581
40
0.552379769925851
40
0.552379769925851
40
0.810349417089643
40
0.810349417089643
40
1
40
1
40
1
40
1
41
1
10
-1.70000000000019
20
-2.3475116817483
30
0
41
1
10
-1.6994353481731
20
-2.21647118487891
30
0
41
1
10
-1.69844614237979
20
-2.08289239857018
30
0
41
1
10
-1.67656862366604
20
-1.93048811627656
30
0
41
1
10
-1.67316038985987
20
-1.91036346359695
30
0
41
1
10
-1.66561843849143
20
-1.88100938605297
30
0
41
1
10
-1.66268553859865
20
-1.87122075315878
30
0
41
1
10
-1.65724625767595
20
-1.85893849976404
30
0
41
1
10
-1.65562897748316
20
-1.85574110436585
30
0
41
1
10
-1.6519311451772
20
-1.84988105484797
30
0
41
1
10
-1.64979259662024
20
-1.84716009843925
30
0
41
1
10
-1.64585108476751
20
-1.84387231659994
30
0
41
1
10
-1.64415793169223
20
-1.84287333682909
30
0
41
1
10
-1.64073072295233
20
-1.84175513669575
30
0
41
1
10
-1.63895837579804
20
-1.84162628990126
30
0
41
1
10
-1.635035216164
20
-1.84220716119697
30
0
41
1
10
-1.6328858165966
20
-1.84318624425814
30
0
41
1
10
-1.62734818582317
20
-1.84688091511674
30
0
41
1
10
-1.62421744742181
20
-1.85036268886339
30
0
41
1
10
-1.6117794554678
20
-1.86703561073952
30
0
41
1
10
-1.604832422019
20
-1.8835838297675
30
0
41
1
10
-1.56808403778945
20
-1.97915260079583
30
0
41
1
10
-1.54998962063459
20
-2.0676165097141
30
0
41
1
10
-1.51860078034383
20
-2.21850563673004
30
0
41
1
10
-1.5064842336844
20
-2.28294377267116
30
0
41
1
10
-1.49503997793821
20
-2.34749772746747
30
0
0
SPLINE
5
10C
100
AcDbEntity
8
SK1
62
256
6
ByLayer
370
18
48
1
60
0
100
AcDbSpline
70
4
71
3
72
10
73
6
40
0
40
0
40
0
40
0
40
0.5
40
0.5
40
1
40
1
40
1
40
1
41
1
10
-1.69999999999999
20
2.34751178615284
30
0
41
1
10
-1.82829275010136
20
1.59849102282857
30
0
41
1
10
-1.92877517104071
20
0.802936952128817
30
0
41
1
10
-1.92836372452413
20
-0.80821608021509
30
0
41
1
10
-1.82832256560684
20
-1.59831678082256
30
0
41
1
10
-1.69999999999842
20
-2.347511681735
30
0
0
SPLINE
5
10D
100
AcDbEntity
8
SK1
62
256
6
ByLayer
370
18
48
1
60
0
100
AcDbSpline
70
4
71
3
72
113
73
109
40
0
40
0
40
0
40
0
40
0.006801793146756
40
0.0149960168348051
40
0.0231902405228542
40
0.0313844642109033
40
0.0477729115870015
40
0.0641613589630997
40
0.0805498063391979
40
0.096938253715296
40
0.105132477403345
40
0.113326701091394
40
0.121520924779443
40
0.129715148467492
40
0.146103595843591
40
0.15429781953164
40
0.162492043219689
40
0.170686266907738
40
0.178880490595787
40
0.187074714283836
40
0.195268937971885
40
0.203463161659934
40
0.211657385347984
40
0.219851609036033
40
0.228045832724082
40
0.236240056412131
40
0.24443428010018
40
0.252628503788229
40
0.260822727476278
40
0.269016951164327
40
0.277211174852376
40
0.285405398540425
40
0.293599622228474
40
0.301793845916523
40
0.309988069604572
40
0.326376516980671
40
0.342764964356769
40
0.350959188044818
40
0.359153411732867
40
0.367347635420916
40
0.375541859108965
40
0.383736082797014
40
0.391930306485064
40
0.400124530173113
40
0.408318753861162
40
0.42470720123726
40
0.441095648613358
40
0.449289872301407
40
0.457484095989456
40
0.465678319677506
40
0.473872543365555
40
0.482066767053604
40
0.490260990741653
40
0.498455214429702
40
0.506649438117751
40
0.523037885493849
40
0.539426332869947
40
0.547620556557996
40
0.555814780246045
40
0.564009003934095
40
0.572203227622144
40
0.580397451310193
40
0.588591674998242
40
0.596785898686291
40
0.60498012237434
40
0.621368569750438
40
0.637757017126536
40
0.645951240814586
40
0.654145464502635
40
0.662339688190684
40
0.670533911878733
40
0.678728135566782
40
0.686922359254831
40
0.69511658294288
40
0.703310806630929
40
0.711505030318978
40
0.719699254007027
40
0.727893477695077
40
0.736087701383126
40
0.744281925071175
40
0.752476148759224
40
0.760670372447273
40
0.768864596135322
40
0.777058819823371
40
0.78525304351142
40
0.801641490887518
40
0.818029938263616
40
0.834418385639715
40
0.850806833015813
40
0.867195280391911
40
0.87538950407996
40
0.883583727768009
40
0.891777951456058
40
0.899972175144108
40
0.908166398832157
40
0.916360622520206
40
0.924554846208255
40
0.932749069896304
40
0.940943293584353
40
0.949137517272402
40
0.957331740960451
40
0.9655259646485
40
0.973720188336549
40
0.981914412024599
40
0.990108635712648
40
0.994205747556672
40
0.998302859400697
40
1
40
1
40
1
40
1
41
1
10
-1.69999999999996
20
11.0168257861739
30
0
41
1
10
-1.69999999999999
20
11.0159250073996
30
0
41
1
10
-1.69999999999996
20
11.0135340499047
30
0
41
1
10
-1.69999999999999
20
11.0084756345047
30
0
41
1
10
-1.69999999999999
20
11.0015627517286
30
0
41
1
10
-1.69999999999999
20
10.9903135656216
30
0
41
1
10
-1.69999999999999
20
10.9724987271428
30
0
41
1
10
-1.69999999999999
20
10.9453046871603
30
0
41
1
10
-1.69999999999999
20
10.9124599273338
30
0
41
1
10
-1.69999999999999
20
10.8805066572373
30
0
41
1
10
-1.69999999999999
20
10.8522711554431
30
0
41
1
10
-1.69999999999999
20
10.8297709040831
30
0
41
1
10
-1.69999999999999
20
10.805964526766
30
0
41
1
10
-1.69999999999999
20
10.7725058279894
30
0
41
1
10
-1.69999999999999
20
10.7364870109124
30
0
41
1
10
-1.69999999999999
20
10.6979846247737
30
0
41
1
10
-1.69999999999999
20
10.667871716058
30
0
41
1
10
-1.69999999999999
20
10.6365384864303
30
0
41
1
10
-1.69999999999999
20
10.6039972898543
30
0
41
1
10
-1.69999999999999
20
10.5702601848038
30
0
41
1
10
-1.69999999999999
20
10.5353389624728
30
0
41
1
10
-1.69999999999999
20
10.4992449887466
30
0
41
1
10
-1.69999999999999
20
10.4619889498579
30
0
41
1
10
-1.69999999999999
20
10.4235819316408
30
0
41
1
10
-1.69999999999999
20
10.3840337022625
30
0
41
1
10
-1.69999999999999
20
10.3433544990447
30
0
41
1
10
-1.69999999999999
20
10.3015538720295
30
0
41
1
10
-1.69999999999999
20
10.2586409327216
30
0
41
1
10
-1.69999999999999
20
10.2146249480068
30
0
41
1
10
-1.69999999999999
20
10.1695147146772
30
0
41
1
10
-1.69999999999999
20
10.1233184687774
30
0
41
1
10
-1.69999999999999
20
10.0760448810433
30
0
41
1
10
-1.69999999999999
20
10.027701522966
30
0
41
1
10
-1.69999999999999
20
9.97829626766935
30
0
41
1
10
-1.69999999999999
20
9.91102211065424
30
0
41
1
10
-1.69999999999999
20
9.8242999772026
30
0
41
1
10
-1.69999999999999
20
9.73413471042335
30
0
41
1
10
-1.69999999999999
20
9.65997272044626
30
0
41
1
10
-1.69999999999999
20
9.60333356924752
30
0
41
1
10
-1.69999999999999
20
9.54568704168656
30
0
41
1
10
-1.69999999999999
20
9.48703893408202
30
0
41
1
10
-1.69999999999999
20
9.42739551695706
30
0
41
1
10
-1.69999999999999
20
9.36676193872179
30
0
41
1
10
-1.69999999999999
20
9.3051437774476
30
0
41
1
10
-1.69999999999999
20
9.22168704652844
30
0
41
1
10
-1.69999999999999
20
9.11491649636679
30
0
41
1
10
-1.69999999999999
20
9.00493248750243
30
0
41
1
10
-1.69999999999999
20
8.9150475069234
30
0
41
1
10
-1.69999999999999
20
8.84667845516583
30
0
41
1
10
-1.69999999999999
20
8.77736342146704
30
0
41
1
10
-1.69999999999999
20
8.707106481632
30
0
41
1
10
-1.69999999999999
20
8.63591216394966
30
0
41
1
10
-1.69999999999999
20
8.56378402232568
30
0
41
1
10
-1.69999999999999
20
8.49072598449763
30
0
41
1
10
-1.69999999999999
20
8.39208806457805
30
0
41
1
10
-1.69999999999999
20
8.26646749990718
30
0
41
1
10
-1.69999999999999
20
8.13779573224099
30
0
41
1
10
-1.69999999999999
20
8.0330544924083
30
0
41
1
10
-1.69999999999999
20
7.95358683542918
30
0
41
1
10
-1.69999999999999
20
7.87321640404122
30
0
41
1
10
-1.69999999999999
20
7.79194600202328
30
0
41
1
10
-1.69999999999999
20
7.70977883874548
30
0
41
1
10
-1.69999999999999
20
7.62671726605947
30
0
41
1
10
-1.69999999999999
20
7.54276403355829
30
0
41
1
10
-1.69999999999999
20
7.42964989475425
30
0
41
1
10
-1.69999999999999
20
7.28602039903603
30
0
41
1
10
-1.69999999999999
20
7.13945164867536
30
0
41
1
10
-1.69999999999999
20
7.0204585412456
30
0
41
1
10
-1.69999999999999
20
6.93033109954712
30
0
41
1
10
-1.69999999999999
20
6.83933016168689
30
0
41
1
10
-1.69999999999999
20
6.74745760354551
30
0
41
1
10
-1.69999999999999
20
6.6547154979545
30
0
41
1
10
-1.69999999999999
20
6.56110537660942
30
0
41
1
10
-1.69999999999999
20
6.46662906510224
30
0
41
1
10
-1.69999999999999
20
6.37128819193615
30
0
41
1
10
-1.69999999999999
20
6.27508414397229
30
0
41
1
10
-1.69999999999999
20
6.17801861138651
30
0
41
1
10
-1.69999999999999
20
6.08009295106382
30
0
41
1
10
-1.69999999999999
20
5.98130844183515
30
0
41
1
10
-1.69999999999999
20
5.88166662352432
30
0
41
1
10
-1.69999999999999
20
5.7811685540097
30
0
41
1
10
-1.69999999999999
20
5.67981554633889
30
0
41
1
10
-1.69999999999999
20
5.57760872375084
30
0
41
1
10
-1.69999999999999
20
5.47454903301667
30
0
41
1
10
-1.69999999999999
20
5.33601329758696
30
0
41
1
10
-1.69999999999999
20
5.16068772031301
30
0
41
1
10
-1.69999999999999
20
4.94691863630067
30
0
41
1
10
-1.69999999999999
20
4.72976236922625
30
0
41
1
10
-1.69999999999999
20
4.50922638794765
30
0
41
1
10
-1.69999999999999
20
4.32262158144502
30
0
41
1
10
-1.69999999999999
20
4.171683851729
30
0
41
1
10
-1.69999999999999
20
4.05762856057328
30
0
41
1
10
-1.69999999999999
20
3.94273458524899
30
0
41
1
10
-1.69999999999999
20
3.8270034595304
30
0
41
1
10
-1.69999999999999
20
3.71043651779695
30
0
41
1
10
-1.69999999999999
20
3.5930354415236
30
0
41
1
10
-1.69999999999999
20
3.47480210546814
30
0
41
1
10
-1.69999999999999
20
3.3557387899657
30
0
41
1
10
-1.69999999999999
20
3.23584780039647
30
0
41
1
10
-1.69999999999999
20
3.11513187517292
30
0
41
1
10
-1.69999999999999
20
2.993594380779
30
0
41
1
10
-1.69999999999999
20
2.87123918356852
30
0
41
1
10
-1.69999999999999
20
2.74807054514892
30
0
41
1
10
-1.69999999999999
20
2.62409378657779
30
0
41
1
10
-1.69999999999999
20
2.52010006268682
30
0
41
1
10
-1.69999999999999
20
2.43652882976181
30
0
41
1
10
-1.69999999999999
20
2.38592951909064
30
0
41
1
10
-1.69999999999999
20
2.35621966593379
30
0
41
1
10
-1.69999999999999
20
2.34751178615289
30
0
0
SPLINE
5
10E
100
AcDbEntity
8
SK1
62
256
6
ByLayer
370
18
48
1
60
0
100
AcDbSpline
70
4
71
3
72
22
73
18
40
0
40
0
40
0
40
0
40
0.0245639900498755
40
0.0245639900498755
40
0.0496318308550454
40
0.0496318308550454
40
0.0663627728408016
40
0.0663627728408016
40
0.0830188311624026
40
0.0830188311624026
40
0.109502469153841
40
0.109502469153841
40
0.161041561866806
40
0.161041561866806
40
0.34045087796751
40
0.34045087796751
40
1
40
1
40
1
40
1
41
1
10
-0.394976888875277
20
4.64126507959352
30
0
41
1
10
-0.38970266587873
20
4.63707055620748
30
0
41
1
10
-0.383949309888493
20
4.63330757597581
30
0
41
1
10
-0.371341458593548
20
4.62763518822399
30
0
41
1
10
-0.364243722574742
20
4.62572404052057
30
0
41
1
10
-0.352099082312236
20
4.62547750923432
30
0
41
1
10
-0.347037112029596
20
4.62618835449879
30
0
41
1
10
-0.337425328060107
20
4.62914446237855
30
0
41
1
10
-0.332766275168382
20
4.63140037203357
30
0
41
1
10
-0.321717412395486
20
4.63845052899637
30
0
41
1
10
-0.315694741777293
20
4.64402202563343
30
0
41
1
10
-0.300170082835308
20
4.66154175044696
30
0
41
1
10
-0.292195743622614
20
4.67485779786532
30
0
41
1
10
-0.261919134875711
20
4.73474950476742
30
0
41
1
10
-0.249811404729854
20
4.78489851705862
30
0
41
1
10
-0.203345284675123
20
5.0129847254702
30
0
41
1
10
-0.200000000000046
20
5.19061666338965
30
0
41
1
10
-0.200000000000046
20
5.36201916428996
30
0
0
SPLINE
5
10F
100
AcDbEntity
8
SK1
62
256
6
ByLayer
370
18
48
1
60
0
100
AcDbSpline
70
4
71
3
72
114
73
110
40
0
40
0
40
0
40
0
40
0.0016971436381848
40
0.0057942553222546
40
0.0098913670063244
40
0.018085590374464
40
0.0262798137426035
40
0.0344740371107431
40
0.0426682604788827
40
0.0508624838470223
40
0.0590567072151619
40
0.0672509305833014
40
0.075445153951441
40
0.0836393773195806
40
0.0918336006877202
40
0.10002782405586
40
0.108222047423999
40
0.116416270792139
40
0.124610494160279
40
0.132804717528418
40
0.140998940896558
40
0.149193164264697
40
0.165581611000976
40
0.181970057737256
40
0.198358504473535
40
0.214746951209814
40
0.222941174577954
40
0.231135397946093
40
0.239329621314233
40
0.247523844682372
40
0.255718068050512
40
0.263912291418651
40
0.272106514786791
40
0.280300738154931
40
0.28849496152307
40
0.29668918489121
40
0.304883408259349
40
0.313077631627489
40
0.321271854995628
40
0.329466078363768
40
0.337660301731908
40
0.345854525100047
40
0.354048748468187
40
0.362242971836326
40
0.378631418572606
40
0.395019865308885
40
0.403214088677024
40
0.411408312045164
40
0.419602535413304
40
0.427796758781443
40
0.435990982149583
40
0.444185205517722
40
0.452379428885862
40
0.460573652254001
40
0.476962098990281
40
0.49335054572656
40
0.501544769094699
40
0.509738992462839
40
0.517933215830978
40
0.526127439199118
40
0.534321662567258
40
0.542515885935397
40
0.550710109303537
40
0.558904332671676
40
0.575292779407956
40
0.591681226144235
40
0.599875449512374
40
0.608069672880514
40
0.616263896248653
40
0.624458119616793
40
0.632652342984933
40
0.640846566353072
40
0.649040789721212
40
0.657235013089351
40
0.673623459825631
40
0.69001190656191
40
0.698206129930049
40
0.706400353298189
40
0.714594576666329
40
0.722788800034468
40
0.730983023402608
40
0.739177246770747
40
0.747371470138887
40
0.755565693507026
40
0.763759916875166
40
0.771954140243306
40
0.780148363611445
40
0.788342586979585
40
0.796536810347724
40
0.804731033715864
40
0.812925257084003
40
0.821119480452143
40
0.829313703820283
40
0.837507927188422
40
0.845702150556562
40
0.853896373924701
40
0.87028482066098
40
0.87847904402912
40
0.88667326739726
40
0.894867490765399
40
0.903061714133539
40
0.919450160869818
40
0.935838607606097
40
0.952227054342376
40
0.968615501078656
40
0.976809724446795
40
0.985003947814935
40
0.993198171183074
40
1
40
1
40
1
40
1
41
1
10
-1.69999999999999
20
-2.34751168175015
30
0
41
1
10
-1.69999999999999
20
-2.35621957733798
30
0
41
1
10
-1.69999999999999
20
-2.38592944625574
30
0
41
1
10
-1.69999999999999
20
-2.43652877485599
30
0
41
1
10
-1.69999999999999
20
-2.52010001413041
30
0
41
1
10
-1.69999999999999
20
-2.62409374349514
30
0
41
1
10
-1.69999999999999
20
-2.74807047639385
30
0
41
1
10
-1.69999999999999
20
-2.8712390381817
30
0
41
1
10
-1.70000000000002
20
-2.99359419383882
30
0
41
1
10
-1.70000000000002
20
-3.115131944757
30
0
41
1
10
-1.70000000000002
20
-3.23584791746731
30
0
41
1
10
-1.70000000000002
20
-3.35573880021465
30
0
41
1
10
-1.70000000000002
20
-3.47480199284001
30
0
41
1
10
-1.70000000000002
20
-3.59303526241621
30
0
41
1
10
-1.70000000000002
20
-3.71043643743553
30
0
41
1
10
-1.70000000000002
20
-3.82700351079481
30
0
41
1
10
-1.70000000000002
20
-3.94273451640885
30
0
41
1
10
-1.70000000000002
20
-4.05762829513469
30
0
41
1
10
-1.70000000000002
20
-4.17168365277391
30
0
41
1
10
-1.70000000000002
20
-4.28489934734066
30
0
41
1
10
-1.70000000000002
20
-4.39727377856164
30
0
41
1
10
-1.70000000000002
20
-4.54596815109079
30
0
41
1
10
-1.70000000000002
20
-4.72976235068387
30
0
41
1
10
-1.70000000000002
20
-4.94691859926491
30
0
41
1
10
-1.70000000000002
20
-5.16068767245523
30
0
41
1
10
-1.70000000000002
20
-5.33601327110074
30
0
41
1
10
-1.70000000000002
20
-5.4745489994917
30
0
41
1
10
-1.70000000000002
20
-5.57760868171391
30
0
41
1
10
-1.70000000000002
20
-5.67981550565051
30
0
41
1
10
-1.70000000000002
20
-5.78116852113124
30
0
41
1
10
-1.70000000000002
20
-5.88166659485614
30
0
41
1
10
-1.70000000000002
20
-5.98130841102724
30
0
41
1
10
-1.70000000000002
20
-6.08009291387742
30
0
41
1
10
-1.70000000000002
20
-6.17801857115037
30
0
41
1
10
-1.70000000000002
20
-6.27508411030436
30
0
41
1
10
-1.70000000000002
20
-6.37128816532112
30
0
41
1
10
-1.70000000000002
20
-6.46662903768907
30
0
41
1
10
-1.70000000000002
20
-6.56110534348878
30
0
41
1
10
-1.70000000000002
20
-6.65471546144812
30
0
41
1
10
-1.70000000000002
20
-6.74745756863808
30
0
41
1
10
-1.70000000000002
20
-6.83933013294538
30
0
41
1
10
-1.70000000000002
20
-6.93033107540649
30
0
41
1
10
-1.70000000000002
20
-7.02045851391139
30
0
41
1
10
-1.70000000000002
20
-7.13945161440037
30
0
41
1
10
-1.70000000000002
20
-7.28602036791511
30
0
41
1
10
-1.70000000000002
20
-7.42964987262871
30
0
41
1
10
-1.70000000000002
20
-7.54276400792273
30
0
41
1
10
-1.70000000000002
20
-7.62671723619306
30
0
41
1
10
-1.70000000000002
20
-7.70977880868622
30
0
41
1
10
-1.70000000000002
20
-7.79194597495291
30
0
41
1
10
-1.70000000000002
20
-7.87321638075602
30
0
41
1
10
-1.70000000000002
20
-7.95358681402573
30
0
41
1
10
-1.70000000000002
20
-8.0330544688868
30
0
41
1
10
-1.70000000000002
20
-8.13779570521024
30
0
41
1
10
-1.70000000000002
20
-8.26646747522287
30
0
41
1
10
-1.70000000000002
20
-8.39208804491184
30
0
41
1
10
-1.70000000000002
20
-8.49072596407868
30
0
41
1
10
-1.70000000000002
20
-8.56378400031386
30
0
41
1
10
-1.70000000000002
20
-8.63591214139896
30
0
41
1
10
-1.70000000000002
20
-8.70710645983874
30
0
41
1
10
-1.70000000000002
20
-8.77736340151236
30
0
41
1
10
-1.70000000000002
20
-8.84667843706413
30
0
41
1
10
-1.70000000000002
20
-8.91504748954583
30
0
41
1
10
-1.70000000000002
20
-9.00493246986304
30
0
41
1
10
-1.70000000000002
20
-9.11491647650138
30
0
41
1
10
-1.70000000000002
20
-9.22168702931728
30
0
41
1
10
-1.70000000000002
20
-9.30514376314053
30
0
41
1
10
-1.70000000000002
20
-9.36676192571935
30
0
41
1
10
-1.70000000000002
20
-9.42739550269755
30
0
41
1
10
-1.70000000000002
20
-9.48703891782515
30
0
41
1
10
-1.70000000000002
20
-9.54568702498426
30
0
41
1
10
-1.70000000000002
20
-9.60333355436057
30
0
41
1
10
-1.70000000000002
20
-9.65997270948603
30
0
41
1
10
-1.70000000000002
20
-9.73413470277157
30
0
41
1
10
-1.70000000000002
20
-9.82429996242755
30
0
41
1
10
-1.70000000000002
20
-9.91102209624654
30
0
41
1
10
-1.70000000000002
20
-9.9782962601187
30
0
41
1
10
-1.70000000000002
20
-10.0277015194443
30
0
41
1
10
-1.70000000000002
20
-10.0760448746501
30
0
41
1
10
-1.70000000000002
20
-10.1233184572166
30
0
41
1
10
-1.70000000000002
20
-10.1695147015167
30
0
41
1
10
-1.70000000000002
20
-10.214624938185
30
0
41
1
10
-1.70000000000002
20
-10.2586409300894
30
0
41
1
10
-1.70000000000002
20
-10.3015538731596
30
0
41
1
10
-1.70000000000002
20
-10.3433544952797
30
0
41
1
10
-1.70000000000002
20
-10.3840336911891
30
0
41
1
10
-1.70000000000002
20
-10.4235819208782
30
0
41
1
10
-1.70000000000002
20
-10.4619889454751
30
0
41
1
10
-1.70000000000002
20
-10.4992449917908
30
0
41
1
10
-1.70000000000002
20
-10.5353389668746
30
0
41
1
10
-1.70000000000002
20
-10.5702601801729
30
0
41
1
10
-1.70000000000002
20
-10.6039972784095
30
0
41
1
10
-1.70000000000002
20
-10.6365384804889
30
0
41
1
10
-1.70000000000002
20
-10.6678717210084
30
0
41
1
10
-1.70000000000002
20
-10.6979846325427
30
0
41
1
10
-1.70000000000002
20
-10.7364870112034
30
0
41
1
10
-1.70000000000002
20
-10.7725058156908
30
0
41
1
10
-1.70000000000002
20
-10.8059645321906
30
0
41
1
10
-1.70000000000002
20
-10.8297709184935
30
0
41
1
10
-1.70000000000002
20
-10.8522711614578
30
0
41
1
10
-1.70000000000002
20
-10.8805066448562
30
0
41
1
10
-1.70000000000002
20
-10.9124599417153
30
0
41
1
10
-1.70000000000002
20
-10.9453046900679
30
0
41
1
10
-1.70000000000002
20
-10.9724987368511
30
0
41
1
10
-1.70000000000002
20
-10.9903135336491
30
0
41
1
10
-1.70000000000002
20
-11.0015624988159
30
0
41
1
10
-1.70000000000002
20
-11.0084752989365
30
0
41
1
10
-1.70000000000002
20
-11.0135338004019
30
0
41
1
10
-1.70000000000002
20
-11.0159248556773
30
0
41
1
10
-1.70000000000005
20
-11.0168256817817
30
0
0
SPLINE
5
110
100
AcDbEntity
8
SK1
62
256
6
ByLayer
370
18
48
1
60
0
100
AcDbSpline
70
4
71
3
72
22
73
18
40
0
40
0
40
0
40
0
40
0.0401187176479351
40
0.0401187176479351
40
0.0809205840693322
40
0.0809205840693322
40
0.110939215438291
40
0.110939215438291
40
0.140811855964671
40
0.140811855964671
40
0.18957721074261
40
0.18957721074261
40
0.310490649824217
40
0.310490649824217
40
0.734284037039096
40
0.734284037039096
40
1
40
1
40
1
40
1
41
1
10
-0.394976888875306
20
-4.64126630128334
30
0
41
1
10
-0.414851240757684
20
-4.65707202833818
30
0
41
1
10
-0.43657681469648
20
-4.67161770815903
30
0
41
1
10
-0.484344234972099
20
-4.69527225619453
30
0
41
1
10
-0.511179996443502
20
-4.70447803201566
30
0
41
1
10
-0.55963021189325
20
-4.71148455325257
30
0
41
1
10
-0.581226521051775
20
-4.71163748110686
30
0
41
1
10
-0.622738196979213
20
-4.70615885554017
30
0
41
1
10
-0.643113978930643
20
-4.7005544858514
30
0
41
1
10
-0.692838639904068
20
-4.68088286984391
30
0
41
1
10
-0.720762259934844
20
-4.66360961664179
30
0
41
1
10
-0.806980143907509
20
-4.59739735467713
30
0
41
1
10
-0.854111530678495
20
-4.53827797672739
30
0
41
1
10
-1.03762331512351
20
-4.26752717334409
30
0
41
1
10
-1.1196901977321
20
-4.02710662395185
30
0
41
1
10
-1.23587986907134
20
-3.63062538504175
30
0
41
1
10
-1.27383836253279
20
-3.47371869693896
30
0
41
1
10
-1.30710678118655
20
-3.3140325278145
30
0
0
SPLINE
5
111
100
AcDbEntity
8
SK1
62
256
6
ByLayer
370
18
48
1
60
0
100
AcDbSpline
70
4
71
3
72
26
73
22
40
0
40
0
40
0
40
0
40
0.445565443532363
40
0.445565443532363
40
0.655264383376964
40
0.655264383376964
40
0.828726256262898
40
0.828726256262898
40
0.876154197532178
40
0.876154197532178
40
0.905968249810069
40
0.905968249810069
40
0.926210751072041
40
0.926210751072041
40
0.943172178773616
40
0.943172178773616
40
0.960117844485506
40
0.960117844485506
40
0.984238026671506
40
0.984238026671506
40
1
40
1
40
1
40
1
41
1
10
-0.200000000000188
20
10.8830974324239
30
0
41
1
10
-0.200000000000188
20
10.8819710079772
30
0
41
1
10
-0.203329262474341
20
10.8768357974762
30
0
41
1
10
-0.22050825668714
20
10.8608398006147
30
0
41
1
10
-0.227841696150222
20
10.8544331912715
30
0
41
1
10
-0.248876399316799
20
10.839300022036
30
0
41
1
10
-0.260519040164894
20
10.831234386332
30
0
41
1
10
-0.287682580192097
20
10.8176098223726
30
0
41
1
10
-0.294422106503219
20
10.814425636351
30
0
41
1
10
-0.307975059129347
20
10.8087542809808
30
0
41
1
10
-0.313923536345698
20
10.8064124165897
30
0
41
1
10
-0.325470142016059
20
10.8023264062819
30
0
41
1
10
-0.330674635557614
20
10.8005996536701
30
0
41
1
10
-0.340874762381077
20
10.7975129873952
30
0
41
1
10
-0.345873303925458
20
10.7961109015917
30
0
41
1
10
-0.35577810118437
20
10.7935676582257
30
0
41
1
10
-0.360793362650213
20
10.7923975310653
30
0
41
1
10
-0.372226633464606
20
10.7899641210796
30
0
41
1
10
-0.378545586362151
20
10.7888184755389
30
0
41
1
10
-0.388035310313086
20
10.7873050473985
30
0
41
1
10
-0.391599313536318
20
10.7867953109233
30
0
41
1
10
-0.394976888893865
20
10.7863556111439
30
0
0
SPLINE
5
112
100
AcDbEntity
8
SK1
62
256
6
ByLayer
370
18
48
1
60
0
100
AcDbSpline
70
4
71
3
72
22
73
18
40
0
40
0
40
0
40
0
40
0.0396544331046221
40
0.0396544331046221
40
0.0801222492308035
40
0.0801222492308035
40
0.10713161921401
40
0.10713161921401
40
0.134020098154852
40
0.134020098154852
40
0.176773802526391
40
0.176773802526391
40
0.259975822781575
40
0.259975822781575
40
0.549603920367002
40
0.549603920367002
40
1
40
1
40
1
40
1
41
1
10
-0.394976888875306
20
-10.7863556154697
30
0
41
1
10
-0.38970263967866
20
-10.7870422282048
30
0
41
1
10
-0.383949255474278
20
-10.787901693367
30
0
41
1
10
-0.371341349893669
20
-10.7901447377048
30
0
41
1
10
-0.364243586661786
20
-10.7915871586324
30
0
41
1
10
-0.352098900524425
20
-10.7944788307469
30
0
41
1
10
-0.347036906174168
20
-10.7957979077191
30
0
41
1
10
-0.337425084029832
20
-10.798522674748
30
0
41
1
10
-0.332766016460454
20
-10.7999559337413
30
0
41
1
10
-0.321717088695237
20
-10.8035790811787
30
0
41
1
10
-0.315694378191665
20
-10.8057810587444
30
0
41
1
10
-0.300169598666315
20
-10.8118410319123
30
0
41
1
10
-0.292195204421006
20
-10.8154752639726
30
0
41
1
10
-0.261918491650476
20
-10.8302075808718
30
0
41
1
10
-0.249810830339101
20
-10.8386591321433
30
0
41
1
10
-0.224404270577651
20
-10.8568594774146
30
0
41
1
10
-0.214897401502583
20
-10.8649392168704
30
0
41
1
10
-0.209066686120195
20
-10.8707067341029
30
0
0
SPLINE
5
113
100
AcDbEntity
8
SK1
62
256
6
ByLayer
370
18
48
1
60
0
100
AcDbSpline
70
4
71
3
72
87
73
83
40
0
40
0
40
0
40
0
40
0.0205895173216174
40
0.0422092341771874
40
0.0638289510327574
40
0.0746388094605424
40
0.0854486678883274
40
0.0962585263161124
40
0.107068384743897
40
0.117878243171682
40
0.128688101599467
40
0.139497960027252
40
0.150307818455037
40
0.161117676882822
40
0.171927535310607
40
0.182737393738392
40
0.193547252166177
40
0.204357110593962
40
0.215166969021747
40
0.225976827449532
40
0.236786685877317
40
0.247596544305102
40
0.258406402732887
40
0.280026119588457
40
0.301645836444027
40
0.312455694871813
40
0.323265553299598
40
0.334075411727382
40
0.344885270155167
40
0.355695128582952
40
0.366504987010738
40
0.377314845438522
40
0.388124703866307
40
0.409744420721877
40
0.431364137577448
40
0.442173996005232
40
0.452983854433017
40
0.463793712860803
40
0.474603571288587
40
0.485413429716373
40
0.496223288144158
40
0.507033146571943
40
0.517843004999727
40
0.539462721855298
40
0.561082438710867
40
0.571892297138653
40
0.582702155566437
40
0.593512013994223
40
0.604321872422008
40
0.615131730849793
40
0.625941589277578
40
0.636751447705362
40
0.647561306133147
40
0.669181022988718
40
0.690800739844288
40
0.701610598272072
40
0.712420456699858
40
0.723230315127642
40
0.734040173555428
40
0.744850031983213
40
0.755659890410998
40
0.766469748838783
40
0.777279607266568
40
0.788089465694353
40
0.798899324122138
40
0.809709182549923
40
0.820519040977708
40
0.831328899405493
40
0.842138757833277
40
0.852948616261063
40
0.863758474688847
40
0.874568333116633
40
0.885378191544418
40
0.896188049972203
40
0.906997908399988
40
0.928617625255558
40
0.939427483683343
40
0.950237342111128
40
0.961047200538913
40
0.971857058966698
40
0.993476775822268
40
1
40
1
40
1
40
1
41
1
10
-0.394976888875306
20
-4.64126630129056
30
0
41
1
10
-0.394976888875306
20
-4.70975933848587
30
0
41
1
10
-0.394976888875306
20
-4.84919883643008
30
0
41
1
10
-0.394976888875306
20
-5.05691306897958
30
0
41
1
10
-0.394976888875306
20
-5.2299607904209
30
0
41
1
10
-0.394976888875306
20
-5.36691601337117
30
0
41
1
10
-0.394976888875306
20
-5.46873573922787
30
0
41
1
10
-0.394976888875306
20
-5.56972480779478
30
0
41
1
10
-0.394976888875306
20
-5.66988183380954
30
0
41
1
10
-0.394976888875306
20
-5.76920475793781
30
0
41
1
10
-0.394976888875306
20
-5.8676917140148
30
0
41
1
10
-0.394976888875306
20
-5.96534094682289
30
0
41
1
10
-0.394976888875306
20
-6.06215026481468
30
0
41
1
10
-0.394976888875306
20
-6.15811800993771
30
0
41
1
10
-0.394976888875306
20
-6.25324207373163
30
0
41
1
10
-0.394976888875306
20
-6.34752034717769
30
0
41
1
10
-0.394976888875306
20
-6.44095106217856
30
0
41
1
10
-0.394976888875306
20
-6.53353195984096
30
0
41
1
10
-0.394976888875306
20
-6.62526091746003
30
0
41
1
10
-0.394976888875306
20
-6.7161359116314
30
0
41
1
10
-0.394976888875306
20
-6.80615436611964
30
0
41
1
10
-0.394976888875306
20
-6.89531421629039
30
0
41
1
10
-0.394976888875306
20
-7.01311652640493
30
0
41
1
10
-0.394976888875306
20
-7.15805527924184
30
0
41
1
10
-0.394976888875306
20
-7.30009987737762
30
0
41
1
10
-0.394976888875306
20
-7.41210655371302
30
0
41
1
10
-0.394976888875306
20
-7.49518683136168
30
0
41
1
10
-0.394976888875306
20
-7.57738775597255
30
0
41
1
10
-0.394976888875306
20
-7.65870656932981
30
0
41
1
10
-0.394976888875306
20
-7.73914053534185
30
0
41
1
10
-0.394976888875306
20
-7.81868611994122
30
0
41
1
10
-0.394976888875306
20
-7.89734053346649
30
0
41
1
10
-0.394976888875306
20
-8.00107946944797
30
0
41
1
10
-0.394976888875306
20
-8.12837715497497
30
0
41
1
10
-0.394976888875306
20
-8.25266064944725
30
0
41
1
10
-0.394976888875306
20
-8.35036327427801
30
0
41
1
10
-0.394976888875306
20
-8.42268346582151
30
0
41
1
10
-0.394976888875306
20
-8.49408386680085
30
0
41
1
10
-0.394976888875306
20
-8.56456063385824
30
0
41
1
10
-0.394976888875306
20
-8.63410993550619
30
0
41
1
10
-0.394976888875306
20
-8.70272704218718
30
0
41
1
10
-0.394976888875306
20
-8.77040796817133
30
0
41
1
10
-0.394976888875306
20
-8.85944470922473
30
0
41
1
10
-0.394976888875306
20
-8.96826608195681
30
0
41
1
10
-0.394976888875306
20
-9.07390697555735
30
0
41
1
10
-0.394976888875306
20
-9.156574137538
30
0
41
1
10
-0.394976888875306
20
-9.21756975316299
30
0
41
1
10
-0.394976888875306
20
-9.27758983691163
30
0
41
1
10
-0.394976888875306
20
-9.33662895751223
30
0
41
1
10
-0.394976888875306
20
-9.39468180573056
30
0
41
1
10
-0.394976888875306
20
-9.45174200258421
30
0
41
1
10
-0.394976888875306
20
-9.50780389645979
30
0
41
1
10
-0.394976888875306
20
-9.58125528659923
30
0
41
1
10
-0.394976888875306
20
-9.67044907777677
30
0
41
1
10
-0.394976888875306
20
-9.75623202994143
30
0
41
1
10
-0.394976888875306
20
-9.8228521720736
30
0
41
1
10
-0.394976888875306
20
-9.87174304842168
30
0
41
1
10
-0.394976888875306
20
-9.91958105894813
30
0
41
1
10
-0.394976888875306
20
-9.9663584938545
30
0
41
1
10
-0.394976888875306
20
-10.0120677589968
30
0
41
1
10
-0.394976888875306
20
-10.0567002175973
30
0
41
1
10
-0.394976888875306
20
-10.1002477853245
30
0
41
1
10
-0.394976888875306
20
-10.1427016347534
30
0
41
1
10
-0.394976888875306
20
-10.1840526482538
30
0
41
1
10
-0.394976888875306
20
-10.2242918789209
30
0
41
1
10
-0.394976888875306
20
-10.2634097977789
30
0
41
1
10
-0.394976888875306
20
-10.3013963717051
30
0
41
1
10
-0.394976888875306
20
-10.3382419231241
30
0
41
1
10
-0.394976888875306
20
-10.373935478284
30
0
41
1
10
-0.394976888875306
20
-10.4084665881748
30
0
41
1
10
-0.394976888875306
20
-10.4418240218233
30
0
41
1
10
-0.394976888875306
20
-10.4739962096758
30
0
41
1
10
-0.394976888875306
20
-10.5049713318295
30
0
41
1
10
-0.394976888875306
20
-10.5347371933948
30
0
41
1
10
-0.394976888875306
20
-10.5728196085917
30
0
41
1
10
-0.394976888875306
20
-10.6083610274959
30
0
41
1
10
-0.394976888875306
20
-10.6414451810514
30
0
41
1
10
-0.394976888875306
20
-10.664964154205
30
0
41
1
10
-0.394976888875306
20
-10.687189908093
30
0
41
1
10
-0.394976888875306
20
-10.7150986110188
30
0
41
1
10
-0.394976888875306
20
-10.7378232718797
30
0
41
1
10
-0.394976888875306
20
-10.7527121733858
30
0
41
1
10
-0.394976888875306
20
-10.7560803014304
30
0
0
SPLINE
5
114
100
AcDbEntity
8
SK1
62
256
6
ByLayer
370
18
48
1
60
0
100
AcDbSpline
70
4
71
3
72
280
73
276
40
0
40
0
40
0
40
0
40
0.0015799897303406
40
0.0050900032691178
40
0.008600016807895
40
0.0121100303466721
40
0.0156200438854493
40
0.0191300574242265
40
0.0226400709630037
40
0.0296600980405581
40
0.0366801251181124
40
0.0437001521956668
40
0.0507201792732211
40
0.0542301928119983
40
0.0577402063507755
40
0.0612502198895527
40
0.0647602334283299
40
0.0717802605058842
40
0.0752902740446615
40
0.0788002875834387
40
0.0823103011222158
40
0.0858203146609929
40
0.0893303281997702
40
0.0928403417385474
40
0.0963503552773245
40
0.0998603688161017
40
0.103370382354879
40
0.106880395893656
40
0.110390409432433
40
0.11390042297121
40
0.117410436509988
40
0.120920450048765
40
0.124430463587542
40
0.127940477126319
40
0.131450490665096
40
0.134960504203874
40
0.138470517742651
40
0.141980531281428
40
0.149000558358982
40
0.156020585436537
40
0.159530598975314
40
0.163040612514091
40
0.166550626052868
40
0.170060639591645
40
0.173570653130423
40
0.1770806666692
40
0.180590680207977
40
0.184100693746754
40
0.191120720824309
40
0.198140747901863
40
0.20165076144064
40
0.205160774979417
40
0.208670788518194
40
0.212180802056972
40
0.215690815595749
40
0.219200829134526
40
0.222710842673303
40
0.22622085621208
40
0.233240883289635
40
0.240260910367189
40
0.243770923905966
40
0.247280937444743
40
0.250790950983521
40
0.254300964522298
40
0.257810978061075
40
0.261320991599852
40
0.264831005138629
40
0.268341018677407
40
0.275361045754961
40
0.282381072832515
40
0.285891086371293
40
0.28940109991007
40
0.292911113448847
40
0.296421126987624
40
0.299931140526401
40
0.303441154065178
40
0.306951167603956
40
0.310461181142733
40
0.31397119468151
40
0.317481208220287
40
0.320991221759064
40
0.324501235297841
40
0.328011248836619
40
0.331521262375396
40
0.335031275914173
40
0.33854128945295
40
0.342051302991727
40
0.345561316530504
40
0.352581343608059
40
0.359601370685613
40
0.366621397763168
40
0.373641424840722
40
0.380661451918276
40
0.384171465457054
40
0.387681478995831
40
0.391191492534608
40
0.394701506073385
40
0.398211519612162
40
0.40172153315094
40
0.405231546689717
40
0.408741560228494
40
0.412251573767271
40
0.415761587306048
40
0.419271600844825
40
0.422781614383603
40
0.42629162792238
40
0.429801641461157
40
0.433311654999934
40
0.435066661769323
40
0.436821668538711
40
0.440331682077489
40
0.443841695616266
40
0.447351709155043
40
0.45086172269382
40
0.454371736232597
40
0.457881749771375
40
0.461391763310152
40
0.464901776848929
40
0.466656783618317
40
0.468411790387706
40
0.470166797157095
40
0.471921803926483
40
0.473676810695872
40
0.47543181746526
40
0.477186824234649
40
0.478941831004038
40
0.480696837773426
40
0.482451844542815
40
0.484206851312203
40
0.485961858081592
40
0.48771686485098
40
0.489471871620369
40
0.491226878389758
40
0.492981885159146
40
0.494736891928535
40
0.496491898697923
40
0.498246905467312
40
0.500001912236701
40
0.501756919006089
40
0.503511925775478
40
0.505266932544866
40
0.507021939314255
40
0.508776946083644
40
0.510531952853032
40
0.512286959622421
40
0.514041966391809
40
0.515796973161198
40
0.517551979930587
40
0.519306986699975
40
0.521061993469364
40
0.522817000238752
40
0.524572007008141
40
0.526327013777529
40
0.528082020546918
40
0.529837027316307
40
0.531592034085695
40
0.533347040855084
40
0.535102047624472
40
0.53861206116325
40
0.542122074702027
40
0.545632088240804
40
0.549142101779581
40
0.552652115318358
40
0.556162128857136
40
0.559672142395913
40
0.56318215593469
40
0.564937162704078
40
0.566692169473467
40
0.570202183012244
40
0.573712196551021
40
0.577222210089799
40
0.580732223628576
40
0.584242237167353
40
0.58775225070613
40
0.591262264244907
40
0.594772277783685
40
0.598282291322462
40
0.601792304861239
40
0.605302318400016
40
0.608812331938793
40
0.612322345477571
40
0.615832359016347
40
0.619342372555125
40
0.622852386093902
40
0.626362399632679
40
0.633382426710234
40
0.640402453787788
40
0.647422480865342
40
0.654442507942897
40
0.657952521481674
40
0.661462535020451
40
0.664972548559228
40
0.668482562098006
40
0.671992575636783
40
0.67550258917556
40
0.679012602714337
40
0.682522616253114
40
0.686032629791891
40
0.689542643330669
40
0.693052656869446
40
0.696562670408223
40
0.700072683947
40
0.703582697485778
40
0.707092711024554
40
0.710602724563332
40
0.714112738102109
40
0.717622751640886
40
0.72464277871844
40
0.731662805795995
40
0.735172819334772
40
0.738682832873549
40
0.742192846412326
40
0.745702859951103
40
0.749212873489881
40
0.752722887028658
40
0.756232900567435
40
0.759742914106212
40
0.766762941183767
40
0.773782968261321
40
0.777292981800098
40
0.780802995338875
40
0.784313008877653
40
0.78782302241643
40
0.791333035955207
40
0.794843049493984
40
0.798353063032761
40
0.801863076571538
40
0.808883103649093
40
0.815903130726647
40
0.819413144265425
40
0.822923157804201
40
0.826433171342979
40
0.829943184881756
40
0.833453198420533
40
0.83696321195931
40
0.840473225498087
40
0.843983239036865
40
0.851003266114419
40
0.858023293191973
40
0.861533306730751
40
0.865043320269528
40
0.868553333808305
40
0.872063347347082
40
0.875573360885859
40
0.879083374424636
40
0.882593387963414
40
0.886103401502191
40
0.889613415040968
40
0.893123428579745
40
0.896633442118522
40
0.9001434556573
40
0.903653469196077
40
0.907163482734854
40
0.910673496273631
40
0.914183509812408
40
0.917693523351185
40
0.921203536889963
40
0.92471355042874
40
0.928223563967517
40
0.935243591045072
40
0.938753604583848
40
0.942263618122626
40
0.945773631661403
40
0.94928364520018
40
0.956303672277735
40
0.963323699355289
40
0.970343726432843
40
0.977363753510398
40
0.980873767049175
40
0.984383780587952
40
0.987893794126729
40
0.991403807665506
40
0.994913821204284
40
0.998423834743061
40
1
40
1
40
1
40
1
41
1
10
-19
20
10.032949248003
30
0
41
1
10
-19
20
10.03309079951
30
0
41
1
10
-19
20
10.0333808358304
30
0
41
1
10
-19
20
10.0329736292638
30
0
41
1
10
-19
20
10.0309830775664
30
0
41
1
10
-19
20
10.0275226633951
30
0
41
1
10
-19
20
10.0226134495803
30
0
41
1
10
-19
20
10.0162751664439
30
0
41
1
10
-19
20
10.0058875348545
30
0
41
1
10
-19
20
9.98956609173459
30
0
41
1
10
-19
20
9.96448776698293
30
0
41
1
10
-19
20
9.934132772119
30
0
41
1
10
-19
20
9.90466617231218
30
0
41
1
10
-19
20
9.87835855867951
30
0
41
1
10
-19
20
9.85747766874042
30
0
41
1
10
-19
20
9.8353668976298
30
0
41
1
10
-19
20
9.80411797985394
30
0
41
1
10
-19
20
9.77091555985695
30
0
41
1
10
-19
20
9.73489077939226
30
0
41
1
10
-19
20
9.70682531106704
30
0
41
1
10
-19
20
9.67760483131215
30
0
41
1
10
-19
20
9.6472406847173
30
0
41
1
10
-19
20
9.61574346169033
30
0
41
1
10
-19
20
9.58312368489487
30
0
41
1
10
-19
20
9.54939200999826
30
0
41
1
10
-19
20
9.51455771866415
30
0
41
1
10
-19
20
9.47863119608741
30
0
41
1
10
-19
20
9.44162164180463
30
0
41
1
10
-19
20
9.40353806264946
30
0
41
1
10
-19
20
9.36438993231127
30
0
41
1
10
-19
20
9.3241854444656
30
0
41
1
10
-19
20
9.28293297227461
30
0
41
1
10
-19
20
9.24064144704934
30
0
41
1
10
-19
20
9.19731819280187
30
0
41
1
10
-19
20
9.15297167827993
30
0
41
1
10
-19
20
9.10760963710962
30
0
41
1
10
-19
20
9.06123902108877
30
0
41
1
10
-19
20
8.99782333228859
30
0
41
1
10
-19
20
8.91664200511914
30
0
41
1
10
-19
20
8.83220800680832
30
0
41
1
10
-19
20
8.76223827415896
30
0
41
1
10
-19
20
8.70900473105831
30
0
41
1
10
-19
20
8.65481733532437
30
0
41
1
10
-19
20
8.59968102157822
30
0
41
1
10
-19
20
8.54360269974063
30
0
41
1
10
-19
20
8.48658847771901
30
0
41
1
10
-19
20
8.42864308493387
30
0
41
1
10
-19
20
8.34984450729291
30
0
41
1
10
-19
20
8.24973849608216
30
0
41
1
10
-19
20
8.14661356098193
30
0
41
1
10
-19
20
8.06173284490117
30
0
41
1
10
-19
20
7.99742345663481
30
0
41
1
10
-19
20
7.93222591806961
30
0
41
1
10
-19
20
7.86614377003912
30
0
41
1
10
-19
20
7.79918272035926
30
0
41
1
10
-19
20
7.73134795661787
30
0
41
1
10
-19
20
7.66264290479882
30
0
41
1
10
-19
20
7.56952283231726
30
0
41
1
10
-19
20
7.45179046448192
30
0
41
1
10
-19
20
7.33122525294462
30
0
41
1
10
-19
20
7.23239719005701
30
0
41
1
10
-19
20
7.15772731741788
30
0
41
1
10
-19
20
7.08222314311985
30
0
41
1
10
-19
20
7.00588739266462
30
0
41
1
10
-19
20
6.92872517773972
30
0
41
1
10
-19
20
6.85074109996623
30
0
41
1
10
-19
20
6.77193793275302
30
0
41
1
10
-19
20
6.66535732677104
30
0
41
1
10
-19
20
6.5310781219363
30
0
41
1
10
-19
20
6.39412574741871
30
0
41
1
10
-19
20
6.28215784138945
30
0
41
1
10
-19
20
6.19773875078894
30
0
41
1
10
-19
20
6.11253406080704
30
0
41
1
10
-19
20
6.02654676803036
30
0
41
1
10
-19
20
5.93978186598011
30
0
41
1
10
-19
20
5.85224375649921
30
0
41
1
10
-19
20
5.76393600430757
30
0
41
1
10
-19
20
5.67486399066655
30
0
41
1
10
-19
20
5.58503142050259
30
0
41
1
10
-19
20
5.49444245957599
30
0
41
1
10
-19
20
5.40310280117831
30
0
41
1
10
-19
20
5.31101593014734
30
0
41
1
10
-19
20
5.2181872813623
30
0
41
1
10
-19
20
5.12462207475713
30
0
41
1
10
-19
20
5.03032492286115
30
0
41
1
10
-19
20
4.9353024296438
30
0
41
1
10
-19
20
4.8395580208946
30
0
41
1
10
-19
20
4.7103465388588
30
0
41
1
10
-19
20
4.5484595026588
30
0
41
1
10
-19
20
4.35063320532777
30
0
41
1
10
-19
20
4.15007820921218
30
0
41
1
10
-19
20
3.94685681236831
30
0
41
1
10
-19
20
3.77604855813311
30
0
41
1
10
-19
20
3.63679046418031
30
0
41
1
10
-19
20
3.53231619129491
30
0
41
1
10
-19
20
3.42723503898236
30
0
41
1
10
-19
20
3.32155992301486
30
0
41
1
10
-19
20
3.21530546061473
30
0
41
1
10
-19
20
3.10848576848571
30
0
41
1
10
-19
20
3.00111573414054
30
0
41
1
10
-19
20
2.89321317852725
30
0
41
1
10
-19
20
2.78479835655284
30
0
41
1
10
-19
20
2.67589021302879
30
0
41
1
10
-19
20
2.56650912624588
30
0
41
1
10
-19
20
2.45668069003125
30
0
41
1
10
-19
20
2.34643018241178
30
0
41
1
10
-19
20
2.23578586879043
30
0
41
1
10
-19
20
2.14381940674537
30
0
41
1
10
-19
20
2.06905901211775
30
0
41
1
10
-19
20
1.99420804195606
30
0
41
1
10
-19
20
1.90180866816087
30
0
41
1
10
-19
20
1.78992235940535
30
0
41
1
10
-19
20
1.67782006325024
30
0
41
1
10
-19
20
1.56555014993989
30
0
41
1
10
-19
20
1.45315823265887
30
0
41
1
10
-19
20
1.34069259518995
30
0
41
1
10
-19
20
1.22820431977144
30
0
41
1
10
-19
20
1.1352291474517
30
0
41
1
10
-19
20
1.05947688607969
30
0
41
1
10
-19
20
1.00330201206953
30
0
41
1
10
-19
20
0.947161044590956
30
0
41
1
10
-19
20
0.891055246744173
30
0
41
1
10
-19
20
0.834992891996222
30
0
41
1
10
-19
20
0.778974983835155
30
0
41
1
10
-19
20
0.723010172894874
30
0
41
1
10
-19
20
0.667096437512441
30
0
41
1
10
-19
20
0.611239537520504
30
0
41
1
10
-19
20
0.555438256952812
30
0
41
1
10
-19
20
0.499694285660468
30
0
41
1
10
-19
20
0.444005417542513
30
0
41
1
10
-19
20
0.388370253126283
30
0
41
1
10
-19
20
0.332784951295224
30
0
41
1
10
-19
20
0.277245379074088
30
0
41
1
10
-19
20
0.221745399560177
30
0
41
1
10
-19
20
0.166278832055269
30
0
41
1
10
-19
20
0.110837824934094
30
0
41
1
10
-19
20
0.0554145387399103
30
0
41
1
10
-19
20
3.86551449E-08
30
0
41
1
10
-19
20
-0.0554144797882259
30
0
41
1
10
-19
20
-0.110837800625177
30
0
41
1
10
-19
20
-0.16627880449019
30
0
41
1
10
-19
20
-0.221745320409724
30
0
41
1
10
-19
20
-0.277245288582151
30
0
41
1
10
-19
20
-0.332784928641019
30
0
41
1
10
-19
20
-0.388370257726137
30
0
41
1
10
-19
20
-0.444005340907665
30
0
41
1
10
-19
20
-0.499694162742912
30
0
41
1
10
-19
20
-0.555438223077658
30
0
41
1
10
-19
20
-0.611239573198048
30
0
41
1
10
-19
20
-0.667096387172194
30
0
41
1
10
-19
20
-0.723010025138422
30
0
41
1
10
-19
20
-0.778974908352069
30
0
41
1
10
-19
20
-0.834992934518141
30
0
41
1
10
-19
20
-0.891055249962051
30
0
41
1
10
-19
20
-0.947160931144737
30
0
41
1
10
-19
20
-1.00330186501549
30
0
41
1
10
-19
20
-1.05947685359388
30
0
41
1
10
-19
20
-1.13522919275329
30
0
41
1
10
-19
20
-1.22820420682379
30
0
41
1
10
-19
20
-1.3406925501238
30
0
41
1
10
-19
20
-1.45315824122116
30
0
41
1
10
-19
20
-1.56555001007135
30
0
41
1
10
-19
20
-1.67782007270239
30
0
41
1
10
-19
20
-1.78992235147859
30
0
41
1
10
-19
20
-1.90180851379785
30
0
41
1
10
-19
20
-1.99420801826724
30
0
41
1
10
-19
20
-2.0690590907827
30
0
41
1
10
-19
20
-2.14381939218555
30
0
41
1
10
-19
20
-2.23578548610092
30
0
41
1
10
-19
20
-2.34642921347088
30
0
41
1
10
-19
20
-2.45668047453481
30
0
41
1
10
-19
20
-2.56651081363333
30
0
41
1
10
-19
20
-2.67589173582559
30
0
41
1
10
-19
20
-2.78479769803877
30
0
41
1
10
-19
20
-2.89321157705831
30
0
41
1
10
-19
20
-3.00111464897739
30
0
41
1
10
-19
20
-3.10848610444538
30
0
41
1
10
-19
20
-3.21530671882516
30
0
41
1
10
-19
20
-3.32155966873086
30
0
41
1
10
-19
20
-3.4272331082463
30
0
41
1
10
-19
20
-3.53231555384818
30
0
41
1
10
-19
20
-3.63679192068696
30
0
41
1
10
-19
20
-3.74064752046886
30
0
41
1
10
-19
20
-3.84387328825898
30
0
41
1
10
-19
20
-3.9814047720688
30
0
41
1
10
-19
20
-4.15007840683614
30
0
41
1
10
-19
20
-4.35063308740934
30
0
41
1
10
-19
20
-4.54845949464797
30
0
41
1
10
-19
20
-4.71034653931898
30
0
41
1
10
-19
20
-4.83955792501365
30
0
41
1
10
-19
20
-4.93530236631193
30
0
41
1
10
-19
20
-5.03032492621836
30
0
41
1
10
-19
20
-5.12462208769517
30
0
41
1
10
-19
20
-5.21818725421466
30
0
41
1
10
-19
20
-5.31101586303657
30
0
41
1
10
-19
20
-5.40310273191946
30
0
41
1
10
-19
20
-5.49444243905597
30
0
41
1
10
-19
20
-5.58503143754709
30
0
41
1
10
-19
20
-5.6748639812667
30
0
41
1
10
-19
20
-5.76393594987681
30
0
41
1
10
-19
20
-5.85224369296401
30
0
41
1
10
-19
20
-5.93978182754933
30
0
41
1
10
-19
20
-6.02654676214735
30
0
41
1
10
-19
20
-6.11253406622626
30
0
41
1
10
-19
20
-6.19773872711929
30
0
41
1
10
-19
20
-6.28215778589689
30
0
41
1
10
-19
20
-6.39412570491885
30
0
41
1
10
-19
20
-6.53107811386181
30
0
41
1
10
-19
20
-6.66535731095078
30
0
41
1
10
-19
20
-6.77193788641881
30
0
41
1
10
-19
20
-6.85074105917914
30
0
41
1
10
-19
20
-6.92872515734757
30
0
41
1
10
-19
20
-7.00588738465535
30
0
41
1
10
-19
20
-7.08222313407848
30
0
41
1
10
-19
20
-7.15772729389113
30
0
41
1
10
-19
20
-7.23239715387308
30
0
41
1
10
-19
20
-7.33122522366617
30
0
41
1
10
-19
20
-7.45179045110854
30
0
41
1
10
-19
20
-7.56952281794148
30
0
41
1
10
-19
20
-7.66264287890502
30
0
41
1
10
-19
20
-7.7313479299593
30
0
41
1
10
-19
20
-7.79918269883237
30
0
41
1
10
-19
20
-7.86614375440621
30
0
41
1
10
-19
20
-7.93222590620877
30
0
41
1
10
-19
20
-7.99742344377472
30
0
41
1
10
-19
20
-8.06173282830699
30
0
41
1
10
-19
20
-8.14661354012858
30
0
41
1
10
-19
20
-8.24973847707105
30
0
41
1
10
-19
20
-8.34984449752753
30
0
41
1
10
-19
20
-8.42864307690587
30
0
41
1
10
-19
20
-8.48658846431246
30
0
41
1
10
-19
20
-8.54360267942894
30
0
41
1
10
-19
20
-8.59968100131869
30
0
41
1
10
-19
20
-8.65481732154308
30
0
41
1
10
-19
20
-8.70900472624044
30
0
41
1
10
-19
20
-8.76223827352646
30
0
41
1
10
-19
20
-8.83220799572914
30
0
41
1
10
-19
20
-8.9166419843763
30
0
41
1
10
-19
20
-8.99782332638688
30
0
41
1
10
-19
20
-9.0612390265818
30
0
41
1
10
-19
20
-9.1076096344371
30
0
41
1
10
-19
20
-9.15297166047549
30
0
41
1
10
-19
20
-9.1973181725669
30
0
41
1
10
-19
20
-9.24064143684649
30
0
41
1
10
-19
20
-9.28293297620277
30
0
41
1
10
-19
20
-9.32418545496634
30
0
41
1
10
-19
20
-9.36438993128212
30
0
41
1
10
-19
20
-9.40353804443777
30
0
41
1
10
-19
20
-9.44162162340902
30
0
41
1
10
-19
20
-9.4786311932792
30
0
41
1
10
-19
20
-9.51455772901522
30
0
41
1
10
-19
20
-9.54939202150848
30
0
41
1
10
-19
20
-9.58312368103435
30
0
41
1
10
-19
20
-9.61574344204709
30
0
41
1
10
-19
20
-9.64724067280977
30
0
41
1
10
-19
20
-9.67760484023773
30
0
41
1
10
-19
20
-9.70682532727793
30
0
41
1
10
-19
20
-9.7348907843963
30
0
41
1
10
-19
20
-9.7709155485193
30
0
41
1
10
-19
20
-9.80411797119547
30
0
41
1
10
-19
20
-9.83536691785608
30
0
41
1
10
-19
20
-9.85747768285276
30
0
41
1
10
-19
20
-9.87835855131377
30
0
41
1
10
-19
20
-9.90466616212433
30
0
41
1
10
-19
20
-9.93413279070074
30
0
41
1
10
-19
20
-9.96448776920465
30
0
41
1
10
-19
20
-9.98956609304787
30
0
41
1
10
-19
20
-10.0058874490332
30
0
41
1
10
-19
20
-10.0162748640149
30
0
41
1
10
-19
20
-10.0226131177802
30
0
41
1
10
-19
20
-10.0275224425778
30
0
41
1
10
-19
20
-10.0309830121398
30
0
41
1
10
-19
20
-10.0329737078169
30
0
41
1
10
-19
20
-10.03338077886
30
0
41
1
10
-19
20
-10.0330913315631
30
0
41
1
10
-19
20
-10.0329503596516
30
0
0
SPLINE
5
115
100
AcDbEntity
8
SK1
62
256
6
ByLayer
370
18
48
1
60
0
100
AcDbSpline
70
4
71
3
72
8
73
4
40
0
40
0
40
0
40
0
40
1
40
1
40
1
40
1
41
1
10
-1.30710678118655
20
3.31403271963521
30
0
41
1
10
-1.3723406953053
20
3.00091128094479
30
0
41
1
10
-1.43636641767523
20
2.67845918809309
30
0
41
1
10
-1.49503997793928
20
2.34749778874226
30
0
0
SPLINE
5
116
100
AcDbEntity
8
SK1
62
256
6
ByLayer
370
18
48
1
60
0
100
AcDbSpline
70
4
71
3
72
282
73
278
40
0
40
0
40
0
40
0
40
0.0005689113599872
40
0.0040614371807803
40
0.0075539630015733
40
0.0110464888223664
40
0.0145390146431594
40
0.0180315404639525
40
0.0215240662847455
40
0.0250165921055386
40
0.0320016437471247
40
0.0389866953887108
40
0.0459717470302969
40
0.052956798671883
40
0.0564493244926761
40
0.0599418503134691
40
0.0634343761342621
40
0.0669269019550552
40
0.0739119535966413
40
0.0774044794174343
40
0.0808970052382274
40
0.0843895310590204
40
0.0878820568798136
40
0.0913745827006066
40
0.0948671085213997
40
0.0983596343421927
40
0.101852160162986
40
0.105344685983779
40
0.108837211804572
40
0.112329737625365
40
0.115822263446158
40
0.119314789266951
40
0.122807315087744
40
0.126299840908537
40
0.12979236672933
40
0.133284892550123
40
0.136777418370916
40
0.140269944191709
40
0.143762470012502
40
0.150747521654088
40
0.157732573295675
40
0.161225099116468
40
0.164717624937261
40
0.168210150758054
40
0.171702676578847
40
0.17519520239964
40
0.178687728220433
40
0.182180254041226
40
0.185672779862019
40
0.192657831503605
40
0.199642883145191
40
0.203135408965984
40
0.206627934786777
40
0.21012046060757
40
0.213612986428363
40
0.217105512249157
40
0.220598038069949
40
0.224090563890743
40
0.227583089711536
40
0.234568141353122
40
0.241553192994708
40
0.245045718815501
40
0.248538244636294
40
0.252030770457087
40
0.25552329627788
40
0.259015822098673
40
0.262508347919466
40
0.266000873740259
40
0.269493399561052
40
0.276478451202638
40
0.283463502844224
40
0.286956028665018
40
0.29044855448581
40
0.293941080306604
40
0.297433606127397
40
0.30092613194819
40
0.304418657768983
40
0.307911183589776
40
0.311403709410569
40
0.314896235231362
40
0.318388761052155
40
0.321881286872948
40
0.325373812693741
40
0.328866338514534
40
0.332358864335327
40
0.33585139015612
40
0.339343915976913
40
0.342836441797706
40
0.3463289676185
40
0.353314019260085
40
0.360299070901672
40
0.367284122543258
40
0.374269174184844
40
0.38125422582643
40
0.384746751647223
40
0.388239277468016
40
0.391731803288809
40
0.395224329109602
40
0.398716854930395
40
0.402209380751188
40
0.405701906571981
40
0.409194432392774
40
0.412686958213567
40
0.41617948403436
40
0.419672009855154
40
0.423164535675946
40
0.42665706149674
40
0.430149587317533
40
0.433642113138326
40
0.435388376048722
40
0.437134638959119
40
0.440627164779912
40
0.444119690600705
40
0.447612216421498
40
0.451104742242291
40
0.454597268063084
40
0.458089793883877
40
0.46158231970467
40
0.465074845525463
40
0.46682110843586
40
0.468567371346256
40
0.470313634256653
40
0.472059897167049
40
0.473806160077446
40
0.475552422987842
40
0.477298685898239
40
0.479044948808635
40
0.480791211719032
40
0.482537474629428
40
0.484283737539825
40
0.486030000450221
40
0.487776263360618
40
0.489522526271015
40
0.491268789181411
40
0.493015052091808
40
0.494761315002204
40
0.496507577912601
40
0.498253840822997
40
0.500000103733394
40
0.50174636664379
40
0.503492629554187
40
0.505238892464583
40
0.50698515537498
40
0.508731418285376
40
0.510477681195773
40
0.512223944106169
40
0.513970207016566
40
0.515716469926963
40
0.517462732837359
40
0.519208995747755
40
0.520955258658152
40
0.522701521568549
40
0.524447784478945
40
0.526194047389342
40
0.527940310299738
40
0.529686573210135
40
0.531432836120531
40
0.533179099030928
40
0.534925361941324
40
0.538417887762117
40
0.54191041358291
40
0.545402939403703
40
0.548895465224496
40
0.55238799104529
40
0.555880516866083
40
0.559373042686876
40
0.562865568507669
40
0.564611831418065
40
0.566358094328462
40
0.569850620149255
40
0.573343145970048
40
0.576835671790841
40
0.580328197611634
40
0.583820723432427
40
0.58731324925322
40
0.590805775074013
40
0.594298300894806
40
0.597790826715599
40
0.601283352536392
40
0.604775878357185
40
0.608268404177979
40
0.611760929998771
40
0.615253455819565
40
0.618745981640358
40
0.622238507461151
40
0.625731033281944
40
0.63271608492353
40
0.639701136565116
40
0.646686188206702
40
0.653671239848288
40
0.657163765669081
40
0.660656291489874
40
0.664148817310667
40
0.66764134313146
40
0.671133868952253
40
0.674626394773047
40
0.678118920593839
40
0.681611446414633
40
0.685103972235426
40
0.688596498056219
40
0.692089023877012
40
0.695581549697805
40
0.699074075518598
40
0.702566601339391
40
0.706059127160184
40
0.709551652980977
40
0.71304417880177
40
0.716536704622563
40
0.723521756264149
40
0.730506807905735
40
0.733999333726528
40
0.737491859547322
40
0.740984385368115
40
0.744476911188907
40
0.7479694370097
40
0.751461962830494
40
0.754954488651287
40
0.75844701447208
40
0.765432066113666
40
0.772417117755252
40
0.775909643576045
40
0.779402169396838
40
0.782894695217631
40
0.786387221038424
40
0.789879746859217
40
0.79337227268001
40
0.796864798500803
40
0.800357324321596
40
0.807342375963182
40
0.814327427604769
40
0.817819953425562
40
0.821312479246355
40
0.824805005067148
40
0.828297530887941
40
0.831790056708734
40
0.835282582529527
40
0.83877510835032
40
0.842267634171113
40
0.849252685812699
40
0.856237737454285
40
0.859730263275078
40
0.863222789095871
40
0.866715314916664
40
0.870207840737457
40
0.87370036655825
40
0.877192892379044
40
0.880685418199837
40
0.88417794402063
40
0.887670469841423
40
0.891162995662216
40
0.894655521483009
40
0.898148047303802
40
0.901640573124595
40
0.905133098945388
40
0.908625624766181
40
0.912118150586974
40
0.915610676407767
40
0.91910320222856
40
0.922595728049353
40
0.926088253870146
40
0.933073305511733
40
0.936565831332525
40
0.940058357153319
40
0.943550882974111
40
0.947043408794905
40
0.95402846043649
40
0.961013512078077
40
0.967998563719663
40
0.974983615361249
40
0.978476141182042
40
0.981968667002835
40
0.985461192823628
40
0.988953718644421
40
0.992446244465214
40
0.995938770286007
40
0.9994312961068
40
1
40
1
40
1
40
1
41
1
10
-18
20
10.6091545247271
30
0
41
1
10
-18
20
10.6092716866006
30
0
41
1
10
-18
20
10.6100564434664
30
0
41
1
10
-18
20
10.6108321487841
30
0
41
1
10
-18
20
10.6103050545653
30
0
41
1
10
-18
20
10.6082029915013
30
0
41
1
10
-18
20
10.6045523963069
30
0
41
1
10
-18
20
10.599378203272
30
0
41
1
10
-18
20
10.5927037587281
30
0
41
1
10
-18
20
10.5818120868309
30
0
41
1
10
-18
20
10.5646169538388
30
0
41
1
10
-18
20
10.5383008597593
30
0
41
1
10
-18
20
10.5064892630525
30
0
41
1
10
-18
20
10.4755678718975
30
0
41
1
10
-18
20
10.4481323745122
30
0
41
1
10
-18
20
10.4263041000347
30
0
41
1
10
-18
20
10.4032013384502
30
0
41
1
10
-18
20
10.3706596194957
30
0
41
1
10
-18
20
10.3358095061467
30
0
41
1
10
-18
20
10.2983352374592
30
0
41
1
10
-18
20
10.2690719430376
30
0
41
1
10
-18
20
10.2386154287957
30
0
41
1
10
-18
20
10.2069776298432
30
0
41
1
10
-18
20
10.1741699954592
30
0
41
1
10
-18
20
10.1402037904431
30
0
41
1
10
-18
20
10.1050900859652
30
0
41
1
10
-18
20
10.0688389854126
30
0
41
1
10
-18
20
10.0314612838791
30
0
41
1
10
-18
20
9.99296651357059
30
0
41
1
10
-18
20
9.9533644012005
30
0
41
1
10
-18
20
9.91266446512719
30
0
41
1
10
-18
20
9.87087543598926
30
0
41
1
10
-18
20
9.82800620980922
30
0
41
1
10
-18
20
9.78406563919972
30
0
41
1
10
-18
20
9.73906158174464
30
0
41
1
10
-18
20
9.69300262436195
30
0
41
1
10
-18
20
9.64589640582304
30
0
41
1
10
-18
20
9.59775041693442
30
0
41
1
10
-18
20
9.53207738577581
30
0
41
1
10
-18
20
9.44765448811154
30
0
41
1
10
-18
20
9.35986749209263
30
0
41
1
10
-18
20
9.28744513847658
30
0
41
1
10
-18
20
9.23221919243574
30
0
41
1
10
-18
20
9.17600808045958
30
0
41
1
10
-18
20
9.11881724129321
30
0
41
1
10
-18
20
9.06065321078688
30
0
41
1
10
-18
20
9.00152153550758
30
0
41
1
10
-18
20
8.94142744136707
30
0
41
1
10
-18
20
8.8599036769107
30
0
41
1
10
-18
20
8.75589867127124
30
0
41
1
10
-18
20
8.64876093189613
30
0
41
1
10
-18
20
8.56095254151677
30
0
41
1
10
-18
20
8.49426810443589
30
0
41
1
10
-18
20
8.42666168347023
30
0
41
1
10
-18
20
8.35813713243078
30
0
41
1
10
-18
20
8.28869946906792
30
0
41
1
10
-18
20
8.21835292520672
30
0
41
1
10
-18
20
8.14710122037502
30
0
41
1
10
-18
20
8.05075300914632
30
0
41
1
10
-18
20
7.92840576311147
30
0
41
1
10
-18
20
7.80309792535272
30
0
41
1
10
-18
20
7.70081044177078
30
0
41
1
10
-18
20
7.62333369313475
30
0
41
1
10
-18
20
7.54498258382412
30
0
41
1
10
-18
20
7.4657598851355
30
0
41
1
10
-18
20
7.38566959583252
30
0
41
1
10
-18
20
7.30471500134038
30
0
41
1
10
-18
20
7.22289886113489
30
0
41
1
10
-18
20
7.11249590401044
30
0
41
1
10
-18
20
6.97274644349412
30
0
41
1
10
-18
20
6.83016814404567
30
0
41
1
10
-18
20
6.71409024311311
30
0
41
1
10
-18
20
6.62633156228858
30
0
41
1
10
-18
20
6.53773585931216
30
0
41
1
10
-18
20
6.44830547511725
30
0
41
1
10
-18
20
6.35804369451677
30
0
41
1
10
-18
20
6.26695324021443
30
0
41
1
10
-18
20
6.17503665947791
30
0
41
1
10
-18
20
6.0822971380704
30
0
41
1
10
-18
20
5.98873702476695
30
0
41
1
10
-18
20
5.8943590370221
30
0
41
1
10
-18
20
5.79916633117401
30
0
41
1
10
-18
20
5.70316110146726
30
0
41
1
10
-18
20
5.60634650403395
30
0
41
1
10
-18
20
5.50872532385608
30
0
41
1
10
-18
20
5.41030024314784
30
0
41
1
10
-18
20
5.31107465945468
30
0
41
1
10
-18
20
5.21105054825136
30
0
41
1
10
-18
20
5.07638404339966
30
0
41
1
10
-18
20
4.9066349784587
30
0
41
1
10
-18
20
4.69948157884704
30
0
41
1
10
-18
20
4.48921424352019
30
0
41
1
10
-18
20
4.27586319348595
30
0
41
1
10
-18
20
4.09581338934956
30
0
41
1
10
-18
20
3.94972228937706
30
0
41
1
10
-18
20
3.8396427770096
30
0
41
1
10
-18
20
3.72882077112348
30
0
41
1
10
-18
20
3.61726252861362
30
0
41
1
10
-18
20
3.50497489576273
30
0
41
1
10
-18
20
3.3919647142194
30
0
41
1
10
-18
20
3.27823925856788
30
0
41
1
10
-18
20
3.16380725793994
30
0
41
1
10
-18
20
3.04867846612535
30
0
41
1
10
-18
20
2.93286234661065
30
0
41
1
10
-18
20
2.81636932516915
30
0
41
1
10
-18
20
2.69921228427651
30
0
41
1
10
-18
20
2.58140420660007
30
0
41
1
10
-18
20
2.46295993427742
30
0
41
1
10
-18
20
2.36395709248049
30
0
41
1
10
-18
20
2.28404204129123
30
0
41
1
10
-18
20
2.20393499577071
30
0
41
1
10
-18
20
2.10398013562454
30
0
41
1
10
-18
20
1.98317122682144
30
0
41
1
10
-18
20
1.8618247016405
30
0
41
1
10
-18
20
1.73996869594839
30
0
41
1
10
-18
20
1.61763140130915
30
0
41
1
10
-18
20
1.49484387929502
30
0
41
1
10
-18
20
1.37164025517353
30
0
41
1
10
-18
20
1.26895275020126
30
0
41
1
10
-18
20
1.18606363592946
30
0
41
1
10
-18
20
1.12406381547399
30
0
41
1
10
-18
20
1.06198977283734
30
0
41
1
10
-18
20
0.999845142204236
30
0
41
1
10
-18
20
0.937636316394475
30
0
41
1
10
-18
20
0.875367234899159
30
0
41
1
10
-18
20
0.813044982640491
30
0
41
1
10
-18
20
0.750672614854494
30
0
41
1
10
-18
20
0.688256683922106
30
0
41
1
10
-18
20
0.625800994862885
30
0
41
1
10
-18
20
0.563310977461953
30
0
41
1
10
-18
20
0.500790536511801
30
0
41
1
10
-18
20
0.438244333679648
30
0
41
1
10
-18
20
0.375676097210032
30
0
41
1
10
-18
20
0.313089809374958
30
0
41
1
10
-18
20
0.250488699287672
30
0
41
1
10
-18
20
0.187876264694864
30
0
41
1
10
-18
20
0.125255374427212
30
0
41
1
10
-18
20
0.0626290839054207
30
0
41
1
10
-18
20
3.20922595E-08
30
0
41
1
10
-18
20
-0.0626290271069081
30
0
41
1
10
-18
20
-0.125255331589187
30
0
41
1
10
-18
20
-0.187876220606341
30
0
41
1
10
-18
20
-0.250488634444679
30
0
41
1
10
-18
20
-0.313089739834169
30
0
41
1
10
-18
20
-0.375676054943796
30
0
41
1
10
-18
20
-0.438244302653658
30
0
41
1
10
-18
20
-0.500790472931612
30
0
41
1
10
-18
20
-0.563310894882477
30
0
41
1
10
-18
20
-0.625800947881402
30
0
41
1
10
-18
20
-0.688256665460756
30
0
41
1
10
-18
20
-0.750672562259211
30
0
41
1
10
-18
20
-0.813044890326779
30
0
41
1
10
-18
20
-0.875367170941644
30
0
41
1
10
-18
20
-0.937636300485167
30
0
41
1
10
-18
20
-0.999845111434894
30
0
41
1
10
-18
20
-1.0619896949724
30
0
41
1
10
-18
20
-1.12406372316542
30
0
41
1
10
-18
20
-1.18606358904697
30
0
41
1
10
-18
20
-1.26895273622941
30
0
41
1
10
-18
20
-1.37164017880386
30
0
41
1
10
-18
20
-1.49484382588878
30
0
41
1
10
-18
20
-1.61763137476075
30
0
41
1
10
-18
20
-1.73996860709434
30
0
41
1
10
-18
20
-1.86182467095799
30
0
41
1
10
-18
20
-1.98317119500535
30
0
41
1
10
-18
20
-2.10398004111113
30
0
41
1
10
-18
20
-2.20393495183683
30
0
41
1
10
-18
20
-2.28404204181246
30
0
41
1
10
-18
20
-2.36395705803142
30
0
41
1
10
-18
20
-2.4629597502701
30
0
41
1
10
-18
20
-2.58140376430015
30
0
41
1
10
-18
20
-2.69921210979669
30
0
41
1
10
-18
20
-2.81636991600769
30
0
41
1
10
-18
20
-2.93286301922583
30
0
41
1
10
-18
20
-3.04867826135629
30
0
41
1
10
-18
20
-3.16380659938378
30
0
41
1
10
-18
20
-3.27823874237259
30
0
41
1
10
-18
20
-3.39196474884633
30
0
41
1
10
-18
20
-3.50497537086056
30
0
41
1
10
-18
20
-3.6172624530864
30
0
41
1
10
-18
20
-3.7288199296633
30
0
41
1
10
-18
20
-3.83964235720097
30
0
41
1
10
-18
20
-3.94972277737915
30
0
41
1
10
-18
20
-4.05905436847675
30
0
41
1
10
-18
20
-4.16763243265373
30
0
41
1
10
-18
20
-4.31169460692024
30
0
41
1
10
-18
20
-4.48921431467909
30
0
41
1
10
-18
20
-4.69948150824786
30
0
41
1
10
-18
20
-4.90663494713598
30
0
41
1
10
-18
20
-5.07638402809522
30
0
41
1
10
-18
20
-5.2110504888509
30
0
41
1
10
-18
20
-5.31107460858112
30
0
41
1
10
-18
20
-5.41030022073681
30
0
41
1
10
-18
20
-5.50872530998981
30
0
41
1
10
-18
20
-5.6063464759967
30
0
41
1
10
-18
20
-5.70316105559496
30
0
41
1
10
-18
20
-5.79916628067866
30
0
41
1
10
-18
20
-5.89435900496744
30
0
41
1
10
-18
20
-5.98873701214285
30
0
41
1
10
-18
20
-6.08229711859903
30
0
41
1
10
-18
20
-6.17503662085343
30
0
41
1
10
-18
20
-6.26695319447285
30
0
41
1
10
-18
20
-6.35804365721182
30
0
41
1
10
-18
20
-6.44830545225389
30
0
41
1
10
-18
20
-6.53773584474612
30
0
41
1
10
-18
20
-6.62633153834338
30
0
41
1
10
-18
20
-6.71409020409419
30
0
41
1
10
-18
20
-6.83016810635766
30
0
41
1
10
-18
20
-6.97274642193662
30
0
41
1
10
-18
20
-7.11249588450136
30
0
41
1
10
-18
20
-7.2228988269101
30
0
41
1
10
-18
20
-7.3047149669423
30
0
41
1
10
-18
20
-7.38566956978477
30
0
41
1
10
-18
20
-7.4657598659748
30
0
41
1
10
-18
20
-7.54498256644959
30
0
41
1
10
-18
20
-7.6233336708502
30
0
41
1
10
-18
20
-7.70081041299483
30
0
41
1
10
-18
20
-7.80309789738925
30
0
41
1
10
-18
20
-7.92840574312078
30
0
41
1
10
-18
20
-8.05075299167544
30
0
41
1
10
-18
20
-8.14710119768418
30
0
41
1
10
-18
20
-8.21835290126666
30
0
41
1
10
-18
20
-8.28869944694205
30
0
41
1
10
-18
20
-8.35813711319383
30
0
41
1
10
-18
20
-8.4266616668742
30
0
41
1
10
-18
20
-8.49426808850927
30
0
41
1
10
-18
20
-8.56095252446426
30
0
41
1
10
-18
20
-8.64876091292305
30
0
41
1
10
-18
20
-8.75589865176033
30
0
41
1
10
-18
20
-8.85990366278926
30
0
41
1
10
-18
20
-8.94142742966557
30
0
41
1
10
-18
20
-9.00152152233741
30
0
41
1
10
-18
20
-9.06065319401591
30
0
41
1
10
-18
20
-9.11881722337537
30
0
41
1
10
-18
20
-9.17600806496938
30
0
41
1
10
-18
20
-9.23221918172706
30
0
41
1
10
-18
20
-9.28744513180195
30
0
41
1
10
-18
20
-9.35986748301858
30
0
41
1
10
-18
20
-9.44765447086004
30
0
41
1
10
-18
20
-9.53207737489777
30
0
41
1
10
-18
20
-9.59775041479642
30
0
41
1
10
-18
20
-9.64589640265368
30
0
41
1
10
-18
20
-9.69300261323346
30
0
41
1
10
-18
20
-9.73906156658433
30
0
41
1
10
-18
20
-9.78406562726656
30
0
41
1
10
-18
20
-9.82800620569319
30
0
41
1
10
-18
20
-9.87087543880676
30
0
41
1
10
-18
20
-9.91266446536125
30
0
41
1
10
-18
20
-9.95336439144063
30
0
41
1
10
-18
20
-9.9929664994587
30
0
41
1
10
-18
20
-10.0314612764173
30
0
41
1
10
-18
20
-10.0688389871438
30
0
41
1
10
-18
20
-10.1050900925225
30
0
41
1
10
-18
20
-10.1402037914163
30
0
41
1
10
-18
20
-10.1741699845987
30
0
41
1
10
-18
20
-10.2069776182064
30
0
41
1
10
-18
20
-10.2386154290236
30
0
41
1
10
-18
20
-10.2690719526607
30
0
41
1
10
-18
20
-10.2983352440808
30
0
41
1
10
-18
20
-10.3358095016122
30
0
41
1
10
-18
20
-10.3706596087076
30
0
41
1
10
-18
20
-10.4032013500169
30
0
41
1
10
-18
20
-10.4263041143214
30
0
41
1
10
-18
20
-10.4481323749745
30
0
41
1
10
-18
20
-10.4755678604265
30
0
41
1
10
-18
20
-10.506489279177
30
0
41
1
10
-18
20
-10.5383008623823
30
0
41
1
10
-18
20
-10.5646169600635
30
0
41
1
10
-18
20
-10.5818120325131
30
0
41
1
10
-18
20
-10.5927034852679
30
0
41
1
10
-18
20
-10.5993778692674
30
0
41
1
10
-18
20
-10.6045521568696
30
0
41
1
10
-18
20
-10.6082029107285
30
0
41
1
10
-18
20
-10.6103051294408
30
0
41
1
10
-18
20
-10.6108322853176
30
0
41
1
10
-18
20
-10.6100565221417
30
0
41
1
10
-18
20
-10.6092717770074
30
0
41
1
10
-18
20
-10.6091546565392
30
0
0
SPLINE
5
117
100
AcDbEntity
8
SK1
62
256
6
ByLayer
370
18
48
1
60
0
100
AcDbSpline
70
4
71
3
72
87
73
83
40
0
40
0
40
0
40
0
40
0.0065230984385648
40
0.0281428541815393
40
0.0389527320530266
40
0.0497626099245138
40
0.0605724877960011
40
0.0713823656674883
40
0.0930021214104628
40
0.10381199928195
40
0.114621877153437
40
0.125431755024925
40
0.136241632896412
40
0.147051510767899
40
0.157861388639386
40
0.168671266510874
40
0.179481144382361
40
0.190291022253848
40
0.201100900125335
40
0.211910777996823
40
0.22272065586831
40
0.233530533739797
40
0.244340411611284
40
0.255150289482772
40
0.265960167354259
40
0.276770045225746
40
0.287579923097233
40
0.298389800968721
40
0.309199678840208
40
0.330819434583182
40
0.352439190326157
40
0.363249068197644
40
0.374058946069131
40
0.384868823940619
40
0.395678701812106
40
0.406488579683593
40
0.41729845755508
40
0.428108335426568
40
0.438918213298055
40
0.460537969041029
40
0.482157724784004
40
0.492967602655491
40
0.503777480526978
40
0.514587358398465
40
0.525397236269953
40
0.53620711414144
40
0.547016992012927
40
0.557826869884415
40
0.568636747755902
40
0.590256503498876
40
0.611876259241851
40
0.622686137113338
40
0.633496014984825
40
0.644305892856313
40
0.6551157707278
40
0.665925648599287
40
0.676735526470774
40
0.687545404342262
40
0.698355282213749
40
0.719975037956723
40
0.741594793699698
40
0.752404671571185
40
0.763214549442672
40
0.77402442731416
40
0.784834305185647
40
0.795644183057134
40
0.806454060928621
40
0.817263938800109
40
0.828073816671596
40
0.838883694543083
40
0.84969357241457
40
0.860503450286058
40
0.871313328157545
40
0.882123206029032
40
0.892933083900519
40
0.903742961772007
40
0.914552839643494
40
0.925362717514981
40
0.936172595386468
40
0.957792351129443
40
0.979412106872417
40
1
40
1
40
1
40
1
41
1
10
-0.394976888875277
20
10.7560800795681
30
0
41
1
10
-0.394976888875277
20
10.7527120189513
30
0
41
1
10
-0.394976888875277
20
10.7378231841564
30
0
41
1
10
-0.394976888875277
20
10.7150986230281
30
0
41
1
10
-0.394976888875277
20
10.6871899043463
30
0
41
1
10
-0.394976888875277
20
10.6649641398451
30
0
41
1
10
-0.394976888875277
20
10.6414451731179
30
0
41
1
10
-0.394976888875277
20
10.6083610391774
30
0
41
1
10
-0.394976888875277
20
10.5728196102718
30
0
41
1
10
-0.394976888875277
20
10.5347371860945
30
0
41
1
10
-0.394976888875277
20
10.5049713249704
30
0
41
1
10
-0.394976888875277
20
10.4739962130972
30
0
41
1
10
-0.394976888875277
20
10.4418240333465
30
0
41
1
10
-0.394976888875277
20
10.4084665953504
30
0
41
1
10
-0.394976888875277
20
10.3739354752827
30
0
41
1
10
-0.394976888875277
20
10.3382419186448
30
0
41
1
10
-0.394976888875277
20
10.3013963735904
30
0
41
1
10
-0.394976888875277
20
10.2634098071932
30
0
41
1
10
-0.394976888875277
20
10.2242918912355
30
0
41
1
10
-0.394976888875277
20
10.1840526544675
30
0
41
1
10
-0.394976888875277
20
10.1427016339893
30
0
41
1
10
-0.394976888875277
20
10.1002477857307
30
0
41
1
10
-0.394976888875277
20
10.0567002250884
30
0
41
1
10
-0.394976888875277
20
10.0120677716559
30
0
41
1
10
-0.394976888875277
20
9.96635850688563
30
0
41
1
10
-0.394976888875277
20
9.9195810672756
30
0
41
1
10
-0.394976888875277
20
9.87174305179948
30
0
41
1
10
-0.394976888875277
20
9.8228521774133
30
0
41
1
10
-0.394976888875277
20
9.75623204290733
30
0
41
1
10
-0.394976888875277
20
9.67044909356338
30
0
41
1
10
-0.394976888875277
20
9.58125529483195
30
0
41
1
10
-0.394976888875277
20
9.50780390566945
30
0
41
1
10
-0.394976888875277
20
9.45174201576441
30
0
41
1
10
-0.394976888875277
20
9.39468182193772
30
0
41
1
10
-0.394976888875277
20
9.33662897444754
30
0
41
1
10
-0.394976888875277
20
9.27758985219697
30
0
41
1
10
-0.394976888875277
20
9.21756976623391
30
0
41
1
10
-0.394976888875277
20
9.15657415078076
30
0
41
1
10
-0.394976888875277
20
9.07390699150645
30
0
41
1
10
-0.394976888875277
20
8.96826610167739
30
0
41
1
10
-0.394976888875277
20
8.85944472740889
30
0
41
1
10
-0.394976888875277
20
8.77040798541609
30
0
41
1
10
-0.394976888875277
20
8.70272705940039
30
0
41
1
10
-0.394976888875277
20
8.63410995408893
30
0
41
1
10
-0.394976888875277
20
8.56456065460728
30
0
41
1
10
-0.394976888875277
20
8.494083889178
30
0
41
1
10
-0.394976888875277
20
8.42268348862098
30
0
41
1
10
-0.394976888875277
20
8.35036329562493
30
0
41
1
10
-0.394976888875277
20
8.25266066821666
30
0
41
1
10
-0.394976888875277
20
8.12837717774204
30
0
41
1
10
-0.394976888875277
20
8.00107949685969
30
0
41
1
10
-0.394976888875277
20
7.89734055913431
30
0
41
1
10
-0.394976888875277
20
7.81868614170455
30
0
41
1
10
-0.394976888875277
20
7.73914055621265
30
0
41
1
10
-0.394976888875277
20
7.65870659316923
30
0
41
1
10
-0.394976888875277
20
7.57738778439318
30
0
41
1
10
-0.394976888875277
20
7.49518686307914
30
0
41
1
10
-0.394976888875277
20
7.41210658285706
30
0
41
1
10
-0.394976888875277
20
7.30009989843438
30
0
41
1
10
-0.394976888875277
20
7.15805530645628
30
0
41
1
10
-0.394976888875277
20
7.01311656207406
30
0
41
1
10
-0.394976888875277
20
6.89531424839751
30
0
41
1
10
-0.394976888875277
20
6.80615439018041
30
0
41
1
10
-0.394976888875277
20
6.71613593458255
30
0
41
1
10
-0.394976888875277
20
6.62526094744771
30
0
41
1
10
-0.394976888875277
20
6.5335319966735
30
0
41
1
10
-0.394976888875277
20
6.44095110045453
30
0
41
1
10
-0.394976888875277
20
6.34752037917039
30
0
41
1
10
-0.394976888875277
20
6.25324209742863
30
0
41
1
10
-0.394976888875277
20
6.15811803500972
30
0
41
1
10
-0.394976888875277
20
6.06215030170887
30
0
41
1
10
-0.394976888875277
20
5.96534098944565
30
0
41
1
10
-0.394976888875277
20
5.86769175097615
30
0
41
1
10
-0.394976888875277
20
5.76920478634827
30
0
41
1
10
-0.394976888875277
20
5.66988185892194
30
0
41
1
10
-0.394976888875277
20
5.56972484101726
30
0
41
1
10
-0.394976888875277
20
5.46873578487436
30
0
41
1
10
-0.394976888875277
20
5.36691605746566
30
0
41
1
10
-0.394976888875277
20
5.22996081233961
30
0
41
1
10
-0.394976888875277
20
5.05691311008314
30
0
41
1
10
-0.394976888875277
20
4.84920429303571
30
0
41
1
10
-0.394976888875277
20
4.70977032131108
30
0
41
1
10
-0.394976888875277
20
4.64126507959355
30
0
0
SPLINE
5
118
100
AcDbEntity
8
SK1
62
256
6
ByLayer
370
18
48
1
60
0
100
AcDbSpline
70
4
71
3
72
26
73
22
40
0
40
0
40
0
40
0
40
0.445566590533867
40
0.445566590533867
40
0.655265017644429
40
0.655265017644429
40
0.828725510676232
40
0.828725510676232
40
0.876154403041356
40
0.876154403041356
40
0.905967808629008
40
0.905967808629008
40
0.926210487707145
40
0.926210487707145
40
0.943171934612362
40
0.943171934612362
40
0.960117618490364
40
0.960117618490364
40
0.984237918068801
40
0.984237918068801
40
1
40
1
40
1
40
1
41
1
10
-0.200000000000017
20
-5.3620191612489
30
0
41
1
10
-0.200000000000017
20
-5.24584624080083
30
0
41
1
10
-0.203329327154421
20
-5.12739325570544
30
0
41
1
10
-0.220508378527427
20
-4.95054302716966
30
0
41
1
10
-0.227841766328027
20
-4.89336484437209
30
0
41
1
10
-0.248876465876805
20
-4.78899542518664
30
0
41
1
10
-0.260519103089251
20
-4.74088977224739
30
0
41
1
10
-0.287682522661129
20
-4.68318824223033
30
0
41
1
10
-0.294422177085465
20
-4.67086770501695
30
0
41
1
10
-0.307975229842981
20
-4.65239528283644
30
0
41
1
10
-0.313923584320378
20
-4.64555604634515
30
0
41
1
10
-0.325470047439183
20
-4.63588471512031
30
0
41
1
10
-0.330674572834084
20
-4.63242356449325
30
0
41
1
10
-0.340874729766483
20
-4.62785000237457
30
0
41
1
10
-0.3458732646979
20
-4.62642720846634
30
0
41
1
10
-0.355778046324502
20
-4.62530065114441
30
0
41
1
10
-0.360793298356441
20
-4.62557634523813
30
0
41
1
10
-0.37222657292665
20
-4.62787080761487
30
0
41
1
10
-0.378545535867204
20
-4.63055709110699
30
0
41
1
10
-0.388035283948739
20
-4.6360822290674
30
0
41
1
10
-0.39159930045011
20
-4.63858016383932
30
0
41
1
10
-0.394976888885225
20
-4.64126630129033
30
0
0
SPLINE
5
119
100
AcDbEntity
8
1
62
256
6
ByLayer
370
18
48
1
60
0
100
AcDbSpline
70
4
71
3
72
16
73
12
40
0
40
0
40
0
40
0
40
0.112904383055296
40
0.112904383055296
40
0.251995806601944
40
0.251995806601944
40
0.4711774786145
40
0.4711774786145
40
0.892334804026128
40
0.892334804026128
40
1
40
1
40
1
40
1
41
1
10
7.0767949192431
20
-15.2769622091386
30
0
41
1
10
7.09363003644251
20
-15.2769622091386
30
0
41
1
10
7.11067448209636
20
-15.2760126621563
30
0
41
1
10
7.14599612783954
20
-15.2722082770661
30
0
41
1
10
7.16423843011322
20
-15.2689414463835
30
0
41
1
10
7.20594636314289
20
-15.2589992478797
30
0
41
1
10
7.22743815354156
20
-15.2513160232934
30
0
41
1
10
7.28047040941877
20
-15.2273927985289
30
0
41
1
10
7.30493517049524
20
-15.2092528380283
30
0
41
1
10
7.32822068883894
20
-15.1857432227236
30
0
41
1
10
7.33259153417376
20
-15.1808653782146
30
0
41
1
10
7.33660254037846
20
-15.1759383782004
30
0
0
SPLINE
5
11A
100
AcDbEntity
8
1
62
256
6
ByLayer
370
18
48
1
60
0
100
AcDbSpline
70
4
71
3
72
8
73
4
40
0
40
0
40
0
40
0
40
1
40
1
40
1
40
1
41
1
10
17.8512972406491
20
0.0017261362914098
30
0
41
1
10
17.8514428899564
20
7.30903788022556
30
0
41
1
10
18.8318758774793
20
14.5129313286717
30
0
41
1
10
20.1418494862781
20
21.675
30
0
0
SPLINE
5
11B
100
AcDbEntity
8
1
62
256
6
ByLayer
370
18
48
1
60
0
100
AcDbSpline
70
4
71
3
72
12
73
8
40
0
40
0
40
0
40
0
40
0.476059608016402
40
0.476059608016402
40
0.927101084955907
40
0.927101084955907
40
1
40
1
40
1
40
1
41
1
10
43.3863166067351
20
20.0895758280091
30
0
41
1
10
43.4259653450257
20
20.2128925192418
30
0
41
1
10
43.4477674153748
20
20.3469300376509
30
0
41
1
10
43.4516467356135
20
20.6050797847067
30
0
41
1
10
43.4358013988408
20
20.7329089694763
30
0
41
1
10
43.3982187180424
20
20.8718511106478
30
0
41
1
10
43.3924830715351
20
20.8912450488073
30
0
41
1
10
43.3863166067351
20
20.9104241719908
30
0
0
SPLINE
5
11C
100
AcDbEntity
8
1
62
256
6
ByLayer
370
18
48
1
60
0
100
AcDbSpline
70
4
71
3
72
8
73
4
40
0
40
0
40
0
40
0
40
1
40
1
40
1
40
1
41
1
10
16.0576172248918
20
16.5
30
0
41
1
10
16.0112764435187
20
16.3295991793481
30
0
41
1
10
15.9655538228958
20
16.1613259168488
30
0
41
1
10
15.92079238
20
15.9961767111715
30
0
0
SPLINE
5
11D
100
AcDbEntity
8
1
62
256
6
ByLayer
370
18
48
1
60
0
100
AcDbSpline
70
4
71
3
72
16
73
12
40
0
40
0
40
0
40
0
40
0.46249752713583
40
0.46249752713583
40
0.645191851133689
40
0.645191851133689
40
0.830465145084805
40
0.830465145084805
40
0.946099677592179
40
0.946099677592179
40
1
40
1
40
1
40
1
41
1
10
7.33660254037846
20
15.1759383782004
30
0
41
1
10
7.31950254572618
20
15.1969435000064
30
0
41
1
10
7.29606569448347
20
15.2173733040723
30
0
41
1
10
7.24769339962626
20
15.2426068177431
30
0
41
1
10
7.23196248290219
20
15.2494611471717
30
0
41
1
10
7.19538082316865
20
15.2617345707429
30
0
41
1
10
7.17398167794323
20
15.2672766430868
30
0
41
1
10
7.13465169394874
20
15.2736248541653
30
0
41
1
10
7.11805699889251
20
15.2754510872996
30
0
41
1
10
7.09306930322401
20
15.2767486596485
30
0
41
1
10
7.08491758298598
20
15.2769622091386
30
0
41
1
10
7.07679491924316
20
15.2769622091386
30
0
0
SPLINE
5
11E
100
AcDbEntity
8
1
62
256
6
ByLayer
370
18
48
1
60
0
100
AcDbSpline
70
4
71
3
72
16
73
12
40
0
40
0
40
0
40
0
40
0.462497527135806
40
0.462497527135806
40
0.645191851133669
40
0.645191851133669
40
0.830465145084792
40
0.830465145084792
40
0.946099677592168
40
0.946099677592168
40
1
40
1
40
1
40
1
41
1
10
4.66339745962156
20
5.06861858311169
30
0
41
1
10
4.68049745427385
20
5.00572719980329
30
0
41
1
10
4.70393430551653
20
4.94318132289493
30
0
41
1
10
4.75230660037377
20
4.864513415327
30
0
41
1
10
4.76803751709781
20
4.84296870144203
30
0
41
1
10
4.80461917683135
20
4.80415189945634
30
0
41
1
10
4.8260183220568
20
4.78648459402868
30
0
41
1
10
4.86534830605126
20
4.76617783194868
30
0
41
1
10
4.88194300110749
20
4.76031541807632
30
0
41
1
10
4.90693069677602
20
4.75614889828648
30
0
41
1
10
4.91508241701405
20
4.75546271781749
30
0
41
1
10
4.92320508075687
20
4.75546271781749
30
0
0
SPLINE
5
11F
100
AcDbEntity
8
1
62
256
6
ByLayer
370
18
48
1
60
0
100
AcDbSpline
70
4
71
3
72
8
73
4
40
0
40
0
40
0
40
0
40
1
40
1
40
1
40
1
41
1
10
43.2675682415351
20
21.2697851262736
30
0
41
1
10
43.2100885379482
20
21.4057515506599
30
0
41
1
10
43.1516577684963
20
21.5411519930364
30
0
41
1
10
43.0909333748181
20
21.675
30
0
0
SPLINE
5
120
100
AcDbEntity
8
1
62
256
6
ByLayer
370
18
48
1
60
0
100
AcDbSpline
70
4
71
3
72
8
73
4
40
0
40
0
40
0
40
0
40
1
40
1
40
1
40
1
41
1
10
15.92079238
20
15.8265169120405
30
0
41
1
10
15.9831958716682
20
16.0435721279073
30
0
41
1
10
16.0473947924445
20
16.2692207310374
30
0
41
1
10
16.1125827159374
20
16.4999999999999
30
0
0
SPLINE
5
121
100
AcDbEntity
8
1
62
256
6
ByLayer
370
18
48
1
60
0
100
AcDbSpline
70
4
71
3
72
8
73
4
40
0
40
0
40
0
40
0
40
1
40
1
40
1
40
1
41
1
10
15.92079238
20
-1.91168501042682
30
0
41
1
10
15.3065197626561
20
-2.88852158685896
30
0
41
1
10
15
20
-4.00687787831026
30
0
41
1
10
15
20
-5.10568719466744
30
0
0
SPLINE
5
122
100
AcDbEntity
8
1
62
256
6
ByLayer
370
18
48
1
60
0
100
AcDbSpline
70
4
71
3
72
16
73
12
40
0
40
0
40
0
40
0
40
0.462497527135787
40
0.462497527135787
40
0.645191851133657
40
0.645191851133657
40
0.830465145084786
40
0.830465145084786
40
0.946099677592161
40
0.946099677592161
40
1
40
1
40
1
40
1
41
1
10
4.66339745962154
20
-15.1759383782004
30
0
41
1
10
4.68049745427382
20
-15.1969435000064
30
0
41
1
10
4.70393430551653
20
-15.2173733040723
30
0
41
1
10
4.75230660037374
20
-15.2426068177431
30
0
41
1
10
4.76803751709778
20
-15.2494611471717
30
0
41
1
10
4.80461917683132
20
-15.2617345707429
30
0
41
1
10
4.82601832205677
20
-15.2672766430868
30
0
41
1
10
4.86534830605126
20
-15.2736248541653
30
0
41
1
10
4.88194300110746
20
-15.2754510872996
30
0
41
1
10
4.90693069677599
20
-15.2767486596485
30
0
41
1
10
4.91508241701402
20
-15.2769622091386
30
0
41
1
10
4.92320508075684
20
-15.2769622091386
30
0
0
SPLINE
5
123
100
AcDbEntity
8
1
62
256
6
ByLayer
370
18
48
1
60
0
100
AcDbSpline
70
4
71
3
72
16
73
12
40
0
40
0
40
0
40
0
40
0.112904383055298
40
0.112904383055298
40
0.251995806601949
40
0.251995806601949
40
0.471177478614513
40
0.471177478614513
40
0.892334804026096
40
0.892334804026096
40
1
40
1
40
1
40
1
41
1
10
4.9232050807569
20
15.2769622091385
30
0
41
1
10
4.90636996355749
20
15.2769622091385
30
0
41
1
10
4.88932551790364
20
15.2760126621562
30
0
41
1
10
4.85400387216046
20
15.2722082770661
30
0
41
1
10
4.83576156988678
20
15.2689414463835
30
0
41
1
10
4.79405363685711
20
15.2589992478796
30
0
41
1
10
4.77256184645844
20
15.2513160232934
30
0
41
1
10
4.71952959058123
20
15.2273927985289
30
0
41
1
10
4.69506482950479
20
15.2092528380283
30
0
41
1
10
4.67177931116106
20
15.1857432227236
30
0
41
1
10
4.66740846582627
20
15.1808653782146
30
0
41
1
10
4.66339745962154
20
15.1759383782004
30
0
0
SPLINE
5
124
100
AcDbEntity
8
1
62
256
6
ByLayer
370
18
48
1
60
0
100
AcDbSpline
70
4
71
3
72
16
73
12
40
0
40
0
40
0
40
0
40
0.1129043830553
40
0.1129043830553
40
0.251995806601947
40
0.251995806601947
40
0.471177478614504
40
0.471177478614504
40
0.892334804026125
40
0.892334804026125
40
1
40
1
40
1
40
1
41
1
10
7.07679491924313
20
4.75546271781755
30
0
41
1
10
7.09363003644253
20
4.75546271781755
30
0
41
1
10
7.11067448209639
20
4.75851551862661
30
0
41
1
10
7.14599612783957
20
4.77071315953359
30
0
41
1
10
7.16423843011324
20
4.78117073972194
30
0
41
1
10
7.20594636314289
20
4.81283214608436
30
0
41
1
10
7.22743815354158
20
4.83715715133616
30
0
41
1
10
7.2804704094188
20
4.91214630601436
30
0
41
1
10
7.30493517049524
20
4.96811547083686
30
0
41
1
10
7.32822068883897
20
5.03919021254677
30
0
41
1
10
7.33259153417376
20
5.05386666454072
30
0
41
1
10
7.33660254037849
20
5.06861858311169
30
0
0
SPLINE
5
125
100
AcDbEntity
8
1
62
256
6
ByLayer
370
18
48
1
60
0
100
AcDbSpline
70
4
71
3
72
8
73
4
40
0
40
0
40
0
40
0
40
1
40
1
40
1
40
1
41
1
10
20.1418494862781
20
21.675
30
0
41
1
10
18.9360788155945
20
21.675
30
0
41
1
10
17.9110689602286
20
21.675
30
0
41
1
10
17.5652501708086
20
21.675
30
0
0
SPLINE
5
126
100
AcDbEntity
8
1
62
256
6
ByLayer
370
18
48
1
60
0
100
AcDbSpline
70
4
71
3
72
16
73
12
40
0
40
0
40
0
40
0
40
0.112904383055294
40
0.112904383055294
40
0.251995806601948
40
0.251995806601948
40
0.4711774786145
40
0.4711774786145
40
0.892334804026132
40
0.892334804026132
40
1
40
1
40
1
40
1
41
1
10
4.92320508075687
20
-4.75546271781758
30
0
41
1
10
4.90636996355747
20
-4.75546271781758
30
0
41
1
10
4.88932551790361
20
-4.75851551862664
30
0
41
1
10
4.85400387216043
20
-4.77071315953361
30
0
41
1
10
4.83576156988676
20
-4.78117073972197
30
0
41
1
10
4.79405363685711
20
-4.81283214608439
30
0
41
1
10
4.77256184645842
20
-4.83715715133616
30
0
41
1
10
4.7195295905812
20
-4.91214630601439
30
0
41
1
10
4.69506482950476
20
-4.96811547083689
30
0
41
1
10
4.67177931116103
20
-5.0391902125468
30
0
41
1
10
4.66740846582624
20
-5.05386666454075
30
0
41
1
10
4.66339745962151
20
-5.06861858311171
30
0
0
SPLINE
5
127
100
AcDbEntity
8
1
62
256
6
ByLayer
370
18
48
1
60
0
100
AcDbSpline
70
4
71
3
72
8
73
4
40
0
40
0
40
0
40
0
40
1
40
1
40
1
40
1
41
1
10
43.2675682415353
20
19.7302148737261
30
0
41
1
10
43.2731177059794
20
19.7433419566902
30
0
41
1
10
43.2781651928696
20
19.756804150949
30
0
41
1
10
43.2826711249934
20
19.7705139329337
30
0
0
SPLINE
5
128
100
AcDbEntity
8
1
62
256
6
ByLayer
370
18
48
1
60
0
100
AcDbSpline
70
4
71
3
72
8
73
4
40
0
40
0
40
0
40
0
40
1
40
1
40
1
40
1
41
1
10
16.2162415668789
20
16.5
30
0
41
1
10
16.1734581911531
20
16.5
30
0
41
1
10
16.1386926660009
20
16.5
30
0
41
1
10
16.1125827159374
20
16.5
30
0
0
SPLINE
5
129
100
AcDbEntity
8
1
62
256
6
ByLayer
370
18
48
1
60
0
100
AcDbSpline
70
4
71
3
72
8
73
4
40
0
40
0
40
0
40
0
40
1
40
1
40
1
40
1
41
1
10
43.2826711249932
20
19.7705139329338
30
0
41
1
10
43.3175699355043
20
19.8766973086437
30
0
41
1
10
43.3520743031073
20
19.983074391504
30
0
41
1
10
43.3863166067351
20
20.0895758280091
30
0
0
SPLINE
5
12A
100
AcDbEntity
8
1
62
256
6
ByLayer
370
18
48
1
60
0
100
AcDbSpline
70
4
71
3
72
10
73
6
40
0
40
0
40
0
40
0
40
0.5
40
0.5
40
1
40
1
40
1
40
1
41
1
10
28.7762858658027
20
15.0228169002351
30
0
41
1
10
29.0029348239905
20
15.2945597796719
30
0
41
1
10
29.4869413391463
20
15.8016798215672
30
0
41
1
10
30.8070161602876
20
16.6026319013465
30
0
41
1
10
31.695846915503
20
16.9272950839559
30
0
41
1
10
32.6458944152228
20
16.988589002178
30
0
0
SPLINE
5
12B
100
AcDbEntity
8
1
62
256
6
ByLayer
370
18
48
1
60
0
100
AcDbSpline
70
4
71
3
72
12
73
8
40
0
40
0
40
0
40
0
40
0.36001847061266
40
0.36001847061266
40
0.720372991005347
40
0.720372991005347
40
1
40
1
40
1
40
1
41
1
10
15.92079238
20
15.8265169120405
30
0
41
1
10
15.7713323096583
20
15.8705636183987
30
0
41
1
10
15.6701269353358
20
15.9100834910666
30
0
41
1
10
15.5821410544842
20
15.9680366563769
30
0
41
1
10
15.5943654265017
20
15.9871729383736
30
0
41
1
10
15.7154066030617
20
16.0014793072214
30
0
41
1
10
15.8030738637891
20
16.0012858377025
30
0
41
1
10
15.92079238
20
15.9961767111715
30
0
0
SPLINE
5
12C
100
AcDbEntity
8
1
62
256
6
ByLayer
370
18
48
1
60
0
100
AcDbSpline
70
4
71
3
72
8
73
4
40
0
40
0
40
0
40
0
40
1
40
1
40
1
40
1
41
1
10
15.92079238
20
-1.91168501042679
30
0
41
1
10
16.5184705153407
20
-0.961237526605913
30
0
41
1
10
17.1822125567821
20
-0.410762271012771
30
0
41
1
10
17.8512972406491
20
0.0017261362914098
30
0
0
SPLINE
5
12D
100
AcDbEntity
8
1
62
256
6
ByLayer
370
18
48
1
60
0
100
AcDbSpline
70
4
71
3
72
8
73
4
40
0
40
0
40
0
40
0
40
1
40
1
40
1
40
1
41
1
10
43.3863166067351
20
20.9104241719908
30
0
41
1
10
43.3520743031073
20
21.0169256084959
30
0
41
1
10
43.3175699355043
20
21.1233026913562
30
0
41
1
10
43.2826711249932
20
21.2294860670661
30
0
0
SPLINE
5
12E
100
AcDbEntity
8
1
62
256
6
ByLayer
370
18
48
1
60
0
100
AcDbSpline
70
4
71
3
72
8
73
4
40
0
40
0
40
0
40
0
40
1
40
1
40
1
40
1
41
1
10
17.5652501708086
20
21.675
30
0
41
1
10
17.1128743798876
20
19.9507092990485
30
0
41
1
10
16.662400914639
20
18.2259036019573
30
0
41
1
10
16.2162415668789
20
16.5
30
0
0
SPLINE
5
12F
100
AcDbEntity
8
1
62
256
6
ByLayer
370
18
48
1
60
0
100
AcDbSpline
70
4
71
3
72
8
73
4
40
0
40
0
40
0
40
0
40
1
40
1
40
1
40
1
41
1
10
43.2826711249934
20
21.2294860670662
30
0
41
1
10
43.2781651928696
20
21.2431958490509
30
0
41
1
10
43.2731177059794
20
21.2566580433098
30
0
41
1
10
43.2675682415353
20
21.2697851262737
30
0
0
SPLINE
5
130
100
AcDbEntity
8
1
62
256
6
ByLayer
370
18
48
1
60
0
100
AcDbSpline
70
4
71
3
72
10
73
6
40
0
40
0
40
0
40
0
40
0.859992893513251
40
0.859992893513251
40
1
40
1
40
1
40
1
41
1
10
17.4799080715829
20
21.6749999999868
30
0
41
1
10
17.085080166895
20
20.1917132029575
30
0
41
1
10
16.6907171325018
20
18.7083023731053
30
0
41
1
10
16.2332445304944
20
16.9831020980916
30
0
41
1
10
16.1692210417622
20
16.7415549452333
30
0
41
1
10
16.1052269720701
20
16.5
30
0
0
SPLINE
5
131
100
AcDbEntity
8
1
62
256
6
ByLayer
370
18
48
1
60
0
100
AcDbSpline
70
4
71
3
72
16
73
12
40
0
40
0
40
0
40
0
40
0.462497527135778
40
0.462497527135778
40
0.645191851133639
40
0.645191851133639
40
0.830465145084769
40
0.830465145084769
40
0.946099677592151
40
0.946099677592151
40
1
40
1
40
1
40
1
41
1
10
7.33660254037844
20
-5.06861858311171
30
0
41
1
10
7.31950254572615
20
-5.00572719980332
30
0
41
1
10
7.29606569448347
20
-4.94318132289496
30
0
41
1
10
7.24769339962623
20
-4.864513415327
30
0
41
1
10
7.23196248290219
20
-4.84296870144203
30
0
41
1
10
7.19538082316865
20
-4.80415189945637
30
0
41
1
10
7.1739816779432
20
-4.78648459402871
30
0
41
1
10
7.13465169394874
20
-4.76617783194868
30
0
41
1
10
7.11805699889251
20
-4.76031541807632
30
0
41
1
10
7.09306930322398
20
-4.75614889828648
30
0
41
1
10
7.08491758298595
20
-4.75546271781749
30
0
41
1
10
7.07679491924313
20
-4.75546271781749
30
0
0
SPLINE
5
132
100
AcDbEntity
8
1
62
256
6
ByLayer
370
18
48
1
60
0
100
AcDbSpline
70
4
71
3
72
8
73
4
40
0
40
0
40
0
40
0
40
1
40
1
40
1
40
1
41
1
10
43.0909333748181
20
19.3249999999999
30
0
41
1
10
43.1516577684963
20
19.4588480069635
30
0
41
1
10
43.2100885379482
20
19.59424844934
30
0
41
1
10
43.2675682415351
20
19.7302148737263
30
0
0
SPLINE
5
133
100
AcDbEntity
8
1
62
256
6
ByLayer
370
18
48
1
60
0
100
AcDbSpline
70
4
71
3
72
14
73
10
40
0
40
0
40
0
40
0
40
0.281038222380456
40
0.281038222380456
40
0.564557857067118
40
0.564557857067118
40
0.820700196130124
40
0.820700196130124
40
1
40
1
40
1
40
1
41
1
10
32.4078822958328
20
13.1435826280887
30
0
41
1
10
32.3813006245732
20
13.1709123690699
30
0
41
1
10
32.3490439690951
20
13.1943655245359
30
0
41
1
10
32.277235194489
20
13.2285748604269
30
0
41
1
10
32.2364720760798
20
13.2396847590448
30
0
41
1
10
32.1571729147492
20
13.2453486855742
30
0
41
1
10
32.1175924873016
20
13.2414117256431
30
0
41
1
10
32.0539176730122
20
13.2231154346456
30
0
41
1
10
32.0281706327858
20
13.2121032984634
30
0
41
1
10
32.0044231104048
20
13.1981810583397
30
0
0
SPLINE
5
134
100
AcDbEntity
8
1
62
256
6
ByLayer
370
18
48
1
60
0
100
AcDbSpline
70
4
71
3
72
16
73
12
40
0
40
0
40
0
40
0
40
0.0645965064171317
40
0.0645965064171317
40
0.282747320500288
40
0.282747320500288
40
0.503851581407218
40
0.503851581407218
40
0.739476498257811
40
0.739476498257811
40
1
40
1
40
1
40
1
41
1
10
32.0044231104048
20
9.80181894166017
30
0
41
1
10
32.013014252084
20
9.79678229255319
30
0
41
1
10
32.0218448367852
20
9.79212938535525
30
0
41
1
10
32.0610594082809
20
9.77368168672814
30
0
41
1
10
32.0937837130779
20
9.76406309176431
30
0
41
1
10
32.1593454694517
20
9.75504044999997
30
0
41
1
10
32.1930080641066
20
9.75563466137717
30
0
41
1
10
32.2588630387573
20
9.76646811424013
30
0
41
1
10
32.2916435993958
20
9.77743762071358
30
0
41
1
10
32.3537963059872
20
9.80911494646929
30
0
41
1
10
32.3832521428563
20
9.83109406945215
30
0
41
1
10
32.4078822958328
20
9.85641737191119
30
0
0
SPLINE
5
135
100
AcDbEntity
8
1
62
256
6
ByLayer
370
18
48
1
60
0
100
AcDbSpline
70
4
71
3
72
16
73
12
40
0
40
0
40
0
40
0
40
0.0517235387679316
40
0.0517235387679316
40
0.275098677522069
40
0.275098677522069
40
0.500660612380065
40
0.500660612380065
40
0.74039991160265
40
0.74039991160265
40
1
40
1
40
1
40
1
41
1
10
33.9955768895952
20
9.80181894166017
30
0
41
1
10
34.0023126525051
20
9.80576785503075
30
0
41
1
10
34.0089132100844
20
9.809959315312
30
0
41
1
10
34.0429215049886
20
9.83328770141648
30
0
41
1
10
34.067814066225
20
9.85672205855829
30
0
41
1
10
34.1087337148404
20
9.90880290918193
30
0
41
1
10
34.1252135093438
20
9.93814489029592
30
0
41
1
10
34.1490799914639
20
10.0003557726624
30
0
41
1
10
34.1561625753256
20
10.0340961489702
30
0
41
1
10
34.1602113511054
20
10.1028127923815
30
0
41
1
10
34.1563795299009
20
10.1384987741969
30
0
41
1
10
34.1474510335849
20
10.1718476620214
30
0
0
SPLINE
5
136
100
AcDbEntity
8
1
62
256
6
ByLayer
370
18
48
1
60
0
100
AcDbSpline
70
4
71
3
72
18
73
14
40
0
40
0
40
0
40
0
40
0.213081262000621
40
0.213081262000621
40
0.387160943926345
40
0.387160943926345
40
0.562948999942006
40
0.562948999942006
40
0.715638435810376
40
0.715638435810376
40
0.919170953808122
40
0.919170953808122
40
1
40
1
40
1
40
1
41
1
10
31.8525489664152
20
10.1718476620214
30
0
41
1
10
31.8746500033365
20
10.2543973966024
30
0
41
1
10
31.8844883336915
20
10.3432036828122
30
0
41
1
10
31.874994737467
20
10.5069408353002
30
0
41
1
10
31.8603716058447
20
10.5832692825004
30
0
41
1
10
31.809208556408
20
10.7304699908083
30
0
41
1
10
31.7714777490043
20
10.8033885750107
30
0
41
1
10
31.685225487492
20
10.923431275805
30
0
41
1
10
31.6378343307496
20
10.9741769366086
30
0
41
1
10
31.5196910694911
20
11.0737907909972
30
0
41
1
10
31.4445472559936
20
11.1183752282873
30
0
41
1
10
31.3368562665044
20
11.1624807161781
30
0
41
1
10
31.3054967608598
20
11.1731401563608
30
0
41
1
10
31.2739045598557
20
11.1818380304531
30
0
0
SPLINE
5
137
100
AcDbEntity
8
1
62
256
6
ByLayer
370
18
48
1
60
0
100
AcDbSpline
70
4
71
3
72
14
73
10
40
0
40
0
40
0
40
0
40
0.285013984727039
40
0.285013984727039
40
0.572349910643038
40
0.572349910643038
40
0.832166158509299
40
0.832166158509299
40
1
40
1
40
1
40
1
41
1
10
31.2739045598557
20
11.8181619695468
30
0
41
1
10
31.2373579966691
20
11.8081000746803
30
0
41
1
10
31.201437086312
20
11.7912659758686
30
0
41
1
10
31.1371195715909
20
11.745207102125
30
0
41
1
10
31.1078302734871
20
11.7151098539691
30
0
41
1
10
31.0646340967007
20
11.6489313177315
30
0
41
1
10
31.0489278435387
20
11.6126609459343
30
0
41
1
10
31.0344436518232
20
11.5506181015174
30
0
41
1
10
31.0315
20
11.5252110816658
30
0
41
1
10
31.0315
20
11.5
30
0
0
SPLINE
5
138
100
AcDbEntity
8
1
62
256
6
ByLayer
370
18
48
1
60
0
100
AcDbSpline
70
4
71
3
72
10
73
6
40
0
40
0
40
0
40
0
40
0.479736826302605
40
0.479736826302605
40
1
40
1
40
1
40
1
41
1
10
32.8472587066235
20
10.0922620637001
30
0
41
1
10
32.7634717620859
20
10.0764965592313
30
0
41
1
10
32.6831344436618
20
10.0475497808792
30
0
41
1
10
32.5347803935531
20
9.96862630548253
30
0
41
1
10
32.4658766441957
20
9.91604381539733
30
0
41
1
10
32.4078822958328
20
9.85641737191119
30
0
0
SPLINE
5
139
100
AcDbEntity
8
1
62
256
6
ByLayer
370
18
48
1
60
0
100
AcDbSpline
70
4
71
3
72
10
73
6
40
0
40
0
40
0
40
0
40
0.541781546918578
40
0.541781546918578
40
1
40
1
40
1
40
1
41
1
10
32.4078822958328
20
13.1435826280887
30
0
41
1
10
32.4682106475449
20
13.0815564969998
30
0
41
1
10
32.5404061878005
20
13.0271176776847
30
0
41
1
10
32.6901673132266
20
12.9499222952412
30
0
41
1
10
32.7671332520483
20
12.9228144881319
30
0
41
1
10
32.8472587066235
20
12.9077379362998
30
0
0
SPLINE
5
13A
100
AcDbEntity
8
1
62
256
6
ByLayer
370
18
48
1
60
0
100
AcDbSpline
70
4
71
3
72
18
73
14
40
0
40
0
40
0
40
0
40
0.213081026856104
40
0.213081026856104
40
0.387160750704752
40
0.387160750704752
40
0.562948851464646
40
0.562948851464646
40
0.715638295683697
40
0.715638295683697
40
0.919170771668922
40
0.919170771668922
40
1
40
1
40
1
40
1
41
1
10
34.7260954401443
20
11.1818380304531
30
0
41
1
10
34.6437040264742
20
11.1591542629531
30
0
41
1
10
34.5621171389576
20
11.1227274869734
30
0
41
1
10
34.4256662182536
20
11.0317269440962
30
0
41
1
10
34.3672150493795
20
10.9805084832664
30
0
41
1
10
34.2661041429076
20
10.8619239121139
30
0
41
1
10
34.2222813842307
20
10.7924955103007
30
0
41
1
10
34.1623456109347
20
10.6573755135934
30
0
41
1
10
34.1425367132623
20
10.5908273926396
30
0
41
1
10
34.1163534643372
20
10.4385277360788
30
0
41
1
10
34.1158957320856
20
10.351154096332
30
0
41
1
10
34.1323120448847
20
10.2359448831482
30
0
41
1
10
34.1389765921737
20
10.2035006062568
30
0
41
1
10
34.1474510335849
20
10.1718476620214
30
0
0
SPLINE
5
13B
100
AcDbEntity
8
1
62
256
6
ByLayer
370
18
48
1
60
0
100
AcDbSpline
70
4
71
3
72
14
73
10
40
0
40
0
40
0
40
0
40
0.281038222380449
40
0.281038222380449
40
0.564557857067098
40
0.564557857067098
40
0.820700196130107
40
0.820700196130107
40
1
40
1
40
1
40
1
41
1
10
33.5921177041672
20
9.85641737191119
30
0
41
1
10
33.6186993754269
20
9.82908763092999
30
0
41
1
10
33.650956030905
20
9.80563447546405
30
0
41
1
10
33.722764805511
20
9.77142513957301
30
0
41
1
10
33.7635279239202
20
9.76031524095509
30
0
41
1
10
33.8428270852508
20
9.75465131442576
30
0
41
1
10
33.8824075126984
20
9.7585882743569
30
0
41
1
10
33.9460823269879
20
9.77688456535429
30
0
41
1
10
33.9718293672142
20
9.78789670153654
30
0
41
1
10
33.9955768895952
20
9.80181894166017
30
0
0
SPLINE
5
13C
100
AcDbEntity
8
1
62
256
6
ByLayer
370
18
48
1
60
0
100
AcDbSpline
70
4
71
3
72
14
73
10
40
0
40
0
40
0
40
0
40
0.28501478084461
40
0.28501478084461
40
0.572350605982612
40
0.572350605982612
40
0.832166772861823
40
0.832166772861823
40
1
40
1
40
1
40
1
41
1
10
34.1474510335849
20
12.8281523379785
30
0
41
1
10
34.1572544616642
20
12.8647691894327
30
0
41
1
10
34.1608991991341
20
12.9042713920944
30
0
41
1
10
34.153693991241
20
12.9830512387511
30
0
41
1
10
34.1425429113445
20
13.0235402482585
30
0
41
1
10
34.1072987491109
20
13.0942746415249
30
0
41
1
10
34.0839525870207
20
13.1261679353044
30
0
41
1
10
34.0377550838958
20
13.1700414375131
30
0
41
1
10
34.0173258483134
20
13.1854304976346
30
0
41
1
10
33.9955768895952
20
13.1981810583397
30
0
0
SPLINE
5
13D
100
AcDbEntity
8
1
62
256
6
ByLayer
370
18
48
1
60
0
100
AcDbSpline
70
4
71
3
72
16
73
12
40
0
40
0
40
0
40
0
40
0.0660777514108855
40
0.0660777514108855
40
0.289232858199875
40
0.289232858199875
40
0.515409129607283
40
0.515409129607283
40
0.756439127791308
40
0.756439127791308
40
1
40
1
40
1
40
1
41
1
10
34.9685
20
11.5
30
0
41
1
10
34.9685
20
11.5099586067441
30
0
41
1
10
34.9680478629074
20
11.5199296962917
30
0
41
1
10
34.9641293930511
20
11.5630891514988
30
0
41
1
10
34.9558767148613
20
11.5961843324548
30
0
41
1
10
34.9305022667635
20
11.6573062564989
30
0
41
1
10
34.9129646817672
20
11.6860457142542
30
0
41
1
10
34.8703125238603
20
11.7373782985839
30
0
41
1
10
34.8442704937159
20
11.7601095026043
30
0
41
1
10
34.7881096630202
20
11.7960425393677
30
0
41
1
10
34.757361712608
20
11.8095538291646
30
0
41
1
10
34.7260954401443
20
11.8181619695468
30
0
0
SPLINE
5
13E
100
AcDbEntity
8
1
62
256
6
ByLayer
370
18
48
1
60
0
100
AcDbSpline
70
4
71
3
72
16
73
12
40
0
40
0
40
0
40
0
40
0.0660777514108985
40
0.0660777514108985
40
0.289232858199888
40
0.289232858199888
40
0.515409129607294
40
0.515409129607294
40
0.756439127791348
40
0.756439127791348
40
1
40
1
40
1
40
1
41
1
10
31.0315
20
11.5
30
0
41
1
10
31.0315
20
11.4900413932558
30
0
41
1
10
31.0319521370926
20
11.4800703037082
30
0
41
1
10
31.035870606949
20
11.4369108485012
30
0
41
1
10
31.0441232851387
20
11.4038156675451
30
0
41
1
10
31.0694977332365
20
11.342693743501
30
0
41
1
10
31.0870353182329
20
11.3139542857457
30
0
41
1
10
31.1296874761397
20
11.2626217014161
30
0
41
1
10
31.1557295062842
20
11.2398904973956
30
0
41
1
10
31.2118903369798
20
11.2039574606322
30
0
41
1
10
31.242638287392
20
11.1904461708353
30
0
41
1
10
31.2739045598557
20
11.1818380304531
30
0
0
SPLINE
5
13F
100
AcDbEntity
8
1
62
256
6
ByLayer
370
18
48
1
60
0
100
AcDbSpline
70
4
71
3
72
16
73
12
40
0
40
0
40
0
40
0
40
0.0517235387679316
40
0.0517235387679316
40
0.275098677522073
40
0.275098677522073
40
0.50066061238009
40
0.50066061238009
40
0.740399911602671
40
0.740399911602671
40
1
40
1
40
1
40
1
41
1
10
32.0044231104048
20
13.1981810583397
30
0
41
1
10
31.9976873474949
20
13.1942321449692
30
0
41
1
10
31.9910867899157
20
13.1900406846879
30
0
41
1
10
31.9570784950114
20
13.1667122985834
30
0
41
1
10
31.932185933775
20
13.1432779414416
30
0
41
1
10
31.8912662851596
20
13.091197090818
30
0
41
1
10
31.8747864906562
20
13.061855109704
30
0
41
1
10
31.8509200085361
20
12.9996442273376
30
0
41
1
10
31.8438374246744
20
12.9659038510297
30
0
41
1
10
31.8397886488947
20
12.8971872076184
30
0
41
1
10
31.8436204700992
20
12.861501225803
30
0
41
1
10
31.8525489664152
20
12.8281523379785
30
0
0
SPLINE
5
140
100
AcDbEntity
8
1
62
256
6
ByLayer
370
18
48
1
60
0
100
AcDbSpline
70
4
71
3
72
10
73
6
40
0
40
0
40
0
40
0
40
0.479736826236747
40
0.479736826236747
40
1
40
1
40
1
40
1
41
1
10
33.1527412933765
20
12.9077379362998
30
0
41
1
10
33.2365282379028
20
12.9235034407665
30
0
41
1
10
33.3168655563164
20
12.9524502191128
30
0
41
1
10
33.4652196064295
20
13.0313736945042
30
0
41
1
10
33.5341233557971
20
13.0839561845951
30
0
41
1
10
33.5921177041672
20
13.1435826280887
30
0
0
SPLINE
5
141
100
AcDbEntity
8
1
62
256
6
ByLayer
370
18
48
1
60
0
100
AcDbSpline
70
4
71
3
72
18
73
14
40
0
40
0
40
0
40
0
40
0.213081262000625
40
0.213081262000625
40
0.387160943926349
40
0.387160943926349
40
0.562948999942009
40
0.562948999942009
40
0.715638435810381
40
0.715638435810381
40
0.919170953808127
40
0.919170953808127
40
1
40
1
40
1
40
1
41
1
10
34.1474510335849
20
12.8281523379785
30
0
41
1
10
34.1253499966636
20
12.7456026033975
30
0
41
1
10
34.1155116663085
20
12.6567963171877
30
0
41
1
10
34.125005262533
20
12.4930591646997
30
0
41
1
10
34.1396283941553
20
12.4167307174995
30
0
41
1
10
34.190791443592
20
12.2695300091916
30
0
41
1
10
34.2285222509958
20
12.1966114249892
30
0
41
1
10
34.3147745125081
20
12.0765687241949
30
0
41
1
10
34.3621656692504
20
12.0258230633913
30
0
41
1
10
34.4803089305089
20
11.9262092090028
30
0
41
1
10
34.5554527440064
20
11.8816247717127
30
0
41
1
10
34.6631437334956
20
11.8375192838218
30
0
41
1
10
34.6945032391402
20
11.8268598436391
30
0
41
1
10
34.7260954401443
20
11.8181619695468
30
0
0
SPLINE
5
142
100
AcDbEntity
8
1
62
256
6
ByLayer
370
18
48
1
60
0
100
AcDbSpline
70
4
71
3
72
10
73
6
40
0
40
0
40
0
40
0
40
0.541781546917754
40
0.541781546917754
40
1
40
1
40
1
40
1
41
1
10
33.5921177041672
20
9.85641737191119
30
0
41
1
10
33.5317893524551
20
9.91844350300008
30
0
41
1
10
33.4595938121995
20
9.9728823223152
30
0
41
1
10
33.3098326867735
20
10.0500777047587
30
0
41
1
10
33.2328667479518
20
10.0771855118681
30
0
41
1
10
33.1527412933765
20
10.0922620637001
30
0
0
SPLINE
5
143
100
AcDbEntity
8
1
62
256
6
ByLayer
370
18
48
1
60
0
100
AcDbSpline
70
4
71
3
72
14
73
10
40
0
40
0
40
0
40
0
40
0.285014780844611
40
0.285014780844611
40
0.572350605982607
40
0.572350605982607
40
0.832166772861811
40
0.832166772861811
40
1
40
1
40
1
40
1
41
1
10
31.8525489664152
20
10.1718476620214
30
0
41
1
10
31.8427455383358
20
10.1352308105672
30
0
41
1
10
31.839100800866
20
10.0957286079056
30
0
41
1
10
31.8463060087591
20
10.0169487612488
30
0
41
1
10
31.8574570886555
20
9.9764597517414
30
0
41
1
10
31.8927012508891
20
9.90572535847497
30
0
41
1
10
31.9160474129793
20
9.87383206469556
30
0
41
1
10
31.9622449161042
20
9.82995856248678
30
0
41
1
10
31.9826741516866
20
9.81456950236532
30
0
41
1
10
32.0044231104048
20
9.80181894166017
30
0
0
SPLINE
5
144
100
AcDbEntity
8
1
62
256
6
ByLayer
370
18
48
1
60
0
100
AcDbSpline
70
4
71
3
72
18
73
14
40
0
40
0
40
0
40
0
40
0.213081026856105
40
0.213081026856105
40
0.387160750704749
40
0.387160750704749
40
0.562948851464642
40
0.562948851464642
40
0.715638295683695
40
0.715638295683695
40
0.91917077166892
40
0.91917077166892
40
1
40
1
40
1
40
1
41
1
10
31.2739045598557
20
11.8181619695468
30
0
41
1
10
31.3562959735259
20
11.8408457370468
30
0
41
1
10
31.4378828610425
20
11.8772725130265
30
0
41
1
10
31.5743337817465
20
11.9682730559037
30
0
41
1
10
31.6327849506205
20
12.0194915167336
30
0
41
1
10
31.7338958570924
20
12.1380760878861
30
0
41
1
10
31.7777186157693
20
12.2075044896993
30
0
41
1
10
31.8376543890653
20
12.3426244864065
30
0
41
1
10
31.8574632867377
20
12.4091726073604
30
0
41
1
10
31.8836465356628
20
12.5614722639211
30
0
41
1
10
31.8841042679143
20
12.648845903668
30
0
41
1
10
31.8676879551153
20
12.7640551168518
30
0
41
1
10
31.8610234078263
20
12.7964993937431
30
0
41
1
10
31.8525489664152
20
12.8281523379785
30
0
0
SPLINE
5
145
100
AcDbEntity
8
1
62
256
6
ByLayer
370
18
48
1
60
0
100
AcDbSpline
70
4
71
3
72
16
73
12
40
0
40
0
40
0
40
0
40
0.064596506417134
40
0.064596506417134
40
0.28274732050029
40
0.28274732050029
40
0.503851581407219
40
0.503851581407219
40
0.739476498257813
40
0.739476498257813
40
1
40
1
40
1
40
1
41
1
10
33.9955768895952
20
13.1981810583397
30
0
41
1
10
33.986985747916
20
13.2032177074468
30
0
41
1
10
33.9781551632148
20
13.2078706146447
30
0
41
1
10
33.9389405917191
20
13.2263183132718
30
0
41
1
10
33.9062162869221
20
13.2359369082356
30
0
41
1
10
33.8406545305483
20
13.2449595499999
30
0
41
1
10
33.8069919358934
20
13.2443653386228
30
0
41
1
10
33.7411369612427
20
13.2335318857598
30
0
41
1
10
33.7083564006042
20
13.2225623792863
30
0
41
1
10
33.6462036940129
20
13.1908850535306
30
0
41
1
10
33.6167478571437
20
13.1689059305478
30
0
41
1
10
33.5921177041672
20
13.1435826280887
30
0
0
SPLINE
5
146
100
AcDbEntity
8
1
62
256
6
ByLayer
370
18
48
1
60
0
100
AcDbSpline
70
4
71
3
72
14
73
10
40
0
40
0
40
0
40
0
40
0.285013984727034
40
0.285013984727034
40
0.572349910643031
40
0.572349910643031
40
0.832166158509286
40
0.832166158509286
40
1
40
1
40
1
40
1
41
1
10
34.7260954401443
20
11.1818380304531
30
0
41
1
10
34.7626420033309
20
11.1918999253196
30
0
41
1
10
34.798562913688
20
11.2087340241313
30
0
41
1
10
34.8628804284091
20
11.2547928978749
30
0
41
1
10
34.892169726513
20
11.2848901460308
30
0
41
1
10
34.9353659032994
20
11.3510686822684
30
0
41
1
10
34.9510721564614
20
11.3873390540657
30
0
41
1
10
34.9655563481768
20
11.4493818984825
30
0
41
1
10
34.9685
20
11.4747889183342
30
0
41
1
10
34.9685
20
11.5
30
0
0
SPLINE
5
147
100
AcDbEntity
8
1
62
256
6
ByLayer
370
18
48
1
60
0
100
AcDbSpline
70
4
71
3
72
9
73
5
40
0
40
0
40
0
40
0
40
0.421427700695295
40
1
40
1
40
1
40
1
41
1
10
45.6234596151002
20
20.5000097298017
30
0
41
1
10
45.6158890370542
20
20.5305420229073
30
0
41
1
10
45.5979249164386
20
20.602991681663
30
0
41
1
10
45.5374873023803
20
20.6460802307443
30
0
41
1
10
45.50251977305
20
20.6710100716599
30
0
0
SPLINE
5
148
100
AcDbEntity
8
1
62
256
6
ByLayer
370
18
48
1
60
0
100
AcDbSpline
70
4
71
2
72
9
73
6
40
0
40
0
40
0
40
0.25
40
0.5
40
0.75
40
1
40
1
40
1
41
1
10
49.9999999993
20
21.7188958951099
30
0
41
1
10
49.9998914336468
20
21.7811219995328
30
0
41
1
10
49.9509737652151
20
21.8945026136964
30
0
41
1
10
49.8614275758866
20
21.9791643261974
30
0
41
1
10
49.7453310680372
20
22.0219325331823
30
0
41
1
10
49.68255672556
20
22.01838835205
30
0
0
SPLINE
5
149
100
AcDbEntity
8
1
62
256
6
ByLayer
370
18
48
1
60
0
100
AcDbSpline
70
4
71
9
72
20
73
10
40
0
40
0
40
0
40
0
40
0
40
0
40
0
40
0
40
0
40
0
40
1
40
1
40
1
40
1
40
1
40
1
40
1
40
1
40
1
40
1
41
1
10
30.0000000007057
20
21.718895895103
30
0
41
1
10
30.0000000007057
20
21.7731950075025
30
0
41
1
10
30.0110564745082
20
21.8274941187529
30
0
41
1
10
30.0331694356762
20
21.8792202759628
30
0
41
1
10
30.0656402909062
20
21.9258005233825
30
0
41
1
10
30.1070720736462
20
21.9648894324026
30
0
41
1
10
30.1554615272862
20
21.9945969702231
30
0
41
1
10
30.2083859035662
20
22.0136649461926
30
0
41
1
10
30.2632360255462
20
22.0215455331226
30
0
41
1
10
30.3174432744362
20
22.0183883520526
30
0
0
SPLINE
5
14A
100
AcDbEntity
8
1
62
256
6
ByLayer
370
18
48
1
60
0
100
AcDbSpline
70
4
71
2
72
6
73
3
40
0
40
0
40
0
40
1
40
1
40
1
41
1
10
45.6234596151291
20
20.5000097298017
30
0
41
1
10
45.6230933262054
20
20.4117554147541
30
0
41
1
10
45.5025197730493
20
20.32898992834
30
0
0
SPLINE
5
14B
100
AcDbEntity
8
1
62
256
6
ByLayer
370
18
48
1
60
0
100
AcDbSpline
70
4
71
9
72
20
73
10
40
0
40
0
40
0
40
0
40
0
40
0
40
0
40
0
40
0
40
0
40
1
40
1
40
1
40
1
40
1
40
1
40
1
40
1
40
1
40
1
41
1
10
49.9999999992944
20
19.2811041048969
30
0
41
1
10
49.9999999992944
20
19.2268049924974
30
0
41
1
10
49.9889435254919
20
19.172505881247
30
0
41
1
10
49.9668305643239
20
19.1207797240371
30
0
41
1
10
49.9343597090939
20
19.0741994766174
30
0
41
1
10
49.8929279263539
20
19.0351105675973
30
0
41
1
10
49.8445384727139
20
19.0054030297768
30
0
41
1
10
49.7916140964339
20
18.9863350538073
30
0
41
1
10
49.7367639744539
20
18.9784544668773
30
0
41
1
10
49.6825567255639
20
18.9816116479474
30
0
0
LINE
5
75
100
AcDbEntity
8
80
62
256
6
ByLayer
370
18
48
1
60
0
100
AcDbLine
10
0
20
0
30
0
11
-5
21
0
31
0
39
0
210
0
220
0
230
1
0
LINE
5
76
100
AcDbEntity
8
1
62
256
6
ByLayer
370
18
48
1
60
0
100
AcDbLine
10
15.798859
20
16
30
0
11
0.3
21
16
31
0
39
0
210
0
220
0
230
1
0
LINE
5
78
100
AcDbEntity
8
1
62
256
6
ByLayer
370
18
48
1
60
0
100
AcDbLine
10
0.3
20
16
30
0
11
0
21
15.7
31
0
39
0
210
0
220
0
230
1
0
LINE
5
79
100
AcDbEntity
8
1
62
256
6
ByLayer
370
18
48
1
60
0
100
AcDbLine
10
0
20
-15.7
30
0
11
0.3
21
-16
31
0
39
0
210
0
220
0
230
1
0
LINE
5
7A
100
AcDbEntity
8
1
62
256
6
ByLayer
370
18
48
1
60
0
100
AcDbLine
10
0.3
20
-16
30
0
11
15
21
-16
31
0
39
0
210
0
220
0
230
1
0
LINE
5
7B
100
AcDbEntity
8
81
62
256
6
ByLayer
370
18
48
1
60
0
100
AcDbLine
10
50
20
22
30
0
11
55
21
22
31
0
39
0
210
0
220
0
230
1
0
LINE
5
7C
100
AcDbEntity
8
4
62
256
6
ByLayer
370
18
48
0.05
60
0
100
AcDbLine
10
0
20
0
30
0
11
45
21
0
31
0
39
0
210
0
220
0
230
1
0
LINE
5
7E
100
AcDbEntity
8
SK4
62
256
6
ByLayer
370
18
48
0.05
60
0
100
AcDbLine
10
-24
20
0
30
0
11
45
21
0
31
0
39
0
210
0
220
0
230
1
0
LINE
5
80
100
AcDbEntity
8
SK1
62
256
6
ByLayer
370
18
48
1
60
0
100
AcDbLine
10
-1.307107
20
-3.314033
30
0
11
-1.307107
21
3.314033
31
0
39
0
210
0
220
0
230
1
0
LINE
5
82
100
AcDbEntity
8
SK1
62
256
6
ByLayer
370
18
48
1
60
0
100
AcDbLine
10
-0.2
20
-10.883485
30
0
11
-0.2
21
-5.362019
31
0
39
0
210
0
220
0
230
1
0
LINE
5
83
100
AcDbEntity
8
SK1
62
256
6
ByLayer
370
18
48
1
60
0
100
AcDbLine
10
-0.2
20
5.362019
30
0
11
-0.2
21
10.883485
31
0
39
0
210
0
220
0
230
1
0
LINE
5
84
100
AcDbEntity
8
1
62
256
6
ByLayer
370
18
48
1
60
0
100
AcDbLine
10
28.57073
20
21.675
30
0
11
28.57073
21
14.760608
31
0
39
0
210
0
220
0
230
1
0
LINE
5
85
100
AcDbEntity
8
1
62
256
6
ByLayer
370
18
48
1
60
0
100
AcDbLine
10
38.5
20
17
30
0
11
38.5
21
17.725
31
0
39
0
210
0
220
0
230
1
0
LINE
5
86
100
AcDbEntity
8
1
62
256
6
ByLayer
370
18
48
1
60
0
100
AcDbLine
10
4.923205
20
4.755463
30
0
11
4.923205
21
15.276962
31
0
39
0
210
0
220
0
230
1
0
LINE
5
87
100
AcDbEntity
8
1
62
256
6
ByLayer
370
18
48
1
60
0
100
AcDbLine
10
43.900012
20
19.325
30
0
11
45.85579
21
19.325
31
0
39
0
210
0
220
0
230
1
0
LINE
5
88
100
AcDbEntity
8
1
62
256
6
ByLayer
370
18
48
1
60
0
100
AcDbLine
10
33
20
17
30
0
11
34.481231
21
17
31
0
39
0
210
0
220
0
230
1
0
LINE
5
89
100
AcDbEntity
8
1
62
256
6
ByLayer
370
18
48
1
60
0
100
AcDbLine
10
27.606583
20
16.252005
30
0
11
28.06145
21
21.675
31
0
39
0
210
0
220
0
230
1
0
LINE
5
8A
100
AcDbEntity
8
1
62
256
6
ByLayer
370
18
48
1
60
0
100
AcDbLine
10
43.090933
20
21.675
30
0
11
34.481231
21
21.675
31
0
39
0
210
0
220
0
230
1
0
LINE
5
8B
100
AcDbEntity
8
1
62
256
6
ByLayer
370
18
48
1
60
0
100
AcDbLine
10
40.1
20
19.325
30
0
11
43.090933
21
19.325
31
0
39
0
210
0
220
0
230
1
0
LINE
5
8C
100
AcDbEntity
8
1
62
256
6
ByLayer
370
18
48
1
60
0
100
AcDbLine
10
4.923205
20
-15.276962
30
0
11
7.076795
21
-15.276962
31
0
39
0
210
0
220
0
230
1
0
LINE
5
8D
100
AcDbEntity
8
1
62
256
6
ByLayer
370
18
48
1
60
0
100
AcDbLine
10
38.5
20
16.5
30
0
11
38.5
21
17
31
0
39
0
210
0
220
0
230
1
0
LINE
5
8E
100
AcDbEntity
8
1
62
256
6
ByLayer
370
18
48
1
60
0
100
AcDbLine
10
28.776286
20
21.675
30
0
11
28.57072
21
21.675
31
0
39
0
210
0
220
0
230
1
0
LINE
5
8F
100
AcDbEntity
8
1
62
256
6
ByLayer
370
18
48
1
60
0
100
AcDbLine
10
4.923205
20
4.755463
30
0
11
7.076795
21
4.755463
31
0
39
0
210
0
220
0
230
1
0
LINE
5
90
100
AcDbEntity
8
1
62
256
6
ByLayer
370
18
48
1
60
0
100
AcDbLine
10
36.645894
20
21.675
30
0
11
28.776286
21
21.675
31
0
39
0
210
0
220
0
230
1
0
LINE
5
91
100
AcDbEntity
8
1
62
256
6
ByLayer
370
18
48
1
60
0
100
AcDbLine
10
33
20
17
30
0
11
33
21
16.5
31
0
39
0
210
0
220
0
230
1
0
LINE
5
92
100
AcDbEntity
8
1
62
256
6
ByLayer
370
18
48
1
60
0
100
AcDbLine
10
27.5
20
3.645186
30
0
11
27.5
21
11.5
31
0
39
0
210
0
220
0
230
1
0
LINE
5
93
100
AcDbEntity
8
1
62
256
6
ByLayer
370
18
48
1
60
0
100
AcDbLine
10
4.663397
20
-15.175938
30
0
11
4.663397
21
-5.068619
31
0
39
0
210
0
220
0
230
1
0
LINE
5
94
100
AcDbEntity
8
1
62
256
6
ByLayer
370
18
48
1
60
0
100
AcDbLine
10
27.606583
20
12.577521
30
0
11
27.606583
21
16.252005
31
0
39
0
210
0
220
0
230
1
0
LINE
5
95
100
AcDbEntity
8
1
62
256
6
ByLayer
370
18
48
1
60
0
100
AcDbLine
10
15.920792
20
-1.911685
30
0
11
15.920792
21
15.826517
31
0
39
0
210
0
220
0
230
1
0
LINE
5
96
100
AcDbEntity
8
1
62
256
6
ByLayer
370
18
48
1
60
0
100
AcDbLine
10
37.895567
20
8.072087
30
0
11
34.881111
21
6.331691
31
0
39
0
210
0
220
0
230
1
0
LINE
5
97
100
AcDbEntity
8
1
62
256
6
ByLayer
370
18
48
1
60
0
100
AcDbLine
10
34.481231
20
17
30
0
11
34.481231
21
21.675
31
0
39
0
210
0
220
0
230
1
0
LINE
5
98
100
AcDbEntity
8
1
62
256
6
ByLayer
370
18
48
1
60
0
100
AcDbLine
10
43.900012
20
21.675
30
0
11
43.900011
21
21.649997
31
0
39
0
210
0
220
0
230
1
0
LINE
5
99
100
AcDbEntity
8
1
62
256
6
ByLayer
370
18
48
1
60
0
100
AcDbLine
10
27.5
20
11.5
30
0
11
28
21
11.5
31
0
39
0
210
0
220
0
230
1
0
LINE
5
9A
100
AcDbEntity
8
1
62
256
6
ByLayer
370
18
48
1
60
0
100
AcDbLine
10
4.663397
20
5.068619
30
0
11
4.663397
21
15.175938
31
0
39
0
210
0
220
0
230
1
0
LINE
5
9B
100
AcDbEntity
8
1
62
256
6
ByLayer
370
18
48
1
60
0
100
AcDbLine
10
4.923205
20
-15.276962
30
0
11
4.923205
21
-4.755463
31
0
39
0
210
0
220
0
230
1
0
LINE
5
9C
100
AcDbEntity
8
1
62
256
6
ByLayer
370
18
48
1
60
0
100
AcDbLine
10
7.076795
20
15.276962
30
0
11
4.923205
21
15.276962
31
0
39
0
210
0
220
0
230
1
0
LINE
5
9D
100
AcDbEntity
8
1
62
256
6
ByLayer
370
18
48
1
60
0
100
AcDbLine
10
28.776286
20
15.022817
30
0
11
28.776286
21
21.675
31
0
39
0
210
0
220
0
230
1
0
LINE
5
9E
100
AcDbEntity
8
1
62
256
6
ByLayer
370
18
48
1
60
0
100
AcDbLine
10
34.481231
20
17
30
0
11
38.5
21
17
31
0
39
0
210
0
220
0
230
1
0
LINE
5
9F
100
AcDbEntity
8
1
62
256
6
ByLayer
370
18
48
1
60
0
100
AcDbLine
10
32.645894
20
21.675
30
0
11
34.481231
21
21.675
31
0
39
0
210
0
220
0
230
1
0
LINE
5
A0
100
AcDbEntity
8
1
62
256
6
ByLayer
370
18
48
1
60
0
100
AcDbLine
10
45.85579
20
21.675
30
0
11
43.900012
21
21.675
31
0
39
0
210
0
220
0
230
1
0
LINE
5
A1
100
AcDbEntity
8
1
62
256
6
ByLayer
370
18
48
1
60
0
100
AcDbLine
10
20.141849
20
21.675
30
0
11
20.781923
21
21.675
31
0
39
0
210
0
220
0
230
1
0
LINE
5
A2
100
AcDbEntity
8
1
62
256
6
ByLayer
370
18
48
1
60
0
100
AcDbLine
10
0
20
-15.7
30
0
11
0
21
15.7
31
0
39
0
210
0
220
0
230
1
0
LINE
5
A3
100
AcDbEntity
8
1
62
256
6
ByLayer
370
18
48
1
60
0
100
AcDbLine
10
0.3
20
-16
30
0
11
0.3
21
16
31
0
39
0
210
0
220
0
230
1
0
LINE
5
A4
100
AcDbEntity
8
1
62
256
6
ByLayer
370
18
48
1
60
0
100
AcDbLine
10
7.076795
20
-15.276962
30
0
11
7.076795
21
-4.755463
31
0
39
0
210
0
220
0
230
1
0
LINE
5
A5
100
AcDbEntity
8
1
62
256
6
ByLayer
370
18
48
1
60
0
100
AcDbLine
10
7.336603
20
-15.175938
30
0
11
7.336603
21
-5.068619
31
0
39
0
210
0
220
0
230
1
0
LINE
5
A6
100
AcDbEntity
8
1
62
256
6
ByLayer
370
18
48
1
60
0
100
AcDbLine
10
38.5
20
11.5
30
0
11
37.895567
21
8.072087
31
0
39
0
210
0
220
0
230
1
0
LINE
5
A7
100
AcDbEntity
8
1
62
256
6
ByLayer
370
18
48
1
60
0
100
AcDbLine
10
7.076795
20
4.755463
30
0
11
7.076795
21
15.276962
31
0
39
0
210
0
220
0
230
1
0
LINE
5
A8
100
AcDbEntity
8
1
62
256
6
ByLayer
370
18
48
1
60
0
100
AcDbLine
10
43.900011
20
19.350003
30
0
11
43.900012
21
19.325
31
0
39
0
210
0
220
0
230
1
0
LINE
5
A9
100
AcDbEntity
8
1
62
256
6
ByLayer
370
18
48
1
60
0
100
AcDbLine
10
20.781923
20
21.675
30
0
11
28.06145
21
21.675
31
0
39
0
210
0
220
0
230
1
0
LINE
5
AA
100
AcDbEntity
8
1
62
256
6
ByLayer
370
18
48
1
60
0
100
AcDbLine
10
43.900012
20
21.675
30
0
11
43.090908
21
21.675
31
0
39
0
210
0
220
0
230
1
0
LINE
5
AB
100
AcDbEntity
8
1
62
256
6
ByLayer
370
18
48
1
60
0
100
AcDbLine
10
17.53229
20
21.675
30
0
11
17.479908
21
21.675
31
0
39
0
210
0
220
0
230
1
0
LINE
5
AC
100
AcDbEntity
8
1
62
256
6
ByLayer
370
18
48
1
60
0
100
AcDbLine
10
27.5
20
3.645186
30
0
11
28
21
3.827171
31
0
39
0
210
0
220
0
230
1
0
LINE
5
AD
100
AcDbEntity
8
1
62
256
6
ByLayer
370
18
48
1
60
0
100
AcDbLine
10
7.336603
20
5.068619
30
0
11
7.336603
21
15.175938
31
0
39
0
210
0
220
0
230
1
0
LINE
5
AE
100
AcDbEntity
8
1
62
256
6
ByLayer
370
18
48
1
60
0
100
AcDbLine
10
20.781923
20
21.675
30
0
11
27.606583
21
16.252005
31
0
39
0
210
0
220
0
230
1
0
LINE
5
AF
100
AcDbEntity
8
1
62
256
6
ByLayer
370
18
48
1
60
0
100
AcDbLine
10
33
20
16.5
30
0
11
38.5
21
16.5
31
0
39
0
210
0
220
0
230
1
0
LINE
5
B0
100
AcDbEntity
8
1
62
256
6
ByLayer
370
18
48
1
60
0
100
AcDbLine
10
34.881111
20
6.331691
30
0
11
28
21
3.827171
31
0
39
0
210
0
220
0
230
1
0
LINE
5
B1
100
AcDbEntity
8
1
62
256
6
ByLayer
370
18
48
1
60
0
100
AcDbLine
10
27.5
20
3.645186
30
0
11
18.947879
21
0.532469
31
0
39
0
210
0
220
0
230
1
0
LINE
5
B2
100
AcDbEntity
8
1
62
256
6
ByLayer
370
18
48
1
60
0
100
AcDbLine
10
28.06145
20
21.675
30
0
11
28.57073
21
21.675
31
0
39
0
210
0
220
0
230
1
0
LINE
5
B3
100
AcDbEntity
8
1
62
256
6
ByLayer
370
18
48
1
60
0
100
AcDbLine
10
15
20
-5.105687
30
0
11
15
21
-16
31
0
39
0
210
0
220
0
230
1
0
LINE
5
B4
100
AcDbEntity
8
1
62
256
6
ByLayer
370
18
48
1
60
0
100
AcDbLine
10
32.645894
20
21.675
30
0
11
32.645894
21
16.988589
31
0
39
0
210
0
220
0
230
1
0
LINE
5
B5
100
AcDbEntity
8
1
62
256
6
ByLayer
370
18
48
1
60
0
100
AcDbLine
10
28
20
3.827171
30
0
11
28
21
11.5
31
0
39
0
210
0
220
0
230
1
0
LINE
5
B6
100
AcDbEntity
8
1
62
256
6
ByLayer
370
18
48
1
60
0
100
AcDbLine
10
38.5
20
16.5
30
0
11
38.5
21
11.5
31
0
39
0
210
0
220
0
230
1
0
LINE
5
B7
100
AcDbEntity
8
1
62
256
6
ByLayer
370
18
48
1
60
0
100
AcDbLine
10
7.076795
20
-4.755463
30
0
11
4.923205
21
-4.755463
31
0
39
0
210
0
220
0
230
1
0
LINE
5
B8
100
AcDbEntity
8
1
62
256
6
ByLayer
370
18
48
1
60
0
100
AcDbLine
10
43.090908
20
19.325
30
0
11
43.900012
21
19.325
31
0
39
0
210
0
220
0
230
1
0
LINE
5
B9
100
AcDbEntity
8
1
62
256
6
ByLayer
370
18
48
1
60
0
100
AcDbLine
10
44.365346
20
21.476449
30
0
11
43.177427
21
21.476449
31
0
39
0
210
0
220
0
230
1
0
LINE
5
BA
100
AcDbEntity
8
1
62
256
6
ByLayer
370
18
48
1
60
0
100
AcDbLine
10
45.50252
20
20.67101
30
0
11
44.401627
21
21.425147
31
0
39
0
210
0
220
0
230
1
0
LINE
5
BB
100
AcDbEntity
8
1
62
256
6
ByLayer
370
18
48
1
60
0
100
AcDbLine
10
43.42592
20
20.67101
30
0
11
45.50252
21
20.67101
31
0
39
0
210
0
220
0
230
1
0
LINE
5
BC
100
AcDbEntity
8
1
62
256
6
ByLayer
370
18
48
1
60
0
100
AcDbLine
10
43.447181
20
20.49999
30
0
11
45.62346
21
20.49999
31
0
39
0
210
0
220
0
230
1
0
LINE
5
BD
100
AcDbEntity
8
1
62
256
6
ByLayer
370
18
48
1
60
0
100
AcDbLine
10
47.91102
20
21.915281
30
0
11
47.51463
21
21.935606
31
0
39
0
210
0
220
0
230
1
0
LINE
5
BE
100
AcDbEntity
8
1
62
256
6
ByLayer
370
18
48
1
60
0
100
AcDbLine
10
43.101715
20
19.35
30
0
11
44.365346
21
19.35
31
0
39
0
210
0
220
0
230
1
0
LINE
5
BF
100
AcDbEntity
8
1
62
256
6
ByLayer
370
18
48
1
60
0
100
AcDbLine
10
44.365346
20
19.523551
30
0
11
43.177427
21
19.523551
31
0
39
0
210
0
220
0
230
1
0
LINE
5
C0
100
AcDbEntity
8
1
62
256
6
ByLayer
370
18
48
1
60
0
100
AcDbLine
10
32.48537
20
21.935606
30
0
11
32.48537
21
21.674999
31
0
39
0
210
0
220
0
230
1
0
LINE
5
C1
100
AcDbEntity
8
1
62
256
6
ByLayer
370
18
48
1
60
0
100
AcDbLine
10
44.401626
20
19.574854
30
0
11
43.199844
21
19.574854
31
0
39
0
210
0
220
0
230
1
0
LINE
5
C2
100
AcDbEntity
8
1
62
256
6
ByLayer
370
18
48
1
60
0
100
AcDbLine
10
46.262252
20
21.896862
30
0
11
45.809976
21
21.65
31
0
39
0
210
0
220
0
230
1
0
LINE
5
C3
100
AcDbEntity
8
1
62
256
6
ByLayer
370
18
48
1
60
0
100
AcDbLine
10
44.365346
20
21.65
30
0
11
44.365346
21
21.476449
31
0
39
0
210
0
220
0
230
1
0
LINE
5
C4
100
AcDbEntity
8
1
62
256
6
ByLayer
370
18
48
1
60
0
100
AcDbLine
10
43.101715
20
21.65
30
0
11
44.365346
21
21.65
31
0
39
0
210
0
220
0
230
1
0
LINE
5
C5
100
AcDbEntity
8
1
62
256
6
ByLayer
370
18
48
1
60
0
100
AcDbLine
10
44.365346
20
21.65
30
0
11
45.809976
21
21.65
31
0
39
0
210
0
220
0
230
1
0
LINE
5
C6
100
AcDbEntity
8
1
62
256
6
ByLayer
370
18
48
1
60
0
100
AcDbLine
10
30
20
21.674978
30
0
11
30
21
21.718896
31
0
39
0
210
0
220
0
230
1
0
LINE
5
C7
100
AcDbEntity
8
1
62
256
6
ByLayer
370
18
48
1
60
0
100
AcDbLine
10
46.262252
20
21.896862
30
0
11
47.51463
21
21.935606
31
0
39
0
210
0
220
0
230
1
0
LINE
5
C8
100
AcDbEntity
8
1
62
256
6
ByLayer
370
18
48
1
60
0
100
AcDbLine
10
47.91102
20
21.915281
30
0
11
49.682553
21
22.01846
31
0
39
0
210
0
220
0
230
1
0
LINE
5
C9
100
AcDbEntity
8
1
62
256
6
ByLayer
370
18
48
1
60
0
100
AcDbLine
10
44.365346
20
19.35
30
0
11
44.365346
21
19.523551
31
0
39
0
210
0
220
0
230
1
0
LINE
5
CA
100
AcDbEntity
8
1
62
256
6
ByLayer
370
18
48
1
60
0
100
AcDbLine
10
45.50252
20
20.32899
30
0
11
44.401627
21
19.574853
31
0
39
0
210
0
220
0
230
1
0
LINE
5
CB
100
AcDbEntity
8
1
62
256
6
ByLayer
370
18
48
1
60
0
100
AcDbLine
10
44.365346
20
19.35
30
0
11
45.809976
21
19.35
31
0
39
0
210
0
220
0
230
1
0
LINE
5
CC
100
AcDbEntity
8
1
62
256
6
ByLayer
370
18
48
1
60
0
100
AcDbLine
10
46.262252
20
19.103138
30
0
11
47.51463
21
19.064394
31
0
39
0
210
0
220
0
230
1
0
LINE
5
CD
100
AcDbEntity
8
1
62
256
6
ByLayer
370
18
48
1
60
0
100
AcDbLine
10
46.262252
20
19.103138
30
0
11
45.809976
21
19.35
31
0
39
0
210
0
220
0
230
1
0
LINE
5
CE
100
AcDbEntity
8
1
62
256
6
ByLayer
370
18
48
1
60
0
100
AcDbLine
10
32.08898
20
21.915281
30
0
11
32.48537
21
21.935606
31
0
39
0
210
0
220
0
230
1
0
LINE
5
CF
100
AcDbEntity
8
1
62
256
6
ByLayer
370
18
48
1
60
0
100
AcDbLine
10
47.91102
20
19.084719
30
0
11
47.51463
21
19.064394
31
0
39
0
210
0
220
0
230
1
0
LINE
5
D0
100
AcDbEntity
8
1
62
256
6
ByLayer
370
18
48
1
60
0
100
AcDbLine
10
43.425233
20
20.32899
30
0
11
45.50252
21
20.32899
31
0
39
0
210
0
220
0
230
1
0
LINE
5
D1
100
AcDbEntity
8
1
62
256
6
ByLayer
370
18
48
1
60
0
100
AcDbLine
10
47.51463
20
21.935606
30
0
11
47.51463
21
19.064394
31
0
39
0
210
0
220
0
230
1
0
LINE
5
D2
100
AcDbEntity
8
1
62
256
6
ByLayer
370
18
48
1
60
0
100
AcDbLine
10
47.91102
20
21.915281
30
0
11
47.91102
21
19.084719
31
0
39
0
210
0
220
0
230
1
0
LINE
5
D3
100
AcDbEntity
8
1
62
256
6
ByLayer
370
18
48
1
60
0
100
AcDbLine
10
47.91102
20
19.084719
30
0
11
49.682553
21
18.98154
31
0
39
0
210
0
220
0
230
1
0
LINE
5
D4
100
AcDbEntity
8
1
62
256
6
ByLayer
370
18
48
1
60
0
100
AcDbLine
10
50
20
19.281104
30
0
11
50
21
21.718896
31
0
39
0
210
0
220
0
230
1
0
LINE
5
D5
100
AcDbEntity
8
1
62
256
6
ByLayer
370
18
48
1
60
0
100
AcDbLine
10
32.08898
20
21.915281
30
0
11
30.317447
21
22.01846
31
0
39
0
210
0
220
0
230
1
0
LINE
5
D6
100
AcDbEntity
8
1
62
256
6
ByLayer
370
18
48
1
60
0
100
AcDbLine
10
32.08898
20
21.915281
30
0
11
32.08898
21
21.674993
31
0
39
0
210
0
220
0
230
1
0
LINE
5
D7
100
AcDbEntity
8
1
62
256
6
ByLayer
370
18
48
1
60
0
100
AcDbLine
10
33.737748
20
21.896862
30
0
11
34.144217
21
21.675002
31
0
39
0
210
0
220
0
230
1
0
LINE
5
D8
100
AcDbEntity
8
1
62
256
6
ByLayer
370
18
48
1
60
0
100
AcDbLine
10
33.737748
20
21.896862
30
0
11
32.48537
21
21.935606
31
0
39
0
210
0
220
0
230
1
0
LINE
5
D9
100
AcDbEntity
8
1
62
256
6
ByLayer
370
18
48
1
60
0
100
AcDbLine
10
44.401626
20
21.425146
30
0
11
43.199844
21
21.425146
31
0
39
0
210
0
220
0
230
1
0
MTEXT
5
14C
100
AcDbEntity
8
SK6
62
256
6
ByLayer
370
18
48
1
60
0
100
AcDbMText
10
-16.122475
20
-26.862395
30
0
210
0
220
0
230
1
1
\W0.7332;C3-RF123G10-22050B
40
3.5
41
0
44
1.084337
50
0
71
7
72
5
7
iso_b_vert
0
DIMENSION
5
15E
100
AcDbEntity
8
SK2
62
256
6
ByLayer
370
13
48
1
60
0
100
AcDbDimension
2
DimnDraft3D1
10
-33.23
20
16
30
0
11
-33.23
21
-2.688158
31
0
70
32
71
5
72
1
41
1
210
0
220
0
230
1
3
Standard
100
AcDbAlignedDimension
13
-1.5
23
-16
33
0
14
-1.5
24
16
34
0
50
90
100
AcDbRotatedDimension
1001
ACAD
1000
DSTYLE
1002
{
1070
    74
1070
     0
1070
   279
1070
     0
1070
   172
1070
     1
1070
   173
1070
     1
1070
   340
1005
14D
1070
   271
1070
     3
1070
   272
1070
     3
1070
    77
1070
     1
1070
    73
1070
     0
1070
   171
1070
     4
1070
   274
1070
     4
1070
   177
1070
     2
1070
   176
1070
     2
1070
   178
1070
     7
1070
    78
1070
     8
1070
    41
1041
3.0
1070
   147
1041
2.25
1070
    42
1041
1.5
1070
    44
1041
3.0
1070
   140
1041
4.5
1070
   343
1005
15F
1070
   344
1005
15F
1002
}
0
DIMENSION
5
173
100
AcDbEntity
8
2
62
256
6
ByLayer
370
13
48
1
60
0
100
AcDbDimension
2
DimnDraft3D2
10
64.25
20
22
30
0
11
64.25
21
26.5
31
0
70
32
71
5
72
1
41
1
210
0
220
0
230
1
3
Standard
100
AcDbAlignedDimension
13
51.5
23
19
33
0
14
51.5
24
22
34
0
50
90
100
AcDbRotatedDimension
1001
ACAD
1000
DSTYLE
1002
{
1070
    74
1070
     0
1070
   279
1070
     0
1070
   172
1070
     1
1070
   173
1070
     1
1070
   340
1005
14D
1070
   271
1070
     3
1070
   272
1070
     3
1070
    77
1070
     1
1070
    73
1070
     0
1070
   171
1070
     4
1070
   274
1070
     4
1070
   177
1070
     2
1070
   176
1070
     2
1070
   178
1070
     7
1070
    78
1070
     8
1070
    41
1041
3.0
1070
   147
1041
2.25
1070
    42
1041
1.5
1070
    44
1041
3.0
1070
   140
1041
4.5
1070
   343
1005
15F
1070
   344
1005
15F
1002
}
0
DIMENSION
5
181
100
AcDbEntity
8
2
62
256
6
ByLayer
370
13
48
1
60
0
100
AcDbDimension
2
DimnDraft3D3
10
74.25
20
0
30
0
11
74.25
21
8.311842
31
0
70
32
71
5
72
1
41
1
210
0
220
0
230
1
3
Standard
100
AcDbAlignedDimension
13
51.5
23
22
33
0
14
6.5
24
0
34
0
50
90
100
AcDbRotatedDimension
1001
ACAD
1000
DSTYLE
1002
{
1070
    74
1070
     0
1070
   279
1070
     0
1070
   172
1070
     1
1070
   173
1070
     1
1070
   340
1005
14D
1070
   271
1070
     3
1070
   272
1070
     3
1070
    77
1070
     1
1070
    73
1070
     0
1070
   171
1070
     4
1070
   274
1070
     4
1070
   177
1070
     2
1070
   176
1070
     2
1070
   178
1070
     7
1070
    78
1070
     8
1070
    41
1041
3.0
1070
   147
1041
2.25
1070
    42
1041
1.5
1070
    44
1041
3.0
1070
   140
1041
4.5
1070
   343
1005
15F
1070
   344
1005
15F
1002
}
0
DIMENSION
5
18F
100
AcDbEntity
8
2
62
256
6
ByLayer
370
13
48
1
60
0
100
AcDbDimension
2
DimnDraft3D4
10
50
20
31.75
30
0
11
22.311842
21
31.75
31
0
70
32
71
5
72
1
41
1
210
0
220
0
230
1
3
Standard
100
AcDbAlignedDimension
13
0
23
1.5
33
0
14
50
24
22
34
0
50
0
100
AcDbRotatedDimension
1001
ACAD
1000
DSTYLE
1002
{
1070
   279
1070
     0
1070
   172
1070
     1
1070
   173
1070
     1
1070
   340
1005
14D
1070
   271
1070
     3
1070
   272
1070
     3
1070
    77
1070
     1
1070
    73
1070
     0
1070
   171
1070
     4
1070
   274
1070
     4
1070
   177
1070
     2
1070
   176
1070
     2
1070
   178
1070
     7
1070
    78
1070
     8
1070
    41
1041
3.0
1070
   147
1041
2.25
1070
    42
1041
1.5
1070
    44
1041
3.0
1070
   140
1041
4.5
1070
   343
1005
15F
1070
   344
1005
15F
1002
}
0
DIMENSION
5
19D
100
AcDbEntity
8
2
62
256
6
ByLayer
370
13
48
1
60
0
100
AcDbDimension
2
DimnDraft3D5
10
50
20
-14.25
30
0
11
42.874342
21
-14.25
31
0
70
32
71
5
72
1
41
1
210
0
220
0
230
1
3
Standard
100
AcDbAlignedDimension
13
40
23
16.5
33
0
14
50
24
17.5
34
0
50
0
100
AcDbRotatedDimension
1001
ACAD
1000
DSTYLE
1002
{
1070
   279
1070
     0
1070
   172
1070
     1
1070
   173
1070
     1
1070
   340
1005
14D
1070
   271
1070
     3
1070
   272
1070
     3
1070
    77
1070
     1
1070
    73
1070
     0
1070
   171
1070
     4
1070
   274
1070
     4
1070
   177
1070
     2
1070
   176
1070
     2
1070
   178
1070
     7
1070
    78
1070
     8
1070
    41
1041
3.0
1070
   147
1041
2.25
1070
    42
1041
1.5
1070
    44
1041
3.0
1070
   140
1041
4.5
1070
   343
1005
15F
1070
   344
1005
15F
1002
}
0
ENDSEC
0
SECTION
2
OBJECTS
0
DICTIONARY
5
209
330
0
100
AcDbDictionary
280
0
281
1
3
ACAD_GROUP
350
20a
3
ACAD_MLINESTYLE
350
20b
0
DICTIONARY
5
20a
330
0
100
AcDbDictionary
280
0
281
1
0
DICTIONARY
5
20b
330
0
100
AcDbDictionary
280
0
281
1
3
Standard
350
18
0
MLINESTYLE
5
18
330
20b
100
AcDbMlineStyle
2
Standard
70
0
3

62
256
51
90
52
90
71
2
49
-0.5
62
256
6
ByLayer
49
0.5
62
256
6
ByLayer
0
RASTERVARIABLES
5
1f6
330

100
AcDbRasterVariables
90
0
70
1
71
1
72
1
0
ENDSEC
0
EOF
