0
SECTION
2
HEADER
9
$ACADVER
1
AC1015
9
$DWGCODEPAGE
3
ANSI_1252
9
$HANDSEED
5
208
9
$ANGBASE
50
0
9
$ANGDIR
70
0
9
$ATTMODE
70
1
9
$AUNITS
70
0
9
$AUPREC
70
0
9
$CECOLOR
62
256
9
$CELTSCALE
40
1
9
$CELTYPE
6
ByLayer
9
$CELWEIGHT
370
18
9
$CLAYER
8
0
9
$CMLJUST
70
0
9
$CMLSCALE
40
1
9
$CMLSTYLE
2
Standard
9
$DIMSTYLE
2
Standard
9
$TEXTSIZE
40
0.2
9
$TEXTSTYLE
7
Standard
9
$LUNITS
70
2
9
$LUPREC
70
4
9
$EXTNAMES
290
1
9
$INSUNITS
70
4
9
$LTSCALE
40
1
9
$LWDISPLAY
290
1
9
$PDMODE
70
0
9
$PDSIZE
40
0
9
$PLINEGEN
70
0
0
ENDSEC
0
SECTION
2
CLASSES
0
CLASS
1
RASTERVARIABLES
2
AcDbRasterVariables
3
ISM
90
0
280
0
281
0
0
ENDSEC
0
SECTION
2
TABLES
0
TABLE
2
VPORT
5
1fe
100
AcDbSymbolTable
0
VPORT
5
1
100
AcDbSymbolTableRecord
100
AcDbViewportTableRecord
2
*Active
70
0
10
0
20
0
11
1
21
1
12
-1
22
1
13
0
23
0
14
0.5
24
0.5
15
10
25
10
16
0
26
0
36
1
17
0
27
0
37
0
0
ENDTAB
0
TABLE
2
LTYPE
5
1ff
100
AcDbSymbolTable
0
LTYPE
5
14
100
AcDbSymbolTableRecord
100
AcDbLinetypeTableRecord
70
0
2
ByBlock
3

72
65
73
0
40
0
0
LTYPE
5
15
100
AcDbSymbolTableRecord
100
AcDbLinetypeTableRecord
70
0
2
ByLayer
3

72
65
73
0
40
0
0
LTYPE
5
16
100
AcDbSymbolTableRecord
100
AcDbLinetypeTableRecord
70
0
2
CONTINUOUS
3
Solid line
72
65
73
0
40
0
0
LTYPE
5
6A
100
AcDbSymbolTableRecord
100
AcDbLinetypeTableRecord
70
0
2
CENTER
3
____ _ ____ _ ____ _ ____
72
65
73
4
40
47.5
49
22
74
0
49
-8.5
74
0
49
8.5
74
0
49
-8.5
74
0
0
LTYPE
5
6B
100
AcDbSymbolTableRecord
100
AcDbLinetypeTableRecord
70
0
2
DASHED
3
__ __ __ __ __ __ __ __ __
72
65
73
2
40
25.72
49
12.86
74
0
49
-12.86
74
0
0
ENDTAB
0
TABLE
2
LAYER
5
200
100
AcDbSymbolTable
0
LAYER
5
10
100
AcDbSymbolTableRecord
100
AcDbLayerTableRecord
2
0
70
0
62
7
6
CONTINUOUS
290
1
370
-3
390
0
0
LAYER
5
6D
100
AcDbSymbolTableRecord
100
AcDbLayerTableRecord
2
2
70
0
62
7
6
CONTINUOUS
290
1
370
-3
390
0
0
LAYER
5
72
100
AcDbSymbolTableRecord
100
AcDbLayerTableRecord
2
80
70
0
62
-6
6
CONTINUOUS
290
1
370
-3
390
0
0
LAYER
5
74
100
AcDbSymbolTableRecord
100
AcDbLayerTableRecord
2
81
70
0
62
-3
6
CONTINUOUS
290
1
370
-3
390
0
0
LAYER
5
77
100
AcDbSymbolTableRecord
100
AcDbLayerTableRecord
2
1
70
0
62
4
6
CONTINUOUS
290
1
370
-3
390
0
0
LAYER
5
7D
100
AcDbSymbolTableRecord
100
AcDbLayerTableRecord
2
4
70
0
62
-2
6
CENTER
290
1
370
-3
390
0
0
LAYER
5
D5
100
AcDbSymbolTableRecord
100
AcDbLayerTableRecord
2
62
70
0
62
-5
6
CONTINUOUS
290
1
370
-3
390
0
0
LAYER
5
1e9
100
AcDbSymbolTableRecord
100
AcDbLayerTableRecord
2
CUT
70
0
62
-1
6
CONTINUOUS
290
1
370
-3
390
0
0
LAYER
5
1ea
100
AcDbSymbolTableRecord
100
AcDbLayerTableRecord
2
SK4
70
0
62
2
6
CENTER
290
1
370
-3
390
0
0
LAYER
5
1eb
100
AcDbSymbolTableRecord
100
AcDbLayerTableRecord
2
SK1
70
0
62
4
6
CONTINUOUS
290
1
370
-3
390
0
0
LAYER
5
1ec
100
AcDbSymbolTableRecord
100
AcDbLayerTableRecord
2
SK6
70
0
62
5
6
CONTINUOUS
290
1
370
-3
390
0
0
LAYER
5
1ed
100
AcDbSymbolTableRecord
100
AcDbLayerTableRecord
2
SK2
70
0
62
7
6
CONTINUOUS
290
1
370
-3
390
0
0
ENDTAB
0
TABLE
2
STYLE
5
201
100
AcDbSymbolTable
0
STYLE
5
11
100
AcDbSymbolTableRecord
100
AcDbTextStyleTableRecord
2
Standard
3
txt
70
0
71
0
40
0
41
1
42
0
50
0
0
STYLE
5
13F
100
AcDbSymbolTableRecord
100
AcDbTextStyleTableRecord
2
iso_b_vert
3
simplex.shx
70
0
71
0
40
0
41
1
42
0
50
0
0
STYLE
5
140
100
AcDbSymbolTableRecord
100
AcDbTextStyleTableRecord
2
DWGDirectTextStyle
3
simplex
70
0
71
0
40
0
41
1
42
0
50
0
0
ENDTAB
0
TABLE
2
DIMSTYLE
5
202
100
AcDbSymbolTable
100
AcDbDimStyleTable
0
DIMSTYLE
105
27
100
AcDbSymbolTableRecord
100
AcDbDimStyleTableRecord
2
Standard
70
0
3
<>
41
0.18
42
0.0625
44
0.18
140
0.18
147
0.09
73
0
74
0
77
1
271
2
275
0
278
52
280
0
340
11
0
ENDTAB
0
TABLE
2
VIEW
5
203
100
AcDbSymbolTable
0
ENDTAB
0
TABLE
2
UCS
5
204
100
AcDbSymbolTable
0
ENDTAB
0
TABLE
2
APPID
5
205
100
AcDbSymbolTable
0
APPID
5
12
100
AcDbSymbolTableRecord
100
AcDbRegAppTableRecord
2
ACAD
70
0
0
ENDTAB
0
TABLE
2
BLOCK_RECORD
5
206
100
AcDbSymbolTable
0
BLOCK_RECORD
5
1F
100
AcDbSymbolTableRecord
100
AcDbBlockTableRecord
2
*Model_Space
340
0
70
0
0
BLOCK_RECORD
5
1B
100
AcDbSymbolTableRecord
100
AcDbBlockTableRecord
2
*Paper_Space
340
0
70
0
0
BLOCK_RECORD
5
23
100
AcDbSymbolTableRecord
100
AcDbBlockTableRecord
2
*Paper_Space0
340
0
70
0
0
BLOCK_RECORD
5
142
100
AcDbSymbolTableRecord
100
AcDbBlockTableRecord
2
DimnDraft3D1
340
0
70
0
0
BLOCK_RECORD
5
151
100
AcDbSymbolTableRecord
100
AcDbBlockTableRecord
2
_CLOSED
340
0
70
0
0
BLOCK_RECORD
5
158
100
AcDbSymbolTableRecord
100
AcDbBlockTableRecord
2
DimnDraft3D2
340
0
70
0
0
BLOCK_RECORD
5
166
100
AcDbSymbolTableRecord
100
AcDbBlockTableRecord
2
DimnDraft3D3
340
0
70
0
0
BLOCK_RECORD
5
174
100
AcDbSymbolTableRecord
100
AcDbBlockTableRecord
2
DimnDraft3D4
340
0
70
0
0
BLOCK_RECORD
5
182
100
AcDbSymbolTableRecord
100
AcDbBlockTableRecord
2
DimnDraft3D5
340
0
70
0
0
ENDTAB
0
ENDSEC
0
SECTION
2
BLOCKS
0
BLOCK
5
20
100
AcDbEntity
8
0
100
AcDbBlockBegin
2
*Model_Space
70
0
10
0
20
0
30
0
3
*Model_Space
0
ENDBLK
5
21
100
AcDbEntity
8
0
100
AcDbBlockEnd
0
BLOCK
5
1C
100
AcDbEntity
8
0
100
AcDbBlockBegin
2
*Paper_Space
70
0
10
0
20
0
30
0
3
*Paper_Space
0
ENDBLK
5
1D
100
AcDbEntity
8
0
100
AcDbBlockEnd
0
BLOCK
5
24
100
AcDbEntity
8
0
100
AcDbBlockBegin
2
*Paper_Space0
70
0
10
0
20
0
30
0
3
*Paper_Space0
0
ENDBLK
5
25
100
AcDbEntity
8
0
100
AcDbBlockEnd
0
BLOCK
5
14E
100
AcDbEntity
8
0
100
AcDbBlockBegin
2
DimnDraft3D1
70
0
10
0
20
0
30
0
3
DimnDraft3D1
0
MTEXT
5
143
100
AcDbEntity
8
SK2
62
256
6
ByLayer
370
18
48
1
60
0
100
AcDbMText
10
-34.355
20
-1.563158
30
0
210
0
220
0
230
1
1
\W0.6740;32
40
4.5
41
0
44
1.084337
50
90
71
7
72
5
7
iso_b_vert
0
LINE
5
145
100
AcDbEntity
8
SK2
62
256
6
ByLayer
370
13
48
1
60
0
100
AcDbLine
10
-1.5
20
-16
30
0
11
-36.23
21
-16
31
0
39
0
210
0
220
0
230
1
0
LINE
5
146
100
AcDbEntity
8
SK2
62
256
6
ByLayer
370
13
48
1
60
0
100
AcDbLine
10
-1.5
20
16
30
0
11
-36.23
21
16
31
0
39
0
210
0
220
0
230
1
0
LINE
5
147
100
AcDbEntity
8
SK2
62
256
6
ByLayer
370
13
48
1
60
0
100
AcDbLine
10
-33.23
20
-16
30
0
11
-33.23
21
16
31
0
39
0
210
0
220
0
230
1
0
LINE
5
148
100
AcDbEntity
8
SK2
62
256
6
ByLayer
370
13
48
1
60
0
100
AcDbLine
10
-33.23
20
-16
30
0
11
-33.624957
21
-13.000001
31
0
39
0
210
0
220
0
230
1
0
LINE
5
149
100
AcDbEntity
8
SK2
62
256
6
ByLayer
370
13
48
1
60
0
100
AcDbLine
10
-33.23
20
-16
30
0
11
-32.835043
21
-12.999999
31
0
39
0
210
0
220
0
230
1
0
LINE
5
14A
100
AcDbEntity
8
SK2
62
256
6
ByLayer
370
13
48
1
60
0
100
AcDbLine
10
-33.624957
20
-13.000001
30
0
11
-32.835043
21
-12.999999
31
0
39
0
210
0
220
0
230
1
0
LINE
5
14B
100
AcDbEntity
8
SK2
62
256
6
ByLayer
370
13
48
1
60
0
100
AcDbLine
10
-33.23
20
16
30
0
11
-32.835043
21
13.000001
31
0
39
0
210
0
220
0
230
1
0
LINE
5
14C
100
AcDbEntity
8
SK2
62
256
6
ByLayer
370
13
48
1
60
0
100
AcDbLine
10
-33.23
20
16
30
0
11
-33.624957
21
12.999999
31
0
39
0
210
0
220
0
230
1
0
LINE
5
14D
100
AcDbEntity
8
SK2
62
256
6
ByLayer
370
13
48
1
60
0
100
AcDbLine
10
-32.835043
20
13.000001
30
0
11
-33.624957
21
12.999999
31
0
39
0
210
0
220
0
230
1
0
ENDBLK
5
14F
100
AcDbEntity
8
0
100
AcDbBlockEnd
0
BLOCK
5
152
100
AcDbEntity
8
0
100
AcDbBlockBegin
2
_CLOSED
70
0
10
0
20
0
30
0
3
_CLOSED
0
LINE
5
154
100
AcDbEntity
8
0
62
256
6
ByLayer
370
-2
48
1
60
0
100
AcDbLine
10
-1
20
0.166667
30
0
11
0
21
0
31
0
39
0
210
0
220
0
230
1
0
LINE
5
155
100
AcDbEntity
8
0
62
256
6
ByLayer
370
-2
48
1
60
0
100
AcDbLine
10
0
20
0
30
0
11
-1
21
-0.166667
31
0
39
0
210
0
220
0
230
1
0
LINE
5
156
100
AcDbEntity
8
0
62
256
6
ByLayer
370
-2
48
1
60
0
100
AcDbLine
10
-1
20
0.166667
30
0
11
-1
21
-0.166667
31
0
39
0
210
0
220
0
230
1
0
LINE
5
157
100
AcDbEntity
8
0
62
256
6
ByLayer
370
-2
48
1
60
0
100
AcDbLine
10
0
20
0
30
0
11
-1
21
0
31
0
39
0
210
0
220
0
230
1
0
ENDBLK
5
153
100
AcDbEntity
8
0
100
AcDbBlockEnd
0
BLOCK
5
163
100
AcDbEntity
8
0
100
AcDbBlockBegin
2
DimnDraft3D2
70
0
10
0
20
0
30
0
3
DimnDraft3D2
0
MTEXT
5
159
100
AcDbEntity
8
2
62
256
6
ByLayer
370
18
48
1
60
0
100
AcDbMText
10
63.125
20
27.625
30
0
210
0
220
0
230
1
1
\W0.5404;2
40
4.5
41
0
44
1.084337
50
90
71
7
72
5
7
iso_b_vert
0
LINE
5
15A
100
AcDbEntity
8
2
62
256
6
ByLayer
370
13
48
1
60
0
100
AcDbLine
10
51.5
20
20
30
0
11
67.25
21
20
31
0
39
0
210
0
220
0
230
1
0
LINE
5
15B
100
AcDbEntity
8
2
62
256
6
ByLayer
370
13
48
1
60
0
100
AcDbLine
10
51.5
20
22
30
0
11
67.25
21
22
31
0
39
0
210
0
220
0
230
1
0
LINE
5
15C
100
AcDbEntity
8
2
62
256
6
ByLayer
370
13
48
1
60
0
100
AcDbLine
10
64.25
20
28.513158
30
0
11
64.25
21
8.75
31
0
39
0
210
0
220
0
230
1
0
LINE
5
15D
100
AcDbEntity
8
2
62
256
6
ByLayer
370
13
48
1
60
0
100
AcDbLine
10
64.25
20
20
30
0
11
64.644957
21
17.000001
31
0
39
0
210
0
220
0
230
1
0
LINE
5
15E
100
AcDbEntity
8
2
62
256
6
ByLayer
370
13
48
1
60
0
100
AcDbLine
10
64.25
20
20
30
0
11
63.855043
21
16.999999
31
0
39
0
210
0
220
0
230
1
0
LINE
5
15F
100
AcDbEntity
8
2
62
256
6
ByLayer
370
13
48
1
60
0
100
AcDbLine
10
64.644957
20
17.000001
30
0
11
63.855043
21
16.999999
31
0
39
0
210
0
220
0
230
1
0
LINE
5
160
100
AcDbEntity
8
2
62
256
6
ByLayer
370
13
48
1
60
0
100
AcDbLine
10
64.25
20
22
30
0
11
63.855043
21
24.999999
31
0
39
0
210
0
220
0
230
1
0
LINE
5
161
100
AcDbEntity
8
2
62
256
6
ByLayer
370
13
48
1
60
0
100
AcDbLine
10
64.25
20
22
30
0
11
64.644957
21
25.000001
31
0
39
0
210
0
220
0
230
1
0
LINE
5
162
100
AcDbEntity
8
2
62
256
6
ByLayer
370
13
48
1
60
0
100
AcDbLine
10
63.855043
20
24.999999
30
0
11
64.644957
21
25.000001
31
0
39
0
210
0
220
0
230
1
0
ENDBLK
5
164
100
AcDbEntity
8
0
100
AcDbBlockEnd
0
BLOCK
5
171
100
AcDbEntity
8
0
100
AcDbBlockBegin
2
DimnDraft3D3
70
0
10
0
20
0
30
0
3
DimnDraft3D3
0
MTEXT
5
167
100
AcDbEntity
8
2
62
256
6
ByLayer
370
18
48
1
60
0
100
AcDbMText
10
73.125
20
9.436842
30
0
210
0
220
0
230
1
1
\W0.6740;22
40
4.5
41
0
44
1.084337
50
90
71
7
72
5
7
iso_b_vert
0
LINE
5
168
100
AcDbEntity
8
2
62
256
6
ByLayer
370
13
48
1
60
0
100
AcDbLine
10
51.5
20
22
30
0
11
77.25
21
22
31
0
39
0
210
0
220
0
230
1
0
LINE
5
169
100
AcDbEntity
8
2
62
256
6
ByLayer
370
13
48
1
60
0
100
AcDbLine
10
6.5
20
0
30
0
11
77.25
21
0
31
0
39
0
210
0
220
0
230
1
0
LINE
5
16A
100
AcDbEntity
8
2
62
256
6
ByLayer
370
13
48
1
60
0
100
AcDbLine
10
74.25
20
22
30
0
11
74.25
21
0
31
0
39
0
210
0
220
0
230
1
0
LINE
5
16B
100
AcDbEntity
8
2
62
256
6
ByLayer
370
13
48
1
60
0
100
AcDbLine
10
74.25
20
22
30
0
11
74.644957
21
19.000001
31
0
39
0
210
0
220
0
230
1
0
LINE
5
16C
100
AcDbEntity
8
2
62
256
6
ByLayer
370
13
48
1
60
0
100
AcDbLine
10
74.25
20
22
30
0
11
73.855043
21
18.999999
31
0
39
0
210
0
220
0
230
1
0
LINE
5
16D
100
AcDbEntity
8
2
62
256
6
ByLayer
370
13
48
1
60
0
100
AcDbLine
10
74.644957
20
19.000001
30
0
11
73.855043
21
18.999999
31
0
39
0
210
0
220
0
230
1
0
LINE
5
16E
100
AcDbEntity
8
2
62
256
6
ByLayer
370
13
48
1
60
0
100
AcDbLine
10
74.25
20
0
30
0
11
73.855043
21
2.999999
31
0
39
0
210
0
220
0
230
1
0
LINE
5
16F
100
AcDbEntity
8
2
62
256
6
ByLayer
370
13
48
1
60
0
100
AcDbLine
10
74.25
20
0
30
0
11
74.644957
21
3.000001
31
0
39
0
210
0
220
0
230
1
0
LINE
5
170
100
AcDbEntity
8
2
62
256
6
ByLayer
370
13
48
1
60
0
100
AcDbLine
10
73.855043
20
2.999999
30
0
11
74.644957
21
3.000001
31
0
39
0
210
0
220
0
230
1
0
ENDBLK
5
172
100
AcDbEntity
8
0
100
AcDbBlockEnd
0
BLOCK
5
17F
100
AcDbEntity
8
0
100
AcDbBlockBegin
2
DimnDraft3D4
70
0
10
0
20
0
30
0
3
DimnDraft3D4
0
MTEXT
5
175
100
AcDbEntity
8
2
62
256
6
ByLayer
370
18
48
1
60
0
100
AcDbMText
10
23.436842
20
32.875
30
0
210
0
220
0
230
1
1
\W0.6740;50
40
4.5
41
0
44
1.084337
50
0
71
7
72
5
7
iso_b_vert
0
LINE
5
176
100
AcDbEntity
8
2
62
256
6
ByLayer
370
13
48
1
60
0
100
AcDbLine
10
0
20
1.5
30
0
11
0
21
34.75
31
0
39
0
210
0
220
0
230
1
0
LINE
5
177
100
AcDbEntity
8
2
62
256
6
ByLayer
370
13
48
1
60
0
100
AcDbLine
10
50
20
22.5
30
0
11
50
21
34.75
31
0
39
0
210
0
220
0
230
1
0
LINE
5
178
100
AcDbEntity
8
2
62
256
6
ByLayer
370
13
48
1
60
0
100
AcDbLine
10
0
20
31.75
30
0
11
50
21
31.75
31
0
39
0
210
0
220
0
230
1
0
LINE
5
179
100
AcDbEntity
8
2
62
256
6
ByLayer
370
13
48
1
60
0
100
AcDbLine
10
0
20
31.75
30
0
11
2.999999
21
32.144957
31
0
39
0
210
0
220
0
230
1
0
LINE
5
17A
100
AcDbEntity
8
2
62
256
6
ByLayer
370
13
48
1
60
0
100
AcDbLine
10
0
20
31.75
30
0
11
3.000001
21
31.355043
31
0
39
0
210
0
220
0
230
1
0
LINE
5
17B
100
AcDbEntity
8
2
62
256
6
ByLayer
370
13
48
1
60
0
100
AcDbLine
10
2.999999
20
32.144957
30
0
11
3.000001
21
31.355043
31
0
39
0
210
0
220
0
230
1
0
LINE
5
17C
100
AcDbEntity
8
2
62
256
6
ByLayer
370
13
48
1
60
0
100
AcDbLine
10
50
20
31.75
30
0
11
47.000001
21
31.355043
31
0
39
0
210
0
220
0
230
1
0
LINE
5
17D
100
AcDbEntity
8
2
62
256
6
ByLayer
370
13
48
1
60
0
100
AcDbLine
10
50
20
31.75
30
0
11
46.999999
21
32.144957
31
0
39
0
210
0
220
0
230
1
0
LINE
5
17E
100
AcDbEntity
8
2
62
256
6
ByLayer
370
13
48
1
60
0
100
AcDbLine
10
47.000001
20
31.355043
30
0
11
46.999999
21
32.144957
31
0
39
0
210
0
220
0
230
1
0
ENDBLK
5
180
100
AcDbEntity
8
0
100
AcDbBlockEnd
0
BLOCK
5
18D
100
AcDbEntity
8
0
100
AcDbBlockBegin
2
DimnDraft3D5
70
0
10
0
20
0
30
0
3
DimnDraft3D5
0
MTEXT
5
183
100
AcDbEntity
8
2
62
256
6
ByLayer
370
18
48
1
60
0
100
AcDbMText
10
46.118421
20
-13.125
30
0
210
0
220
0
230
1
1
\W0.5404;8
40
4.5
41
0
44
1.084337
50
0
71
7
72
5
7
iso_b_vert
0
LINE
5
184
100
AcDbEntity
8
2
62
256
6
ByLayer
370
13
48
1
60
0
100
AcDbLine
10
42
20
17.5
30
0
11
42
21
-17.25
31
0
39
0
210
0
220
0
230
1
0
LINE
5
185
100
AcDbEntity
8
2
62
256
6
ByLayer
370
13
48
1
60
0
100
AcDbLine
10
50
20
18.5
30
0
11
50
21
-17.25
31
0
39
0
210
0
220
0
230
1
0
LINE
5
186
100
AcDbEntity
8
2
62
256
6
ByLayer
370
13
48
1
60
0
100
AcDbLine
10
30.75
20
-14.25
30
0
11
61.25
21
-14.25
31
0
39
0
210
0
220
0
230
1
0
LINE
5
187
100
AcDbEntity
8
2
62
256
6
ByLayer
370
13
48
1
60
0
100
AcDbLine
10
42
20
-14.25
30
0
11
39.000001
21
-14.644957
31
0
39
0
210
0
220
0
230
1
0
LINE
5
188
100
AcDbEntity
8
2
62
256
6
ByLayer
370
13
48
1
60
0
100
AcDbLine
10
42
20
-14.25
30
0
11
38.999999
21
-13.855043
31
0
39
0
210
0
220
0
230
1
0
LINE
5
189
100
AcDbEntity
8
2
62
256
6
ByLayer
370
13
48
1
60
0
100
AcDbLine
10
39.000001
20
-14.644957
30
0
11
38.999999
21
-13.855043
31
0
39
0
210
0
220
0
230
1
0
LINE
5
18A
100
AcDbEntity
8
2
62
256
6
ByLayer
370
13
48
1
60
0
100
AcDbLine
10
50
20
-14.25
30
0
11
52.999999
21
-13.855043
31
0
39
0
210
0
220
0
230
1
0
LINE
5
18B
100
AcDbEntity
8
2
62
256
6
ByLayer
370
13
48
1
60
0
100
AcDbLine
10
50
20
-14.25
30
0
11
53.000001
21
-14.644957
31
0
39
0
210
0
220
0
230
1
0
LINE
5
18C
100
AcDbEntity
8
2
62
256
6
ByLayer
370
13
48
1
60
0
100
AcDbLine
10
52.999999
20
-13.855043
30
0
11
53.000001
21
-14.644957
31
0
39
0
210
0
220
0
230
1
0
ENDBLK
5
18E
100
AcDbEntity
8
0
100
AcDbBlockEnd
0
ENDSEC
0
SECTION
2
ENTITIES
0
ARC
5
D2
100
AcDbEntity
8
SK1
62
256
6
ByLayer
370
18
48
1
60
0
100
AcDbCircle
39
0
10
0.6
20
-11.8
30
0
40
0.999999999999989
210
0
220
0
230
-1
100
AcDbArc
50
113.578178
51
126.869898
0
ARC
5
D3
100
AcDbEntity
8
SK1
62
256
6
ByLayer
370
18
48
1
60
0
100
AcDbCircle
39
0
10
0.6
20
11.8
30
0
40
0.999999999999989
210
0
220
0
230
-1
100
AcDbArc
50
233.130102
51
246.421822
0
ARC
5
D7
100
AcDbEntity
8
1
62
256
6
ByLayer
370
18
48
1
60
0
100
AcDbCircle
39
0
10
49.8
20
21.8
30
0
40
0.2
210
0
220
0
230
1
100
AcDbArc
50
360
51
92.5
0
ARC
5
D8
100
AcDbEntity
8
1
62
256
6
ByLayer
370
18
48
1
60
0
100
AcDbCircle
39
0
10
43.832089
20
21
30
0
40
0.500000000010875
210
0
220
0
230
1
100
AcDbArc
50
340
51
20
0
ARC
5
D9
100
AcDbEntity
8
1
62
256
6
ByLayer
370
18
48
1
60
0
100
AcDbCircle
39
0
10
-49.8
20
20.2
30
0
40
0.2
210
0
220
0
230
-1
100
AcDbArc
50
180
51
272.5
0
ARC
5
DA
100
AcDbEntity
8
1
62
256
6
ByLayer
370
18
48
1
60
0
100
AcDbCircle
39
0
10
36
20
13.5
30
0
40
1.416
210
0
220
0
230
1
100
AcDbArc
50
96.192438
51
150.190711
0
ARC
5
DB
100
AcDbEntity
8
1
62
256
6
ByLayer
370
18
48
1
60
0
100
AcDbCircle
39
0
10
36
20
13.5
30
0
40
1.416
210
0
220
0
230
1
100
AcDbArc
50
263.807562
51
276.192438
0
ARC
5
DC
100
AcDbEntity
8
1
62
256
6
ByLayer
370
18
48
1
60
0
100
AcDbCircle
39
0
10
36
20
13.5
30
0
40
1.9685
210
0
220
0
230
1
100
AcDbArc
50
120.381422
51
180
0
ARC
5
DD
100
AcDbEntity
8
1
62
256
6
ByLayer
370
18
48
1
60
0
100
AcDbCircle
39
0
10
36
20
13.5
30
0
40
1.416
210
0
220
0
230
1
100
AcDbArc
50
29.809289
51
83.807562
0
ARC
5
DE
100
AcDbEntity
8
1
62
256
6
ByLayer
370
18
48
1
60
0
100
AcDbCircle
39
0
10
36
20
13.5
30
0
40
1.416
210
0
220
0
230
1
100
AcDbArc
50
330.190711
51
29.809289
0
ARC
5
DF
100
AcDbEntity
8
1
62
256
6
ByLayer
370
18
48
1
60
0
100
AcDbCircle
39
0
10
36
20
13.5
30
0
40
1.9685
210
0
220
0
230
1
100
AcDbArc
50
239.618578
51
300.381422
0
ARC
5
E0
100
AcDbEntity
8
1
62
256
6
ByLayer
370
18
48
1
60
0
100
AcDbCircle
39
0
10
36
20
13.5
30
0
40
1.9685
210
0
220
0
230
1
100
AcDbArc
50
180
51
239.618578
0
ARC
5
E1
100
AcDbEntity
8
1
62
256
6
ByLayer
370
18
48
1
60
0
100
AcDbCircle
39
0
10
36
20
13.5
30
0
40
1.416
210
0
220
0
230
1
100
AcDbArc
50
83.807562
51
96.192438
0
ARC
5
E2
100
AcDbEntity
8
1
62
256
6
ByLayer
370
18
48
1
60
0
100
AcDbCircle
39
0
10
36
20
13.5
30
0
40
1.416
210
0
220
0
230
1
100
AcDbArc
50
276.192438
51
330.190711
0
ARC
5
E3
100
AcDbEntity
8
1
62
256
6
ByLayer
370
18
48
1
60
0
100
AcDbCircle
39
0
10
36
20
13.5
30
0
40
1.9685
210
0
220
0
230
1
100
AcDbArc
50
59.618578
51
120.381422
0
ARC
5
E4
100
AcDbEntity
8
1
62
256
6
ByLayer
370
18
48
1
60
0
100
AcDbCircle
39
0
10
36
20
13.5
30
0
40
1.9685
210
0
220
0
230
1
100
AcDbArc
50
360
51
59.618578
0
ARC
5
E5
100
AcDbEntity
8
1
62
256
6
ByLayer
370
18
48
1
60
0
100
AcDbCircle
39
0
10
36
20
13.5
30
0
40
1.416
210
0
220
0
230
1
100
AcDbArc
50
209.809289
51
263.807562
0
ARC
5
E6
100
AcDbEntity
8
1
62
256
6
ByLayer
370
18
48
1
60
0
100
AcDbCircle
39
0
10
36
20
13.5
30
0
40
1.416
210
0
220
0
230
1
100
AcDbArc
50
150.190711
51
209.809289
0
ARC
5
E7
100
AcDbEntity
8
1
62
256
6
ByLayer
370
18
48
1
60
0
100
AcDbCircle
39
0
10
36
20
13.5
30
0
40
1.9685
210
0
220
0
230
1
100
AcDbArc
50
300.381422
51
360
0
ARC
5
E8
100
AcDbEntity
8
1
62
256
6
ByLayer
370
18
48
1
60
0
100
AcDbCircle
39
0
10
42.1
20
18.65
30
0
40
1.59999999999985
210
0
220
0
230
1
100
AcDbArc
50
90
51
180
0
ARC
5
E9
100
AcDbEntity
8
1
62
256
6
ByLayer
370
18
48
1
60
0
100
AcDbCircle
39
0
10
-36
20
13.5
30
0
40
4.5
210
0
220
0
230
-1
100
AcDbArc
50
42.226776
51
70.487572
0
ARC
5
EA
100
AcDbEntity
8
1
62
256
6
ByLayer
370
18
48
1
60
0
100
AcDbCircle
39
0
10
36
20
13.5
30
0
40
4.49999999995535
210
0
220
0
230
1
100
AcDbArc
50
90
51
109.512428
0
ARC
5
EB
100
AcDbEntity
8
1
62
256
6
ByLayer
370
18
48
1
60
0
100
AcDbCircle
39
0
10
-36
20
13.5
30
0
40
4
210
0
220
0
230
-1
100
AcDbArc
50
0
51
90
0
ARC
5
EC
100
AcDbEntity
8
1
62
256
6
ByLayer
370
18
48
1
60
0
100
AcDbCircle
39
0
10
21
20
-4.020385
30
0
40
6.00000000000001
210
0
220
0
230
1
100
AcDbArc
50
112.350757
51
121.609715
0
ARC
5
EF
100
AcDbEntity
8
1
62
256
6
ByLayer
370
18
48
1
60
0
100
AcDbCircle
39
0
10
-30.2
20
21.8
30
0
40
0.2
210
0
220
0
230
-1
100
AcDbArc
50
0
51
92.5
0
CIRCLE
5
D4
100
AcDbEntity
8
62
62
256
6
ByLayer
370
18
48
1
60
0
100
AcDbCircle
10
36
20
13.5
30
0
40
4
39
0
210
0
220
0
230
1
0
CIRCLE
5
D6
100
AcDbEntity
8
62
62
256
6
ByLayer
370
18
48
1
60
0
100
AcDbCircle
10
36
20
13.5
30
0
40
4
39
0
210
0
220
0
230
1
0
CIRCLE
5
ED
100
AcDbEntity
8
1
62
256
6
ByLayer
370
18
48
1
60
0
100
AcDbCircle
10
-36
20
13.5
30
0
40
3.5
39
0
210
0
220
0
230
-1
0
CIRCLE
5
EE
100
AcDbEntity
8
1
62
256
6
ByLayer
370
18
48
1
60
0
100
AcDbCircle
10
-36
20
13.5
30
0
40
3
39
0
210
0
220
0
230
-1
0
ELLIPSE
5
F0
100
AcDbEntity
8
1
62
256
6
ByLayer
370
18
48
1
60
0
100
AcDbEllipse
10
44.295796
20
21.626449
30
0
11
-0.147082020100249
21
-0.0294428010615658
31
0
210
0
220
0
230
1
40
1
41
-0.197568125931764
42
0.151497731009392
0
ELLIPSE
5
F1
100
AcDbEntity
8
1
62
256
6
ByLayer
370
18
48
1
60
0
100
AcDbEllipse
10
44.295796
20
20.373551
30
0
11
-0.148176205342413
21
0.0233197631301521
31
0
210
0
220
0
230
1
40
1
41
-0.192967602947831
42
0.156098253951354
0
ELLIPSE
5
F2
100
AcDbEntity
8
1
62
256
6
ByLayer
370
18
48
1
60
0
100
AcDbEllipse
10
25.938238
20
19.47933
30
0
11
-1.29312292832616
21
1.02485759607721
31
0
210
0
220
0
230
1
40
0.65543
41
0
42
6.28318530717959
0
ELLIPSE
5
F3
100
AcDbEntity
8
1
62
256
6
ByLayer
370
18
48
1
60
0
100
AcDbEllipse
10
12.928203
20
0
30
0
11
-7.49393430382492
21
-15.7933993221992
31
0
210
0
220
0
230
1
40
0.341999
41
-1.08757920120057
42
-0.161466571197725
0
ELLIPSE
5
F4
100
AcDbEntity
8
1
62
256
6
ByLayer
370
18
48
1
60
0
100
AcDbEllipse
10
28.426787
20
16.954635
30
0
11
-0.0219275029313716
21
-1.53461760408174
31
0
210
0
220
0
230
1
40
0.107354
41
0
42
6.28318530717959
0
ELLIPSE
5
F5
100
AcDbEntity
8
1
62
256
6
ByLayer
370
18
48
1
60
0
100
AcDbEllipse
10
12.928203
20
0
30
0
11
-7.49393430382487
21
15.7933993221993
31
0
210
0
220
0
230
1
40
0.341999
41
0.16146657119772
42
1.08757920120057
0
ELLIPSE
5
F6
100
AcDbEntity
8
1
62
256
6
ByLayer
370
18
48
1
60
0
100
AcDbEllipse
10
-0.928203
20
0
30
0
11
-7.49393430382585
21
15.7933993222005
31
0
210
0
220
0
230
1
40
0.341999
41
-2.98012608239208
42
-2.05401345238928
0
ELLIPSE
5
F7
100
AcDbEntity
8
1
62
256
6
ByLayer
370
18
48
1
60
0
100
AcDbEllipse
10
39.495467
20
17.5
30
0
11
-0.714074003371073
21
1.67300875582041E-15
31
0
210
0
220
0
230
1
40
0.700208
41
3.14159265358979
42
-1.5707963267949
0
ELLIPSE
5
F8
100
AcDbEntity
8
1
62
256
6
ByLayer
370
18
48
1
60
0
100
AcDbEllipse
10
-0.928203
20
0
30
0
11
-7.49393430382631
21
-15.793399322201
31
0
210
0
220
0
230
1
40
0.341999
41
2.05401345238931
42
2.98012608239208
0
POINT
5
6C
100
AcDbEntity
8
2
62
256
6
ByLayer
370
18
48
1
60
0
100
AcDbPoint
10
50
20
22
30
0
39
0
210
0
220
0
230
1
50
360
0
POINT
5
6E
100
AcDbEntity
8
CUT
62
256
6
ByLayer
370
18
48
1
60
0
100
AcDbPoint
10
9
20
0
30
0
39
0
210
0
220
0
230
1
50
360
0
POINT
5
70
100
AcDbEntity
8
2
62
256
6
ByLayer
370
18
48
1
60
0
100
AcDbPoint
10
50
20
21
30
0
39
0
210
0
220
0
230
1
50
360
0
POINT
5
71
100
AcDbEntity
8
80
62
256
6
ByLayer
370
18
48
1
60
0
100
AcDbPoint
10
0
20
0
30
0
39
0
210
0
220
0
230
1
50
360
0
POINT
5
73
100
AcDbEntity
8
81
62
256
6
ByLayer
370
18
48
1
60
0
100
AcDbPoint
10
50
20
22
30
0
39
0
210
0
220
0
230
1
50
360
0
SPLINE
5
F9
100
AcDbEntity
8
SK1
62
256
6
ByLayer
370
18
48
1
60
0
100
AcDbSpline
70
4
71
2
72
6
73
3
40
0
40
0
40
0
40
1
40
1
40
1
41
1
10
-18
20
-10.6074546192069
30
0
41
1
10
-9.84999999997149
20
-10.8121484207173
30
0
41
1
10
-1.70000000000002
20
-11.0168420288686
30
0
0
SPLINE
5
FA
100
AcDbEntity
8
SK1
62
256
6
ByLayer
370
18
48
1
60
0
100
AcDbSpline
70
4
71
2
72
6
73
3
40
0
40
0
40
0
40
1
40
1
40
1
41
1
10
-1.69999999999999
20
11.0168421588455
30
0
41
1
10
-9.84999999997146
20
10.8121485451078
30
0
41
1
10
-18
20
10.6074547380105
30
0
0
SPLINE
5
FB
100
AcDbEntity
8
SK1
62
256
6
ByLayer
370
18
48
1
60
0
100
AcDbSpline
70
4
71
3
72
13
73
9
40
0
40
0
40
0
40
0
40
0.239456136642628
40
0.368359723042934
40
0.499998985161607
40
0.63163841625772
40
0.760542468443639
40
1
40
1
40
1
40
1
41
1
10
-1.70000000000002
20
-11.0200974665178
30
0
41
1
10
-1.69909198644035
20
-10.9940399940815
30
0
41
1
10
-1.69103284108789
20
-10.9566674150535
30
0
41
1
10
-1.66563592205245
20
-10.9104482477181
30
0
41
1
10
-1.63886378681494
20
-10.8791666984849
30
0
41
1
10
-1.60627712751969
20
-10.8539993323472
30
0
41
1
10
-1.55884064234823
20
-10.8309555342783
30
0
41
1
10
-1.52111030873553
20
-10.8247832816898
30
0
41
1
10
-1.49503997793931
20
-10.8251849228641
30
0
0
SPLINE
5
FC
100
AcDbEntity
8
SK1
62
256
6
ByLayer
370
18
48
1
60
0
100
AcDbSpline
70
4
71
3
72
13
73
9
40
0
40
0
40
0
40
0
40
0.239457531495147
40
0.368361583659749
40
0.500001014747379
40
0.631640276872677
40
0.760543863293349
40
1
40
1
40
1
40
1
41
1
10
-1.49503997793928
20
10.8251848163966
30
0
41
1
10
-1.5211103087367
20
10.824783175221
30
0
41
1
10
-1.55884064235042
20
10.8309554278117
30
0
41
1
10
-1.60627712752137
20
10.8539992258965
30
0
41
1
10
-1.63886378681656
20
10.8791665920526
30
0
41
1
10
-1.66563592205367
20
10.9104481413092
30
0
41
1
10
-1.69103284108888
20
10.9566673086801
30
0
41
1
10
-1.69909198644135
20
10.9940398877345
30
0
41
1
10
-1.69999999999999
20
11.0200973601888
30
0
0
SPLINE
5
FD
100
AcDbEntity
8
SK1
62
256
6
ByLayer
370
18
48
1
60
0
100
AcDbSpline
70
4
71
2
72
6
73
3
40
0
40
0
40
0
40
1
40
1
40
1
41
1
10
-19
20
-10.0324637535503
30
0
41
1
10
-18.4999999996377
20
-10.3211141428551
30
0
41
1
10
-18
20
-10.6097644106826
30
0
0
SPLINE
5
FE
100
AcDbEntity
8
SK1
62
256
6
ByLayer
370
18
48
1
60
0
100
AcDbSpline
70
4
71
2
72
6
73
3
40
0
40
0
40
0
40
1
40
1
40
1
41
1
10
-18
20
10.6097643575036
30
0
41
1
10
-18.499999999638
20
10.3211140865705
30
0
41
1
10
-19
20
10.0324636942008
30
0
0
SPLINE
5
FF
100
AcDbEntity
8
SK1
62
256
6
ByLayer
370
18
48
1
60
0
100
AcDbSpline
70
4
71
2
72
6
73
3
40
0
40
0
40
0
40
1
40
1
40
1
41
1
10
-1.49503997793931
20
-10.7285973110991
30
0
41
1
10
-0.94500843340731
20
-10.7423064506887
30
0
41
1
10
-0.394976888875306
20
-10.7560155899517
30
0
0
SPLINE
5
100
100
AcDbEntity
8
SK1
62
256
6
ByLayer
370
18
48
1
60
0
100
AcDbSpline
70
4
71
2
72
6
73
3
40
0
40
0
40
0
40
1
40
1
40
1
41
1
10
-0.394976888875277
20
10.7560155133454
30
0
41
1
10
-0.945008433407281
20
10.7423063740663
30
0
41
1
10
-1.49503997793928
20
10.7285972344608
30
0
0
SPLINE
5
101
100
AcDbEntity
8
SK1
62
256
6
ByLayer
370
18
48
1
60
0
100
AcDbSpline
70
4
71
3
72
22
73
18
40
0
40
0
40
0
40
0
40
0.0396544331046608
40
0.0396544331046608
40
0.0801222492308816
40
0.0801222492308816
40
0.107131619214115
40
0.107131619214115
40
0.134020098154982
40
0.134020098154982
40
0.176773802526564
40
0.176773802526564
40
0.259975822781828
40
0.259975822781828
40
0.549603920367538
40
0.549603920367538
40
1
40
1
40
1
40
1
41
1
10
-0.394976888875306
20
-10.7863556154697
30
0
41
1
10
-0.38970263967866
20
-10.7870422282048
30
0
41
1
10
-0.383949255474278
20
-10.787901693367
30
0
41
1
10
-0.371341349893669
20
-10.7901447377048
30
0
41
1
10
-0.364243586661786
20
-10.7915871586324
30
0
41
1
10
-0.352098900524425
20
-10.7944788307469
30
0
41
1
10
-0.347036906174168
20
-10.7957979077191
30
0
41
1
10
-0.337425084029832
20
-10.798522674748
30
0
41
1
10
-0.332766016460454
20
-10.7999559337413
30
0
41
1
10
-0.321717088695237
20
-10.8035790811787
30
0
41
1
10
-0.315694378191665
20
-10.8057810587444
30
0
41
1
10
-0.300169598666315
20
-10.8118410319123
30
0
41
1
10
-0.292195204421006
20
-10.8154752639726
30
0
41
1
10
-0.261918491650476
20
-10.8302075808718
30
0
41
1
10
-0.249810830339101
20
-10.8386591321433
30
0
41
1
10
-0.224404270577679
20
-10.8568594774146
30
0
41
1
10
-0.21489740150264
20
-10.8649392168704
30
0
41
1
10
-0.209066686120224
20
-10.8707067341029
30
0
0
SPLINE
5
102
100
AcDbEntity
8
SK1
62
256
6
ByLayer
370
18
48
1
60
0
100
AcDbSpline
70
4
71
3
72
113
73
109
40
0
40
0
40
0
40
0
40
0.0068017930255078
40
0.0149960167145572
40
0.0231902404036067
40
0.0313844640926561
40
0.047772911470755
40
0.0641613588488538
40
0.0805498062269527
40
0.0969382536050516
40
0.105132477294101
40
0.11332670098315
40
0.1215209246722
40
0.129715148361249
40
0.146103595739348
40
0.154297819428398
40
0.162492043117447
40
0.170686266806497
40
0.178880490495546
40
0.187074714184595
40
0.195268937873645
40
0.203463161562694
40
0.211657385251744
40
0.219851608940793
40
0.228045832629842
40
0.236240056318892
40
0.244434280007941
40
0.252628503696991
40
0.26082272738604
40
0.26901695107509
40
0.277211174764139
40
0.285405398453189
40
0.293599622142238
40
0.301793845831287
40
0.309988069520337
40
0.326376516898436
40
0.342764964276535
40
0.350959187965584
40
0.359153411654633
40
0.367347635343683
40
0.375541859032732
40
0.383736082721782
40
0.391930306410831
40
0.400124530099881
40
0.40831875378893
40
0.424707201167029
40
0.441095648545128
40
0.449289872234177
40
0.457484095923227
40
0.465678319612276
40
0.473872543301326
40
0.482066766990375
40
0.490260990679425
40
0.498455214368474
40
0.506649438057523
40
0.523037885435622
40
0.539426332813721
40
0.547620556502771
40
0.55581478019182
40
0.56400900388087
40
0.572203227569919
40
0.580397451258968
40
0.588591674948018
40
0.596785898637067
40
0.604980122326117
40
0.621368569704216
40
0.637757017082314
40
0.645951240771364
40
0.654145464460413
40
0.662339688149463
40
0.670533911838512
40
0.678728135527562
40
0.686922359216611
40
0.69511658290566
40
0.70331080659471
40
0.711505030283759
40
0.719699253972809
40
0.727893477661858
40
0.736087701350907
40
0.744281925039957
40
0.752476148729006
40
0.760670372418056
40
0.768864596107105
40
0.777058819796155
40
0.785253043485204
40
0.801641490863303
40
0.818029938241402
40
0.834418385619501
40
0.8508068329976
40
0.867195280375698
40
0.875389504064748
40
0.883583727753797
40
0.891777951442847
40
0.899972175131896
40
0.908166398820946
40
0.916360622509995
40
0.924554846199045
40
0.932749069888094
40
0.940943293577143
40
0.949137517266193
40
0.957331740955242
40
0.965525964644292
40
0.973720188333341
40
0.981914412022391
40
0.99010863571144
40
0.994205747555965
40
0.998302859400489
40
1
40
1
40
1
40
1
41
1
10
-1.69999999999999
20
11.0168257861254
30
0
41
1
10
-1.69999999999999
20
11.0159250073606
30
0
41
1
10
-1.69999999999999
20
11.0135340498781
30
0
41
1
10
-1.69999999999999
20
11.0084756345047
30
0
41
1
10
-1.69999999999999
20
11.0015627517286
30
0
41
1
10
-1.69999999999999
20
10.9903135656216
30
0
41
1
10
-1.69999999999999
20
10.9724987271428
30
0
41
1
10
-1.69999999999999
20
10.9453046871603
30
0
41
1
10
-1.69999999999999
20
10.9124599273338
30
0
41
1
10
-1.69999999999999
20
10.8805066572373
30
0
41
1
10
-1.69999999999999
20
10.8522711554431
30
0
41
1
10
-1.69999999999999
20
10.8297709040831
30
0
41
1
10
-1.69999999999999
20
10.805964526766
30
0
41
1
10
-1.69999999999999
20
10.7725058279894
30
0
41
1
10
-1.69999999999999
20
10.7364870109124
30
0
41
1
10
-1.69999999999999
20
10.6979846247737
30
0
41
1
10
-1.69999999999999
20
10.667871716058
30
0
41
1
10
-1.69999999999999
20
10.6365384864303
30
0
41
1
10
-1.69999999999999
20
10.6039972898543
30
0
41
1
10
-1.69999999999999
20
10.5702601848038
30
0
41
1
10
-1.69999999999999
20
10.5353389624728
30
0
41
1
10
-1.69999999999999
20
10.4992449887466
30
0
41
1
10
-1.69999999999999
20
10.4619889498579
30
0
41
1
10
-1.69999999999999
20
10.4235819316408
30
0
41
1
10
-1.69999999999999
20
10.3840337022625
30
0
41
1
10
-1.69999999999999
20
10.3433544990447
30
0
41
1
10
-1.69999999999999
20
10.3015538720295
30
0
41
1
10
-1.69999999999999
20
10.2586409327216
30
0
41
1
10
-1.69999999999999
20
10.2146249480068
30
0
41
1
10
-1.69999999999999
20
10.1695147146772
30
0
41
1
10
-1.69999999999999
20
10.1233184687774
30
0
41
1
10
-1.69999999999999
20
10.0760448810433
30
0
41
1
10
-1.69999999999999
20
10.027701522966
30
0
41
1
10
-1.69999999999999
20
9.97829626766935
30
0
41
1
10
-1.69999999999999
20
9.91102211065424
30
0
41
1
10
-1.69999999999999
20
9.8242999772026
30
0
41
1
10
-1.69999999999999
20
9.73413471042335
30
0
41
1
10
-1.69999999999999
20
9.65997272044626
30
0
41
1
10
-1.69999999999999
20
9.60333356924752
30
0
41
1
10
-1.69999999999999
20
9.54568704168656
30
0
41
1
10
-1.69999999999999
20
9.48703893408202
30
0
41
1
10
-1.69999999999999
20
9.42739551695706
30
0
41
1
10
-1.69999999999999
20
9.36676193872179
30
0
41
1
10
-1.69999999999999
20
9.3051437774476
30
0
41
1
10
-1.69999999999999
20
9.22168704652844
30
0
41
1
10
-1.69999999999999
20
9.11491649636679
30
0
41
1
10
-1.69999999999999
20
9.00493248750243
30
0
41
1
10
-1.69999999999999
20
8.9150475069234
30
0
41
1
10
-1.69999999999999
20
8.84667845516583
30
0
41
1
10
-1.69999999999999
20
8.77736342146704
30
0
41
1
10
-1.69999999999999
20
8.707106481632
30
0
41
1
10
-1.69999999999999
20
8.63591216394966
30
0
41
1
10
-1.69999999999999
20
8.56378402232568
30
0
41
1
10
-1.69999999999999
20
8.49072598449763
30
0
41
1
10
-1.69999999999999
20
8.39208806457805
30
0
41
1
10
-1.69999999999999
20
8.26646749990718
30
0
41
1
10
-1.69999999999999
20
8.13779573224099
30
0
41
1
10
-1.69999999999999
20
8.0330544924083
30
0
41
1
10
-1.69999999999999
20
7.95358683542918
30
0
41
1
10
-1.69999999999999
20
7.87321640404122
30
0
41
1
10
-1.69999999999999
20
7.79194600202328
30
0
41
1
10
-1.69999999999999
20
7.70977883874548
30
0
41
1
10
-1.69999999999999
20
7.62671726605947
30
0
41
1
10
-1.69999999999999
20
7.54276403355829
30
0
41
1
10
-1.69999999999999
20
7.42964989475425
30
0
41
1
10
-1.69999999999999
20
7.28602039903603
30
0
41
1
10
-1.69999999999999
20
7.13945164867536
30
0
41
1
10
-1.69999999999999
20
7.0204585412456
30
0
41
1
10
-1.69999999999999
20
6.93033109954712
30
0
41
1
10
-1.69999999999999
20
6.83933016168689
30
0
41
1
10
-1.69999999999999
20
6.74745760354551
30
0
41
1
10
-1.69999999999999
20
6.6547154979545
30
0
41
1
10
-1.69999999999999
20
6.56110537660942
30
0
41
1
10
-1.69999999999999
20
6.46662906510224
30
0
41
1
10
-1.69999999999999
20
6.37128819193615
30
0
41
1
10
-1.69999999999999
20
6.27508414397229
30
0
41
1
10
-1.69999999999999
20
6.17801861138651
30
0
41
1
10
-1.69999999999999
20
6.08009295106382
30
0
41
1
10
-1.69999999999999
20
5.98130844183515
30
0
41
1
10
-1.69999999999999
20
5.88166662352432
30
0
41
1
10
-1.69999999999999
20
5.7811685540097
30
0
41
1
10
-1.69999999999999
20
5.67981554633889
30
0
41
1
10
-1.69999999999999
20
5.57760872375084
30
0
41
1
10
-1.69999999999999
20
5.47454903301667
30
0
41
1
10
-1.69999999999999
20
5.33601329758696
30
0
41
1
10
-1.69999999999999
20
5.16068772031301
30
0
41
1
10
-1.69999999999999
20
4.94691863630067
30
0
41
1
10
-1.69999999999999
20
4.72976236922625
30
0
41
1
10
-1.69999999999999
20
4.50922638794765
30
0
41
1
10
-1.69999999999999
20
4.32262158144502
30
0
41
1
10
-1.69999999999999
20
4.171683851729
30
0
41
1
10
-1.69999999999999
20
4.05762856057328
30
0
41
1
10
-1.69999999999999
20
3.94273458524899
30
0
41
1
10
-1.69999999999999
20
3.8270034595304
30
0
41
1
10
-1.69999999999999
20
3.71043651779695
30
0
41
1
10
-1.69999999999999
20
3.5930354415236
30
0
41
1
10
-1.69999999999999
20
3.47480210546814
30
0
41
1
10
-1.69999999999999
20
3.3557387899657
30
0
41
1
10
-1.69999999999999
20
3.23584780039647
30
0
41
1
10
-1.69999999999999
20
3.11513187517292
30
0
41
1
10
-1.69999999999999
20
2.993594380779
30
0
41
1
10
-1.69999999999999
20
2.87123918356852
30
0
41
1
10
-1.69999999999999
20
2.74807054514892
30
0
41
1
10
-1.69999999999999
20
2.62409378657779
30
0
41
1
10
-1.69999999999999
20
2.52010006268682
30
0
41
1
10
-1.69999999999999
20
2.43652882976181
30
0
41
1
10
-1.69999999999999
20
2.38592951909064
30
0
41
1
10
-1.69999999999999
20
2.35621966593379
30
0
41
1
10
-1.69999999999999
20
2.34751178615289
30
0
0
SPLINE
5
103
100
AcDbEntity
8
SK1
62
256
6
ByLayer
370
18
48
1
60
0
100
AcDbSpline
70
4
71
3
72
114
73
110
40
0
40
0
40
0
40
0
40
0.0016971436391288
40
0.0057942553254775
40
0.0098913670118262
40
0.0180855903845236
40
0.026279813757221
40
0.0344740371299184
40
0.0426682605026158
40
0.0508624838753132
40
0.0590567072480106
40
0.067250930620708
40
0.0754451539934054
40
0.0836393773661028
40
0.0918336007388002
40
0.100027824111498
40
0.108222047484195
40
0.116416270856892
40
0.12461049422959
40
0.132804717602287
40
0.140998940974985
40
0.149193164347682
40
0.165581611093077
40
0.181970057838472
40
0.198358504583867
40
0.214746951329261
40
0.222941174701959
40
0.231135398074656
40
0.239329621447354
40
0.247523844820051
40
0.255718068192748
40
0.263912291565446
40
0.272106514938143
40
0.280300738310841
40
0.288494961683538
40
0.296689185056235
40
0.304883408428933
40
0.31307763180163
40
0.321271855174327
40
0.329466078547025
40
0.337660301919722
40
0.34585452529242
40
0.354048748665117
40
0.362242972037815
40
0.378631418783209
40
0.395019865528604
40
0.403214088901302
40
0.411408312273999
40
0.419602535646696
40
0.427796759019394
40
0.435990982392091
40
0.444185205764788
40
0.452379429137486
40
0.460573652510183
40
0.476962099255578
40
0.493350546000973
40
0.50154476937367
40
0.509738992746368
40
0.517933216119065
40
0.526127439491763
40
0.53432166286446
40
0.542515886237157
40
0.550710109609855
40
0.558904332982552
40
0.575292779727947
40
0.591681226473342
40
0.599875449846039
40
0.608069673218737
40
0.616263896591434
40
0.624458119964131
40
0.632652343336829
40
0.640846566709526
40
0.649040790082224
40
0.657235013454921
40
0.673623460200316
40
0.690011906945711
40
0.698206130318408
40
0.706400353691105
40
0.714594577063803
40
0.7227888004365
40
0.730983023809198
40
0.739177247181895
40
0.747371470554592
40
0.75556569392729
40
0.763759917299987
40
0.771954140672685
40
0.780148364045382
40
0.78834258741808
40
0.796536810790777
40
0.804731034163474
40
0.812925257536172
40
0.821119480908869
40
0.829313704281566
40
0.837507927654264
40
0.845702151026961
40
0.853896374399659
40
0.870284821145053
40
0.878479044517751
40
0.886673267890448
40
0.894867491263146
40
0.903061714635843
40
0.919450161381238
40
0.935838608126633
40
0.952227054872027
40
0.968615501617422
40
0.97680972499012
40
0.985003948362817
40
0.993198171735515
40
1
40
1
40
1
40
1
41
1
10
-1.69999999999999
20
-2.34751168175015
30
0
41
1
10
-1.69999999999999
20
-2.35621957733798
30
0
41
1
10
-1.69999999999999
20
-2.38592944625574
30
0
41
1
10
-1.69999999999999
20
-2.43652877485599
30
0
41
1
10
-1.69999999999999
20
-2.52010001413041
30
0
41
1
10
-1.69999999999999
20
-2.62409374349514
30
0
41
1
10
-1.69999999999999
20
-2.74807047639385
30
0
41
1
10
-1.69999999999999
20
-2.8712390381817
30
0
41
1
10
-1.69999999999999
20
-2.99359419383882
30
0
41
1
10
-1.69999999999999
20
-3.115131944757
30
0
41
1
10
-1.70000000000002
20
-3.23584791746731
30
0
41
1
10
-1.70000000000002
20
-3.35573880021465
30
0
41
1
10
-1.70000000000002
20
-3.47480199284001
30
0
41
1
10
-1.70000000000002
20
-3.59303526241621
30
0
41
1
10
-1.70000000000002
20
-3.71043643743553
30
0
41
1
10
-1.70000000000002
20
-3.82700351079481
30
0
41
1
10
-1.70000000000002
20
-3.94273451640885
30
0
41
1
10
-1.70000000000002
20
-4.05762829513469
30
0
41
1
10
-1.70000000000002
20
-4.17168365277391
30
0
41
1
10
-1.70000000000002
20
-4.28489934734066
30
0
41
1
10
-1.70000000000002
20
-4.39727377856164
30
0
41
1
10
-1.70000000000002
20
-4.54596815109079
30
0
41
1
10
-1.70000000000002
20
-4.72976235068387
30
0
41
1
10
-1.70000000000002
20
-4.94691859926491
30
0
41
1
10
-1.70000000000002
20
-5.16068767245523
30
0
41
1
10
-1.70000000000002
20
-5.33601327110074
30
0
41
1
10
-1.70000000000002
20
-5.4745489994917
30
0
41
1
10
-1.70000000000002
20
-5.57760868171391
30
0
41
1
10
-1.70000000000002
20
-5.67981550565051
30
0
41
1
10
-1.70000000000002
20
-5.78116852113124
30
0
41
1
10
-1.70000000000002
20
-5.88166659485614
30
0
41
1
10
-1.70000000000002
20
-5.98130841102724
30
0
41
1
10
-1.70000000000002
20
-6.08009291387742
30
0
41
1
10
-1.70000000000002
20
-6.17801857115037
30
0
41
1
10
-1.70000000000002
20
-6.27508411030436
30
0
41
1
10
-1.70000000000002
20
-6.37128816532112
30
0
41
1
10
-1.70000000000002
20
-6.46662903768907
30
0
41
1
10
-1.70000000000002
20
-6.56110534348878
30
0
41
1
10
-1.70000000000002
20
-6.65471546144812
30
0
41
1
10
-1.70000000000002
20
-6.74745756863808
30
0
41
1
10
-1.70000000000002
20
-6.83933013294538
30
0
41
1
10
-1.70000000000002
20
-6.93033107540649
30
0
41
1
10
-1.70000000000002
20
-7.02045851391139
30
0
41
1
10
-1.70000000000002
20
-7.13945161440037
30
0
41
1
10
-1.70000000000002
20
-7.28602036791511
30
0
41
1
10
-1.70000000000002
20
-7.42964987262871
30
0
41
1
10
-1.70000000000002
20
-7.54276400792273
30
0
41
1
10
-1.70000000000002
20
-7.62671723619306
30
0
41
1
10
-1.70000000000002
20
-7.70977880868622
30
0
41
1
10
-1.70000000000002
20
-7.79194597495291
30
0
41
1
10
-1.70000000000002
20
-7.87321638075602
30
0
41
1
10
-1.70000000000002
20
-7.95358681402573
30
0
41
1
10
-1.70000000000002
20
-8.0330544688868
30
0
41
1
10
-1.70000000000002
20
-8.13779570521024
30
0
41
1
10
-1.70000000000002
20
-8.26646747522287
30
0
41
1
10
-1.70000000000002
20
-8.39208804491184
30
0
41
1
10
-1.70000000000002
20
-8.49072596407868
30
0
41
1
10
-1.70000000000002
20
-8.56378400031386
30
0
41
1
10
-1.70000000000002
20
-8.63591214139896
30
0
41
1
10
-1.70000000000002
20
-8.70710645983874
30
0
41
1
10
-1.70000000000002
20
-8.77736340151236
30
0
41
1
10
-1.70000000000002
20
-8.84667843706413
30
0
41
1
10
-1.70000000000002
20
-8.91504748954583
30
0
41
1
10
-1.70000000000002
20
-9.00493246986304
30
0
41
1
10
-1.70000000000002
20
-9.11491647650138
30
0
41
1
10
-1.70000000000002
20
-9.22168702931728
30
0
41
1
10
-1.70000000000002
20
-9.30514376314053
30
0
41
1
10
-1.70000000000002
20
-9.36676192571935
30
0
41
1
10
-1.70000000000002
20
-9.42739550269755
30
0
41
1
10
-1.70000000000002
20
-9.48703891782515
30
0
41
1
10
-1.70000000000002
20
-9.54568702498426
30
0
41
1
10
-1.70000000000002
20
-9.60333355436057
30
0
41
1
10
-1.70000000000002
20
-9.65997270948603
30
0
41
1
10
-1.70000000000002
20
-9.73413470277157
30
0
41
1
10
-1.70000000000002
20
-9.82429996242755
30
0
41
1
10
-1.70000000000002
20
-9.91102209624654
30
0
41
1
10
-1.70000000000002
20
-9.9782962601187
30
0
41
1
10
-1.70000000000002
20
-10.0277015194443
30
0
41
1
10
-1.70000000000002
20
-10.0760448746501
30
0
41
1
10
-1.70000000000002
20
-10.1233184572166
30
0
41
1
10
-1.70000000000002
20
-10.1695147015167
30
0
41
1
10
-1.70000000000002
20
-10.214624938185
30
0
41
1
10
-1.70000000000002
20
-10.2586409300894
30
0
41
1
10
-1.70000000000002
20
-10.3015538731596
30
0
41
1
10
-1.70000000000002
20
-10.3433544952797
30
0
41
1
10
-1.70000000000002
20
-10.3840336911891
30
0
41
1
10
-1.70000000000002
20
-10.4235819208782
30
0
41
1
10
-1.70000000000002
20
-10.4619889454751
30
0
41
1
10
-1.70000000000002
20
-10.4992449917908
30
0
41
1
10
-1.70000000000002
20
-10.5353389668746
30
0
41
1
10
-1.70000000000002
20
-10.5702601801729
30
0
41
1
10
-1.70000000000002
20
-10.6039972784095
30
0
41
1
10
-1.70000000000002
20
-10.6365384804889
30
0
41
1
10
-1.70000000000002
20
-10.6678717210084
30
0
41
1
10
-1.70000000000002
20
-10.6979846325427
30
0
41
1
10
-1.70000000000002
20
-10.7364870112034
30
0
41
1
10
-1.70000000000002
20
-10.7725058156908
30
0
41
1
10
-1.70000000000002
20
-10.8059645321906
30
0
41
1
10
-1.70000000000002
20
-10.8297709184935
30
0
41
1
10
-1.70000000000002
20
-10.8522711614578
30
0
41
1
10
-1.70000000000002
20
-10.8805066448562
30
0
41
1
10
-1.70000000000002
20
-10.9124599417153
30
0
41
1
10
-1.70000000000002
20
-10.9453046900679
30
0
41
1
10
-1.70000000000002
20
-10.9724987368511
30
0
41
1
10
-1.70000000000002
20
-10.9903135336491
30
0
41
1
10
-1.70000000000002
20
-11.0015624988159
30
0
41
1
10
-1.70000000000002
20
-11.0084752989365
30
0
41
1
10
-1.70000000000002
20
-11.0135338002806
30
0
41
1
10
-1.70000000000002
20
-11.0159248555
30
0
41
1
10
-1.70000000000002
20
-11.0168256815607
30
0
0
SPLINE
5
104
100
AcDbEntity
8
SK1
62
256
6
ByLayer
370
18
48
1
60
0
100
AcDbSpline
70
4
71
3
72
282
73
278
40
0
40
0
40
0
40
0
40
0.0005689135858494
40
0.0040614394026086
40
0.0075539652193678
40
0.0110464910361269
40
0.0145390168528861
40
0.0180315426696453
40
0.0215240684864045
40
0.0250165943031637
40
0.0320016459366821
40
0.0389866975702004
40
0.0459717492037189
40
0.0529568008372372
40
0.0564493266539964
40
0.0599418524707556
40
0.0634343782875148
40
0.066926904104274
40
0.0739119557377924
40
0.0774044815545515
40
0.0808970073713107
40
0.0843895331880699
40
0.0878820590048291
40
0.0913745848215883
40
0.0948671106383475
40
0.0983596364551067
40
0.101852162271866
40
0.105344688088625
40
0.108837213905384
40
0.112329739722143
40
0.115822265538903
40
0.119314791355662
40
0.122807317172421
40
0.12629984298918
40
0.129792368805939
40
0.133284894622699
40
0.136777420439458
40
0.140269946256217
40
0.143762472072976
40
0.150747523706494
40
0.157732575340013
40
0.161225101156772
40
0.164717626973531
40
0.16821015279029
40
0.17170267860705
40
0.175195204423809
40
0.178687730240568
40
0.182180256057327
40
0.185672781874086
40
0.192657833507605
40
0.199642885141123
40
0.203135410957882
40
0.206627936774642
40
0.210120462591401
40
0.21361298840816
40
0.217105514224919
40
0.220598040041678
40
0.224090565858438
40
0.227583091675197
40
0.234568143308715
40
0.241553194942233
40
0.245045720758993
40
0.248538246575752
40
0.252030772392511
40
0.25552329820927
40
0.259015824026029
40
0.262508349842788
40
0.266000875659548
40
0.269493401476307
40
0.276478453109825
40
0.283463504743344
40
0.286956030560103
40
0.290448556376862
40
0.293941082193621
40
0.29743360801038
40
0.30092613382714
40
0.304418659643899
40
0.307911185460658
40
0.311403711277417
40
0.314896237094177
40
0.318388762910936
40
0.321881288727695
40
0.325373814544454
40
0.328866340361213
40
0.332358866177972
40
0.335851391994732
40
0.339343917811491
40
0.34283644362825
40
0.346328969445009
40
0.353314021078528
40
0.360299072712046
40
0.367284124345564
40
0.374269175979083
40
0.381254227612601
40
0.38474675342936
40
0.388239279246119
40
0.391731805062879
40
0.395224330879638
40
0.398716856696397
40
0.402209382513156
40
0.405701908329915
40
0.409194434146675
40
0.412686959963434
40
0.416179485780193
40
0.419672011596952
40
0.423164537413711
40
0.42665706323047
40
0.43014958904723
40
0.433642114863989
40
0.435388377772368
40
0.437134640680748
40
0.440627166497507
40
0.444119692314266
40
0.447612218131026
40
0.451104743947785
40
0.454597269764544
40
0.458089795581303
40
0.461582321398062
40
0.465074847214822
40
0.466821110123201
40
0.468567373031581
40
0.47031363593996
40
0.47205989884834
40
0.47380616175672
40
0.475552424665099
40
0.477298687573479
40
0.479044950481858
40
0.480791213390238
40
0.482537476298618
40
0.484283739206997
40
0.486030002115377
40
0.487776265023756
40
0.489522527932136
40
0.491268790840515
40
0.493015053748895
40
0.494761316657275
40
0.496507579565654
40
0.498253842474034
40
0.500000105382413
40
0.501746368290793
40
0.503492631199173
40
0.505238894107552
40
0.506985157015932
40
0.508731419924311
40
0.510477682832691
40
0.512223945741071
40
0.51397020864945
40
0.51571647155783
40
0.517462734466209
40
0.519208997374589
40
0.520955260282969
40
0.522701523191348
40
0.524447786099728
40
0.526194049008107
40
0.527940311916487
40
0.529686574824866
40
0.531432837733246
40
0.533179100641626
40
0.534925363550005
40
0.538417889366765
40
0.541910415183524
40
0.545402941000283
40
0.548895466817042
40
0.552387992633801
40
0.555880518450561
40
0.55937304426732
40
0.562865570084079
40
0.564611832992459
40
0.566358095900838
40
0.569850621717597
40
0.573343147534357
40
0.576835673351116
40
0.580328199167875
40
0.583820724984634
40
0.587313250801393
40
0.590805776618153
40
0.594298302434912
40
0.597790828251671
40
0.60128335406843
40
0.604775879885189
40
0.608268405701949
40
0.611760931518708
40
0.615253457335467
40
0.618745983152226
40
0.622238508968985
40
0.625731034785744
40
0.632716086419263
40
0.639701138052781
40
0.6466861896863
40
0.653671241319818
40
0.657163767136577
40
0.660656292953336
40
0.664148818770095
40
0.667641344586855
40
0.671133870403614
40
0.674626396220373
40
0.678118922037132
40
0.681611447853891
40
0.685103973670651
40
0.68859649948741
40
0.692089025304169
40
0.695581551120928
40
0.699074076937687
40
0.702566602754447
40
0.706059128571206
40
0.709551654387965
40
0.713044180204724
40
0.716536706021483
40
0.723521757655002
40
0.73050680928852
40
0.733999335105279
40
0.737491860922039
40
0.740984386738798
40
0.744476912555557
40
0.747969438372316
40
0.751461964189075
40
0.754954490005834
40
0.758447015822594
40
0.765432067456112
40
0.772417119089631
40
0.775909644906389
40
0.779402170723149
40
0.782894696539908
40
0.786387222356667
40
0.789879748173427
40
0.793372273990186
40
0.796864799806945
40
0.800357325623704
40
0.807342377257222
40
0.814327428890741
40
0.8178199547075
40
0.821312480524259
40
0.824805006341018
40
0.828297532157778
40
0.831790057974537
40
0.835282583791296
40
0.838775109608055
40
0.842267635424814
40
0.849252687058333
40
0.856237738691851
40
0.85973026450861
40
0.863222790325369
40
0.866715316142128
40
0.870207841958888
40
0.873700367775647
40
0.877192893592406
40
0.880685419409165
40
0.884177945225925
40
0.887670471042684
40
0.891162996859443
40
0.894655522676202
40
0.898148048492961
40
0.90164057430972
40
0.905133100126479
40
0.908625625943239
40
0.912118151759998
40
0.915610677576757
40
0.919103203393516
40
0.922595729210276
40
0.926088255027035
40
0.933073306660553
40
0.936565832477312
40
0.940058358294072
40
0.943550884110831
40
0.94704340992759
40
0.954028461561108
40
0.961013513194627
40
0.967998564828145
40
0.974983616461663
40
0.978476142278423
40
0.981968668095182
40
0.985461193911941
40
0.9889537197287
40
0.992446245545459
40
0.995938771362218
40
0.999431297178978
40
1
40
1
40
1
40
1
41
1
10
-18
20
10.6091545233515
30
0
41
1
10
-18
20
10.6092716857402
30
0
41
1
10
-18
20
10.6100564432378
30
0
41
1
10
-18
20
10.6108321487841
30
0
41
1
10
-18
20
10.6103050545653
30
0
41
1
10
-18
20
10.6082029915013
30
0
41
1
10
-18
20
10.6045523963069
30
0
41
1
10
-18
20
10.599378203272
30
0
41
1
10
-18
20
10.5927037587281
30
0
41
1
10
-18
20
10.5818120868309
30
0
41
1
10
-18
20
10.5646169538388
30
0
41
1
10
-18
20
10.5383008597593
30
0
41
1
10
-18
20
10.5064892630525
30
0
41
1
10
-18
20
10.4755678718975
30
0
41
1
10
-18
20
10.4481323745122
30
0
41
1
10
-18
20
10.4263041000347
30
0
41
1
10
-18
20
10.4032013384502
30
0
41
1
10
-18
20
10.3706596194957
30
0
41
1
10
-18
20
10.3358095061467
30
0
41
1
10
-18
20
10.2983352374592
30
0
41
1
10
-18
20
10.2690719430376
30
0
41
1
10
-18
20
10.2386154287957
30
0
41
1
10
-18
20
10.2069776298432
30
0
41
1
10
-18
20
10.1741699954592
30
0
41
1
10
-18
20
10.1402037904431
30
0
41
1
10
-18
20
10.1050900859652
30
0
41
1
10
-18
20
10.0688389854126
30
0
41
1
10
-18
20
10.0314612838791
30
0
41
1
10
-18
20
9.99296651357059
30
0
41
1
10
-18
20
9.9533644012005
30
0
41
1
10
-18
20
9.91266446512719
30
0
41
1
10
-18
20
9.87087543598926
30
0
41
1
10
-18
20
9.82800620980922
30
0
41
1
10
-18
20
9.78406563919972
30
0
41
1
10
-18
20
9.73906158174464
30
0
41
1
10
-18
20
9.69300262436195
30
0
41
1
10
-18
20
9.64589640582304
30
0
41
1
10
-18
20
9.59775041693442
30
0
41
1
10
-18
20
9.53207738577581
30
0
41
1
10
-18
20
9.44765448811154
30
0
41
1
10
-18
20
9.35986749209263
30
0
41
1
10
-18
20
9.28744513847658
30
0
41
1
10
-18
20
9.23221919243574
30
0
41
1
10
-18
20
9.17600808045958
30
0
41
1
10
-18
20
9.11881724129321
30
0
41
1
10
-18
20
9.06065321078688
30
0
41
1
10
-18
20
9.00152153550758
30
0
41
1
10
-18
20
8.94142744136707
30
0
41
1
10
-18
20
8.8599036769107
30
0
41
1
10
-18
20
8.75589867127124
30
0
41
1
10
-18
20
8.64876093189613
30
0
41
1
10
-18
20
8.56095254151677
30
0
41
1
10
-18
20
8.49426810443589
30
0
41
1
10
-18
20
8.42666168347023
30
0
41
1
10
-18
20
8.35813713243078
30
0
41
1
10
-18
20
8.28869946906792
30
0
41
1
10
-18
20
8.21835292520672
30
0
41
1
10
-18
20
8.14710122037502
30
0
41
1
10
-18
20
8.05075300914632
30
0
41
1
10
-18
20
7.92840576311147
30
0
41
1
10
-18
20
7.80309792535272
30
0
41
1
10
-18
20
7.70081044177078
30
0
41
1
10
-18
20
7.62333369313475
30
0
41
1
10
-18
20
7.54498258382412
30
0
41
1
10
-18
20
7.4657598851355
30
0
41
1
10
-18
20
7.38566959583252
30
0
41
1
10
-18
20
7.30471500134038
30
0
41
1
10
-18
20
7.22289886113489
30
0
41
1
10
-18
20
7.11249590401044
30
0
41
1
10
-18
20
6.97274644349412
30
0
41
1
10
-18
20
6.83016814404567
30
0
41
1
10
-18
20
6.71409024311311
30
0
41
1
10
-18
20
6.62633156228858
30
0
41
1
10
-18
20
6.53773585931216
30
0
41
1
10
-18
20
6.44830547511725
30
0
41
1
10
-18
20
6.35804369451677
30
0
41
1
10
-18
20
6.26695324021443
30
0
41
1
10
-18
20
6.17503665947791
30
0
41
1
10
-18
20
6.0822971380704
30
0
41
1
10
-18
20
5.98873702476695
30
0
41
1
10
-18
20
5.8943590370221
30
0
41
1
10
-18
20
5.79916633117401
30
0
41
1
10
-18
20
5.70316110146726
30
0
41
1
10
-18
20
5.60634650403395
30
0
41
1
10
-18
20
5.50872532385608
30
0
41
1
10
-18
20
5.41030024314784
30
0
41
1
10
-18
20
5.31107465945468
30
0
41
1
10
-18
20
5.21105054825136
30
0
41
1
10
-18
20
5.07638404339966
30
0
41
1
10
-18
20
4.9066349784587
30
0
41
1
10
-18
20
4.69948157884704
30
0
41
1
10
-18
20
4.48921424352019
30
0
41
1
10
-18
20
4.27586319348595
30
0
41
1
10
-18
20
4.09581338934956
30
0
41
1
10
-18
20
3.94972228937706
30
0
41
1
10
-18
20
3.8396427770096
30
0
41
1
10
-18
20
3.72882077112348
30
0
41
1
10
-18
20
3.61726252861362
30
0
41
1
10
-18
20
3.50497489576273
30
0
41
1
10
-18
20
3.3919647142194
30
0
41
1
10
-18
20
3.27823925856788
30
0
41
1
10
-18
20
3.16380725793994
30
0
41
1
10
-18
20
3.04867846612535
30
0
41
1
10
-18
20
2.93286234661065
30
0
41
1
10
-18
20
2.81636932516915
30
0
41
1
10
-18
20
2.69921228427651
30
0
41
1
10
-18
20
2.58140420660007
30
0
41
1
10
-18
20
2.46295993427742
30
0
41
1
10
-18
20
2.36395709248049
30
0
41
1
10
-18
20
2.28404204129123
30
0
41
1
10
-18
20
2.20393499577071
30
0
41
1
10
-18
20
2.10398013562454
30
0
41
1
10
-18
20
1.98317122682144
30
0
41
1
10
-18
20
1.8618247016405
30
0
41
1
10
-18
20
1.73996869594839
30
0
41
1
10
-18
20
1.61763140130915
30
0
41
1
10
-18
20
1.49484387929502
30
0
41
1
10
-18
20
1.37164025517353
30
0
41
1
10
-18
20
1.26895275020126
30
0
41
1
10
-18
20
1.18606363592946
30
0
41
1
10
-18
20
1.12406381547399
30
0
41
1
10
-18
20
1.06198977283734
30
0
41
1
10
-18
20
0.999845142204236
30
0
41
1
10
-18
20
0.937636316394475
30
0
41
1
10
-18
20
0.875367234899159
30
0
41
1
10
-18
20
0.813044982640491
30
0
41
1
10
-18
20
0.750672614854494
30
0
41
1
10
-18
20
0.688256683922106
30
0
41
1
10
-18
20
0.625800994862885
30
0
41
1
10
-18
20
0.563310977461953
30
0
41
1
10
-18
20
0.500790536511801
30
0
41
1
10
-18
20
0.438244333679648
30
0
41
1
10
-18
20
0.375676097210032
30
0
41
1
10
-18
20
0.313089809374958
30
0
41
1
10
-18
20
0.250488699287672
30
0
41
1
10
-18
20
0.187876264694864
30
0
41
1
10
-18
20
0.125255374427212
30
0
41
1
10
-18
20
0.0626290839054207
30
0
41
1
10
-18
20
3.20922595E-08
30
0
41
1
10
-18
20
-0.0626290271069081
30
0
41
1
10
-18
20
-0.125255331589187
30
0
41
1
10
-18
20
-0.187876220606341
30
0
41
1
10
-18
20
-0.250488634444679
30
0
41
1
10
-18
20
-0.313089739834169
30
0
41
1
10
-18
20
-0.375676054943796
30
0
41
1
10
-18
20
-0.438244302653658
30
0
41
1
10
-18
20
-0.500790472931612
30
0
41
1
10
-18
20
-0.563310894882477
30
0
41
1
10
-18
20
-0.625800947881402
30
0
41
1
10
-18
20
-0.688256665460756
30
0
41
1
10
-18
20
-0.750672562259211
30
0
41
1
10
-18
20
-0.813044890326779
30
0
41
1
10
-18
20
-0.875367170941644
30
0
41
1
10
-18
20
-0.937636300485167
30
0
41
1
10
-18
20
-0.999845111434894
30
0
41
1
10
-18
20
-1.0619896949724
30
0
41
1
10
-18
20
-1.12406372316542
30
0
41
1
10
-18
20
-1.18606358904697
30
0
41
1
10
-18
20
-1.26895273622941
30
0
41
1
10
-18
20
-1.37164017880386
30
0
41
1
10
-18
20
-1.49484382588878
30
0
41
1
10
-18
20
-1.61763137476075
30
0
41
1
10
-18
20
-1.73996860709434
30
0
41
1
10
-18
20
-1.86182467095799
30
0
41
1
10
-18
20
-1.98317119500535
30
0
41
1
10
-18
20
-2.10398004111113
30
0
41
1
10
-18
20
-2.20393495183683
30
0
41
1
10
-18
20
-2.28404204181246
30
0
41
1
10
-18
20
-2.36395705803142
30
0
41
1
10
-18
20
-2.4629597502701
30
0
41
1
10
-18
20
-2.58140376430015
30
0
41
1
10
-18
20
-2.69921210979669
30
0
41
1
10
-18
20
-2.81636991600769
30
0
41
1
10
-18
20
-2.93286301922583
30
0
41
1
10
-18
20
-3.04867826135629
30
0
41
1
10
-18
20
-3.16380659938378
30
0
41
1
10
-18
20
-3.27823874237259
30
0
41
1
10
-18
20
-3.39196474884633
30
0
41
1
10
-18
20
-3.50497537086056
30
0
41
1
10
-18
20
-3.6172624530864
30
0
41
1
10
-18
20
-3.7288199296633
30
0
41
1
10
-18
20
-3.83964235720097
30
0
41
1
10
-18
20
-3.94972277737915
30
0
41
1
10
-18
20
-4.05905436847675
30
0
41
1
10
-18
20
-4.16763243265373
30
0
41
1
10
-18
20
-4.31169460692024
30
0
41
1
10
-18
20
-4.48921431467909
30
0
41
1
10
-18
20
-4.69948150824786
30
0
41
1
10
-18
20
-4.90663494713598
30
0
41
1
10
-18
20
-5.07638402809522
30
0
41
1
10
-18
20
-5.2110504888509
30
0
41
1
10
-18
20
-5.31107460858112
30
0
41
1
10
-18
20
-5.41030022073681
30
0
41
1
10
-18
20
-5.50872530998981
30
0
41
1
10
-18
20
-5.6063464759967
30
0
41
1
10
-18
20
-5.70316105559496
30
0
41
1
10
-18
20
-5.79916628067866
30
0
41
1
10
-18
20
-5.89435900496744
30
0
41
1
10
-18
20
-5.98873701214285
30
0
41
1
10
-18
20
-6.08229711859903
30
0
41
1
10
-18
20
-6.17503662085343
30
0
41
1
10
-18
20
-6.26695319447285
30
0
41
1
10
-18
20
-6.35804365721182
30
0
41
1
10
-18
20
-6.44830545225389
30
0
41
1
10
-18
20
-6.53773584474612
30
0
41
1
10
-18
20
-6.62633153834338
30
0
41
1
10
-18
20
-6.71409020409419
30
0
41
1
10
-18
20
-6.83016810635766
30
0
41
1
10
-18
20
-6.97274642193662
30
0
41
1
10
-18
20
-7.11249588450136
30
0
41
1
10
-18
20
-7.2228988269101
30
0
41
1
10
-18
20
-7.3047149669423
30
0
41
1
10
-18
20
-7.38566956978477
30
0
41
1
10
-18
20
-7.4657598659748
30
0
41
1
10
-18
20
-7.54498256644959
30
0
41
1
10
-18
20
-7.6233336708502
30
0
41
1
10
-18
20
-7.70081041299483
30
0
41
1
10
-18
20
-7.80309789738925
30
0
41
1
10
-18
20
-7.92840574312078
30
0
41
1
10
-18
20
-8.05075299167544
30
0
41
1
10
-18
20
-8.14710119768418
30
0
41
1
10
-18
20
-8.21835290126666
30
0
41
1
10
-18
20
-8.28869944694205
30
0
41
1
10
-18
20
-8.35813711319383
30
0
41
1
10
-18
20
-8.4266616668742
30
0
41
1
10
-18
20
-8.49426808850927
30
0
41
1
10
-18
20
-8.56095252446426
30
0
41
1
10
-18
20
-8.64876091292305
30
0
41
1
10
-18
20
-8.75589865176033
30
0
41
1
10
-18
20
-8.85990366278926
30
0
41
1
10
-18
20
-8.94142742966557
30
0
41
1
10
-18
20
-9.00152152233741
30
0
41
1
10
-18
20
-9.06065319401591
30
0
41
1
10
-18
20
-9.11881722337537
30
0
41
1
10
-18
20
-9.17600806496938
30
0
41
1
10
-18
20
-9.23221918172706
30
0
41
1
10
-18
20
-9.28744513180195
30
0
41
1
10
-18
20
-9.35986748301858
30
0
41
1
10
-18
20
-9.44765447086004
30
0
41
1
10
-18
20
-9.53207737489777
30
0
41
1
10
-18
20
-9.59775041479642
30
0
41
1
10
-18
20
-9.64589640265368
30
0
41
1
10
-18
20
-9.69300261323346
30
0
41
1
10
-18
20
-9.73906156658433
30
0
41
1
10
-18
20
-9.78406562726656
30
0
41
1
10
-18
20
-9.82800620569319
30
0
41
1
10
-18
20
-9.87087543880676
30
0
41
1
10
-18
20
-9.91266446536125
30
0
41
1
10
-18
20
-9.95336439144063
30
0
41
1
10
-18
20
-9.9929664994587
30
0
41
1
10
-18
20
-10.0314612764173
30
0
41
1
10
-18
20
-10.0688389871438
30
0
41
1
10
-18
20
-10.1050900925225
30
0
41
1
10
-18
20
-10.1402037914163
30
0
41
1
10
-18
20
-10.1741699845987
30
0
41
1
10
-18
20
-10.2069776182064
30
0
41
1
10
-18
20
-10.2386154290236
30
0
41
1
10
-18
20
-10.2690719526607
30
0
41
1
10
-18
20
-10.2983352440808
30
0
41
1
10
-18
20
-10.3358095016122
30
0
41
1
10
-18
20
-10.3706596087076
30
0
41
1
10
-18
20
-10.4032013500169
30
0
41
1
10
-18
20
-10.4263041143214
30
0
41
1
10
-18
20
-10.4481323749745
30
0
41
1
10
-18
20
-10.4755678604265
30
0
41
1
10
-18
20
-10.506489279177
30
0
41
1
10
-18
20
-10.5383008623823
30
0
41
1
10
-18
20
-10.5646169600635
30
0
41
1
10
-18
20
-10.5818120325131
30
0
41
1
10
-18
20
-10.5927034852679
30
0
41
1
10
-18
20
-10.5993778692674
30
0
41
1
10
-18
20
-10.6045521568696
30
0
41
1
10
-18
20
-10.6082029107285
30
0
41
1
10
-18
20
-10.6103051294408
30
0
41
1
10
-18
20
-10.6108322853176
30
0
41
1
10
-18
20
-10.6100565222517
30
0
41
1
10
-18
20
-10.6092717774215
30
0
41
1
10
-18
20
-10.6091546572012
30
0
0
SPLINE
5
105
100
AcDbEntity
8
SK1
62
256
6
ByLayer
370
18
48
1
60
0
100
AcDbSpline
70
4
71
3
72
115
73
111
40
0
40
0
40
0
40
0
40
0.0010816361808857
40
0.0051306208685135
40
0.013228590243769
40
0.0213265596190245
40
0.02942452899428
40
0.0375224983695355
40
0.045620467744791
40
0.0537184371200465
40
0.061816406495302
40
0.0699143758705576
40
0.0780123452458131
40
0.0861103146210686
40
0.0942082839963241
40
0.10230625337158
40
0.110404222746835
40
0.118502192122091
40
0.126600161497346
40
0.134698130872602
40
0.142796100247857
40
0.158992038998368
40
0.175187977748879
40
0.19138391649939
40
0.207579855249901
40
0.215677824625157
40
0.223775794000412
40
0.231873763375668
40
0.239971732750923
40
0.248069702126179
40
0.256167671501434
40
0.26426564087669
40
0.272363610251945
40
0.280461579627201
40
0.288559549002456
40
0.296657518377712
40
0.304755487752967
40
0.312853457128223
40
0.320951426503478
40
0.329049395878734
40
0.337147365253989
40
0.345245334629245
40
0.3533433040045
40
0.369539242755011
40
0.385735181505522
40
0.393833150880778
40
0.401931120256034
40
0.410029089631289
40
0.418127059006545
40
0.4262250283818
40
0.434322997757056
40
0.442420967132311
40
0.450518936507567
40
0.466714875258078
40
0.482910814008589
40
0.491008783383844
40
0.499106752759099
40
0.507204722134355
40
0.515302691509611
40
0.523400660884866
40
0.531498630260122
40
0.539596599635377
40
0.547694569010633
40
0.563890507761144
40
0.580086446511655
40
0.58818441588691
40
0.596282385262166
40
0.604380354637421
40
0.612478324012677
40
0.620576293387932
40
0.628674262763188
40
0.636772232138443
40
0.644870201513699
40
0.66106614026421
40
0.677262079014721
40
0.685360048389976
40
0.693458017765232
40
0.701555987140487
40
0.709653956515743
40
0.717751925890998
40
0.725849895266254
40
0.73394786464151
40
0.742045834016765
40
0.75014380339202
40
0.758241772767276
40
0.766339742142531
40
0.774437711517787
40
0.782535680893043
40
0.790633650268298
40
0.798731619643554
40
0.806829589018809
40
0.814927558394064
40
0.82302552776932
40
0.831123497144576
40
0.839221466519831
40
0.855417405270342
40
0.863515374645597
40
0.871613344020853
40
0.879711313396109
40
0.887809282771364
40
0.904005221521875
40
0.920201160272386
40
0.936397099022897
40
0.952593037773408
40
0.960691007148664
40
0.968788976523919
40
0.976886945899175
40
0.98498491527443
40
0.993082884649686
40
1
40
1
40
1
40
1
41
1
10
-1.49503997793928
20
-2.34749772747685
30
0
41
1
10
-1.49503997793928
20
-2.35297422288198
30
0
41
1
10
-1.49503997793928
20
-2.37894311658403
30
0
41
1
10
-1.49503997793928
20
-2.44578140509637
30
0
41
1
10
-1.49503997793928
20
-2.54739957461444
30
0
41
1
10
-1.49503997793928
20
-2.66874292602245
30
0
41
1
10
-1.49503997793928
20
-2.78936021153859
30
0
41
1
10
-1.49503997793928
20
-2.90924160987004
30
0
41
1
10
-1.49503997793931
20
-3.02837828417549
30
0
41
1
10
-1.49503997793931
20
-3.14676167980997
30
0
41
1
10
-1.49503997793931
20
-3.2643857571382
30
0
41
1
10
-1.49503997793931
20
-3.38124473142446
30
0
41
1
10
-1.49503997793931
20
-3.4973327007406
30
0
41
1
10
-1.49503997793931
20
-3.61264412544148
30
0
41
1
10
-1.49503997793931
20
-3.72717407208265
30
0
41
1
10
-1.49503997793931
20
-3.84091862322862
30
0
41
1
10
-1.49503997793931
20
-3.95387458058386
30
0
41
1
10
-1.49503997793931
20
-4.06603800642878
30
0
41
1
10
-1.49503997793931
20
-4.17740500301781
30
0
41
1
10
-1.49503997793931
20
-4.28797249574384
30
0
41
1
10
-1.49503997793931
20
-4.43446210322787
30
0
41
1
10
-1.49503997793931
20
-4.61526986323273
30
0
41
1
10
-1.49503997793931
20
-4.82914716155648
30
0
41
1
10
-1.49503997793931
20
-5.03976742322499
30
0
41
1
10
-1.49503997793931
20
-5.21243879366801
30
0
41
1
10
-1.49503997793931
20
-5.34913288542151
30
0
41
1
10
-1.49503997793931
20
-5.4507477456186
30
0
41
1
10
-1.49503997793931
20
-5.55153561657562
30
0
41
1
10
-1.49503997793931
20
-5.65149504114433
30
0
41
1
10
-1.49503997793931
20
-5.75062380699094
30
0
41
1
10
-1.49503997793931
20
-5.84891995701895
30
0
41
1
10
-1.49503997793931
20
-5.9463816204476
30
0
41
1
10
-1.49503997793931
20
-6.0430064968013
30
0
41
1
10
-1.49503997793931
20
-6.13879286433351
30
0
41
1
10
-1.49503997793931
20
-6.23373849191756
30
0
41
1
10
-1.49503997793931
20
-6.32784120271069
30
0
41
1
10
-1.49503997793931
20
-6.42109916514164
30
0
41
1
10
-1.49503997793931
20
-6.5135100149694
30
0
41
1
10
-1.49503997793931
20
-6.60507157996005
30
0
41
1
10
-1.49503997793931
20
-6.69578175553812
30
0
41
1
10
-1.49503997793931
20
-6.78563788330885
30
0
41
1
10
-1.49503997793931
20
-6.87463786848124
30
0
41
1
10
-1.49503997793931
20
-6.99224343614395
30
0
41
1
10
-1.49503997793931
20
-7.13691288017824
30
0
41
1
10
-1.49503997793931
20
-7.27869561996113
30
0
41
1
10
-1.49503997793931
20
-7.39051932186584
30
0
41
1
10
-1.49503997793931
20
-7.47345537056427
30
0
41
1
10
-1.49503997793931
20
-7.5555140988842
30
0
41
1
10
-1.49503997793931
20
-7.63669274732661
30
0
41
1
10
-1.49503997793931
20
-7.71698851670988
30
0
41
1
10
-1.49503997793931
20
-7.79639781976607
30
0
41
1
10
-1.49503997793931
20
-7.87491786951264
30
0
41
1
10
-1.49503997793931
20
-7.97849120537592
30
0
41
1
10
-1.49503997793931
20
-8.10556186458783
30
0
41
1
10
-1.49503997793931
20
-8.22962444741844
30
0
41
1
10
-1.49503997793931
20
-8.327172542867
30
0
41
1
10
-1.49503997793931
20
-8.39937082766957
30
0
41
1
10
-1.49503997793931
20
-8.47065099138817
30
0
41
1
10
-1.49503997793931
20
-8.54100920456628
30
0
41
1
10
-1.49503997793931
20
-8.61044158988983
30
0
41
1
10
-1.49503997793931
20
-8.67894338472402
30
0
41
1
10
-1.49503997793931
20
-8.74651061840999
30
0
41
1
10
-1.49503997793931
20
-8.83540721332508
30
0
41
1
10
-1.49503997793931
20
-8.94403649561855
30
0
41
1
10
-1.49503997793931
20
-9.04949074686073
30
0
41
1
10
-1.49503997793931
20
-9.13202745573767
30
0
41
1
10
-1.49503997793931
20
-9.19292021412031
30
0
41
1
10
-1.49503997793931
20
-9.25283893648347
30
0
41
1
10
-1.49503997793931
20
-9.31177821550872
30
0
41
1
10
-1.49503997793931
20
-9.36973271501176
30
0
41
1
10
-1.49503997793931
20
-9.42669603797344
30
0
41
1
10
-1.49503997793931
20
-9.48266255671325
30
0
41
1
10
-1.49503997793931
20
-9.55599654096136
30
0
41
1
10
-1.49503997793931
20
-9.64502982606291
30
0
41
1
10
-1.49503997793931
20
-9.73065760658244
30
0
41
1
10
-1.49503997793931
20
-9.79716969120634
30
0
41
1
10
-1.49503997793931
20
-9.84597558117031
30
0
41
1
10
-1.49503997793931
20
-9.89373009862075
30
0
41
1
10
-1.49503997793931
20
-9.94042555998314
30
0
41
1
10
-1.49503997793931
20
-9.9860543664019
30
0
41
1
10
-1.49503997793931
20
-10.0306078864835
30
0
41
1
10
-1.49503997793931
20
-10.0740780611422
30
0
41
1
10
-1.49503997793931
20
-10.1164560590941
30
0
41
1
10
-1.49503997793931
20
-10.1577327882333
30
0
41
1
10
-1.49503997793931
20
-10.1978993278187
30
0
41
1
10
-1.49503997793931
20
-10.2369461506972
30
0
41
1
10
-1.49503997793931
20
-10.2748632577403
30
0
41
1
10
-1.49503997793931
20
-10.3116409871695
30
0
41
1
10
-1.49503997793931
20
-10.3472683849274
30
0
41
1
10
-1.49503997793931
20
-10.3817350419115
30
0
41
1
10
-1.49503997793931
20
-10.4150297473557
30
0
41
1
10
-1.49503997793931
20
-10.4471409666571
30
0
41
1
10
-1.49503997793931
20
-10.4780569204745
30
0
41
1
10
-1.49503997793931
20
-10.5077654424246
30
0
41
1
10
-1.49503997793931
20
-10.5457784712346
30
0
41
1
10
-1.49503997793931
20
-10.5812410164663
30
0
41
1
10
-1.49503997793931
20
-10.6142632847113
30
0
41
1
10
-1.49503997793931
20
-10.6377347714484
30
0
41
1
10
-1.49503997793931
20
-10.659915174236
30
0
41
1
10
-1.49503997793931
20
-10.6877698864739
30
0
41
1
10
-1.49503997793931
20
-10.719232045291
30
0
41
1
10
-1.49503997793931
20
-10.751585043016
30
0
41
1
10
-1.49503997793931
20
-10.7783612166035
30
0
41
1
10
-1.49503997793931
20
-10.7958810461951
30
0
41
1
10
-1.49503997793931
20
-10.806959847905
30
0
41
1
10
-1.49503997793931
20
-10.8137591702554
30
0
41
1
10
-1.49503997793931
20
-10.8190319435411
30
0
41
1
10
-1.49503997793931
20
-10.8227533881918
30
0
41
1
10
-1.49503997793931
20
-10.8247928621602
30
0
41
1
10
-1.49503997793931
20
-10.825197592665
30
0
41
1
10
-1.49503997793931
20
-10.8251856486154
30
0
0
SPLINE
5
106
100
AcDbEntity
8
SK1
62
256
6
ByLayer
370
18
48
1
60
0
100
AcDbSpline
70
4
71
3
72
114
73
110
40
0
40
0
40
0
40
0
40
0.006947617959835
40
0.0150453386195582
40
0.0231430592792814
40
0.0312407799390046
40
0.0393385005987277
40
0.0474362212584509
40
0.0636316625778972
40
0.0798271038973435
40
0.0960225452167899
40
0.112217986536236
40
0.120315707195959
40
0.128413427855682
40
0.136511148515406
40
0.144608869175129
40
0.160804310494575
40
0.168902031154298
40
0.176999751814022
40
0.185097472473745
40
0.193195193133468
40
0.201292913793191
40
0.209390634452914
40
0.217488355112637
40
0.225586075772361
40
0.233683796432084
40
0.241781517091807
40
0.24987923775153
40
0.257976958411253
40
0.266074679070976
40
0.2741723997307
40
0.282270120390423
40
0.290367841050146
40
0.298465561709869
40
0.306563282369592
40
0.314661003029315
40
0.322758723689039
40
0.338954165008485
40
0.355149606327931
40
0.363247326987654
40
0.371345047647378
40
0.379442768307101
40
0.387540488966824
40
0.395638209626547
40
0.40373593028627
40
0.411833650945993
40
0.419931371605716
40
0.436126812925163
40
0.452322254244609
40
0.460419974904332
40
0.468517695564055
40
0.476615416223779
40
0.484713136883502
40
0.492810857543225
40
0.500908578202948
40
0.509006298862671
40
0.517104019522394
40
0.533299460841841
40
0.549494902161287
40
0.55759262282101
40
0.565690343480733
40
0.573788064140457
40
0.58188578480018
40
0.589983505459903
40
0.598081226119626
40
0.606178946779349
40
0.614276667439073
40
0.630472108758519
40
0.646667550077965
40
0.654765270737688
40
0.662862991397411
40
0.670960712057135
40
0.679058432716858
40
0.687156153376581
40
0.695253874036304
40
0.703351594696027
40
0.711449315355751
40
0.719547036015474
40
0.727644756675197
40
0.73574247733492
40
0.743840197994643
40
0.751937918654366
40
0.76003563931409
40
0.768133359973813
40
0.776231080633536
40
0.784328801293259
40
0.792426521952982
40
0.808621963272428
40
0.824817404591875
40
0.841012845911321
40
0.857208287230767
40
0.873403728550214
40
0.881501449209937
40
0.88959916986966
40
0.897696890529383
40
0.905794611189107
40
0.91389233184883
40
0.921990052508553
40
0.930087773168276
40
0.938185493827999
40
0.946283214487722
40
0.954380935147445
40
0.962478655807169
40
0.970576376466892
40
0.978674097126615
40
0.986771817786338
40
0.994869538446061
40
0.998918398775923
40
1
40
1
40
1
40
1
41
1
10
-1.49503997793926
20
10.8251853681917
30
0
41
1
10
-1.49503997793928
20
10.8251991350143
30
0
41
1
10
-1.49503997793928
20
10.8247955065766
30
0
41
1
10
-1.49503997793928
20
10.8227534746688
30
0
41
1
10
-1.49503997793928
20
10.8190321898994
30
0
41
1
10
-1.49503997793928
20
10.8137595050794
30
0
41
1
10
-1.49503997793928
20
10.8069601105976
30
0
41
1
10
-1.49503997793928
20
10.7958810888031
30
0
41
1
10
-1.49503997793928
20
10.7783612085532
30
0
41
1
10
-1.49503997793928
20
10.7515850402438
30
0
41
1
10
-1.49503997793928
20
10.7192320300799
30
0
41
1
10
-1.49503997793928
20
10.6877698984218
30
0
41
1
10
-1.49503997793928
20
10.659915170864
30
0
41
1
10
-1.49503997793928
20
10.6377347570968
30
0
41
1
10
-1.49503997793928
20
10.6142632763632
30
0
41
1
10
-1.49503997793928
20
10.5812410280458
30
0
41
1
10
-1.49503997793928
20
10.5457784732404
30
0
41
1
10
-1.49503997793928
20
10.5077654352017
30
0
41
1
10
-1.49503997793928
20
10.4780569133
30
0
41
1
10
-1.49503997793928
20
10.4471409696622
30
0
41
1
10
-1.49503997793928
20
10.4150297588919
30
0
41
1
10
-1.49503997793928
20
10.3817350495075
30
0
41
1
10
-1.49503997793928
20
10.3472683821575
30
0
41
1
10
-1.49503997793928
20
10.3116409824532
30
0
41
1
10
-1.49503997793928
20
10.274863259213
30
0
41
1
10
-1.49503997793928
20
10.2369461598887
30
0
41
1
10
-1.49503997793928
20
10.1978993403383
30
0
41
1
10
-1.49503997793928
20
10.1577327948517
30
0
41
1
10
-1.49503997793928
20
10.1164560583904
30
0
41
1
10
-1.49503997793928
20
10.0740780611805
30
0
41
1
10
-1.49503997793928
20
10.0306078935895
30
0
41
1
10
-1.49503997793928
20
9.9860543789782
30
0
41
1
10
-1.49503997793928
20
9.94042557325719
30
0
41
1
10
-1.49503997793928
20
9.89373010726783
30
0
41
1
10
-1.49503997793928
20
9.84597558452433
30
0
41
1
10
-1.49503997793928
20
9.79716969618076
30
0
41
1
10
-1.49503997793928
20
9.73065761931014
30
0
41
1
10
-1.49503997793928
20
9.64502984201664
30
0
41
1
10
-1.49503997793928
20
9.55599654929009
30
0
41
1
10
-1.49503997793928
20
9.48266256563366
30
0
41
1
10
-1.49503997793928
20
9.42669605087167
30
0
41
1
10
-1.49503997793928
20
9.36973273113713
30
0
41
1
10
-1.49503997793928
20
9.31177823255615
30
0
41
1
10
-1.49503997793928
20
9.25283895193832
30
0
41
1
10
-1.49503997793928
20
9.19292022720256
30
0
41
1
10
-1.49503997793928
20
9.13202746880455
30
0
41
1
10
-1.49503997793928
20
9.04949076260129
30
0
41
1
10
-1.49503997793928
20
8.94403651531519
30
0
41
1
10
-1.49503997793928
20
8.83540723159925
30
0
41
1
10
-1.49503997793928
20
8.74651063563283
30
0
41
1
10
-1.49503997793928
20
8.67894340179043
30
0
41
1
10
-1.49503997793928
20
8.61044160824594
30
0
41
1
10
-1.49503997793928
20
8.5410092251428
30
0
41
1
10
-1.49503997793928
20
8.47065101373664
30
0
41
1
10
-1.49503997793928
20
8.39937085059915
30
0
41
1
10
-1.49503997793928
20
8.32717256436729
30
0
41
1
10
-1.49503997793928
20
8.22962446603972
30
0
41
1
10
-1.49503997793928
20
8.10556188703811
30
0
41
1
10
-1.49503997793928
20
7.97849123285059
30
0
41
1
10
-1.49503997793928
20
7.87491789553508
30
0
41
1
10
-1.49503997793928
20
7.79639784158888
30
0
41
1
10
-1.49503997793928
20
7.71698853718178
30
0
41
1
10
-1.49503997793928
20
7.63669277063221
30
0
41
1
10
-1.49503997793928
20
7.55551412703409
30
0
41
1
10
-1.49503997793928
20
7.47345540258758
30
0
41
1
10
-1.49503997793928
20
7.39051935158955
30
0
41
1
10
-1.49503997793928
20
7.27869564084133
30
0
41
1
10
-1.49503997793928
20
7.13691290674728
30
0
41
1
10
-1.49503997793928
20
6.99224347204341
30
0
41
1
10
-1.49503997793928
20
6.87463790137696
30
0
41
1
10
-1.49503997793928
20
6.78563790735643
30
0
41
1
10
-1.49503997793928
20
6.6957817775326
30
0
41
1
10
-1.49503997793928
20
6.60507160913491
30
0
41
1
10
-1.49503997793928
20
6.51351005185586
30
0
41
1
10
-1.49503997793928
20
6.42109920426941
30
0
41
1
10
-1.49503997793928
20
6.32784123546003
30
0
41
1
10
-1.49503997793928
20
6.23373851513244
30
0
41
1
10
-1.49503997793928
20
6.13879288798532
30
0
41
1
10
-1.49503997793928
20
6.04300653314334
30
0
41
1
10
-1.49503997793928
20
5.94638166396859
30
0
41
1
10
-1.49503997793928
20
5.848919994997
30
0
41
1
10
-1.49503997793928
20
5.75062383535882
30
0
41
1
10
-1.49503997793928
20
5.65149506497363
30
0
41
1
10
-1.49503997793928
20
5.5515356485646
30
0
41
1
10
-1.49503997793928
20
5.45074779186143
30
0
41
1
10
-1.49503997793928
20
5.34913293126229
30
0
41
1
10
-1.49503997793928
20
5.21243881483207
30
0
41
1
10
-1.49503997793928
20
5.03976746321263
30
0
41
1
10
-1.49503997793928
20
4.82914721456726
30
0
41
1
10
-1.49503997793928
20
4.61526983908041
30
0
41
1
10
-1.49503997793928
20
4.39815363484092
30
0
41
1
10
-1.49503997793928
20
4.21466878117025
30
0
41
1
10
-1.49503997793928
20
4.06603787841615
30
0
41
1
10
-1.49503997793928
20
3.9538749194972
30
0
41
1
10
-1.49503997793928
20
3.84091905980895
30
0
41
1
10
-1.49503997793928
20
3.72717408116662
30
0
41
1
10
-1.49503997793928
20
3.61264394142361
30
0
41
1
10
-1.49503997793928
20
3.49733277811788
30
0
41
1
10
-1.49503997793928
20
3.38124503613648
30
0
41
1
10
-1.49503997793928
20
3.26438606521717
30
0
41
1
10
-1.49503997793928
20
3.1467617159237
30
0
41
1
10
-1.49503997793928
20
3.02837792756958
30
0
41
1
10
-1.49503997793928
20
2.90924142661461
30
0
41
1
10
-1.49503997793928
20
2.78936037077261
30
0
41
1
10
-1.49503997793928
20
2.66874317257185
30
0
41
1
10
-1.49503997793928
20
2.54739968477233
30
0
41
1
10
-1.49503997793928
20
2.44578144693816
30
0
41
1
10
-1.49503997793928
20
2.37894315632079
30
0
41
1
10
-1.49503997793928
20
2.35297427447952
30
0
41
1
10
-1.49503997793928
20
2.34749778874223
30
0
0
SPLINE
5
107
100
AcDbEntity
8
SK1
62
256
6
ByLayer
370
18
48
1
60
0
100
AcDbSpline
70
4
71
3
72
280
73
276
40
0
40
0
40
0
40
0
40
0.0015799795095158
40
0.0050899930126649
40
0.0086000065158139
40
0.0121100200189629
40
0.015620033522112
40
0.019130047025261
40
0.02264006052841
40
0.0296600875347081
40
0.0366801145410062
40
0.0437001415473042
40
0.0507201685536023
40
0.0542301820567513
40
0.0577401955599003
40
0.0612502090630494
40
0.0647602225661984
40
0.0717802495724965
40
0.0752902630756456
40
0.0788002765787946
40
0.0823102900819437
40
0.0858203035850926
40
0.0893303170882417
40
0.0928403305913907
40
0.0963503440945397
40
0.0998603575976888
40
0.103370371100838
40
0.106880384603987
40
0.110390398107136
40
0.113900411610285
40
0.117410425113434
40
0.120920438616583
40
0.124430452119732
40
0.127940465622881
40
0.13145047912603
40
0.134960492629179
40
0.138470506132328
40
0.141980519635477
40
0.149000546641775
40
0.156020573648073
40
0.159530587151222
40
0.163040600654371
40
0.166550614157521
40
0.17006062766067
40
0.173570641163819
40
0.177080654666968
40
0.180590668170117
40
0.184100681673266
40
0.191120708679564
40
0.198140735685862
40
0.201650749189011
40
0.20516076269216
40
0.208670776195309
40
0.212180789698458
40
0.215690803201607
40
0.219200816704756
40
0.222710830207905
40
0.226220843711054
40
0.233240870717352
40
0.24026089772365
40
0.243770911226799
40
0.247280924729948
40
0.250790938233097
40
0.254300951736246
40
0.257810965239395
40
0.261320978742544
40
0.264830992245693
40
0.268341005748843
40
0.275361032755141
40
0.282381059761439
40
0.285891073264588
40
0.289401086767737
40
0.292911100270886
40
0.296421113774035
40
0.299931127277184
40
0.303441140780333
40
0.306951154283482
40
0.310461167786631
40
0.31397118128978
40
0.317481194792929
40
0.320991208296078
40
0.324501221799227
40
0.328011235302376
40
0.331521248805525
40
0.335031262308674
40
0.338541275811823
40
0.342051289314972
40
0.345561302818121
40
0.352581329824419
40
0.359601356830717
40
0.366621383837015
40
0.373641410843313
40
0.380661437849611
40
0.384171451352761
40
0.38768146485591
40
0.391191478359059
40
0.394701491862208
40
0.398211505365357
40
0.401721518868506
40
0.405231532371655
40
0.408741545874804
40
0.412251559377953
40
0.415761572881102
40
0.419271586384251
40
0.4227815998874
40
0.426291613390549
40
0.429801626893698
40
0.433311640396847
40
0.435066647148422
40
0.436821653899996
40
0.440331667403145
40
0.443841680906294
40
0.447351694409443
40
0.450861707912592
40
0.454371721415741
40
0.45788173491889
40
0.461391748422039
40
0.464901761925188
40
0.466656768676763
40
0.468411775428338
40
0.470166782179912
40
0.471921788931487
40
0.473676795683061
40
0.475431802434636
40
0.47718680918621
40
0.478941815937785
40
0.480696822689359
40
0.482451829440934
40
0.484206836192508
40
0.485961842944083
40
0.487716849695657
40
0.489471856447232
40
0.491226863198806
40
0.492981869950381
40
0.494736876701955
40
0.49649188345353
40
0.498246890205104
40
0.500001896956679
40
0.501756903708253
40
0.503511910459828
40
0.505266917211402
40
0.507021923962977
40
0.508776930714551
40
0.510531937466126
40
0.5122869442177
40
0.514041950969275
40
0.515796957720849
40
0.517551964472424
40
0.519306971223998
40
0.521061977975573
40
0.522816984727147
40
0.524571991478722
40
0.526326998230296
40
0.528082004981871
40
0.529837011733445
40
0.53159201848502
40
0.533347025236595
40
0.535102031988169
40
0.538612045491318
40
0.542122058994467
40
0.545632072497616
40
0.549142086000765
40
0.552652099503914
40
0.556162113007063
40
0.559672126510212
40
0.563182140013361
40
0.564937146764936
40
0.56669215351651
40
0.570202167019659
40
0.573712180522808
40
0.577222194025958
40
0.580732207529107
40
0.584242221032256
40
0.587752234535405
40
0.591262248038554
40
0.594772261541703
40
0.598282275044852
40
0.601792288548001
40
0.60530230205115
40
0.608812315554299
40
0.612322329057448
40
0.615832342560597
40
0.619342356063746
40
0.622852369566895
40
0.626362383070044
40
0.633382410076342
40
0.64040243708264
40
0.647422464088938
40
0.654442491095236
40
0.657952504598385
40
0.661462518101534
40
0.664972531604683
40
0.668482545107832
40
0.671992558610982
40
0.67550257211413
40
0.67901258561728
40
0.682522599120429
40
0.686032612623578
40
0.689542626126727
40
0.693052639629876
40
0.696562653133025
40
0.700072666636174
40
0.703582680139323
40
0.707092693642472
40
0.710602707145621
40
0.71411272064877
40
0.717622734151919
40
0.724642761158217
40
0.731662788164515
40
0.735172801667664
40
0.738682815170813
40
0.742192828673962
40
0.745702842177111
40
0.74921285568026
40
0.752722869183409
40
0.756232882686558
40
0.759742896189707
40
0.766762923196005
40
0.773782950202303
40
0.777292963705453
40
0.780802977208601
40
0.784312990711751
40
0.787823004214899
40
0.791333017718049
40
0.794843031221198
40
0.798353044724347
40
0.801863058227496
40
0.808883085233794
40
0.815903112240092
40
0.819413125743241
40
0.82292313924639
40
0.826433152749539
40
0.829943166252688
40
0.833453179755837
40
0.836963193258986
40
0.840473206762135
40
0.843983220265284
40
0.851003247271582
40
0.85802327427788
40
0.861533287781029
40
0.865043301284178
40
0.868553314787327
40
0.872063328290476
40
0.875573341793625
40
0.879083355296775
40
0.882593368799923
40
0.886103382303073
40
0.889613395806222
40
0.893123409309371
40
0.896633422812519
40
0.900143436315669
40
0.903653449818818
40
0.907163463321967
40
0.910673476825116
40
0.914183490328265
40
0.917693503831414
40
0.921203517334563
40
0.924713530837712
40
0.928223544340861
40
0.935243571347159
40
0.938753584850308
40
0.942263598353457
40
0.945773611856606
40
0.949283625359755
40
0.956303652366053
40
0.963323679372351
40
0.970343706378649
40
0.977363733384948
40
0.980873746888096
40
0.984383760391246
40
0.987893773894395
40
0.991403787397544
40
0.994913800900693
40
0.998423814403842
40
1
40
1
40
1
40
1
41
1
10
-19
20
10.0329492507458
30
0
41
1
10
-19
20
10.0330908006729
30
0
41
1
10
-19
20
10.0333808353472
30
0
41
1
10
-19
20
10.0329736292638
30
0
41
1
10
-19
20
10.0309830775664
30
0
41
1
10
-19
20
10.0275226633951
30
0
41
1
10
-19
20
10.0226134495803
30
0
41
1
10
-19
20
10.0162751664439
30
0
41
1
10
-19
20
10.0058875348545
30
0
41
1
10
-19
20
9.98956609173459
30
0
41
1
10
-19
20
9.96448776698293
30
0
41
1
10
-19
20
9.934132772119
30
0
41
1
10
-19
20
9.90466617231218
30
0
41
1
10
-19
20
9.87835855867951
30
0
41
1
10
-19
20
9.85747766874042
30
0
41
1
10
-19
20
9.8353668976298
30
0
41
1
10
-19
20
9.80411797985394
30
0
41
1
10
-19
20
9.77091555985695
30
0
41
1
10
-19
20
9.73489077939226
30
0
41
1
10
-19
20
9.70682531106704
30
0
41
1
10
-19
20
9.67760483131215
30
0
41
1
10
-19
20
9.6472406847173
30
0
41
1
10
-19
20
9.61574346169033
30
0
41
1
10
-19
20
9.58312368489487
30
0
41
1
10
-19
20
9.54939200999826
30
0
41
1
10
-19
20
9.51455771866415
30
0
41
1
10
-19
20
9.47863119608741
30
0
41
1
10
-19
20
9.44162164180463
30
0
41
1
10
-19
20
9.40353806264946
30
0
41
1
10
-19
20
9.36438993231127
30
0
41
1
10
-19
20
9.3241854444656
30
0
41
1
10
-19
20
9.28293297227461
30
0
41
1
10
-19
20
9.24064144704934
30
0
41
1
10
-19
20
9.19731819280187
30
0
41
1
10
-19
20
9.15297167827993
30
0
41
1
10
-19
20
9.10760963710962
30
0
41
1
10
-19
20
9.06123902108877
30
0
41
1
10
-19
20
8.99782333228859
30
0
41
1
10
-19
20
8.91664200511914
30
0
41
1
10
-19
20
8.83220800680832
30
0
41
1
10
-19
20
8.76223827415896
30
0
41
1
10
-19
20
8.70900473105831
30
0
41
1
10
-19
20
8.65481733532437
30
0
41
1
10
-19
20
8.59968102157822
30
0
41
1
10
-19
20
8.54360269974063
30
0
41
1
10
-19
20
8.48658847771901
30
0
41
1
10
-19
20
8.42864308493387
30
0
41
1
10
-19
20
8.34984450729291
30
0
41
1
10
-19
20
8.24973849608216
30
0
41
1
10
-19
20
8.14661356098193
30
0
41
1
10
-19
20
8.06173284490117
30
0
41
1
10
-19
20
7.99742345663481
30
0
41
1
10
-19
20
7.93222591806961
30
0
41
1
10
-19
20
7.86614377003912
30
0
41
1
10
-19
20
7.79918272035926
30
0
41
1
10
-19
20
7.73134795661787
30
0
41
1
10
-19
20
7.66264290479882
30
0
41
1
10
-19
20
7.56952283231726
30
0
41
1
10
-19
20
7.45179046448192
30
0
41
1
10
-19
20
7.33122525294462
30
0
41
1
10
-19
20
7.23239719005701
30
0
41
1
10
-19
20
7.15772731741788
30
0
41
1
10
-19
20
7.08222314311985
30
0
41
1
10
-19
20
7.00588739266462
30
0
41
1
10
-19
20
6.92872517773972
30
0
41
1
10
-19
20
6.85074109996623
30
0
41
1
10
-19
20
6.77193793275302
30
0
41
1
10
-19
20
6.66535732677104
30
0
41
1
10
-19
20
6.5310781219363
30
0
41
1
10
-19
20
6.39412574741871
30
0
41
1
10
-19
20
6.28215784138945
30
0
41
1
10
-19
20
6.19773875078894
30
0
41
1
10
-19
20
6.11253406080704
30
0
41
1
10
-19
20
6.02654676803036
30
0
41
1
10
-19
20
5.93978186598011
30
0
41
1
10
-19
20
5.85224375649921
30
0
41
1
10
-19
20
5.76393600430757
30
0
41
1
10
-19
20
5.67486399066655
30
0
41
1
10
-19
20
5.58503142050259
30
0
41
1
10
-19
20
5.49444245957599
30
0
41
1
10
-19
20
5.40310280117831
30
0
41
1
10
-19
20
5.31101593014734
30
0
41
1
10
-19
20
5.2181872813623
30
0
41
1
10
-19
20
5.12462207475713
30
0
41
1
10
-19
20
5.03032492286115
30
0
41
1
10
-19
20
4.9353024296438
30
0
41
1
10
-19
20
4.8395580208946
30
0
41
1
10
-19
20
4.7103465388588
30
0
41
1
10
-19
20
4.5484595026588
30
0
41
1
10
-19
20
4.35063320532777
30
0
41
1
10
-19
20
4.15007820921218
30
0
41
1
10
-19
20
3.94685681236831
30
0
41
1
10
-19
20
3.77604855813311
30
0
41
1
10
-19
20
3.63679046418031
30
0
41
1
10
-19
20
3.53231619129491
30
0
41
1
10
-19
20
3.42723503898236
30
0
41
1
10
-19
20
3.32155992301486
30
0
41
1
10
-19
20
3.21530546061473
30
0
41
1
10
-19
20
3.10848576848571
30
0
41
1
10
-19
20
3.00111573414054
30
0
41
1
10
-19
20
2.89321317852725
30
0
41
1
10
-19
20
2.78479835655284
30
0
41
1
10
-19
20
2.67589021302879
30
0
41
1
10
-19
20
2.56650912624588
30
0
41
1
10
-19
20
2.45668069003125
30
0
41
1
10
-19
20
2.34643018241178
30
0
41
1
10
-19
20
2.23578586879043
30
0
41
1
10
-19
20
2.14381940674537
30
0
41
1
10
-19
20
2.06905901211775
30
0
41
1
10
-19
20
1.99420804195606
30
0
41
1
10
-19
20
1.90180866816087
30
0
41
1
10
-19
20
1.78992235940535
30
0
41
1
10
-19
20
1.67782006325024
30
0
41
1
10
-19
20
1.56555014993989
30
0
41
1
10
-19
20
1.45315823265887
30
0
41
1
10
-19
20
1.34069259518995
30
0
41
1
10
-19
20
1.22820431977144
30
0
41
1
10
-19
20
1.1352291474517
30
0
41
1
10
-19
20
1.05947688607969
30
0
41
1
10
-19
20
1.00330201206953
30
0
41
1
10
-19
20
0.947161044590956
30
0
41
1
10
-19
20
0.891055246744173
30
0
41
1
10
-19
20
0.834992891996222
30
0
41
1
10
-19
20
0.778974983835155
30
0
41
1
10
-19
20
0.723010172894874
30
0
41
1
10
-19
20
0.667096437512441
30
0
41
1
10
-19
20
0.611239537520504
30
0
41
1
10
-19
20
0.555438256952812
30
0
41
1
10
-19
20
0.499694285660468
30
0
41
1
10
-19
20
0.444005417542513
30
0
41
1
10
-19
20
0.388370253126283
30
0
41
1
10
-19
20
0.332784951295224
30
0
41
1
10
-19
20
0.277245379074088
30
0
41
1
10
-19
20
0.221745399560177
30
0
41
1
10
-19
20
0.166278832055269
30
0
41
1
10
-19
20
0.110837824934094
30
0
41
1
10
-19
20
0.0554145387399103
30
0
41
1
10
-19
20
3.86551449E-08
30
0
41
1
10
-19
20
-0.0554144797882259
30
0
41
1
10
-19
20
-0.110837800625177
30
0
41
1
10
-19
20
-0.16627880449019
30
0
41
1
10
-19
20
-0.221745320409724
30
0
41
1
10
-19
20
-0.277245288582151
30
0
41
1
10
-19
20
-0.332784928641019
30
0
41
1
10
-19
20
-0.388370257726137
30
0
41
1
10
-19
20
-0.444005340907665
30
0
41
1
10
-19
20
-0.499694162742912
30
0
41
1
10
-19
20
-0.555438223077658
30
0
41
1
10
-19
20
-0.611239573198048
30
0
41
1
10
-19
20
-0.667096387172194
30
0
41
1
10
-19
20
-0.723010025138422
30
0
41
1
10
-19
20
-0.778974908352069
30
0
41
1
10
-19
20
-0.834992934518141
30
0
41
1
10
-19
20
-0.891055249962051
30
0
41
1
10
-19
20
-0.947160931144737
30
0
41
1
10
-19
20
-1.00330186501549
30
0
41
1
10
-19
20
-1.05947685359388
30
0
41
1
10
-19
20
-1.13522919275329
30
0
41
1
10
-19
20
-1.22820420682379
30
0
41
1
10
-19
20
-1.3406925501238
30
0
41
1
10
-19
20
-1.45315824122116
30
0
41
1
10
-19
20
-1.56555001007135
30
0
41
1
10
-19
20
-1.67782007270239
30
0
41
1
10
-19
20
-1.78992235147859
30
0
41
1
10
-19
20
-1.90180851379785
30
0
41
1
10
-19
20
-1.99420801826724
30
0
41
1
10
-19
20
-2.0690590907827
30
0
41
1
10
-19
20
-2.14381939218555
30
0
41
1
10
-19
20
-2.23578548610092
30
0
41
1
10
-19
20
-2.34642921347088
30
0
41
1
10
-19
20
-2.45668047453481
30
0
41
1
10
-19
20
-2.56651081363333
30
0
41
1
10
-19
20
-2.67589173582559
30
0
41
1
10
-19
20
-2.78479769803877
30
0
41
1
10
-19
20
-2.89321157705831
30
0
41
1
10
-19
20
-3.00111464897739
30
0
41
1
10
-19
20
-3.10848610444538
30
0
41
1
10
-19
20
-3.21530671882516
30
0
41
1
10
-19
20
-3.32155966873086
30
0
41
1
10
-19
20
-3.4272331082463
30
0
41
1
10
-19
20
-3.53231555384818
30
0
41
1
10
-19
20
-3.63679192068696
30
0
41
1
10
-19
20
-3.74064752046886
30
0
41
1
10
-19
20
-3.84387328825898
30
0
41
1
10
-19
20
-3.9814047720688
30
0
41
1
10
-19
20
-4.15007840683614
30
0
41
1
10
-19
20
-4.35063308740934
30
0
41
1
10
-19
20
-4.54845949464797
30
0
41
1
10
-19
20
-4.71034653931898
30
0
41
1
10
-19
20
-4.83955792501365
30
0
41
1
10
-19
20
-4.93530236631193
30
0
41
1
10
-19
20
-5.03032492621836
30
0
41
1
10
-19
20
-5.12462208769517
30
0
41
1
10
-19
20
-5.21818725421466
30
0
41
1
10
-19
20
-5.31101586303657
30
0
41
1
10
-19
20
-5.40310273191946
30
0
41
1
10
-19
20
-5.49444243905597
30
0
41
1
10
-19
20
-5.58503143754709
30
0
41
1
10
-19
20
-5.6748639812667
30
0
41
1
10
-19
20
-5.76393594987681
30
0
41
1
10
-19
20
-5.85224369296401
30
0
41
1
10
-19
20
-5.93978182754933
30
0
41
1
10
-19
20
-6.02654676214735
30
0
41
1
10
-19
20
-6.11253406622626
30
0
41
1
10
-19
20
-6.19773872711929
30
0
41
1
10
-19
20
-6.28215778589689
30
0
41
1
10
-19
20
-6.39412570491885
30
0
41
1
10
-19
20
-6.53107811386181
30
0
41
1
10
-19
20
-6.66535731095078
30
0
41
1
10
-19
20
-6.77193788641881
30
0
41
1
10
-19
20
-6.85074105917914
30
0
41
1
10
-19
20
-6.92872515734757
30
0
41
1
10
-19
20
-7.00588738465535
30
0
41
1
10
-19
20
-7.08222313407848
30
0
41
1
10
-19
20
-7.15772729389113
30
0
41
1
10
-19
20
-7.23239715387308
30
0
41
1
10
-19
20
-7.33122522366617
30
0
41
1
10
-19
20
-7.45179045110854
30
0
41
1
10
-19
20
-7.56952281794148
30
0
41
1
10
-19
20
-7.66264287890502
30
0
41
1
10
-19
20
-7.7313479299593
30
0
41
1
10
-19
20
-7.79918269883237
30
0
41
1
10
-19
20
-7.86614375440621
30
0
41
1
10
-19
20
-7.93222590620877
30
0
41
1
10
-19
20
-7.99742344377472
30
0
41
1
10
-19
20
-8.06173282830699
30
0
41
1
10
-19
20
-8.14661354012858
30
0
41
1
10
-19
20
-8.24973847707105
30
0
41
1
10
-19
20
-8.34984449752753
30
0
41
1
10
-19
20
-8.42864307690587
30
0
41
1
10
-19
20
-8.48658846431246
30
0
41
1
10
-19
20
-8.54360267942894
30
0
41
1
10
-19
20
-8.59968100131869
30
0
41
1
10
-19
20
-8.65481732154308
30
0
41
1
10
-19
20
-8.70900472624044
30
0
41
1
10
-19
20
-8.76223827352646
30
0
41
1
10
-19
20
-8.83220799572914
30
0
41
1
10
-19
20
-8.9166419843763
30
0
41
1
10
-19
20
-8.99782332638688
30
0
41
1
10
-19
20
-9.0612390265818
30
0
41
1
10
-19
20
-9.1076096344371
30
0
41
1
10
-19
20
-9.15297166047549
30
0
41
1
10
-19
20
-9.1973181725669
30
0
41
1
10
-19
20
-9.24064143684649
30
0
41
1
10
-19
20
-9.28293297620277
30
0
41
1
10
-19
20
-9.32418545496634
30
0
41
1
10
-19
20
-9.36438993128212
30
0
41
1
10
-19
20
-9.40353804443777
30
0
41
1
10
-19
20
-9.44162162340902
30
0
41
1
10
-19
20
-9.4786311932792
30
0
41
1
10
-19
20
-9.51455772901522
30
0
41
1
10
-19
20
-9.54939202150848
30
0
41
1
10
-19
20
-9.58312368103435
30
0
41
1
10
-19
20
-9.61574344204709
30
0
41
1
10
-19
20
-9.64724067280977
30
0
41
1
10
-19
20
-9.67760484023773
30
0
41
1
10
-19
20
-9.70682532727793
30
0
41
1
10
-19
20
-9.7348907843963
30
0
41
1
10
-19
20
-9.7709155485193
30
0
41
1
10
-19
20
-9.80411797119547
30
0
41
1
10
-19
20
-9.83536691785608
30
0
41
1
10
-19
20
-9.85747768285276
30
0
41
1
10
-19
20
-9.87835855131377
30
0
41
1
10
-19
20
-9.90466616212433
30
0
41
1
10
-19
20
-9.93413279070074
30
0
41
1
10
-19
20
-9.96448776920465
30
0
41
1
10
-19
20
-9.98956609304787
30
0
41
1
10
-19
20
-10.0058874490332
30
0
41
1
10
-19
20
-10.0162748640149
30
0
41
1
10
-19
20
-10.0226131177802
30
0
41
1
10
-19
20
-10.0275224425778
30
0
41
1
10
-19
20
-10.0309830121398
30
0
41
1
10
-19
20
-10.0329737078169
30
0
41
1
10
-19
20
-10.0333807798239
30
0
41
1
10
-19
20
-10.0330913292463
30
0
41
1
10
-19
20
-10.0329503541898
30
0
0
SPLINE
5
108
100
AcDbEntity
8
SK1
62
256
6
ByLayer
370
18
48
1
60
0
100
AcDbSpline
70
4
71
3
72
87
73
83
40
0
40
0
40
0
40
0
40
0.0205895173222293
40
0.042209234178442
40
0.0638289510346546
40
0.0746388094627609
40
0.0854486678908672
40
0.0962585263189735
40
0.10706838474708
40
0.117878243175186
40
0.128688101603292
40
0.139497960031399
40
0.150307818459505
40
0.161117676887611
40
0.171927535315718
40
0.182737393743824
40
0.19354725217193
40
0.204357110600037
40
0.215166969028143
40
0.225976827456249
40
0.236786685884355
40
0.247596544312462
40
0.258406402740568
40
0.280026119596781
40
0.301645836452993
40
0.3124556948811
40
0.323265553309206
40
0.334075411737312
40
0.344885270165418
40
0.355695128593525
40
0.366504987021631
40
0.377314845449737
40
0.388124703877844
40
0.409744420734056
40
0.431364137590269
40
0.442173996018375
40
0.452983854446481
40
0.463793712874588
40
0.474603571302694
40
0.4854134297308
40
0.496223288158907
40
0.507033146587013
40
0.517843005015119
40
0.539462721871332
40
0.561082438727545
40
0.571892297155651
40
0.582702155583757
40
0.593512014011863
40
0.60432187243997
40
0.615131730868076
40
0.625941589296182
40
0.636751447724289
40
0.647561306152395
40
0.669181023008608
40
0.69080073986482
40
0.701610598292926
40
0.712420456721033
40
0.723230315149139
40
0.734040173577245
40
0.744850032005352
40
0.755659890433458
40
0.766469748861564
40
0.777279607289671
40
0.788089465717777
40
0.798899324145883
40
0.80970918257399
40
0.820519041002096
40
0.831328899430202
40
0.842138757858308
40
0.852948616286415
40
0.863758474714521
40
0.874568333142627
40
0.885378191570734
40
0.89618804999884
40
0.906997908426946
40
0.928617625283159
40
0.939427483711265
40
0.950237342139372
40
0.961047200567478
40
0.971857058995584
40
0.993476775851797
40
1
40
1
40
1
40
1
41
1
10
-0.394976888875306
20
-4.64126630129056
30
0
41
1
10
-0.394976888875306
20
-4.70975933848587
30
0
41
1
10
-0.394976888875306
20
-4.84919883643008
30
0
41
1
10
-0.394976888875306
20
-5.05691306897958
30
0
41
1
10
-0.394976888875306
20
-5.2299607904209
30
0
41
1
10
-0.394976888875306
20
-5.36691601337117
30
0
41
1
10
-0.394976888875306
20
-5.46873573922787
30
0
41
1
10
-0.394976888875306
20
-5.56972480779478
30
0
41
1
10
-0.394976888875306
20
-5.66988183380954
30
0
41
1
10
-0.394976888875306
20
-5.76920475793781
30
0
41
1
10
-0.394976888875306
20
-5.8676917140148
30
0
41
1
10
-0.394976888875306
20
-5.96534094682289
30
0
41
1
10
-0.394976888875306
20
-6.06215026481468
30
0
41
1
10
-0.394976888875306
20
-6.15811800993771
30
0
41
1
10
-0.394976888875306
20
-6.25324207373163
30
0
41
1
10
-0.394976888875306
20
-6.34752034717769
30
0
41
1
10
-0.394976888875306
20
-6.44095106217856
30
0
41
1
10
-0.394976888875306
20
-6.53353195984096
30
0
41
1
10
-0.394976888875306
20
-6.62526091746003
30
0
41
1
10
-0.394976888875306
20
-6.7161359116314
30
0
41
1
10
-0.394976888875306
20
-6.80615436611964
30
0
41
1
10
-0.394976888875306
20
-6.89531421629039
30
0
41
1
10
-0.394976888875306
20
-7.01311652640493
30
0
41
1
10
-0.394976888875306
20
-7.15805527924184
30
0
41
1
10
-0.394976888875306
20
-7.30009987737762
30
0
41
1
10
-0.394976888875306
20
-7.41210655371302
30
0
41
1
10
-0.394976888875306
20
-7.49518683136168
30
0
41
1
10
-0.394976888875306
20
-7.57738775597255
30
0
41
1
10
-0.394976888875306
20
-7.65870656932981
30
0
41
1
10
-0.394976888875306
20
-7.73914053534185
30
0
41
1
10
-0.394976888875306
20
-7.81868611994122
30
0
41
1
10
-0.394976888875306
20
-7.89734053346649
30
0
41
1
10
-0.394976888875306
20
-8.00107946944797
30
0
41
1
10
-0.394976888875306
20
-8.12837715497497
30
0
41
1
10
-0.394976888875306
20
-8.25266064944725
30
0
41
1
10
-0.394976888875306
20
-8.35036327427801
30
0
41
1
10
-0.394976888875306
20
-8.42268346582151
30
0
41
1
10
-0.394976888875306
20
-8.49408386680085
30
0
41
1
10
-0.394976888875306
20
-8.56456063385824
30
0
41
1
10
-0.394976888875306
20
-8.63410993550619
30
0
41
1
10
-0.394976888875306
20
-8.70272704218718
30
0
41
1
10
-0.394976888875306
20
-8.77040796817133
30
0
41
1
10
-0.394976888875306
20
-8.85944470922473
30
0
41
1
10
-0.394976888875306
20
-8.96826608195681
30
0
41
1
10
-0.394976888875306
20
-9.07390697555735
30
0
41
1
10
-0.394976888875306
20
-9.156574137538
30
0
41
1
10
-0.394976888875306
20
-9.21756975316299
30
0
41
1
10
-0.394976888875306
20
-9.27758983691163
30
0
41
1
10
-0.394976888875306
20
-9.33662895751223
30
0
41
1
10
-0.394976888875306
20
-9.39468180573056
30
0
41
1
10
-0.394976888875306
20
-9.45174200258421
30
0
41
1
10
-0.394976888875306
20
-9.50780389645979
30
0
41
1
10
-0.394976888875306
20
-9.58125528659923
30
0
41
1
10
-0.394976888875306
20
-9.67044907777677
30
0
41
1
10
-0.394976888875306
20
-9.75623202994143
30
0
41
1
10
-0.394976888875306
20
-9.8228521720736
30
0
41
1
10
-0.394976888875306
20
-9.87174304842168
30
0
41
1
10
-0.394976888875306
20
-9.91958105894813
30
0
41
1
10
-0.394976888875306
20
-9.9663584938545
30
0
41
1
10
-0.394976888875306
20
-10.0120677589968
30
0
41
1
10
-0.394976888875306
20
-10.0567002175973
30
0
41
1
10
-0.394976888875306
20
-10.1002477853245
30
0
41
1
10
-0.394976888875306
20
-10.1427016347534
30
0
41
1
10
-0.394976888875306
20
-10.1840526482538
30
0
41
1
10
-0.394976888875306
20
-10.2242918789209
30
0
41
1
10
-0.394976888875306
20
-10.2634097977789
30
0
41
1
10
-0.394976888875306
20
-10.3013963717051
30
0
41
1
10
-0.394976888875306
20
-10.3382419231241
30
0
41
1
10
-0.394976888875306
20
-10.373935478284
30
0
41
1
10
-0.394976888875306
20
-10.4084665881748
30
0
41
1
10
-0.394976888875306
20
-10.4418240218233
30
0
41
1
10
-0.394976888875306
20
-10.4739962096758
30
0
41
1
10
-0.394976888875306
20
-10.5049713318295
30
0
41
1
10
-0.394976888875306
20
-10.5347371933948
30
0
41
1
10
-0.394976888875306
20
-10.5728196085917
30
0
41
1
10
-0.394976888875306
20
-10.6083610274959
30
0
41
1
10
-0.394976888875306
20
-10.6414451810514
30
0
41
1
10
-0.394976888875306
20
-10.664964154205
30
0
41
1
10
-0.394976888875306
20
-10.687189908093
30
0
41
1
10
-0.394976888875306
20
-10.7150986110188
30
0
41
1
10
-0.394976888875306
20
-10.7378232718623
30
0
41
1
10
-0.394976888875306
20
-10.7527121733543
30
0
41
1
10
-0.394976888875306
20
-10.7560803013843
30
0
0
SPLINE
5
109
100
AcDbEntity
8
SK1
62
256
6
ByLayer
370
18
48
1
60
0
100
AcDbSpline
70
4
71
3
72
87
73
83
40
0
40
0
40
0
40
0
40
0.0065230985336924
40
0.0281428542745968
40
0.038952732145049
40
0.0497626100155012
40
0.0605724878859533
40
0.0713823657564055
40
0.0930021214973099
40
0.103811999367762
40
0.114621877238214
40
0.125431755108666
40
0.136241632979119
40
0.147051510849571
40
0.157861388720023
40
0.168671266590475
40
0.179481144460927
40
0.19029102233138
40
0.201100900201832
40
0.211910778072284
40
0.222720655942736
40
0.233530533813188
40
0.24434041168364
40
0.255150289554093
40
0.265960167424545
40
0.276770045294997
40
0.287579923165449
40
0.298389801035901
40
0.309199678906354
40
0.330819434647258
40
0.352439190388162
40
0.363249068258614
40
0.374058946129067
40
0.384868823999519
40
0.395678701869971
40
0.406488579740423
40
0.417298457610875
40
0.428108335481327
40
0.43891821335178
40
0.460537969092684
40
0.482157724833588
40
0.492967602704041
40
0.503777480574493
40
0.514587358444945
40
0.525397236315397
40
0.536207114185849
40
0.547016992056302
40
0.557826869926754
40
0.568636747797206
40
0.59025650353811
40
0.611876259279014
40
0.622686137149467
40
0.633496015019919
40
0.644305892890371
40
0.655115770760823
40
0.665925648631275
40
0.676735526501728
40
0.68754540437218
40
0.698355282242632
40
0.719975037983536
40
0.741594793724441
40
0.752404671594893
40
0.763214549465345
40
0.774024427335797
40
0.784834305206249
40
0.795644183076701
40
0.806454060947154
40
0.817263938817606
40
0.828073816688058
40
0.83888369455851
40
0.849693572428962
40
0.860503450299415
40
0.871313328169867
40
0.882123206040319
40
0.892933083910771
40
0.903742961781223
40
0.914552839651676
40
0.925362717522128
40
0.93617259539258
40
0.957792351133484
40
0.979412106874389
40
1
40
1
40
1
40
1
41
1
10
-0.394976888875277
20
10.7560800797164
30
0
41
1
10
-0.394976888875277
20
10.7527120190526
30
0
41
1
10
-0.394976888875277
20
10.7378231842123
30
0
41
1
10
-0.394976888875277
20
10.7150986230281
30
0
41
1
10
-0.394976888875277
20
10.6871899043463
30
0
41
1
10
-0.394976888875277
20
10.6649641398451
30
0
41
1
10
-0.394976888875277
20
10.6414451731179
30
0
41
1
10
-0.394976888875277
20
10.6083610391774
30
0
41
1
10
-0.394976888875277
20
10.5728196102718
30
0
41
1
10
-0.394976888875277
20
10.5347371860945
30
0
41
1
10
-0.394976888875277
20
10.5049713249704
30
0
41
1
10
-0.394976888875277
20
10.4739962130972
30
0
41
1
10
-0.394976888875277
20
10.4418240333465
30
0
41
1
10
-0.394976888875277
20
10.4084665953504
30
0
41
1
10
-0.394976888875277
20
10.3739354752827
30
0
41
1
10
-0.394976888875277
20
10.3382419186448
30
0
41
1
10
-0.394976888875277
20
10.3013963735904
30
0
41
1
10
-0.394976888875277
20
10.2634098071932
30
0
41
1
10
-0.394976888875277
20
10.2242918912355
30
0
41
1
10
-0.394976888875277
20
10.1840526544675
30
0
41
1
10
-0.394976888875277
20
10.1427016339893
30
0
41
1
10
-0.394976888875277
20
10.1002477857307
30
0
41
1
10
-0.394976888875277
20
10.0567002250884
30
0
41
1
10
-0.394976888875277
20
10.0120677716559
30
0
41
1
10
-0.394976888875277
20
9.96635850688563
30
0
41
1
10
-0.394976888875277
20
9.9195810672756
30
0
41
1
10
-0.394976888875277
20
9.87174305179948
30
0
41
1
10
-0.394976888875277
20
9.8228521774133
30
0
41
1
10
-0.394976888875277
20
9.75623204290733
30
0
41
1
10
-0.394976888875277
20
9.67044909356338
30
0
41
1
10
-0.394976888875277
20
9.58125529483195
30
0
41
1
10
-0.394976888875277
20
9.50780390566945
30
0
41
1
10
-0.394976888875277
20
9.45174201576441
30
0
41
1
10
-0.394976888875277
20
9.39468182193772
30
0
41
1
10
-0.394976888875277
20
9.33662897444754
30
0
41
1
10
-0.394976888875277
20
9.27758985219697
30
0
41
1
10
-0.394976888875277
20
9.21756976623391
30
0
41
1
10
-0.394976888875277
20
9.15657415078076
30
0
41
1
10
-0.394976888875277
20
9.07390699150645
30
0
41
1
10
-0.394976888875277
20
8.96826610167739
30
0
41
1
10
-0.394976888875277
20
8.85944472740889
30
0
41
1
10
-0.394976888875277
20
8.77040798541609
30
0
41
1
10
-0.394976888875277
20
8.70272705940039
30
0
41
1
10
-0.394976888875277
20
8.63410995408893
30
0
41
1
10
-0.394976888875277
20
8.56456065460728
30
0
41
1
10
-0.394976888875277
20
8.494083889178
30
0
41
1
10
-0.394976888875277
20
8.42268348862098
30
0
41
1
10
-0.394976888875277
20
8.35036329562493
30
0
41
1
10
-0.394976888875277
20
8.25266066821666
30
0
41
1
10
-0.394976888875277
20
8.12837717774204
30
0
41
1
10
-0.394976888875277
20
8.00107949685969
30
0
41
1
10
-0.394976888875277
20
7.89734055913431
30
0
41
1
10
-0.394976888875277
20
7.81868614170455
30
0
41
1
10
-0.394976888875277
20
7.73914055621265
30
0
41
1
10
-0.394976888875277
20
7.65870659316923
30
0
41
1
10
-0.394976888875277
20
7.57738778439318
30
0
41
1
10
-0.394976888875277
20
7.49518686307914
30
0
41
1
10
-0.394976888875277
20
7.41210658285706
30
0
41
1
10
-0.394976888875277
20
7.30009989843438
30
0
41
1
10
-0.394976888875277
20
7.15805530645628
30
0
41
1
10
-0.394976888875277
20
7.01311656207406
30
0
41
1
10
-0.394976888875277
20
6.89531424839751
30
0
41
1
10
-0.394976888875277
20
6.80615439018041
30
0
41
1
10
-0.394976888875277
20
6.71613593458255
30
0
41
1
10
-0.394976888875277
20
6.62526094744771
30
0
41
1
10
-0.394976888875277
20
6.5335319966735
30
0
41
1
10
-0.394976888875277
20
6.44095110045453
30
0
41
1
10
-0.394976888875277
20
6.34752037917039
30
0
41
1
10
-0.394976888875277
20
6.25324209742863
30
0
41
1
10
-0.394976888875277
20
6.15811803500972
30
0
41
1
10
-0.394976888875277
20
6.06215030170887
30
0
41
1
10
-0.394976888875277
20
5.96534098944565
30
0
41
1
10
-0.394976888875277
20
5.86769175097615
30
0
41
1
10
-0.394976888875277
20
5.76920478634827
30
0
41
1
10
-0.394976888875277
20
5.66988185892194
30
0
41
1
10
-0.394976888875277
20
5.56972484101726
30
0
41
1
10
-0.394976888875277
20
5.46873578487436
30
0
41
1
10
-0.394976888875277
20
5.36691605746566
30
0
41
1
10
-0.394976888875277
20
5.22996081233961
30
0
41
1
10
-0.394976888875277
20
5.05691311008314
30
0
41
1
10
-0.394976888875277
20
4.84920429303571
30
0
41
1
10
-0.394976888875277
20
4.70977032131108
30
0
41
1
10
-0.394976888875277
20
4.64126507959355
30
0
0
SPLINE
5
10A
100
AcDbEntity
8
1
62
256
6
ByLayer
370
18
48
1
60
0
100
AcDbSpline
70
4
71
3
72
14
73
10
40
0
40
0
40
0
40
0
40
0.281038222380467
40
0.281038222380467
40
0.56455785706713
40
0.56455785706713
40
0.820700196130139
40
0.820700196130139
40
1
40
1
40
1
40
1
41
1
10
35.4078822958328
20
15.1435826280887
30
0
41
1
10
35.3813006245732
20
15.1709123690699
30
0
41
1
10
35.3490439690951
20
15.1943655245359
30
0
41
1
10
35.277235194489
20
15.2285748604269
30
0
41
1
10
35.2364720760798
20
15.2396847590448
30
0
41
1
10
35.1571729147492
20
15.2453486855742
30
0
41
1
10
35.1175924873016
20
15.241411725643
30
0
41
1
10
35.0539176730122
20
15.2231154346456
30
0
41
1
10
35.0281706327858
20
15.2121032984634
30
0
41
1
10
35.0044231104048
20
15.1981810583397
30
0
0
SPLINE
5
10B
100
AcDbEntity
8
1
62
256
6
ByLayer
370
18
48
1
60
0
100
AcDbSpline
70
4
71
3
72
16
73
12
40
0
40
0
40
0
40
0
40
0.0645965064171343
40
0.0645965064171343
40
0.282747320500291
40
0.282747320500291
40
0.503851581407221
40
0.503851581407221
40
0.739476498257815
40
0.739476498257815
40
1
40
1
40
1
40
1
41
1
10
35.0044231104048
20
11.8018189416602
30
0
41
1
10
35.013014252084
20
11.7967822925532
30
0
41
1
10
35.0218448367852
20
11.7921293853552
30
0
41
1
10
35.0610594082809
20
11.7736816867281
30
0
41
1
10
35.0937837130779
20
11.7640630917643
30
0
41
1
10
35.1593454694517
20
11.75504045
30
0
41
1
10
35.1930080641066
20
11.7556346613772
30
0
41
1
10
35.2588630387573
20
11.7664681142401
30
0
41
1
10
35.2916435993958
20
11.7774376207136
30
0
41
1
10
35.3537963059872
20
11.8091149464693
30
0
41
1
10
35.3832521428563
20
11.8310940694521
30
0
41
1
10
35.4078822958328
20
11.8564173719112
30
0
0
SPLINE
5
10C
100
AcDbEntity
8
1
62
256
6
ByLayer
370
18
48
1
60
0
100
AcDbSpline
70
4
71
3
72
18
73
14
40
0
40
0
40
0
40
0
40
0.213081262000624
40
0.213081262000624
40
0.38716094392635
40
0.38716094392635
40
0.562948999942012
40
0.562948999942012
40
0.715638435810386
40
0.715638435810386
40
0.919170953808133
40
0.919170953808133
40
1
40
1
40
1
40
1
41
1
10
37.1474510335849
20
14.8281523379785
30
0
41
1
10
37.1253499966636
20
14.7456026033975
30
0
41
1
10
37.1155116663086
20
14.6567963171877
30
0
41
1
10
37.125005262533
20
14.4930591646997
30
0
41
1
10
37.1396283941553
20
14.4167307174995
30
0
41
1
10
37.190791443592
20
14.2695300091916
30
0
41
1
10
37.2285222509958
20
14.1966114249892
30
0
41
1
10
37.3147745125081
20
14.0765687241949
30
0
41
1
10
37.3621656692504
20
14.0258230633913
30
0
41
1
10
37.4803089305089
20
13.9262092090027
30
0
41
1
10
37.5554527440065
20
13.8816247717127
30
0
41
1
10
37.6631437334956
20
13.8375192838218
30
0
41
1
10
37.6945032391402
20
13.8268598436391
30
0
41
1
10
37.7260954401443
20
13.8181619695468
30
0
0
SPLINE
5
10D
100
AcDbEntity
8
1
62
256
6
ByLayer
370
18
48
1
60
0
100
AcDbSpline
70
4
71
3
72
18
73
14
40
0
40
0
40
0
40
0
40
0.213081026856105
40
0.213081026856105
40
0.387160750704748
40
0.387160750704748
40
0.56294885146464
40
0.56294885146464
40
0.715638295683693
40
0.715638295683693
40
0.919170771668919
40
0.919170771668919
40
1
40
1
40
1
40
1
41
1
10
34.2739045598557
20
13.8181619695468
30
0
41
1
10
34.3562959735259
20
13.8408457370468
30
0
41
1
10
34.4378828610425
20
13.8772725130265
30
0
41
1
10
34.5743337817464
20
13.9682730559037
30
0
41
1
10
34.6327849506205
20
14.0194915167336
30
0
41
1
10
34.7338958570924
20
14.1380760878861
30
0
41
1
10
34.7777186157693
20
14.2075044896993
30
0
41
1
10
34.8376543890653
20
14.3426244864065
30
0
41
1
10
34.8574632867377
20
14.4091726073604
30
0
41
1
10
34.8836465356628
20
14.5614722639211
30
0
41
1
10
34.8841042679144
20
14.6488459036679
30
0
41
1
10
34.8676879551153
20
14.7640551168518
30
0
41
1
10
34.8610234078263
20
14.7964993937431
30
0
41
1
10
34.8525489664152
20
14.8281523379785
30
0
0
SPLINE
5
10E
100
AcDbEntity
8
1
62
256
6
ByLayer
370
18
48
1
60
0
100
AcDbSpline
70
4
71
3
72
14
73
10
40
0
40
0
40
0
40
0
40
0.285014780844602
40
0.285014780844602
40
0.572350605982603
40
0.572350605982603
40
0.832166772861822
40
0.832166772861822
40
1
40
1
40
1
40
1
41
1
10
34.8525489664152
20
12.1718476620214
30
0
41
1
10
34.8427455383358
20
12.1352308105672
30
0
41
1
10
34.839100800866
20
12.0957286079056
30
0
41
1
10
34.8463060087591
20
12.0169487612488
30
0
41
1
10
34.8574570886555
20
11.9764597517414
30
0
41
1
10
34.8927012508891
20
11.905725358475
30
0
41
1
10
34.9160474129793
20
11.8738320646956
30
0
41
1
10
34.9622449161042
20
11.8299585624868
30
0
41
1
10
34.9826741516866
20
11.8145695023653
30
0
41
1
10
35.0044231104048
20
11.8018189416602
30
0
0
SPLINE
5
10F
100
AcDbEntity
8
1
62
256
6
ByLayer
370
18
48
1
60
0
100
AcDbSpline
70
4
71
3
72
14
73
10
40
0
40
0
40
0
40
0
40
0.285013984727041
40
0.285013984727041
40
0.572349910643036
40
0.572349910643036
40
0.832166158509283
40
0.832166158509283
40
1
40
1
40
1
40
1
41
1
10
37.7260954401443
20
13.1818380304531
30
0
41
1
10
37.7626420033309
20
13.1918999253196
30
0
41
1
10
37.798562913688
20
13.2087340241313
30
0
41
1
10
37.8628804284091
20
13.2547928978749
30
0
41
1
10
37.892169726513
20
13.2848901460308
30
0
41
1
10
37.9353659032993
20
13.3510686822684
30
0
41
1
10
37.9510721564614
20
13.3873390540657
30
0
41
1
10
37.9655563481768
20
13.4493818984825
30
0
41
1
10
37.9685
20
13.4747889183342
30
0
41
1
10
37.9685
20
13.4999999999999
30
0
0
SPLINE
5
110
100
AcDbEntity
8
1
62
256
6
ByLayer
370
18
48
1
60
0
100
AcDbSpline
70
4
71
3
72
16
73
12
40
0
40
0
40
0
40
0
40
0.0645965064171325
40
0.0645965064171325
40
0.28274732050029
40
0.28274732050029
40
0.503851581407221
40
0.503851581407221
40
0.739476498257835
40
0.739476498257835
40
1
40
1
40
1
40
1
41
1
10
36.9955768895952
20
15.1981810583397
30
0
41
1
10
36.986985747916
20
15.2032177074467
30
0
41
1
10
36.9781551632148
20
15.2078706146447
30
0
41
1
10
36.9389405917191
20
15.2263183132718
30
0
41
1
10
36.9062162869221
20
15.2359369082356
30
0
41
1
10
36.8406545305483
20
15.2449595499999
30
0
41
1
10
36.8069919358934
20
15.2443653386227
30
0
41
1
10
36.7411369612427
20
15.2335318857598
30
0
41
1
10
36.7083564006043
20
15.2225623792863
30
0
41
1
10
36.6462036940129
20
15.1908850535306
30
0
41
1
10
36.6167478571437
20
15.1689059305478
30
0
41
1
10
36.5921177041672
20
15.1435826280887
30
0
0
SPLINE
5
111
100
AcDbEntity
8
1
62
256
6
ByLayer
370
18
48
1
60
0
100
AcDbSpline
70
4
71
3
72
16
73
12
40
0
40
0
40
0
40
0
40
0.0660777514108934
40
0.0660777514108934
40
0.289232858199879
40
0.289232858199879
40
0.515409129607284
40
0.515409129607284
40
0.756439127791325
40
0.756439127791325
40
1
40
1
40
1
40
1
41
1
10
34.0315
20
13.5
30
0
41
1
10
34.0315
20
13.4900413932558
30
0
41
1
10
34.0319521370927
20
13.4800703037082
30
0
41
1
10
34.035870606949
20
13.4369108485012
30
0
41
1
10
34.0441232851387
20
13.4038156675451
30
0
41
1
10
34.0694977332366
20
13.342693743501
30
0
41
1
10
34.0870353182329
20
13.3139542857457
30
0
41
1
10
34.1296874761397
20
13.2626217014161
30
0
41
1
10
34.1557295062842
20
13.2398904973956
30
0
41
1
10
34.2118903369798
20
13.2039574606322
30
0
41
1
10
34.242638287392
20
13.1904461708353
30
0
41
1
10
34.2739045598557
20
13.1818380304531
30
0
0
SPLINE
5
112
100
AcDbEntity
8
1
62
256
6
ByLayer
370
18
48
1
60
0
100
AcDbSpline
70
4
71
3
72
10
73
6
40
0
40
0
40
0
40
0
40
0.479736826302598
40
0.479736826302598
40
1
40
1
40
1
40
1
41
1
10
35.8472587066236
20
12.0922620637001
30
0
41
1
10
35.7634717620859
20
12.0764965592313
30
0
41
1
10
35.6831344436619
20
12.0475497808792
30
0
41
1
10
35.5347803935531
20
11.9686263054825
30
0
41
1
10
35.4658766441957
20
11.9160438153973
30
0
41
1
10
35.4078822958328
20
11.8564173719112
30
0
0
SPLINE
5
113
100
AcDbEntity
8
1
62
256
6
ByLayer
370
18
48
1
60
0
100
AcDbSpline
70
4
71
3
72
14
73
10
40
0
40
0
40
0
40
0
40
0.281038222380465
40
0.281038222380465
40
0.564557857067128
40
0.564557857067128
40
0.820700196130139
40
0.820700196130139
40
1
40
1
40
1
40
1
41
1
10
36.5921177041672
20
11.8564173719112
30
0
41
1
10
36.6186993754269
20
11.82908763093
30
0
41
1
10
36.650956030905
20
11.805634475464
30
0
41
1
10
36.722764805511
20
11.771425139573
30
0
41
1
10
36.7635279239202
20
11.7603152409551
30
0
41
1
10
36.8428270852509
20
11.7546513144257
30
0
41
1
10
36.8824075126984
20
11.7585882743569
30
0
41
1
10
36.9460823269879
20
11.7768845653543
30
0
41
1
10
36.9718293672142
20
11.7878967015365
30
0
41
1
10
36.9955768895952
20
11.8018189416602
30
0
0
SPLINE
5
114
100
AcDbEntity
8
1
62
256
6
ByLayer
370
18
48
1
60
0
100
AcDbSpline
70
4
71
3
72
14
73
10
40
0
40
0
40
0
40
0
40
0.285014780844606
40
0.285014780844606
40
0.572350605982605
40
0.572350605982605
40
0.83216677286182
40
0.83216677286182
40
1
40
1
40
1
40
1
41
1
10
37.1474510335849
20
14.8281523379785
30
0
41
1
10
37.1572544616642
20
14.8647691894327
30
0
41
1
10
37.1608991991341
20
14.9042713920944
30
0
41
1
10
37.153693991241
20
14.9830512387511
30
0
41
1
10
37.1425429113445
20
15.0235402482585
30
0
41
1
10
37.107298749111
20
15.0942746415249
30
0
41
1
10
37.0839525870207
20
15.1261679353044
30
0
41
1
10
37.0377550838958
20
15.1700414375131
30
0
41
1
10
37.0173258483135
20
15.1854304976346
30
0
41
1
10
36.9955768895952
20
15.1981810583397
30
0
0
SPLINE
5
115
100
AcDbEntity
8
1
62
256
6
ByLayer
370
18
48
1
60
0
100
AcDbSpline
70
4
71
3
72
10
73
6
40
0
40
0
40
0
40
0
40
0.541781546917742
40
0.541781546917742
40
1
40
1
40
1
40
1
41
1
10
36.5921177041672
20
11.8564173719112
30
0
41
1
10
36.5317893524551
20
11.9184435030001
30
0
41
1
10
36.4595938121995
20
11.9728823223152
30
0
41
1
10
36.3098326867735
20
12.0500777047587
30
0
41
1
10
36.2328667479517
20
12.0771855118681
30
0
41
1
10
36.1527412933765
20
12.0922620637001
30
0
0
SPLINE
5
116
100
AcDbEntity
8
1
62
256
6
ByLayer
370
18
48
1
60
0
100
AcDbSpline
70
4
71
3
72
14
73
10
40
0
40
0
40
0
40
0
40
0.285013984727042
40
0.285013984727042
40
0.572349910643038
40
0.572349910643038
40
0.832166158509286
40
0.832166158509286
40
1
40
1
40
1
40
1
41
1
10
34.2739045598557
20
13.8181619695468
30
0
41
1
10
34.2373579966691
20
13.8081000746803
30
0
41
1
10
34.201437086312
20
13.7912659758686
30
0
41
1
10
34.1371195715909
20
13.745207102125
30
0
41
1
10
34.1078302734871
20
13.7151098539691
30
0
41
1
10
34.0646340967007
20
13.6489313177315
30
0
41
1
10
34.0489278435387
20
13.6126609459343
30
0
41
1
10
34.0344436518232
20
13.5506181015174
30
0
41
1
10
34.0315
20
13.5252110816658
30
0
41
1
10
34.0315
20
13.5
30
0
0
SPLINE
5
117
100
AcDbEntity
8
1
62
256
6
ByLayer
370
18
48
1
60
0
100
AcDbSpline
70
4
71
3
72
18
73
14
40
0
40
0
40
0
40
0
40
0.213081026856105
40
0.213081026856105
40
0.387160750704749
40
0.387160750704749
40
0.56294885146464
40
0.56294885146464
40
0.715638295683693
40
0.715638295683693
40
0.91917077166892
40
0.91917077166892
40
1
40
1
40
1
40
1
41
1
10
37.7260954401443
20
13.1818380304531
30
0
41
1
10
37.6437040264742
20
13.1591542629531
30
0
41
1
10
37.5621171389576
20
13.1227274869734
30
0
41
1
10
37.4256662182536
20
13.0317269440962
30
0
41
1
10
37.3672150493795
20
12.9805084832664
30
0
41
1
10
37.2661041429076
20
12.8619239121138
30
0
41
1
10
37.2222813842307
20
12.7924955103007
30
0
41
1
10
37.1623456109347
20
12.6573755135934
30
0
41
1
10
37.1425367132623
20
12.5908273926396
30
0
41
1
10
37.1163534643372
20
12.4385277360788
30
0
41
1
10
37.1158957320857
20
12.351154096332
30
0
41
1
10
37.1323120448847
20
12.2359448831482
30
0
41
1
10
37.1389765921737
20
12.2035006062568
30
0
41
1
10
37.1474510335849
20
12.1718476620214
30
0
0
SPLINE
5
118
100
AcDbEntity
8
1
62
256
6
ByLayer
370
18
48
1
60
0
100
AcDbSpline
70
4
71
3
72
10
73
6
40
0
40
0
40
0
40
0
40
0.541781546918571
40
0.541781546918571
40
1
40
1
40
1
40
1
41
1
10
35.4078822958328
20
15.1435826280887
30
0
41
1
10
35.4682106475449
20
15.0815564969998
30
0
41
1
10
35.5404061878005
20
15.0271176776847
30
0
41
1
10
35.6901673132266
20
14.9499222952412
30
0
41
1
10
35.7671332520483
20
14.9228144881319
30
0
41
1
10
35.8472587066236
20
14.9077379362998
30
0
0
SPLINE
5
119
100
AcDbEntity
8
1
62
256
6
ByLayer
370
18
48
1
60
0
100
AcDbSpline
70
4
71
3
72
18
73
14
40
0
40
0
40
0
40
0
40
0.213081262000626
40
0.213081262000626
40
0.387160943926351
40
0.387160943926351
40
0.562948999942013
40
0.562948999942013
40
0.715638435810385
40
0.715638435810385
40
0.919170953808133
40
0.919170953808133
40
1
40
1
40
1
40
1
41
1
10
34.8525489664152
20
12.1718476620214
30
0
41
1
10
34.8746500033365
20
12.2543973966024
30
0
41
1
10
34.8844883336915
20
12.3432036828122
30
0
41
1
10
34.874994737467
20
12.5069408353002
30
0
41
1
10
34.8603716058447
20
12.5832692825004
30
0
41
1
10
34.809208556408
20
12.7304699908083
30
0
41
1
10
34.7714777490042
20
12.8033885750107
30
0
41
1
10
34.685225487492
20
12.923431275805
30
0
41
1
10
34.6378343307496
20
12.9741769366086
30
0
41
1
10
34.5196910694911
20
13.0737907909971
30
0
41
1
10
34.4445472559936
20
13.1183752282873
30
0
41
1
10
34.3368562665044
20
13.1624807161781
30
0
41
1
10
34.3054967608598
20
13.1731401563608
30
0
41
1
10
34.2739045598557
20
13.1818380304531
30
0
0
SPLINE
5
11A
100
AcDbEntity
8
1
62
256
6
ByLayer
370
18
48
1
60
0
100
AcDbSpline
70
4
71
3
72
16
73
12
40
0
40
0
40
0
40
0
40
0.0517235387679509
40
0.0517235387679509
40
0.275098677522076
40
0.275098677522076
40
0.500660612380106
40
0.500660612380106
40
0.740399911602673
40
0.740399911602673
40
1
40
1
40
1
40
1
41
1
10
36.9955768895952
20
11.8018189416602
30
0
41
1
10
37.0023126525051
20
11.8057678550307
30
0
41
1
10
37.0089132100844
20
11.809959315312
30
0
41
1
10
37.0429215049886
20
11.8332877014165
30
0
41
1
10
37.067814066225
20
11.8567220585583
30
0
41
1
10
37.1087337148404
20
11.9088029091819
30
0
41
1
10
37.1252135093438
20
11.9381448902959
30
0
41
1
10
37.1490799914639
20
12.0003557726624
30
0
41
1
10
37.1561625753256
20
12.0340961489702
30
0
41
1
10
37.1602113511054
20
12.1028127923815
30
0
41
1
10
37.1563795299009
20
12.1384987741969
30
0
41
1
10
37.1474510335849
20
12.1718476620214
30
0
0
SPLINE
5
11B
100
AcDbEntity
8
1
62
256
6
ByLayer
370
18
48
1
60
0
100
AcDbSpline
70
4
71
3
72
16
73
12
40
0
40
0
40
0
40
0
40
0.0660777514108859
40
0.0660777514108859
40
0.289232858199877
40
0.289232858199877
40
0.515409129607283
40
0.515409129607283
40
0.756439127791324
40
0.756439127791324
40
1
40
1
40
1
40
1
41
1
10
37.9685
20
13.4999999999999
30
0
41
1
10
37.9685
20
13.5099586067441
30
0
41
1
10
37.9680478629074
20
13.5199296962917
30
0
41
1
10
37.9641293930511
20
13.5630891514988
30
0
41
1
10
37.9558767148613
20
13.5961843324548
30
0
41
1
10
37.9305022667635
20
13.6573062564989
30
0
41
1
10
37.9129646817672
20
13.6860457142542
30
0
41
1
10
37.8703125238603
20
13.7373782985839
30
0
41
1
10
37.8442704937159
20
13.7601095026043
30
0
41
1
10
37.7881096630202
20
13.7960425393677
30
0
41
1
10
37.757361712608
20
13.8095538291646
30
0
41
1
10
37.7260954401443
20
13.8181619695468
30
0
0
SPLINE
5
11C
100
AcDbEntity
8
1
62
256
6
ByLayer
370
18
48
1
60
0
100
AcDbSpline
70
4
71
3
72
10
73
6
40
0
40
0
40
0
40
0
40
0.479736826236746
40
0.479736826236746
40
1
40
1
40
1
40
1
41
1
10
36.1527412933765
20
14.9077379362998
30
0
41
1
10
36.2365282379028
20
14.9235034407665
30
0
41
1
10
36.3168655563164
20
14.9524502191128
30
0
41
1
10
36.4652196064295
20
15.0313736945042
30
0
41
1
10
36.5341233557971
20
15.0839561845951
30
0
41
1
10
36.5921177041672
20
15.1435826280887
30
0
0
SPLINE
5
11D
100
AcDbEntity
8
1
62
256
6
ByLayer
370
18
48
1
60
0
100
AcDbSpline
70
4
71
3
72
16
73
12
40
0
40
0
40
0
40
0
40
0.051723538767951
40
0.051723538767951
40
0.275098677522077
40
0.275098677522077
40
0.500660612380108
40
0.500660612380108
40
0.740399911602681
40
0.740399911602681
40
1
40
1
40
1
40
1
41
1
10
35.0044231104048
20
15.1981810583397
30
0
41
1
10
34.9976873474949
20
15.1942321449692
30
0
41
1
10
34.9910867899157
20
15.1900406846879
30
0
41
1
10
34.9570784950114
20
15.1667122985834
30
0
41
1
10
34.932185933775
20
15.1432779414416
30
0
41
1
10
34.8912662851596
20
15.091197090818
30
0
41
1
10
34.8747864906562
20
15.061855109704
30
0
41
1
10
34.8509200085361
20
14.9996442273376
30
0
41
1
10
34.8438374246744
20
14.9659038510297
30
0
41
1
10
34.8397886488946
20
14.8971872076184
30
0
41
1
10
34.8436204700991
20
14.861501225803
30
0
41
1
10
34.8525489664152
20
14.8281523379785
30
0
0
SPLINE
5
11E
100
AcDbEntity
8
1
62
256
6
ByLayer
370
18
48
1
60
0
100
AcDbSpline
70
4
71
3
72
8
73
4
40
0
40
0
40
0
40
0
40
1
40
1
40
1
40
1
41
1
10
15.92079238
20
-0.826382657061771
30
0
41
1
10
15.3114856738719
20
-1.79532227768974
30
0
41
1
10
15
20
-2.91157949775396
30
0
41
1
10
15
20
-4.02038484130242
30
0
0
SPLINE
5
11F
100
AcDbEntity
8
1
62
256
6
ByLayer
370
18
48
1
60
0
100
AcDbSpline
70
4
71
3
72
8
73
4
40
0
40
0
40
0
40
0
40
1
40
1
40
1
40
1
41
1
10
31.5000000000001
20
13.5
30
0
41
1
10
31.5000000000001
20
14.6172522868566
30
0
41
1
10
31.9168126215229
20
15.6968624527716
30
0
41
1
10
32.667792318536
20
16.5243002442865
30
0
0
SPLINE
5
120
100
AcDbEntity
8
1
62
256
6
ByLayer
370
18
48
1
60
0
100
AcDbSpline
70
4
71
3
72
8
73
4
40
0
40
0
40
0
40
0
40
1
40
1
40
1
40
1
41
1
10
15.92079238
20
15.8265169120405
30
0
41
1
10
15.9837306821808
20
16.0454323348948
30
0
41
1
10
16.0478588430084
20
16.2708635698357
30
0
41
1
10
16.1125827159374
20
16.4999999999999
30
0
0
SPLINE
5
121
100
AcDbEntity
8
1
62
256
6
ByLayer
370
18
48
1
60
0
100
AcDbSpline
70
4
71
3
72
16
73
12
40
0
40
0
40
0
40
0
40
0.112904383055294
40
0.112904383055294
40
0.251995806601948
40
0.251995806601948
40
0.4711774786145
40
0.4711774786145
40
0.892334804026132
40
0.892334804026132
40
1
40
1
40
1
40
1
41
1
10
4.92320508075687
20
-4.75546271781758
30
0
41
1
10
4.90636996355747
20
-4.75546271781758
30
0
41
1
10
4.88932551790361
20
-4.75851551862664
30
0
41
1
10
4.85400387216043
20
-4.77071315953361
30
0
41
1
10
4.83576156988676
20
-4.78117073972197
30
0
41
1
10
4.79405363685711
20
-4.81283214608439
30
0
41
1
10
4.77256184645842
20
-4.83715715133616
30
0
41
1
10
4.7195295905812
20
-4.91214630601439
30
0
41
1
10
4.69506482950476
20
-4.96811547083689
30
0
41
1
10
4.67177931116103
20
-5.0391902125468
30
0
41
1
10
4.66740846582624
20
-5.05386666454075
30
0
41
1
10
4.66339745962151
20
-5.06861858311171
30
0
0
SPLINE
5
122
100
AcDbEntity
8
1
62
256
6
ByLayer
370
18
48
1
60
0
100
AcDbSpline
70
4
71
3
72
8
73
4
40
0
40
0
40
0
40
0
40
1
40
1
40
1
40
1
41
1
10
16.0576172248918
20
16.5
30
0
41
1
10
16.0112535483686
20
16.3295149910316
30
0
41
1
10
15.9655287130022
20
16.1612332728517
30
0
41
1
10
15.92079238
20
15.9961767111715
30
0
0
SPLINE
5
123
100
AcDbEntity
8
1
62
256
6
ByLayer
370
18
48
1
60
0
100
AcDbSpline
70
4
71
3
72
8
73
4
40
0
40
0
40
0
40
0
40
1
40
1
40
1
40
1
41
1
10
43.4068513838671
20
21.3803564355666
30
0
41
1
10
43.3567751647697
20
21.5038912693361
30
0
41
1
10
43.3062919217128
20
21.6271843472819
30
0
41
1
10
43.255042424375
20
21.7499999999999
30
0
0
SPLINE
5
124
100
AcDbEntity
8
1
62
256
6
ByLayer
370
18
48
1
60
0
100
AcDbSpline
70
4
71
3
72
8
73
4
40
0
40
0
40
0
40
0
40
1
40
1
40
1
40
1
41
1
10
16.2162415668789
20
16.5
30
0
41
1
10
16.173458191153
20
16.5
30
0
41
1
10
16.1386926660009
20
16.5
30
0
41
1
10
16.1125827159374
20
16.5
30
0
0
SPLINE
5
125
100
AcDbEntity
8
1
62
256
6
ByLayer
370
18
48
1
60
0
100
AcDbSpline
70
4
71
3
72
8
73
4
40
0
40
0
40
0
40
0
40
1
40
1
40
1
40
1
41
1
10
17.8552180800884
20
1.08944359771567
30
0
41
1
10
17.9428119989354
20
8.05678799942532
30
0
41
1
10
18.9020108608581
20
14.9223084079255
30
0
41
1
10
20.1534415830675
20
21.75
30
0
0
SPLINE
5
126
100
AcDbEntity
8
1
62
256
6
ByLayer
370
18
48
1
60
0
100
AcDbSpline
70
4
71
3
72
8
73
4
40
0
40
0
40
0
40
0
40
1
40
1
40
1
40
1
41
1
10
15.92079238
20
-0.826382657061771
30
0
41
1
10
16.5277955178358
20
0.138893753290034
30
0
41
1
10
17.1903753069291
20
0.680274178905051
30
0
41
1
10
17.8552180800883
20
1.08944359771567
30
0
0
SPLINE
5
127
100
AcDbEntity
8
1
62
256
6
ByLayer
370
18
48
1
60
0
100
AcDbSpline
70
4
71
3
72
10
73
6
40
0
40
0
40
0
40
0
40
0.860324893638903
40
0.860324893638903
40
1
40
1
40
1
40
1
41
1
10
17.4998723584843
20
21.7499999999864
30
0
41
1
10
17.0991499812922
20
20.2446369256619
30
0
41
1
10
16.6989005928431
20
18.7391476406476
30
0
41
1
10
16.2347924991155
20
16.9889422454659
30
0
41
1
10
16.1699946688689
20
16.7444751135282
30
0
41
1
10
16.1052269720701
20
16.5
30
0
0
SPLINE
5
128
100
AcDbEntity
8
1
62
256
6
ByLayer
370
18
48
1
60
0
100
AcDbSpline
70
4
71
3
72
16
73
12
40
0
40
0
40
0
40
0
40
0.462497527135806
40
0.462497527135806
40
0.645191851133669
40
0.645191851133669
40
0.830465145084792
40
0.830465145084792
40
0.946099677592168
40
0.946099677592168
40
1
40
1
40
1
40
1
41
1
10
4.66339745962156
20
5.06861858311169
30
0
41
1
10
4.68049745427385
20
5.00572719980329
30
0
41
1
10
4.70393430551655
20
4.94318132289493
30
0
41
1
10
4.75230660037377
20
4.864513415327
30
0
41
1
10
4.76803751709781
20
4.84296870144203
30
0
41
1
10
4.80461917683135
20
4.80415189945634
30
0
41
1
10
4.8260183220568
20
4.78648459402868
30
0
41
1
10
4.86534830605126
20
4.76617783194868
30
0
41
1
10
4.88194300110749
20
4.76031541807632
30
0
41
1
10
4.90693069677602
20
4.75614889828648
30
0
41
1
10
4.91508241701405
20
4.75546271781749
30
0
41
1
10
4.92320508075687
20
4.75546271781749
30
0
0
SPLINE
5
129
100
AcDbEntity
8
1
62
256
6
ByLayer
370
18
48
1
60
0
100
AcDbSpline
70
4
71
3
72
8
73
4
40
0
40
0
40
0
40
0
40
1
40
1
40
1
40
1
41
1
10
17.5849281762881
20
21.75
30
0
41
1
10
17.1259324066371
20
20.0007252425674
30
0
41
1
10
16.6688695511359
20
18.2509265967367
30
0
41
1
10
16.2162415668789
20
16.5
30
0
0
SPLINE
5
12A
100
AcDbEntity
8
1
62
256
6
ByLayer
370
18
48
1
60
0
100
AcDbSpline
70
4
71
3
72
16
73
12
40
0
40
0
40
0
40
0
40
0.1129043830553
40
0.1129043830553
40
0.251995806601947
40
0.251995806601947
40
0.471177478614504
40
0.471177478614504
40
0.892334804026125
40
0.892334804026125
40
1
40
1
40
1
40
1
41
1
10
7.07679491924313
20
4.75546271781755
30
0
41
1
10
7.09363003644253
20
4.75546271781755
30
0
41
1
10
7.11067448209639
20
4.75851551862661
30
0
41
1
10
7.14599612783957
20
4.77071315953359
30
0
41
1
10
7.16423843011324
20
4.78117073972194
30
0
41
1
10
7.20594636314289
20
4.81283214608436
30
0
41
1
10
7.22743815354158
20
4.83715715133616
30
0
41
1
10
7.2804704094188
20
4.91214630601436
30
0
41
1
10
7.30493517049524
20
4.96811547083686
30
0
41
1
10
7.32822068883897
20
5.03919021254677
30
0
41
1
10
7.33259153417376
20
5.05386666454072
30
0
41
1
10
7.33660254037849
20
5.06861858311169
30
0
0
SPLINE
5
12B
100
AcDbEntity
8
1
62
256
6
ByLayer
370
18
48
1
60
0
100
AcDbSpline
70
4
71
3
72
16
73
12
40
0
40
0
40
0
40
0
40
0.462497527135778
40
0.462497527135778
40
0.645191851133639
40
0.645191851133639
40
0.830465145084769
40
0.830465145084769
40
0.946099677592151
40
0.946099677592151
40
1
40
1
40
1
40
1
41
1
10
7.33660254037844
20
-5.06861858311171
30
0
41
1
10
7.31950254572615
20
-5.00572719980332
30
0
41
1
10
7.29606569448347
20
-4.94318132289496
30
0
41
1
10
7.24769339962623
20
-4.864513415327
30
0
41
1
10
7.23196248290219
20
-4.84296870144203
30
0
41
1
10
7.19538082316865
20
-4.80415189945637
30
0
41
1
10
7.1739816779432
20
-4.78648459402871
30
0
41
1
10
7.13465169394874
20
-4.76617783194868
30
0
41
1
10
7.11805699889251
20
-4.76031541807632
30
0
41
1
10
7.09306930322398
20
-4.75614889828648
30
0
41
1
10
7.08491758298595
20
-4.75546271781749
30
0
41
1
10
7.07679491924313
20
-4.75546271781749
30
0
0
SPLINE
5
12C
100
AcDbEntity
8
1
62
256
6
ByLayer
370
18
48
1
60
0
100
AcDbSpline
70
4
71
3
72
12
73
8
40
0
40
0
40
0
40
0
40
0.36001847061266
40
0.36001847061266
40
0.720372991005347
40
0.720372991005347
40
1
40
1
40
1
40
1
41
1
10
15.92079238
20
15.8265169120405
30
0
41
1
10
15.7713323096583
20
15.8705636183987
30
0
41
1
10
15.6701269353358
20
15.9100834910666
30
0
41
1
10
15.5821410544842
20
15.9680366563769
30
0
41
1
10
15.5943654265017
20
15.9871729383736
30
0
41
1
10
15.7154066030617
20
16.0014793072214
30
0
41
1
10
15.8030738637891
20
16.0012858377025
30
0
41
1
10
15.92079238
20
15.9961767111715
30
0
0
SPLINE
5
12D
100
AcDbEntity
8
1
62
256
6
ByLayer
370
18
48
1
60
0
100
AcDbSpline
70
4
71
3
72
16
73
12
40
0
40
0
40
0
40
0
40
0.112904383055296
40
0.112904383055296
40
0.251995806601944
40
0.251995806601944
40
0.4711774786145
40
0.4711774786145
40
0.892334804026128
40
0.892334804026128
40
1
40
1
40
1
40
1
41
1
10
7.0767949192431
20
-15.2769622091386
30
0
41
1
10
7.09363003644251
20
-15.2769622091386
30
0
41
1
10
7.11067448209636
20
-15.2760126621563
30
0
41
1
10
7.14599612783954
20
-15.2722082770661
30
0
41
1
10
7.16423843011322
20
-15.2689414463835
30
0
41
1
10
7.20594636314289
20
-15.2589992478797
30
0
41
1
10
7.22743815354156
20
-15.2513160232934
30
0
41
1
10
7.28047040941877
20
-15.2273927985289
30
0
41
1
10
7.30493517049524
20
-15.2092528380283
30
0
41
1
10
7.32822068883894
20
-15.1857432227236
30
0
41
1
10
7.33259153417376
20
-15.1808653782146
30
0
41
1
10
7.33660254037846
20
-15.1759383782004
30
0
0
SPLINE
5
12E
100
AcDbEntity
8
1
62
256
6
ByLayer
370
18
48
1
60
0
100
AcDbSpline
70
4
71
3
72
16
73
12
40
0
40
0
40
0
40
0
40
0.112904383055298
40
0.112904383055298
40
0.251995806601949
40
0.251995806601949
40
0.471177478614513
40
0.471177478614513
40
0.892334804026096
40
0.892334804026096
40
1
40
1
40
1
40
1
41
1
10
4.9232050807569
20
15.2769622091385
30
0
41
1
10
4.90636996355749
20
15.2769622091385
30
0
41
1
10
4.88932551790364
20
15.2760126621562
30
0
41
1
10
4.85400387216046
20
15.2722082770661
30
0
41
1
10
4.83576156988678
20
15.2689414463835
30
0
41
1
10
4.79405363685711
20
15.2589992478796
30
0
41
1
10
4.77256184645844
20
15.2513160232934
30
0
41
1
10
4.71952959058123
20
15.2273927985289
30
0
41
1
10
4.69506482950476
20
15.2092528380283
30
0
41
1
10
4.67177931116106
20
15.1857432227236
30
0
41
1
10
4.66740846582627
20
15.1808653782146
30
0
41
1
10
4.66339745962154
20
15.1759383782004
30
0
0
SPLINE
5
12F
100
AcDbEntity
8
1
62
256
6
ByLayer
370
18
48
1
60
0
100
AcDbSpline
70
4
71
3
72
12
73
8
40
0
40
0
40
0
40
0
40
0.367292260733836
40
0.367292260733836
40
0.734922303957994
40
0.734922303957994
40
1
40
1
40
1
40
1
41
1
10
43.406851383867
20
20.6196435644333
30
0
41
1
10
43.4417035961608
20
20.7056217458897
30
0
41
1
10
43.4649302976673
20
20.8001042187669
30
0
41
1
10
43.4841590431068
20
20.9906059378825
30
0
41
1
10
43.4804000460794
20
21.0892486220198
30
0
41
1
10
43.4513806104925
20
21.2511365678244
30
0
41
1
10
43.4321762389184
20
21.3178816358575
30
0
41
1
10
43.406851383872
20
21.3803564355687
30
0
0
SPLINE
5
130
100
AcDbEntity
8
1
62
256
6
ByLayer
370
18
48
1
60
0
100
AcDbSpline
70
4
71
3
72
16
73
12
40
0
40
0
40
0
40
0
40
0.46249752713583
40
0.46249752713583
40
0.645191851133689
40
0.645191851133689
40
0.830465145084805
40
0.830465145084805
40
0.946099677592179
40
0.946099677592179
40
1
40
1
40
1
40
1
41
1
10
7.33660254037846
20
15.1759383782004
30
0
41
1
10
7.31950254572618
20
15.1969435000064
30
0
41
1
10
7.29606569448347
20
15.2173733040723
30
0
41
1
10
7.24769339962626
20
15.2426068177431
30
0
41
1
10
7.23196248290219
20
15.2494611471717
30
0
41
1
10
7.19538082316865
20
15.2617345707429
30
0
41
1
10
7.17398167794323
20
15.2672766430868
30
0
41
1
10
7.13465169394874
20
15.2736248541653
30
0
41
1
10
7.11805699889251
20
15.2754510872996
30
0
41
1
10
7.09306930322401
20
15.2767486596485
30
0
41
1
10
7.08491758298598
20
15.2769622091386
30
0
41
1
10
7.07679491924316
20
15.2769622091386
30
0
0
SPLINE
5
131
100
AcDbEntity
8
1
62
256
6
ByLayer
370
18
48
1
60
0
100
AcDbSpline
70
4
71
3
72
8
73
4
40
0
40
0
40
0
40
0
40
1
40
1
40
1
40
1
41
1
10
43.255042424375
20
20.2499999999999
30
0
41
1
10
43.3062919217128
20
20.372815652718
30
0
41
1
10
43.3567751647697
20
20.4961087306638
30
0
41
1
10
43.4068513838671
20
20.6196435644333
30
0
0
SPLINE
5
132
100
AcDbEntity
8
1
62
256
6
ByLayer
370
18
48
1
60
0
100
AcDbSpline
70
4
71
3
72
16
73
12
40
0
40
0
40
0
40
0
40
0.462497527135787
40
0.462497527135787
40
0.645191851133657
40
0.645191851133657
40
0.830465145084786
40
0.830465145084786
40
0.946099677592161
40
0.946099677592161
40
1
40
1
40
1
40
1
41
1
10
4.66339745962154
20
-15.1759383782004
30
0
41
1
10
4.68049745427382
20
-15.1969435000064
30
0
41
1
10
4.70393430551653
20
-15.2173733040723
30
0
41
1
10
4.75230660037374
20
-15.2426068177431
30
0
41
1
10
4.76803751709778
20
-15.2494611471717
30
0
41
1
10
4.80461917683132
20
-15.2617345707429
30
0
41
1
10
4.82601832205677
20
-15.2672766430868
30
0
41
1
10
4.86534830605126
20
-15.2736248541653
30
0
41
1
10
4.88194300110746
20
-15.2754510872996
30
0
41
1
10
4.90693069677599
20
-15.2767486596485
30
0
41
1
10
4.91508241701402
20
-15.2769622091386
30
0
41
1
10
4.92320508075684
20
-15.2769622091386
30
0
0
SPLINE
5
133
100
AcDbEntity
8
1
62
256
6
ByLayer
370
18
48
1
60
0
100
AcDbSpline
70
4
71
3
72
8
73
4
40
0
40
0
40
0
40
0
40
1
40
1
40
1
40
1
41
1
10
20.1534415830675
20
21.75
30
0
41
1
10
18.9505714705632
20
21.75
30
0
41
1
10
17.9293847624309
20
21.75
30
0
41
1
10
17.5849281762881
20
21.75
30
0
0
SPLINE
5
134
100
AcDbEntity
8
SK1
62
256
6
ByLayer
370
18
48
1
60
0
100
AcDbSpline
70
4
71
3
72
26
73
22
40
0
40
0
40
0
40
0
40
0.445566590533867
40
0.445566590533867
40
0.655265017644429
40
0.655265017644429
40
0.828725510676232
40
0.828725510676232
40
0.876154403041356
40
0.876154403041356
40
0.905967808629008
40
0.905967808629008
40
0.926210487707145
40
0.926210487707145
40
0.943171934612362
40
0.943171934612362
40
0.960117618490364
40
0.960117618490364
40
0.984237918068801
40
0.984237918068801
40
1
40
1
40
1
40
1
41
1
10
-0.200000000000017
20
-5.3620191612489
30
0
41
1
10
-0.200000000000017
20
-5.24584624080083
30
0
41
1
10
-0.203329327154421
20
-5.12739325570544
30
0
41
1
10
-0.220508378527427
20
-4.95054302716966
30
0
41
1
10
-0.227841766328027
20
-4.89336484437209
30
0
41
1
10
-0.248876465876805
20
-4.78899542518664
30
0
41
1
10
-0.260519103089251
20
-4.74088977224739
30
0
41
1
10
-0.287682522661129
20
-4.68318824223033
30
0
41
1
10
-0.294422177085465
20
-4.67086770501695
30
0
41
1
10
-0.307975229842981
20
-4.65239528283644
30
0
41
1
10
-0.313923584320378
20
-4.64555604634515
30
0
41
1
10
-0.325470047439183
20
-4.63588471512031
30
0
41
1
10
-0.330674572834084
20
-4.63242356449325
30
0
41
1
10
-0.340874729766483
20
-4.62785000237457
30
0
41
1
10
-0.3458732646979
20
-4.62642720846634
30
0
41
1
10
-0.355778046324502
20
-4.62530065114441
30
0
41
1
10
-0.360793298356441
20
-4.62557634523813
30
0
41
1
10
-0.37222657292665
20
-4.62787080761487
30
0
41
1
10
-0.378545535867204
20
-4.63055709110699
30
0
41
1
10
-0.388035283948739
20
-4.6360822290674
30
0
41
1
10
-0.39159930045011
20
-4.63858016383932
30
0
41
1
10
-0.394976888885225
20
-4.64126630129033
30
0
0
SPLINE
5
135
100
AcDbEntity
8
SK1
62
256
6
ByLayer
370
18
48
1
60
0
100
AcDbSpline
70
4
71
3
72
8
73
4
40
0
40
0
40
0
40
0
40
1
40
1
40
1
40
1
41
1
10
-1.4950399779394
20
-2.34749772747679
30
0
41
1
10
-1.43636647390605
20
-2.67845911204324
30
0
41
1
10
-1.37234124557347
20
-3.00091149187799
30
0
41
1
10
-1.30710678118655
20
-3.31403252781453
30
0
0
SPLINE
5
136
100
AcDbEntity
8
SK1
62
256
6
ByLayer
370
18
48
1
60
0
100
AcDbSpline
70
4
71
3
72
22
73
18
40
0
40
0
40
0
40
0
40
0.0401187176479351
40
0.0401187176479351
40
0.0809205840693322
40
0.0809205840693322
40
0.110939215438291
40
0.110939215438291
40
0.140811855964671
40
0.140811855964671
40
0.18957721074261
40
0.18957721074261
40
0.310490649824217
40
0.310490649824217
40
0.734284037039096
40
0.734284037039096
40
1
40
1
40
1
40
1
41
1
10
-0.394976888875306
20
-4.64126630128334
30
0
41
1
10
-0.414851240757684
20
-4.65707202833818
30
0
41
1
10
-0.43657681469648
20
-4.67161770815903
30
0
41
1
10
-0.484344234972099
20
-4.69527225619453
30
0
41
1
10
-0.511179996443502
20
-4.70447803201566
30
0
41
1
10
-0.55963021189325
20
-4.71148455325257
30
0
41
1
10
-0.581226521051775
20
-4.71163748110686
30
0
41
1
10
-0.622738196979213
20
-4.70615885554017
30
0
41
1
10
-0.643113978930643
20
-4.7005544858514
30
0
41
1
10
-0.692838639904068
20
-4.68088286984391
30
0
41
1
10
-0.720762259934844
20
-4.66360961664179
30
0
41
1
10
-0.806980143907509
20
-4.59739735467713
30
0
41
1
10
-0.854111530678495
20
-4.53827797672739
30
0
41
1
10
-1.03762331512351
20
-4.26752717334409
30
0
41
1
10
-1.1196901977321
20
-4.02710662395185
30
0
41
1
10
-1.23587986907134
20
-3.63062538504175
30
0
41
1
10
-1.27383836253279
20
-3.47371869693896
30
0
41
1
10
-1.30710678118655
20
-3.3140325278145
30
0
0
SPLINE
5
137
100
AcDbEntity
8
SK1
62
256
6
ByLayer
370
18
48
1
60
0
100
AcDbSpline
70
4
71
3
72
26
73
22
40
0
40
0
40
0
40
0
40
0.445565443532363
40
0.445565443532363
40
0.655264383376964
40
0.655264383376964
40
0.828726256262898
40
0.828726256262898
40
0.876154197532178
40
0.876154197532178
40
0.905968249810069
40
0.905968249810069
40
0.926210751072041
40
0.926210751072041
40
0.943172178773616
40
0.943172178773616
40
0.960117844485506
40
0.960117844485506
40
0.984238026671506
40
0.984238026671506
40
1
40
1
40
1
40
1
41
1
10
-0.200000000000188
20
10.8830974324239
30
0
41
1
10
-0.200000000000188
20
10.8819710079772
30
0
41
1
10
-0.203329262474341
20
10.8768357974762
30
0
41
1
10
-0.22050825668714
20
10.8608398006147
30
0
41
1
10
-0.227841696150222
20
10.8544331912715
30
0
41
1
10
-0.248876399316799
20
10.839300022036
30
0
41
1
10
-0.260519040164894
20
10.831234386332
30
0
41
1
10
-0.287682580192097
20
10.8176098223726
30
0
41
1
10
-0.294422106503219
20
10.814425636351
30
0
41
1
10
-0.307975059129347
20
10.8087542809808
30
0
41
1
10
-0.313923536345698
20
10.8064124165897
30
0
41
1
10
-0.325470142016059
20
10.8023264062819
30
0
41
1
10
-0.330674635557614
20
10.8005996536701
30
0
41
1
10
-0.340874762381077
20
10.7975129873952
30
0
41
1
10
-0.345873303925458
20
10.7961109015917
30
0
41
1
10
-0.35577810118437
20
10.7935676582257
30
0
41
1
10
-0.360793362650213
20
10.7923975310653
30
0
41
1
10
-0.372226633464606
20
10.7899641210796
30
0
41
1
10
-0.378545586362151
20
10.7888184755389
30
0
41
1
10
-0.388035310313086
20
10.7873050473985
30
0
41
1
10
-0.391599313536318
20
10.7867953109233
30
0
41
1
10
-0.394976888893865
20
10.7863556111439
30
0
0
SPLINE
5
138
100
AcDbEntity
8
SK1
62
256
6
ByLayer
370
18
48
1
60
0
100
AcDbSpline
70
4
71
3
72
10
73
6
40
0
40
0
40
0
40
0
40
0.5
40
0.5
40
1
40
1
40
1
40
1
41
1
10
-1.69999999999999
20
2.34751178615284
30
0
41
1
10
-1.82829275010136
20
1.59849102282857
30
0
41
1
10
-1.92877517104071
20
0.802936952128817
30
0
41
1
10
-1.92836372452413
20
-0.80821608021509
30
0
41
1
10
-1.82832256560684
20
-1.59831678082256
30
0
41
1
10
-1.69999999999842
20
-2.347511681735
30
0
0
SPLINE
5
139
100
AcDbEntity
8
SK1
62
256
6
ByLayer
370
18
48
1
60
0
100
AcDbSpline
70
4
71
3
72
30
73
26
40
0
40
0
40
0
40
0
40
0.360052108286739
40
0.360052108286739
40
0.414182795369029
40
0.414182795369029
40
0.441319094800672
40
0.441319094800672
40
0.451195262960072
40
0.451195262960072
40
0.461224946381245
40
0.461224946381245
40
0.467711236499062
40
0.467711236499062
40
0.474212016079713
40
0.474212016079713
40
0.482847947921514
40
0.482847947921514
40
0.498532582458581
40
0.498532582458581
40
0.552379769925851
40
0.552379769925851
40
0.810349417089643
40
0.810349417089643
40
1
40
1
40
1
40
1
41
1
10
-1.70000000000019
20
-2.3475116817483
30
0
41
1
10
-1.6994353481731
20
-2.21647118487891
30
0
41
1
10
-1.69844614237979
20
-2.08289239857018
30
0
41
1
10
-1.67656862366604
20
-1.93048811627656
30
0
41
1
10
-1.67316038985987
20
-1.91036346359695
30
0
41
1
10
-1.66561843849143
20
-1.88100938605297
30
0
41
1
10
-1.66268553859865
20
-1.87122075315878
30
0
41
1
10
-1.65724625767592
20
-1.85893849976404
30
0
41
1
10
-1.65562897748316
20
-1.85574110436585
30
0
41
1
10
-1.6519311451772
20
-1.84988105484797
30
0
41
1
10
-1.64979259662024
20
-1.84716009843925
30
0
41
1
10
-1.64585108476751
20
-1.84387231659994
30
0
41
1
10
-1.64415793169223
20
-1.84287333682909
30
0
41
1
10
-1.64073072295233
20
-1.84175513669575
30
0
41
1
10
-1.63895837579804
20
-1.84162628990126
30
0
41
1
10
-1.635035216164
20
-1.84220716119697
30
0
41
1
10
-1.6328858165966
20
-1.84318624425814
30
0
41
1
10
-1.62734818582317
20
-1.84688091511674
30
0
41
1
10
-1.62421744742181
20
-1.85036268886339
30
0
41
1
10
-1.6117794554678
20
-1.86703561073952
30
0
41
1
10
-1.604832422019
20
-1.8835838297675
30
0
41
1
10
-1.56808403778945
20
-1.97915260079583
30
0
41
1
10
-1.54998962063459
20
-2.0676165097141
30
0
41
1
10
-1.51860078034383
20
-2.21850563673004
30
0
41
1
10
-1.5064842336844
20
-2.28294377267116
30
0
41
1
10
-1.49503997793821
20
-2.34749772746747
30
0
0
SPLINE
5
13A
100
AcDbEntity
8
SK1
62
256
6
ByLayer
370
18
48
1
60
0
100
AcDbSpline
70
4
71
3
72
22
73
18
40
0
40
0
40
0
40
0
40
0.0245639900498755
40
0.0245639900498755
40
0.0496318308550454
40
0.0496318308550454
40
0.0663627728408016
40
0.0663627728408016
40
0.0830188311624026
40
0.0830188311624026
40
0.109502469153841
40
0.109502469153841
40
0.161041561866806
40
0.161041561866806
40
0.34045087796751
40
0.34045087796751
40
1
40
1
40
1
40
1
41
1
10
-0.394976888875277
20
4.64126507959352
30
0
41
1
10
-0.38970266587873
20
4.63707055620748
30
0
41
1
10
-0.383949309888493
20
4.63330757597581
30
0
41
1
10
-0.371341458593548
20
4.62763518822399
30
0
41
1
10
-0.364243722574742
20
4.62572404052057
30
0
41
1
10
-0.352099082312236
20
4.62547750923432
30
0
41
1
10
-0.347037112029596
20
4.62618835449879
30
0
41
1
10
-0.337425328060107
20
4.62914446237855
30
0
41
1
10
-0.332766275168382
20
4.63140037203357
30
0
41
1
10
-0.321717412395486
20
4.63845052899637
30
0
41
1
10
-0.315694741777293
20
4.64402202563343
30
0
41
1
10
-0.300170082835308
20
4.66154175044696
30
0
41
1
10
-0.292195743622614
20
4.67485779786532
30
0
41
1
10
-0.261919134875711
20
4.73474950476742
30
0
41
1
10
-0.249811404729854
20
4.78489851705862
30
0
41
1
10
-0.203345284675123
20
5.0129847254702
30
0
41
1
10
-0.200000000000046
20
5.19061666338965
30
0
41
1
10
-0.200000000000046
20
5.36201916428996
30
0
0
SPLINE
5
13B
100
AcDbEntity
8
SK1
62
256
6
ByLayer
370
18
48
1
60
0
100
AcDbSpline
70
4
71
3
72
8
73
4
40
0
40
0
40
0
40
0
40
1
40
1
40
1
40
1
41
1
10
-1.30710678118655
20
3.31403271963521
30
0
41
1
10
-1.3723406953053
20
3.00091128094479
30
0
41
1
10
-1.43636641767523
20
2.67845918809309
30
0
41
1
10
-1.49503997793928
20
2.34749778874226
30
0
0
SPLINE
5
13C
100
AcDbEntity
8
SK1
62
256
6
ByLayer
370
18
48
1
60
0
100
AcDbSpline
70
4
71
3
72
24
73
20
40
0
40
0
40
0
40
0
40
0.408376563842919
40
0.408376563842919
40
0.590835889028663
40
0.590835889028663
40
0.775086150017169
40
0.775086150017169
40
0.828531189558963
40
0.828531189558963
40
0.869657835859007
40
0.869657835859007
40
0.900601749045859
40
0.900601749045859
40
0.931618254112826
40
0.931618254112826
40
0.972400059148962
40
0.972400059148962
40
1
40
1
40
1
40
1
41
1
10
-1.30710678118655
20
3.31403271963518
30
0
41
1
10
-1.25598388032307
20
3.55942158652502
30
0
41
1
10
-1.19453871593757
20
3.79878086806582
30
0
41
1
10
-1.07463317102506
20
4.12991464169377
30
0
41
1
10
-1.03315372296908
20
4.23044470813102
30
0
41
1
10
-0.933421287209484
20
4.42439620445134
30
0
41
1
10
-0.876012164358116
20
4.52058411767737
30
0
41
1
10
-0.771196593353352
20
4.62470115719427
30
0
41
1
10
-0.744945905488407
20
4.64699527823979
30
0
41
1
10
-0.692659478740381
20
4.68003423159399
30
0
41
1
10
-0.667470836328533
20
4.69244795089361
30
0
41
1
10
-0.620248549564366
20
4.70666093811084
30
0
41
1
10
-0.598519884659027
20
4.71034447812073
30
0
41
1
10
-0.555414291762958
20
4.71130494933678
30
0
41
1
10
-0.533554485474468
20
4.70857045210869
30
0
41
1
10
-0.486310637142424
20
4.69632743776958
30
0
41
1
10
-0.461171363725498
20
4.68495700384938
30
0
41
1
10
-0.42312766746349
20
4.6623550622588
30
0
41
1
10
-0.408633205232604
20
4.65212577667924
30
0
41
1
10
-0.394976888875277
20
4.64126507959352
30
0
0
SPLINE
5
13D
100
AcDbEntity
8
SK1
62
256
6
ByLayer
370
18
48
1
60
0
100
AcDbSpline
70
4
71
3
72
32
73
28
40
0
40
0
40
0
40
0
40
0.356636599161906
40
0.356636599161906
40
0.43891852351592
40
0.43891852351592
40
0.466852578885802
40
0.466852578885802
40
0.491648863255271
40
0.491648863255271
40
0.509433307376993
40
0.509433307376993
40
0.517845551817556
40
0.517845551817556
40
0.524955946811716
40
0.524955946811716
40
0.532136299556504
40
0.532136299556504
40
0.539988715042862
40
0.539988715042862
40
0.553068472451522
40
0.553068472451522
40
0.592506287500259
40
0.592506287500259
40
0.765129517161187
40
0.765129517161187
40
1
40
1
40
1
40
1
41
1
10
-1.49503997793931
20
2.34749778874212
30
0
41
1
10
-1.51674926438412
20
2.22504168094253
30
0
41
1
10
-1.53965959796295
20
2.10198973938301
30
0
41
1
10
-1.57929452892498
20
1.95694389798328
30
0
41
1
10
-1.58728688913916
20
1.92997452960571
30
0
41
1
10
-1.60014685041296
20
1.89558884836046
30
0
41
1
10
-1.60360996173446
20
1.88701586088285
30
0
41
1
10
-1.61080217017806
20
1.87149615869794
30
0
41
1
10
-1.61445737042806
20
1.8644190972937
30
0
41
1
10
-1.62165915554127
20
1.85350876899568
30
0
41
1
10
-1.62497669273341
20
1.84923962381322
30
0
41
1
10
-1.63063349736493
20
1.84456798020818
30
0
41
1
10
-1.63260114583201
20
1.8433090630092
30
0
41
1
10
-1.63644881746126
20
1.84189791662217
30
0
41
1
10
-1.63833413896836
20
1.84160704031282
30
0
41
1
10
-1.6421074918232
20
1.84204241824955
30
0
41
1
10
-1.64404339960066
20
1.84279760818922
30
0
41
1
10
-1.64777693783728
20
1.84528412040601
30
0
41
1
10
-1.64960310807172
20
1.84711345963706
30
0
41
1
10
-1.6539322874136
20
1.85260771701391
30
0
41
1
10
-1.65619857548441
20
1.85674952744043
30
0
41
1
10
-1.66403264866162
20
1.87382005025418
30
0
41
1
10
-1.66775630870623
20
1.88824132138959
30
0
41
1
10
-1.68468176544542
20
1.96436510563876
30
0
41
1
10
-1.68890392552055
20
2.02849690055311
30
0
41
1
10
-1.69788177008903
20
2.17720019173632
30
0
41
1
10
-1.69963442185517
20
2.26267094142102
30
0
41
1
10
-1.69999999999999
20
2.34751178615272
30
0
0
LINE
5
75
100
AcDbEntity
8
80
62
256
6
ByLayer
370
18
48
1
60
0
100
AcDbLine
10
0
20
0
30
0
11
-5
21
0
31
0
39
0
210
0
220
0
230
1
0
LINE
5
76
100
AcDbEntity
8
1
62
256
6
ByLayer
370
18
48
1
60
0
100
AcDbLine
10
0.3
20
16
30
0
11
0
21
15.7
31
0
39
0
210
0
220
0
230
1
0
LINE
5
78
100
AcDbEntity
8
1
62
256
6
ByLayer
370
18
48
1
60
0
100
AcDbLine
10
0
20
-15.7
30
0
11
0.3
21
-16
31
0
39
0
210
0
220
0
230
1
0
LINE
5
79
100
AcDbEntity
8
1
62
256
6
ByLayer
370
18
48
1
60
0
100
AcDbLine
10
15.798859
20
16
30
0
11
0.3
21
16
31
0
39
0
210
0
220
0
230
1
0
LINE
5
7A
100
AcDbEntity
8
1
62
256
6
ByLayer
370
18
48
1
60
0
100
AcDbLine
10
0.3
20
-16
30
0
11
15
21
-16
31
0
39
0
210
0
220
0
230
1
0
LINE
5
7B
100
AcDbEntity
8
81
62
256
6
ByLayer
370
18
48
1
60
0
100
AcDbLine
10
50
20
22
30
0
11
55
21
22
31
0
39
0
210
0
220
0
230
1
0
LINE
5
7C
100
AcDbEntity
8
4
62
256
6
ByLayer
370
18
48
0.05
60
0
100
AcDbLine
10
0
20
0
30
0
11
47
21
0
31
0
39
0
210
0
220
0
230
1
0
LINE
5
7E
100
AcDbEntity
8
SK4
62
256
6
ByLayer
370
18
48
0.05
60
0
100
AcDbLine
10
-24
20
0
30
0
11
47
21
0
31
0
39
0
210
0
220
0
230
1
0
LINE
5
80
100
AcDbEntity
8
1
62
256
6
ByLayer
370
18
48
1
60
0
100
AcDbLine
10
0.3
20
-16
30
0
11
0.3
21
16
31
0
39
0
210
0
220
0
230
1
0
LINE
5
81
100
AcDbEntity
8
1
62
256
6
ByLayer
370
18
48
1
60
0
100
AcDbLine
10
0
20
-15.7
30
0
11
0
21
15.7
31
0
39
0
210
0
220
0
230
1
0
LINE
5
82
100
AcDbEntity
8
1
62
256
6
ByLayer
370
18
48
1
60
0
100
AcDbLine
10
15
20
-4.020385
30
0
11
15
21
-16
31
0
39
0
210
0
220
0
230
1
0
LINE
5
83
100
AcDbEntity
8
1
62
256
6
ByLayer
370
18
48
1
60
0
100
AcDbLine
10
30
20
21.8
30
0
11
30
21
21.749975
31
0
39
0
210
0
220
0
230
1
0
LINE
5
84
100
AcDbEntity
8
1
62
256
6
ByLayer
370
18
48
1
60
0
100
AcDbLine
10
44.301935
20
21.17101
30
0
11
43.463999
21
21.17101
31
0
39
0
210
0
220
0
230
1
0
LINE
5
85
100
AcDbEntity
8
SK1
62
256
6
ByLayer
370
18
48
1
60
0
100
AcDbLine
10
-0.2
20
5.362019
30
0
11
-0.2
21
10.883485
31
0
39
0
210
0
220
0
230
1
0
LINE
5
87
100
AcDbEntity
8
SK1
62
256
6
ByLayer
370
18
48
1
60
0
100
AcDbLine
10
-0.2
20
-10.883485
30
0
11
-0.2
21
-5.362019
31
0
39
0
210
0
220
0
230
1
0
LINE
5
88
100
AcDbEntity
8
1
62
256
6
ByLayer
370
18
48
1
60
0
100
AcDbLine
10
28.593203
20
5.589051
30
0
11
28.799289
21
5.673787
31
0
39
0
210
0
220
0
230
1
0
LINE
5
89
100
AcDbEntity
8
1
62
256
6
ByLayer
370
18
48
1
60
0
100
AcDbLine
10
28.799289
20
21.75
30
0
11
28.593203
21
21.75
31
0
39
0
210
0
220
0
230
1
0
LINE
5
8A
100
AcDbEntity
8
1
62
256
6
ByLayer
370
18
48
1
60
0
100
AcDbLine
10
17.551957
20
21.75
30
0
11
17.499872
21
21.75
31
0
39
0
210
0
220
0
230
1
0
LINE
5
8B
100
AcDbEntity
8
1
62
256
6
ByLayer
370
18
48
1
60
0
100
AcDbLine
10
41.703015
20
20.2
30
0
11
44.145796
21
20.2
31
0
39
0
210
0
220
0
230
1
0
LINE
5
8C
100
AcDbEntity
8
1
62
256
6
ByLayer
370
18
48
1
60
0
100
AcDbLine
10
44.145796
20
20.373551
30
0
11
43.305754
21
20.373551
31
0
39
0
210
0
220
0
230
1
0
LINE
5
8D
100
AcDbEntity
8
1
62
256
6
ByLayer
370
18
48
1
60
0
100
AcDbLine
10
34.8
20
21.75
30
0
11
34.8
21
21.8
31
0
39
0
210
0
220
0
230
1
0
LINE
5
8E
100
AcDbEntity
8
1
62
256
6
ByLayer
370
18
48
1
60
0
100
AcDbLine
10
35.854204
20
21.749998
30
0
11
35.854204
21
21.8
31
0
39
0
210
0
220
0
230
1
0
LINE
5
8F
100
AcDbEntity
8
1
62
256
6
ByLayer
370
18
48
1
60
0
100
AcDbLine
10
44.145796
20
21.626449
30
0
11
43.305754
21
21.626449
31
0
39
0
210
0
220
0
230
1
0
LINE
5
90
100
AcDbEntity
8
1
62
256
6
ByLayer
370
18
48
1
60
0
100
AcDbLine
10
44.154842
20
21.575146
30
0
11
43.32673
21
21.575146
31
0
39
0
210
0
220
0
230
1
0
LINE
5
91
100
AcDbEntity
8
1
62
256
6
ByLayer
370
18
48
1
60
0
100
AcDbLine
10
44.154842
20
20.424854
30
0
11
43.32673
21
20.424854
31
0
39
0
210
0
220
0
230
1
0
LINE
5
92
100
AcDbEntity
8
1
62
256
6
ByLayer
370
18
48
1
60
0
100
AcDbLine
10
44.301935
20
20.82899
30
0
11
43.458218
21
20.82899
31
0
39
0
210
0
220
0
230
1
0
LINE
5
93
100
AcDbEntity
8
1
62
256
6
ByLayer
370
18
48
1
60
0
100
AcDbLine
10
44.145796
20
21.8
30
0
11
45.2
21
21.8
31
0
39
0
210
0
220
0
230
1
0
LINE
5
94
100
AcDbEntity
8
1
62
256
6
ByLayer
370
18
48
1
60
0
100
AcDbLine
10
44.145796
20
21.626449
30
0
11
44.145796
21
21.8
31
0
39
0
210
0
220
0
230
1
0
LINE
5
95
100
AcDbEntity
8
1
62
256
6
ByLayer
370
18
48
1
60
0
100
AcDbLine
10
45.2
20
20.2
30
0
11
45.2
21
21.8
31
0
39
0
210
0
220
0
230
1
0
LINE
5
96
100
AcDbEntity
8
1
62
256
6
ByLayer
370
18
48
1
60
0
100
AcDbLine
10
46.785862
20
21.8
30
0
11
45.2
21
21.8
31
0
39
0
210
0
220
0
230
1
0
LINE
5
97
100
AcDbEntity
8
1
62
256
6
ByLayer
370
18
48
1
60
0
100
AcDbLine
10
46.785862
20
21.8
30
0
11
47
21
21.87794
31
0
39
0
210
0
220
0
230
1
0
LINE
5
98
100
AcDbEntity
8
1
62
256
6
ByLayer
370
18
48
1
60
0
100
AcDbLine
10
47
20
21.87794
30
0
11
49.791276
21
21.99981
31
0
39
0
210
0
220
0
230
1
0
LINE
5
99
100
AcDbEntity
8
1
62
256
6
ByLayer
370
18
48
1
60
0
100
AcDbLine
10
44.301935
20
21.17101
30
0
11
44.154842
21
21.575146
31
0
39
0
210
0
220
0
230
1
0
LINE
5
9A
100
AcDbEntity
8
1
62
256
6
ByLayer
370
18
48
1
60
0
100
AcDbLine
10
50
20
21.8
30
0
11
50
21
20.2
31
0
39
0
210
0
220
0
230
1
0
LINE
5
9B
100
AcDbEntity
8
1
62
256
6
ByLayer
370
18
48
1
60
0
100
AcDbLine
10
46.785862
20
20.2
30
0
11
45.2
21
20.2
31
0
39
0
210
0
220
0
230
1
0
LINE
5
9C
100
AcDbEntity
8
1
62
256
6
ByLayer
370
18
48
1
60
0
100
AcDbLine
10
44.301935
20
20.82899
30
0
11
44.154842
21
20.424854
31
0
39
0
210
0
220
0
230
1
0
LINE
5
9D
100
AcDbEntity
8
1
62
256
6
ByLayer
370
18
48
1
60
0
100
AcDbLine
10
44.145796
20
20.373551
30
0
11
44.145796
21
20.2
31
0
39
0
210
0
220
0
230
1
0
LINE
5
9E
100
AcDbEntity
8
1
62
256
6
ByLayer
370
18
48
1
60
0
100
AcDbLine
10
44.145796
20
20.2
30
0
11
45.2
21
20.2
31
0
39
0
210
0
220
0
230
1
0
LINE
5
9F
100
AcDbEntity
8
1
62
256
6
ByLayer
370
18
48
1
60
0
100
AcDbLine
10
46.785862
20
20.2
30
0
11
47
21
20.12206
31
0
39
0
210
0
220
0
230
1
0
LINE
5
A0
100
AcDbEntity
8
1
62
256
6
ByLayer
370
18
48
1
60
0
100
AcDbLine
10
47
20
20.12206
30
0
11
49.791276
21
20.00019
31
0
39
0
210
0
220
0
230
1
0
LINE
5
A1
100
AcDbEntity
8
1
62
256
6
ByLayer
370
18
48
1
60
0
100
AcDbLine
10
31.5
20
6.784225
30
0
11
32
21
6.989808
31
0
39
0
210
0
220
0
230
1
0
LINE
5
A2
100
AcDbEntity
8
1
62
256
6
ByLayer
370
18
48
1
60
0
100
AcDbLine
10
7.336603
20
-15.175938
30
0
11
7.336603
21
-5.068619
31
0
39
0
210
0
220
0
230
1
0
LINE
5
A3
100
AcDbEntity
8
1
62
256
6
ByLayer
370
18
48
1
60
0
100
AcDbLine
10
31.5
20
13.5
30
0
11
32
21
13.5
31
0
39
0
210
0
220
0
230
1
0
LINE
5
A4
100
AcDbEntity
8
1
62
256
6
ByLayer
370
18
48
1
60
0
100
AcDbLine
10
31.5
20
6.784225
30
0
11
31.5
21
13.5
31
0
39
0
210
0
220
0
230
1
0
LINE
5
A5
100
AcDbEntity
8
1
62
256
6
ByLayer
370
18
48
1
60
0
100
AcDbLine
10
27.629438
20
5.192785
30
0
11
18.718346
21
1.528854
31
0
39
0
210
0
220
0
230
1
0
LINE
5
A6
100
AcDbEntity
8
1
62
256
6
ByLayer
370
18
48
1
60
0
100
AcDbLine
10
4.923205
20
-15.276962
30
0
11
4.923205
21
-4.755463
31
0
39
0
210
0
220
0
230
1
0
LINE
5
A7
100
AcDbEntity
8
1
62
256
6
ByLayer
370
18
48
1
60
0
100
AcDbLine
10
40.209541
20
11.852726
30
0
11
40.209541
21
17.5
31
0
39
0
210
0
220
0
230
1
0
LINE
5
A8
100
AcDbEntity
8
1
62
256
6
ByLayer
370
18
48
1
60
0
100
AcDbLine
10
27.629438
20
5.192785
30
0
11
27.629438
21
16.3409
31
0
39
0
210
0
220
0
230
1
0
LINE
5
A9
100
AcDbEntity
8
1
62
256
6
ByLayer
370
18
48
1
60
0
100
AcDbLine
10
4.663397
20
-15.175938
30
0
11
4.663397
21
-5.068619
31
0
39
0
210
0
220
0
230
1
0
LINE
5
AA
100
AcDbEntity
8
1
62
256
6
ByLayer
370
18
48
1
60
0
100
AcDbLine
10
4.923205
20
4.755463
30
0
11
4.923205
21
15.276962
31
0
39
0
210
0
220
0
230
1
0
LINE
5
AB
100
AcDbEntity
8
1
62
256
6
ByLayer
370
18
48
1
60
0
100
AcDbLine
10
40.024503
20
10.803325
30
0
11
37.71124
21
9.338071
31
0
39
0
210
0
220
0
230
1
0
LINE
5
AC
100
AcDbEntity
8
1
62
256
6
ByLayer
370
18
48
1
60
0
100
AcDbLine
10
36
20
18
30
0
11
39.495467
21
18
31
0
39
0
210
0
220
0
230
1
0
LINE
5
AD
100
AcDbEntity
8
1
62
256
6
ByLayer
370
18
48
1
60
0
100
AcDbLine
10
36
20
18
30
0
11
36
21
17.5
31
0
39
0
210
0
220
0
230
1
0
LINE
5
AE
100
AcDbEntity
8
1
62
256
6
ByLayer
370
18
48
1
60
0
100
AcDbLine
10
37.71124
20
9.338071
30
0
11
32
21
6.989808
31
0
39
0
210
0
220
0
230
1
0
LINE
5
AF
100
AcDbEntity
8
1
62
256
6
ByLayer
370
18
48
1
60
0
100
AcDbLine
10
4.923205
20
4.755463
30
0
11
7.076795
21
4.755463
31
0
39
0
210
0
220
0
230
1
0
LINE
5
B0
100
AcDbEntity
8
1
62
256
6
ByLayer
370
18
48
1
60
0
100
AcDbLine
10
28.085353
20
21.75
30
0
11
27.629438
21
16.3409
31
0
39
0
210
0
220
0
230
1
0
LINE
5
B1
100
AcDbEntity
8
1
62
256
6
ByLayer
370
18
48
1
60
0
100
AcDbLine
10
42.1
20
20.25
30
0
11
43.255042
21
20.25
31
0
39
0
210
0
220
0
230
1
0
LINE
5
B2
100
AcDbEntity
8
1
62
256
6
ByLayer
370
18
48
1
60
0
100
AcDbLine
10
28.085353
20
21.75
30
0
11
20.804459
21
21.75
31
0
39
0
210
0
220
0
230
1
0
LINE
5
B3
100
AcDbEntity
8
1
62
256
6
ByLayer
370
18
48
1
60
0
100
AcDbLine
10
4.663397
20
5.068619
30
0
11
4.663397
21
15.175938
31
0
39
0
210
0
220
0
230
1
0
LINE
5
B4
100
AcDbEntity
8
1
62
256
6
ByLayer
370
18
48
1
60
0
100
AcDbLine
10
28.085353
20
21.75
30
0
11
28.59325
21
21.75
31
0
39
0
210
0
220
0
230
1
0
LINE
5
B5
100
AcDbEntity
8
1
62
256
6
ByLayer
370
18
48
1
60
0
100
AcDbLine
10
36.667792
20
21.75
30
0
11
28.799289
21
21.75
31
0
39
0
210
0
220
0
230
1
0
LINE
5
B6
100
AcDbEntity
8
1
62
256
6
ByLayer
370
18
48
1
60
0
100
AcDbLine
10
31.5
20
6.784225
30
0
11
28.799289
21
5.673787
31
0
39
0
210
0
220
0
230
1
0
LINE
5
B7
100
AcDbEntity
8
1
62
256
6
ByLayer
370
18
48
1
60
0
100
AcDbLine
10
28.59325
20
21.75
30
0
11
28.59325
21
5.589071
31
0
39
0
210
0
220
0
230
1
0
LINE
5
B8
100
AcDbEntity
8
1
62
256
6
ByLayer
370
18
48
1
60
0
100
AcDbLine
10
40.5
20
13.5
30
0
11
40.5
21
18.65
31
0
39
0
210
0
220
0
230
1
0
LINE
5
B9
100
AcDbEntity
8
1
62
256
6
ByLayer
370
18
48
1
60
0
100
AcDbLine
10
32.667792
20
21.75
30
0
11
32.667792
21
16.5243
31
0
39
0
210
0
220
0
230
1
0
LINE
5
BA
100
AcDbEntity
8
1
62
256
6
ByLayer
370
18
48
1
60
0
100
AcDbLine
10
20.153442
20
21.75
30
0
11
20.804459
21
21.75
31
0
39
0
210
0
220
0
230
1
0
LINE
5
BB
100
AcDbEntity
8
1
62
256
6
ByLayer
370
18
48
1
60
0
100
AcDbLine
10
40.209541
20
11.852726
30
0
11
40.024503
21
10.803325
31
0
39
0
210
0
220
0
230
1
0
LINE
5
BC
100
AcDbEntity
8
1
62
256
6
ByLayer
370
18
48
1
60
0
100
AcDbLine
10
7.076795
20
15.276962
30
0
11
4.923205
21
15.276962
31
0
39
0
210
0
220
0
230
1
0
LINE
5
BD
100
AcDbEntity
8
1
62
256
6
ByLayer
370
18
48
1
60
0
100
AcDbLine
10
27.629438
20
16.3409
30
0
11
20.804459
21
21.75
31
0
39
0
210
0
220
0
230
1
0
LINE
5
BE
100
AcDbEntity
8
1
62
256
6
ByLayer
370
18
48
1
60
0
100
AcDbLine
10
28.799289
20
5.673787
30
0
11
28.799289
21
21.75
31
0
39
0
210
0
220
0
230
1
0
LINE
5
BF
100
AcDbEntity
8
1
62
256
6
ByLayer
370
18
48
1
60
0
100
AcDbLine
10
15.920792
20
-0.826383
30
0
11
15.920792
21
15.826517
31
0
39
0
210
0
220
0
230
1
0
LINE
5
C0
100
AcDbEntity
8
1
62
256
6
ByLayer
370
18
48
1
60
0
100
AcDbLine
10
32
20
6.989808
30
0
11
32
21
13.5
31
0
39
0
210
0
220
0
230
1
0
LINE
5
C1
100
AcDbEntity
8
1
62
256
6
ByLayer
370
18
48
1
60
0
100
AcDbLine
10
43.255042
20
21.75
30
0
11
34.496949
21
21.75
31
0
39
0
210
0
220
0
230
1
0
LINE
5
C2
100
AcDbEntity
8
1
62
256
6
ByLayer
370
18
48
1
60
0
100
AcDbLine
10
7.076795
20
-4.755463
30
0
11
4.923205
21
-4.755463
31
0
39
0
210
0
220
0
230
1
0
LINE
5
C3
100
AcDbEntity
8
1
62
256
6
ByLayer
370
18
48
1
60
0
100
AcDbLine
10
32.667792
20
21.75
30
0
11
34.496949
21
21.75
31
0
39
0
210
0
220
0
230
1
0
LINE
5
C4
100
AcDbEntity
8
1
62
256
6
ByLayer
370
18
48
1
60
0
100
AcDbLine
10
28.59325
20
5.589071
30
0
11
27.629438
21
5.192785
31
0
39
0
210
0
220
0
230
1
0
LINE
5
C5
100
AcDbEntity
8
1
62
256
6
ByLayer
370
18
48
1
60
0
100
AcDbLine
10
4.923205
20
-15.276962
30
0
11
7.076795
21
-15.276962
31
0
39
0
210
0
220
0
230
1
0
LINE
5
C6
100
AcDbEntity
8
1
62
256
6
ByLayer
370
18
48
1
60
0
100
AcDbLine
10
36
20
17.5
30
0
11
40.209541
21
17.5
31
0
39
0
210
0
220
0
230
1
0
LINE
5
C7
100
AcDbEntity
8
1
62
256
6
ByLayer
370
18
48
1
60
0
100
AcDbLine
10
7.336603
20
5.068619
30
0
11
7.336603
21
15.175938
31
0
39
0
210
0
220
0
230
1
0
LINE
5
C8
100
AcDbEntity
8
1
62
256
6
ByLayer
370
18
48
1
60
0
100
AcDbLine
10
7.076795
20
4.755463
30
0
11
7.076795
21
15.276962
31
0
39
0
210
0
220
0
230
1
0
LINE
5
C9
100
AcDbEntity
8
1
62
256
6
ByLayer
370
18
48
1
60
0
100
AcDbLine
10
34.496949
20
17.741561
30
0
11
34.496949
21
21.75
31
0
39
0
210
0
220
0
230
1
0
LINE
5
CA
100
AcDbEntity
8
1
62
256
6
ByLayer
370
18
48
1
60
0
100
AcDbLine
10
40.209541
20
11.852726
30
0
11
40.5
21
13.5
31
0
39
0
210
0
220
0
230
1
0
LINE
5
CB
100
AcDbEntity
8
1
62
256
6
ByLayer
370
18
48
1
60
0
100
AcDbLine
10
7.076795
20
-15.276962
30
0
11
7.076795
21
-4.755463
31
0
39
0
210
0
220
0
230
1
0
LINE
5
CC
100
AcDbEntity
8
SK1
62
256
6
ByLayer
370
18
48
1
60
0
100
AcDbLine
10
-1.307107
20
-3.314033
30
0
11
-1.307107
21
3.314033
31
0
39
0
210
0
220
0
230
1
0
LINE
5
CD
100
AcDbEntity
8
1
62
256
6
ByLayer
370
18
48
1
60
0
100
AcDbLine
10
35.854204
20
21.8
30
0
11
34.8
21
21.8
31
0
39
0
210
0
220
0
230
1
0
LINE
5
CE
100
AcDbEntity
8
1
62
256
6
ByLayer
370
18
48
1
60
0
100
AcDbLine
10
33.214138
20
21.8
30
0
11
33
21
21.87794
31
0
39
0
210
0
220
0
230
1
0
LINE
5
CF
100
AcDbEntity
8
1
62
256
6
ByLayer
370
18
48
1
60
0
100
AcDbLine
10
33
20
21.87794
30
0
11
30.208724
21
21.99981
31
0
39
0
210
0
220
0
230
1
0
LINE
5
D0
100
AcDbEntity
8
1
62
256
6
ByLayer
370
18
48
1
60
0
100
AcDbLine
10
33.214138
20
21.8
30
0
11
34.8
21
21.8
31
0
39
0
210
0
220
0
230
1
0
LINE
5
D1
100
AcDbEntity
8
1
62
256
6
ByLayer
370
18
48
1
60
0
100
AcDbLine
10
35.854204
20
21.8
30
0
11
44.145796
21
21.8
31
0
39
0
210
0
220
0
230
1
0
MTEXT
5
13E
100
AcDbEntity
8
SK6
62
256
6
ByLayer
370
18
48
1
60
0
100
AcDbMText
10
-16.124987
20
-26.875
30
0
210
0
220
0
230
1
1
\W0.7461;C3-RF123E08-22050B
40
3.5
41
0
44
1.084337
50
0
71
7
72
5
7
iso_b_vert
0
DIMENSION
5
150
100
AcDbEntity
8
SK2
62
256
6
ByLayer
370
13
48
1
60
0
100
AcDbDimension
2
DimnDraft3D1
10
-33.23
20
16
30
0
11
-33.23
21
-2.688158
31
0
70
32
71
5
72
1
41
1
210
0
220
0
230
1
3
Standard
100
AcDbAlignedDimension
13
-1.5
23
-16
33
0
14
-1.5
24
16
34
0
50
90
100
AcDbRotatedDimension
1001
ACAD
1000
DSTYLE
1002
{
1070
    74
1070
     0
1070
   279
1070
     0
1070
   172
1070
     1
1070
   173
1070
     1
1070
   340
1005
13F
1070
   271
1070
     3
1070
   272
1070
     3
1070
    77
1070
     1
1070
    73
1070
     0
1070
   171
1070
     4
1070
   274
1070
     4
1070
   177
1070
     2
1070
   176
1070
     2
1070
   178
1070
     7
1070
    78
1070
     8
1070
    41
1041
3.0
1070
   147
1041
2.25
1070
    42
1041
1.5
1070
    44
1041
3.0
1070
   140
1041
4.5
1070
   343
1005
151
1070
   344
1005
151
1002
}
0
DIMENSION
5
165
100
AcDbEntity
8
2
62
256
6
ByLayer
370
13
48
1
60
0
100
AcDbDimension
2
DimnDraft3D2
10
64.25
20
22
30
0
11
64.25
21
26.5
31
0
70
32
71
5
72
1
41
1
210
0
220
0
230
1
3
Standard
100
AcDbAlignedDimension
13
51.5
23
20
33
0
14
51.5
24
22
34
0
50
90
100
AcDbRotatedDimension
1001
ACAD
1000
DSTYLE
1002
{
1070
    74
1070
     0
1070
   279
1070
     0
1070
   172
1070
     1
1070
   173
1070
     1
1070
   340
1005
13F
1070
   271
1070
     3
1070
   272
1070
     3
1070
    77
1070
     1
1070
    73
1070
     0
1070
   171
1070
     4
1070
   274
1070
     4
1070
   177
1070
     2
1070
   176
1070
     2
1070
   178
1070
     7
1070
    78
1070
     8
1070
    41
1041
3.0
1070
   147
1041
2.25
1070
    42
1041
1.5
1070
    44
1041
3.0
1070
   140
1041
4.5
1070
   343
1005
151
1070
   344
1005
151
1002
}
0
DIMENSION
5
173
100
AcDbEntity
8
2
62
256
6
ByLayer
370
13
48
1
60
0
100
AcDbDimension
2
DimnDraft3D3
10
74.25
20
0
30
0
11
74.25
21
8.311842
31
0
70
32
71
5
72
1
41
1
210
0
220
0
230
1
3
Standard
100
AcDbAlignedDimension
13
51.5
23
22
33
0
14
6.5
24
0
34
0
50
90
100
AcDbRotatedDimension
1001
ACAD
1000
DSTYLE
1002
{
1070
    74
1070
     0
1070
   279
1070
     0
1070
   172
1070
     1
1070
   173
1070
     1
1070
   340
1005
13F
1070
   271
1070
     3
1070
   272
1070
     3
1070
    77
1070
     1
1070
    73
1070
     0
1070
   171
1070
     4
1070
   274
1070
     4
1070
   177
1070
     2
1070
   176
1070
     2
1070
   178
1070
     7
1070
    78
1070
     8
1070
    41
1041
3.0
1070
   147
1041
2.25
1070
    42
1041
1.5
1070
    44
1041
3.0
1070
   140
1041
4.5
1070
   343
1005
151
1070
   344
1005
151
1002
}
0
DIMENSION
5
181
100
AcDbEntity
8
2
62
256
6
ByLayer
370
13
48
1
60
0
100
AcDbDimension
2
DimnDraft3D4
10
50
20
31.75
30
0
11
22.311842
21
31.75
31
0
70
32
71
5
72
1
41
1
210
0
220
0
230
1
3
Standard
100
AcDbAlignedDimension
13
0
23
1.5
33
0
14
50
24
22.5
34
0
50
0
100
AcDbRotatedDimension
1001
ACAD
1000
DSTYLE
1002
{
1070
   279
1070
     0
1070
   172
1070
     1
1070
   173
1070
     1
1070
   340
1005
13F
1070
   271
1070
     3
1070
   272
1070
     3
1070
    77
1070
     1
1070
    73
1070
     0
1070
   171
1070
     4
1070
   274
1070
     4
1070
   177
1070
     2
1070
   176
1070
     2
1070
   178
1070
     7
1070
    78
1070
     8
1070
    41
1041
3.0
1070
   147
1041
2.25
1070
    42
1041
1.5
1070
    44
1041
3.0
1070
   140
1041
4.5
1070
   343
1005
151
1070
   344
1005
151
1002
}
0
DIMENSION
5
18F
100
AcDbEntity
8
2
62
256
6
ByLayer
370
13
48
1
60
0
100
AcDbDimension
2
DimnDraft3D5
10
50
20
-14.25
30
0
11
44.993421
21
-14.25
31
0
70
32
71
5
72
1
41
1
210
0
220
0
230
1
3
Standard
100
AcDbAlignedDimension
13
42
23
17.5
33
0
14
50
24
18.5
34
0
50
0
100
AcDbRotatedDimension
1001
ACAD
1000
DSTYLE
1002
{
1070
   279
1070
     0
1070
   172
1070
     1
1070
   173
1070
     1
1070
   340
1005
13F
1070
   271
1070
     3
1070
   272
1070
     3
1070
    77
1070
     1
1070
    73
1070
     0
1070
   171
1070
     4
1070
   274
1070
     4
1070
   177
1070
     2
1070
   176
1070
     2
1070
   178
1070
     7
1070
    78
1070
     8
1070
    41
1041
3.0
1070
   147
1041
2.25
1070
    42
1041
1.5
1070
    44
1041
3.0
1070
   140
1041
4.5
1070
   343
1005
151
1070
   344
1005
151
1002
}
0
ENDSEC
0
SECTION
2
OBJECTS
0
DICTIONARY
5
1fb
330
0
100
AcDbDictionary
280
0
281
1
3
ACAD_GROUP
350
1fc
3
ACAD_MLINESTYLE
350
1fd
0
DICTIONARY
5
1fc
330
0
100
AcDbDictionary
280
0
281
1
0
DICTIONARY
5
1fd
330
0
100
AcDbDictionary
280
0
281
1
3
Standard
350
18
0
MLINESTYLE
5
18
330
1fd
100
AcDbMlineStyle
2
Standard
70
0
3

62
256
51
90
52
90
71
2
49
-0.5
62
256
6
ByLayer
49
0.5
62
256
6
ByLayer
0
RASTERVARIABLES
5
1e8
330

100
AcDbRasterVariables
90
0
70
1
71
1
72
1
0
ENDSEC
0
EOF
