0
SECTION
2
HEADER
9
$ACADVER
1
AC1015
9
$DWGCODEPAGE
3
ANSI_1252
9
$HANDSEED
5
211
9
$ANGBASE
50
0
9
$ANGDIR
70
0
9
$ATTMODE
70
1
9
$AUNITS
70
0
9
$AUPREC
70
0
9
$CECOLOR
62
256
9
$CELTSCALE
40
1
9
$CELTYPE
6
ByLayer
9
$CELWEIGHT
370
18
9
$CLAYER
8
0
9
$CMLJUST
70
0
9
$CMLSCALE
40
1
9
$CMLSTYLE
2
Standard
9
$DIMSTYLE
2
Standard
9
$TEXTSIZE
40
0.2
9
$TEXTSTYLE
7
Standard
9
$LUNITS
70
2
9
$LUPREC
70
4
9
$EXTNAMES
290
1
9
$INSUNITS
70
4
9
$LTSCALE
40
1
9
$LWDISPLAY
290
1
9
$PDMODE
70
0
9
$PDSIZE
40
0
9
$PLINEGEN
70
0
0
ENDSEC
0
SECTION
2
CLASSES
0
CLASS
1
RASTERVARIABLES
2
AcDbRasterVariables
3
ISM
90
0
280
0
281
0
0
ENDSEC
0
SECTION
2
TABLES
0
TABLE
2
VPORT
5
207
100
AcDbSymbolTable
0
VPORT
5
1
100
AcDbSymbolTableRecord
100
AcDbViewportTableRecord
2
*Active
70
0
10
0
20
0
11
1
21
1
12
-1
22
1
13
0
23
0
14
0.5
24
0.5
15
10
25
10
16
0
26
0
36
1
17
0
27
0
37
0
0
ENDTAB
0
TABLE
2
LTYPE
5
208
100
AcDbSymbolTable
0
LTYPE
5
14
100
AcDbSymbolTableRecord
100
AcDbLinetypeTableRecord
70
0
2
ByBlock
3

72
65
73
0
40
0
0
LTYPE
5
15
100
AcDbSymbolTableRecord
100
AcDbLinetypeTableRecord
70
0
2
ByLayer
3

72
65
73
0
40
0
0
LTYPE
5
16
100
AcDbSymbolTableRecord
100
AcDbLinetypeTableRecord
70
0
2
CONTINUOUS
3
Solid line
72
65
73
0
40
0
0
LTYPE
5
6A
100
AcDbSymbolTableRecord
100
AcDbLinetypeTableRecord
70
0
2
CENTER
3
____ _ ____ _ ____ _ ____
72
65
73
4
40
47.5
49
22
74
0
49
-8.5
74
0
49
8.5
74
0
49
-8.5
74
0
0
LTYPE
5
6B
100
AcDbSymbolTableRecord
100
AcDbLinetypeTableRecord
70
0
2
DASHED
3
__ __ __ __ __ __ __ __ __
72
65
73
2
40
25.72
49
12.86
74
0
49
-12.86
74
0
0
ENDTAB
0
TABLE
2
LAYER
5
209
100
AcDbSymbolTable
0
LAYER
5
10
100
AcDbSymbolTableRecord
100
AcDbLayerTableRecord
2
0
70
0
62
7
6
CONTINUOUS
290
1
370
-3
390
0
0
LAYER
5
6D
100
AcDbSymbolTableRecord
100
AcDbLayerTableRecord
2
80
70
0
62
-6
6
CONTINUOUS
290
1
370
-3
390
0
0
LAYER
5
6F
100
AcDbSymbolTableRecord
100
AcDbLayerTableRecord
2
81
70
0
62
-3
6
CONTINUOUS
290
1
370
-3
390
0
0
LAYER
5
71
100
AcDbSymbolTableRecord
100
AcDbLayerTableRecord
2
1
70
0
62
4
6
CONTINUOUS
290
1
370
-3
390
0
0
LAYER
5
78
100
AcDbSymbolTableRecord
100
AcDbLayerTableRecord
2
4
70
0
62
-2
6
CENTER
290
1
370
-3
390
0
0
LAYER
5
153
100
AcDbSymbolTableRecord
100
AcDbLayerTableRecord
2
2
70
0
62
7
6
CONTINUOUS
290
1
370
-3
390
0
0
LAYER
5
1f4
100
AcDbSymbolTableRecord
100
AcDbLayerTableRecord
2
SK4
70
0
62
2
6
CENTER
290
1
370
-3
390
0
0
LAYER
5
1f5
100
AcDbSymbolTableRecord
100
AcDbLayerTableRecord
2
SK6
70
0
62
5
6
CONTINUOUS
290
1
370
-3
390
0
0
LAYER
5
1f6
100
AcDbSymbolTableRecord
100
AcDbLayerTableRecord
2
SK2
70
0
62
7
6
CONTINUOUS
290
1
370
-3
390
0
0
ENDTAB
0
TABLE
2
STYLE
5
20a
100
AcDbSymbolTable
0
STYLE
5
11
100
AcDbSymbolTableRecord
100
AcDbTextStyleTableRecord
2
Standard
3
txt
70
0
71
0
40
0
41
1
42
0
50
0
0
STYLE
5
132
100
AcDbSymbolTableRecord
100
AcDbTextStyleTableRecord
2
iso_b_vert
3
simplex.shx
70
0
71
0
40
0
41
1
42
0
50
0
0
STYLE
5
133
100
AcDbSymbolTableRecord
100
AcDbTextStyleTableRecord
2
DWGDirectTextStyle
3
simplex
70
0
71
0
40
0
41
1
42
0
50
0
0
ENDTAB
0
TABLE
2
DIMSTYLE
5
20b
100
AcDbSymbolTable
100
AcDbDimStyleTable
0
DIMSTYLE
105
27
100
AcDbSymbolTableRecord
100
AcDbDimStyleTableRecord
2
Standard
70
0
3
<>
41
0.18
42
0.0625
44
0.18
140
0.18
147
0.09
73
0
74
0
77
1
271
2
275
0
278
52
280
0
340
11
0
ENDTAB
0
TABLE
2
VIEW
5
20c
100
AcDbSymbolTable
0
ENDTAB
0
TABLE
2
UCS
5
20d
100
AcDbSymbolTable
0
ENDTAB
0
TABLE
2
APPID
5
20e
100
AcDbSymbolTable
0
APPID
5
12
100
AcDbSymbolTableRecord
100
AcDbRegAppTableRecord
2
ACAD
70
0
0
ENDTAB
0
TABLE
2
BLOCK_RECORD
5
20f
100
AcDbSymbolTable
0
BLOCK_RECORD
5
1F
100
AcDbSymbolTableRecord
100
AcDbBlockTableRecord
2
*Model_Space
340
0
70
0
0
BLOCK_RECORD
5
1B
100
AcDbSymbolTableRecord
100
AcDbBlockTableRecord
2
*Paper_Space
340
0
70
0
0
BLOCK_RECORD
5
23
100
AcDbSymbolTableRecord
100
AcDbBlockTableRecord
2
*Paper_Space0
340
0
70
0
0
BLOCK_RECORD
5
135
100
AcDbSymbolTableRecord
100
AcDbBlockTableRecord
2
LABLE3D_1
340
0
70
0
0
BLOCK_RECORD
5
136
100
AcDbSymbolTableRecord
100
AcDbBlockTableRecord
2
_CLOSED
340
0
70
0
0
BLOCK_RECORD
5
143
100
AcDbSymbolTableRecord
100
AcDbBlockTableRecord
2
DimnDraft3D1
340
0
70
0
0
BLOCK_RECORD
5
151
100
AcDbSymbolTableRecord
100
AcDbBlockTableRecord
2
DimnDraft3D2
340
0
70
0
0
BLOCK_RECORD
5
160
100
AcDbSymbolTableRecord
100
AcDbBlockTableRecord
2
DimnDraft3D3
340
0
70
0
0
BLOCK_RECORD
5
16E
100
AcDbSymbolTableRecord
100
AcDbBlockTableRecord
2
DimnDraft3D4
340
0
70
0
0
BLOCK_RECORD
5
17D
100
AcDbSymbolTableRecord
100
AcDbBlockTableRecord
2
DimnDraft3D5
340
0
70
0
0
BLOCK_RECORD
5
18C
100
AcDbSymbolTableRecord
100
AcDbBlockTableRecord
2
DimnDraft3D6
340
0
70
0
0
ENDTAB
0
ENDSEC
0
SECTION
2
BLOCKS
0
BLOCK
5
20
100
AcDbEntity
8
0
100
AcDbBlockBegin
2
*Model_Space
70
0
10
0
20
0
30
0
3
*Model_Space
0
ENDBLK
5
21
100
AcDbEntity
8
0
100
AcDbBlockEnd
0
BLOCK
5
1C
100
AcDbEntity
8
0
100
AcDbBlockBegin
2
*Paper_Space
70
0
10
0
20
0
30
0
3
*Paper_Space
0
ENDBLK
5
1D
100
AcDbEntity
8
0
100
AcDbBlockEnd
0
BLOCK
5
24
100
AcDbEntity
8
0
100
AcDbBlockBegin
2
*Paper_Space0
70
0
10
0
20
0
30
0
3
*Paper_Space0
0
ENDBLK
5
25
100
AcDbEntity
8
0
100
AcDbBlockEnd
0
BLOCK
5
141
100
AcDbEntity
8
0
100
AcDbBlockBegin
2
LABLE3D_1
70
0
10
0
20
0
30
0
3
LABLE3D_1
0
MTEXT
5
13F
100
AcDbEntity
8
SK2
62
256
6
ByLayer
370
18
48
1
60
0
100
AcDbMText
10
-40.524777
20
-51.599761
30
0
210
0
220
0
230
1
1
\W0.7506;DIN 69880-40x63
40
3
41
0
44
1.084337
50
0
71
7
72
5
7
iso_b_vert
0
ENDBLK
5
142
100
AcDbEntity
8
0
100
AcDbBlockEnd
0
BLOCK
5
137
100
AcDbEntity
8
0
100
AcDbBlockBegin
2
_CLOSED
70
0
10
0
20
0
30
0
3
_CLOSED
0
LINE
5
139
100
AcDbEntity
8
0
62
256
6
ByLayer
370
-2
48
1
60
0
100
AcDbLine
10
-1
20
0.166667
30
0
11
0
21
0
31
0
39
0
210
0
220
0
230
1
0
LINE
5
13A
100
AcDbEntity
8
0
62
256
6
ByLayer
370
-2
48
1
60
0
100
AcDbLine
10
0
20
0
30
0
11
-1
21
-0.166667
31
0
39
0
210
0
220
0
230
1
0
LINE
5
13B
100
AcDbEntity
8
0
62
256
6
ByLayer
370
-2
48
1
60
0
100
AcDbLine
10
-1
20
0.166667
30
0
11
-1
21
-0.166667
31
0
39
0
210
0
220
0
230
1
0
LINE
5
13C
100
AcDbEntity
8
0
62
256
6
ByLayer
370
-2
48
1
60
0
100
AcDbLine
10
0
20
0
30
0
11
-1
21
0
31
0
39
0
210
0
220
0
230
1
0
ENDBLK
5
138
100
AcDbEntity
8
0
100
AcDbBlockEnd
0
BLOCK
5
14E
100
AcDbEntity
8
0
100
AcDbBlockBegin
2
DimnDraft3D1
70
0
10
0
20
0
30
0
3
DimnDraft3D1
0
MTEXT
5
144
100
AcDbEntity
8
SK2
62
256
6
ByLayer
370
18
48
1
60
0
100
AcDbMText
10
-32.502632
20
62.716069
30
0
210
0
220
0
230
1
1
\W0.6563;63
40
3
41
0
44
1.084337
50
0
71
7
72
5
7
iso_b_vert
0
LINE
5
145
100
AcDbEntity
8
SK2
62
256
6
ByLayer
370
13
48
1
60
0
100
AcDbLine
10
-63
20
20.558178
30
0
11
-63
21
64.966069
31
0
39
0
210
0
220
0
230
1
0
LINE
5
146
100
AcDbEntity
8
SK2
62
256
6
ByLayer
370
13
48
1
60
0
100
AcDbLine
10
0
20
43
30
0
11
0
21
64.966069
31
0
39
0
210
0
220
0
230
1
0
LINE
5
147
100
AcDbEntity
8
SK2
62
256
6
ByLayer
370
13
48
1
60
0
100
AcDbLine
10
-63
20
61.966069
30
0
11
0
21
61.966069
31
0
39
0
210
0
220
0
230
1
0
LINE
5
148
100
AcDbEntity
8
SK2
62
256
6
ByLayer
370
13
48
1
60
0
100
AcDbLine
10
-63
20
61.966069
30
0
11
-60.000002
21
62.466069
31
0
39
0
210
0
220
0
230
1
0
LINE
5
149
100
AcDbEntity
8
SK2
62
256
6
ByLayer
370
13
48
1
60
0
100
AcDbLine
10
-63
20
61.966069
30
0
11
-59.999998
21
61.466069
31
0
39
0
210
0
220
0
230
1
0
LINE
5
14A
100
AcDbEntity
8
SK2
62
256
6
ByLayer
370
13
48
1
60
0
100
AcDbLine
10
-60.000002
20
62.466069
30
0
11
-59.999998
21
61.466069
31
0
39
0
210
0
220
0
230
1
0
LINE
5
14B
100
AcDbEntity
8
SK2
62
256
6
ByLayer
370
13
48
1
60
0
100
AcDbLine
10
0
20
61.966069
30
0
11
-2.999998
21
61.466069
31
0
39
0
210
0
220
0
230
1
0
LINE
5
14C
100
AcDbEntity
8
SK2
62
256
6
ByLayer
370
13
48
1
60
0
100
AcDbLine
10
0
20
61.966069
30
0
11
-3.000002
21
62.466069
31
0
39
0
210
0
220
0
230
1
0
LINE
5
14D
100
AcDbEntity
8
SK2
62
256
6
ByLayer
370
13
48
1
60
0
100
AcDbLine
10
-2.999998
20
61.466069
30
0
11
-3.000002
21
62.466069
31
0
39
0
210
0
220
0
230
1
0
ENDBLK
5
14F
100
AcDbEntity
8
0
100
AcDbBlockEnd
0
BLOCK
5
15D
100
AcDbEntity
8
0
100
AcDbBlockBegin
2
DimnDraft3D2
70
0
10
0
20
0
30
0
3
DimnDraft3D2
0
MTEXT
5
152
100
AcDbEntity
8
2
62
256
6
ByLayer
370
18
48
1
60
0
100
AcDbMText
10
13.997368
20
62.716069
30
0
210
0
220
0
230
1
1
\W0.6563;30
40
3
41
0
44
1.084337
50
0
71
7
72
5
7
iso_b_vert
0
LINE
5
154
100
AcDbEntity
8
2
62
256
6
ByLayer
370
13
48
1
60
0
100
AcDbLine
10
0
20
43
30
0
11
0
21
64.966069
31
0
39
0
210
0
220
0
230
1
0
LINE
5
155
100
AcDbEntity
8
2
62
256
6
ByLayer
370
13
48
1
60
0
100
AcDbLine
10
30
20
17.2
30
0
11
30
21
64.966069
31
0
39
0
210
0
220
0
230
1
0
LINE
5
156
100
AcDbEntity
8
2
62
256
6
ByLayer
370
13
48
1
60
0
100
AcDbLine
10
0
20
61.966069
30
0
11
30
21
61.966069
31
0
39
0
210
0
220
0
230
1
0
LINE
5
157
100
AcDbEntity
8
2
62
256
6
ByLayer
370
13
48
1
60
0
100
AcDbLine
10
0
20
61.966069
30
0
11
2.999998
21
62.49505
31
0
39
0
210
0
220
0
230
1
0
LINE
5
158
100
AcDbEntity
8
2
62
256
6
ByLayer
370
13
48
1
60
0
100
AcDbLine
10
0
20
61.966069
30
0
11
3.000002
21
61.437088
31
0
39
0
210
0
220
0
230
1
0
LINE
5
159
100
AcDbEntity
8
2
62
256
6
ByLayer
370
13
48
1
60
0
100
AcDbLine
10
2.999998
20
62.49505
30
0
11
3.000002
21
61.437088
31
0
39
0
210
0
220
0
230
1
0
LINE
5
15A
100
AcDbEntity
8
2
62
256
6
ByLayer
370
13
48
1
60
0
100
AcDbLine
10
30
20
61.966069
30
0
11
27.000002
21
61.437088
31
0
39
0
210
0
220
0
230
1
0
LINE
5
15B
100
AcDbEntity
8
2
62
256
6
ByLayer
370
13
48
1
60
0
100
AcDbLine
10
30
20
61.966069
30
0
11
26.999998
21
62.49505
31
0
39
0
210
0
220
0
230
1
0
LINE
5
15C
100
AcDbEntity
8
2
62
256
6
ByLayer
370
13
48
1
60
0
100
AcDbLine
10
27.000002
20
61.437088
30
0
11
26.999998
21
62.49505
31
0
39
0
210
0
220
0
230
1
0
ENDBLK
5
15E
100
AcDbEntity
8
0
100
AcDbBlockEnd
0
BLOCK
5
16B
100
AcDbEntity
8
0
100
AcDbBlockBegin
2
DimnDraft3D3
70
0
10
0
20
0
30
0
3
DimnDraft3D3
0
MTEXT
5
161
100
AcDbEntity
8
SK2
62
256
6
ByLayer
370
18
48
1
60
0
100
AcDbMText
10
8.997368
20
51.757342
30
0
210
0
220
0
230
1
1
\W0.6563;20
40
3
41
0
44
1.084337
50
0
71
7
72
5
7
iso_b_vert
0
LINE
5
162
100
AcDbEntity
8
SK2
62
256
6
ByLayer
370
13
48
1
60
0
100
AcDbLine
10
0
20
43
30
0
11
0
21
54.007342
31
0
39
0
210
0
220
0
230
1
0
LINE
5
163
100
AcDbEntity
8
SK2
62
256
6
ByLayer
370
13
48
1
60
0
100
AcDbLine
10
20
20
42
30
0
11
20
21
54.007342
31
0
39
0
210
0
220
0
230
1
0
LINE
5
164
100
AcDbEntity
8
SK2
62
256
6
ByLayer
370
13
48
1
60
0
100
AcDbLine
10
0
20
51.007342
30
0
11
20
21
51.007342
31
0
39
0
210
0
220
0
230
1
0
LINE
5
165
100
AcDbEntity
8
SK2
62
256
6
ByLayer
370
13
48
1
60
0
100
AcDbLine
10
0
20
51.007342
30
0
11
2.999998
21
51.536323
31
0
39
0
210
0
220
0
230
1
0
LINE
5
166
100
AcDbEntity
8
SK2
62
256
6
ByLayer
370
13
48
1
60
0
100
AcDbLine
10
0
20
51.007342
30
0
11
3.000002
21
50.478361
31
0
39
0
210
0
220
0
230
1
0
LINE
5
167
100
AcDbEntity
8
SK2
62
256
6
ByLayer
370
13
48
1
60
0
100
AcDbLine
10
2.999998
20
51.536323
30
0
11
3.000002
21
50.478361
31
0
39
0
210
0
220
0
230
1
0
LINE
5
168
100
AcDbEntity
8
SK2
62
256
6
ByLayer
370
13
48
1
60
0
100
AcDbLine
10
20
20
51.007342
30
0
11
17.000002
21
50.478361
31
0
39
0
210
0
220
0
230
1
0
LINE
5
169
100
AcDbEntity
8
SK2
62
256
6
ByLayer
370
13
48
1
60
0
100
AcDbLine
10
20
20
51.007342
30
0
11
16.999998
21
51.536323
31
0
39
0
210
0
220
0
230
1
0
LINE
5
16A
100
AcDbEntity
8
SK2
62
256
6
ByLayer
370
13
48
1
60
0
100
AcDbLine
10
17.000002
20
50.478361
30
0
11
16.999998
21
51.536323
31
0
39
0
210
0
220
0
230
1
0
ENDBLK
5
16C
100
AcDbEntity
8
0
100
AcDbBlockEnd
0
BLOCK
5
17A
100
AcDbEntity
8
0
100
AcDbBlockBegin
2
DimnDraft3D4
70
0
10
0
20
0
30
0
3
DimnDraft3D4
0
MTEXT
5
16F
100
AcDbEntity
8
SK2
62
256
6
ByLayer
370
18
48
1
60
0
100
AcDbMText
10
-75.186695
20
1.326316
30
0
210
0
220
0
230
1
1
\W0.7183;40
40
3
41
0
44
1.084337
50
90
71
7
72
5
7
iso_b_vert
0
MTEXT
5
170
100
AcDbEntity
8
SK2
62
256
6
ByLayer
370
18
48
1
60
0
100
AcDbMText
10
-75.186695
20
-3.647368
30
0
210
0
220
0
230
1
1
\W1.3781;%%c
40
3
41
0
44
1.084337
50
90
71
7
72
5
7
iso_b_vert
0
LINE
5
171
100
AcDbEntity
8
SK2
62
256
6
ByLayer
370
13
48
1
60
0
100
AcDbLine
10
-61
20
19.996
30
0
11
-77.436695
21
19.996
31
0
39
0
210
0
220
0
230
1
0
LINE
5
172
100
AcDbEntity
8
SK2
62
256
6
ByLayer
370
13
48
1
60
0
100
AcDbLine
10
-61
20
-19.996
30
0
11
-77.436695
21
-19.996
31
0
39
0
210
0
220
0
230
1
0
LINE
5
173
100
AcDbEntity
8
SK2
62
256
6
ByLayer
370
13
48
1
60
0
100
AcDbLine
10
-74.436695
20
19.996
30
0
11
-74.436695
21
-19.996
31
0
39
0
210
0
220
0
230
1
0
LINE
5
174
100
AcDbEntity
8
SK2
62
256
6
ByLayer
370
13
48
1
60
0
100
AcDbLine
10
-74.436695
20
19.996
30
0
11
-73.907714
21
16.996002
31
0
39
0
210
0
220
0
230
1
0
LINE
5
175
100
AcDbEntity
8
SK2
62
256
6
ByLayer
370
13
48
1
60
0
100
AcDbLine
10
-74.436695
20
19.996
30
0
11
-74.965676
21
16.995998
31
0
39
0
210
0
220
0
230
1
0
LINE
5
176
100
AcDbEntity
8
SK2
62
256
6
ByLayer
370
13
48
1
60
0
100
AcDbLine
10
-73.907714
20
16.996002
30
0
11
-74.965676
21
16.995998
31
0
39
0
210
0
220
0
230
1
0
LINE
5
177
100
AcDbEntity
8
SK2
62
256
6
ByLayer
370
13
48
1
60
0
100
AcDbLine
10
-74.436695
20
-19.996
30
0
11
-74.965676
21
-16.996002
31
0
39
0
210
0
220
0
230
1
0
LINE
5
178
100
AcDbEntity
8
SK2
62
256
6
ByLayer
370
13
48
1
60
0
100
AcDbLine
10
-74.436695
20
-19.996
30
0
11
-73.907714
21
-16.995998
31
0
39
0
210
0
220
0
230
1
0
LINE
5
179
100
AcDbEntity
8
SK2
62
256
6
ByLayer
370
13
48
1
60
0
100
AcDbLine
10
-74.965676
20
-16.996002
30
0
11
-73.907714
21
-16.995998
31
0
39
0
210
0
220
0
230
1
0
ENDBLK
5
17B
100
AcDbEntity
8
0
100
AcDbBlockEnd
0
BLOCK
5
189
100
AcDbEntity
8
0
100
AcDbBlockBegin
2
DimnDraft3D5
70
0
10
0
20
0
30
0
3
DimnDraft3D5
0
MTEXT
5
17E
100
AcDbEntity
8
SK2
62
256
6
ByLayer
370
18
48
1
60
0
100
AcDbMText
10
-86.517991
20
1.484211
30
0
210
0
220
0
230
1
1
\W0.6563;83
40
3
41
0
44
1.084337
50
90
71
7
72
5
7
iso_b_vert
0
MTEXT
5
17F
100
AcDbEntity
8
SK2
62
256
6
ByLayer
370
18
48
1
60
0
100
AcDbMText
10
-86.517991
20
-3.489474
30
0
210
0
220
0
230
1
1
\W1.3781;%%c
40
3
41
0
44
1.084337
50
90
71
7
72
5
7
iso_b_vert
0
LINE
5
180
100
AcDbEntity
8
SK2
62
256
6
ByLayer
370
13
48
1
60
0
100
AcDbLine
10
-1.5
20
41.5
30
0
11
-88.767991
21
41.5
31
0
39
0
210
0
220
0
230
1
0
LINE
5
181
100
AcDbEntity
8
SK2
62
256
6
ByLayer
370
13
48
1
60
0
100
AcDbLine
10
-1.5
20
-41.5
30
0
11
-88.767991
21
-41.5
31
0
39
0
210
0
220
0
230
1
0
LINE
5
182
100
AcDbEntity
8
SK2
62
256
6
ByLayer
370
13
48
1
60
0
100
AcDbLine
10
-85.767991
20
41.5
30
0
11
-85.767991
21
-41.5
31
0
39
0
210
0
220
0
230
1
0
LINE
5
183
100
AcDbEntity
8
SK2
62
256
6
ByLayer
370
13
48
1
60
0
100
AcDbLine
10
-85.767991
20
41.5
30
0
11
-85.23901
21
38.500002
31
0
39
0
210
0
220
0
230
1
0
LINE
5
184
100
AcDbEntity
8
SK2
62
256
6
ByLayer
370
13
48
1
60
0
100
AcDbLine
10
-85.767991
20
41.5
30
0
11
-86.296972
21
38.499998
31
0
39
0
210
0
220
0
230
1
0
LINE
5
185
100
AcDbEntity
8
SK2
62
256
6
ByLayer
370
13
48
1
60
0
100
AcDbLine
10
-85.23901
20
38.500002
30
0
11
-86.296972
21
38.499998
31
0
39
0
210
0
220
0
230
1
0
LINE
5
186
100
AcDbEntity
8
SK2
62
256
6
ByLayer
370
13
48
1
60
0
100
AcDbLine
10
-85.767991
20
-41.5
30
0
11
-86.296972
21
-38.500002
31
0
39
0
210
0
220
0
230
1
0
LINE
5
187
100
AcDbEntity
8
SK2
62
256
6
ByLayer
370
13
48
1
60
0
100
AcDbLine
10
-85.767991
20
-41.5
30
0
11
-85.23901
21
-38.499998
31
0
39
0
210
0
220
0
230
1
0
LINE
5
188
100
AcDbEntity
8
SK2
62
256
6
ByLayer
370
13
48
1
60
0
100
AcDbLine
10
-86.296972
20
-38.500002
30
0
11
-85.23901
21
-38.499998
31
0
39
0
210
0
220
0
230
1
0
ENDBLK
5
18A
100
AcDbEntity
8
0
100
AcDbBlockEnd
0
BLOCK
5
198
100
AcDbEntity
8
0
100
AcDbBlockBegin
2
DimnDraft3D6
70
0
10
0
20
0
30
0
3
DimnDraft3D6
0
MTEXT
5
18D
100
AcDbEntity
8
SK2
62
256
6
ByLayer
370
18
48
1
60
0
100
AcDbMText
10
51.755303
20
1.484211
30
0
210
0
220
0
230
1
1
\W0.6563;32
40
3
41
0
44
1.084337
50
90
71
7
72
5
7
iso_b_vert
0
MTEXT
5
18E
100
AcDbEntity
8
SK2
62
256
6
ByLayer
370
18
48
1
60
0
100
AcDbMText
10
51.755303
20
-3.489474
30
0
210
0
220
0
230
1
1
\W1.3781;%%c
40
3
41
0
44
1.084337
50
90
71
7
72
5
7
iso_b_vert
0
LINE
5
18F
100
AcDbEntity
8
SK2
62
256
6
ByLayer
370
13
48
1
60
0
100
AcDbLine
10
31.2
20
-16
30
0
11
55.505303
21
-16
31
0
39
0
210
0
220
0
230
1
0
LINE
5
190
100
AcDbEntity
8
SK2
62
256
6
ByLayer
370
13
48
1
60
0
100
AcDbLine
10
31.2
20
16
30
0
11
55.505303
21
16
31
0
39
0
210
0
220
0
230
1
0
LINE
5
191
100
AcDbEntity
8
SK2
62
256
6
ByLayer
370
13
48
1
60
0
100
AcDbLine
10
52.505303
20
-16
30
0
11
52.505303
21
16
31
0
39
0
210
0
220
0
230
1
0
LINE
5
192
100
AcDbEntity
8
SK2
62
256
6
ByLayer
370
13
48
1
60
0
100
AcDbLine
10
52.505303
20
-16
30
0
11
51.976322
21
-13.000002
31
0
39
0
210
0
220
0
230
1
0
LINE
5
193
100
AcDbEntity
8
SK2
62
256
6
ByLayer
370
13
48
1
60
0
100
AcDbLine
10
52.505303
20
-16
30
0
11
53.034284
21
-12.999998
31
0
39
0
210
0
220
0
230
1
0
LINE
5
194
100
AcDbEntity
8
SK2
62
256
6
ByLayer
370
13
48
1
60
0
100
AcDbLine
10
51.976322
20
-13.000002
30
0
11
53.034284
21
-12.999998
31
0
39
0
210
0
220
0
230
1
0
LINE
5
195
100
AcDbEntity
8
SK2
62
256
6
ByLayer
370
13
48
1
60
0
100
AcDbLine
10
52.505303
20
16
30
0
11
53.034284
21
13.000002
31
0
39
0
210
0
220
0
230
1
0
LINE
5
196
100
AcDbEntity
8
SK2
62
256
6
ByLayer
370
13
48
1
60
0
100
AcDbLine
10
52.505303
20
16
30
0
11
51.976322
21
12.999998
31
0
39
0
210
0
220
0
230
1
0
LINE
5
197
100
AcDbEntity
8
SK2
62
256
6
ByLayer
370
13
48
1
60
0
100
AcDbLine
10
53.034284
20
13.000002
30
0
11
51.976322
21
12.999998
31
0
39
0
210
0
220
0
230
1
0
ENDBLK
5
199
100
AcDbEntity
8
0
100
AcDbBlockEnd
0
ENDSEC
0
SECTION
2
ENTITIES
0
ARC
5
EB
100
AcDbEntity
8
1
62
256
6
ByLayer
370
18
48
1
60
0
100
AcDbCircle
39
0
10
0.75
20
-20.525
30
0
40
1.2
210
0
220
0
230
-1
100
AcDbArc
50
90
51
128.683102
0
ARC
5
EC
100
AcDbEntity
8
1
62
256
6
ByLayer
370
18
48
1
60
0
100
AcDbCircle
39
0
10
0.75
20
20.525
30
0
40
1.2
210
0
220
0
230
-1
100
AcDbArc
50
231.316898
51
270
0
ARC
5
ED
100
AcDbEntity
8
1
62
256
6
ByLayer
370
18
48
1
60
0
100
AcDbCircle
39
0
10
1.037811
20
-20.525
30
0
40
1.2
210
0
220
0
230
-1
100
AcDbArc
50
75
51
90
0
ARC
5
EE
100
AcDbEntity
8
1
62
256
6
ByLayer
370
18
48
1
60
0
100
AcDbCircle
39
0
10
1.037811
20
20.525
30
0
40
1.2
210
0
220
0
230
-1
100
AcDbArc
50
270
51
285
0
ARC
5
EF
100
AcDbEntity
8
1
62
256
6
ByLayer
370
18
48
1
60
0
100
AcDbCircle
39
0
10
-21
20
17
30
0
40
1
210
0
220
0
230
-1
100
AcDbArc
50
270
51
0
0
ARC
5
F0
100
AcDbEntity
8
1
62
256
6
ByLayer
370
18
48
1
60
0
100
AcDbCircle
39
0
10
-21
20
-17
30
0
40
1
210
0
220
0
230
-1
100
AcDbArc
50
0
51
90
0
ARC
5
F1
100
AcDbEntity
8
1
62
256
6
ByLayer
370
18
48
1
60
0
100
AcDbCircle
39
0
10
46.00268
20
0
30
0
40
19.9959999998536
210
0
220
0
230
-1
100
AcDbArc
50
216.8355
51
223.457417
0
ARC
5
F2
100
AcDbEntity
8
1
62
256
6
ByLayer
370
18
48
1
60
0
100
AcDbCircle
39
0
10
46.00268
20
0
30
0
40
19.9960000000464
210
0
220
0
230
-1
100
AcDbArc
50
136.542583
51
143.1645
0
ARC
5
F3
100
AcDbEntity
8
1
62
256
6
ByLayer
370
18
48
1
60
0
100
AcDbCircle
39
0
10
17.39732
20
0
30
0
40
19.9959999982749
210
0
220
0
230
-1
100
AcDbArc
50
316.542583
51
323.1645
0
ARC
5
F4
100
AcDbEntity
8
1
62
256
6
ByLayer
370
18
48
1
60
0
100
AcDbCircle
39
0
10
13.39732
20
0
30
0
40
19.9960000028459
210
0
220
0
230
-1
100
AcDbArc
50
316.542583
51
323.1645
0
ARC
5
F5
100
AcDbEntity
8
1
62
256
6
ByLayer
370
18
48
1
60
0
100
AcDbCircle
39
0
10
17.39732
20
0
30
0
40
19.9960000101875
210
0
220
0
230
-1
100
AcDbArc
50
36.8355
51
43.457417
0
ARC
5
F6
100
AcDbEntity
8
1
62
256
6
ByLayer
370
18
48
1
60
0
100
AcDbCircle
39
0
10
13.39732
20
0
30
0
40
19.9960000033379
210
0
220
0
230
-1
100
AcDbArc
50
36.8355
51
43.457417
0
ARC
5
F7
100
AcDbEntity
8
1
62
256
6
ByLayer
370
18
48
1
60
0
100
AcDbCircle
39
0
10
50.00268
20
0
30
0
40
19.995999994245
210
0
220
0
230
-1
100
AcDbArc
50
216.8355
51
223.457417
0
ARC
5
F8
100
AcDbEntity
8
1
62
256
6
ByLayer
370
18
48
1
60
0
100
AcDbCircle
39
0
10
38.00268
20
0
30
0
40
19.9960000025623
210
0
220
0
230
-1
100
AcDbArc
50
216.8355
51
223.457417
0
ARC
5
F9
100
AcDbEntity
8
1
62
256
6
ByLayer
370
18
48
1
60
0
100
AcDbCircle
39
0
10
50.00268
20
0
30
0
40
19.9959999898987
210
0
220
0
230
-1
100
AcDbArc
50
136.542583
51
143.1645
0
ARC
5
FA
100
AcDbEntity
8
1
62
256
6
ByLayer
370
18
48
1
60
0
100
AcDbCircle
39
0
10
38.00268
20
0
30
0
40
19.9960000002324
210
0
220
0
230
-1
100
AcDbArc
50
136.542583
51
143.1645
0
ARC
5
FB
100
AcDbEntity
8
1
62
256
6
ByLayer
370
18
48
1
60
0
100
AcDbCircle
39
0
10
21.39732
20
0
30
0
40
19.996000005653
210
0
220
0
230
-1
100
AcDbArc
50
316.542583
51
323.1645
0
ARC
5
FC
100
AcDbEntity
8
1
62
256
6
ByLayer
370
18
48
1
60
0
100
AcDbCircle
39
0
10
9.39732
20
0
30
0
40
19.9960000030336
210
0
220
0
230
-1
100
AcDbArc
50
316.542583
51
323.1645
0
ARC
5
FD
100
AcDbEntity
8
1
62
256
6
ByLayer
370
18
48
1
60
0
100
AcDbCircle
39
0
10
21.39732
20
0
30
0
40
19.9959999994995
210
0
220
0
230
-1
100
AcDbArc
50
36.8355
51
43.457417
0
ARC
5
FE
100
AcDbEntity
8
1
62
256
6
ByLayer
370
18
48
1
60
0
100
AcDbCircle
39
0
10
9.39732
20
0
30
0
40
19.9960000033379
210
0
220
0
230
-1
100
AcDbArc
50
36.8355
51
43.457417
0
ARC
5
FF
100
AcDbEntity
8
1
62
256
6
ByLayer
370
18
48
1
60
0
100
AcDbCircle
39
0
10
54.00268
20
0
30
0
40
19.995999997377
210
0
220
0
230
-1
100
AcDbArc
50
216.8355
51
223.457417
0
ARC
5
100
100
AcDbEntity
8
1
62
256
6
ByLayer
370
18
48
1
60
0
100
AcDbCircle
39
0
10
54.00268
20
0
30
0
40
19.9959999942455
210
0
220
0
230
-1
100
AcDbArc
50
136.542583
51
143.1645
0
ARC
5
101
100
AcDbEntity
8
1
62
256
6
ByLayer
370
18
48
1
60
0
100
AcDbCircle
39
0
10
34.00268
20
0
30
0
40
19.9959999996833
210
0
220
0
230
-1
100
AcDbArc
50
136.542583
51
143.1645
0
ARC
5
102
100
AcDbEntity
8
1
62
256
6
ByLayer
370
18
48
1
60
0
100
AcDbCircle
39
0
10
25.39732
20
0
30
0
40
19.9959999963669
210
0
220
0
230
-1
100
AcDbArc
50
316.542583
51
323.1645
0
ARC
5
103
100
AcDbEntity
8
1
62
256
6
ByLayer
370
18
48
1
60
0
100
AcDbCircle
39
0
10
5.39732
20
0
30
0
40
19.9959999973265
210
0
220
0
230
-1
100
AcDbArc
50
316.542583
51
323.1645
0
ARC
5
104
100
AcDbEntity
8
1
62
256
6
ByLayer
370
18
48
1
60
0
100
AcDbCircle
39
0
10
25.39732
20
0
30
0
40
19.9960000038627
210
0
220
0
230
-1
100
AcDbArc
50
36.8355
51
43.457417
0
ARC
5
105
100
AcDbEntity
8
1
62
256
6
ByLayer
370
18
48
1
60
0
100
AcDbCircle
39
0
10
5.39732
20
0
30
0
40
19.996000001208
210
0
220
0
230
-1
100
AcDbArc
50
36.8355
51
43.457417
0
ARC
5
106
100
AcDbEntity
8
1
62
256
6
ByLayer
370
18
48
1
60
0
100
AcDbCircle
39
0
10
58.00268
20
0
30
0
40
19.9959999996223
210
0
220
0
230
-1
100
AcDbArc
50
216.8355
51
223.457417
0
ARC
5
107
100
AcDbEntity
8
1
62
256
6
ByLayer
370
18
48
1
60
0
100
AcDbCircle
39
0
10
30.00268
20
0
30
0
40
19.9960000002357
210
0
220
0
230
-1
100
AcDbArc
50
216.8355
51
223.457417
0
ARC
5
108
100
AcDbEntity
8
1
62
256
6
ByLayer
370
18
48
1
60
0
100
AcDbCircle
39
0
10
58.00268
20
0
30
0
40
19.9959999992198
210
0
220
0
230
-1
100
AcDbArc
50
136.542583
51
143.1645
0
ARC
5
109
100
AcDbEntity
8
1
62
256
6
ByLayer
370
18
48
1
60
0
100
AcDbCircle
39
0
10
30.00268
20
0
30
0
40
19.9959999991466
210
0
220
0
230
-1
100
AcDbArc
50
136.542583
51
143.1645
0
ARC
5
10A
100
AcDbEntity
8
1
62
256
6
ByLayer
370
18
48
1
60
0
100
AcDbCircle
39
0
10
29.39732
20
0
30
0
40
19.9959999973295
210
0
220
0
230
-1
100
AcDbArc
50
316.542583
51
323.1645
0
ARC
5
10B
100
AcDbEntity
8
1
62
256
6
ByLayer
370
18
48
1
60
0
100
AcDbCircle
39
0
10
1.39732
20
0
30
0
40
19.996000003236
210
0
220
0
230
-1
100
AcDbArc
50
316.542583
51
323.1645
0
ARC
5
10C
100
AcDbEntity
8
1
62
256
6
ByLayer
370
18
48
1
60
0
100
AcDbCircle
39
0
10
29.39732
20
0
30
0
40
19.9960000003071
210
0
220
0
230
-1
100
AcDbArc
50
36.8355
51
43.457417
0
ARC
5
10D
100
AcDbEntity
8
1
62
256
6
ByLayer
370
18
48
1
60
0
100
AcDbCircle
39
0
10
1.39732
20
0
30
0
40
19.9959999958957
210
0
220
0
230
-1
100
AcDbArc
50
36.8355
51
43.457417
0
ARC
5
10E
100
AcDbEntity
8
1
62
256
6
ByLayer
370
18
48
1
60
0
100
AcDbCircle
39
0
10
62.00268
20
0
30
0
40
19.9959999987954
210
0
220
0
230
-1
100
AcDbArc
50
216.8355
51
223.457417
0
ARC
5
10F
100
AcDbEntity
8
1
62
256
6
ByLayer
370
18
48
1
60
0
100
AcDbCircle
39
0
10
26.00268
20
0
30
0
40
19.9960000000064
210
0
220
0
230
-1
100
AcDbArc
50
216.8355
51
223.457417
0
ARC
5
110
100
AcDbEntity
8
1
62
256
6
ByLayer
370
18
48
1
60
0
100
AcDbCircle
39
0
10
62.00268
20
0
30
0
40
19.995999997548
210
0
220
0
230
-1
100
AcDbArc
50
136.542583
51
143.1645
0
ARC
5
111
100
AcDbEntity
8
1
62
256
6
ByLayer
370
18
48
1
60
0
100
AcDbCircle
39
0
10
26.00268
20
0
30
0
40
19.9959999988344
210
0
220
0
230
-1
100
AcDbArc
50
136.542583
51
143.1645
0
ARC
5
112
100
AcDbEntity
8
1
62
256
6
ByLayer
370
18
48
1
60
0
100
AcDbCircle
39
0
10
33.39732
20
0
30
0
40
19.9960000148292
210
0
220
0
230
-1
100
AcDbArc
50
316.542583
51
323.1645
0
ARC
5
113
100
AcDbEntity
8
1
62
256
6
ByLayer
370
18
48
1
60
0
100
AcDbCircle
39
0
10
-2.60268
20
0
30
0
40
19.9960000004714
210
0
220
0
230
-1
100
AcDbArc
50
316.542583
51
323.1645
0
ARC
5
114
100
AcDbEntity
8
1
62
256
6
ByLayer
370
18
48
1
60
0
100
AcDbCircle
39
0
10
33.39732
20
0
30
0
40
19.9960000119159
210
0
220
0
230
-1
100
AcDbArc
50
36.8355
51
43.457417
0
ARC
5
115
100
AcDbEntity
8
1
62
256
6
ByLayer
370
18
48
1
60
0
100
AcDbCircle
39
0
10
-2.60268
20
0
30
0
40
19.9959999992629
210
0
220
0
230
-1
100
AcDbArc
50
36.8355
51
43.457417
0
ARC
5
116
100
AcDbEntity
8
1
62
256
6
ByLayer
370
18
48
1
60
0
100
AcDbCircle
39
0
10
42.00268
20
0
30
0
40
19.9960000001154
210
0
220
0
230
-1
100
AcDbArc
50
216.8355
51
223.457417
0
ARC
5
117
100
AcDbEntity
8
1
62
256
6
ByLayer
370
18
48
1
60
0
100
AcDbCircle
39
0
10
42.00268
20
0
30
0
40
19.9959999988756
210
0
220
0
230
-1
100
AcDbArc
50
136.542583
51
143.1645
0
ARC
5
118
100
AcDbEntity
8
1
62
256
6
ByLayer
370
18
48
1
60
0
100
AcDbCircle
39
0
10
34.00268
20
0
30
0
40
19.9960000026254
210
0
220
0
230
-1
100
AcDbArc
50
216.8355
51
223.457417
0
POINT
5
6C
100
AcDbEntity
8
80
62
256
6
ByLayer
370
18
48
1
60
0
100
AcDbPoint
10
0
20
0
30
0
39
0
210
0
220
0
230
1
50
360
0
POINT
5
6E
100
AcDbEntity
8
81
62
256
6
ByLayer
370
18
48
1
60
0
100
AcDbPoint
10
30
20
0
30
0
39
0
210
0
220
0
230
1
50
360
0
POINT
5
70
100
AcDbEntity
8
1
62
256
6
ByLayer
370
13
48
1
60
1
100
AcDbPoint
10
225.681838
20
147.444016
30
0
39
0
210
0
220
0
230
1
50
360
0
POINT
5
72
100
AcDbEntity
8
1
62
256
6
ByLayer
370
13
48
1
60
1
100
AcDbPoint
10
225.681838
20
147.444016
30
0
39
0
210
0
220
0
230
1
50
360
0
SPLINE
5
119
100
AcDbEntity
8
1
62
256
6
ByLayer
370
18
48
1
60
0
100
AcDbSpline
70
4
71
3
72
8
73
4
40
0
40
0
40
0
40
0
40
1
40
1
40
1
40
1
41
1
10
19
20
-25.8069758011279
30
-9E-16
41
1
10
19.3382624911477
20
-25.2630184815719
30
2E-16
41
1
10
19.6717743282762
20
-24.716165982075
30
1.2E-15
41
1
10
20
20
-24.1660919471892
30
2.2E-15
0
SPLINE
5
11A
100
AcDbEntity
8
1
62
256
6
ByLayer
370
18
48
1
60
0
100
AcDbSpline
70
4
71
3
72
24
73
20
40
0
40
0
40
0
40
0
40
0.125000000000002
40
0.125000000000002
40
0.250000000000004
40
0.250000000000004
40
0.375000000000007
40
0.375000000000007
40
0.500000000000009
40
0.500000000000009
40
0.562500000000005
40
0.562500000000005
40
0.625000000000001
40
0.625000000000001
40
0.750000000000001
40
0.750000000000001
40
0.875
40
0.875
40
1
40
1
40
1
40
1
41
1
10
-11.912132034356
20
13.7535543617177
30
4E-16
41
1
10
-11.8999064439474
20
13.766456636862
30
4E-16
41
1
10
-11.8863958422044
20
13.7784760962664
30
4E-16
41
1
10
-11.8563339132172
20
13.8004457216699
30
5E-16
41
1
10
-11.8395488161757
20
13.8104992544521
30
5E-16
41
1
10
-11.8034944098789
20
13.827205731863
30
6E-16
41
1
10
-11.7840480600619
20
13.8339712140105
30
6E-16
41
1
10
-11.7428851931853
20
13.8432642694679
30
7E-16
41
1
10
-11.7218676156137
20
13.8456672730716
30
7E-16
41
1
10
-11.6896479783423
20
13.8457106772381
30
7E-16
41
1
10
-11.6787615610663
20
13.8451100172829
30
8E-16
41
1
10
-11.6575605315696
20
13.8427516028298
30
8E-16
41
1
10
-11.647143266137
20
13.8409988018116
30
8E-16
41
1
10
-11.6164139284194
20
13.8341032852075
30
8E-16
41
1
10
-11.5967161115259
20
13.8272895347623
30
8E-16
41
1
10
-11.5605706167759
20
13.8105682170912
30
9E-16
41
1
10
-11.5437672190874
20
13.8005131846257
30
9E-16
41
1
10
-11.5136363904683
20
13.7785060695952
30
9E-16
41
1
10
-11.5001057409574
20
13.7664694961997
30
9E-16
41
1
10
-11.487867965644
20
13.7535543617177
30
9E-16
0
SPLINE
5
11B
100
AcDbEntity
8
1
62
256
6
ByLayer
370
18
48
1
60
0
100
AcDbSpline
70
4
71
3
72
24
73
20
40
0
40
0
40
0
40
0
40
0.125000000000001
40
0.125000000000001
40
0.250000000000003
40
0.250000000000003
40
0.375000000000004
40
0.375000000000004
40
0.500000000000006
40
0.500000000000006
40
0.562500000000001
40
0.562500000000001
40
0.624999999999997
40
0.624999999999997
40
0.749999999999998
40
0.749999999999998
40
0.874999999999999
40
0.874999999999999
40
1
40
1
40
1
40
1
41
1
10
-11.487867965644
20
-13.7535543617176
30
6E-16
41
1
10
-11.5000935560526
20
-13.766456636862
30
6E-16
41
1
10
-11.5136041577956
20
-13.7784760962664
30
6E-16
41
1
10
-11.5436660867827
20
-13.8004457216698
30
5E-16
41
1
10
-11.5604511838243
20
-13.8104992544521
30
5E-16
41
1
10
-11.5965055901211
20
-13.8272057318629
30
4E-16
41
1
10
-11.6159519399381
20
-13.8339712140105
30
4E-16
41
1
10
-11.6571148068147
20
-13.8432642694678
30
3E-16
41
1
10
-11.6781323843862
20
-13.8456672730716
30
3E-16
41
1
10
-11.7103520216577
20
-13.845710677238
30
3E-16
41
1
10
-11.7212384389337
20
-13.8451100172829
30
2E-16
41
1
10
-11.7424394684304
20
-13.8427516028297
30
2E-16
41
1
10
-11.752856733863
20
-13.8409988018116
30
2E-16
41
1
10
-11.7835860715806
20
-13.8341032852075
30
2E-16
41
1
10
-11.8032838884741
20
-13.8272895347623
30
2E-16
41
1
10
-11.8394293832241
20
-13.8105682170911
30
2E-16
41
1
10
-11.8562327809126
20
-13.8005131846257
30
1E-16
41
1
10
-11.8863636095317
20
-13.7785060695951
30
1E-16
41
1
10
-11.8998942590426
20
-13.7664694961996
30
1E-16
41
1
10
-11.912132034356
20
-13.7535543617176
30
1E-16
0
SPLINE
5
11C
100
AcDbEntity
8
1
62
256
6
ByLayer
370
18
48
1
60
0
100
AcDbSpline
70
4
71
3
72
24
73
20
40
0
40
0
40
0
40
0
40
0.124999999999993
40
0.124999999999993
40
0.249999999999986
40
0.249999999999986
40
0.374999999999978
40
0.374999999999978
40
0.499999999999971
40
0.499999999999971
40
0.562499999999977
40
0.562499999999977
40
0.624999999999984
40
0.624999999999984
40
0.749999999999989
40
0.749999999999989
40
0.874999999999995
40
0.874999999999995
40
1
40
1
40
1
40
1
41
1
10
-15.912132034356
20
13.7535543617177
30
-8E-16
41
1
10
-15.8999064439474
20
13.7664566368621
30
-7E-16
41
1
10
-15.8863958422044
20
13.7784760962664
30
-7E-16
41
1
10
-15.8563339132172
20
13.8004457216699
30
-6E-16
41
1
10
-15.8395488161757
20
13.8104992544521
30
-6E-16
41
1
10
-15.8034944098789
20
13.827205731863
30
-5E-16
41
1
10
-15.7840480600619
20
13.8339712140105
30
-5E-16
41
1
10
-15.7428851931853
20
13.8432642694679
30
-4E-16
41
1
10
-15.7218676156137
20
13.8456672730716
30
-4E-16
41
1
10
-15.6896479783423
20
13.8457106772381
30
-4E-16
41
1
10
-15.6787615610663
20
13.8451100172829
30
-4E-16
41
1
10
-15.6575605315696
20
13.8427516028298
30
-3E-16
41
1
10
-15.6471432661371
20
13.8409988018116
30
-3E-16
41
1
10
-15.6164139284194
20
13.8341032852075
30
-3E-16
41
1
10
-15.5967161115259
20
13.8272895347623
30
-3E-16
41
1
10
-15.5605706167759
20
13.8105682170912
30
-3E-16
41
1
10
-15.5437672190874
20
13.8005131846257
30
-3E-16
41
1
10
-15.5136363904683
20
13.7785060695952
30
-3E-16
41
1
10
-15.5001057409574
20
13.7664694961997
30
-3E-16
41
1
10
-15.487867965644
20
13.7535543617177
30
-3E-16
0
SPLINE
5
11D
100
AcDbEntity
8
1
62
256
6
ByLayer
370
18
48
1
60
0
100
AcDbSpline
70
4
71
3
72
24
73
20
40
0
40
0
40
0
40
0
40
0.124999999999982
40
0.124999999999982
40
0.249999999999964
40
0.249999999999964
40
0.374999999999946
40
0.374999999999946
40
0.499999999999928
40
0.499999999999928
40
0.562499999999929
40
0.562499999999929
40
0.62499999999993
40
0.62499999999993
40
0.749999999999953
40
0.749999999999953
40
0.874999999999977
40
0.874999999999977
40
1
40
1
40
1
40
1
41
1
10
-15.487867965644
20
-13.7535543617176
30
-5E-16
41
1
10
-15.5000935560526
20
-13.766456636862
30
-5E-16
41
1
10
-15.5136041577956
20
-13.7784760962664
30
-6E-16
41
1
10
-15.5436660867827
20
-13.8004457216699
30
-6E-16
41
1
10
-15.5604511838243
20
-13.8104992544521
30
-7E-16
41
1
10
-15.5965055901211
20
-13.8272057318629
30
-7E-16
41
1
10
-15.6159519399381
20
-13.8339712140105
30
-7E-16
41
1
10
-15.6571148068147
20
-13.8432642694678
30
-8E-16
41
1
10
-15.6781323843863
20
-13.8456672730716
30
-8E-16
41
1
10
-15.7103520216577
20
-13.8457106772381
30
-9E-16
41
1
10
-15.7212384389337
20
-13.8451100172829
30
-9E-16
41
1
10
-15.7424394684304
20
-13.8427516028297
30
9E-16
41
1
10
-15.752856733863
20
-13.8409988018116
30
9E-16
41
1
10
-15.7835860715806
20
-13.8341032852075
30
8E-16
41
1
10
-15.8032838884741
20
-13.8272895347623
30
8E-16
41
1
10
-15.839429383224
20
-13.8105682170911
30
8E-16
41
1
10
-15.8562327809127
20
-13.8005131846257
30
8E-16
41
1
10
-15.8863636095317
20
-13.7785060695951
30
8E-16
41
1
10
-15.8998942590426
20
-13.7664694961996
30
8E-16
41
1
10
-15.912132034356
20
-13.7535543617176
30
8E-16
0
SPLINE
5
11E
100
AcDbEntity
8
1
62
256
6
ByLayer
370
18
48
1
60
0
100
AcDbSpline
70
4
71
3
72
24
73
20
40
0
40
0
40
0
40
0
40
0.124999999999991
40
0.124999999999991
40
0.249999999999981
40
0.249999999999981
40
0.374999999999972
40
0.374999999999972
40
0.499999999999963
40
0.499999999999963
40
0.562499999999968
40
0.562499999999968
40
0.624999999999974
40
0.624999999999974
40
0.749999999999982
40
0.749999999999982
40
0.874999999999991
40
0.874999999999991
40
1
40
1
40
1
40
1
41
1
10
-19.9121320343559
20
13.7535543617177
30
-1E-16
41
1
10
-19.8999064439474
20
13.7664566368621
30
-1E-16
41
1
10
-19.8863958422044
20
13.7784760962664
30
0
41
1
10
-19.8563339132172
20
13.8004457216699
30
0
41
1
10
-19.8395488161758
20
13.8104992544521
30
0
41
1
10
-19.8034944098789
20
13.827205731863
30
1E-16
41
1
10
-19.7840480600619
20
13.8339712140106
30
1E-16
41
1
10
-19.7428851931853
20
13.8432642694679
30
2E-16
41
1
10
-19.7218676156138
20
13.8456672730716
30
2E-16
41
1
10
-19.6896479783423
20
13.8457106772381
30
3E-16
41
1
10
-19.6787615610663
20
13.845110017283
30
3E-16
41
1
10
-19.6575605315696
20
13.8427516028298
30
3E-16
41
1
10
-19.6471432661371
20
13.8409988018116
30
3E-16
41
1
10
-19.6164139284194
20
13.8341032852075
30
3E-16
41
1
10
-19.5967161115259
20
13.8272895347623
30
3E-16
41
1
10
-19.560570616776
20
13.8105682170912
30
4E-16
41
1
10
-19.5437672190874
20
13.8005131846257
30
4E-16
41
1
10
-19.5136363904683
20
13.7785060695952
30
4E-16
41
1
10
-19.5001057409574
20
13.7664694961997
30
4E-16
41
1
10
-19.487867965644
20
13.7535543617177
30
4E-16
0
SPLINE
5
11F
100
AcDbEntity
8
1
62
256
6
ByLayer
370
18
48
1
60
0
100
AcDbSpline
70
4
71
3
72
24
73
20
40
0
40
0
40
0
40
0
40
0.125000000000001
40
0.125000000000001
40
0.250000000000002
40
0.250000000000002
40
0.375000000000002
40
0.375000000000002
40
0.500000000000003
40
0.500000000000003
40
0.562500000000004
40
0.562500000000004
40
0.625000000000004
40
0.625000000000004
40
0.750000000000003
40
0.750000000000003
40
0.875000000000001
40
0.875000000000001
40
1
40
1
40
1
40
1
41
1
10
-19.487867965644
20
-13.7535543617176
30
1E-16
41
1
10
-19.5000935560526
20
-13.766456636862
30
1E-16
41
1
10
-19.5136041577956
20
-13.7784760962664
30
1E-16
41
1
10
-19.5436660867827
20
-13.8004457216699
30
0
41
1
10
-19.5604511838243
20
-13.8104992544521
30
0
41
1
10
-19.5965055901211
20
-13.8272057318629
30
-1E-16
41
1
10
-19.6159519399381
20
-13.8339712140105
30
-1E-16
41
1
10
-19.6571148068147
20
-13.8432642694678
30
-2E-16
41
1
10
-19.6781323843863
20
-13.8456672730716
30
-2E-16
41
1
10
-19.7103520216577
20
-13.8457106772381
30
-2E-16
41
1
10
-19.7212384389337
20
-13.8451100172829
30
-2E-16
41
1
10
-19.7424394684304
20
-13.8427516028297
30
-3E-16
41
1
10
-19.752856733863
20
-13.8409988018116
30
-3E-16
41
1
10
-19.7835860715806
20
-13.8341032852075
30
-3E-16
41
1
10
-19.8032838884741
20
-13.8272895347623
30
-3E-16
41
1
10
-19.839429383224
20
-13.8105682170911
30
-3E-16
41
1
10
-19.8562327809126
20
-13.8005131846257
30
-3E-16
41
1
10
-19.8863636095317
20
-13.7785060695952
30
-4E-16
41
1
10
-19.8998942590426
20
-13.7664694961997
30
-4E-16
41
1
10
-19.9121320343559
20
-13.7535543617176
30
-4E-16
0
SPLINE
5
120
100
AcDbEntity
8
1
62
256
6
ByLayer
370
18
48
1
60
0
100
AcDbSpline
70
4
71
3
72
24
73
20
40
0
40
0
40
0
40
0
40
0.124999999999999
40
0.124999999999999
40
0.249999999999998
40
0.249999999999998
40
0.374999999999998
40
0.374999999999998
40
0.499999999999997
40
0.499999999999997
40
0.562499999999996
40
0.562499999999996
40
0.624999999999996
40
0.624999999999996
40
0.749999999999997
40
0.749999999999997
40
0.874999999999999
40
0.874999999999999
40
1
40
1
40
1
40
1
41
1
10
-23.912132034356
20
13.7535543617177
30
5E-16
41
1
10
-23.8999064439474
20
13.7664566368621
30
6E-16
41
1
10
-23.8863958422044
20
13.7784760962664
30
6E-16
41
1
10
-23.8563339132172
20
13.8004457216699
30
7E-16
41
1
10
-23.8395488161758
20
13.8104992544521
30
7E-16
41
1
10
-23.8034944098789
20
13.827205731863
30
7E-16
41
1
10
-23.7840480600619
20
13.8339712140106
30
8E-16
41
1
10
-23.7428851931853
20
13.8432642694679
30
8E-16
41
1
10
-23.7218676156138
20
13.8456672730716
30
9E-16
41
1
10
-23.6896479783423
20
13.8457106772381
30
-9E-16
41
1
10
-23.6787615610663
20
13.845110017283
30
-9E-16
41
1
10
-23.6575605315696
20
13.8427516028298
30
-8E-16
41
1
10
-23.647143266137
20
13.8409988018116
30
-8E-16
41
1
10
-23.6164139284194
20
13.8341032852076
30
-8E-16
41
1
10
-23.5967161115259
20
13.8272895347623
30
-8E-16
41
1
10
-23.560570616776
20
13.8105682170912
30
-8E-16
41
1
10
-23.5437672190874
20
13.8005131846258
30
-8E-16
41
1
10
-23.5136363904683
20
13.7785060695952
30
-7E-16
41
1
10
-23.5001057409574
20
13.7664694961997
30
-7E-16
41
1
10
-23.487867965644
20
13.7535543617177
30
-7E-16
0
SPLINE
5
121
100
AcDbEntity
8
1
62
256
6
ByLayer
370
18
48
1
60
0
100
AcDbSpline
70
4
71
3
72
24
73
20
40
0
40
0
40
0
40
0
40
0.124999999999982
40
0.124999999999982
40
0.249999999999964
40
0.249999999999964
40
0.374999999999946
40
0.374999999999946
40
0.499999999999928
40
0.499999999999928
40
0.562499999999929
40
0.562499999999929
40
0.62499999999993
40
0.62499999999993
40
0.749999999999953
40
0.749999999999953
40
0.874999999999977
40
0.874999999999977
40
1
40
1
40
1
40
1
41
1
10
-23.487867965644
20
-13.7535543617176
30
8E-16
41
1
10
-23.5000935560526
20
-13.7664566368621
30
8E-16
41
1
10
-23.5136041577956
20
-13.7784760962664
30
7E-16
41
1
10
-23.5436660867827
20
-13.8004457216699
30
7E-16
41
1
10
-23.5604511838243
20
-13.8104992544521
30
6E-16
41
1
10
-23.5965055901211
20
-13.8272057318629
30
6E-16
41
1
10
-23.6159519399381
20
-13.8339712140105
30
5E-16
41
1
10
-23.6571148068147
20
-13.8432642694679
30
5E-16
41
1
10
-23.6781323843863
20
-13.8456672730716
30
5E-16
41
1
10
-23.7103520216577
20
-13.8457106772381
30
4E-16
41
1
10
-23.7212384389337
20
-13.8451100172829
30
4E-16
41
1
10
-23.7424394684304
20
-13.8427516028298
30
4E-16
41
1
10
-23.752856733863
20
-13.8409988018116
30
4E-16
41
1
10
-23.7835860715806
20
-13.8341032852075
30
3E-16
41
1
10
-23.8032838884741
20
-13.8272895347623
30
3E-16
41
1
10
-23.839429383224
20
-13.8105682170911
30
3E-16
41
1
10
-23.8562327809126
20
-13.8005131846257
30
3E-16
41
1
10
-23.8863636095317
20
-13.7785060695952
30
3E-16
41
1
10
-23.8998942590426
20
-13.7664694961997
30
3E-16
41
1
10
-23.912132034356
20
-13.7535543617176
30
3E-16
0
SPLINE
5
122
100
AcDbEntity
8
1
62
256
6
ByLayer
370
18
48
1
60
0
100
AcDbSpline
70
4
71
3
72
24
73
20
40
0
40
0
40
0
40
0
40
0.124999999999989
40
0.124999999999989
40
0.249999999999978
40
0.249999999999978
40
0.374999999999968
40
0.374999999999968
40
0.499999999999957
40
0.499999999999957
40
0.562499999999961
40
0.562499999999961
40
0.624999999999966
40
0.624999999999966
40
0.749999999999977
40
0.749999999999977
40
0.874999999999989
40
0.874999999999989
40
1
40
1
40
1
40
1
41
1
10
-27.912132034356
20
13.7535543617177
30
-6E-16
41
1
10
-27.8999064439474
20
13.7664566368621
30
-6E-16
41
1
10
-27.8863958422044
20
13.7784760962664
30
-5E-16
41
1
10
-27.8563339132172
20
13.8004457216699
30
-5E-16
41
1
10
-27.8395488161758
20
13.8104992544521
30
-4E-16
41
1
10
-27.8034944098789
20
13.827205731863
30
-4E-16
41
1
10
-27.7840480600619
20
13.8339712140106
30
-4E-16
41
1
10
-27.7428851931853
20
13.8432642694679
30
-3E-16
41
1
10
-27.7218676156138
20
13.8456672730716
30
-3E-16
41
1
10
-27.6896479783423
20
13.8457106772381
30
-2E-16
41
1
10
-27.6787615610663
20
13.845110017283
30
-2E-16
41
1
10
-27.6575605315696
20
13.8427516028298
30
-2E-16
41
1
10
-27.6471432661371
20
13.8409988018116
30
-2E-16
41
1
10
-27.6164139284194
20
13.8341032852076
30
-2E-16
41
1
10
-27.5967161115259
20
13.8272895347623
30
-1E-16
41
1
10
-27.560570616776
20
13.8105682170912
30
-1E-16
41
1
10
-27.5437672190874
20
13.8005131846258
30
-1E-16
41
1
10
-27.5136363904683
20
13.7785060695952
30
-1E-16
41
1
10
-27.5001057409574
20
13.7664694961997
30
-1E-16
41
1
10
-27.487867965644
20
13.7535543617177
30
-1E-16
0
SPLINE
5
123
100
AcDbEntity
8
1
62
256
6
ByLayer
370
18
48
1
60
0
100
AcDbSpline
70
4
71
3
72
24
73
20
40
0
40
0
40
0
40
0
40
0.124999999999989
40
0.124999999999989
40
0.249999999999978
40
0.249999999999978
40
0.374999999999967
40
0.374999999999967
40
0.499999999999956
40
0.499999999999956
40
0.562499999999961
40
0.562499999999961
40
0.624999999999966
40
0.624999999999966
40
0.749999999999977
40
0.749999999999977
40
0.874999999999989
40
0.874999999999989
40
1
40
1
40
1
40
1
41
1
10
-27.487867965644
20
-13.7535543617177
30
-4E-16
41
1
10
-27.5000935560526
20
-13.7664566368621
30
-4E-16
41
1
10
-27.5136041577956
20
-13.7784760962664
30
-4E-16
41
1
10
-27.5436660867827
20
-13.8004457216699
30
-5E-16
41
1
10
-27.5604511838243
20
-13.8104992544521
30
-5E-16
41
1
10
-27.5965055901211
20
-13.827205731863
30
-6E-16
41
1
10
-27.6159519399381
20
-13.8339712140105
30
-6E-16
41
1
10
-27.6571148068147
20
-13.8432642694679
30
-7E-16
41
1
10
-27.6781323843862
20
-13.8456672730716
30
-7E-16
41
1
10
-27.7103520216577
20
-13.8457106772381
30
-7E-16
41
1
10
-27.7212384389337
20
-13.8451100172829
30
-7E-16
41
1
10
-27.7424394684304
20
-13.8427516028298
30
-8E-16
41
1
10
-27.752856733863
20
-13.8409988018116
30
-8E-16
41
1
10
-27.7835860715806
20
-13.8341032852075
30
-8E-16
41
1
10
-27.8032838884741
20
-13.8272895347623
30
-8E-16
41
1
10
-27.839429383224
20
-13.8105682170912
30
-8E-16
41
1
10
-27.8562327809126
20
-13.8005131846257
30
-8E-16
41
1
10
-27.8863636095317
20
-13.7785060695952
30
-8E-16
41
1
10
-27.8998942590426
20
-13.7664694961997
30
-8E-16
41
1
10
-27.912132034356
20
-13.7535543617177
30
-8E-16
0
SPLINE
5
124
100
AcDbEntity
8
1
62
256
6
ByLayer
370
18
48
1
60
0
100
AcDbSpline
70
4
71
3
72
24
73
20
40
0
40
0
40
0
40
0
40
0.124999999999985
40
0.124999999999985
40
0.249999999999971
40
0.249999999999971
40
0.374999999999956
40
0.374999999999956
40
0.499999999999942
40
0.499999999999942
40
0.562499999999935
40
0.562499999999935
40
0.624999999999928
40
0.624999999999928
40
0.749999999999952
40
0.749999999999952
40
0.874999999999976
40
0.874999999999976
40
1
40
1
40
1
40
1
41
1
10
-47.9121320343559
20
13.7535543617177
30
8E-16
41
1
10
-47.8999064439474
20
13.7664566368621
30
9E-16
41
1
10
-47.8863958422044
20
13.7784760962665
30
-9E-16
41
1
10
-47.8563339132172
20
13.8004457216699
30
-8E-16
41
1
10
-47.8395488161758
20
13.8104992544521
30
-8E-16
41
1
10
-47.8034944098789
20
13.827205731863
30
-7E-16
41
1
10
-47.7840480600619
20
13.8339712140106
30
-7E-16
41
1
10
-47.7428851931853
20
13.8432642694679
30
-6E-16
41
1
10
-47.7218676156138
20
13.8456672730716
30
-6E-16
41
1
10
-47.6896479783423
20
13.8457106772381
30
-6E-16
41
1
10
-47.6787615610663
20
13.845110017283
30
-6E-16
41
1
10
-47.6575605315696
20
13.8427516028298
30
-5E-16
41
1
10
-47.6471432661371
20
13.8409988018117
30
-5E-16
41
1
10
-47.6164139284194
20
13.8341032852076
30
-5E-16
41
1
10
-47.5967161115259
20
13.8272895347623
30
-5E-16
41
1
10
-47.5605706167759
20
13.8105682170912
30
-5E-16
41
1
10
-47.5437672190874
20
13.8005131846258
30
-4E-16
41
1
10
-47.5136363904683
20
13.7785060695952
30
-4E-16
41
1
10
-47.5001057409574
20
13.7664694961997
30
-4E-16
41
1
10
-47.487867965644
20
13.7535543617177
30
-4E-16
0
SPLINE
5
125
100
AcDbEntity
8
1
62
256
6
ByLayer
370
18
48
1
60
0
100
AcDbSpline
70
4
71
3
72
8
73
4
40
0
40
0
40
0
40
0
40
1
40
1
40
1
40
1
41
1
10
-59.5
20
-11.9879939939925
30
1.5E-15
41
1
10
-60.6761946225497
20
-11.4623057640316
30
8E-16
41
1
10
-61.8441798607475
20
-10.9186137147522
30
0
41
1
10
-63
20
-10.3482426559372
30
-7E-16
0
SPLINE
5
126
100
AcDbEntity
8
1
62
256
6
ByLayer
370
18
48
1
60
0
100
AcDbSpline
70
4
71
3
72
8
73
4
40
0
40
0
40
0
40
0
40
1
40
1
40
1
40
1
41
1
10
-63
20
10.3482426559371
30
-1.3E-15
41
1
10
-61.8436525826279
20
10.9188739145611
30
7E-16
41
1
10
-60.6757236824183
20
11.4625162459361
30
-8E-16
41
1
10
-59.5
20
11.9879939939925
30
1.2E-15
0
SPLINE
5
127
100
AcDbEntity
8
1
62
256
6
ByLayer
370
18
48
1
60
0
100
AcDbSpline
70
4
71
3
72
24
73
20
40
0
40
0
40
0
40
0
40
0.125000000000035
40
0.125000000000035
40
0.250000000000071
40
0.250000000000071
40
0.375000000000106
40
0.375000000000106
40
0.500000000000142
40
0.500000000000142
40
0.562500000000139
40
0.562500000000139
40
0.625000000000137
40
0.625000000000137
40
0.750000000000091
40
0.750000000000091
40
0.875000000000046
40
0.875000000000046
40
1
40
1
40
1
40
1
41
1
10
-43.487867965644
20
-13.7535543617177
30
4E-16
41
1
10
-43.5000935560526
20
-13.7664566368621
30
4E-16
41
1
10
-43.5136041577956
20
-13.7784760962664
30
4E-16
41
1
10
-43.5436660867827
20
-13.8004457216699
30
3E-16
41
1
10
-43.5604511838243
20
-13.8104992544521
30
3E-16
41
1
10
-43.5965055901211
20
-13.827205731863
30
2E-16
41
1
10
-43.6159519399381
20
-13.8339712140106
30
2E-16
41
1
10
-43.6571148068147
20
-13.8432642694679
30
1E-16
41
1
10
-43.6781323843862
20
-13.8456672730716
30
1E-16
41
1
10
-43.7103520216577
20
-13.8457106772381
30
1E-16
41
1
10
-43.7212384389337
20
-13.845110017283
30
1E-16
41
1
10
-43.7424394684304
20
-13.8427516028298
30
0
41
1
10
-43.752856733863
20
-13.8409988018116
30
0
41
1
10
-43.7835860715806
20
-13.8341032852076
30
0
41
1
10
-43.8032838884741
20
-13.8272895347623
30
0
41
1
10
-43.8394293832241
20
-13.8105682170912
30
0
41
1
10
-43.8562327809126
20
-13.8005131846258
30
0
41
1
10
-43.8863636095317
20
-13.7785060695952
30
-1E-16
41
1
10
-43.8998942590426
20
-13.7664694961997
30
-1E-16
41
1
10
-43.9121320343559
20
-13.7535543617177
30
-1E-16
0
SPLINE
5
128
100
AcDbEntity
8
1
62
256
6
ByLayer
370
18
48
1
60
0
100
AcDbSpline
70
4
71
3
72
24
73
20
40
0
40
0
40
0
40
0
40
0.125000000000006
40
0.125000000000006
40
0.250000000000011
40
0.250000000000011
40
0.375000000000017
40
0.375000000000017
40
0.500000000000023
40
0.500000000000023
40
0.562500000000006
40
0.562500000000006
40
0.624999999999988
40
0.624999999999988
40
0.749999999999992
40
0.749999999999992
40
0.874999999999996
40
0.874999999999996
40
1
40
1
40
1
40
1
41
1
10
-35.487867965644
20
-13.7535543617177
30
-8E-16
41
1
10
-35.5000935560526
20
-13.7664566368621
30
-9E-16
41
1
10
-35.5136041577956
20
-13.7784760962664
30
9E-16
41
1
10
-35.5436660867827
20
-13.8004457216699
30
8E-16
41
1
10
-35.5604511838243
20
-13.8104992544521
30
8E-16
41
1
10
-35.5965055901211
20
-13.827205731863
30
7E-16
41
1
10
-35.6159519399381
20
-13.8339712140105
30
7E-16
41
1
10
-35.6571148068147
20
-13.8432642694679
30
6E-16
41
1
10
-35.6781323843863
20
-13.8456672730716
30
6E-16
41
1
10
-35.7103520216577
20
-13.8457106772381
30
6E-16
41
1
10
-35.7212384389337
20
-13.845110017283
30
6E-16
41
1
10
-35.7424394684303
20
-13.8427516028298
30
5E-16
41
1
10
-35.752856733863
20
-13.8409988018116
30
5E-16
41
1
10
-35.7835860715806
20
-13.8341032852075
30
5E-16
41
1
10
-35.8032838884741
20
-13.8272895347623
30
5E-16
41
1
10
-35.8394293832241
20
-13.8105682170912
30
5E-16
41
1
10
-35.8562327809126
20
-13.8005131846257
30
4E-16
41
1
10
-35.8863636095317
20
-13.7785060695952
30
4E-16
41
1
10
-35.8998942590426
20
-13.7664694961997
30
4E-16
41
1
10
-35.9121320343559
20
-13.7535543617177
30
4E-16
0
SPLINE
5
129
100
AcDbEntity
8
1
62
256
6
ByLayer
370
18
48
1
60
0
100
AcDbSpline
70
4
71
3
72
24
73
20
40
0
40
0
40
0
40
0
40
0.124999999999985
40
0.124999999999985
40
0.249999999999971
40
0.249999999999971
40
0.374999999999956
40
0.374999999999956
40
0.499999999999942
40
0.499999999999942
40
0.562499999999935
40
0.562499999999935
40
0.624999999999928
40
0.624999999999928
40
0.749999999999952
40
0.749999999999952
40
0.874999999999976
40
0.874999999999976
40
1
40
1
40
1
40
1
41
1
10
-31.912132034356
20
13.7535543617177
30
0
41
1
10
-31.8999064439474
20
13.7664566368621
30
1E-16
41
1
10
-31.8863958422044
20
13.7784760962664
30
1E-16
41
1
10
-31.8563339132172
20
13.8004457216699
30
2E-16
41
1
10
-31.8395488161758
20
13.8104992544521
30
2E-16
41
1
10
-31.8034944098789
20
13.827205731863
30
3E-16
41
1
10
-31.7840480600619
20
13.8339712140106
30
3E-16
41
1
10
-31.7428851931853
20
13.8432642694679
30
3E-16
41
1
10
-31.7218676156138
20
13.8456672730716
30
4E-16
41
1
10
-31.6896479783424
20
13.8457106772381
30
4E-16
41
1
10
-31.6787615610663
20
13.845110017283
30
4E-16
41
1
10
-31.6575605315696
20
13.8427516028298
30
4E-16
41
1
10
-31.6471432661371
20
13.8409988018116
30
5E-16
41
1
10
-31.6164139284194
20
13.8341032852076
30
5E-16
41
1
10
-31.5967161115259
20
13.8272895347623
30
5E-16
41
1
10
-31.5605706167759
20
13.8105682170912
30
5E-16
41
1
10
-31.5437672190874
20
13.8005131846258
30
5E-16
41
1
10
-31.5136363904683
20
13.7785060695952
30
5E-16
41
1
10
-31.5001057409574
20
13.7664694961997
30
5E-16
41
1
10
-31.487867965644
20
13.7535543617177
30
5E-16
0
SPLINE
5
12A
100
AcDbEntity
8
1
62
256
6
ByLayer
370
18
48
1
60
0
100
AcDbSpline
70
4
71
3
72
24
73
20
40
0
40
0
40
0
40
0
40
0.124999999999985
40
0.124999999999985
40
0.249999999999971
40
0.249999999999971
40
0.374999999999956
40
0.374999999999956
40
0.499999999999942
40
0.499999999999942
40
0.562499999999935
40
0.562499999999935
40
0.624999999999928
40
0.624999999999928
40
0.749999999999952
40
0.749999999999952
40
0.874999999999976
40
0.874999999999976
40
1
40
1
40
1
40
1
41
1
10
-31.487867965644
20
-13.7535543617177
30
3E-16
41
1
10
-31.5000935560526
20
-13.7664566368621
30
3E-16
41
1
10
-31.5136041577956
20
-13.7784760962664
30
2E-16
41
1
10
-31.5436660867827
20
-13.8004457216699
30
2E-16
41
1
10
-31.5604511838243
20
-13.8104992544521
30
1E-16
41
1
10
-31.5965055901211
20
-13.827205731863
30
1E-16
41
1
10
-31.6159519399381
20
-13.8339712140105
30
0
41
1
10
-31.6571148068147
20
-13.8432642694679
30
0
41
1
10
-31.6781323843862
20
-13.8456672730716
30
0
41
1
10
-31.7103520216577
20
-13.8457106772381
30
-1E-16
41
1
10
-31.7212384389337
20
-13.8451100172829
30
-1E-16
41
1
10
-31.7424394684304
20
-13.8427516028298
30
-1E-16
41
1
10
-31.752856733863
20
-13.8409988018116
30
-1E-16
41
1
10
-31.7835860715806
20
-13.8341032852075
30
-1E-16
41
1
10
-31.8032838884741
20
-13.8272895347623
30
-2E-16
41
1
10
-31.839429383224
20
-13.8105682170912
30
-2E-16
41
1
10
-31.8562327809126
20
-13.8005131846257
30
-2E-16
41
1
10
-31.8863636095317
20
-13.7785060695952
30
-2E-16
41
1
10
-31.8998942590426
20
-13.7664694961997
30
-2E-16
41
1
10
-31.912132034356
20
-13.7535543617177
30
-2E-16
0
SPLINE
5
12B
100
AcDbEntity
8
1
62
256
6
ByLayer
370
18
48
1
60
0
100
AcDbSpline
70
4
71
3
72
24
73
20
40
0
40
0
40
0
40
0
40
0.124999999999985
40
0.124999999999985
40
0.249999999999971
40
0.249999999999971
40
0.374999999999956
40
0.374999999999956
40
0.499999999999942
40
0.499999999999942
40
0.562499999999935
40
0.562499999999935
40
0.624999999999928
40
0.624999999999928
40
0.749999999999952
40
0.749999999999952
40
0.874999999999976
40
0.874999999999976
40
1
40
1
40
1
40
1
41
1
10
-47.487867965644
20
-13.7535543617177
30
-7E-16
41
1
10
-47.5000935560526
20
-13.7664566368621
30
-7E-16
41
1
10
-47.5136041577956
20
-13.7784760962664
30
-7E-16
41
1
10
-47.5436660867827
20
-13.8004457216699
30
-8E-16
41
1
10
-47.5604511838243
20
-13.8104992544521
30
-8E-16
41
1
10
-47.5965055901211
20
-13.827205731863
30
9E-16
41
1
10
-47.6159519399381
20
-13.8339712140106
30
8E-16
41
1
10
-47.6571148068147
20
-13.8432642694679
30
8E-16
41
1
10
-47.6781323843862
20
-13.8456672730716
30
8E-16
41
1
10
-47.7103520216577
20
-13.8457106772381
30
7E-16
41
1
10
-47.7212384389337
20
-13.845110017283
30
7E-16
41
1
10
-47.7424394684304
20
-13.8427516028298
30
7E-16
41
1
10
-47.752856733863
20
-13.8409988018116
30
7E-16
41
1
10
-47.7835860715806
20
-13.8341032852076
30
6E-16
41
1
10
-47.8032838884741
20
-13.8272895347623
30
6E-16
41
1
10
-47.839429383224
20
-13.8105682170912
30
6E-16
41
1
10
-47.8562327809126
20
-13.8005131846258
30
6E-16
41
1
10
-47.8863636095317
20
-13.7785060695952
30
6E-16
41
1
10
-47.8998942590426
20
-13.7664694961997
30
6E-16
41
1
10
-47.9121320343559
20
-13.7535543617177
30
6E-16
0
SPLINE
5
12C
100
AcDbEntity
8
1
62
256
6
ByLayer
370
18
48
1
60
0
100
AcDbSpline
70
4
71
3
72
24
73
20
40
0
40
0
40
0
40
0
40
0.125000000000006
40
0.125000000000006
40
0.250000000000011
40
0.250000000000011
40
0.375000000000017
40
0.375000000000017
40
0.500000000000023
40
0.500000000000023
40
0.562500000000006
40
0.562500000000006
40
0.624999999999988
40
0.624999999999988
40
0.749999999999992
40
0.749999999999992
40
0.874999999999996
40
0.874999999999996
40
1
40
1
40
1
40
1
41
1
10
-43.9121320343559
20
13.7535543617177
30
2E-16
41
1
10
-43.8999064439474
20
13.7664566368621
30
2E-16
41
1
10
-43.8863958422044
20
13.7784760962664
30
3E-16
41
1
10
-43.8563339132172
20
13.8004457216699
30
3E-16
41
1
10
-43.8395488161757
20
13.8104992544521
30
3E-16
41
1
10
-43.8034944098789
20
13.827205731863
30
4E-16
41
1
10
-43.7840480600619
20
13.8339712140106
30
4E-16
41
1
10
-43.7428851931853
20
13.8432642694679
30
5E-16
41
1
10
-43.7218676156138
20
13.8456672730716
30
5E-16
41
1
10
-43.6896479783423
20
13.8457106772381
30
6E-16
41
1
10
-43.6787615610663
20
13.845110017283
30
6E-16
41
1
10
-43.6575605315696
20
13.8427516028298
30
6E-16
41
1
10
-43.6471432661371
20
13.8409988018116
30
6E-16
41
1
10
-43.6164139284194
20
13.8341032852076
30
6E-16
41
1
10
-43.5967161115259
20
13.8272895347623
30
7E-16
41
1
10
-43.5605706167759
20
13.8105682170912
30
7E-16
41
1
10
-43.5437672190874
20
13.8005131846258
30
7E-16
41
1
10
-43.5136363904683
20
13.7785060695952
30
7E-16
41
1
10
-43.5001057409574
20
13.7664694961997
30
7E-16
41
1
10
-43.487867965644
20
13.7535543617177
30
7E-16
0
SPLINE
5
12D
100
AcDbEntity
8
1
62
256
6
ByLayer
370
18
48
1
60
0
100
AcDbSpline
70
4
71
3
72
24
73
20
40
0
40
0
40
0
40
0
40
0.124999999999985
40
0.124999999999985
40
0.249999999999969
40
0.249999999999969
40
0.374999999999954
40
0.374999999999954
40
0.499999999999939
40
0.499999999999939
40
0.562499999999931
40
0.562499999999931
40
0.624999999999924
40
0.624999999999924
40
0.749999999999949
40
0.749999999999949
40
0.874999999999975
40
0.874999999999975
40
1
40
1
40
1
40
1
41
1
10
-39.9121320343559
20
13.7535543617177
30
-4E-16
41
1
10
-39.8999064439474
20
13.7664566368621
30
-4E-16
41
1
10
-39.8863958422044
20
13.7784760962664
30
-4E-16
41
1
10
-39.8563339132172
20
13.8004457216699
30
-3E-16
41
1
10
-39.8395488161757
20
13.8104992544521
30
-3E-16
41
1
10
-39.8034944098789
20
13.827205731863
30
-2E-16
41
1
10
-39.7840480600619
20
13.8339712140106
30
-2E-16
41
1
10
-39.7428851931853
20
13.8432642694679
30
-1E-16
41
1
10
-39.7218676156138
20
13.8456672730716
30
-1E-16
41
1
10
-39.6896479783423
20
13.8457106772381
30
-1E-16
41
1
10
-39.6787615610663
20
13.845110017283
30
-1E-16
41
1
10
-39.6575605315696
20
13.8427516028298
30
0
41
1
10
-39.647143266137
20
13.8409988018116
30
0
41
1
10
-39.6164139284194
20
13.8341032852076
30
0
41
1
10
-39.5967161115259
20
13.8272895347623
30
0
41
1
10
-39.5605706167759
20
13.8105682170912
30
0
41
1
10
-39.5437672190873
20
13.8005131846258
30
0
41
1
10
-39.5136363904683
20
13.7785060695952
30
1E-16
41
1
10
-39.5001057409574
20
13.7664694961997
30
1E-16
41
1
10
-39.487867965644
20
13.7535543617177
30
1E-16
0
SPLINE
5
12E
100
AcDbEntity
8
1
62
256
6
ByLayer
370
18
48
1
60
0
100
AcDbSpline
70
4
71
3
72
24
73
20
40
0
40
0
40
0
40
0
40
0.125000000000014
40
0.125000000000014
40
0.250000000000029
40
0.250000000000029
40
0.375000000000044
40
0.375000000000044
40
0.500000000000058
40
0.500000000000058
40
0.562500000000065
40
0.562500000000065
40
0.625000000000072
40
0.625000000000072
40
0.750000000000048
40
0.750000000000048
40
0.875000000000024
40
0.875000000000024
40
1
40
1
40
1
40
1
41
1
10
-39.487867965644
20
-13.7535543617177
30
-2E-16
41
1
10
-39.5000935560526
20
-13.7664566368621
30
-2E-16
41
1
10
-39.5136041577956
20
-13.7784760962664
30
-3E-16
41
1
10
-39.5436660867827
20
-13.8004457216699
30
-3E-16
41
1
10
-39.5604511838242
20
-13.8104992544521
30
-3E-16
41
1
10
-39.5965055901211
20
-13.827205731863
30
-4E-16
41
1
10
-39.6159519399381
20
-13.8339712140105
30
-4E-16
41
1
10
-39.6571148068147
20
-13.8432642694679
30
-5E-16
41
1
10
-39.6781323843863
20
-13.8456672730716
30
-5E-16
41
1
10
-39.7103520216577
20
-13.8457106772381
30
-6E-16
41
1
10
-39.7212384389337
20
-13.845110017283
30
-6E-16
41
1
10
-39.7424394684304
20
-13.8427516028298
30
-6E-16
41
1
10
-39.7528567338629
20
-13.8409988018116
30
-6E-16
41
1
10
-39.7835860715806
20
-13.8341032852076
30
-6E-16
41
1
10
-39.8032838884741
20
-13.8272895347623
30
-7E-16
41
1
10
-39.839429383224
20
-13.8105682170912
30
-7E-16
41
1
10
-39.8562327809126
20
-13.8005131846257
30
-7E-16
41
1
10
-39.8863636095317
20
-13.7785060695952
30
-7E-16
41
1
10
-39.8998942590426
20
-13.7664694961997
30
-7E-16
41
1
10
-39.9121320343559
20
-13.7535543617177
30
-7E-16
0
SPLINE
5
12F
100
AcDbEntity
8
1
62
256
6
ByLayer
370
18
48
1
60
0
100
AcDbSpline
70
4
71
3
72
24
73
20
40
0
40
0
40
0
40
0
40
0.125000000000014
40
0.125000000000014
40
0.250000000000027
40
0.250000000000027
40
0.375000000000041
40
0.375000000000041
40
0.500000000000055
40
0.500000000000055
40
0.562500000000062
40
0.562500000000062
40
0.625000000000069
40
0.625000000000069
40
0.750000000000046
40
0.750000000000046
40
0.875000000000023
40
0.875000000000023
40
1
40
1
40
1
40
1
41
1
10
-35.9121320343559
20
13.7535543617177
30
7E-16
41
1
10
-35.8999064439474
20
13.7664566368621
30
7E-16
41
1
10
-35.8863958422044
20
13.7784760962664
30
7E-16
41
1
10
-35.8563339132172
20
13.8004457216699
30
8E-16
41
1
10
-35.8395488161758
20
13.8104992544521
30
8E-16
41
1
10
-35.8034944098789
20
13.827205731863
30
-9E-16
41
1
10
-35.7840480600618
20
13.8339712140106
30
-8E-16
41
1
10
-35.7428851931853
20
13.8432642694679
30
-8E-16
41
1
10
-35.7218676156138
20
13.8456672730716
30
-8E-16
41
1
10
-35.6896479783423
20
13.8457106772381
30
-7E-16
41
1
10
-35.6787615610663
20
13.845110017283
30
-7E-16
41
1
10
-35.6575605315696
20
13.8427516028298
30
-7E-16
41
1
10
-35.647143266137
20
13.8409988018116
30
-7E-16
41
1
10
-35.6164139284194
20
13.8341032852076
30
-6E-16
41
1
10
-35.5967161115259
20
13.8272895347623
30
-6E-16
41
1
10
-35.5605706167759
20
13.8105682170912
30
-6E-16
41
1
10
-35.5437672190874
20
13.8005131846258
30
-6E-16
41
1
10
-35.5136363904683
20
13.7785060695952
30
-6E-16
41
1
10
-35.5001057409574
20
13.7664694961997
30
-6E-16
41
1
10
-35.487867965644
20
13.7535543617177
30
-6E-16
0
SPLINE
5
130
100
AcDbEntity
8
1
62
256
6
ByLayer
370
18
48
1
60
0
100
AcDbSpline
70
4
71
3
72
8
73
4
40
0
40
0
40
0
40
0
40
1
40
1
40
1
40
1
41
1
10
20
20
24.1660919471891
30
2E-15
41
1
10
19.6717743282762
20
24.716165982075
30
2.3E-15
41
1
10
19.3382624911477
20
25.2630184815719
30
2.5E-15
41
1
10
19
20
25.8069758011279
30
2.8E-15
0
INSERT
5
140
100
AcDbEntity
8
SK2
62
256
6
ByLayer
370
18
48
1
60
0
100
AcDbBlockReference
2
LABLE3D_1
10
0
20
0
30
0
41
1
42
1
43
1
50
0
210
0
220
0
230
1
0
LINE
5
73
100
AcDbEntity
8
SK4
62
256
6
ByLayer
370
13
48
0.05
60
0
100
AcDbLine
10
36.05
20
0
30
0
11
-64.95
21
0
31
0
39
0
210
0
220
0
230
1
0
LINE
5
75
100
AcDbEntity
8
81
62
256
6
ByLayer
370
13
48
0.05
60
0
100
AcDbLine
10
30
20
0
30
0
11
32.7
21
0
31
0
39
0
210
0
220
0
230
1
0
LINE
5
76
100
AcDbEntity
8
80
62
256
6
ByLayer
370
13
48
0.05
60
0
100
AcDbLine
10
0
20
0
30
0
11
-2.8
21
0
31
0
39
0
210
0
220
0
230
1
0
LINE
5
77
100
AcDbEntity
8
4
62
256
6
ByLayer
370
18
48
0.05
60
0
100
AcDbLine
10
0
20
0
30
0
11
35
21
0
31
0
39
0
210
0
220
0
230
1
0
LINE
5
79
100
AcDbEntity
8
1
62
256
6
ByLayer
370
18
48
1
60
0
100
AcDbLine
10
-0.75
20
19.325
30
0
11
-1.037811
21
19.325
31
0
39
0
210
0
220
0
230
1
0
LINE
5
7A
100
AcDbEntity
8
1
62
256
6
ByLayer
370
18
48
1
60
0
100
AcDbLine
10
-1.037811
20
-19.325
30
0
11
-0.75
21
-19.325
31
0
39
0
210
0
220
0
230
1
0
LINE
5
7B
100
AcDbEntity
8
1
62
256
6
ByLayer
370
13
48
1
60
0
100
AcDbLine
10
33.769861
20
-5.08
30
0
11
29.999931
21
-5.08
31
0
39
0
210
0
220
0
230
1
0
LINE
5
7C
100
AcDbEntity
8
1
62
256
6
ByLayer
370
18
48
1
60
0
100
AcDbLine
10
-59.5
20
19.996
30
0
11
-63
21
19.058178
31
0
39
0
210
0
220
0
230
1
0
LINE
5
7D
100
AcDbEntity
8
1
62
256
6
ByLayer
370
18
48
1
60
0
100
AcDbLine
10
-63
20
-19.058178
30
0
11
-59.5
21
-19.996
31
0
39
0
210
0
220
0
230
1
0
LINE
5
7E
100
AcDbEntity
8
1
62
256
6
ByLayer
370
18
48
1
60
0
100
AcDbLine
10
30
20
15.7
30
0
11
29.7
21
16
31
0
39
0
210
0
220
0
230
1
0
LINE
5
7F
100
AcDbEntity
8
1
62
256
6
ByLayer
370
18
48
1
60
0
100
AcDbLine
10
29.7
20
-16
30
0
11
30
21
-15.7
31
0
39
0
210
0
220
0
230
1
0
LINE
5
80
100
AcDbEntity
8
1
62
256
6
ByLayer
370
18
48
1
60
0
100
AcDbLine
10
29.7
20
16
30
0
11
21
21
16
31
0
39
0
210
0
220
0
230
1
0
LINE
5
81
100
AcDbEntity
8
1
62
256
6
ByLayer
370
18
48
1
60
0
100
AcDbLine
10
21
20
-16
30
0
11
29.7
21
-16
31
0
39
0
210
0
220
0
230
1
0
LINE
5
82
100
AcDbEntity
8
1
62
256
6
ByLayer
370
18
48
1
60
0
100
AcDbLine
10
29.999755
20
-6
30
0
11
32.85
21
-6
31
0
39
0
210
0
220
0
230
1
0
LINE
5
83
100
AcDbEntity
8
1
62
256
6
ByLayer
370
18
48
1
60
0
100
AcDbLine
10
32.85
20
6
30
0
11
29.999755
21
6
31
0
39
0
210
0
220
0
230
1
0
LINE
5
84
100
AcDbEntity
8
1
62
256
6
ByLayer
370
18
48
1
60
0
100
AcDbLine
10
32.85
20
-6
30
0
11
34.05
21
-4.8
31
0
39
0
210
0
220
0
230
1
0
LINE
5
85
100
AcDbEntity
8
1
62
256
6
ByLayer
370
18
48
1
60
0
100
AcDbLine
10
-9.99868
20
-11.987994
30
0
11
-9.99868
21
11.987994
31
0
39
0
210
0
220
0
230
1
0
LINE
5
86
100
AcDbEntity
8
1
62
256
6
ByLayer
370
18
48
1
60
0
100
AcDbLine
10
19
20
-41.5
30
0
11
20
21
-40.5
31
0
39
0
210
0
220
0
230
1
0
LINE
5
87
100
AcDbEntity
8
1
62
256
6
ByLayer
370
18
48
1
60
0
100
AcDbLine
10
20
20
40.5
30
0
11
19
21
41.5
31
0
39
0
210
0
220
0
230
1
0
LINE
5
88
100
AcDbEntity
8
1
62
256
6
ByLayer
370
18
48
1
60
0
100
AcDbLine
10
0
20
-41.5
30
0
11
19
21
-41.5
31
0
39
0
210
0
220
0
230
1
0
LINE
5
89
100
AcDbEntity
8
1
62
256
6
ByLayer
370
18
48
1
60
0
100
AcDbLine
10
19
20
41.5
30
0
11
0
21
41.5
31
0
39
0
210
0
220
0
230
1
0
LINE
5
8A
100
AcDbEntity
8
1
62
256
6
ByLayer
370
18
48
1
60
0
100
AcDbLine
10
-3.7
20
-19.996
30
0
11
-1.348394
21
-19.365889
31
0
39
0
210
0
220
0
230
1
0
LINE
5
8B
100
AcDbEntity
8
1
62
256
6
ByLayer
370
18
48
1
60
0
100
AcDbLine
10
-1.348394
20
19.365889
30
0
11
-3.7
21
19.996
31
0
39
0
210
0
220
0
230
1
0
LINE
5
8C
100
AcDbEntity
8
1
62
256
6
ByLayer
370
18
48
1
60
0
100
AcDbLine
10
-59.5
20
-19.996
30
0
11
-3.7
21
-19.996
31
0
39
0
210
0
220
0
230
1
0
LINE
5
8D
100
AcDbEntity
8
1
62
256
6
ByLayer
370
18
48
1
60
0
100
AcDbLine
10
-3.7
20
19.996
30
0
11
-59.5
21
19.996
31
0
39
0
210
0
220
0
230
1
0
LINE
5
8E
100
AcDbEntity
8
1
62
256
6
ByLayer
370
13
48
1
60
0
100
AcDbLine
10
33.769861
20
5.08
30
0
11
29.999931
21
5.08
31
0
39
0
210
0
220
0
230
1
0
LINE
5
8F
100
AcDbEntity
8
1
62
256
6
ByLayer
370
18
48
1
60
0
100
AcDbLine
10
34.05
20
4.8
30
0
11
32.85
21
6
31
0
39
0
210
0
220
0
230
1
0
LINE
5
90
100
AcDbEntity
8
1
62
256
6
ByLayer
370
18
48
1
60
0
100
AcDbLine
10
20
20
-24.166092
30
0
11
20
21
-40.5
31
0
39
0
210
0
220
0
230
1
0
LINE
5
91
100
AcDbEntity
8
1
62
256
6
ByLayer
370
18
48
1
60
0
100
AcDbLine
10
20
20
40.5
30
0
11
20
21
24.166092
31
0
39
0
210
0
220
0
230
1
0
LINE
5
92
100
AcDbEntity
8
1
62
256
6
ByLayer
370
18
48
1
60
0
100
AcDbLine
10
20
20
-24.166092
30
0
11
20
21
24.166092
31
0
39
0
210
0
220
0
230
1
0
LINE
5
93
100
AcDbEntity
8
1
62
256
6
ByLayer
370
18
48
1
60
0
100
AcDbLine
10
-13.40132
20
11.987994
30
0
11
-13.40132
21
-11.987994
31
0
39
0
210
0
220
0
230
1
0
LINE
5
94
100
AcDbEntity
8
1
62
256
6
ByLayer
370
18
48
1
60
0
100
AcDbLine
10
-13.99868
20
-11.987994
30
0
11
-13.99868
21
11.987994
31
0
39
0
210
0
220
0
230
1
0
LINE
5
95
100
AcDbEntity
8
1
62
256
6
ByLayer
370
18
48
1
60
0
100
AcDbLine
10
-17.40132
20
11.987994
30
0
11
-17.40132
21
-11.987994
31
0
39
0
210
0
220
0
230
1
0
LINE
5
96
100
AcDbEntity
8
1
62
256
6
ByLayer
370
18
48
1
60
0
100
AcDbLine
10
-17.99868
20
-11.987994
30
0
11
-17.99868
21
11.987994
31
0
39
0
210
0
220
0
230
1
0
LINE
5
97
100
AcDbEntity
8
1
62
256
6
ByLayer
370
18
48
1
60
0
100
AcDbLine
10
-21.40132
20
11.987994
30
0
11
-21.40132
21
-11.987994
31
0
39
0
210
0
220
0
230
1
0
LINE
5
98
100
AcDbEntity
8
1
62
256
6
ByLayer
370
18
48
1
60
0
100
AcDbLine
10
-21.99868
20
-11.987994
30
0
11
-21.99868
21
11.987994
31
0
39
0
210
0
220
0
230
1
0
LINE
5
99
100
AcDbEntity
8
1
62
256
6
ByLayer
370
18
48
1
60
0
100
AcDbLine
10
-25.40132
20
11.987994
30
0
11
-25.40132
21
-11.987994
31
0
39
0
210
0
220
0
230
1
0
LINE
5
9A
100
AcDbEntity
8
1
62
256
6
ByLayer
370
18
48
1
60
0
100
AcDbLine
10
-25.99868
20
-11.987994
30
0
11
-25.99868
21
11.987994
31
0
39
0
210
0
220
0
230
1
0
LINE
5
9B
100
AcDbEntity
8
1
62
256
6
ByLayer
370
18
48
1
60
0
100
AcDbLine
10
-29.40132
20
11.987994
30
0
11
-29.40132
21
-11.987994
31
0
39
0
210
0
220
0
230
1
0
LINE
5
9C
100
AcDbEntity
8
1
62
256
6
ByLayer
370
18
48
1
60
0
100
AcDbLine
10
-41.40132
20
-11.987994
30
0
11
-41.99868
21
-11.987994
31
0
39
0
210
0
220
0
230
1
0
LINE
5
9D
100
AcDbEntity
8
1
62
256
6
ByLayer
370
18
48
1
60
0
100
AcDbLine
10
-45.40132
20
-11.987994
30
0
11
-45.99868
21
-11.987994
31
0
39
0
210
0
220
0
230
1
0
LINE
5
9E
100
AcDbEntity
8
1
62
256
6
ByLayer
370
18
48
1
60
0
100
AcDbLine
10
-49.40132
20
-11.987994
30
0
11
-59.5
21
-11.987994
31
0
39
0
210
0
220
0
230
1
0
LINE
5
9F
100
AcDbEntity
8
1
62
256
6
ByLayer
370
18
48
1
60
0
100
AcDbLine
10
-7
20
11.987994
30
0
11
-7
21
-11.987994
31
0
39
0
210
0
220
0
230
1
0
LINE
5
A0
100
AcDbEntity
8
1
62
256
6
ByLayer
370
18
48
1
60
0
100
AcDbLine
10
-25.99868
20
11.987994
30
0
11
-25.40132
21
11.987994
31
0
39
0
210
0
220
0
230
1
0
LINE
5
A1
100
AcDbEntity
8
1
62
256
6
ByLayer
370
18
48
1
60
0
100
AcDbLine
10
-21.99868
20
11.987994
30
0
11
-21.40132
21
11.987994
31
0
39
0
210
0
220
0
230
1
0
LINE
5
A2
100
AcDbEntity
8
1
62
256
6
ByLayer
370
18
48
1
60
0
100
AcDbLine
10
-41.99868
20
11.987994
30
0
11
-41.40132
21
11.987994
31
0
39
0
210
0
220
0
230
1
0
LINE
5
A3
100
AcDbEntity
8
1
62
256
6
ByLayer
370
18
48
1
60
0
100
AcDbLine
10
-13.99868
20
11.987994
30
0
11
-13.40132
21
11.987994
31
0
39
0
210
0
220
0
230
1
0
LINE
5
A4
100
AcDbEntity
8
1
62
256
6
ByLayer
370
18
48
1
60
0
100
AcDbLine
10
-9.99868
20
11.987994
30
0
11
-7
21
11.987994
31
0
39
0
210
0
220
0
230
1
0
LINE
5
A5
100
AcDbEntity
8
1
62
256
6
ByLayer
370
18
48
1
60
0
100
AcDbLine
10
-1.037811
20
19.325
30
0
11
-1.037811
21
0
31
0
39
0
210
0
220
0
230
1
0
LINE
5
A6
100
AcDbEntity
8
1
62
256
6
ByLayer
370
18
48
1
60
0
100
AcDbLine
10
-1.037811
20
0
30
0
11
-1.037811
21
-19.325
31
0
39
0
210
0
220
0
230
1
0
LINE
5
A7
100
AcDbEntity
8
1
62
256
6
ByLayer
370
18
48
1
60
0
100
AcDbLine
10
-0.75
20
19.325
30
0
11
-0.75
21
0
31
0
39
0
210
0
220
0
230
1
0
LINE
5
A8
100
AcDbEntity
8
1
62
256
6
ByLayer
370
18
48
1
60
0
100
AcDbLine
10
-0.75
20
0
30
0
11
-0.75
21
-19.325
31
0
39
0
210
0
220
0
230
1
0
LINE
5
A9
100
AcDbEntity
8
1
62
256
6
ByLayer
370
18
48
1
60
0
100
AcDbLine
10
0
20
41.5
30
0
11
0
21
25.806976
31
0
39
0
210
0
220
0
230
1
0
LINE
5
AA
100
AcDbEntity
8
1
62
256
6
ByLayer
370
18
48
1
60
0
100
AcDbLine
10
0
20
-25.806976
30
0
11
0
21
-41.5
31
0
39
0
210
0
220
0
230
1
0
LINE
5
AB
100
AcDbEntity
8
1
62
256
6
ByLayer
370
18
48
1
60
0
100
AcDbLine
10
-63
20
19.058178
30
0
11
-63
21
10.348243
31
0
39
0
210
0
220
0
230
1
0
LINE
5
AC
100
AcDbEntity
8
1
62
256
6
ByLayer
370
18
48
1
60
0
100
AcDbLine
10
-63
20
-10.348243
30
0
11
-63
21
-19.058178
31
0
39
0
210
0
220
0
230
1
0
LINE
5
AD
100
AcDbEntity
8
1
62
256
6
ByLayer
370
18
48
1
60
0
100
AcDbLine
10
-3.7
20
19.996
30
0
11
-3.7
21
0
31
0
39
0
210
0
220
0
230
1
0
LINE
5
AE
100
AcDbEntity
8
1
62
256
6
ByLayer
370
18
48
1
60
0
100
AcDbLine
10
-3.7
20
0
30
0
11
-3.7
21
-19.996
31
0
39
0
210
0
220
0
230
1
0
LINE
5
AF
100
AcDbEntity
8
1
62
256
6
ByLayer
370
18
48
1
60
0
100
AcDbLine
10
-63
20
10.348243
30
0
11
-63
21
-10.348243
31
0
39
0
210
0
220
0
230
1
0
LINE
5
B0
100
AcDbEntity
8
1
62
256
6
ByLayer
370
18
48
1
60
0
100
AcDbLine
10
-31.912132
20
13.753554
30
0
11
-31.912132
21
-13.753554
31
0
39
0
210
0
220
0
230
1
0
LINE
5
B1
100
AcDbEntity
8
1
62
256
6
ByLayer
370
18
48
1
60
0
100
AcDbLine
10
-27.912132
20
13.753554
30
0
11
-27.912132
21
-13.753554
31
0
39
0
210
0
220
0
230
1
0
LINE
5
B2
100
AcDbEntity
8
1
62
256
6
ByLayer
370
18
48
1
60
0
100
AcDbLine
10
-27.487868
20
13.753554
30
0
11
-27.487868
21
-13.753554
31
0
39
0
210
0
220
0
230
1
0
LINE
5
B3
100
AcDbEntity
8
1
62
256
6
ByLayer
370
18
48
1
60
0
100
AcDbLine
10
-35.912132
20
13.753554
30
0
11
-35.912132
21
-13.753554
31
0
39
0
210
0
220
0
230
1
0
LINE
5
B4
100
AcDbEntity
8
1
62
256
6
ByLayer
370
18
48
1
60
0
100
AcDbLine
10
-23.912132
20
13.753554
30
0
11
-23.912132
21
-13.753554
31
0
39
0
210
0
220
0
230
1
0
LINE
5
B5
100
AcDbEntity
8
1
62
256
6
ByLayer
370
18
48
1
60
0
100
AcDbLine
10
-35.487868
20
13.753554
30
0
11
-35.487868
21
-13.753554
31
0
39
0
210
0
220
0
230
1
0
LINE
5
B6
100
AcDbEntity
8
1
62
256
6
ByLayer
370
18
48
1
60
0
100
AcDbLine
10
-31.487868
20
13.753554
30
0
11
-31.487868
21
-13.753554
31
0
39
0
210
0
220
0
230
1
0
LINE
5
B7
100
AcDbEntity
8
1
62
256
6
ByLayer
370
18
48
1
60
0
100
AcDbLine
10
-17.99868
20
11.987994
30
0
11
-17.40132
21
11.987994
31
0
39
0
210
0
220
0
230
1
0
LINE
5
B8
100
AcDbEntity
8
1
62
256
6
ByLayer
370
18
48
1
60
0
100
AcDbLine
10
-39.912132
20
13.753554
30
0
11
-39.912132
21
-13.753554
31
0
39
0
210
0
220
0
230
1
0
LINE
5
B9
100
AcDbEntity
8
1
62
256
6
ByLayer
370
18
48
1
60
0
100
AcDbLine
10
-19.912132
20
13.753554
30
0
11
-19.912132
21
-13.753554
31
0
39
0
210
0
220
0
230
1
0
LINE
5
BA
100
AcDbEntity
8
1
62
256
6
ByLayer
370
18
48
1
60
0
100
AcDbLine
10
-39.487868
20
13.753554
30
0
11
-39.487868
21
-13.753554
31
0
39
0
210
0
220
0
230
1
0
LINE
5
BB
100
AcDbEntity
8
1
62
256
6
ByLayer
370
18
48
1
60
0
100
AcDbLine
10
-19.487868
20
13.753554
30
0
11
-19.487868
21
-13.753554
31
0
39
0
210
0
220
0
230
1
0
LINE
5
BC
100
AcDbEntity
8
1
62
256
6
ByLayer
370
18
48
1
60
0
100
AcDbLine
10
-43.912132
20
13.753554
30
0
11
-43.912132
21
-13.753554
31
0
39
0
210
0
220
0
230
1
0
LINE
5
BD
100
AcDbEntity
8
1
62
256
6
ByLayer
370
18
48
1
60
0
100
AcDbLine
10
-15.912132
20
13.753554
30
0
11
-15.912132
21
-13.753554
31
0
39
0
210
0
220
0
230
1
0
LINE
5
BE
100
AcDbEntity
8
1
62
256
6
ByLayer
370
18
48
1
60
0
100
AcDbLine
10
-59.5
20
19.996
30
0
11
-59.5
21
11.987994
31
0
39
0
210
0
220
0
230
1
0
LINE
5
BF
100
AcDbEntity
8
1
62
256
6
ByLayer
370
18
48
1
60
0
100
AcDbLine
10
-59.5
20
-11.987994
30
0
11
-59.5
21
-19.996
31
0
39
0
210
0
220
0
230
1
0
LINE
5
C0
100
AcDbEntity
8
1
62
256
6
ByLayer
370
18
48
1
60
0
100
AcDbLine
10
-43.487868
20
13.753554
30
0
11
-43.487868
21
-13.753554
31
0
39
0
210
0
220
0
230
1
0
LINE
5
C1
100
AcDbEntity
8
1
62
256
6
ByLayer
370
18
48
1
60
0
100
AcDbLine
10
-15.487868
20
13.753554
30
0
11
-15.487868
21
-13.753554
31
0
39
0
210
0
220
0
230
1
0
LINE
5
C2
100
AcDbEntity
8
1
62
256
6
ByLayer
370
18
48
1
60
0
100
AcDbLine
10
-47.912132
20
13.753554
30
0
11
-47.912132
21
-13.753554
31
0
39
0
210
0
220
0
230
1
0
LINE
5
C3
100
AcDbEntity
8
1
62
256
6
ByLayer
370
18
48
1
60
0
100
AcDbLine
10
-11.912132
20
13.753554
30
0
11
-11.912132
21
-13.753554
31
0
39
0
210
0
220
0
230
1
0
LINE
5
C4
100
AcDbEntity
8
1
62
256
6
ByLayer
370
18
48
1
60
0
100
AcDbLine
10
-47.487868
20
13.753554
30
0
11
-47.487868
21
-13.753554
31
0
39
0
210
0
220
0
230
1
0
LINE
5
C5
100
AcDbEntity
8
1
62
256
6
ByLayer
370
18
48
1
60
0
100
AcDbLine
10
-11.487868
20
13.753554
30
0
11
-11.487868
21
-13.753554
31
0
39
0
210
0
220
0
230
1
0
LINE
5
C6
100
AcDbEntity
8
1
62
256
6
ByLayer
370
18
48
1
60
0
100
AcDbLine
10
0
20
-25.806976
30
0
11
0
21
25.806976
31
0
39
0
210
0
220
0
230
1
0
LINE
5
C7
100
AcDbEntity
8
1
62
256
6
ByLayer
370
18
48
1
60
0
100
AcDbLine
10
19
20
-25.806976
30
0
11
0
21
-25.806976
31
0
39
0
210
0
220
0
230
1
0
LINE
5
C8
100
AcDbEntity
8
1
62
256
6
ByLayer
370
18
48
1
60
0
100
AcDbLine
10
0
20
25.806976
30
0
11
19
21
25.806976
31
0
39
0
210
0
220
0
230
1
0
LINE
5
C9
100
AcDbEntity
8
1
62
256
6
ByLayer
370
18
48
1
60
0
100
AcDbLine
10
-37.99868
20
-11.987994
30
0
11
-37.99868
21
11.987994
31
0
39
0
210
0
220
0
230
1
0
LINE
5
CA
100
AcDbEntity
8
1
62
256
6
ByLayer
370
18
48
1
60
0
100
AcDbLine
10
-41.40132
20
11.987994
30
0
11
-41.40132
21
-11.987994
31
0
39
0
210
0
220
0
230
1
0
LINE
5
CB
100
AcDbEntity
8
1
62
256
6
ByLayer
370
18
48
1
60
0
100
AcDbLine
10
-33.99868
20
-11.987994
30
0
11
-33.99868
21
11.987994
31
0
39
0
210
0
220
0
230
1
0
LINE
5
CC
100
AcDbEntity
8
1
62
256
6
ByLayer
370
18
48
1
60
0
100
AcDbLine
10
-37.40132
20
11.987994
30
0
11
-37.40132
21
-11.987994
31
0
39
0
210
0
220
0
230
1
0
LINE
5
CD
100
AcDbEntity
8
1
62
256
6
ByLayer
370
18
48
1
60
0
100
AcDbLine
10
-29.99868
20
-11.987994
30
0
11
-29.99868
21
11.987994
31
0
39
0
210
0
220
0
230
1
0
LINE
5
CE
100
AcDbEntity
8
1
62
256
6
ByLayer
370
18
48
1
60
0
100
AcDbLine
10
-1.348394
20
19.365889
30
0
11
-1.348394
21
0
31
0
39
0
210
0
220
0
230
1
0
LINE
5
CF
100
AcDbEntity
8
1
62
256
6
ByLayer
370
18
48
1
60
0
100
AcDbLine
10
-1.348394
20
0
30
0
11
-1.348394
21
-19.365889
31
0
39
0
210
0
220
0
230
1
0
LINE
5
D0
100
AcDbEntity
8
1
62
256
6
ByLayer
370
18
48
1
60
0
100
AcDbLine
10
30
20
0
30
0
11
30
21
15.7
31
0
39
0
210
0
220
0
230
1
0
LINE
5
D1
100
AcDbEntity
8
1
62
256
6
ByLayer
370
18
48
1
60
0
100
AcDbLine
10
30
20
-15.7
30
0
11
30
21
0
31
0
39
0
210
0
220
0
230
1
0
LINE
5
D2
100
AcDbEntity
8
1
62
256
6
ByLayer
370
18
48
1
60
0
100
AcDbLine
10
29.7
20
16
30
0
11
29.7
21
-16
31
0
39
0
210
0
220
0
230
1
0
LINE
5
D3
100
AcDbEntity
8
1
62
256
6
ByLayer
370
18
48
1
60
0
100
AcDbLine
10
-45.99868
20
-11.987994
30
0
11
-45.99868
21
11.987994
31
0
39
0
210
0
220
0
230
1
0
LINE
5
D4
100
AcDbEntity
8
1
62
256
6
ByLayer
370
18
48
1
60
0
100
AcDbLine
10
-49.40132
20
11.987994
30
0
11
-49.40132
21
-11.987994
31
0
39
0
210
0
220
0
230
1
0
LINE
5
D5
100
AcDbEntity
8
1
62
256
6
ByLayer
370
18
48
1
60
0
100
AcDbLine
10
-41.99868
20
-11.987994
30
0
11
-41.99868
21
11.987994
31
0
39
0
210
0
220
0
230
1
0
LINE
5
D6
100
AcDbEntity
8
1
62
256
6
ByLayer
370
18
48
1
60
0
100
AcDbLine
10
-45.40132
20
11.987994
30
0
11
-45.40132
21
-11.987994
31
0
39
0
210
0
220
0
230
1
0
LINE
5
D7
100
AcDbEntity
8
1
62
256
6
ByLayer
370
18
48
1
60
0
100
AcDbLine
10
-59.5
20
11.987994
30
0
11
-49.40132
21
11.987994
31
0
39
0
210
0
220
0
230
1
0
LINE
5
D8
100
AcDbEntity
8
1
62
256
6
ByLayer
370
18
48
1
60
0
100
AcDbLine
10
-37.99868
20
11.987994
30
0
11
-37.40132
21
11.987994
31
0
39
0
210
0
220
0
230
1
0
LINE
5
D9
100
AcDbEntity
8
1
62
256
6
ByLayer
370
18
48
1
60
0
100
AcDbLine
10
-45.99868
20
11.987994
30
0
11
-45.40132
21
11.987994
31
0
39
0
210
0
220
0
230
1
0
LINE
5
DA
100
AcDbEntity
8
1
62
256
6
ByLayer
370
18
48
1
60
0
100
AcDbLine
10
-23.487868
20
13.753554
30
0
11
-23.487868
21
-13.753554
31
0
39
0
210
0
220
0
230
1
0
LINE
5
DB
100
AcDbEntity
8
1
62
256
6
ByLayer
370
18
48
1
60
0
100
AcDbLine
10
-33.99868
20
11.987994
30
0
11
-33.40132
21
11.987994
31
0
39
0
210
0
220
0
230
1
0
LINE
5
DC
100
AcDbEntity
8
1
62
256
6
ByLayer
370
18
48
1
60
0
100
AcDbLine
10
-33.40132
20
11.987994
30
0
11
-33.40132
21
-11.987994
31
0
39
0
210
0
220
0
230
1
0
LINE
5
DD
100
AcDbEntity
8
1
62
256
6
ByLayer
370
18
48
1
60
0
100
AcDbLine
10
-7
20
-11.987994
30
0
11
-9.99868
21
-11.987994
31
0
39
0
210
0
220
0
230
1
0
LINE
5
DE
100
AcDbEntity
8
1
62
256
6
ByLayer
370
18
48
1
60
0
100
AcDbLine
10
-13.40132
20
-11.987994
30
0
11
-13.99868
21
-11.987994
31
0
39
0
210
0
220
0
230
1
0
LINE
5
DF
100
AcDbEntity
8
1
62
256
6
ByLayer
370
18
48
1
60
0
100
AcDbLine
10
-17.40132
20
-11.987994
30
0
11
-17.99868
21
-11.987994
31
0
39
0
210
0
220
0
230
1
0
LINE
5
E0
100
AcDbEntity
8
1
62
256
6
ByLayer
370
18
48
1
60
0
100
AcDbLine
10
-29.99868
20
11.987994
30
0
11
-29.40132
21
11.987994
31
0
39
0
210
0
220
0
230
1
0
LINE
5
E1
100
AcDbEntity
8
1
62
256
6
ByLayer
370
18
48
1
60
0
100
AcDbLine
10
-21.40132
20
-11.987994
30
0
11
-21.99868
21
-11.987994
31
0
39
0
210
0
220
0
230
1
0
LINE
5
E2
100
AcDbEntity
8
1
62
256
6
ByLayer
370
18
48
1
60
0
100
AcDbLine
10
-25.40132
20
-11.987994
30
0
11
-25.99868
21
-11.987994
31
0
39
0
210
0
220
0
230
1
0
LINE
5
E3
100
AcDbEntity
8
1
62
256
6
ByLayer
370
18
48
1
60
0
100
AcDbLine
10
-29.40132
20
-11.987994
30
0
11
-29.99868
21
-11.987994
31
0
39
0
210
0
220
0
230
1
0
LINE
5
E4
100
AcDbEntity
8
1
62
256
6
ByLayer
370
18
48
1
60
0
100
AcDbLine
10
21
20
16
30
0
11
21
21
-16
31
0
39
0
210
0
220
0
230
1
0
LINE
5
E5
100
AcDbEntity
8
1
62
256
6
ByLayer
370
18
48
1
60
0
100
AcDbLine
10
-33.40132
20
-11.987994
30
0
11
-33.99868
21
-11.987994
31
0
39
0
210
0
220
0
230
1
0
LINE
5
E6
100
AcDbEntity
8
1
62
256
6
ByLayer
370
18
48
1
60
0
100
AcDbLine
10
-37.40132
20
-11.987994
30
0
11
-37.99868
21
-11.987994
31
0
39
0
210
0
220
0
230
1
0
LINE
5
E7
100
AcDbEntity
8
1
62
256
6
ByLayer
370
18
48
1
60
0
100
AcDbLine
10
19
20
25.806976
30
0
11
19
21
41.5
31
0
39
0
210
0
220
0
230
1
0
LINE
5
E8
100
AcDbEntity
8
1
62
256
6
ByLayer
370
18
48
1
60
0
100
AcDbLine
10
19
20
-41.5
30
0
11
19
21
-25.806976
31
0
39
0
210
0
220
0
230
1
0
LINE
5
E9
100
AcDbEntity
8
1
62
256
6
ByLayer
370
18
48
1
60
0
100
AcDbLine
10
34.05
20
4.8
30
0
11
34.05
21
-4.8
31
0
39
0
210
0
220
0
230
1
0
LINE
5
EA
100
AcDbEntity
8
1
62
256
6
ByLayer
370
18
48
1
60
0
100
AcDbLine
10
32.85
20
6
30
0
11
32.85
21
-6
31
0
39
0
210
0
220
0
230
1
0
MTEXT
5
131
100
AcDbEntity
8
SK6
62
256
6
ByLayer
370
18
48
1
60
0
100
AcDbMText
10
7.722495
20
-18.503857
30
0
210
0
220
0
230
1
1
\W0.7417;C3-NC3000-V40-030
40
3
41
0
44
1.084337
50
89.9999999999999
71
7
72
5
7
iso_b_vert
0
DIMENSION
5
150
100
AcDbEntity
8
SK2
62
256
6
ByLayer
370
13
48
1
60
0
100
AcDbDimension
2
DimnDraft3D1
10
0
20
61.966069
30
0
11
-33.252632
21
61.966069
31
0
70
32
71
5
72
1
41
1
210
0
220
0
230
1
3
Standard
100
AcDbAlignedDimension
13
-63
23
20.558178
33
0
14
0
24
43
34
0
50
0
100
AcDbRotatedDimension
1001
ACAD
1000
DSTYLE
1002
{
1070
   279
1070
     0
1070
   173
1070
     1
1070
   340
1005
132
1070
   271
1070
     0
1070
   272
1070
     2
1070
    77
1070
     1
1070
    73
1070
     0
1070
   171
1070
     4
1070
   274
1070
     4
1070
   177
1070
     7
1070
   176
1070
     7
1070
   178
1070
     7
1070
    41
1041
3.0
1070
   147
1041
1.5
1070
    42
1041
1.5
1070
    44
1041
3.0
1070
   140
1041
3.0
1070
   343
1005
136
1070
   344
1005
136
1002
}
0
DIMENSION
5
15F
100
AcDbEntity
8
2
62
256
6
ByLayer
370
13
48
1
60
0
100
AcDbDimension
2
DimnDraft3D2
10
30
20
61.966069
30
0
11
13.247368
21
61.966069
31
0
70
32
71
5
72
1
41
1
210
0
220
0
230
1
3
Standard
100
AcDbAlignedDimension
13
0
23
43
33
0
14
30
24
17.2
34
0
50
0
100
AcDbRotatedDimension
1001
ACAD
1000
DSTYLE
1002
{
1070
   279
1070
     0
1070
   173
1070
     1
1070
   340
1005
132
1070
   271
1070
     0
1070
   272
1070
     2
1070
    77
1070
     1
1070
    73
1070
     0
1070
   171
1070
     4
1070
   274
1070
     4
1070
   177
1070
     7
1070
   176
1070
     7
1070
   178
1070
     7
1070
    41
1041
3.0
1070
   147
1041
1.5
1070
    42
1041
1.5
1070
    44
1041
3.0
1070
   140
1041
3.0
1070
   343
1005
136
1070
   344
1005
136
1002
}
0
DIMENSION
5
16D
100
AcDbEntity
8
SK2
62
256
6
ByLayer
370
13
48
1
60
0
100
AcDbDimension
2
DimnDraft3D3
10
20
20
51.007342
30
0
11
8.247368
21
51.007342
31
0
70
32
71
5
72
1
41
1
210
0
220
0
230
1
3
Standard
100
AcDbAlignedDimension
13
0
23
43
33
0
14
20
24
42
34
0
50
0
100
AcDbRotatedDimension
1001
ACAD
1000
DSTYLE
1002
{
1070
   279
1070
     0
1070
   173
1070
     1
1070
   340
1005
132
1070
   271
1070
     0
1070
   272
1070
     2
1070
    77
1070
     1
1070
    73
1070
     0
1070
   171
1070
     4
1070
   274
1070
     4
1070
   177
1070
     7
1070
   176
1070
     7
1070
   178
1070
     7
1070
    41
1041
3.0
1070
   147
1041
1.5
1070
    42
1041
1.5
1070
    44
1041
3.0
1070
   140
1041
3.0
1070
   343
1005
136
1070
   344
1005
136
1002
}
0
DIMENSION
5
17C
100
AcDbEntity
8
SK2
62
256
6
ByLayer
370
13
48
1
60
0
100
AcDbDimension
2
DimnDraft3D4
10
-77.436695
20
-19.996
30
0
11
-75.936695
21
0.576316
31
0
70
33
71
5
72
1
41
1
210
0
220
0
230
1
3
Standard
100
AcDbAlignedDimension
13
-61
23
19.996
33
0
14
-61
24
-19.996
34
0
1001
ACAD
1000
DSTYLE
1002
{
1070
   279
1070
     0
1070
    74
1070
     0
1070
   173
1070
     1
1070
   340
1005
132
1070
   271
1070
     0
1070
   272
1070
     2
1070
    77
1070
     1
1070
    73
1070
     0
1070
   171
1070
     4
1070
   274
1070
     4
1070
   177
1070
     7
1070
   176
1070
     7
1070
   178
1070
     7
1070
    41
1041
3.0
1070
   147
1041
1.5
1070
    42
1041
1.5
1070
    44
1041
3.0
1070
   140
1041
3.0
1070
   343
1005
0
1070
   344
1005
0
1002
}
0
DIMENSION
5
18B
100
AcDbEntity
8
SK2
62
256
6
ByLayer
370
13
48
1
60
0
100
AcDbDimension
2
DimnDraft3D5
10
-88.767991
20
-41.5
30
0
11
-87.267991
21
0.734211
31
0
70
33
71
5
72
1
41
1
210
0
220
0
230
1
3
Standard
100
AcDbAlignedDimension
13
-1.5
23
41.5
33
0
14
-1.5
24
-41.5
34
0
1001
ACAD
1000
DSTYLE
1002
{
1070
   279
1070
     0
1070
    74
1070
     0
1070
   173
1070
     1
1070
   340
1005
132
1070
   271
1070
     0
1070
   272
1070
     2
1070
    77
1070
     1
1070
    73
1070
     0
1070
   171
1070
     4
1070
   274
1070
     4
1070
   177
1070
     7
1070
   176
1070
     7
1070
   178
1070
     7
1070
    41
1041
3.0
1070
   147
1041
1.5
1070
    42
1041
1.5
1070
    44
1041
3.0
1070
   140
1041
3.0
1070
   343
1005
0
1070
   344
1005
0
1002
}
0
DIMENSION
5
19A
100
AcDbEntity
8
SK2
62
256
6
ByLayer
370
13
48
1
60
0
100
AcDbDimension
2
DimnDraft3D6
10
55.505303
20
16
30
0
11
51.005303
21
0.734211
31
0
70
33
71
5
72
1
41
1
210
0
220
0
230
1
3
Standard
100
AcDbAlignedDimension
13
31.2
23
-16
33
0
14
31.2
24
16
34
0
1001
ACAD
1000
DSTYLE
1002
{
1070
   279
1070
     0
1070
    74
1070
     0
1070
   173
1070
     1
1070
   340
1005
132
1070
   271
1070
     0
1070
   272
1070
     2
1070
    77
1070
     1
1070
    73
1070
     0
1070
   171
1070
     4
1070
   274
1070
     4
1070
   177
1070
     7
1070
   176
1070
     7
1070
   178
1070
     7
1070
    41
1041
3.0
1070
   147
1041
1.5
1070
    42
1041
1.5
1070
    44
1041
3.0
1070
   140
1041
3.0
1070
   343
1005
0
1070
   344
1005
0
1002
}
0
ENDSEC
0
SECTION
2
OBJECTS
0
DICTIONARY
5
204
330
0
100
AcDbDictionary
280
0
281
1
3
ACAD_GROUP
350
205
3
ACAD_MLINESTYLE
350
206
0
DICTIONARY
5
205
330
0
100
AcDbDictionary
280
0
281
1
0
DICTIONARY
5
206
330
0
100
AcDbDictionary
280
0
281
1
3
Standard
350
18
0
MLINESTYLE
5
18
330
206
100
AcDbMlineStyle
2
Standard
70
0
3

62
256
51
90
52
90
71
2
49
-0.5
62
256
6
ByLayer
49
0.5
62
256
6
ByLayer
0
RASTERVARIABLES
5
1f3
330

100
AcDbRasterVariables
90
0
70
1
71
1
72
1
0
ENDSEC
0
EOF
