0
SECTION
2
HEADER
9
$ACADVER
1
AC1015
9
$DWGCODEPAGE
3
ANSI_1252
9
$HANDSEED
5
28e
9
$ANGBASE
50
0
9
$ANGDIR
70
0
9
$ATTMODE
70
1
9
$AUNITS
70
0
9
$AUPREC
70
0
9
$CECOLOR
62
256
9
$CELTSCALE
40
1
9
$CELTYPE
6
ByLayer
9
$CELWEIGHT
370
18
9
$CLAYER
8
0
9
$CMLJUST
70
0
9
$CMLSCALE
40
1
9
$CMLSTYLE
2
Standard
9
$DIMSTYLE
2
Standard
9
$TEXTSIZE
40
0.2
9
$TEXTSTYLE
7
Standard
9
$LUNITS
70
2
9
$LUPREC
70
4
9
$EXTNAMES
290
1
9
$INSUNITS
70
4
9
$LTSCALE
40
1
9
$LWDISPLAY
290
1
9
$PDMODE
70
0
9
$PDSIZE
40
0
9
$PLINEGEN
70
0
0
ENDSEC
0
SECTION
2
CLASSES
0
CLASS
1
RASTERVARIABLES
2
AcDbRasterVariables
3
ISM
90
0
280
0
281
0
0
ENDSEC
0
SECTION
2
TABLES
0
TABLE
2
VPORT
5
284
100
AcDbSymbolTable
0
VPORT
5
1
100
AcDbSymbolTableRecord
100
AcDbViewportTableRecord
2
*Active
70
0
10
0
20
0
11
1
21
1
12
-1
22
1
13
0
23
0
14
0.5
24
0.5
15
10
25
10
16
0
26
0
36
1
17
0
27
0
37
0
0
ENDTAB
0
TABLE
2
LTYPE
5
285
100
AcDbSymbolTable
0
LTYPE
5
14
100
AcDbSymbolTableRecord
100
AcDbLinetypeTableRecord
70
0
2
ByBlock
3

72
65
73
0
40
0
0
LTYPE
5
15
100
AcDbSymbolTableRecord
100
AcDbLinetypeTableRecord
70
0
2
ByLayer
3

72
65
73
0
40
0
0
LTYPE
5
16
100
AcDbSymbolTableRecord
100
AcDbLinetypeTableRecord
70
0
2
CONTINUOUS
3
Solid line
72
65
73
0
40
0
0
LTYPE
5
6A
100
AcDbSymbolTableRecord
100
AcDbLinetypeTableRecord
70
0
2
CENTER
3
____ _ ____ _ ____ _ ____
72
65
73
4
40
47.5
49
22
74
0
49
-8.5
74
0
49
8.5
74
0
49
-8.5
74
0
0
LTYPE
5
6B
100
AcDbSymbolTableRecord
100
AcDbLinetypeTableRecord
70
0
2
DASHED
3
__ __ __ __ __ __ __ __ __
72
65
73
2
40
25.72
49
12.86
74
0
49
-12.86
74
0
0
ENDTAB
0
TABLE
2
LAYER
5
286
100
AcDbSymbolTable
0
LAYER
5
10
100
AcDbSymbolTableRecord
100
AcDbLayerTableRecord
2
0
70
0
62
7
6
CONTINUOUS
290
1
370
-3
390
0
0
LAYER
5
6D
100
AcDbSymbolTableRecord
100
AcDbLayerTableRecord
2
2
70
0
62
7
6
CONTINUOUS
290
1
370
-3
390
0
0
LAYER
5
6F
100
AcDbSymbolTableRecord
100
AcDbLayerTableRecord
2
80
70
0
62
-6
6
CONTINUOUS
290
1
370
-3
390
0
0
LAYER
5
71
100
AcDbSymbolTableRecord
100
AcDbLayerTableRecord
2
81
70
0
62
-3
6
CONTINUOUS
290
1
370
-3
390
0
0
LAYER
5
74
100
AcDbSymbolTableRecord
100
AcDbLayerTableRecord
2
4
70
0
62
-2
6
CENTER
290
1
370
-3
390
0
0
LAYER
5
79
100
AcDbSymbolTableRecord
100
AcDbLayerTableRecord
2
1
70
0
62
4
6
CONTINUOUS
290
1
370
-3
390
0
0
LAYER
5
270
100
AcDbSymbolTableRecord
100
AcDbLayerTableRecord
2
SK4
70
0
62
2
6
CENTER
290
1
370
-3
390
0
0
LAYER
5
271
100
AcDbSymbolTableRecord
100
AcDbLayerTableRecord
2
SK1
70
0
62
4
6
CONTINUOUS
290
1
370
-3
390
0
0
LAYER
5
272
100
AcDbSymbolTableRecord
100
AcDbLayerTableRecord
2
SK6
70
0
62
5
6
CONTINUOUS
290
1
370
-3
390
0
0
LAYER
5
273
100
AcDbSymbolTableRecord
100
AcDbLayerTableRecord
2
SK2
70
0
62
7
6
CONTINUOUS
290
1
370
-3
390
0
0
ENDTAB
0
TABLE
2
STYLE
5
287
100
AcDbSymbolTable
0
STYLE
5
11
100
AcDbSymbolTableRecord
100
AcDbTextStyleTableRecord
2
Standard
3
txt
70
0
71
0
40
0
41
1
42
0
50
0
0
STYLE
5
1D4
100
AcDbSymbolTableRecord
100
AcDbTextStyleTableRecord
2
iso_b_vert
3
simplex.shx
70
0
71
0
40
0
41
1
42
0
50
0
0
STYLE
5
1D5
100
AcDbSymbolTableRecord
100
AcDbTextStyleTableRecord
2
DWGDirectTextStyle
3
simplex
70
0
71
0
40
0
41
1
42
0
50
0
0
ENDTAB
0
TABLE
2
DIMSTYLE
5
288
100
AcDbSymbolTable
100
AcDbDimStyleTable
0
DIMSTYLE
105
27
100
AcDbSymbolTableRecord
100
AcDbDimStyleTableRecord
2
Standard
70
0
3
<>
41
0.18
42
0.0625
44
0.18
140
0.18
147
0.09
73
0
74
0
77
1
271
2
275
0
278
52
280
0
340
11
0
ENDTAB
0
TABLE
2
VIEW
5
289
100
AcDbSymbolTable
0
ENDTAB
0
TABLE
2
UCS
5
28a
100
AcDbSymbolTable
0
ENDTAB
0
TABLE
2
APPID
5
28b
100
AcDbSymbolTable
0
APPID
5
12
100
AcDbSymbolTableRecord
100
AcDbRegAppTableRecord
2
ACAD
70
0
0
ENDTAB
0
TABLE
2
BLOCK_RECORD
5
28c
100
AcDbSymbolTable
0
BLOCK_RECORD
5
1F
100
AcDbSymbolTableRecord
100
AcDbBlockTableRecord
2
*Model_Space
340
0
70
0
0
BLOCK_RECORD
5
1B
100
AcDbSymbolTableRecord
100
AcDbBlockTableRecord
2
*Paper_Space
340
0
70
0
0
BLOCK_RECORD
5
23
100
AcDbSymbolTableRecord
100
AcDbBlockTableRecord
2
*Paper_Space0
340
0
70
0
0
BLOCK_RECORD
5
1D7
100
AcDbSymbolTableRecord
100
AcDbBlockTableRecord
2
DimnDraft3D1
340
0
70
0
0
BLOCK_RECORD
5
1E5
100
AcDbSymbolTableRecord
100
AcDbBlockTableRecord
2
_CLOSED
340
0
70
0
0
BLOCK_RECORD
5
1EC
100
AcDbSymbolTableRecord
100
AcDbBlockTableRecord
2
DimnDraft3D2
340
0
70
0
0
BLOCK_RECORD
5
1FA
100
AcDbSymbolTableRecord
100
AcDbBlockTableRecord
2
DimnDraft3D3
340
0
70
0
0
BLOCK_RECORD
5
209
100
AcDbSymbolTableRecord
100
AcDbBlockTableRecord
2
DimnDraft3D4
340
0
70
0
0
ENDTAB
0
ENDSEC
0
SECTION
2
BLOCKS
0
BLOCK
5
20
100
AcDbEntity
8
0
100
AcDbBlockBegin
2
*Model_Space
70
0
10
0
20
0
30
0
3
*Model_Space
0
ENDBLK
5
21
100
AcDbEntity
8
0
100
AcDbBlockEnd
0
BLOCK
5
1C
100
AcDbEntity
8
0
100
AcDbBlockBegin
2
*Paper_Space
70
0
10
0
20
0
30
0
3
*Paper_Space
0
ENDBLK
5
1D
100
AcDbEntity
8
0
100
AcDbBlockEnd
0
BLOCK
5
24
100
AcDbEntity
8
0
100
AcDbBlockBegin
2
*Paper_Space0
70
0
10
0
20
0
30
0
3
*Paper_Space0
0
ENDBLK
5
25
100
AcDbEntity
8
0
100
AcDbBlockEnd
0
BLOCK
5
1E2
100
AcDbEntity
8
0
100
AcDbBlockBegin
2
DimnDraft3D1
70
0
10
0
20
0
30
0
3
DimnDraft3D1
0
MTEXT
5
1D8
100
AcDbEntity
8
2
62
256
6
ByLayer
370
18
48
1
60
0
100
AcDbMText
10
23.094067
20
-33.674116
30
0
210
0
220
0
230
1
1
\W0.7399;95%%d
40
4.5
41
0
44
1.084337
50
312.65427684
71
7
72
5
7
iso_b_vert
0
LINE
5
1D9
100
AcDbEntity
8
2
62
256
6
ByLayer
370
13
48
1
60
0
100
AcDbLine
10
31.168133
20
-21.343023
30
0
11
16.655791
21
-20.152072
31
0
39
0
210
0
220
0
230
1
0
LINE
5
1DA
100
AcDbEntity
8
2
62
256
6
ByLayer
370
13
48
1
60
0
100
AcDbLine
10
40
20
-24
30
0
11
40
21
-45.490491
31
0
39
0
210
0
220
0
230
1
0
ARC
5
1DB
100
AcDbEntity
8
2
62
256
6
ByLayer
370
13
48
1
60
0
100
AcDbCircle
39
0
10
40
20
-22.067807
30
0
40
21.4226837810116
210
0
220
0
230
1
100
AcDbArc
50
175.308554
51
270
0
LINE
5
1DC
100
AcDbEntity
8
2
62
256
6
ByLayer
370
13
48
1
60
0
100
AcDbLine
10
18.649091
20
-20.315652
30
0
11
18.924166
21
-23.506211
31
0
39
0
210
0
220
0
230
1
0
LINE
5
1DD
100
AcDbEntity
8
2
62
256
6
ByLayer
370
13
48
1
60
0
100
AcDbLine
10
18.649091
20
-20.315652
30
0
11
18.089015
21
-23.468693
31
0
39
0
210
0
220
0
230
1
0
LINE
5
1DE
100
AcDbEntity
8
2
62
256
6
ByLayer
370
13
48
1
60
0
100
AcDbLine
10
18.924166
20
-23.506211
30
0
11
18.089015
21
-23.468693
31
0
39
0
210
0
220
0
230
1
0
LINE
5
1DF
100
AcDbEntity
8
2
62
256
6
ByLayer
370
13
48
1
60
0
100
AcDbLine
10
40
20
-43.490491
30
0
11
36.811717
21
-43.790804
31
0
39
0
210
0
220
0
230
1
0
LINE
5
1E0
100
AcDbEntity
8
2
62
256
6
ByLayer
370
13
48
1
60
0
100
AcDbLine
10
40
20
-43.490491
30
0
11
36.842625
21
-42.955382
31
0
39
0
210
0
220
0
230
1
0
LINE
5
1E1
100
AcDbEntity
8
2
62
256
6
ByLayer
370
13
48
1
60
0
100
AcDbLine
10
36.811717
20
-43.790804
30
0
11
36.842625
21
-42.955382
31
0
39
0
210
0
220
0
230
1
0
ENDBLK
5
1E3
100
AcDbEntity
8
0
100
AcDbBlockEnd
0
BLOCK
5
1E6
100
AcDbEntity
8
0
100
AcDbBlockBegin
2
_CLOSED
70
0
10
0
20
0
30
0
3
_CLOSED
0
LINE
5
1E8
100
AcDbEntity
8
0
62
256
6
ByLayer
370
-2
48
1
60
0
100
AcDbLine
10
-1
20
0.166667
30
0
11
0
21
0
31
0
39
0
210
0
220
0
230
1
0
LINE
5
1E9
100
AcDbEntity
8
0
62
256
6
ByLayer
370
-2
48
1
60
0
100
AcDbLine
10
0
20
0
30
0
11
-1
21
-0.166667
31
0
39
0
210
0
220
0
230
1
0
LINE
5
1EA
100
AcDbEntity
8
0
62
256
6
ByLayer
370
-2
48
1
60
0
100
AcDbLine
10
-1
20
0.166667
30
0
11
-1
21
-0.166667
31
0
39
0
210
0
220
0
230
1
0
LINE
5
1EB
100
AcDbEntity
8
0
62
256
6
ByLayer
370
-2
48
1
60
0
100
AcDbLine
10
0
20
0
30
0
11
-1
21
0
31
0
39
0
210
0
220
0
230
1
0
ENDBLK
5
1E7
100
AcDbEntity
8
0
100
AcDbBlockEnd
0
BLOCK
5
1F7
100
AcDbEntity
8
0
100
AcDbBlockBegin
2
DimnDraft3D2
70
0
10
0
20
0
30
0
3
DimnDraft3D2
0
MTEXT
5
1ED
100
AcDbEntity
8
2
62
256
6
ByLayer
370
18
48
1
60
0
100
AcDbMText
10
15.606579
20
-48.125
30
0
210
0
220
0
230
1
1
\W0.7640;40.0
40
4.5
41
0
44
1.084337
50
0
71
7
72
5
7
iso_b_vert
0
LINE
5
1EE
100
AcDbEntity
8
2
62
256
6
ByLayer
370
13
48
1
60
0
100
AcDbLine
10
0
20
-18
30
0
11
0
21
-51.25
31
0
39
0
210
0
220
0
230
1
0
LINE
5
1EF
100
AcDbEntity
8
2
62
256
6
ByLayer
370
13
48
1
60
0
100
AcDbLine
10
40
20
-24
30
0
11
40
21
-51.25
31
0
39
0
210
0
220
0
230
1
0
LINE
5
1F0
100
AcDbEntity
8
2
62
256
6
ByLayer
370
13
48
1
60
0
100
AcDbLine
10
0
20
-49.25
30
0
11
40
21
-49.25
31
0
39
0
210
0
220
0
230
1
0
LINE
5
1F1
100
AcDbEntity
8
2
62
256
6
ByLayer
370
13
48
1
60
0
100
AcDbLine
10
0
20
-49.25
30
0
11
3.174998
21
-48.832003
31
0
39
0
210
0
220
0
230
1
0
LINE
5
1F2
100
AcDbEntity
8
2
62
256
6
ByLayer
370
13
48
1
60
0
100
AcDbLine
10
0
20
-49.25
30
0
11
3.175002
21
-49.667997
31
0
39
0
210
0
220
0
230
1
0
LINE
5
1F3
100
AcDbEntity
8
2
62
256
6
ByLayer
370
13
48
1
60
0
100
AcDbLine
10
3.174998
20
-48.832003
30
0
11
3.175002
21
-49.667997
31
0
39
0
210
0
220
0
230
1
0
LINE
5
1F4
100
AcDbEntity
8
2
62
256
6
ByLayer
370
13
48
1
60
0
100
AcDbLine
10
40
20
-49.25
30
0
11
36.825002
21
-49.667997
31
0
39
0
210
0
220
0
230
1
0
LINE
5
1F5
100
AcDbEntity
8
2
62
256
6
ByLayer
370
13
48
1
60
0
100
AcDbLine
10
40
20
-49.25
30
0
11
36.824998
21
-48.832003
31
0
39
0
210
0
220
0
230
1
0
LINE
5
1F6
100
AcDbEntity
8
2
62
256
6
ByLayer
370
13
48
1
60
0
100
AcDbLine
10
36.825002
20
-49.667997
30
0
11
36.824998
21
-48.832003
31
0
39
0
210
0
220
0
230
1
0
ENDBLK
5
1F8
100
AcDbEntity
8
0
100
AcDbBlockEnd
0
BLOCK
5
206
100
AcDbEntity
8
0
100
AcDbBlockBegin
2
DimnDraft3D3
70
0
10
0
20
0
30
0
3
DimnDraft3D3
0
MTEXT
5
1FB
100
AcDbEntity
8
SK2
62
256
6
ByLayer
370
18
48
1
60
0
100
AcDbMText
10
-27.875
20
-1.563158
30
0
210
0
220
0
230
1
1
\W0.6740;32
40
4.5
41
0
44
1.084337
50
90
71
7
72
5
7
iso_b_vert
0
LINE
5
1FD
100
AcDbEntity
8
SK2
62
256
6
ByLayer
370
13
48
1
60
0
100
AcDbLine
10
-2
20
-16
30
0
11
-28.75
21
-16
31
0
39
0
210
0
220
0
230
1
0
LINE
5
1FE
100
AcDbEntity
8
SK2
62
256
6
ByLayer
370
13
48
1
60
0
100
AcDbLine
10
-2
20
16
30
0
11
-28.75
21
16
31
0
39
0
210
0
220
0
230
1
0
LINE
5
1FF
100
AcDbEntity
8
SK2
62
256
6
ByLayer
370
13
48
1
60
0
100
AcDbLine
10
-26.75
20
-16
30
0
11
-26.75
21
16
31
0
39
0
210
0
220
0
230
1
0
LINE
5
200
100
AcDbEntity
8
SK2
62
256
6
ByLayer
370
13
48
1
60
0
100
AcDbLine
10
-26.75
20
-16
30
0
11
-27.167997
21
-12.825002
31
0
39
0
210
0
220
0
230
1
0
LINE
5
201
100
AcDbEntity
8
SK2
62
256
6
ByLayer
370
13
48
1
60
0
100
AcDbLine
10
-26.75
20
-16
30
0
11
-26.332003
21
-12.824998
31
0
39
0
210
0
220
0
230
1
0
LINE
5
202
100
AcDbEntity
8
SK2
62
256
6
ByLayer
370
13
48
1
60
0
100
AcDbLine
10
-27.167997
20
-12.825002
30
0
11
-26.332003
21
-12.824998
31
0
39
0
210
0
220
0
230
1
0
LINE
5
203
100
AcDbEntity
8
SK2
62
256
6
ByLayer
370
13
48
1
60
0
100
AcDbLine
10
-26.75
20
16
30
0
11
-26.332003
21
12.825002
31
0
39
0
210
0
220
0
230
1
0
LINE
5
204
100
AcDbEntity
8
SK2
62
256
6
ByLayer
370
13
48
1
60
0
100
AcDbLine
10
-26.75
20
16
30
0
11
-27.167997
21
12.824998
31
0
39
0
210
0
220
0
230
1
0
LINE
5
205
100
AcDbEntity
8
SK2
62
256
6
ByLayer
370
13
48
1
60
0
100
AcDbLine
10
-26.332003
20
12.825002
30
0
11
-27.167997
21
12.824998
31
0
39
0
210
0
220
0
230
1
0
ENDBLK
5
207
100
AcDbEntity
8
0
100
AcDbBlockEnd
0
BLOCK
5
214
100
AcDbEntity
8
0
100
AcDbBlockBegin
2
DimnDraft3D4
70
0
10
0
20
0
30
0
3
DimnDraft3D4
0
MTEXT
5
20A
100
AcDbEntity
8
2
62
256
6
ByLayer
370
18
48
1
60
0
100
AcDbMText
10
61.125
20
-15.156579
30
0
210
0
220
0
230
1
1
\W0.7346;22.0
40
4.5
41
0
44
1.084337
50
90
71
7
72
5
7
iso_b_vert
0
LINE
5
20B
100
AcDbEntity
8
2
62
256
6
ByLayer
370
13
48
1
60
0
100
AcDbLine
10
42
20
0
30
0
11
64.25
21
0
31
0
39
0
210
0
220
0
230
1
0
LINE
5
20C
100
AcDbEntity
8
2
62
256
6
ByLayer
370
13
48
1
60
0
100
AcDbLine
10
42
20
-22
30
0
11
64.25
21
-22
31
0
39
0
210
0
220
0
230
1
0
LINE
5
20D
100
AcDbEntity
8
2
62
256
6
ByLayer
370
13
48
1
60
0
100
AcDbLine
10
62.25
20
0
30
0
11
62.25
21
-22
31
0
39
0
210
0
220
0
230
1
0
LINE
5
20E
100
AcDbEntity
8
2
62
256
6
ByLayer
370
13
48
1
60
0
100
AcDbLine
10
62.25
20
0
30
0
11
62.667997
21
-3.174998
31
0
39
0
210
0
220
0
230
1
0
LINE
5
20F
100
AcDbEntity
8
2
62
256
6
ByLayer
370
13
48
1
60
0
100
AcDbLine
10
62.25
20
0
30
0
11
61.832003
21
-3.175002
31
0
39
0
210
0
220
0
230
1
0
LINE
5
210
100
AcDbEntity
8
2
62
256
6
ByLayer
370
13
48
1
60
0
100
AcDbLine
10
62.667997
20
-3.174998
30
0
11
61.832003
21
-3.175002
31
0
39
0
210
0
220
0
230
1
0
LINE
5
211
100
AcDbEntity
8
2
62
256
6
ByLayer
370
13
48
1
60
0
100
AcDbLine
10
62.25
20
-22
30
0
11
61.832003
21
-18.825002
31
0
39
0
210
0
220
0
230
1
0
LINE
5
212
100
AcDbEntity
8
2
62
256
6
ByLayer
370
13
48
1
60
0
100
AcDbLine
10
62.25
20
-22
30
0
11
62.667997
21
-18.824998
31
0
39
0
210
0
220
0
230
1
0
LINE
5
213
100
AcDbEntity
8
2
62
256
6
ByLayer
370
13
48
1
60
0
100
AcDbLine
10
61.832003
20
-18.825002
30
0
11
62.667997
21
-18.824998
31
0
39
0
210
0
220
0
230
1
0
ENDBLK
5
215
100
AcDbEntity
8
0
100
AcDbBlockEnd
0
ENDSEC
0
SECTION
2
ENTITIES
0
ARC
5
EF
100
AcDbEntity
8
SK1
62
256
6
ByLayer
370
18
48
1
60
0
100
AcDbCircle
39
0
10
0.6
20
-11.8
30
0
40
0.999999999999989
210
0
220
0
230
-1
100
AcDbArc
50
113.578178
51
126.869898
0
ARC
5
F0
100
AcDbEntity
8
SK1
62
256
6
ByLayer
370
18
48
1
60
0
100
AcDbCircle
39
0
10
0.6
20
11.8
30
0
40
0.999999999999989
210
0
220
0
230
-1
100
AcDbArc
50
233.130102
51
246.421822
0
ELLIPSE
5
F1
100
AcDbEntity
8
1
62
256
6
ByLayer
370
18
48
1
60
0
100
AcDbEllipse
10
24.593591
20
-13.535422
30
0
11
-0.205060966544568
21
-0.20506096654363
31
0
210
0
220
0
230
1
40
0.989133
41
2.22523715338504
42
2.788350388818
0
ELLIPSE
5
F2
100
AcDbEntity
8
1
62
256
6
ByLayer
370
18
48
1
60
0
100
AcDbEllipse
10
23.417836
20
-14.711177
30
0
11
-0.205060966544568
21
-0.20506096654363
31
0
210
0
220
0
230
1
40
0.989133
41
0.353242264771821
42
0.916355500204765
0
ELLIPSE
5
F3
100
AcDbEntity
8
1
62
256
6
ByLayer
370
18
48
1
60
0
100
AcDbEllipse
10
24.30505
20
-14.422636
30
0
11
0.636396103069349
21
0.636396103066436
31
0
210
0
220
0
230
1
40
0.989133
41
-3.04813623094158
42
-0.0934683133249959
0
ELLIPSE
5
F4
100
AcDbEntity
8
1
62
256
6
ByLayer
370
18
48
1
60
0
100
AcDbEllipse
10
24.341437
20
-14.459022
30
0
11
0.636396103069349
21
0.636396103066436
31
0
210
0
220
0
230
1
40
0.989133
41
1.26281339097146
42
1.87877998801343
0
ELLIPSE
5
F5
100
AcDbEntity
8
1
62
256
6
ByLayer
370
18
48
1
60
0
100
AcDbEllipse
10
24.341437
20
-14.459022
30
0
11
0.636396103069349
21
0.636396103066436
31
0
210
0
220
0
230
1
40
0.989133
41
0.0934920250935547
42
0.651058630376992
0
ELLIPSE
5
F6
100
AcDbEntity
8
1
62
256
6
ByLayer
370
18
48
1
60
0
100
AcDbEllipse
10
24.341437
20
-14.459022
30
0
11
0.636396103069349
21
0.636396103066436
31
0
210
0
220
0
230
1
40
0.989133
41
2.49053402321281
42
3.04810062849625
0
ELLIPSE
5
F7
100
AcDbEntity
8
1
62
256
6
ByLayer
370
18
48
1
60
0
100
AcDbEllipse
10
24.263465
20
-14.381051
30
0
11
2.26274169980213
21
2.26274169979177
31
0
210
0
220
0
230
1
40
0.989133
41
0.790861447994063
42
3.14158704533068
0
ELLIPSE
5
F8
100
AcDbEntity
8
1
62
256
6
ByLayer
370
18
48
1
60
0
100
AcDbEllipse
10
24.263465
20
-14.381051
30
0
11
2.26274169980213
21
2.26274169979177
31
0
210
0
220
0
230
1
40
0.989133
41
9.24095939294062E-05
42
0.790861133810248
0
ELLIPSE
5
F9
100
AcDbEntity
8
1
62
256
6
ByLayer
370
18
48
1
60
0
100
AcDbEllipse
10
25.265037
20
-14.206868
30
0
11
-0.205060966544568
21
-0.20506096654363
31
0
210
0
220
0
230
1
40
0.989133
41
1.17803960218843
42
2.78831280022438
0
ELLIPSE
5
FA
100
AcDbEntity
8
1
62
256
6
ByLayer
370
18
48
1
60
0
100
AcDbEllipse
10
24.089282
20
-15.382623
30
0
11
-0.205060966544568
21
-0.20506096654363
31
0
210
0
220
0
230
1
40
0.989133
41
0.353279853365423
42
1.96355305140137
0
ELLIPSE
5
FB
100
AcDbEntity
8
1
62
256
6
ByLayer
370
18
48
1
60
0
100
AcDbEllipse
10
6
20
7.794307
30
0
11
-2.5075
21
3.07070043220961E-16
31
0
210
0
220
0
230
1
40
0.819152
41
-1.57079648410829
42
-0.347440591070092
0
ELLIPSE
5
FC
100
AcDbEntity
8
1
62
256
6
ByLayer
370
18
48
1
60
0
100
AcDbEllipse
10
6
20
7.794307
30
0
11
-2.5075
21
3.07070043220961E-16
31
0
210
0
220
0
230
1
40
0.819152
41
-2.80033732283845
42
-1.57079648410832
0
ELLIPSE
5
FD
100
AcDbEntity
8
1
62
256
6
ByLayer
370
18
48
1
60
0
100
AcDbEllipse
10
6
20
7.794307
30
0
11
-2
21
2.44921270764475E-16
31
0
210
0
220
0
230
1
40
0.819152
41
-1.57079635748816
42
-0.0810922340910026
0
ELLIPSE
5
FE
100
AcDbEntity
8
1
62
256
6
ByLayer
370
18
48
1
60
0
100
AcDbEllipse
10
6
20
7.794307
30
0
11
-2
21
2.44921270764475E-16
31
0
210
0
220
0
230
1
40
0.819152
41
-3.08789129153298
42
-1.57079635748818
0
ELLIPSE
5
FF
100
AcDbEntity
8
1
62
256
6
ByLayer
370
18
48
1
60
0
100
AcDbEllipse
10
34.892121
20
-16.892121
30
0
11
1.34703841816346
21
1.34703841815729
31
0
210
0
220
0
230
1
40
0.989133
41
-2.51681411120253
42
0
0
ELLIPSE
5
100
100
AcDbEntity
8
1
62
256
6
ByLayer
370
18
48
1
60
0
100
AcDbEllipse
10
34.892121
20
-16.892121
30
0
11
1.34703841816346
21
1.34703841815729
31
0
210
0
220
0
230
1
40
0.989133
41
0
42
0.431079735436961
0
ELLIPSE
5
101
100
AcDbEntity
8
1
62
256
6
ByLayer
370
18
48
1
60
0
100
AcDbEllipse
10
36.019027
20
-10.457015
30
0
11
0.561230652229047
21
0.561230652226478
31
0
210
0
220
0
230
1
40
0.989133
41
5.28576549263208E-07
42
1.30714335385626
0
ELLIPSE
5
102
100
AcDbEntity
8
1
62
256
6
ByLayer
370
18
48
1
60
0
100
AcDbEllipse
10
34.397263
20
-16.397263
30
0
11
-1.34703841816345
21
-1.34703841815729
31
0
210
0
220
0
230
1
40
0.989133
41
2.60781091674701
42
2.95476081083988
0
ELLIPSE
5
103
100
AcDbEntity
8
1
62
256
6
ByLayer
370
18
48
1
60
0
100
AcDbEllipse
10
18.486114
20
-18.229685
30
0
11
2.00411319484461
21
2.23238220344316
31
0
210
0
220
0
230
1
40
0.98676
41
0.182392924462533
42
0.470414656504752
0
ELLIPSE
5
104
100
AcDbEntity
8
1
62
256
6
ByLayer
370
18
48
1
60
0
100
AcDbEllipse
10
23.340886
20
-14.139114
30
0
11
2.23792640090982
21
2.49282679384486
31
0
210
0
220
0
230
1
40
0.98676
41
-2.95919026972489
42
-2.67117799708505
0
ELLIPSE
5
105
100
AcDbEntity
8
1
62
256
6
ByLayer
370
18
48
1
60
0
100
AcDbEllipse
10
24.920449
20
-14.552128
30
0
11
-2.23792640090982
21
-2.49282679384486
31
0
210
0
220
0
230
1
40
0.98676
41
0.470414656504753
42
-3.03010495957257
0
ELLIPSE
5
106
100
AcDbEntity
8
1
62
256
6
ByLayer
370
18
48
1
60
0
100
AcDbEllipse
10
6
20
6.989097
30
0
11
-2.3182692906266
21
-3.0105276281948
31
0
210
0
220
0
230
1
40
0.310826
41
1.75123756842146
42
2.09678455354359
0
ELLIPSE
5
107
100
AcDbEntity
8
1
62
256
6
ByLayer
370
18
48
1
60
0
100
AcDbEllipse
10
12.928203
20
0
30
0
11
-7.4939343038249
21
-15.7933993221993
31
0
210
0
220
0
230
1
40
0.341999
41
-1.08757920120057
42
-0.161466571197722
0
ELLIPSE
5
108
100
AcDbEntity
8
1
62
256
6
ByLayer
370
18
48
1
60
0
100
AcDbEllipse
10
6
20
6.989097
30
0
11
-2.318269290666
21
3.01052762823043
31
0
210
0
220
0
230
1
40
0.310826
41
-0.62307177458385
42
-0.0615031701440581
0
ELLIPSE
5
109
100
AcDbEntity
8
1
62
256
6
ByLayer
370
18
48
1
60
0
100
AcDbEllipse
10
19.584238
20
0
30
0
11
-10.3400801759143
21
-14.4993733034374
31
0
210
0
220
0
230
1
40
0.654271
41
0.135757869647017
42
0.451392107234515
0
ELLIPSE
5
10A
100
AcDbEntity
8
1
62
256
6
ByLayer
370
18
48
1
60
0
100
AcDbEllipse
10
16.758933
20
8.883994
30
0
11
-2.44960961161868
21
-37.958990989399
31
0
210
0
220
0
230
1
40
0.083305
41
-1.1085547409274
42
-0.998966845514622
0
ELLIPSE
5
10B
100
AcDbEntity
8
1
62
256
6
ByLayer
370
18
48
1
60
0
100
AcDbEllipse
10
19.152258
20
-0.004929
30
0
11
-20.7842035416177
21
-4.65717328742638
31
0
210
0
220
0
230
1
40
0.736235
41
1.25098110811493
42
1.25328699773024
0
ELLIPSE
5
10C
100
AcDbEntity
8
1
62
256
6
ByLayer
370
18
48
1
60
0
100
AcDbEllipse
10
-0.928203
20
0
30
0
11
-7.49393430382627
21
15.793399322201
31
0
210
0
220
0
230
1
40
0.341999
41
-2.98012608239209
42
-2.05401345238931
0
ELLIPSE
5
10D
100
AcDbEntity
8
1
62
256
6
ByLayer
370
18
48
1
60
0
100
AcDbEllipse
10
16.758933
20
9.714517
30
0
11
-3.18789791482987
21
-15.3643563644818
31
0
210
0
220
0
230
1
40
0.15725
41
-0.0302819670226437
42
0.317484184706567
0
ELLIPSE
5
10E
100
AcDbEntity
8
1
62
256
6
ByLayer
370
18
48
1
60
0
100
AcDbEllipse
10
6
20
6.989097
30
0
11
-2.31826929065821
21
-3.01052762821747
31
0
210
0
220
0
230
1
40
0.310826
41
-3.08008948344594
42
-2.51852087900453
0
ELLIPSE
5
10F
100
AcDbEntity
8
1
62
256
6
ByLayer
370
18
48
1
60
0
100
AcDbEllipse
10
6
20
8.250084
30
0
11
-2.4999999999998
21
2.52659763770571E-15
31
0
210
0
220
0
230
1
40
0.718015
41
-2.01608449674786
42
-1.12550815684193
0
ELLIPSE
5
110
100
AcDbEntity
8
1
62
256
6
ByLayer
370
18
48
1
60
0
100
AcDbEllipse
10
-0.928203
20
0
30
0
11
-7.4939343036274
21
-15.7933993219692
31
0
210
0
220
0
230
1
40
0.341999
41
2.05401345238072
42
2.24644560911511
0
ELLIPSE
5
111
100
AcDbEntity
8
1
62
256
6
ByLayer
370
18
48
1
60
0
100
AcDbEllipse
10
13.399819
20
0
30
0
11
9.79685083057902E-16
21
16
31
0
210
0
220
0
230
1
40
0.087489
41
0.463365290472872
42
2.65500321523826
0
ELLIPSE
5
112
100
AcDbEntity
8
1
62
256
6
ByLayer
370
18
48
1
60
0
100
AcDbEllipse
10
16.758933
20
56.912616
30
0
11
-0.407149194431501
21
-61.5363443843029
31
0
210
0
220
0
230
1
40
0.064665
41
-0.542392153292666
42
-0.284116832371619
0
ELLIPSE
5
113
100
AcDbEntity
8
1
62
256
6
ByLayer
370
18
48
1
60
0
100
AcDbEllipse
10
5.42961
20
0
30
0
11
-20.7870338150639
21
-4.6610311280307
31
0
210
0
220
0
230
1
40
0.736326
41
1.67250537669755
42
1.76178517296338
0
ELLIPSE
5
114
100
AcDbEntity
8
1
62
256
6
ByLayer
370
18
48
1
60
0
100
AcDbEllipse
10
12.683836
20
0.743641
30
0
11
-0.0135884006081705
21
-3.91926768072939
31
0
210
0
220
0
230
1
40
0.046973
41
-2.94746524138288
42
-1.37666891458808
0
ELLIPSE
5
115
100
AcDbEntity
8
1
62
256
6
ByLayer
370
18
48
1
60
0
100
AcDbEllipse
10
-0.928203
20
0
30
0
11
-7.49393430382026
21
-15.7933993221927
31
0
210
0
220
0
230
1
40
0.341999
41
2.40986717115724
42
2.98012608239202
0
ELLIPSE
5
116
100
AcDbEntity
8
1
62
256
6
ByLayer
370
18
48
1
60
0
100
AcDbEllipse
10
6
20
6.989097
30
0
11
-2.31826929069042
21
3.01052762824994
31
0
210
0
220
0
230
1
40
0.310826
41
1.0448081000416
42
1.390355085157
0
ELLIPSE
5
117
100
AcDbEntity
8
1
62
256
6
ByLayer
370
18
48
1
60
0
100
AcDbEllipse
10
16.758933
20
11.188683
30
0
11
-3.97922474461981
21
-6.29632018880772
31
0
210
0
220
0
230
1
40
0.064665
41
-0.31601904337821
42
-0.189230349483306
0
ELLIPSE
5
118
100
AcDbEntity
8
1
62
256
6
ByLayer
370
18
48
1
60
0
100
AcDbEllipse
10
12.928203
20
0
30
0
11
-7.49393430341525
21
15.7933993217234
31
0
210
0
220
0
230
1
40
0.341999
41
0.895147044481666
42
1.08757920121867
0
ELLIPSE
5
119
100
AcDbEntity
8
1
62
256
6
ByLayer
370
18
48
1
60
0
100
AcDbEllipse
10
12.928203
20
0
30
0
11
-7.49393430382187
21
15.7933993221947
31
0
210
0
220
0
230
1
40
0.341999
41
0.161466571197761
42
0.731725482432416
0
ELLIPSE
5
11A
100
AcDbEntity
8
1
62
256
6
ByLayer
370
18
48
1
60
0
100
AcDbEllipse
10
6
20
8.250084
30
0
11
-2.50000000000003
21
2.52659763770594E-15
31
0
210
0
220
0
230
1
40
0.718015
41
1.12550815684197
42
2.01608449674782
0
ELLIPSE
5
11B
100
AcDbEntity
8
1
62
256
6
ByLayer
370
18
48
1
60
0
100
AcDbEllipse
10
34.892121
20
-16.892121
30
0
11
-3.36759604540864
21
-3.36759604539323
31
0
210
0
220
0
230
1
40
0.989133
41
2.44346095279206
42
2.79252680319096
0
ELLIPSE
5
11C
100
AcDbEntity
8
1
62
256
6
ByLayer
370
18
48
1
60
0
100
AcDbEllipse
10
34.892121
20
-16.892121
30
0
11
-3.36759604540864
21
-3.36759604539323
31
0
210
0
220
0
230
1
40
0.989133
41
0.349065850398873
42
0.698131700797733
0
ELLIPSE
5
11D
100
AcDbEntity
8
1
62
256
6
ByLayer
370
18
48
1
60
0
100
AcDbEllipse
10
39.210605
20
-21.210605
30
0
11
-0.561230652229047
21
-0.561230652226479
31
0
210
0
220
0
230
1
40
0.989133
41
0.698131700797734
42
2.44346095279205
0
ELLIPSE
5
11E
100
AcDbEntity
8
1
62
256
6
ByLayer
370
18
48
1
60
0
100
AcDbEllipse
10
36.513884
20
-10.951873
30
0
11
-0.561230652229047
21
-0.561230652226479
31
0
210
0
220
0
230
1
40
0.989133
41
2.79252680319095
42
-1.74532925199433
0
ELLIPSE
5
11F
100
AcDbEntity
8
1
62
256
6
ByLayer
370
18
48
1
60
0
100
AcDbEllipse
10
22.351991
20
-11.419162
30
0
11
4.34112244422441
21
-1.18518181063122
31
0
210
0
220
0
230
1
40
0.073512
41
-2.40105709263897
42
-1.96218052381015
0
ELLIPSE
5
120
100
AcDbEntity
8
1
62
256
6
ByLayer
370
18
48
1
60
0
100
AcDbEllipse
10
16.806445
20
-6.614402
30
0
11
5.78816325896588
21
-1.58024241417496
31
0
210
0
220
0
230
1
40
0.073512
41
0.791246453599078
42
0.793135574676262
0
ELLIPSE
5
121
100
AcDbEntity
8
1
62
256
6
ByLayer
370
18
48
1
60
0
100
AcDbEllipse
10
35.15118
20
-17.091076
30
0
11
-0.212188270476999
21
-1.73934239209574
31
0
210
0
220
0
230
1
40
0.837681
41
1.51414874585475
42
1.79523243078437
0
ELLIPSE
5
122
100
AcDbEntity
8
1
62
256
6
ByLayer
370
18
48
1
60
0
100
AcDbEllipse
10
20.858554
20
-16.889372
30
0
11
-4.37176432534778
21
1.07285763713699
31
0
210
0
220
0
230
1
40
0.124294
41
-0.590094881999205
42
-0.528446704998978
0
ELLIPSE
5
123
100
AcDbEntity
8
1
62
256
6
ByLayer
370
18
48
1
60
0
100
AcDbEllipse
10
35.15118
20
-17.091076
30
0
11
-1.31499034245152
21
-1.00450433115766
31
0
210
0
220
0
230
1
40
0.820784
41
1.92274213381383
42
2.20382581874484
0
ELLIPSE
5
124
100
AcDbEntity
8
1
62
256
6
ByLayer
370
18
48
1
60
0
100
AcDbEllipse
10
20.75371
20
-16.948691
30
0
11
-3.33911270873022
21
-0.617089188609671
31
0
210
0
220
0
230
1
40
0.419778
41
0.436824619960213
42
0.728448483472137
0
ELLIPSE
5
125
100
AcDbEntity
8
1
62
256
6
ByLayer
370
18
48
1
60
0
100
AcDbEllipse
10
18.425941
20
-15.532333
30
0
11
-2.29135103078137
21
-1.01920308149774
31
0
210
0
220
0
230
1
40
0.990371
41
-0.68030658162132
42
0.433487814490277
0
ELLIPSE
5
126
100
AcDbEntity
8
1
62
256
6
ByLayer
370
18
48
1
60
0
100
AcDbEllipse
10
23.197426
20
-8.598481
30
0
11
-2.56809873137651
21
0.842944249134937
31
0
210
0
220
0
230
1
40
0.402459
41
-0.134217186607397
42
0.607273697121597
0
ELLIPSE
5
127
100
AcDbEntity
8
1
62
256
6
ByLayer
370
18
48
1
60
0
100
AcDbEllipse
10
22.689719
20
-10.18212
30
0
11
-4.30841352923171
21
1.30451412029727
31
0
210
0
220
0
230
1
40
0.27121
41
0.532688203472299
42
0.594336380738354
0
ELLIPSE
5
128
100
AcDbEntity
8
1
62
256
6
ByLayer
370
18
48
1
60
0
100
AcDbEllipse
10
18.765502
20
-16.019646
30
0
11
-0.247184512010694
21
1.78294694733804
31
0
210
0
220
0
230
1
40
0.816684
41
1.27645530837014
42
2.70668511481894
0
ELLIPSE
5
129
100
AcDbEntity
8
1
62
256
6
ByLayer
370
18
48
1
60
0
100
AcDbEllipse
10
20.387192
20
-10.079667
30
0
11
1.34291647595085
21
1.19857220834614
31
0
210
0
220
0
230
1
40
0.774573
41
0.649692756139156
42
2.07992256258796
0
ELLIPSE
5
12A
100
AcDbEntity
8
1
62
256
6
ByLayer
370
18
48
1
60
0
100
AcDbEllipse
10
20.469233
20
-18.591396
30
0
11
-2.63680403955182
21
0.59272785362333
31
0
210
0
220
0
230
1
40
0.255808
41
-0.598500912874294
42
0.142989970854297
0
ELLIPSE
5
12B
100
AcDbEntity
8
1
62
256
6
ByLayer
370
18
48
1
60
0
100
AcDbEllipse
10
20.028174
20
-9.663622
30
0
11
-2.29135103078063
21
-1.01920308149855
31
0
210
0
220
0
230
1
40
0.990371
41
-1.79410097773344
42
-0.680306581621785
0
ELLIPSE
5
12C
100
AcDbEntity
8
1
62
256
6
ByLayer
370
18
48
1
60
0
100
AcDbEllipse
10
21.196282
20
-15.65233
30
0
11
4.34112244422441
21
-1.18518181063122
31
0
210
0
220
0
230
1
40
0.073512
41
-2.40105709263897
42
-1.96218052381015
0
ELLIPSE
5
12D
100
AcDbEntity
8
1
62
256
6
ByLayer
370
18
48
1
60
0
100
AcDbEllipse
10
22.355943
20
-11.07998
30
0
11
-2.00779183711467
21
3.32412133782257
31
0
210
0
220
0
230
1
40
0.505057
41
-0.479880756465682
42
-0.18825689294136
0
ELLIPSE
5
12E
100
AcDbEntity
8
1
62
256
6
ByLayer
370
18
48
1
60
0
100
AcDbEllipse
10
25.189722
20
-13.610736
30
0
11
0.222738636074272
21
0.222738636073253
31
0
210
0
220
0
230
1
40
0.989133
41
2.22523715338503
42
2.87159299977608
0
ELLIPSE
5
12F
100
AcDbEntity
8
1
62
256
6
ByLayer
370
18
48
1
60
0
100
AcDbEllipse
10
25.492233
20
-14.761533
30
0
11
0.222738636074272
21
0.222738636073253
31
0
210
0
220
0
230
1
40
0.989133
41
1.17803960218845
42
1.82439544857948
0
ELLIPSE
5
130
100
AcDbEntity
8
1
62
256
6
ByLayer
370
18
48
1
60
0
100
AcDbEllipse
10
25.330071
20
-13.751085
30
0
11
0.222738636074272
21
0.222738636073253
31
0
210
0
220
0
230
1
40
0.989133
41
-2.69843742115028
42
-2.225237153385
0
ELLIPSE
5
131
100
AcDbEntity
8
1
62
256
6
ByLayer
370
18
48
1
60
0
100
AcDbEllipse
10
23.493151
20
-15.307308
30
0
11
0.222738636074272
21
0.222738636073253
31
0
210
0
220
0
230
1
40
0.989133
41
0.269999653813762
42
0.916355500204773
0
ELLIPSE
5
132
100
AcDbEntity
8
1
62
256
6
ByLayer
370
18
48
1
60
0
100
AcDbEllipse
10
25.632581
20
-14.901881
30
0
11
0.222738636074272
21
0.222738636073253
31
0
210
0
220
0
230
1
40
0.989133
41
1.17803960218846
42
1.6512398699537
0
ELLIPSE
5
133
100
AcDbEntity
8
1
62
256
6
ByLayer
370
18
48
1
60
0
100
AcDbEllipse
10
24.179274
20
-13.448574
30
0
11
0.222738636074272
21
0.222738636073253
31
0
210
0
220
0
230
1
40
0.989133
41
-3.01075060259794
42
-2.5375503348327
0
ELLIPSE
5
134
100
AcDbEntity
8
1
62
256
6
ByLayer
370
18
48
1
60
0
100
AcDbEllipse
10
24.481785
20
-14.599371
30
0
11
0.654073772599054
21
0.654073772596059
31
0
210
0
220
0
230
1
40
0.989133
41
-0.146545030788169
42
0.146545030788191
0
ELLIPSE
5
135
100
AcDbEntity
8
1
62
256
6
ByLayer
370
18
48
1
60
0
100
AcDbEllipse
10
24.481785
20
-14.599371
30
0
11
0.654073772599054
21
0.654073772596059
31
0
210
0
220
0
230
1
40
0.989133
41
2.99504762280163
42
-2.9950476228016
0
ELLIPSE
5
136
100
AcDbEntity
8
1
62
256
6
ByLayer
370
18
48
1
60
0
100
AcDbEllipse
10
24.436148
20
-14.553734
30
0
11
-2.26274169980213
21
-2.26274169979178
31
0
210
0
220
0
230
1
40
0.989133
41
0
42
6.28318530717959
0
ELLIPSE
5
137
100
AcDbEntity
8
1
62
256
6
ByLayer
370
18
48
1
60
0
100
AcDbEllipse
10
25.405385
20
-14.347216
30
0
11
-0.205060966544568
21
-0.20506096654363
31
0
210
0
220
0
230
1
40
0.989133
41
1.17803960218843
42
-2.22523715338503
0
ELLIPSE
5
138
100
AcDbEntity
8
1
62
256
6
ByLayer
370
18
48
1
60
0
100
AcDbEllipse
10
24.477283
20
-14.594869
30
0
11
0.636396103069349
21
0.636396103066436
31
0
210
0
220
0
230
1
40
0.989133
41
2.00090307729965
42
2.18788712748675
0
ELLIPSE
5
139
100
AcDbEntity
8
1
62
256
6
ByLayer
370
18
48
1
60
0
100
AcDbEllipse
10
24.22963
20
-15.522971
30
0
11
-0.205060966544568
21
-0.20506096654363
31
0
210
0
220
0
230
1
40
0.989133
41
-0.916355500204752
42
1.96355305140136
0
ELLIPSE
5
13A
100
AcDbEntity
8
1
62
256
6
ByLayer
370
18
48
1
60
0
100
AcDbEllipse
10
24.477283
20
-14.594869
30
0
11
0.636396103069349
21
0.636396103066436
31
0
210
0
220
0
230
1
40
0.989133
41
0.95370552610306
42
1.14068957629016
0
ELLIPSE
5
13B
100
AcDbEntity
8
1
62
256
6
ByLayer
370
18
48
1
60
0
100
AcDbEllipse
10
24.481785
20
-14.599371
30
0
11
-1.34350288425751
21
-1.34350288425137
31
0
210
0
220
0
230
1
40
0.989133
41
0
42
6.28318530717959
0
ELLIPSE
5
13C
100
AcDbEntity
8
1
62
256
6
ByLayer
370
18
48
1
60
0
100
AcDbEllipse
10
25.15323
20
-15.270816
30
0
11
-0.205060966544568
21
-0.20506096654363
31
0
210
0
220
0
230
1
40
0.989133
41
0.130842050991854
42
3.01075060259798
0
ELLIPSE
5
13D
100
AcDbEntity
8
1
62
256
6
ByLayer
370
18
48
1
60
0
100
AcDbEllipse
10
23.633499
20
-15.447656
30
0
11
0.222738636074272
21
0.222738636073253
31
0
210
0
220
0
230
1
40
0.989133
41
-0.916355500204749
42
-0.443155232439525
0
ELLIPSE
5
13E
100
AcDbEntity
8
1
62
256
6
ByLayer
370
18
48
1
60
0
100
AcDbEllipse
10
24.179274
20
-13.448574
30
0
11
0.222738636074272
21
0.222738636073253
31
0
210
0
220
0
230
1
40
0.989133
41
-1.65123986995365
42
-1.17803960218839
0
ELLIPSE
5
13F
100
AcDbEntity
8
1
62
256
6
ByLayer
370
18
48
1
60
0
100
AcDbEllipse
10
24.784296
20
-15.750167
30
0
11
0.222738636074272
21
0.222738636073253
31
0
210
0
220
0
230
1
40
0.989133
41
1.49035278363614
42
1.96355305140137
0
ELLIPSE
5
140
100
AcDbEntity
8
1
62
256
6
ByLayer
370
18
48
1
60
0
100
AcDbEllipse
10
24.481785
20
-14.599371
30
0
11
0.654073772599054
21
0.654073772596059
31
0
210
0
220
0
230
1
40
0.989133
41
1.94785007160503
42
2.24094013318138
0
ELLIPSE
5
141
100
AcDbEntity
8
1
62
256
6
ByLayer
370
18
48
1
60
0
100
AcDbEllipse
10
24.481785
20
-14.599371
30
0
11
0.654073772599054
21
0.654073772596059
31
0
210
0
220
0
230
1
40
0.989133
41
-1.19374258198476
42
-0.900652520408408
0
ELLIPSE
5
142
100
AcDbEntity
8
1
62
256
6
ByLayer
370
18
48
1
60
0
100
AcDbEllipse
10
24.733939
20
-13.67577
30
0
11
-0.205060966544568
21
-0.20506096654363
31
0
210
0
220
0
230
1
40
0.989133
41
2.22523715338503
42
-1.17803960218846
0
ELLIPSE
5
143
100
AcDbEntity
8
1
62
256
6
ByLayer
370
18
48
1
60
0
100
AcDbEllipse
10
24.341437
20
-14.459022
30
0
11
0.636396103069349
21
0.636396103066436
31
0
210
0
220
0
230
1
40
0.989133
41
-3.04810062849622
42
-2.18788712748674
0
ELLIPSE
5
144
100
AcDbEntity
8
1
62
256
6
ByLayer
370
18
48
1
60
0
100
AcDbEllipse
10
24.643947
20
-15.609819
30
0
11
0.222738636074272
21
0.222738636073253
31
0
210
0
220
0
230
1
40
0.989133
41
0.13084205099182
42
0.777197897382854
0
ELLIPSE
5
145
100
AcDbEntity
8
1
62
256
6
ByLayer
370
18
48
1
60
0
100
AcDbEllipse
10
25.632581
20
-14.901881
30
0
11
0.222738636074272
21
0.222738636073253
31
0
210
0
220
0
230
1
40
0.989133
41
2.53755033483273
42
3.01075060259799
0
ELLIPSE
5
146
100
AcDbEntity
8
1
62
256
6
ByLayer
370
18
48
1
60
0
100
AcDbEllipse
10
24.643947
20
-15.609819
30
0
11
0.222738636074272
21
0.222738636073253
31
0
210
0
220
0
230
1
40
0.989133
41
1.31719720501035
42
1.96355305140136
0
ELLIPSE
5
147
100
AcDbEntity
8
1
62
256
6
ByLayer
370
18
48
1
60
0
100
AcDbEllipse
10
23.810339
20
-13.927925
30
0
11
-0.205060966544568
21
-0.20506096654363
31
0
210
0
220
0
230
1
40
0.989133
41
-3.01075060259798
42
-0.13084205099183
0
ELLIPSE
5
148
100
AcDbEntity
8
1
62
256
6
ByLayer
370
18
48
1
60
0
100
AcDbEllipse
10
24.784296
20
-15.750167
30
0
11
0.222738636074272
21
0.222738636073253
31
0
210
0
220
0
230
1
40
0.989133
41
0.13084205099182
42
0.604042318757051
0
ELLIPSE
5
149
100
AcDbEntity
8
1
62
256
6
ByLayer
370
18
48
1
60
0
100
AcDbEllipse
10
24.481785
20
-14.599371
30
0
11
0.654073772599054
21
0.654073772596059
31
0
210
0
220
0
230
1
40
0.989133
41
0.900652520408442
42
1.19374258198479
0
ELLIPSE
5
14A
100
AcDbEntity
8
1
62
256
6
ByLayer
370
18
48
1
60
0
100
AcDbEllipse
10
24.477283
20
-14.594869
30
0
11
0.636396103069349
21
0.636396103066436
31
0
210
0
220
0
230
1
40
0.989133
41
-1.14068957629013
42
-0.953705526103046
0
ELLIPSE
5
14B
100
AcDbEntity
8
1
62
256
6
ByLayer
370
18
48
1
60
0
100
AcDbEllipse
10
25.330071
20
-13.751085
30
0
11
0.222738636074272
21
0.222738636073253
31
0
210
0
220
0
230
1
40
0.989133
41
2.22523715338504
42
2.69843742115028
0
ELLIPSE
5
14C
100
AcDbEntity
8
1
62
256
6
ByLayer
370
18
48
1
60
0
100
AcDbEllipse
10
25.012882
20
-15.130468
30
0
11
-0.205060966544568
21
-0.20506096654363
31
0
210
0
220
0
230
1
40
0.989133
41
0.130842050991823
42
3.01075060259799
0
ELLIPSE
5
14D
100
AcDbEntity
8
1
62
256
6
ByLayer
370
18
48
1
60
0
100
AcDbEllipse
10
24.477283
20
-14.594869
30
0
11
0.636396103069349
21
0.636396103066436
31
0
210
0
220
0
230
1
40
0.989133
41
3.04810062848652
42
-3.04810062849607
0
ELLIPSE
5
14E
100
AcDbEntity
8
1
62
256
6
ByLayer
370
18
48
1
60
0
100
AcDbEllipse
10
23.330988
20
-14.29686
30
0
11
0.222738636074272
21
0.222738636073253
31
0
210
0
220
0
230
1
40
0.989133
41
-1.96355305140136
42
-1.49035278363611
0
ELLIPSE
5
14F
100
AcDbEntity
8
1
62
256
6
ByLayer
370
18
48
1
60
0
100
AcDbEllipse
10
24.477283
20
-14.594869
30
0
11
0.636396103069349
21
0.636396103066436
31
0
210
0
220
0
230
1
40
0.989133
41
-0.093492025103271
42
0.0934920250937048
0
ELLIPSE
5
150
100
AcDbEntity
8
1
62
256
6
ByLayer
370
18
48
1
60
0
100
AcDbEllipse
10
24.341437
20
-14.459022
30
0
11
0.636396103069349
21
0.636396103066436
31
0
210
0
220
0
230
1
40
0.989133
41
-2.00090307729964
42
-1.14068957629013
0
ELLIPSE
5
151
100
AcDbEntity
8
1
62
256
6
ByLayer
370
18
48
1
60
0
100
AcDbEllipse
10
24.477283
20
-14.594869
30
0
11
0.636396103069349
21
0.636396103066436
31
0
210
0
220
0
230
1
40
0.989133
41
-2.18788712749454
42
-2.00090307729456
0
ELLIPSE
5
152
100
AcDbEntity
8
1
62
256
6
ByLayer
370
18
48
1
60
0
100
AcDbEllipse
10
23.330988
20
-14.29686
30
0
11
0.222738636074272
21
0.222738636073253
31
0
210
0
220
0
230
1
40
0.989133
41
-0.604042318757072
42
-0.130842050991808
0
ELLIPSE
5
153
100
AcDbEntity
8
1
62
256
6
ByLayer
370
18
48
1
60
0
100
AcDbEllipse
10
23.633499
20
-15.447656
30
0
11
0.222738636074272
21
0.222738636073253
31
0
210
0
220
0
230
1
40
0.989133
41
0.44315523243955
42
0.916355500204761
0
ELLIPSE
5
154
100
AcDbEntity
8
1
62
256
6
ByLayer
370
18
48
1
60
0
100
AcDbEllipse
10
25.492233
20
-14.761533
30
0
11
0.222738636074272
21
0.222738636073253
31
0
210
0
220
0
230
1
40
0.989133
41
2.36439475620694
42
3.01075060259795
0
ELLIPSE
5
155
100
AcDbEntity
8
1
62
256
6
ByLayer
370
18
48
1
60
0
100
AcDbEllipse
10
24.481785
20
-14.599371
30
0
11
0.654073772599054
21
0.654073772596059
31
0
210
0
220
0
230
1
40
0.989133
41
-2.24094013318137
42
-1.94785007160501
0
ELLIPSE
5
156
100
AcDbEntity
8
1
62
256
6
ByLayer
370
18
48
1
60
0
100
AcDbEllipse
10
23.558184
20
-14.851525
30
0
11
-0.205060966544568
21
-0.20506096654363
31
0
210
0
220
0
230
1
40
0.989133
41
-1.96355305140136
42
0.916355500204779
0
ELLIPSE
5
157
100
AcDbEntity
8
1
62
256
6
ByLayer
370
18
48
1
60
0
100
AcDbEllipse
10
24.341437
20
-14.459022
30
0
11
0.636396103069349
21
0.636396103066436
31
0
210
0
220
0
230
1
40
0.989133
41
-0.953705526103046
42
-0.0934920250935408
0
POINT
5
6C
100
AcDbEntity
8
2
62
256
6
ByLayer
370
18
48
1
60
0
100
AcDbPoint
10
40
20
22
30
0
39
0
210
0
220
0
230
1
50
360
0
POINT
5
6E
100
AcDbEntity
8
80
62
256
6
ByLayer
370
18
48
1
60
0
100
AcDbPoint
10
0
20
0
30
0
39
0
210
0
220
0
230
1
50
360
0
POINT
5
70
100
AcDbEntity
8
81
62
256
6
ByLayer
370
18
48
1
60
0
100
AcDbPoint
10
40
20
-22
30
0
39
0
210
0
220
0
230
1
50
360
0
SPLINE
5
158
100
AcDbEntity
8
SK1
62
256
6
ByLayer
370
18
48
1
60
0
100
AcDbSpline
70
4
71
2
72
6
73
3
40
0
40
0
40
0
40
1
40
1
40
1
41
1
10
-18
20
-10.6074547380105
30
0
41
1
10
-9.84999999997146
20
-10.8121485451078
30
0
41
1
10
-1.69999999999999
20
-11.0168421588455
30
0
0
SPLINE
5
159
100
AcDbEntity
8
SK1
62
256
6
ByLayer
370
18
48
1
60
0
100
AcDbSpline
70
4
71
2
72
6
73
3
40
0
40
0
40
0
40
1
40
1
40
1
41
1
10
-1.69999999999999
20
11.0168420288686
30
0
41
1
10
-9.84999999997146
20
10.8121484207173
30
0
41
1
10
-18
20
10.607454619207
30
0
0
SPLINE
5
15A
100
AcDbEntity
8
SK1
62
256
6
ByLayer
370
18
48
1
60
0
100
AcDbSpline
70
4
71
3
72
13
73
9
40
0
40
0
40
0
40
0
40
0.239457531556361
40
0.36836158374228
40
0.500001014838393
40
0.631640276957066
40
0.760543863357372
40
1
40
1
40
1
40
1
41
1
10
-1.49503997793928
20
10.8251849228641
30
0
41
1
10
-1.52111030873553
20
10.8247832816898
30
0
41
1
10
-1.5588406423482
20
10.8309555342783
30
0
41
1
10
-1.60627712751969
20
10.8539993323472
30
0
41
1
10
-1.63886378681494
20
10.8791666984849
30
0
41
1
10
-1.66563592205242
20
10.9104482477181
30
0
41
1
10
-1.69103284108789
20
10.9566674150535
30
0
41
1
10
-1.69909198644035
20
10.9940399940815
30
0
41
1
10
-1.69999999999999
20
11.0200974665178
30
0
0
SPLINE
5
15B
100
AcDbEntity
8
SK1
62
256
6
ByLayer
370
18
48
1
60
0
100
AcDbSpline
70
4
71
3
72
13
73
9
40
0
40
0
40
0
40
0
40
0.239456136706651
40
0.368359723127323
40
0.499998985252621
40
0.631638416340251
40
0.760542468504853
40
1
40
1
40
1
40
1
41
1
10
-1.69999999999999
20
-11.0200973601888
30
0
41
1
10
-1.69909198644137
20
-10.9940398877345
30
0
41
1
10
-1.69103284108888
20
-10.9566673086801
30
0
41
1
10
-1.6656359220537
20
-10.9104481413092
30
0
41
1
10
-1.63886378681656
20
-10.8791665920526
30
0
41
1
10
-1.60627712752137
20
-10.8539992258965
30
0
41
1
10
-1.55884064235045
20
-10.8309554278117
30
0
41
1
10
-1.5211103087367
20
-10.824783175221
30
0
41
1
10
-1.49503997793928
20
-10.8251848163966
30
0
0
SPLINE
5
15C
100
AcDbEntity
8
SK1
62
256
6
ByLayer
370
18
48
1
60
0
100
AcDbSpline
70
4
71
2
72
6
73
3
40
0
40
0
40
0
40
1
40
1
40
1
41
1
10
-18
20
10.6097644106827
30
0
41
1
10
-18.4999999996377
20
10.3211141428552
30
0
41
1
10
-19
20
10.0324637535503
30
0
0
SPLINE
5
15D
100
AcDbEntity
8
SK1
62
256
6
ByLayer
370
18
48
1
60
0
100
AcDbSpline
70
4
71
2
72
6
73
3
40
0
40
0
40
0
40
1
40
1
40
1
41
1
10
-19
20
-10.0324636942008
30
0
41
1
10
-18.499999999638
20
-10.3211140865704
30
0
41
1
10
-18
20
-10.6097643575036
30
0
0
SPLINE
5
15E
100
AcDbEntity
8
SK1
62
256
6
ByLayer
370
18
48
1
60
0
100
AcDbSpline
70
4
71
2
72
6
73
3
40
0
40
0
40
0
40
1
40
1
40
1
41
1
10
-0.394976888875277
20
10.7560155899517
30
0
41
1
10
-0.945008433407281
20
10.7423064506887
30
0
41
1
10
-1.49503997793928
20
10.7285973110991
30
0
0
SPLINE
5
15F
100
AcDbEntity
8
SK1
62
256
6
ByLayer
370
18
48
1
60
0
100
AcDbSpline
70
4
71
2
72
6
73
3
40
0
40
0
40
0
40
1
40
1
40
1
41
1
10
-1.49503997793928
20
-10.7285972344608
30
0
41
1
10
-0.94500843340731
20
-10.7423063740663
30
0
41
1
10
-0.394976888875306
20
-10.7560155133454
30
0
0
SPLINE
5
160
100
AcDbEntity
8
1
62
256
6
ByLayer
370
18
48
1
60
0
100
AcDbSpline
70
4
71
3
72
10
73
6
40
0
40
0
40
0
40
0
40
0.13107647300265
40
0.13107647300265
40
1
40
1
40
1
40
1
41
1
10
17.1873143961469
20
-17.705089100785
30
0
41
1
10
17.1690296842089
20
-17.6940018287312
30
0
41
1
10
17.1507570698848
20
-17.6827129656866
30
0
41
1
10
17.0103015546262
20
-17.594258551318
30
0
41
1
10
16.8883551268868
20
-17.5075506818425
30
0
41
1
10
16.7705084039904
20
-17.410454132848
30
0
0
SPLINE
5
161
100
AcDbEntity
8
SK1
62
256
6
ByLayer
370
18
48
1
60
0
100
AcDbSpline
70
4
71
3
72
22
73
18
40
0
40
0
40
0
40
0
40
0.0395600313571326
40
0.0395600313571326
40
0.0799315093879157
40
0.0799315093879157
40
0.106876580589741
40
0.106876580589741
40
0.133701048543648
40
0.133701048543648
40
0.176352973010941
40
0.176352973010941
40
0.259356921688957
40
0.259356921688957
40
0.548295527674239
40
0.548295527674239
40
1
40
1
40
1
40
1
41
1
10
-0.394976888875277
20
10.7863556154697
30
0
41
1
10
-0.389702639678632
20
10.7870422282048
30
0
41
1
10
-0.383949255474249
20
10.787901693367
30
0
41
1
10
-0.37134134989364
20
10.7901447377048
30
0
41
1
10
-0.364243586661786
20
10.7915871586324
30
0
41
1
10
-0.352098900524396
20
10.7944788307469
30
0
41
1
10
-0.347036906174168
20
10.7957979077191
30
0
41
1
10
-0.337425084029832
20
10.798522674748
30
0
41
1
10
-0.332766016460425
20
10.7999559337413
30
0
41
1
10
-0.321717088695209
20
10.8035790811787
30
0
41
1
10
-0.315694378191637
20
10.8057810587444
30
0
41
1
10
-0.300169598666315
20
10.8118410319123
30
0
41
1
10
-0.292195204421006
20
10.8154752639726
30
0
41
1
10
-0.261918491650448
20
10.8302075808718
30
0
41
1
10
-0.249810830339072
20
10.8386591321433
30
0
41
1
10
-0.224322469962232
20
10.8569180764323
30
0
41
1
10
-0.214796829338525
20
10.8650247494481
30
0
41
1
10
-0.208974318378182
20
10.8707982119589
30
0
0
SPLINE
5
162
100
AcDbEntity
8
SK1
62
256
6
ByLayer
370
18
48
1
60
0
100
AcDbSpline
70
4
71
3
72
114
73
110
40
0
40
0
40
0
40
0
40
0.0016971436390801
40
0.0057942553253114
40
0.0098913670115426
40
0.0180855903840051
40
0.0262798137564676
40
0.0344740371289301
40
0.0426682605013926
40
0.0508624838738551
40
0.0590567072463176
40
0.0672509306187801
40
0.0754451539912426
40
0.0836393773637051
40
0.0918336007361676
40
0.10002782410863
40
0.108222047481093
40
0.116416270853555
40
0.124610494226018
40
0.13280471759848
40
0.140998940970943
40
0.149193164343405
40
0.16558161108833
40
0.181970057833255
40
0.19835850457818
40
0.214746951323105
40
0.222941174695568
40
0.23113539806803
40
0.239329621440492
40
0.247523844812955
40
0.255718068185417
40
0.26391229155788
40
0.272106514930342
40
0.280300738302805
40
0.288494961675268
40
0.29668918504773
40
0.304883408420193
40
0.313077631792655
40
0.321271855165117
40
0.32946607853758
40
0.337660301910042
40
0.345854525282505
40
0.354048748654967
40
0.36224297202743
40
0.378631418772355
40
0.39501986551728
40
0.403214088889742
40
0.411408312262205
40
0.419602535634667
40
0.42779675900713
40
0.435990982379592
40
0.444185205752055
40
0.452379429124517
40
0.46057365249698
40
0.476962099241905
40
0.49335054598683
40
0.501544769359292
40
0.509738992731755
40
0.517933216104217
40
0.52612743947668
40
0.534321662849142
40
0.542515886221605
40
0.550710109594067
40
0.55890433296653
40
0.575292779711455
40
0.59168122645638
40
0.599875449828842
40
0.608069673201305
40
0.616263896573767
40
0.62445811994623
40
0.632652343318692
40
0.640846566691155
40
0.649040790063617
40
0.65723501343608
40
0.673623460181005
40
0.69001190692593
40
0.698206130298392
40
0.706400353670855
40
0.714594577043317
40
0.72278880041578
40
0.730983023788242
40
0.739177247160705
40
0.747371470533167
40
0.75556569390563
40
0.763759917278092
40
0.771954140650555
40
0.780148364023017
40
0.78834258739548
40
0.796536810767942
40
0.804731034140405
40
0.812925257512867
40
0.82111948088533
40
0.829313704257792
40
0.837507927630255
40
0.845702151002717
40
0.85389637437518
40
0.870284821120105
40
0.878479044492567
40
0.88667326786503
40
0.894867491237492
40
0.903061714609955
40
0.91945016135488
40
0.935838608099805
40
0.952227054844729
40
0.968615501589655
40
0.976809724962117
40
0.985003948334579
40
0.993198171707042
40
1
40
1
40
1
40
1
41
1
10
-1.69999999999999
20
2.34751168175015
30
0
41
1
10
-1.69999999999999
20
2.35621957733798
30
0
41
1
10
-1.69999999999999
20
2.38592944625574
30
0
41
1
10
-1.69999999999999
20
2.43652877485599
30
0
41
1
10
-1.69999999999999
20
2.52010001413041
30
0
41
1
10
-1.69999999999999
20
2.62409374349514
30
0
41
1
10
-1.69999999999999
20
2.74807047639385
30
0
41
1
10
-1.69999999999999
20
2.8712390381817
30
0
41
1
10
-1.69999999999999
20
2.99359419383882
30
0
41
1
10
-1.69999999999999
20
3.115131944757
30
0
41
1
10
-1.69999999999999
20
3.23584791746734
30
0
41
1
10
-1.69999999999999
20
3.35573880021465
30
0
41
1
10
-1.69999999999999
20
3.47480199284001
30
0
41
1
10
-1.69999999999999
20
3.59303526241621
30
0
41
1
10
-1.69999999999999
20
3.71043643743553
30
0
41
1
10
-1.69999999999999
20
3.82700351079481
30
0
41
1
10
-1.69999999999999
20
3.94273451640885
30
0
41
1
10
-1.69999999999999
20
4.05762829513469
30
0
41
1
10
-1.69999999999999
20
4.17168365277391
30
0
41
1
10
-1.69999999999999
20
4.28489934734066
30
0
41
1
10
-1.69999999999999
20
4.39727377856164
30
0
41
1
10
-1.69999999999999
20
4.54596815109079
30
0
41
1
10
-1.69999999999999
20
4.7297623506839
30
0
41
1
10
-1.69999999999999
20
4.94691859926491
30
0
41
1
10
-1.69999999999999
20
5.16068767245523
30
0
41
1
10
-1.69999999999999
20
5.33601327110074
30
0
41
1
10
-1.69999999999999
20
5.4745489994917
30
0
41
1
10
-1.69999999999999
20
5.57760868171394
30
0
41
1
10
-1.69999999999999
20
5.67981550565051
30
0
41
1
10
-1.69999999999999
20
5.78116852113126
30
0
41
1
10
-1.69999999999999
20
5.88166659485614
30
0
41
1
10
-1.69999999999999
20
5.98130841102724
30
0
41
1
10
-1.69999999999999
20
6.08009291387742
30
0
41
1
10
-1.69999999999999
20
6.17801857115037
30
0
41
1
10
-1.69999999999999
20
6.27508411030436
30
0
41
1
10
-1.69999999999999
20
6.37128816532112
30
0
41
1
10
-1.69999999999999
20
6.46662903768907
30
0
41
1
10
-1.69999999999999
20
6.56110534348878
30
0
41
1
10
-1.69999999999999
20
6.65471546144812
30
0
41
1
10
-1.69999999999999
20
6.74745756863808
30
0
41
1
10
-1.69999999999999
20
6.83933013294538
30
0
41
1
10
-1.69999999999999
20
6.93033107540649
30
0
41
1
10
-1.69999999999999
20
7.02045851391139
30
0
41
1
10
-1.69999999999999
20
7.13945161440037
30
0
41
1
10
-1.69999999999999
20
7.28602036791514
30
0
41
1
10
-1.69999999999999
20
7.42964987262871
30
0
41
1
10
-1.69999999999999
20
7.54276400792273
30
0
41
1
10
-1.69999999999999
20
7.62671723619306
30
0
41
1
10
-1.69999999999999
20
7.70977880868625
30
0
41
1
10
-1.69999999999999
20
7.79194597495291
30
0
41
1
10
-1.69999999999999
20
7.87321638075602
30
0
41
1
10
-1.69999999999999
20
7.95358681402573
30
0
41
1
10
-1.69999999999999
20
8.0330544688868
30
0
41
1
10
-1.69999999999999
20
8.13779570521024
30
0
41
1
10
-1.69999999999999
20
8.26646747522287
30
0
41
1
10
-1.69999999999999
20
8.39208804491184
30
0
41
1
10
-1.69999999999999
20
8.49072596407868
30
0
41
1
10
-1.69999999999999
20
8.56378400031386
30
0
41
1
10
-1.69999999999999
20
8.63591214139896
30
0
41
1
10
-1.69999999999999
20
8.70710645983874
30
0
41
1
10
-1.69999999999999
20
8.77736340151236
30
0
41
1
10
-1.69999999999999
20
8.84667843706413
30
0
41
1
10
-1.69999999999999
20
8.91504748954583
30
0
41
1
10
-1.69999999999999
20
9.00493246986304
30
0
41
1
10
-1.69999999999999
20
9.11491647650138
30
0
41
1
10
-1.69999999999999
20
9.22168702931728
30
0
41
1
10
-1.69999999999999
20
9.30514376314053
30
0
41
1
10
-1.69999999999999
20
9.36676192571935
30
0
41
1
10
-1.69999999999999
20
9.42739550269755
30
0
41
1
10
-1.69999999999999
20
9.48703891782515
30
0
41
1
10
-1.69999999999999
20
9.54568702498426
30
0
41
1
10
-1.69999999999999
20
9.60333355436057
30
0
41
1
10
-1.69999999999999
20
9.65997270948603
30
0
41
1
10
-1.69999999999999
20
9.73413470277157
30
0
41
1
10
-1.69999999999999
20
9.82429996242755
30
0
41
1
10
-1.69999999999999
20
9.91102209624654
30
0
41
1
10
-1.69999999999999
20
9.9782962601187
30
0
41
1
10
-1.69999999999999
20
10.0277015194443
30
0
41
1
10
-1.69999999999999
20
10.0760448746501
30
0
41
1
10
-1.69999999999999
20
10.1233184572166
30
0
41
1
10
-1.69999999999999
20
10.1695147015167
30
0
41
1
10
-1.69999999999999
20
10.214624938185
30
0
41
1
10
-1.69999999999999
20
10.2586409300894
30
0
41
1
10
-1.69999999999999
20
10.3015538731596
30
0
41
1
10
-1.69999999999999
20
10.3433544952797
30
0
41
1
10
-1.69999999999999
20
10.3840336911891
30
0
41
1
10
-1.69999999999999
20
10.4235819208782
30
0
41
1
10
-1.69999999999999
20
10.4619889454751
30
0
41
1
10
-1.69999999999999
20
10.4992449917908
30
0
41
1
10
-1.69999999999999
20
10.5353389668746
30
0
41
1
10
-1.69999999999999
20
10.5702601801729
30
0
41
1
10
-1.69999999999999
20
10.6039972784095
30
0
41
1
10
-1.69999999999999
20
10.6365384804889
30
0
41
1
10
-1.69999999999999
20
10.6678717210084
30
0
41
1
10
-1.69999999999999
20
10.6979846325427
30
0
41
1
10
-1.69999999999999
20
10.7364870112034
30
0
41
1
10
-1.69999999999999
20
10.7725058156908
30
0
41
1
10
-1.69999999999999
20
10.8059645321906
30
0
41
1
10
-1.69999999999999
20
10.8297709184935
30
0
41
1
10
-1.69999999999999
20
10.8522711614578
30
0
41
1
10
-1.69999999999999
20
10.8805066448562
30
0
41
1
10
-1.69999999999999
20
10.9124599417153
30
0
41
1
10
-1.69999999999999
20
10.9453046900679
30
0
41
1
10
-1.69999999999999
20
10.9724987368511
30
0
41
1
10
-1.69999999999999
20
10.9903135336491
30
0
41
1
10
-1.69999999999999
20
11.0015624988159
30
0
41
1
10
-1.69999999999999
20
11.0084752989365
30
0
41
1
10
-1.70000000000002
20
11.0135338002868
30
0
41
1
10
-1.70000000000002
20
11.0159248555091
30
0
41
1
10
-1.70000000000002
20
11.016825681572
30
0
0
SPLINE
5
163
100
AcDbEntity
8
SK1
62
256
6
ByLayer
370
18
48
1
60
0
100
AcDbSpline
70
4
71
3
72
113
73
109
40
0
40
0
40
0
40
0
40
0.0068017930499769
40
0.0149960167388245
40
0.023190240427672
40
0.0313844641165196
40
0.0477729114942147
40
0.0641613588719098
40
0.0805498062496049
40
0.0969382536273
40
0.105132477316148
40
0.113326701004995
40
0.121520924693843
40
0.12971514838269
40
0.146103595760385
40
0.154297819449233
40
0.16249204313808
40
0.170686266826928
40
0.178880490515776
40
0.187074714204623
40
0.195268937893471
40
0.203463161582318
40
0.211657385271166
40
0.219851608960013
40
0.228045832648861
40
0.236240056337709
40
0.244434280026556
40
0.252628503715404
40
0.260822727404251
40
0.269016951093099
40
0.277211174781946
40
0.285405398470794
40
0.293599622159641
40
0.301793845848489
40
0.309988069537336
40
0.326376516915032
40
0.342764964292727
40
0.350959187981574
40
0.359153411670422
40
0.367347635359269
40
0.375541859048117
40
0.383736082736965
40
0.391930306425812
40
0.40012453011466
40
0.408318753803507
40
0.424707201181202
40
0.441095648558897
40
0.449289872247745
40
0.457484095936593
40
0.46567831962544
40
0.473872543314288
40
0.482066767003135
40
0.490260990691983
40
0.49845521438083
40
0.506649438069678
40
0.523037885447373
40
0.539426332825068
40
0.547620556513916
40
0.555814780202763
40
0.564009003891611
40
0.572203227580458
40
0.580397451269306
40
0.588591674958153
40
0.596785898647001
40
0.604980122335849
40
0.621368569713544
40
0.637757017091239
40
0.645951240780086
40
0.654145464468934
40
0.662339688157781
40
0.670533911846629
40
0.678728135535477
40
0.686922359224324
40
0.695116582913172
40
0.703310806602019
40
0.711505030290867
40
0.719699253979714
40
0.727893477668562
40
0.736087701357409
40
0.744281925046257
40
0.752476148735105
40
0.760670372423952
40
0.7688645961128
40
0.777058819801647
40
0.785253043490495
40
0.80164149086819
40
0.818029938245885
40
0.83441838562358
40
0.850806833001275
40
0.86719528037897
40
0.875389504067818
40
0.883583727756665
40
0.891777951445513
40
0.899972175134361
40
0.908166398823208
40
0.916360622512056
40
0.924554846200903
40
0.932749069889751
40
0.940943293578598
40
0.949137517267446
40
0.957331740956293
40
0.965525964645141
40
0.973720188333989
40
0.981914412022836
40
0.990108635711684
40
0.994205747556107
40
0.998302859400531
40
1
40
1
40
1
40
1
41
1
10
-1.69999999999996
20
-11.0168257861352
30
0
41
1
10
-1.69999999999996
20
-11.0159250073685
30
0
41
1
10
-1.70000000000002
20
-11.0135340498835
30
0
41
1
10
-1.69999999999999
20
-11.0084756345047
30
0
41
1
10
-1.69999999999999
20
-11.0015627517285
30
0
41
1
10
-1.69999999999999
20
-10.9903135656216
30
0
41
1
10
-1.69999999999999
20
-10.9724987271428
30
0
41
1
10
-1.69999999999999
20
-10.9453046871603
30
0
41
1
10
-1.69999999999999
20
-10.9124599273338
30
0
41
1
10
-1.69999999999999
20
-10.8805066572373
30
0
41
1
10
-1.69999999999999
20
-10.8522711554431
30
0
41
1
10
-1.69999999999999
20
-10.8297709040831
30
0
41
1
10
-1.69999999999999
20
-10.805964526766
30
0
41
1
10
-1.69999999999999
20
-10.7725058279894
30
0
41
1
10
-1.69999999999999
20
-10.7364870109124
30
0
41
1
10
-1.69999999999999
20
-10.6979846247737
30
0
41
1
10
-1.69999999999999
20
-10.667871716058
30
0
41
1
10
-1.69999999999999
20
-10.6365384864303
30
0
41
1
10
-1.69999999999999
20
-10.6039972898543
30
0
41
1
10
-1.69999999999999
20
-10.5702601848038
30
0
41
1
10
-1.69999999999999
20
-10.5353389624728
30
0
41
1
10
-1.69999999999999
20
-10.4992449887466
30
0
41
1
10
-1.69999999999999
20
-10.4619889498579
30
0
41
1
10
-1.69999999999999
20
-10.4235819316408
30
0
41
1
10
-1.69999999999999
20
-10.3840337022625
30
0
41
1
10
-1.69999999999999
20
-10.3433544990447
30
0
41
1
10
-1.69999999999999
20
-10.3015538720295
30
0
41
1
10
-1.69999999999999
20
-10.2586409327216
30
0
41
1
10
-1.69999999999999
20
-10.2146249480068
30
0
41
1
10
-1.69999999999999
20
-10.1695147146772
30
0
41
1
10
-1.69999999999999
20
-10.1233184687774
30
0
41
1
10
-1.69999999999999
20
-10.0760448810433
30
0
41
1
10
-1.69999999999999
20
-10.027701522966
30
0
41
1
10
-1.69999999999999
20
-9.97829626766935
30
0
41
1
10
-1.69999999999999
20
-9.91102211065424
30
0
41
1
10
-1.69999999999999
20
-9.8242999772026
30
0
41
1
10
-1.69999999999999
20
-9.73413471042332
30
0
41
1
10
-1.69999999999999
20
-9.65997272044626
30
0
41
1
10
-1.69999999999999
20
-9.60333356924752
30
0
41
1
10
-1.69999999999999
20
-9.54568704168656
30
0
41
1
10
-1.69999999999999
20
-9.48703893408199
30
0
41
1
10
-1.69999999999999
20
-9.42739551695706
30
0
41
1
10
-1.69999999999999
20
-9.36676193872179
30
0
41
1
10
-1.69999999999999
20
-9.3051437774476
30
0
41
1
10
-1.69999999999999
20
-9.22168704652844
30
0
41
1
10
-1.69999999999999
20
-9.11491649636679
30
0
41
1
10
-1.69999999999999
20
-9.00493248750243
30
0
41
1
10
-1.69999999999999
20
-8.9150475069234
30
0
41
1
10
-1.69999999999999
20
-8.8466784551658
30
0
41
1
10
-1.69999999999999
20
-8.77736342146704
30
0
41
1
10
-1.69999999999999
20
-8.707106481632
30
0
41
1
10
-1.69999999999999
20
-8.63591216394966
30
0
41
1
10
-1.69999999999999
20
-8.56378402232568
30
0
41
1
10
-1.69999999999999
20
-8.49072598449763
30
0
41
1
10
-1.69999999999999
20
-8.39208806457802
30
0
41
1
10
-1.69999999999999
20
-8.26646749990718
30
0
41
1
10
-1.69999999999999
20
-8.13779573224099
30
0
41
1
10
-1.69999999999999
20
-8.0330544924083
30
0
41
1
10
-1.69999999999999
20
-7.95358683542918
30
0
41
1
10
-1.69999999999999
20
-7.87321640404122
30
0
41
1
10
-1.69999999999999
20
-7.79194600202328
30
0
41
1
10
-1.69999999999999
20
-7.70977883874548
30
0
41
1
10
-1.69999999999999
20
-7.62671726605944
30
0
41
1
10
-1.69999999999999
20
-7.54276403355829
30
0
41
1
10
-1.69999999999999
20
-7.42964989475425
30
0
41
1
10
-1.69999999999999
20
-7.28602039903603
30
0
41
1
10
-1.69999999999999
20
-7.13945164867536
30
0
41
1
10
-1.69999999999999
20
-7.0204585412456
30
0
41
1
10
-1.69999999999999
20
-6.93033109954712
30
0
41
1
10
-1.69999999999999
20
-6.83933016168689
30
0
41
1
10
-1.69999999999999
20
-6.74745760354551
30
0
41
1
10
-1.69999999999999
20
-6.6547154979545
30
0
41
1
10
-1.69999999999999
20
-6.56110537660942
30
0
41
1
10
-1.69999999999999
20
-6.46662906510224
30
0
41
1
10
-1.69999999999999
20
-6.37128819193615
30
0
41
1
10
-1.69999999999999
20
-6.27508414397229
30
0
41
1
10
-1.69999999999999
20
-6.17801861138651
30
0
41
1
10
-1.69999999999999
20
-6.08009295106382
30
0
41
1
10
-1.69999999999999
20
-5.98130844183515
30
0
41
1
10
-1.69999999999999
20
-5.88166662352432
30
0
41
1
10
-1.69999999999999
20
-5.7811685540097
30
0
41
1
10
-1.69999999999999
20
-5.67981554633886
30
0
41
1
10
-1.69999999999999
20
-5.57760872375084
30
0
41
1
10
-1.69999999999999
20
-5.47454903301667
30
0
41
1
10
-1.69999999999999
20
-5.33601329758696
30
0
41
1
10
-1.69999999999999
20
-5.16068772031301
30
0
41
1
10
-1.69999999999999
20
-4.94691863630067
30
0
41
1
10
-1.69999999999999
20
-4.72976236922625
30
0
41
1
10
-1.69999999999999
20
-4.50922638794762
30
0
41
1
10
-1.69999999999999
20
-4.32262158144502
30
0
41
1
10
-1.69999999999999
20
-4.171683851729
30
0
41
1
10
-1.69999999999999
20
-4.05762856057325
30
0
41
1
10
-1.69999999999999
20
-3.94273458524899
30
0
41
1
10
-1.69999999999999
20
-3.82700345953037
30
0
41
1
10
-1.69999999999999
20
-3.71043651779695
30
0
41
1
10
-1.69999999999999
20
-3.59303544152357
30
0
41
1
10
-1.69999999999999
20
-3.47480210546812
30
0
41
1
10
-1.69999999999999
20
-3.3557387899657
30
0
41
1
10
-1.69999999999999
20
-3.23584780039647
30
0
41
1
10
-1.69999999999999
20
-3.11513187517292
30
0
41
1
10
-1.69999999999999
20
-2.993594380779
30
0
41
1
10
-1.69999999999999
20
-2.87123918356852
30
0
41
1
10
-1.69999999999999
20
-2.74807054514892
30
0
41
1
10
-1.69999999999999
20
-2.62409378657779
30
0
41
1
10
-1.69999999999999
20
-2.52010006268682
30
0
41
1
10
-1.69999999999999
20
-2.43652882976181
30
0
41
1
10
-1.69999999999999
20
-2.38592951909064
30
0
41
1
10
-1.69999999999999
20
-2.35621966593379
30
0
41
1
10
-1.69999999999999
20
-2.34751178615289
30
0
0
SPLINE
5
164
100
AcDbEntity
8
SK1
62
256
6
ByLayer
370
18
48
1
60
0
100
AcDbSpline
70
4
71
3
72
282
73
278
40
0
40
0
40
0
40
0
40
0.0005689123871843
40
0.0040614382028076
40
0.0075539640184309
40
0.0110464898340543
40
0.0145390156496776
40
0.0180315414653009
40
0.0215240672809242
40
0.0250165930965475
40
0.0320016447277942
40
0.0389866963590408
40
0.0459717479902876
40
0.0529567996215342
40
0.0564493254371575
40
0.0599418512527808
40
0.0634343770684041
40
0.0669269028840275
40
0.0739119545152741
40
0.0774044803308974
40
0.0808970061465207
40
0.0843895319621441
40
0.0878820577777675
40
0.0913745835933908
40
0.0948671094090141
40
0.0983596352246374
40
0.101852161040261
40
0.105344686855884
40
0.108837212671507
40
0.112329738487131
40
0.115822264302754
40
0.119314790118377
40
0.122807315934001
40
0.126299841749624
40
0.129792367565247
40
0.133284893380871
40
0.136777419196494
40
0.140269945012117
40
0.14376247082774
40
0.150747522458987
40
0.157732574090234
40
0.161225099905857
40
0.164717625721481
40
0.168210151537104
40
0.171702677352727
40
0.17519520316835
40
0.178687728983974
40
0.182180254799597
40
0.18567278061522
40
0.192657832246467
40
0.199642883877714
40
0.203135409693337
40
0.20662793550896
40
0.210120461324584
40
0.213612987140207
40
0.21710551295583
40
0.220598038771454
40
0.224090564587077
40
0.227583090402701
40
0.234568142033947
40
0.241553193665194
40
0.245045719480817
40
0.248538245296441
40
0.252030771112064
40
0.255523296927687
40
0.25901582274331
40
0.262508348558934
40
0.266000874374557
40
0.26949340019018
40
0.276478451821427
40
0.283463503452674
40
0.286956029268297
40
0.29044855508392
40
0.293941080899544
40
0.297433606715167
40
0.30092613253079
40
0.304418658346414
40
0.307911184162037
40
0.31140370997766
40
0.314896235793284
40
0.318388761608907
40
0.32188128742453
40
0.325373813240154
40
0.328866339055777
40
0.3323588648714
40
0.335851390687024
40
0.339343916502647
40
0.34283644231827
40
0.346328968133894
40
0.35331401976514
40
0.360299071396387
40
0.367284123027634
40
0.37426917465888
40
0.381254226290127
40
0.38474675210575
40
0.388239277921374
40
0.391731803736997
40
0.39522432955262
40
0.398716855368243
40
0.402209381183867
40
0.40570190699949
40
0.409194432815113
40
0.412686958630737
40
0.41617948444636
40
0.419672010261983
40
0.423164536077607
40
0.42665706189323
40
0.430149587708853
40
0.433642113524477
40
0.435388376432288
40
0.4371346393401
40
0.440627165155723
40
0.444119690971347
40
0.44761221678697
40
0.451104742602593
40
0.454597268418217
40
0.45808979423384
40
0.461582320049463
40
0.465074845865087
40
0.466821108772898
40
0.46856737168071
40
0.470313634588522
40
0.472059897496333
40
0.473806160404145
40
0.475552423311957
40
0.477298686219768
40
0.47904494912758
40
0.480791212035392
40
0.482537474943203
40
0.484283737851015
40
0.486030000758827
40
0.487776263666638
40
0.48952252657445
40
0.491268789482262
40
0.493015052390073
40
0.494761315297885
40
0.496507578205697
40
0.498253841113508
40
0.50000010402132
40
0.501746366929132
40
0.503492629836943
40
0.505238892744755
40
0.506985155652567
40
0.508731418560378
40
0.51047768146819
40
0.512223944376002
40
0.513970207283813
40
0.515716470191625
40
0.517462733099436
40
0.519208996007248
40
0.52095525891506
40
0.522701521822872
40
0.524447784730683
40
0.526194047638495
40
0.527940310546307
40
0.529686573454118
40
0.53143283636193
40
0.533179099269742
40
0.534925362177553
40
0.538417887993177
40
0.5419104138088
40
0.545402939624423
40
0.548895465440046
40
0.55238799125567
40
0.555880517071293
40
0.559373042886917
40
0.56286556870254
40
0.564611831610352
40
0.566358094518163
40
0.569850620333787
40
0.57334314614941
40
0.576835671965033
40
0.580328197780656
40
0.58382072359628
40
0.587313249411903
40
0.590805775227527
40
0.59429830104315
40
0.597790826858773
40
0.601283352674397
40
0.60477587849002
40
0.608268404305643
40
0.611760930121267
40
0.61525345593689
40
0.618745981752513
40
0.622238507568137
40
0.62573103338376
40
0.632716085015006
40
0.639701136646253
40
0.6466861882775
40
0.653671239908747
40
0.65716376572437
40
0.660656291539993
40
0.664148817355616
40
0.66764134317124
40
0.671133868986863
40
0.674626394802486
40
0.67811892061811
40
0.681611446433733
40
0.685103972249356
40
0.68859649806498
40
0.692089023880603
40
0.695581549696226
40
0.69907407551185
40
0.702566601327473
40
0.706059127143096
40
0.70955165295872
40
0.713044178774343
40
0.716536704589966
40
0.723521756221213
40
0.73050680785246
40
0.733999333668083
40
0.737491859483706
40
0.74098438529933
40
0.744476911114953
40
0.747969436930576
40
0.7514619627462
40
0.754954488561823
40
0.758447014377446
40
0.765432066008693
40
0.77241711763994
40
0.775909643455563
40
0.779402169271186
40
0.78289469508681
40
0.786387220902433
40
0.789879746718056
40
0.79337227253368
40
0.796864798349303
40
0.800357324164926
40
0.807342375796173
40
0.814327427427419
40
0.817819953243043
40
0.821312479058666
40
0.824805004874289
40
0.828297530689913
40
0.831790056505536
40
0.835282582321159
40
0.838775108136783
40
0.842267633952406
40
0.849252685583653
40
0.856237737214899
40
0.859730263030523
40
0.863222788846146
40
0.866715314661769
40
0.870207840477393
40
0.873700366293016
40
0.877192892108639
40
0.880685417924263
40
0.884177943739886
40
0.887670469555509
40
0.891162995371133
40
0.894655521186756
40
0.898148047002379
40
0.901640572818003
40
0.905133098633626
40
0.908625624449249
40
0.912118150264873
40
0.915610676080496
40
0.919103201896119
40
0.922595727711743
40
0.926088253527366
40
0.933073305158613
40
0.936565830974236
40
0.940058356789859
40
0.943550882605482
40
0.947043408421106
40
0.954028460052353
40
0.961013511683599
40
0.967998563314846
40
0.974983614946093
40
0.978476140761716
40
0.981968666577339
40
0.985461192392962
40
0.988953718208586
40
0.992446244024209
40
0.995938769839832
40
0.999431295655456
40
1
40
1
40
1
40
1
41
1
10
-18
20
-10.6091545240919
30
0
41
1
10
-18
20
-10.6092716862033
30
0
41
1
10
-18
20
-10.6100564433608
30
0
41
1
10
-18
20
-10.6108321487841
30
0
41
1
10
-18
20
-10.6103050545653
30
0
41
1
10
-18
20
-10.6082029915013
30
0
41
1
10
-18
20
-10.6045523963069
30
0
41
1
10
-18
20
-10.599378203272
30
0
41
1
10
-18
20
-10.592703758728
30
0
41
1
10
-18
20
-10.5818120868309
30
0
41
1
10
-18
20
-10.5646169538388
30
0
41
1
10
-18
20
-10.5383008597592
30
0
41
1
10
-18
20
-10.5064892630525
30
0
41
1
10
-18
20
-10.4755678718975
30
0
41
1
10
-18
20
-10.4481323745122
30
0
41
1
10
-18
20
-10.4263041000347
30
0
41
1
10
-18
20
-10.4032013384501
30
0
41
1
10
-18
20
-10.3706596194956
30
0
41
1
10
-18
20
-10.3358095061466
30
0
41
1
10
-18
20
-10.2983352374592
30
0
41
1
10
-18
20
-10.2690719430376
30
0
41
1
10
-18
20
-10.2386154287957
30
0
41
1
10
-18
20
-10.2069776298432
30
0
41
1
10
-18
20
-10.1741699954592
30
0
41
1
10
-18
20
-10.1402037904431
30
0
41
1
10
-18
20
-10.1050900859652
30
0
41
1
10
-18
20
-10.0688389854125
30
0
41
1
10
-18
20
-10.0314612838791
30
0
41
1
10
-18
20
-9.99296651357056
30
0
41
1
10
-18
20
-9.95336440120047
30
0
41
1
10
-18
20
-9.91266446512716
30
0
41
1
10
-18
20
-9.87087543598923
30
0
41
1
10
-18
20
-9.82800620980919
30
0
41
1
10
-18
20
-9.7840656391997
30
0
41
1
10
-18
20
-9.73906158174464
30
0
41
1
10
-18
20
-9.69300262436195
30
0
41
1
10
-18
20
-9.64589640582304
30
0
41
1
10
-18
20
-9.59775041693439
30
0
41
1
10
-18
20
-9.53207738577578
30
0
41
1
10
-18
20
-9.44765448811151
30
0
41
1
10
-18
20
-9.3598674920926
30
0
41
1
10
-18
20
-9.28744513847656
30
0
41
1
10
-18
20
-9.23221919243571
30
0
41
1
10
-18
20
-9.17600808045955
30
0
41
1
10
-18
20
-9.11881724129319
30
0
41
1
10
-18
20
-9.06065321078685
30
0
41
1
10
-18
20
-9.00152153550755
30
0
41
1
10
-18
20
-8.94142744136704
30
0
41
1
10
-18
20
-8.8599036769107
30
0
41
1
10
-18
20
-8.75589867127121
30
0
41
1
10
-18
20
-8.64876093189611
30
0
41
1
10
-18
20
-8.56095254151674
30
0
41
1
10
-18
20
-8.49426810443586
30
0
41
1
10
-18
20
-8.42666168347023
30
0
41
1
10
-18
20
-8.35813713243078
30
0
41
1
10
-18
20
-8.28869946906789
30
0
41
1
10
-18
20
-8.21835292520672
30
0
41
1
10
-18
20
-8.14710122037499
30
0
41
1
10
-18
20
-8.05075300914629
30
0
41
1
10
-18
20
-7.92840576311144
30
0
41
1
10
-18
20
-7.80309792535269
30
0
41
1
10
-18
20
-7.70081044177078
30
0
41
1
10
-18
20
-7.62333369313473
30
0
41
1
10
-18
20
-7.54498258382409
30
0
41
1
10
-18
20
-7.4657598851355
30
0
41
1
10
-18
20
-7.3856695958325
30
0
41
1
10
-18
20
-7.30471500134038
30
0
41
1
10
-18
20
-7.22289886113486
30
0
41
1
10
-18
20
-7.11249590401042
30
0
41
1
10
-18
20
-6.97274644349409
30
0
41
1
10
-18
20
-6.83016814404567
30
0
41
1
10
-18
20
-6.71409024311311
30
0
41
1
10
-18
20
-6.62633156228856
30
0
41
1
10
-18
20
-6.53773585931214
30
0
41
1
10
-18
20
-6.44830547511722
30
0
41
1
10
-18
20
-6.35804369451674
30
0
41
1
10
-18
20
-6.26695324021441
30
0
41
1
10
-18
20
-6.17503665947791
30
0
41
1
10
-18
20
-6.08229713807037
30
0
41
1
10
-18
20
-5.98873702476692
30
0
41
1
10
-18
20
-5.89435903702207
30
0
41
1
10
-18
20
-5.79916633117398
30
0
41
1
10
-18
20
-5.70316110146723
30
0
41
1
10
-18
20
-5.60634650403392
30
0
41
1
10
-18
20
-5.50872532385606
30
0
41
1
10
-18
20
-5.41030024314784
30
0
41
1
10
-18
20
-5.31107465945468
30
0
41
1
10
-18
20
-5.21105054825134
30
0
41
1
10
-18
20
-5.07638404339966
30
0
41
1
10
-18
20
-4.9066349784587
30
0
41
1
10
-18
20
-4.69948157884701
30
0
41
1
10
-18
20
-4.48921424352019
30
0
41
1
10
-18
20
-4.27586319348595
30
0
41
1
10
-18
20
-4.09581338934953
30
0
41
1
10
-18
20
-3.94972228937704
30
0
41
1
10
-18
20
-3.83964277700957
30
0
41
1
10
-18
20
-3.72882077112345
30
0
41
1
10
-18
20
-3.61726252861362
30
0
41
1
10
-18
20
-3.5049748957627
30
0
41
1
10
-18
20
-3.39196471421937
30
0
41
1
10
-18
20
-3.27823925856785
30
0
41
1
10
-18
20
-3.16380725793991
30
0
41
1
10
-18
20
-3.04867846612532
30
0
41
1
10
-18
20
-2.93286234661062
30
0
41
1
10
-18
20
-2.81636932516912
30
0
41
1
10
-18
20
-2.69921228427648
30
0
41
1
10
-18
20
-2.58140420660004
30
0
41
1
10
-18
20
-2.46295993427742
30
0
41
1
10
-18
20
-2.36395709248046
30
0
41
1
10
-18
20
-2.2840420412912
30
0
41
1
10
-18
20
-2.20393499577068
30
0
41
1
10
-18
20
-2.10398013562451
30
0
41
1
10
-18
20
-1.98317122682141
30
0
41
1
10
-18
20
-1.86182470164047
30
0
41
1
10
-18
20
-1.73996869594836
30
0
41
1
10
-18
20
-1.61763140130913
30
0
41
1
10
-18
20
-1.49484387929499
30
0
41
1
10
-18
20
-1.37164025517353
30
0
41
1
10
-18
20
-1.26895275020124
30
0
41
1
10
-18
20
-1.18606363592943
30
0
41
1
10
-18
20
-1.12406381547396
30
0
41
1
10
-18
20
-1.06198977283731
30
0
41
1
10
-18
20
-0.999845142204208
30
0
41
1
10
-18
20
-0.937636316394475
30
0
41
1
10
-18
20
-0.87536723489913
30
0
41
1
10
-18
20
-0.813044982640463
30
0
41
1
10
-18
20
-0.750672614854494
30
0
41
1
10
-18
20
-0.688256683922077
30
0
41
1
10
-18
20
-0.625800994862885
30
0
41
1
10
-18
20
-0.563310977461924
30
0
41
1
10
-18
20
-0.500790536511772
30
0
41
1
10
-18
20
-0.43824433367962
30
0
41
1
10
-18
20
-0.375676097210004
30
0
41
1
10
-18
20
-0.313089809374958
30
0
41
1
10
-18
20
-0.250488699287644
30
0
41
1
10
-18
20
-0.187876264694836
30
0
41
1
10
-18
20
-0.125255374427184
30
0
41
1
10
-18
20
-0.0626290839053922
30
0
41
1
10
-18
20
-3.20922311E-08
30
0
41
1
10
-18
20
0.0626290271069365
30
0
41
1
10
-18
20
0.125255331589216
30
0
41
1
10
-18
20
0.187876220606341
30
0
41
1
10
-18
20
0.250488634444707
30
0
41
1
10
-18
20
0.313089739834197
30
0
41
1
10
-18
20
0.375676054943824
30
0
41
1
10
-18
20
0.438244302653686
30
0
41
1
10
-18
20
0.500790472931641
30
0
41
1
10
-18
20
0.563310894882505
30
0
41
1
10
-18
20
0.62580094788143
30
0
41
1
10
-18
20
0.688256665460784
30
0
41
1
10
-18
20
0.75067256225924
30
0
41
1
10
-18
20
0.813044890326779
30
0
41
1
10
-18
20
0.875367170941672
30
0
41
1
10
-18
20
0.937636300485195
30
0
41
1
10
-18
20
0.999845111434894
30
0
41
1
10
-18
20
1.06198969497243
30
0
41
1
10
-18
20
1.12406372316545
30
0
41
1
10
-18
20
1.186063589047
30
0
41
1
10
-18
20
1.26895273622944
30
0
41
1
10
-18
20
1.37164017880389
30
0
41
1
10
-18
20
1.49484382588881
30
0
41
1
10
-18
20
1.61763137476078
30
0
41
1
10
-18
20
1.73996860709434
30
0
41
1
10
-18
20
1.86182467095802
30
0
41
1
10
-18
20
1.98317119500538
30
0
41
1
10
-18
20
2.10398004111116
30
0
41
1
10
-18
20
2.20393495183686
30
0
41
1
10
-18
20
2.28404204181248
30
0
41
1
10
-18
20
2.36395705803145
30
0
41
1
10
-18
20
2.4629597502701
30
0
41
1
10
-18
20
2.58140376430018
30
0
41
1
10
-18
20
2.69921210979672
30
0
41
1
10
-18
20
2.81636991600769
30
0
41
1
10
-18
20
2.93286301922586
30
0
41
1
10
-18
20
3.04867826135632
30
0
41
1
10
-18
20
3.1638065993838
30
0
41
1
10
-18
20
3.27823874237262
30
0
41
1
10
-18
20
3.39196474884636
30
0
41
1
10
-18
20
3.50497537086059
30
0
41
1
10
-18
20
3.61726245308643
30
0
41
1
10
-18
20
3.72881992966333
30
0
41
1
10
-18
20
3.83964235720097
30
0
41
1
10
-18
20
3.94972277737918
30
0
41
1
10
-18
20
4.05905436847678
30
0
41
1
10
-18
20
4.16763243265373
30
0
41
1
10
-18
20
4.31169460692027
30
0
41
1
10
-18
20
4.48921431467912
30
0
41
1
10
-18
20
4.69948150824789
30
0
41
1
10
-18
20
4.90663494713598
30
0
41
1
10
-18
20
5.07638402809525
30
0
41
1
10
-18
20
5.2110504888509
30
0
41
1
10
-18
20
5.31107460858115
30
0
41
1
10
-18
20
5.41030022073681
30
0
41
1
10
-18
20
5.50872530998984
30
0
41
1
10
-18
20
5.60634647599673
30
0
41
1
10
-18
20
5.70316105559499
30
0
41
1
10
-18
20
5.79916628067869
30
0
41
1
10
-18
20
5.89435900496744
30
0
41
1
10
-18
20
5.98873701214288
30
0
41
1
10
-18
20
6.08229711859906
30
0
41
1
10
-18
20
6.17503662085343
30
0
41
1
10
-18
20
6.26695319447285
30
0
41
1
10
-18
20
6.35804365721182
30
0
41
1
10
-18
20
6.44830545225392
30
0
41
1
10
-18
20
6.53773584474615
30
0
41
1
10
-18
20
6.62633153834341
30
0
41
1
10
-18
20
6.71409020409422
30
0
41
1
10
-18
20
6.83016810635769
30
0
41
1
10
-18
20
6.97274642193665
30
0
41
1
10
-18
20
7.11249588450139
30
0
41
1
10
-18
20
7.22289882691013
30
0
41
1
10
-18
20
7.30471496694233
30
0
41
1
10
-18
20
7.3856695697848
30
0
41
1
10
-18
20
7.46575986597483
30
0
41
1
10
-18
20
7.54498256644959
30
0
41
1
10
-18
20
7.62333367085023
30
0
41
1
10
-18
20
7.70081041299485
30
0
41
1
10
-18
20
7.80309789738925
30
0
41
1
10
-18
20
7.9284057431208
30
0
41
1
10
-18
20
8.05075299167547
30
0
41
1
10
-18
20
8.14710119768421
30
0
41
1
10
-18
20
8.21835290126668
30
0
41
1
10
-18
20
8.28869944694208
30
0
41
1
10
-18
20
8.35813711319386
30
0
41
1
10
-18
20
8.42666166687422
30
0
41
1
10
-18
20
8.4942680885093
30
0
41
1
10
-18
20
8.56095252446428
30
0
41
1
10
-18
20
8.64876091292308
30
0
41
1
10
-18
20
8.75589865176036
30
0
41
1
10
-18
20
8.85990366278926
30
0
41
1
10
-18
20
8.94142742966559
30
0
41
1
10
-18
20
9.00152152233744
30
0
41
1
10
-18
20
9.06065319401594
30
0
41
1
10
-18
20
9.1188172233754
30
0
41
1
10
-18
20
9.17600806496941
30
0
41
1
10
-18
20
9.23221918172709
30
0
41
1
10
-18
20
9.28744513180197
30
0
41
1
10
-18
20
9.3598674830186
30
0
41
1
10
-18
20
9.44765447086007
30
0
41
1
10
-18
20
9.5320773748978
30
0
41
1
10
-18
20
9.59775041479642
30
0
41
1
10
-18
20
9.6458964026537
30
0
41
1
10
-18
20
9.69300261323349
30
0
41
1
10
-18
20
9.73906156658435
30
0
41
1
10
-18
20
9.78406562726659
30
0
41
1
10
-18
20
9.82800620569321
30
0
41
1
10
-18
20
9.87087543880679
30
0
41
1
10
-18
20
9.91266446536125
30
0
41
1
10
-18
20
9.95336439144066
30
0
41
1
10
-18
20
9.99296649945873
30
0
41
1
10
-18
20
10.0314612764173
30
0
41
1
10
-18
20
10.0688389871438
30
0
41
1
10
-18
20
10.1050900925226
30
0
41
1
10
-18
20
10.1402037914164
30
0
41
1
10
-18
20
10.1741699845987
30
0
41
1
10
-18
20
10.2069776182064
30
0
41
1
10
-18
20
10.2386154290236
30
0
41
1
10
-18
20
10.2690719526608
30
0
41
1
10
-18
20
10.2983352440808
30
0
41
1
10
-18
20
10.3358095016122
30
0
41
1
10
-18
20
10.3706596087076
30
0
41
1
10
-18
20
10.4032013500169
30
0
41
1
10
-18
20
10.4263041143214
30
0
41
1
10
-18
20
10.4481323749746
30
0
41
1
10
-18
20
10.4755678604265
30
0
41
1
10
-18
20
10.506489279177
30
0
41
1
10
-18
20
10.5383008623823
30
0
41
1
10
-18
20
10.5646169600635
30
0
41
1
10
-18
20
10.5818120325131
30
0
41
1
10
-18
20
10.592703485268
30
0
41
1
10
-18
20
10.5993778692674
30
0
41
1
10
-18
20
10.6045521568697
30
0
41
1
10
-18
20
10.6082029107285
30
0
41
1
10
-18
20
10.6103051294408
30
0
41
1
10
-18
20
10.6108322853176
30
0
41
1
10
-18
20
10.6100565220953
30
0
41
1
10
-18
20
10.6092717768327
30
0
41
1
10
-18
20
10.6091546562598
30
0
0
SPLINE
5
165
100
AcDbEntity
8
SK1
62
256
6
ByLayer
370
18
48
1
60
0
100
AcDbSpline
70
4
71
3
72
115
73
111
40
0
40
0
40
0
40
0
40
0.0010816361488932
40
0.0051306207167606
40
0.0132285898524953
40
0.02132655898823
40
0.0294245281239647
40
0.0375224972596994
40
0.0456204663954341
40
0.0537184355311689
40
0.0618164046669036
40
0.0699143738026383
40
0.078012342938373
40
0.0861103120741077
40
0.0942082812098425
40
0.102306250345577
40
0.110404219481312
40
0.118502188617047
40
0.126600157752781
40
0.134698126888516
40
0.142796096024251
40
0.15899203429572
40
0.17518797256719
40
0.191383910838659
40
0.207579849110129
40
0.215677818245863
40
0.223775787381598
40
0.231873756517333
40
0.239971725653067
40
0.248069694788802
40
0.256167663924537
40
0.264265633060272
40
0.272363602196006
40
0.280461571331741
40
0.288559540467476
40
0.29665750960321
40
0.304755478738945
40
0.31285344787468
40
0.320951417010415
40
0.329049386146149
40
0.337147355281884
40
0.345245324417619
40
0.353343293553353
40
0.369539231824823
40
0.385735170096292
40
0.393833139232027
40
0.401931108367762
40
0.410029077503496
40
0.418127046639231
40
0.426225015774966
40
0.434322984910701
40
0.442420954046435
40
0.45051892318217
40
0.466714861453639
40
0.482910799725109
40
0.491008768860844
40
0.499106737996578
40
0.507204707132313
40
0.515302676268048
40
0.523400645403783
40
0.531498614539517
40
0.539596583675252
40
0.547694552810987
40
0.563890491082456
40
0.580086429353925
40
0.58818439848966
40
0.596282367625395
40
0.60438033676113
40
0.612478305896864
40
0.620576275032599
40
0.628674244168334
40
0.636772213304069
40
0.644870182439803
40
0.661066120711273
40
0.677262058982742
40
0.685360028118477
40
0.693457997254212
40
0.701555966389946
40
0.709653935525681
40
0.717751904661416
40
0.72584987379715
40
0.733947842932885
40
0.74204581206862
40
0.750143781204355
40
0.758241750340089
40
0.766339719475824
40
0.774437688611559
40
0.782535657747294
40
0.790633626883028
40
0.798731596018763
40
0.806829565154498
40
0.814927534290232
40
0.823025503425967
40
0.831123472561702
40
0.839221441697436
40
0.855417379968906
40
0.86351534910464
40
0.871613318240375
40
0.87971128737611
40
0.887809256511845
40
0.904005194783314
40
0.920201133054784
40
0.936397071326253
40
0.952593009597722
40
0.960690978733457
40
0.968788947869192
40
0.976886917004927
40
0.984984886140661
40
0.993082855276396
40
1
40
1
40
1
40
1
41
1
10
-1.49503997793928
20
2.34749772747685
30
0
41
1
10
-1.49503997793928
20
2.35297422288201
30
0
41
1
10
-1.49503997793928
20
2.37894311658403
30
0
41
1
10
-1.49503997793928
20
2.44578140509637
30
0
41
1
10
-1.49503997793928
20
2.54739957461444
30
0
41
1
10
-1.49503997793928
20
2.66874292602245
30
0
41
1
10
-1.49503997793928
20
2.78936021153859
30
0
41
1
10
-1.49503997793928
20
2.90924160987004
30
0
41
1
10
-1.49503997793928
20
3.02837828417549
30
0
41
1
10
-1.49503997793928
20
3.14676167980997
30
0
41
1
10
-1.49503997793928
20
3.2643857571382
30
0
41
1
10
-1.49503997793928
20
3.38124473142446
30
0
41
1
10
-1.49503997793928
20
3.4973327007406
30
0
41
1
10
-1.49503997793928
20
3.61264412544148
30
0
41
1
10
-1.49503997793928
20
3.72717407208265
30
0
41
1
10
-1.49503997793928
20
3.84091862322862
30
0
41
1
10
-1.49503997793928
20
3.95387458058386
30
0
41
1
10
-1.49503997793928
20
4.06603800642878
30
0
41
1
10
-1.49503997793928
20
4.17740500301781
30
0
41
1
10
-1.49503997793928
20
4.28797249574384
30
0
41
1
10
-1.49503997793928
20
4.43446210322787
30
0
41
1
10
-1.49503997793928
20
4.61526986323273
30
0
41
1
10
-1.49503997793928
20
4.82914716155648
30
0
41
1
10
-1.49503997793928
20
5.03976742322499
30
0
41
1
10
-1.49503997793928
20
5.21243879366801
30
0
41
1
10
-1.49503997793928
20
5.34913288542151
30
0
41
1
10
-1.49503997793928
20
5.4507477456186
30
0
41
1
10
-1.49503997793928
20
5.55153561657562
30
0
41
1
10
-1.49503997793928
20
5.65149504114433
30
0
41
1
10
-1.49503997793928
20
5.75062380699094
30
0
41
1
10
-1.49503997793928
20
5.84891995701895
30
0
41
1
10
-1.49503997793928
20
5.9463816204476
30
0
41
1
10
-1.49503997793928
20
6.0430064968013
30
0
41
1
10
-1.49503997793928
20
6.13879286433351
30
0
41
1
10
-1.49503997793928
20
6.23373849191756
30
0
41
1
10
-1.49503997793928
20
6.32784120271069
30
0
41
1
10
-1.49503997793928
20
6.42109916514167
30
0
41
1
10
-1.49503997793928
20
6.5135100149694
30
0
41
1
10
-1.49503997793928
20
6.60507157996005
30
0
41
1
10
-1.49503997793928
20
6.69578175553812
30
0
41
1
10
-1.49503997793928
20
6.78563788330885
30
0
41
1
10
-1.49503997793928
20
6.87463786848124
30
0
41
1
10
-1.49503997793928
20
6.99224343614395
30
0
41
1
10
-1.49503997793928
20
7.13691288017824
30
0
41
1
10
-1.49503997793928
20
7.27869561996113
30
0
41
1
10
-1.49503997793928
20
7.39051932186584
30
0
41
1
10
-1.49503997793928
20
7.47345537056427
30
0
41
1
10
-1.49503997793928
20
7.5555140988842
30
0
41
1
10
-1.49503997793928
20
7.63669274732661
30
0
41
1
10
-1.49503997793928
20
7.71698851670988
30
0
41
1
10
-1.49503997793928
20
7.79639781976607
30
0
41
1
10
-1.49503997793928
20
7.87491786951264
30
0
41
1
10
-1.49503997793928
20
7.97849120537592
30
0
41
1
10
-1.49503997793928
20
8.10556186458783
30
0
41
1
10
-1.49503997793928
20
8.22962444741844
30
0
41
1
10
-1.49503997793928
20
8.327172542867
30
0
41
1
10
-1.49503997793928
20
8.39937082766957
30
0
41
1
10
-1.49503997793928
20
8.47065099138817
30
0
41
1
10
-1.49503997793928
20
8.54100920456628
30
0
41
1
10
-1.49503997793928
20
8.61044158988983
30
0
41
1
10
-1.49503997793928
20
8.67894338472402
30
0
41
1
10
-1.49503997793928
20
8.74651061840999
30
0
41
1
10
-1.49503997793928
20
8.83540721332508
30
0
41
1
10
-1.49503997793928
20
8.94403649561855
30
0
41
1
10
-1.49503997793928
20
9.04949074686073
30
0
41
1
10
-1.49503997793928
20
9.13202745573767
30
0
41
1
10
-1.49503997793928
20
9.19292021412031
30
0
41
1
10
-1.49503997793928
20
9.25283893648347
30
0
41
1
10
-1.49503997793928
20
9.31177821550872
30
0
41
1
10
-1.49503997793928
20
9.36973271501176
30
0
41
1
10
-1.49503997793928
20
9.42669603797344
30
0
41
1
10
-1.49503997793928
20
9.48266255671325
30
0
41
1
10
-1.49503997793928
20
9.55599654096136
30
0
41
1
10
-1.49503997793928
20
9.64502982606291
30
0
41
1
10
-1.49503997793928
20
9.73065760658244
30
0
41
1
10
-1.49503997793928
20
9.79716969120634
30
0
41
1
10
-1.49503997793928
20
9.84597558117031
30
0
41
1
10
-1.49503997793928
20
9.89373009862075
30
0
41
1
10
-1.49503997793928
20
9.94042555998314
30
0
41
1
10
-1.49503997793928
20
9.98605436640193
30
0
41
1
10
-1.49503997793928
20
10.0306078864835
30
0
41
1
10
-1.49503997793928
20
10.0740780611422
30
0
41
1
10
-1.49503997793928
20
10.1164560590941
30
0
41
1
10
-1.49503997793928
20
10.1577327882333
30
0
41
1
10
-1.49503997793928
20
10.1978993278187
30
0
41
1
10
-1.49503997793928
20
10.2369461506972
30
0
41
1
10
-1.49503997793928
20
10.2748632577403
30
0
41
1
10
-1.49503997793928
20
10.3116409871695
30
0
41
1
10
-1.49503997793928
20
10.3472683849274
30
0
41
1
10
-1.49503997793928
20
10.3817350419115
30
0
41
1
10
-1.49503997793928
20
10.4150297473557
30
0
41
1
10
-1.49503997793928
20
10.4471409666571
30
0
41
1
10
-1.49503997793928
20
10.4780569204745
30
0
41
1
10
-1.49503997793928
20
10.5077654424246
30
0
41
1
10
-1.49503997793928
20
10.5457784712346
30
0
41
1
10
-1.49503997793928
20
10.5812410164663
30
0
41
1
10
-1.49503997793928
20
10.6142632847113
30
0
41
1
10
-1.49503997793928
20
10.6377347714484
30
0
41
1
10
-1.49503997793928
20
10.659915174236
30
0
41
1
10
-1.49503997793928
20
10.6877698864739
30
0
41
1
10
-1.49503997793928
20
10.719232045291
30
0
41
1
10
-1.49503997793928
20
10.751585043016
30
0
41
1
10
-1.49503997793928
20
10.7783612166035
30
0
41
1
10
-1.49503997793928
20
10.7958810461951
30
0
41
1
10
-1.49503997793928
20
10.8069598479051
30
0
41
1
10
-1.49503997793928
20
10.8137591702554
30
0
41
1
10
-1.49503997793928
20
10.8190319435411
30
0
41
1
10
-1.49503997793928
20
10.8227533881918
30
0
41
1
10
-1.49503997793928
20
10.8247928647702
30
0
41
1
10
-1.49503997793931
20
10.8251975942595
30
0
41
1
10
-1.49503997793931
20
10.8251856484621
30
0
0
SPLINE
5
166
100
AcDbEntity
8
SK1
62
256
6
ByLayer
370
18
48
1
60
0
100
AcDbSpline
70
4
71
3
72
114
73
110
40
0
40
0
40
0
40
0
40
0.0069476130645765
40
0.0150453337642174
40
0.0231430544638584
40
0.0312407751634993
40
0.0393384958631402
40
0.0474362165627812
40
0.063631657962063
40
0.0798270993613449
40
0.0960225407606268
40
0.112217982159909
40
0.12031570285955
40
0.12841342355919
40
0.136511144258831
40
0.144608864958472
40
0.160804306357754
40
0.168902027057395
40
0.176999747757036
40
0.185097468456677
40
0.193195189156318
40
0.201292909855959
40
0.2093906305556
40
0.217488351255241
40
0.225586071954882
40
0.233683792654523
40
0.241781513354164
40
0.249879234053805
40
0.257976954753446
40
0.266074675453086
40
0.274172396152727
40
0.282270116852368
40
0.290367837552009
40
0.29846555825165
40
0.306563278951291
40
0.314660999650932
40
0.322758720350573
40
0.338954161749855
40
0.355149603149137
40
0.363247323848778
40
0.371345044548418
40
0.379442765248059
40
0.387540485947701
40
0.395638206647341
40
0.403735927346982
40
0.411833648046623
40
0.419931368746264
40
0.436126810145546
40
0.452322251544828
40
0.460419972244469
40
0.46851769294411
40
0.476615413643751
40
0.484713134343392
40
0.492810855043033
40
0.500908575742674
40
0.509006296442315
40
0.517104017141955
40
0.533299458541237
40
0.549494899940519
40
0.55759262064016
40
0.565690341339801
40
0.573788062039442
40
0.581885782739083
40
0.589983503438724
40
0.598081224138365
40
0.606178944838006
40
0.614276665537647
40
0.630472106936929
40
0.64666754833621
40
0.654765269035851
40
0.662862989735492
40
0.670960710435133
40
0.679058431134774
40
0.687156151834415
40
0.695253872534056
40
0.703351593233697
40
0.711449313933338
40
0.719547034632979
40
0.72764475533262
40
0.735742476032261
40
0.743840196731901
40
0.751937917431543
40
0.760035638131184
40
0.768133358830824
40
0.776231079530465
40
0.784328800230106
40
0.792426520929747
40
0.808621962329029
40
0.824817403728311
40
0.841012845127593
40
0.857208286526875
40
0.873403727926157
40
0.881501448625798
40
0.889599169325439
40
0.897696890025079
40
0.90579461072472
40
0.913892331424361
40
0.921990052124002
40
0.930087772823643
40
0.938185493523284
40
0.946283214222925
40
0.954380934922566
40
0.962478655622207
40
0.970576376321848
40
0.978674097021489
40
0.98677181772113
40
0.99486953842077
40
0.998918398770591
40
1
40
1
40
1
40
1
41
1
10
-1.49503997793926
20
-10.825185368221
30
0
41
1
10
-1.49503997793926
20
-10.8251991347497
30
0
41
1
10
-1.49503997793926
20
-10.8247955061416
30
0
41
1
10
-1.49503997793928
20
-10.8227534746688
30
0
41
1
10
-1.49503997793928
20
-10.8190321898994
30
0
41
1
10
-1.49503997793928
20
-10.8137595050794
30
0
41
1
10
-1.49503997793928
20
-10.8069601105976
30
0
41
1
10
-1.49503997793928
20
-10.7958810888031
30
0
41
1
10
-1.49503997793928
20
-10.7783612085532
30
0
41
1
10
-1.49503997793928
20
-10.7515850402438
30
0
41
1
10
-1.49503997793928
20
-10.7192320300799
30
0
41
1
10
-1.49503997793928
20
-10.6877698984218
30
0
41
1
10
-1.49503997793928
20
-10.659915170864
30
0
41
1
10
-1.49503997793928
20
-10.6377347570968
30
0
41
1
10
-1.49503997793928
20
-10.6142632763632
30
0
41
1
10
-1.49503997793928
20
-10.5812410280458
30
0
41
1
10
-1.49503997793928
20
-10.5457784732404
30
0
41
1
10
-1.49503997793928
20
-10.5077654352017
30
0
41
1
10
-1.49503997793928
20
-10.4780569133
30
0
41
1
10
-1.49503997793928
20
-10.4471409696622
30
0
41
1
10
-1.49503997793928
20
-10.4150297588919
30
0
41
1
10
-1.49503997793928
20
-10.3817350495075
30
0
41
1
10
-1.49503997793928
20
-10.3472683821575
30
0
41
1
10
-1.49503997793928
20
-10.3116409824532
30
0
41
1
10
-1.49503997793928
20
-10.274863259213
30
0
41
1
10
-1.49503997793928
20
-10.2369461598887
30
0
41
1
10
-1.49503997793928
20
-10.1978993403383
30
0
41
1
10
-1.49503997793928
20
-10.1577327948517
30
0
41
1
10
-1.49503997793928
20
-10.1164560583904
30
0
41
1
10
-1.49503997793928
20
-10.0740780611805
30
0
41
1
10
-1.49503997793928
20
-10.0306078935895
30
0
41
1
10
-1.49503997793928
20
-9.9860543789782
30
0
41
1
10
-1.49503997793928
20
-9.94042557325719
30
0
41
1
10
-1.49503997793928
20
-9.89373010726783
30
0
41
1
10
-1.49503997793928
20
-9.84597558452433
30
0
41
1
10
-1.49503997793928
20
-9.79716969618076
30
0
41
1
10
-1.49503997793928
20
-9.73065761931014
30
0
41
1
10
-1.49503997793928
20
-9.64502984201664
30
0
41
1
10
-1.49503997793928
20
-9.55599654929009
30
0
41
1
10
-1.49503997793928
20
-9.48266256563366
30
0
41
1
10
-1.49503997793928
20
-9.42669605087167
30
0
41
1
10
-1.49503997793928
20
-9.36973273113713
30
0
41
1
10
-1.49503997793928
20
-9.31177823255615
30
0
41
1
10
-1.49503997793928
20
-9.25283895193832
30
0
41
1
10
-1.49503997793928
20
-9.19292022720256
30
0
41
1
10
-1.49503997793928
20
-9.13202746880455
30
0
41
1
10
-1.49503997793928
20
-9.04949076260129
30
0
41
1
10
-1.49503997793928
20
-8.94403651531519
30
0
41
1
10
-1.49503997793928
20
-8.83540723159925
30
0
41
1
10
-1.49503997793928
20
-8.74651063563283
30
0
41
1
10
-1.49503997793928
20
-8.67894340179043
30
0
41
1
10
-1.49503997793928
20
-8.61044160824594
30
0
41
1
10
-1.49503997793928
20
-8.5410092251428
30
0
41
1
10
-1.49503997793928
20
-8.47065101373664
30
0
41
1
10
-1.49503997793928
20
-8.39937085059915
30
0
41
1
10
-1.49503997793928
20
-8.32717256436729
30
0
41
1
10
-1.49503997793928
20
-8.22962446603972
30
0
41
1
10
-1.49503997793928
20
-8.10556188703811
30
0
41
1
10
-1.49503997793928
20
-7.97849123285059
30
0
41
1
10
-1.49503997793928
20
-7.87491789553505
30
0
41
1
10
-1.49503997793928
20
-7.79639784158888
30
0
41
1
10
-1.49503997793928
20
-7.71698853718178
30
0
41
1
10
-1.49503997793928
20
-7.63669277063221
30
0
41
1
10
-1.49503997793928
20
-7.55551412703409
30
0
41
1
10
-1.49503997793928
20
-7.47345540258758
30
0
41
1
10
-1.49503997793928
20
-7.39051935158955
30
0
41
1
10
-1.49503997793928
20
-7.27869564084133
30
0
41
1
10
-1.49503997793928
20
-7.13691290674728
30
0
41
1
10
-1.49503997793928
20
-6.99224347204341
30
0
41
1
10
-1.49503997793928
20
-6.87463790137696
30
0
41
1
10
-1.49503997793928
20
-6.78563790735643
30
0
41
1
10
-1.49503997793928
20
-6.69578177753257
30
0
41
1
10
-1.49503997793928
20
-6.60507160913491
30
0
41
1
10
-1.49503997793928
20
-6.51351005185586
30
0
41
1
10
-1.49503997793928
20
-6.42109920426941
30
0
41
1
10
-1.49503997793928
20
-6.32784123546003
30
0
41
1
10
-1.49503997793928
20
-6.23373851513244
30
0
41
1
10
-1.49503997793928
20
-6.13879288798532
30
0
41
1
10
-1.49503997793928
20
-6.04300653314334
30
0
41
1
10
-1.49503997793928
20
-5.94638166396857
30
0
41
1
10
-1.49503997793928
20
-5.84891999499698
30
0
41
1
10
-1.49503997793928
20
-5.75062383535882
30
0
41
1
10
-1.49503997793928
20
-5.65149506497363
30
0
41
1
10
-1.49503997793928
20
-5.5515356485646
30
0
41
1
10
-1.49503997793928
20
-5.45074779186143
30
0
41
1
10
-1.49503997793928
20
-5.34913293126229
30
0
41
1
10
-1.49503997793928
20
-5.21243881483207
30
0
41
1
10
-1.49503997793928
20
-5.03976746321263
30
0
41
1
10
-1.49503997793928
20
-4.82914721456726
30
0
41
1
10
-1.49503997793928
20
-4.61526983908041
30
0
41
1
10
-1.49503997793928
20
-4.39815363484092
30
0
41
1
10
-1.49503997793928
20
-4.21466878117025
30
0
41
1
10
-1.49503997793928
20
-4.06603787841615
30
0
41
1
10
-1.49503997793928
20
-3.9538749194972
30
0
41
1
10
-1.49503997793928
20
-3.84091905980895
30
0
41
1
10
-1.49503997793928
20
-3.72717408116662
30
0
41
1
10
-1.49503997793928
20
-3.61264394142361
30
0
41
1
10
-1.49503997793928
20
-3.49733277811788
30
0
41
1
10
-1.49503997793928
20
-3.38124503613648
30
0
41
1
10
-1.49503997793928
20
-3.26438606521717
30
0
41
1
10
-1.49503997793928
20
-3.1467617159237
30
0
41
1
10
-1.49503997793928
20
-3.02837792756958
30
0
41
1
10
-1.49503997793928
20
-2.90924142661461
30
0
41
1
10
-1.49503997793928
20
-2.78936037077261
30
0
41
1
10
-1.49503997793928
20
-2.66874317257182
30
0
41
1
10
-1.49503997793928
20
-2.54739968477233
30
0
41
1
10
-1.49503997793928
20
-2.44578144693816
30
0
41
1
10
-1.49503997793928
20
-2.37894315632079
30
0
41
1
10
-1.49503997793928
20
-2.35297427447952
30
0
41
1
10
-1.49503997793928
20
-2.34749778874223
30
0
0
SPLINE
5
167
100
AcDbEntity
8
SK1
62
256
6
ByLayer
370
18
48
1
60
0
100
AcDbSpline
70
4
71
3
72
280
73
276
40
0
40
0
40
0
40
0
40
0.0015538670939482
40
0.0050640647345606
40
0.0085742623751729
40
0.0120844600157852
40
0.0155946576563976
40
0.0191048552970099
40
0.0226150529376223
40
0.029635448218847
40
0.0366558435000716
40
0.0436762387812963
40
0.0506966340625209
40
0.0542068317031333
40
0.0577170293437456
40
0.061227226984358
40
0.0647374246249703
40
0.071757819906195
40
0.0752680175468074
40
0.0787782151874197
40
0.0822884128280321
40
0.0857986104686443
40
0.0893088081092567
40
0.092819005749869
40
0.0963292033904814
40
0.0998394010310937
40
0.103349598671706
40
0.106859796312318
40
0.110369993952931
40
0.113880191593543
40
0.117390389234155
40
0.120900586874768
40
0.12441078451538
40
0.127920982155992
40
0.131431179796605
40
0.134941377437217
40
0.138451575077829
40
0.141961772718442
40
0.148982167999666
40
0.156002563280891
40
0.159512760921503
40
0.163022958562116
40
0.166533156202728
40
0.17004335384334
40
0.173553551483953
40
0.177063749124565
40
0.180573946765177
40
0.18408414440579
40
0.191104539687014
40
0.198124934968239
40
0.201635132608851
40
0.205145330249464
40
0.208655527890076
40
0.212165725530689
40
0.215675923171301
40
0.219186120811913
40
0.222696318452526
40
0.226206516093138
40
0.233226911374362
40
0.240247306655587
40
0.2437575042962
40
0.247267701936812
40
0.250777899577424
40
0.254288097218037
40
0.257798294858649
40
0.261308492499261
40
0.264818690139874
40
0.268328887780486
40
0.275349283061711
40
0.282369678342935
40
0.285879875983548
40
0.28939007362416
40
0.292900271264772
40
0.296410468905385
40
0.299920666545997
40
0.303430864186609
40
0.306941061827222
40
0.310451259467834
40
0.313961457108446
40
0.317471654749059
40
0.320981852389671
40
0.324492050030283
40
0.328002247670896
40
0.331512445311508
40
0.33502264295212
40
0.338532840592733
40
0.342043038233345
40
0.345553235873957
40
0.352573631155182
40
0.359594026436407
40
0.366614421717631
40
0.373634816998856
40
0.380655212280081
40
0.384165409920693
40
0.387675607561305
40
0.391185805201918
40
0.39469600284253
40
0.398206200483142
40
0.401716398123755
40
0.405226595764367
40
0.408736793404979
40
0.412246991045592
40
0.415757188686204
40
0.419267386326816
40
0.422777583967429
40
0.426287781608041
40
0.429797979248653
40
0.433308176889266
40
0.435063275709572
40
0.436818374529878
40
0.44032857217049
40
0.443838769811103
40
0.447348967451715
40
0.450859165092328
40
0.45436936273294
40
0.457879560373552
40
0.461389758014164
40
0.464899955654777
40
0.466655054475083
40
0.468410153295389
40
0.470165252115695
40
0.471920350936002
40
0.473675449756308
40
0.475430548576614
40
0.47718564739692
40
0.478940746217226
40
0.480695845037532
40
0.482450943857839
40
0.484206042678145
40
0.485961141498451
40
0.487716240318757
40
0.489471339139063
40
0.491226437959369
40
0.492981536779676
40
0.494736635599982
40
0.496491734420288
40
0.498246833240594
40
0.5000019320609
40
0.501757030881206
40
0.503512129701513
40
0.505267228521819
40
0.507022327342125
40
0.508777426162431
40
0.510532524982737
40
0.512287623803043
40
0.51404272262335
40
0.515797821443656
40
0.517552920263962
40
0.519308019084268
40
0.521063117904574
40
0.52281821672488
40
0.524573315545187
40
0.526328414365493
40
0.528083513185799
40
0.529838612006105
40
0.531593710826411
40
0.533348809646717
40
0.535103908467024
40
0.538614106107636
40
0.542124303748248
40
0.545634501388861
40
0.549144699029473
40
0.552654896670085
40
0.556165094310698
40
0.55967529195131
40
0.563185489591922
40
0.564940588412228
40
0.566695687232535
40
0.570205884873147
40
0.573716082513759
40
0.577226280154372
40
0.580736477794984
40
0.584246675435596
40
0.587756873076209
40
0.591267070716821
40
0.594777268357433
40
0.598287465998046
40
0.601797663638658
40
0.605307861279271
40
0.608818058919883
40
0.612328256560495
40
0.615838454201107
40
0.61934865184172
40
0.622858849482332
40
0.626369047122945
40
0.633389442404169
40
0.640409837685394
40
0.647430232966619
40
0.654450628247843
40
0.657960825888455
40
0.661471023529068
40
0.66498122116968
40
0.668491418810293
40
0.672001616450905
40
0.675511814091517
40
0.67902201173213
40
0.682532209372742
40
0.686042407013354
40
0.689552604653967
40
0.693062802294579
40
0.696572999935191
40
0.700083197575804
40
0.703593395216416
40
0.707103592857028
40
0.71061379049764
40
0.714123988138253
40
0.717634185778865
40
0.72465458106009
40
0.731674976341314
40
0.735185173981927
40
0.738695371622539
40
0.742205569263152
40
0.745715766903764
40
0.749225964544376
40
0.752736162184989
40
0.756246359825601
40
0.759756557466213
40
0.766776952747438
40
0.773797348028663
40
0.777307545669275
40
0.780817743309887
40
0.7843279409505
40
0.787838138591112
40
0.791348336231724
40
0.794858533872337
40
0.798368731512949
40
0.801878929153561
40
0.808899324434786
40
0.815919719716011
40
0.819429917356623
40
0.822940114997235
40
0.826450312637848
40
0.82996051027846
40
0.833470707919073
40
0.836980905559685
40
0.840491103200297
40
0.84400130084091
40
0.851021696122134
40
0.858042091403359
40
0.861552289043971
40
0.865062486684583
40
0.868572684325196
40
0.872082881965808
40
0.87559307960642
40
0.879103277247033
40
0.882613474887645
40
0.886123672528258
40
0.88963387016887
40
0.893144067809482
40
0.896654265450094
40
0.900164463090707
40
0.903674660731319
40
0.907184858371931
40
0.910695056012544
40
0.914205253653156
40
0.917715451293769
40
0.921225648934381
40
0.924735846574993
40
0.928246044215605
40
0.93526643949683
40
0.938776637137443
40
0.942286834778055
40
0.945797032418667
40
0.94930723005928
40
0.956327625340504
40
0.963348020621729
40
0.970368415902954
40
0.977388811184178
40
0.980899008824791
40
0.984409206465403
40
0.987919404106015
40
0.991429601746628
40
0.99493979938724
40
0.998449997027852
40
1
40
1
40
1
40
1
41
1
10
-19
20
-10.0329562483861
30
0
41
1
10
-19
20
-10.0330937717401
30
0
41
1
10
-19
20
-10.0333795950776
30
0
41
1
10
-19
20
-10.0329736292638
30
0
41
1
10
-19
20
-10.0309830775664
30
0
41
1
10
-19
20
-10.0275226633951
30
0
41
1
10
-19
20
-10.0226134495803
30
0
41
1
10
-19
20
-10.0162751664439
30
0
41
1
10
-19
20
-10.0058875348545
30
0
41
1
10
-19
20
-9.98956609173456
30
0
41
1
10
-19
20
-9.9644877669829
30
0
41
1
10
-19
20
-9.93413277211897
30
0
41
1
10
-19
20
-9.90466617231215
30
0
41
1
10
-19
20
-9.87835855867948
30
0
41
1
10
-19
20
-9.85747766874042
30
0
41
1
10
-19
20
-9.83536689762977
30
0
41
1
10
-19
20
-9.80411797985391
30
0
41
1
10
-19
20
-9.77091555985692
30
0
41
1
10
-19
20
-9.73489077939223
30
0
41
1
10
-19
20
-9.70682531106701
30
0
41
1
10
-19
20
-9.67760483131215
30
0
41
1
10
-19
20
-9.64724068471727
30
0
41
1
10
-19
20
-9.6157434616903
30
0
41
1
10
-19
20
-9.58312368489484
30
0
41
1
10
-19
20
-9.54939200999823
30
0
41
1
10
-19
20
-9.51455771866412
30
0
41
1
10
-19
20
-9.47863119608738
30
0
41
1
10
-19
20
-9.4416216418046
30
0
41
1
10
-19
20
-9.40353806264943
30
0
41
1
10
-19
20
-9.36438993231127
30
0
41
1
10
-19
20
-9.32418544446557
30
0
41
1
10
-19
20
-9.28293297227461
30
0
41
1
10
-19
20
-9.24064144704931
30
0
41
1
10
-19
20
-9.19731819280184
30
0
41
1
10
-19
20
-9.1529716782799
30
0
41
1
10
-19
20
-9.10760963710959
30
0
41
1
10
-19
20
-9.06123902108874
30
0
41
1
10
-19
20
-8.99782333228856
30
0
41
1
10
-19
20
-8.91664200511912
30
0
41
1
10
-19
20
-8.83220800680829
30
0
41
1
10
-19
20
-8.76223827415893
30
0
41
1
10
-19
20
-8.70900473105829
30
0
41
1
10
-19
20
-8.65481733532434
30
0
41
1
10
-19
20
-8.59968102157819
30
0
41
1
10
-19
20
-8.5436026997406
30
0
41
1
10
-19
20
-8.48658847771898
30
0
41
1
10
-19
20
-8.42864308493384
30
0
41
1
10
-19
20
-8.34984450729289
30
0
41
1
10
-19
20
-8.24973849608213
30
0
41
1
10
-19
20
-8.1466135609819
30
0
41
1
10
-19
20
-8.06173284490114
30
0
41
1
10
-19
20
-7.99742345663478
30
0
41
1
10
-19
20
-7.93222591806958
30
0
41
1
10
-19
20
-7.86614377003909
30
0
41
1
10
-19
20
-7.79918272035923
30
0
41
1
10
-19
20
-7.73134795661787
30
0
41
1
10
-19
20
-7.66264290479879
30
0
41
1
10
-19
20
-7.56952283231723
30
0
41
1
10
-19
20
-7.45179046448189
30
0
41
1
10
-19
20
-7.33122525294459
30
0
41
1
10
-19
20
-7.23239719005699
30
0
41
1
10
-19
20
-7.15772731741785
30
0
41
1
10
-19
20
-7.08222314311982
30
0
41
1
10
-19
20
-7.00588739266459
30
0
41
1
10
-19
20
-6.92872517773969
30
0
41
1
10
-19
20
-6.8507410999662
30
0
41
1
10
-19
20
-6.77193793275302
30
0
41
1
10
-19
20
-6.66535732677102
30
0
41
1
10
-19
20
-6.5310781219363
30
0
41
1
10
-19
20
-6.39412574741868
30
0
41
1
10
-19
20
-6.28215784138942
30
0
41
1
10
-19
20
-6.19773875078891
30
0
41
1
10
-19
20
-6.11253406080701
30
0
41
1
10
-19
20
-6.02654676803033
30
0
41
1
10
-19
20
-5.93978186598008
30
0
41
1
10
-19
20
-5.85224375649918
30
0
41
1
10
-19
20
-5.76393600430757
30
0
41
1
10
-19
20
-5.67486399066652
30
0
41
1
10
-19
20
-5.58503142050256
30
0
41
1
10
-19
20
-5.49444245957596
30
0
41
1
10
-19
20
-5.40310280117828
30
0
41
1
10
-19
20
-5.31101593014734
30
0
41
1
10
-19
20
-5.2181872813623
30
0
41
1
10
-19
20
-5.12462207475713
30
0
41
1
10
-19
20
-5.03032492286113
30
0
41
1
10
-19
20
-4.93530242964377
30
0
41
1
10
-19
20
-4.83955802089457
30
0
41
1
10
-19
20
-4.71034653885877
30
0
41
1
10
-19
20
-4.54845950265877
30
0
41
1
10
-19
20
-4.35063320532774
30
0
41
1
10
-19
20
-4.15007820921215
30
0
41
1
10
-19
20
-3.94685681236828
30
0
41
1
10
-19
20
-3.77604855813308
30
0
41
1
10
-19
20
-3.63679046418028
30
0
41
1
10
-19
20
-3.53231619129488
30
0
41
1
10
-19
20
-3.42723503898236
30
0
41
1
10
-19
20
-3.32155992301483
30
0
41
1
10
-19
20
-3.2153054606147
30
0
41
1
10
-19
20
-3.10848576848568
30
0
41
1
10
-19
20
-3.00111573414051
30
0
41
1
10
-19
20
-2.89321317852722
30
0
41
1
10
-19
20
-2.78479835655281
30
0
41
1
10
-19
20
-2.67589021302877
30
0
41
1
10
-19
20
-2.56650912624585
30
0
41
1
10
-19
20
-2.45668069003122
30
0
41
1
10
-19
20
-2.34643018241178
30
0
41
1
10
-19
20
-2.23578586879043
30
0
41
1
10
-19
20
-2.14381940674534
30
0
41
1
10
-19
20
-2.06905901211775
30
0
41
1
10
-19
20
-1.99420804195603
30
0
41
1
10
-19
20
-1.90180866816084
30
0
41
1
10
-19
20
-1.78992235940532
30
0
41
1
10
-19
20
-1.67782006325021
30
0
41
1
10
-19
20
-1.56555014993987
30
0
41
1
10
-19
20
-1.45315823265884
30
0
41
1
10
-19
20
-1.34069259518992
30
0
41
1
10
-19
20
-1.22820431977141
30
0
41
1
10
-19
20
-1.13522914745167
30
0
41
1
10
-19
20
-1.05947688607969
30
0
41
1
10
-19
20
-1.00330201206953
30
0
41
1
10
-19
20
-0.947161044590956
30
0
41
1
10
-19
20
-0.891055246744145
30
0
41
1
10
-19
20
-0.834992891996194
30
0
41
1
10
-19
20
-0.778974983835127
30
0
41
1
10
-19
20
-0.723010172894845
30
0
41
1
10
-19
20
-0.667096437512413
30
0
41
1
10
-19
20
-0.611239537520476
30
0
41
1
10
-19
20
-0.555438256952783
30
0
41
1
10
-19
20
-0.499694285660439
30
0
41
1
10
-19
20
-0.444005417542485
30
0
41
1
10
-19
20
-0.388370253126254
30
0
41
1
10
-19
20
-0.332784951295196
30
0
41
1
10
-19
20
-0.27724537907406
30
0
41
1
10
-19
20
-0.221745399560149
30
0
41
1
10
-19
20
-0.166278832055241
30
0
41
1
10
-19
20
-0.110837824934066
30
0
41
1
10
-19
20
-0.0554145387399103
30
0
41
1
10
-19
20
-3.86551449E-08
30
0
41
1
10
-19
20
0.0554144797882259
30
0
41
1
10
-19
20
0.110837800625205
30
0
41
1
10
-19
20
0.166278804490219
30
0
41
1
10
-19
20
0.221745320409724
30
0
41
1
10
-19
20
0.277245288582179
30
0
41
1
10
-19
20
0.332784928641019
30
0
41
1
10
-19
20
0.388370257726166
30
0
41
1
10
-19
20
0.444005340907694
30
0
41
1
10
-19
20
0.499694162742941
30
0
41
1
10
-19
20
0.555438223077687
30
0
41
1
10
-19
20
0.611239573198077
30
0
41
1
10
-19
20
0.667096387172222
30
0
41
1
10
-19
20
0.72301002513845
30
0
41
1
10
-19
20
0.778974908352097
30
0
41
1
10
-19
20
0.834992934518169
30
0
41
1
10
-19
20
0.891055249962079
30
0
41
1
10
-19
20
0.947160931144765
30
0
41
1
10
-19
20
1.00330186501549
30
0
41
1
10
-19
20
1.05947685359391
30
0
41
1
10
-19
20
1.13522919275331
30
0
41
1
10
-19
20
1.22820420682382
30
0
41
1
10
-19
20
1.34069255012383
30
0
41
1
10
-19
20
1.45315824122119
30
0
41
1
10
-19
20
1.56555001007138
30
0
41
1
10
-19
20
1.67782007270242
30
0
41
1
10
-19
20
1.78992235147862
30
0
41
1
10
-19
20
1.90180851379787
30
0
41
1
10
-19
20
1.99420801826724
30
0
41
1
10
-19
20
2.0690590907827
30
0
41
1
10
-19
20
2.14381939218558
30
0
41
1
10
-19
20
2.23578548610092
30
0
41
1
10
-19
20
2.34642921347091
30
0
41
1
10
-19
20
2.45668047453484
30
0
41
1
10
-19
20
2.56651081363336
30
0
41
1
10
-19
20
2.67589173582562
30
0
41
1
10
-19
20
2.7847976980388
30
0
41
1
10
-19
20
2.89321157705834
30
0
41
1
10
-19
20
3.00111464897742
30
0
41
1
10
-19
20
3.1084861044454
30
0
41
1
10
-19
20
3.21530671882519
30
0
41
1
10
-19
20
3.32155966873089
30
0
41
1
10
-19
20
3.42723310824633
30
0
41
1
10
-19
20
3.53231555384821
30
0
41
1
10
-19
20
3.63679192068699
30
0
41
1
10
-19
20
3.74064752046888
30
0
41
1
10
-19
20
3.84387328825898
30
0
41
1
10
-19
20
3.98140477206883
30
0
41
1
10
-19
20
4.15007840683617
30
0
41
1
10
-19
20
4.35063308740936
30
0
41
1
10
-19
20
4.548459494648
30
0
41
1
10
-19
20
4.710346539319
30
0
41
1
10
-19
20
4.83955792501368
30
0
41
1
10
-19
20
4.93530236631196
30
0
41
1
10
-19
20
5.03032492621836
30
0
41
1
10
-19
20
5.1246220876952
30
0
41
1
10
-19
20
5.21818725421468
30
0
41
1
10
-19
20
5.3110158630366
30
0
41
1
10
-19
20
5.40310273191946
30
0
41
1
10
-19
20
5.494442439056
30
0
41
1
10
-19
20
5.58503143754709
30
0
41
1
10
-19
20
5.67486398126673
30
0
41
1
10
-19
20
5.76393594987684
30
0
41
1
10
-19
20
5.85224369296404
30
0
41
1
10
-19
20
5.93978182754935
30
0
41
1
10
-19
20
6.02654676214735
30
0
41
1
10
-19
20
6.11253406622629
30
0
41
1
10
-19
20
6.19773872711932
30
0
41
1
10
-19
20
6.28215778589691
30
0
41
1
10
-19
20
6.39412570491888
30
0
41
1
10
-19
20
6.53107811386184
30
0
41
1
10
-19
20
6.66535731095081
30
0
41
1
10
-19
20
6.77193788641881
30
0
41
1
10
-19
20
6.85074105917917
30
0
41
1
10
-19
20
6.9287251573476
30
0
41
1
10
-19
20
7.00588738465538
30
0
41
1
10
-19
20
7.0822231340785
30
0
41
1
10
-19
20
7.15772729389116
30
0
41
1
10
-19
20
7.23239715387311
30
0
41
1
10
-19
20
7.33122522366617
30
0
41
1
10
-19
20
7.45179045110856
30
0
41
1
10
-19
20
7.5695228179415
30
0
41
1
10
-19
20
7.66264287890505
30
0
41
1
10
-19
20
7.73134792995933
30
0
41
1
10
-19
20
7.7991826988324
30
0
41
1
10
-19
20
7.86614375440624
30
0
41
1
10
-19
20
7.9322259062088
30
0
41
1
10
-19
20
7.99742344377475
30
0
41
1
10
-19
20
8.06173282830702
30
0
41
1
10
-19
20
8.14661354012861
30
0
41
1
10
-19
20
8.24973847707108
30
0
41
1
10
-19
20
8.34984449752756
30
0
41
1
10
-19
20
8.4286430769059
30
0
41
1
10
-19
20
8.48658846431246
30
0
41
1
10
-19
20
8.54360267942897
30
0
41
1
10
-19
20
8.59968100131871
30
0
41
1
10
-19
20
8.65481732154311
30
0
41
1
10
-19
20
8.70900472624047
30
0
41
1
10
-19
20
8.76223827352649
30
0
41
1
10
-19
20
8.83220799572914
30
0
41
1
10
-19
20
8.91664198437633
30
0
41
1
10
-19
20
8.99782332638691
30
0
41
1
10
-19
20
9.06123902658183
30
0
41
1
10
-19
20
9.10760963443713
30
0
41
1
10
-19
20
9.15297166047552
30
0
41
1
10
-19
20
9.19731817256692
30
0
41
1
10
-19
20
9.24064143684652
30
0
41
1
10
-19
20
9.2829329762028
30
0
41
1
10
-19
20
9.32418545496637
30
0
41
1
10
-19
20
9.36438993128215
30
0
41
1
10
-19
20
9.4035380444378
30
0
41
1
10
-19
20
9.44162162340905
30
0
41
1
10
-19
20
9.47863119327923
30
0
41
1
10
-19
20
9.51455772901525
30
0
41
1
10
-19
20
9.54939202150851
30
0
41
1
10
-19
20
9.58312368103438
30
0
41
1
10
-19
20
9.61574344204712
30
0
41
1
10
-19
20
9.6472406728098
30
0
41
1
10
-19
20
9.67760484023773
30
0
41
1
10
-19
20
9.70682532727795
30
0
41
1
10
-19
20
9.7348907843963
30
0
41
1
10
-19
20
9.77091554851933
30
0
41
1
10
-19
20
9.8041179711955
30
0
41
1
10
-19
20
9.83536691785611
30
0
41
1
10
-19
20
9.85747768285276
30
0
41
1
10
-19
20
9.8783585513138
30
0
41
1
10
-19
20
9.90466616212436
30
0
41
1
10
-19
20
9.93413279070077
30
0
41
1
10
-19
20
9.96448776920468
30
0
41
1
10
-19
20
9.9895660930479
30
0
41
1
10
-19
20
10.0058874490332
30
0
41
1
10
-19
20
10.0162748640149
30
0
41
1
10
-19
20
10.0226131177802
30
0
41
1
10
-19
20
10.0275224425779
30
0
41
1
10
-19
20
10.0309830121398
30
0
41
1
10
-19
20
10.0329737078169
30
0
41
1
10
-19
20
10.0333795361003
30
0
41
1
10
-19
20
10.0330943044152
30
0
41
1
10
-19
20
10.0329573586701
30
0
0
SPLINE
5
168
100
AcDbEntity
8
SK1
62
256
6
ByLayer
370
18
48
1
60
0
100
AcDbSpline
70
4
71
3
72
87
73
83
40
0
40
0
40
0
40
0
40
0.0205895173226871
40
0.0422092341793804
40
0.0638289510360737
40
0.0746388094644204
40
0.085448667892767
40
0.0962585263211137
40
0.10706838474946
40
0.117878243177807
40
0.128688101606154
40
0.1394979600345
40
0.150307818462847
40
0.161117676891194
40
0.17192753531954
40
0.182737393747887
40
0.193547252176234
40
0.20435711060458
40
0.215166969032927
40
0.225976827461274
40
0.23678668588962
40
0.247596544317967
40
0.258406402746313
40
0.280026119603007
40
0.3016458364597
40
0.312455694888047
40
0.323265553316393
40
0.33407541174474
40
0.344885270173087
40
0.355695128601433
40
0.36650498702978
40
0.377314845458127
40
0.388124703886473
40
0.409744420743167
40
0.43136413759986
40
0.442173996028207
40
0.452983854456553
40
0.4637937128849
40
0.474603571313246
40
0.485413429741593
40
0.49622328816994
40
0.507033146598286
40
0.517843005026633
40
0.539462721883326
40
0.56108243874002
40
0.571892297168366
40
0.582702155596713
40
0.59351201402506
40
0.604321872453406
40
0.615131730881753
40
0.6259415893101
40
0.636751447738446
40
0.647561306166793
40
0.669181023023486
40
0.69080073988018
40
0.701610598308526
40
0.712420456736873
40
0.723230315165219
40
0.734040173593566
40
0.744850032021913
40
0.75565989045026
40
0.766469748878606
40
0.777279607306953
40
0.788089465735299
40
0.798899324163646
40
0.809709182591993
40
0.820519041020339
40
0.831328899448686
40
0.842138757877033
40
0.852948616305379
40
0.863758474733726
40
0.874568333162073
40
0.885378191590419
40
0.896188050018766
40
0.906997908447112
40
0.928617625303806
40
0.939427483732152
40
0.950237342160499
40
0.961047200588846
40
0.971857059017192
40
0.993476775873886
40
1
40
1
40
1
40
1
41
1
10
-0.394976888875277
20
4.64126630129056
30
0
41
1
10
-0.394976888875277
20
4.70975933848587
30
0
41
1
10
-0.394976888875277
20
4.84919883643008
30
0
41
1
10
-0.394976888875277
20
5.05691306897958
30
0
41
1
10
-0.394976888875277
20
5.2299607904209
30
0
41
1
10
-0.394976888875277
20
5.36691601337117
30
0
41
1
10
-0.394976888875277
20
5.46873573922787
30
0
41
1
10
-0.394976888875277
20
5.56972480779478
30
0
41
1
10
-0.394976888875277
20
5.66988183380954
30
0
41
1
10
-0.394976888875277
20
5.76920475793781
30
0
41
1
10
-0.394976888875277
20
5.8676917140148
30
0
41
1
10
-0.394976888875277
20
5.96534094682289
30
0
41
1
10
-0.394976888875277
20
6.06215026481468
30
0
41
1
10
-0.394976888875277
20
6.15811800993771
30
0
41
1
10
-0.394976888875277
20
6.25324207373163
30
0
41
1
10
-0.394976888875277
20
6.34752034717769
30
0
41
1
10
-0.394976888875277
20
6.44095106217856
30
0
41
1
10
-0.394976888875277
20
6.53353195984096
30
0
41
1
10
-0.394976888875277
20
6.62526091746003
30
0
41
1
10
-0.394976888875277
20
6.71613591163143
30
0
41
1
10
-0.394976888875277
20
6.80615436611964
30
0
41
1
10
-0.394976888875277
20
6.89531421629039
30
0
41
1
10
-0.394976888875277
20
7.01311652640493
30
0
41
1
10
-0.394976888875277
20
7.15805527924184
30
0
41
1
10
-0.394976888875277
20
7.30009987737762
30
0
41
1
10
-0.394976888875277
20
7.41210655371302
30
0
41
1
10
-0.394976888875277
20
7.49518683136168
30
0
41
1
10
-0.394976888875277
20
7.57738775597255
30
0
41
1
10
-0.394976888875277
20
7.65870656932981
30
0
41
1
10
-0.394976888875277
20
7.73914053534185
30
0
41
1
10
-0.394976888875277
20
7.81868611994122
30
0
41
1
10
-0.394976888875277
20
7.89734053346649
30
0
41
1
10
-0.394976888875277
20
8.00107946944797
30
0
41
1
10
-0.394976888875277
20
8.12837715497497
30
0
41
1
10
-0.394976888875277
20
8.25266064944725
30
0
41
1
10
-0.394976888875277
20
8.35036327427801
30
0
41
1
10
-0.394976888875277
20
8.42268346582151
30
0
41
1
10
-0.394976888875277
20
8.49408386680085
30
0
41
1
10
-0.394976888875277
20
8.56456063385824
30
0
41
1
10
-0.394976888875277
20
8.63410993550619
30
0
41
1
10
-0.394976888875277
20
8.70272704218718
30
0
41
1
10
-0.394976888875277
20
8.77040796817133
30
0
41
1
10
-0.394976888875277
20
8.85944470922473
30
0
41
1
10
-0.394976888875277
20
8.96826608195681
30
0
41
1
10
-0.394976888875277
20
9.07390697555735
30
0
41
1
10
-0.394976888875277
20
9.156574137538
30
0
41
1
10
-0.394976888875277
20
9.21756975316299
30
0
41
1
10
-0.394976888875277
20
9.27758983691163
30
0
41
1
10
-0.394976888875277
20
9.33662895751223
30
0
41
1
10
-0.394976888875277
20
9.39468180573056
30
0
41
1
10
-0.394976888875277
20
9.45174200258421
30
0
41
1
10
-0.394976888875277
20
9.50780389645979
30
0
41
1
10
-0.394976888875277
20
9.58125528659923
30
0
41
1
10
-0.394976888875277
20
9.67044907777677
30
0
41
1
10
-0.394976888875277
20
9.75623202994143
30
0
41
1
10
-0.394976888875277
20
9.8228521720736
30
0
41
1
10
-0.394976888875277
20
9.87174304842168
30
0
41
1
10
-0.394976888875277
20
9.91958105894813
30
0
41
1
10
-0.394976888875277
20
9.9663584938545
30
0
41
1
10
-0.394976888875277
20
10.0120677589968
30
0
41
1
10
-0.394976888875277
20
10.0567002175973
30
0
41
1
10
-0.394976888875277
20
10.1002477853245
30
0
41
1
10
-0.394976888875277
20
10.1427016347534
30
0
41
1
10
-0.394976888875277
20
10.1840526482538
30
0
41
1
10
-0.394976888875277
20
10.2242918789209
30
0
41
1
10
-0.394976888875277
20
10.2634097977789
30
0
41
1
10
-0.394976888875277
20
10.3013963717051
30
0
41
1
10
-0.394976888875277
20
10.3382419231241
30
0
41
1
10
-0.394976888875277
20
10.373935478284
30
0
41
1
10
-0.394976888875277
20
10.4084665881748
30
0
41
1
10
-0.394976888875277
20
10.4418240218233
30
0
41
1
10
-0.394976888875277
20
10.4739962096758
30
0
41
1
10
-0.394976888875277
20
10.5049713318295
30
0
41
1
10
-0.394976888875277
20
10.5347371933948
30
0
41
1
10
-0.394976888875277
20
10.5728196085917
30
0
41
1
10
-0.394976888875277
20
10.6083610274959
30
0
41
1
10
-0.394976888875277
20
10.6414451810514
30
0
41
1
10
-0.394976888875277
20
10.664964154205
30
0
41
1
10
-0.394976888875277
20
10.687189908093
30
0
41
1
10
-0.394976888875277
20
10.7150986110188
30
0
41
1
10
-0.394976888875277
20
10.7378232718494
30
0
41
1
10
-0.394976888875306
20
10.7527121733308
30
0
41
1
10
-0.394976888875306
20
10.7560803013498
30
0
0
SPLINE
5
169
100
AcDbEntity
8
SK1
62
256
6
ByLayer
370
18
48
1
60
0
100
AcDbSpline
70
4
71
3
72
87
73
83
40
0
40
0
40
0
40
0
40
0.0065230984676901
40
0.0281428542100308
40
0.0389527320812011
40
0.0497626099523715
40
0.0605724878235418
40
0.0713823656947122
40
0.0930021214370528
40
0.103811999308223
40
0.114621877179394
40
0.125431755050564
40
0.136241632921734
40
0.147051510792905
40
0.157861388664075
40
0.168671266535245
40
0.179481144406416
40
0.190291022277586
40
0.201100900148756
40
0.211910778019927
40
0.222720655891097
40
0.233530533762267
40
0.244340411633438
40
0.255150289504608
40
0.265960167375778
40
0.276770045246949
40
0.287579923118119
40
0.298389800989289
40
0.30919967886046
40
0.3308194346028
40
0.352439190345141
40
0.363249068216311
40
0.374058946087482
40
0.384868823958652
40
0.395678701829823
40
0.406488579700993
40
0.417298457572163
40
0.428108335443333
40
0.438918213314504
40
0.460537969056845
40
0.482157724799185
40
0.492967602670356
40
0.503777480541526
40
0.514587358412696
40
0.525397236283867
40
0.536207114155037
40
0.547016992026207
40
0.557826869897378
40
0.568636747768548
40
0.590256503510889
40
0.611876259253229
40
0.6226861371244
40
0.63349601499557
40
0.64430589286674
40
0.655115770737911
40
0.665925648609081
40
0.676735526480251
40
0.687545404351422
40
0.698355282222592
40
0.719975037964933
40
0.741594793707273
40
0.752404671578444
40
0.763214549449614
40
0.774024427320784
40
0.784834305191955
40
0.795644183063125
40
0.806454060934296
40
0.817263938805466
40
0.828073816676636
40
0.838883694547807
40
0.849693572418977
40
0.860503450290147
40
0.871313328161318
40
0.882123206032488
40
0.892933083903658
40
0.903742961774829
40
0.914552839645999
40
0.925362717517169
40
0.93617259538834
40
0.95779235113068
40
0.979412106873021
40
1
40
1
40
1
40
1
41
1
10
-0.394976888875277
20
-10.7560800796136
30
0
41
1
10
-0.394976888875277
20
-10.7527120189824
30
0
41
1
10
-0.394976888875277
20
-10.7378231841735
30
0
41
1
10
-0.394976888875306
20
-10.7150986230281
30
0
41
1
10
-0.394976888875306
20
-10.6871899043463
30
0
41
1
10
-0.394976888875306
20
-10.6649641398451
30
0
41
1
10
-0.394976888875306
20
-10.6414451731179
30
0
41
1
10
-0.394976888875306
20
-10.6083610391774
30
0
41
1
10
-0.394976888875306
20
-10.5728196102718
30
0
41
1
10
-0.394976888875306
20
-10.5347371860945
30
0
41
1
10
-0.394976888875306
20
-10.5049713249704
30
0
41
1
10
-0.394976888875306
20
-10.4739962130972
30
0
41
1
10
-0.394976888875306
20
-10.4418240333465
30
0
41
1
10
-0.394976888875306
20
-10.4084665953504
30
0
41
1
10
-0.394976888875306
20
-10.3739354752827
30
0
41
1
10
-0.394976888875306
20
-10.3382419186448
30
0
41
1
10
-0.394976888875306
20
-10.3013963735904
30
0
41
1
10
-0.394976888875306
20
-10.2634098071932
30
0
41
1
10
-0.394976888875306
20
-10.2242918912355
30
0
41
1
10
-0.394976888875306
20
-10.1840526544675
30
0
41
1
10
-0.394976888875306
20
-10.1427016339893
30
0
41
1
10
-0.394976888875306
20
-10.1002477857307
30
0
41
1
10
-0.394976888875306
20
-10.0567002250884
30
0
41
1
10
-0.394976888875306
20
-10.0120677716559
30
0
41
1
10
-0.394976888875306
20
-9.96635850688563
30
0
41
1
10
-0.394976888875306
20
-9.9195810672756
30
0
41
1
10
-0.394976888875306
20
-9.87174305179948
30
0
41
1
10
-0.394976888875306
20
-9.8228521774133
30
0
41
1
10
-0.394976888875306
20
-9.75623204290733
30
0
41
1
10
-0.394976888875306
20
-9.67044909356338
30
0
41
1
10
-0.394976888875306
20
-9.58125529483195
30
0
41
1
10
-0.394976888875306
20
-9.50780390566945
30
0
41
1
10
-0.394976888875306
20
-9.45174201576444
30
0
41
1
10
-0.394976888875306
20
-9.39468182193772
30
0
41
1
10
-0.394976888875306
20
-9.33662897444754
30
0
41
1
10
-0.394976888875306
20
-9.27758985219697
30
0
41
1
10
-0.394976888875306
20
-9.21756976623391
30
0
41
1
10
-0.394976888875306
20
-9.15657415078076
30
0
41
1
10
-0.394976888875306
20
-9.07390699150645
30
0
41
1
10
-0.394976888875306
20
-8.96826610167739
30
0
41
1
10
-0.394976888875306
20
-8.85944472740889
30
0
41
1
10
-0.394976888875306
20
-8.77040798541609
30
0
41
1
10
-0.394976888875306
20
-8.70272705940039
30
0
41
1
10
-0.394976888875306
20
-8.63410995408893
30
0
41
1
10
-0.394976888875306
20
-8.56456065460728
30
0
41
1
10
-0.394976888875306
20
-8.494083889178
30
0
41
1
10
-0.394976888875306
20
-8.42268348862098
30
0
41
1
10
-0.394976888875306
20
-8.35036329562493
30
0
41
1
10
-0.394976888875306
20
-8.25266066821666
30
0
41
1
10
-0.394976888875306
20
-8.12837717774204
30
0
41
1
10
-0.394976888875306
20
-8.00107949685969
30
0
41
1
10
-0.394976888875306
20
-7.89734055913431
30
0
41
1
10
-0.394976888875306
20
-7.81868614170455
30
0
41
1
10
-0.394976888875306
20
-7.73914055621265
30
0
41
1
10
-0.394976888875306
20
-7.65870659316923
30
0
41
1
10
-0.394976888875306
20
-7.57738778439318
30
0
41
1
10
-0.394976888875306
20
-7.49518686307914
30
0
41
1
10
-0.394976888875306
20
-7.41210658285704
30
0
41
1
10
-0.394976888875306
20
-7.30009989843438
30
0
41
1
10
-0.394976888875306
20
-7.15805530645628
30
0
41
1
10
-0.394976888875306
20
-7.01311656207406
30
0
41
1
10
-0.394976888875306
20
-6.89531424839751
30
0
41
1
10
-0.394976888875306
20
-6.80615439018041
30
0
41
1
10
-0.394976888875306
20
-6.71613593458255
30
0
41
1
10
-0.394976888875306
20
-6.62526094744771
30
0
41
1
10
-0.394976888875306
20
-6.5335319966735
30
0
41
1
10
-0.394976888875306
20
-6.44095110045453
30
0
41
1
10
-0.394976888875306
20
-6.34752037917039
30
0
41
1
10
-0.394976888875306
20
-6.25324209742863
30
0
41
1
10
-0.394976888875306
20
-6.15811803500972
30
0
41
1
10
-0.394976888875306
20
-6.06215030170887
30
0
41
1
10
-0.394976888875306
20
-5.96534098944565
30
0
41
1
10
-0.394976888875306
20
-5.86769175097615
30
0
41
1
10
-0.394976888875306
20
-5.76920478634827
30
0
41
1
10
-0.394976888875306
20
-5.66988185892194
30
0
41
1
10
-0.394976888875306
20
-5.56972484101726
30
0
41
1
10
-0.394976888875306
20
-5.46873578487436
30
0
41
1
10
-0.394976888875306
20
-5.36691605746566
30
0
41
1
10
-0.394976888875306
20
-5.22996081233961
30
0
41
1
10
-0.394976888875306
20
-5.05691311008314
30
0
41
1
10
-0.394976888875306
20
-4.84920429303571
30
0
41
1
10
-0.394976888875306
20
-4.70977032131108
30
0
41
1
10
-0.394976888875306
20
-4.64126507959355
30
0
0
SPLINE
5
16A
100
AcDbEntity
8
1
62
256
6
ByLayer
370
18
48
1
60
0
100
AcDbSpline
70
4
71
3
72
18
73
14
40
0
40
0
40
0
40
0
40
0.156520280442524
40
0.156520280442524
40
0.585023261695272
40
0.585023261695272
40
0.685386773609267
40
0.685386773609267
40
0.766471516489855
40
0.766471516489855
40
0.884333032365903
40
0.884333032365903
40
1
40
1
40
1
40
1
41
1
10
12.9713987991871
20
-5.88946527842415
30
0
41
1
10
12.9705044675118
20
-5.89319256086975
30
0
41
1
10
12.9714045327808
20
-5.89796813399607
30
0
41
1
10
12.9806640169219
20
-5.92189973551166
30
0
41
1
10
12.9927411724599
20
-5.96894354996812
30
0
41
1
10
13.0256902219853
20
-6.01817089215152
30
0
41
1
10
13.0336077754562
20
-6.02591670067045
30
0
41
1
10
13.0519628119761
20
-6.0314940855568
30
0
41
1
10
13.0617798055583
20
-6.0309246222902
30
0
41
1
10
13.0874666123959
20
-6.02262083086035
30
0
41
1
10
13.1045131529629
20
-6.01176017848894
30
0
41
1
10
13.1378123811051
20
-5.98444123325046
30
0
41
1
10
13.1545248853815
20
-5.96785575361451
30
0
41
1
10
13.1708474242868
20
-5.95002360404919
30
0
0
SPLINE
5
16B
100
AcDbEntity
8
1
62
256
6
ByLayer
370
18
48
1
60
0
100
AcDbSpline
70
4
71
3
72
10
73
6
40
0
40
0
40
0
40
0
40
0.5
40
0.5
40
1
40
1
40
1
40
1
41
1
10
12.7741541977767
20
14.3128545926015
30
0
41
1
10
12.8434750211839
20
14.7087453351132
30
0
41
1
10
13.1579665248846
20
15.0185113221323
30
0
41
1
10
14.2657029429246
20
15.4383657118068
30
0
41
1
10
15.0514611918769
20
15.5494458161271
30
0
41
1
10
15.92079238
20
15.5923233215139
30
0
0
SPLINE
5
16C
100
AcDbEntity
8
1
62
256
6
ByLayer
370
18
48
1
60
0
100
AcDbSpline
70
4
71
3
72
26
73
22
40
0
40
0
40
0
40
0
40
0.0621074607050986
40
0.0621074607050986
40
0.101296177862878
40
0.101296177862878
40
0.140967258313867
40
0.140967258313867
40
0.18791300266939
40
0.18791300266939
40
0.386009855283823
40
0.386009855283823
40
0.582507180869086
40
0.582507180869086
40
0.75348058764438
40
0.75348058764438
40
0.886994016642741
40
0.886994016642741
40
0.993958864044202
40
0.993958864044202
40
1
40
1
40
1
40
1
41
1
10
16.9810568159355
20
-6.61023299569277
30
0
41
1
10
16.987924785057
20
-6.63698519615983
30
0
41
1
10
16.9975014831359
20
-6.66256797647111
30
0
41
1
10
17.0206678738861
20
-6.69660689701411
30
0
41
1
10
17.0317461574803
20
-6.708036343602
30
0
41
1
10
17.0580373846206
20
-6.7241449975613
30
0
41
1
10
17.0737195924912
20
-6.728835792631
30
0
41
1
10
17.1099780128083
20
-6.73033204863356
30
0
41
1
10
17.1312029254429
20
-6.72587781471086
30
0
41
1
10
17.2410226279873
20
-6.69480287063683
30
0
41
1
10
17.3401412695044
20
-6.67069929357993
30
0
41
1
10
17.5449325981383
20
-6.67661793538352
30
0
41
1
10
17.6534216436731
20
-6.68699596052599
30
0
41
1
10
17.8535119996861
20
-6.7106958757939
30
0
41
1
10
17.9478003489036
20
-6.72584497235107
30
0
41
1
10
18.101938695215
20
-6.77356135617134
30
0
41
1
10
18.1660982712078
20
-6.80273296864078
30
0
41
1
10
18.2643794137575
20
-6.87132362038636
30
0
41
1
10
18.3029742655993
20
-6.90753822052235
30
0
41
1
10
18.3378224592526
20
-6.94865664244295
30
0
41
1
10
18.3396343835098
20
-6.95084312583023
30
0
41
1
10
18.3414467269876
20
-6.95301761135511
30
0
0
SPLINE
5
16D
100
AcDbEntity
8
1
62
256
6
ByLayer
370
18
48
1
60
0
100
AcDbSpline
70
4
71
3
72
8
73
4
40
0
40
0
40
0
40
0
40
1
40
1
40
1
40
1
41
1
10
15.92079238
20
-15.9961057295521
30
0
41
1
10
16.1374416372897
20
-16.8108979206188
30
0
41
1
10
16.3559442682927
20
-17.6247625209895
30
0
41
1
10
16.5756767869074
20
-18.437999477459
30
0
0
SPLINE
5
16E
100
AcDbEntity
8
1
62
256
6
ByLayer
370
18
48
1
60
0
100
AcDbSpline
70
4
71
2
72
6
73
3
40
0
40
0
40
0
40
1
40
1
40
1
41
1.02613459695995
10
15.3409413456821
20
-4.96150838908456
30
0
41
0.9587829270631
10
14.9306691871344
20
-4.89041898050721
30
0
41
0.921617779617833
10
14.4845910523958
20
-5.03848145894751
30
0
0
SPLINE
5
16F
100
AcDbEntity
8
1
62
256
6
ByLayer
370
18
48
1
60
0
100
AcDbSpline
70
4
71
3
72
10
73
6
40
0
40
0
40
0
40
0
40
0.355303262417053
40
0.914631864838343
40
1
40
1
40
1
40
1
41
1
10
16.3087563421965
20
-3.37328269921144
30
0
41
1
10
16.1300654847265
20
-3.62505453746542
30
0
41
1
10
15.7059075241455
20
-4.29175212347758
30
0
41
1
10
15.5676443483226
20
-4.63153611205686
30
0
41
1
10
15.447756685659
20
-4.93588563253385
30
0
41
1
10
15.4316606169118
20
-4.97722766031453
30
0
0
SPLINE
5
170
100
AcDbEntity
8
1
62
256
6
ByLayer
370
18
48
1
60
0
100
AcDbSpline
70
4
71
3
72
16
73
12
40
0
40
0
40
0
40
0
40
0.211006612613917
40
0.211006612613917
40
0.42154180086041
40
0.42154180086041
40
0.639086285969195
40
0.639086285969195
40
0.862687521209483
40
0.862687521209483
40
1
40
1
40
1
40
1
41
1
10
14.418010997077
20
-15.9982404980158
30
0
41
1
10
14.4894347718059
20
-15.9969415447718
30
0
41
1
10
14.577476864226
20
-15.9950857305063
30
0
41
1
10
14.7705974881549
20
-15.9917212008181
30
0
41
1
10
14.878226316209
20
-15.9901866938993
30
0
41
1
10
15.1021845583521
20
-15.9883621360268
30
0
41
1
10
15.2217232478132
20
-15.9881001121723
30
0
41
1
10
15.4566326259349
20
-15.9890730111099
30
0
41
1
10
15.5750654296288
20
-15.9903587377166
30
0
41
1
10
15.7500559547801
20
-15.9930022204745
30
0
41
1
10
15.8139955850425
20
-15.9941477476263
30
0
41
1
10
15.8728020926894
20
-15.9952493876417
30
0
0
SPLINE
5
171
100
AcDbEntity
8
1
62
256
6
ByLayer
370
18
48
1
60
0
100
AcDbSpline
70
4
71
3
72
12
73
8
40
0
40
0
40
0
40
0
40
0.449437514986472
40
0.449437514986472
40
0.724692533665337
40
0.724692533665337
40
1
40
1
40
1
40
1
41
1
10
16.5662725446435
20
-3.16199363966359
30
0
41
1
10
16.5274503573965
20
-3.19345269235612
30
0
41
1
10
16.4887570492856
20
-3.22504254767694
30
0
41
1
10
16.4265321538513
20
-3.276090323018
30
0
41
1
10
16.4029345571637
20
-3.29550711589249
30
0
41
1
10
16.3558012258846
20
-3.33437448018296
30
0
41
1
10
16.3322643897032
20
-3.35382599835083
30
0
41
1
10
16.3087563421965
20
-3.37328269921147
30
0
0
SPLINE
5
172
100
AcDbEntity
8
1
62
256
6
ByLayer
370
18
48
1
60
0
100
AcDbSpline
70
4
71
3
72
12
73
8
40
0
40
0
40
0
40
0
40
0.35654007327424
40
0.35654007327424
40
0.711686786463842
40
0.711686786463842
40
1
40
1
40
1
40
1
41
1
10
7.33660254037846
20
9.85439676133458
30
0
41
1
10
7.31747363180497
20
9.84378909825244
30
0
41
1
10
7.29228909459388
20
9.83818865113093
30
0
41
1
10
7.23492953436943
20
9.83573427848438
30
0
41
1
10
7.20196191369322
20
9.83879634645768
30
0
41
1
10
7.13830702790005
20
9.85124621149663
30
0
41
1
10
7.10774965943628
20
9.85947382077305
30
0
41
1
10
7.0767949192431
20
9.87008131835563
30
0
0
SPLINE
5
173
100
AcDbEntity
8
1
62
256
6
ByLayer
370
18
48
1
60
0
100
AcDbSpline
70
4
71
3
72
16
73
12
40
0
40
0
40
0
40
0
40
0.462497527135806
40
0.462497527135806
40
0.645191851133669
40
0.645191851133669
40
0.830465145084792
40
0.830465145084792
40
0.946099677592168
40
0.946099677592168
40
1
40
1
40
1
40
1
41
1
10
4.66339745962156
20
-5.06861858311171
30
0
41
1
10
4.68049745427385
20
-5.00572719980329
30
0
41
1
10
4.70393430551653
20
-4.94318132289493
30
0
41
1
10
4.75230660037377
20
-4.864513415327
30
0
41
1
10
4.76803751709781
20
-4.84296870144203
30
0
41
1
10
4.80461917683135
20
-4.80415189945637
30
0
41
1
10
4.8260183220568
20
-4.78648459402868
30
0
41
1
10
4.86534830605126
20
-4.76617783194868
30
0
41
1
10
4.88194300110749
20
-4.76031541807632
30
0
41
1
10
4.90693069677602
20
-4.75614889828648
30
0
41
1
10
4.91508241701405
20
-4.75546271781749
30
0
41
1
10
4.92320508075687
20
-4.75546271781749
30
0
0
SPLINE
5
174
100
AcDbEntity
8
1
62
256
6
ByLayer
370
18
48
1
60
0
100
AcDbSpline
70
4
71
3
72
22
73
18
40
0
40
0
40
0
40
0
40
0.102281752512735
40
0.102281752512735
40
0.206952629070746
40
0.206952629070746
40
0.328497262522869
40
0.328497262522869
40
0.463458905458316
40
0.463458905458316
40
0.597829043215314
40
0.597829043215314
40
0.731114444335857
40
0.731114444335857
40
0.887853099054233
40
0.887853099054233
40
1
40
1
40
1
40
1
41
1
10
22.7337309809813
20
-5.70300928123569
30
0
41
1
10
22.7824584255723
20
-5.42179279240932
30
0
41
1
10
22.7815729846301
20
-5.12873107933504
30
0
41
1
10
22.6916938391842
20
-4.55774076255219
30
0
41
1
10
22.6002892897244
20
-4.2733093406338
30
0
41
1
10
22.3277858388117
20
-3.70329581443639
30
0
41
1
10
22.1313441460635
20
-3.41722108069629
30
0
41
1
10
21.6439866833112
20
-2.89436378564179
30
0
41
1
10
21.3375658731331
20
-2.65903110735553
30
0
41
1
10
20.6732599313287
20
-2.31205525076962
30
0
41
1
10
20.3063465174744
20
-2.19700041720142
30
0
41
1
10
19.5681833592401
20
-2.09031105024462
30
0
41
1
10
19.1886730630343
20
-2.09516009739176
30
0
41
1
10
18.3878393175512
20
-2.20958804850645
30
0
41
1
10
17.959369605491
20
-2.33444027901325
30
0
41
1
10
17.2778139048776
20
-2.64992119688804
30
0
41
1
10
17.0073508836022
20
-2.81713920599077
30
0
41
1
10
16.7589329901437
20
-3.00921900217179
30
0
0
SPLINE
5
175
100
AcDbEntity
8
1
62
256
6
ByLayer
370
18
48
1
60
0
100
AcDbSpline
70
4
71
3
72
12
73
8
40
0
40
0
40
0
40
0
40
0.359128088279888
40
0.359128088279888
40
0.717046981275945
40
0.717046981275945
40
1
40
1
40
1
40
1
41
1
10
4.9232050807569
20
9.87008131835563
30
0
41
1
10
4.88483116242989
20
9.85693143425559
30
0
41
1
10
4.84700533227226
20
9.84742652971201
30
0
41
1
10
4.77833679418268
20
9.83667371706971
30
0
41
1
10
4.7464779188204
20
9.83523144807327
30
0
41
1
10
4.69772462078586
20
9.8406631001946
30
0
41
1
10
4.67865447552813
20
9.84593620103894
30
0
41
1
10
4.66339745962154
20
9.85439676133458
30
0
0
SPLINE
5
176
100
AcDbEntity
8
1
62
256
6
ByLayer
370
18
48
1
60
0
100
AcDbSpline
70
4
71
3
72
16
73
12
40
0
40
0
40
0
40
0
40
0.462497527135787
40
0.462497527135787
40
0.645191851133657
40
0.645191851133657
40
0.830465145084786
40
0.830465145084786
40
0.946099677592161
40
0.946099677592161
40
1
40
1
40
1
40
1
41
1
10
4.66339745962156
20
15.1759383782004
30
0
41
1
10
4.68049745427382
20
15.1969435000064
30
0
41
1
10
4.70393430551653
20
15.2173733040723
30
0
41
1
10
4.75230660037377
20
15.2426068177431
30
0
41
1
10
4.76803751709781
20
15.2494611471717
30
0
41
1
10
4.80461917683135
20
15.2617345707429
30
0
41
1
10
4.8260183220568
20
15.2672766430868
30
0
41
1
10
4.86534830605126
20
15.2736248541653
30
0
41
1
10
4.88194300110749
20
15.2754510872996
30
0
41
1
10
4.90693069677602
20
15.2767486596485
30
0
41
1
10
4.91508241701405
20
15.2769622091386
30
0
41
1
10
4.92320508075687
20
15.2769622091386
30
0
0
SPLINE
5
177
100
AcDbEntity
8
1
62
256
6
ByLayer
370
18
48
1
60
0
100
AcDbSpline
70
4
71
3
72
16
73
12
40
0
40
0
40
0
40
0
40
0.46249752713583
40
0.46249752713583
40
0.645191851133689
40
0.645191851133689
40
0.830465145084805
40
0.830465145084805
40
0.946099677592179
40
0.946099677592179
40
1
40
1
40
1
40
1
41
1
10
7.33660254037844
20
-15.1759383782004
30
0
41
1
10
7.31950254572615
20
-15.1969435000064
30
0
41
1
10
7.29606569448347
20
-15.2173733040723
30
0
41
1
10
7.24769339962623
20
-15.2426068177431
30
0
41
1
10
7.23196248290219
20
-15.2494611471717
30
0
41
1
10
7.19538082316862
20
-15.2617345707429
30
0
41
1
10
7.1739816779432
20
-15.2672766430868
30
0
41
1
10
7.13465169394871
20
-15.2736248541653
30
0
41
1
10
7.11805699889248
20
-15.2754510872996
30
0
41
1
10
7.09306930322398
20
-15.2767486596485
30
0
41
1
10
7.08491758298595
20
-15.2769622091386
30
0
41
1
10
7.07679491924313
20
-15.2769622091386
30
0
0
SPLINE
5
178
100
AcDbEntity
8
1
62
256
6
ByLayer
370
18
48
1
60
0
100
AcDbSpline
70
4
71
3
72
10
73
6
40
0
40
0
40
0
40
0
40
0.729728379453823
40
0.729728379453823
40
1
40
1
40
1
40
1
41
1
10
12.8361863080757
20
-7.86137932381706
30
0
41
1
10
12.8476407671438
20
-7.36260478426863
30
0
41
1
10
12.8648457739013
20
-6.86181454812169
30
0
41
1
10
12.9282693070093
20
-6.21344466653591
30
0
41
1
10
12.9497896535333
20
-6.0405007506923
30
0
41
1
10
12.9810823200044
20
-5.88016777508619
30
0
0
SPLINE
5
179
100
AcDbEntity
8
1
62
256
6
ByLayer
370
18
48
1
60
0
100
AcDbSpline
70
4
71
3
72
8
73
4
40
0
40
0
40
0
40
0
40
1
40
1
40
1
40
1
41
1
10
16.7589329901439
20
-3.00921900217165
30
0
41
1
10
16.6940823137986
20
-3.05936234942092
30
0
41
1
10
16.6299175156518
20
-3.11041976815983
30
0
41
1
10
16.5662725446441
20
-3.16199363966285
30
0
0
SPLINE
5
17A
100
AcDbEntity
8
1
62
256
6
ByLayer
370
18
48
1
60
0
100
AcDbSpline
70
4
71
3
72
8
73
4
40
0
40
0
40
0
40
0
40
1
40
1
40
1
40
1
41
1
10
15.9609847588647
20
15.7481189050887
30
0
41
1
10
15.947577735613
20
15.6961857997881
30
0
41
1
10
15.9341801606201
20
15.6442538714101
30
0
41
1
10
15.92079238
20
15.5923233215139
30
0
0
SPLINE
5
17B
100
AcDbEntity
8
1
62
256
6
ByLayer
370
18
48
1
60
0
100
AcDbSpline
70
4
71
3
72
16
73
12
40
0
40
0
40
0
40
0
40
0.0893447905909079
40
0.0893447905909079
40
0.394564173654674
40
0.394564173654674
40
0.696454220287505
40
0.696454220287505
40
0.998044768919908
40
0.998044768919908
40
1
40
1
40
1
40
1
41
1
10
8.25637078670454
20
10.0382227738591
30
0
41
1
10
8.29188071446907
20
9.98013075940901
30
0
41
1
10
8.32375317950073
20
9.92027340667141
30
0
41
1
10
8.44668209052261
20
9.65142425179545
30
0
41
1
10
8.4975587007518
20
9.42371512525111
30
0
41
1
10
8.50224001181999
20
8.96754427022213
30
0
41
1
10
8.45715857265239
20
8.73287348702544
30
0
41
1
10
8.28000734663198
20
8.28816811282948
30
0
41
1
10
8.14566101978465
20
8.07209586640488
30
0
41
1
10
7.97541934780458
20
7.87991746684767
30
0
41
1
10
7.97430611133368
20
7.8786634941936
30
0
41
1
10
7.97319131823616
20
7.8774104762806
30
0
0
SPLINE
5
17C
100
AcDbEntity
8
1
62
256
6
ByLayer
370
18
48
1
60
0
100
AcDbSpline
70
4
71
3
72
10
73
6
40
0
40
0
40
0
40
0
40
0.425348967069602
40
0.850697934139205
40
1
40
1
40
1
40
1
41
1
10
22.7437085552711
20
-5.70602235505524
30
0
41
1
10
22.1345054527634
20
-5.5213874698068
30
0
41
1
10
20.8707013855587
20
-5.38179102655224
30
0
41
1
10
19.3149489637659
20
-6.10285802425463
30
0
41
1
10
18.5429093910412
20
-6.7453225734869
30
0
41
1
10
18.3414467345685
20
-6.95301760353968
30
0
0
SPLINE
5
17D
100
AcDbEntity
8
1
62
256
6
ByLayer
370
18
48
1
60
0
100
AcDbSpline
70
4
71
3
72
8
73
4
40
0
40
0
40
0
40
0
40
1
40
1
40
1
40
1
41
1
10
16.0711547315777
20
-3.57050961746924
30
0
41
1
10
15.4895441221462
20
-4.05378667745728
30
0
41
1
10
14.9843984861713
20
-4.57479582852721
30
0
41
1
10
14.4845910523996
20
-5.03848145894628
30
0
0
SPLINE
5
17E
100
AcDbEntity
8
1
62
256
6
ByLayer
370
18
48
1
60
0
100
AcDbSpline
70
4
71
3
72
14
73
10
40
0
40
0
40
0
40
0
40
0.2969672857816
40
0.2969672857816
40
0.553944134185743
40
0.553944134185743
40
0.800612907430037
40
0.800612907430037
40
1
40
1
40
1
40
1
41
1
10
10.9544988330956
20
-14.7536853458793
30
0
41
1
10
10.8209769742928
20
-14.7943440061332
30
0
41
1
10
10.7065234384548
20
-14.8452253182729
30
0
41
1
10
10.5501007484488
20
-14.9459337484734
30
0
41
1
10
10.4981781289303
20
-14.9965508756883
30
0
41
1
10
10.4515566066516
20
-15.0935414511377
30
0
41
1
10
10.4542271366791
20
-15.1416117490941
30
0
41
1
10
10.5125246457579
20
-15.2202016048813
30
0
41
1
10
10.5590090746976
20
-15.2533923721925
30
0
41
1
10
10.6232139564475
20
-15.2815782462898
30
0
0
SPLINE
5
17F
100
AcDbEntity
8
1
62
256
6
ByLayer
370
18
48
1
60
0
100
AcDbSpline
70
4
71
3
72
16
73
12
40
0
40
0
40
0
40
0
40
0.112904383055294
40
0.112904383055294
40
0.251995806601948
40
0.251995806601948
40
0.4711774786145
40
0.4711774786145
40
0.892334804026132
40
0.892334804026132
40
1
40
1
40
1
40
1
41
1
10
4.92320508075687
20
4.75546271781755
30
0
41
1
10
4.90636996355747
20
4.75546271781755
30
0
41
1
10
4.88932551790364
20
4.75851551862661
30
0
41
1
10
4.85400387216043
20
4.77071315953359
30
0
41
1
10
4.83576156988676
20
4.78117073972194
30
0
41
1
10
4.79405363685711
20
4.81283214608439
30
0
41
1
10
4.77256184645842
20
4.83715715133616
30
0
41
1
10
4.7195295905812
20
4.91214630601436
30
0
41
1
10
4.69506482950476
20
4.96811547083689
30
0
41
1
10
4.67177931116103
20
5.0391902125468
30
0
41
1
10
4.66740846582624
20
5.05386666454072
30
0
41
1
10
4.66339745962151
20
5.06861858311169
30
0
0
SPLINE
5
180
100
AcDbEntity
8
1
62
256
6
ByLayer
370
18
48
1
60
0
100
AcDbSpline
70
4
71
3
72
16
73
12
40
0
40
0
40
0
40
0
40
0.112904383055298
40
0.112904383055298
40
0.251995806601949
40
0.251995806601949
40
0.471177478614513
40
0.471177478614513
40
0.892334804026096
40
0.892334804026096
40
1
40
1
40
1
40
1
41
1
10
4.92320508075687
20
-15.2769622091385
30
0
41
1
10
4.90636996355747
20
-15.2769622091385
30
0
41
1
10
4.88932551790361
20
-15.2760126621563
30
0
41
1
10
4.85400387216043
20
-15.2722082770661
30
0
41
1
10
4.83576156988676
20
-15.2689414463835
30
0
41
1
10
4.79405363685711
20
-15.2589992478797
30
0
41
1
10
4.77256184645842
20
-15.2513160232934
30
0
41
1
10
4.7195295905812
20
-15.2273927985289
30
0
41
1
10
4.69506482950476
20
-15.2092528380283
30
0
41
1
10
4.67177931116103
20
-15.1857432227236
30
0
41
1
10
4.66740846582624
20
-15.1808653782146
30
0
41
1
10
4.66339745962151
20
-15.1759383782004
30
0
0
SPLINE
5
181
100
AcDbEntity
8
1
62
256
6
ByLayer
370
18
48
1
60
0
100
AcDbSpline
70
4
71
3
72
12
73
8
40
0
40
0
40
0
40
0
40
0.49987372616505
40
0.49987372616505
40
0.749919890212107
40
0.749919890212107
40
1
40
1
40
1
40
1
41
1
10
16.3087563421965
20
-3.37328269921144
30
0
41
1
10
16.2690262405907
20
-3.4061657662499
30
0
41
1
10
16.2293737503847
20
-3.43906674275294
30
0
41
1
10
16.1699868538853
20
-3.48838550797566
30
0
41
1
10
16.1502008316219
20
-3.50482460511896
30
0
41
1
10
16.110657016933
20
-3.53768352469356
30
0
41
1
10
16.0908985567175
20
-3.55410390269756
30
0
41
1
10
16.0711547315777
20
-3.57050961746924
30
0
0
SPLINE
5
182
100
AcDbEntity
8
1
62
256
6
ByLayer
370
18
48
1
60
0
100
AcDbSpline
70
4
71
3
72
12
73
8
40
0
40
0
40
0
40
0
40
0.622689578860041
40
0.622689578860041
40
0.926349203167088
40
0.926349203167088
40
1
40
1
40
1
40
1
41
1
10
13.4993449874509
20
-5.62761749696912
30
0
41
1
10
13.3587471933076
20
-5.65276835894892
30
0
41
1
10
13.2324335952088
20
-5.63060983010527
30
0
41
1
10
13.0838778695119
20
-5.72197642614526
30
0
41
1
10
13.0409366541838
20
-5.76897945871593
30
0
41
1
10
12.9970272780123
20
-5.84673566943994
30
0
41
1
10
12.9888346768589
20
-5.86296551962863
30
0
41
1
10
12.9810823200051
20
-5.88016777508523
30
0
0
SPLINE
5
183
100
AcDbEntity
8
1
62
256
6
ByLayer
370
18
48
1
60
0
100
AcDbSpline
70
4
71
2
72
6
73
3
40
0
40
0
40
0
40
1
40
1
40
1
41
0.87672105251404
10
16.9810568159287
20
-6.61023299569185
30
0
41
0.864489916912271
10
16.6144372581256
20
-5.18217184224699
30
0
41
1.02613459695995
10
15.5223798881412
20
-4.99294693154492
30
0
0
SPLINE
5
184
100
AcDbEntity
8
1
62
256
6
ByLayer
370
18
48
1
60
0
100
AcDbSpline
70
4
71
2
72
6
73
3
40
0
40
0
40
0
40
1
40
1
40
1
41
0.876968572354895
10
13.4993449874471
20
-5.6276174969724
30
0
41
0.874884329069166
10
13.3308105085782
20
-5.77526613154047
30
0
41
0.876721052514157
10
13.1708474242868
20
-5.95002360404919
30
0
0
SPLINE
5
185
100
AcDbEntity
8
1
62
256
6
ByLayer
370
18
48
1
60
0
100
AcDbSpline
70
4
71
3
72
16
73
12
40
0
40
0
40
0
40
0
40
0.0867535557528745
40
0.0867535557528745
40
0.393261400432289
40
0.393261400432289
40
0.697237187972453
40
0.697237187972453
40
0.998485727389611
40
0.998485727389611
40
1
40
1
40
1
40
1
41
1
10
4.02680868176384
20
7.8774104762806
30
0
41
1
10
3.97767548632098
20
7.93263576799632
30
0
41
1
10
3.93151756035425
20
7.98978163838473
30
0
41
1
10
3.73834493030941
20
8.2540139883119
30
0
41
1
10
3.62684977940688
20
8.48206282856006
30
0
41
1
10
3.50116065482033
20
8.94020070587979
30
0
41
1
10
3.48447578089181
20
9.17656447855467
30
0
41
1
10
3.54557267524859
20
9.62355584819213
30
0
41
1
10
3.62331832417777
20
9.84051500568145
30
0
41
1
10
3.74241796357683
20
10.0362390026495
30
0
41
1
10
3.74302305349533
20
10.0372311344477
30
0
41
1
10
3.74362921329595
20
10.0382227738599
30
0
0
SPLINE
5
186
100
AcDbEntity
8
1
62
256
6
ByLayer
370
18
48
1
60
0
100
AcDbSpline
70
4
71
3
72
8
73
4
40
0
40
0
40
0
40
0
40
1
40
1
40
1
40
1
41
1
10
16.7589329901439
20
15.7661821630983
30
0
41
1
10
16.4915357566165
20
15.7661821630983
30
0
41
1
10
16.2227383557641
20
15.7602340345902
30
0
41
1
10
15.9609847588647
20
15.7481189050887
30
0
0
SPLINE
5
187
100
AcDbEntity
8
1
62
256
6
ByLayer
370
18
48
1
60
0
100
AcDbSpline
70
4
71
3
72
16
73
12
40
0
40
0
40
0
40
0
40
0.112904383055296
40
0.112904383055296
40
0.251995806601944
40
0.251995806601944
40
0.4711774786145
40
0.4711774786145
40
0.892334804026128
40
0.892334804026128
40
1
40
1
40
1
40
1
41
1
10
7.07679491924313
20
15.2769622091386
30
0
41
1
10
7.09363003644253
20
15.2769622091386
30
0
41
1
10
7.11067448209639
20
15.2760126621563
30
0
41
1
10
7.14599612783957
20
15.2722082770661
30
0
41
1
10
7.16423843011324
20
15.2689414463835
30
0
41
1
10
7.20594636314289
20
15.2589992478797
30
0
41
1
10
7.22743815354158
20
15.2513160232934
30
0
41
1
10
7.2804704094188
20
15.2273927985289
30
0
41
1
10
7.30493517049524
20
15.2092528380283
30
0
41
1
10
7.32822068883897
20
15.1857432227236
30
0
41
1
10
7.33259153417376
20
15.1808653782146
30
0
41
1
10
7.33660254037849
20
15.1759383782004
30
0
0
SPLINE
5
188
100
AcDbEntity
8
1
62
256
6
ByLayer
370
18
48
1
60
0
100
AcDbSpline
70
4
71
3
72
10
73
6
40
0
40
0
40
0
40
0
40
0.283668013160606
40
0.905146214788713
40
1
40
1
40
1
40
1
41
1
10
16.0711547315778
20
-3.57050961746899
30
0
41
1
10
15.9501529575928
20
-3.75086948467452
30
0
41
1
10
15.6013615395413
20
-4.31001222377151
30
0
41
1
10
15.4769250770929
20
-4.61581684082697
30
0
41
1
10
15.3570374144293
20
-4.92016636130393
30
0
41
1
10
15.3409413456821
20
-4.9615083890846
30
0
0
SPLINE
5
189
100
AcDbEntity
8
1
62
256
6
ByLayer
370
18
48
1
60
0
100
AcDbSpline
70
4
71
3
72
14
73
10
40
0
40
0
40
0
40
0
40
0.298928755008661
40
0.298928755008661
40
0.595750142810582
40
0.595750142810582
40
0.925503071220924
40
0.925503071220924
40
1
40
1
40
1
40
1
41
1
10
4.66339745962154
20
6.82049859520882
30
0
41
1
10
4.67985970116891
20
6.79641362971833
30
0
41
1
10
4.70108967960371
20
6.77205925876561
30
0
41
1
10
4.74848616462634
20
6.7275475831336
30
0
41
1
10
4.77522566357473
20
6.70675533019877
30
0
41
1
10
4.83412750640693
20
6.66871214843962
30
0
41
1
10
4.86732894151339
20
6.6516021748885
30
0
41
1
10
4.90803131496548
20
6.63548775617394
30
0
41
1
10
4.91562099694977
20
6.63268550096717
30
0
41
1
10
4.92320508075687
20
6.63008660496132
30
0
0
SPLINE
5
18A
100
AcDbEntity
8
1
62
256
6
ByLayer
370
18
48
1
60
0
100
AcDbSpline
70
4
71
3
72
12
73
8
40
0
40
0
40
0
40
0
40
0.361524906020939
40
0.361524906020939
40
0.724692414355404
40
0.724692414355404
40
1
40
1
40
1
40
1
41
1
10
7.07679491924313
20
6.63008660496132
30
0
41
1
10
7.11317772561978
20
6.64255417950014
30
0
41
1
10
7.15008939277641
20
6.65995799009707
30
0
41
1
10
7.21908135603067
20
6.70207512452407
30
0
41
1
10
7.25223103091048
20
6.72750532491912
30
0
41
1
10
7.30208927616272
20
6.77572085190226
30
0
41
1
10
7.32137465468838
20
6.79821954528214
30
0
41
1
10
7.33660254037846
20
6.82049859520882
30
0
0
SPLINE
5
18B
100
AcDbEntity
8
1
62
256
6
ByLayer
370
18
48
1
60
0
100
AcDbSpline
70
4
71
3
72
16
73
12
40
0
40
0
40
0
40
0
40
0.1129043830553
40
0.1129043830553
40
0.251995806601947
40
0.251995806601947
40
0.471177478614504
40
0.471177478614504
40
0.892334804026125
40
0.892334804026125
40
1
40
1
40
1
40
1
41
1
10
7.07679491924313
20
-4.75546271781755
30
0
41
1
10
7.09363003644253
20
-4.75546271781755
30
0
41
1
10
7.11067448209639
20
-4.75851551862661
30
0
41
1
10
7.14599612783957
20
-4.77071315953359
30
0
41
1
10
7.16423843011324
20
-4.78117073972194
30
0
41
1
10
7.20594636314289
20
-4.81283214608436
30
0
41
1
10
7.22743815354158
20
-4.83715715133616
30
0
41
1
10
7.2804704094188
20
-4.91214630601436
30
0
41
1
10
7.30493517049524
20
-4.96811547083686
30
0
41
1
10
7.32822068883897
20
-5.03919021254677
30
0
41
1
10
7.33259153417376
20
-5.05386666454072
30
0
41
1
10
7.33660254037849
20
-5.06861858311169
30
0
0
SPLINE
5
18C
100
AcDbEntity
8
1
62
256
6
ByLayer
370
18
48
1
60
0
100
AcDbSpline
70
4
71
3
72
20
73
16
40
0
40
0
40
0
40
0
40
0.217835808098324
40
0.217835808098324
40
0.402030262629002
40
0.402030262629002
40
0.544943917944888
40
0.544943917944888
40
0.663196676160131
40
0.663196676160131
40
0.781810392995292
40
0.781810392995292
40
0.929690346538259
40
0.929690346538259
40
1
40
1
40
1
40
1
41
1
10
12.8502228381182
20
5.28412480620256
30
0
41
1
10
12.8997761675178
20
5.4125064740266
30
0
41
1
10
12.9745196231908
20
5.51170720885537
30
0
41
1
10
13.1614389534449
20
5.6218639393677
30
0
41
1
10
13.2684443938316
20
5.64544220077147
30
0
41
1
10
13.4841427049608
20
5.62228061348779
30
0
41
1
10
13.5895060902612
20
5.58942600388036
30
0
41
1
10
13.7826778693305
20
5.4775014468851
30
0
41
1
10
13.8722479907594
20
5.40552936109026
30
0
41
1
10
14.0334342139809
20
5.22267206885991
30
0
41
1
10
14.1065623807145
20
5.10918899191489
30
0
41
1
10
14.2364979078696
20
4.83030539929823
30
0
41
1
10
14.2873341012272
20
4.65564731303832
30
0
41
1
10
14.3356844866258
20
4.39420628660008
30
0
41
1
10
14.3475071958955
20
4.30816867339507
30
0
41
1
10
14.3561980868046
20
4.2217834637039
30
0
0
SPLINE
5
18D
100
AcDbEntity
8
1
62
256
6
ByLayer
370
18
48
1
60
0
100
AcDbSpline
70
4
71
3
72
10
73
6
40
0
40
0
40
0
40
0
40
0.41843436300066
40
0.922991429907229
40
1
40
1
40
1
40
1
41
1.02613459695995
10
16.5662725446443
20
-3.16199363966251
30
0
41
1.02613459695995
10
16.3256611624672
20
-3.47750530931431
30
0
41
1.02613459695995
10
15.8116357744217
20
-4.27058658619232
30
0
41
1.02613459695995
10
15.6583636195522
20
-4.64725538328676
30
0
41
1.02613459695995
10
15.5384759568886
20
-4.95160490376374
30
0
41
1.02613459695995
10
15.5223798881414
20
-4.99294693154442
30
0
0
SPLINE
5
18E
100
AcDbEntity
8
1
62
256
6
ByLayer
370
18
48
1
60
0
100
AcDbSpline
70
4
71
3
72
16
73
12
40
0
40
0
40
0
40
0
40
0.462497527135778
40
0.462497527135778
40
0.645191851133639
40
0.645191851133639
40
0.830465145084769
40
0.830465145084769
40
0.946099677592151
40
0.946099677592151
40
1
40
1
40
1
40
1
41
1
10
7.33660254037844
20
5.06861858311171
30
0
41
1
10
7.31950254572618
20
5.00572719980329
30
0
41
1
10
7.29606569448347
20
4.94318132289493
30
0
41
1
10
7.24769339962626
20
4.864513415327
30
0
41
1
10
7.23196248290219
20
4.84296870144203
30
0
41
1
10
7.19538082316865
20
4.80415189945637
30
0
41
1
10
7.17398167794323
20
4.78648459402871
30
0
41
1
10
7.13465169394874
20
4.76617783194868
30
0
41
1
10
7.11805699889251
20
4.76031541807632
30
0
41
1
10
7.09306930322398
20
4.75614889828648
30
0
41
1
10
7.08491758298598
20
4.75546271781747
30
0
41
1
10
7.07679491924313
20
4.75546271781747
30
0
0
SPLINE
5
18F
100
AcDbEntity
8
SK1
62
256
6
ByLayer
370
18
48
1
60
0
100
AcDbSpline
70
4
71
3
72
26
73
22
40
0
40
0
40
0
40
0
40
0.445566590533867
40
0.445566590533867
40
0.655265017644429
40
0.655265017644429
40
0.828725510676232
40
0.828725510676232
40
0.876154403041356
40
0.876154403041356
40
0.905967808629008
40
0.905967808629008
40
0.926210487707145
40
0.926210487707145
40
0.943171934612362
40
0.943171934612362
40
0.960117618490364
40
0.960117618490364
40
0.984237918068801
40
0.984237918068801
40
1
40
1
40
1
40
1
41
1
10
-0.199999999999989
20
5.36201916124887
30
0
41
1
10
-0.199999999999989
20
5.24584624080083
30
0
41
1
10
-0.203329327154421
20
5.12739325570544
30
0
41
1
10
-0.220508378527427
20
4.95054302716966
30
0
41
1
10
-0.227841766328027
20
4.89336484437209
30
0
41
1
10
-0.248876465876776
20
4.78899542518664
30
0
41
1
10
-0.260519103089251
20
4.74088977224739
30
0
41
1
10
-0.2876825226611
20
4.68318824223033
30
0
41
1
10
-0.294422177085465
20
4.67086770501695
30
0
41
1
10
-0.307975229842981
20
4.65239528283644
30
0
41
1
10
-0.313923584320349
20
4.64555604634515
30
0
41
1
10
-0.325470047439183
20
4.63588471512031
30
0
41
1
10
-0.330674572834084
20
4.63242356449325
30
0
41
1
10
-0.340874729766483
20
4.62785000237457
30
0
41
1
10
-0.3458732646979
20
4.62642720846634
30
0
41
1
10
-0.355778046324474
20
4.62530065114444
30
0
41
1
10
-0.360793298356413
20
4.62557634523813
30
0
41
1
10
-0.37222657292665
20
4.62787080761487
30
0
41
1
10
-0.378545535867204
20
4.63055709110699
30
0
41
1
10
-0.388035283948739
20
4.6360822290674
30
0
41
1
10
-0.39159930045011
20
4.63858016383932
30
0
41
1
10
-0.394976888885196
20
4.64126630129033
30
0
0
SPLINE
5
190
100
AcDbEntity
8
SK1
62
256
6
ByLayer
370
18
48
1
60
0
100
AcDbSpline
70
4
71
3
72
22
73
18
40
0
40
0
40
0
40
0
40
0.0401187176479351
40
0.0401187176479351
40
0.0809205840693322
40
0.0809205840693322
40
0.110939215438291
40
0.110939215438291
40
0.140811855964671
40
0.140811855964671
40
0.18957721074261
40
0.18957721074261
40
0.310490649824217
40
0.310490649824217
40
0.734284037039096
40
0.734284037039096
40
1
40
1
40
1
40
1
41
1
10
-0.394976888875306
20
4.64126630128334
30
0
41
1
10
-0.414851240757656
20
4.65707202833818
30
0
41
1
10
-0.43657681469648
20
4.67161770815903
30
0
41
1
10
-0.48434423497207
20
4.69527225619453
30
0
41
1
10
-0.511179996443502
20
4.70447803201566
30
0
41
1
10
-0.559630211893221
20
4.71148455325257
30
0
41
1
10
-0.581226521051775
20
4.71163748110686
30
0
41
1
10
-0.622738196979185
20
4.70615885554017
30
0
41
1
10
-0.643113978930643
20
4.7005544858514
30
0
41
1
10
-0.692838639904068
20
4.68088286984391
30
0
41
1
10
-0.720762259934844
20
4.66360961664179
30
0
41
1
10
-0.806980143907481
20
4.59739735467713
30
0
41
1
10
-0.854111530678495
20
4.53827797672739
30
0
41
1
10
-1.03762331512351
20
4.26752717334409
30
0
41
1
10
-1.1196901977321
20
4.02710662395185
30
0
41
1
10
-1.23587986907131
20
3.63062538504175
30
0
41
1
10
-1.27383836253279
20
3.47371869693896
30
0
41
1
10
-1.30710678118655
20
3.3140325278145
30
0
0
SPLINE
5
191
100
AcDbEntity
8
SK1
62
256
6
ByLayer
370
18
48
1
60
0
100
AcDbSpline
70
4
71
3
72
26
73
22
40
0
40
0
40
0
40
0
40
0.445565443532363
40
0.445565443532363
40
0.655264383376964
40
0.655264383376964
40
0.828726256262898
40
0.828726256262898
40
0.876154197532178
40
0.876154197532178
40
0.905968249810069
40
0.905968249810069
40
0.926210751072041
40
0.926210751072041
40
0.943172178773616
40
0.943172178773616
40
0.960117844485506
40
0.960117844485506
40
0.984238026671506
40
0.984238026671506
40
1
40
1
40
1
40
1
41
1
10
-0.200000000000216
20
-10.8830974324239
30
0
41
1
10
-0.200000000000216
20
-10.8819710079772
30
0
41
1
10
-0.203329262474341
20
-10.8768357974762
30
0
41
1
10
-0.220508256687168
20
-10.8608398006147
30
0
41
1
10
-0.227841696150222
20
-10.8544331912715
30
0
41
1
10
-0.248876399316799
20
-10.839300022036
30
0
41
1
10
-0.260519040164894
20
-10.831234386332
30
0
41
1
10
-0.287682580192097
20
-10.8176098223725
30
0
41
1
10
-0.294422106503219
20
-10.814425636351
30
0
41
1
10
-0.307975059129376
20
-10.8087542809808
30
0
41
1
10
-0.313923536345726
20
-10.8064124165897
30
0
41
1
10
-0.325470142016087
20
-10.8023264062819
30
0
41
1
10
-0.330674635557642
20
-10.8005996536701
30
0
41
1
10
-0.340874762381105
20
-10.7975129873952
30
0
41
1
10
-0.345873303925458
20
-10.7961109015917
30
0
41
1
10
-0.355778101184399
20
-10.7935676582257
30
0
41
1
10
-0.360793362650213
20
-10.7923975310653
30
0
41
1
10
-0.372226633464606
20
-10.7899641210796
30
0
41
1
10
-0.378545586362179
20
-10.7888184755389
30
0
41
1
10
-0.388035310313086
20
-10.7873050473985
30
0
41
1
10
-0.391599313536347
20
-10.7867953109233
30
0
41
1
10
-0.394976888893865
20
-10.7863556111439
30
0
0
SPLINE
5
192
100
AcDbEntity
8
SK1
62
256
6
ByLayer
370
18
48
1
60
0
100
AcDbSpline
70
4
71
3
72
8
73
4
40
0
40
0
40
0
40
0
40
1
40
1
40
1
40
1
41
1
10
-1.30710678118655
20
-3.31403271963521
30
0
41
1
10
-1.3723406953053
20
-3.00091128094479
30
0
41
1
10
-1.43636641767526
20
-2.67845918809309
30
0
41
1
10
-1.49503997793928
20
-2.34749778874226
30
0
0
SPLINE
5
193
100
AcDbEntity
8
SK1
62
256
6
ByLayer
370
18
48
1
60
0
100
AcDbSpline
70
4
71
3
72
32
73
28
40
0
40
0
40
0
40
0
40
0.356636599161906
40
0.356636599161906
40
0.43891852351592
40
0.43891852351592
40
0.466852578885802
40
0.466852578885802
40
0.491648863255271
40
0.491648863255271
40
0.509433307376993
40
0.509433307376993
40
0.517845551817556
40
0.517845551817556
40
0.524955946811716
40
0.524955946811716
40
0.532136299556504
40
0.532136299556504
40
0.539988715042862
40
0.539988715042862
40
0.553068472451522
40
0.553068472451522
40
0.592506287500259
40
0.592506287500259
40
0.765129517161187
40
0.765129517161187
40
1
40
1
40
1
40
1
41
1
10
-1.49503997793931
20
-2.34749778874212
30
0
41
1
10
-1.51674926438412
20
-2.22504168094253
30
0
41
1
10
-1.53965959796295
20
-2.10198973938301
30
0
41
1
10
-1.57929452892498
20
-1.95694389798328
30
0
41
1
10
-1.58728688913916
20
-1.92997452960571
30
0
41
1
10
-1.60014685041298
20
-1.89558884836046
30
0
41
1
10
-1.60360996173446
20
-1.88701586088285
30
0
41
1
10
-1.61080217017806
20
-1.87149615869794
30
0
41
1
10
-1.61445737042806
20
-1.8644190972937
30
0
41
1
10
-1.62165915554127
20
-1.85350876899568
30
0
41
1
10
-1.62497669273341
20
-1.84923962381322
30
0
41
1
10
-1.63063349736493
20
-1.84456798020818
30
0
41
1
10
-1.63260114583201
20
-1.8433090630092
30
0
41
1
10
-1.63644881746126
20
-1.84189791662214
30
0
41
1
10
-1.63833413896836
20
-1.84160704031282
30
0
41
1
10
-1.6421074918232
20
-1.84204241824955
30
0
41
1
10
-1.64404339960066
20
-1.84279760818919
30
0
41
1
10
-1.64777693783728
20
-1.84528412040601
30
0
41
1
10
-1.64960310807172
20
-1.84711345963706
30
0
41
1
10
-1.6539322874136
20
-1.85260771701388
30
0
41
1
10
-1.65619857548441
20
-1.85674952744043
30
0
41
1
10
-1.66403264866162
20
-1.87382005025418
30
0
41
1
10
-1.66775630870623
20
-1.88824132138959
30
0
41
1
10
-1.68468176544545
20
-1.96436510563876
30
0
41
1
10
-1.68890392552055
20
-2.02849690055311
30
0
41
1
10
-1.69788177008903
20
-2.17720019173632
30
0
41
1
10
-1.69963442185517
20
-2.26267094142099
30
0
41
1
10
-1.69999999999999
20
-2.34751178615272
30
0
0
SPLINE
5
194
100
AcDbEntity
8
SK1
62
256
6
ByLayer
370
18
48
1
60
0
100
AcDbSpline
70
4
71
3
72
10
73
6
40
0
40
0
40
0
40
0
40
0.5
40
0.5
40
1
40
1
40
1
40
1
41
1
10
-1.70000000000002
20
-2.34751178615284
30
0
41
1
10
-1.82829275010136
20
-1.59849102282857
30
0
41
1
10
-1.92877517104071
20
-0.802936952128817
30
0
41
1
10
-1.92836372452413
20
0.80821608021509
30
0
41
1
10
-1.82832256560684
20
1.59831678082259
30
0
41
1
10
-1.69999999999842
20
2.347511681735
30
0
0
SPLINE
5
195
100
AcDbEntity
8
SK1
62
256
6
ByLayer
370
18
48
1
60
0
100
AcDbSpline
70
4
71
3
72
22
73
18
40
0
40
0
40
0
40
0
40
0.0245639900498755
40
0.0245639900498755
40
0.0496318308550454
40
0.0496318308550454
40
0.0663627728408016
40
0.0663627728408016
40
0.0830188311624026
40
0.0830188311624026
40
0.109502469153841
40
0.109502469153841
40
0.161041561866806
40
0.161041561866806
40
0.34045087796751
40
0.34045087796751
40
1
40
1
40
1
40
1
41
1
10
-0.394976888875306
20
-4.64126507959352
30
0
41
1
10
-0.38970266587873
20
-4.63707055620748
30
0
41
1
10
-0.383949309888493
20
-4.63330757597581
30
0
41
1
10
-0.371341458593548
20
-4.62763518822399
30
0
41
1
10
-0.364243722574742
20
-4.62572404052057
30
0
41
1
10
-0.352099082312236
20
-4.62547750923432
30
0
41
1
10
-0.347037112029596
20
-4.62618835449879
30
0
41
1
10
-0.337425328060107
20
-4.62914446237855
30
0
41
1
10
-0.332766275168382
20
-4.63140037203357
30
0
41
1
10
-0.321717412395515
20
-4.63845052899637
30
0
41
1
10
-0.315694741777293
20
-4.64402202563343
30
0
41
1
10
-0.300170082835308
20
-4.66154175044696
30
0
41
1
10
-0.292195743622614
20
-4.67485779786532
30
0
41
1
10
-0.26191913487574
20
-4.73474950476739
30
0
41
1
10
-0.249811404729854
20
-4.78489851705862
30
0
41
1
10
-0.203345284675152
20
-5.0129847254702
30
0
41
1
10
-0.200000000000046
20
-5.19061666338965
30
0
41
1
10
-0.200000000000046
20
-5.36201916428996
30
0
0
SPLINE
5
196
100
AcDbEntity
8
SK1
62
256
6
ByLayer
370
18
48
1
60
0
100
AcDbSpline
70
4
71
3
72
8
73
4
40
0
40
0
40
0
40
0
40
1
40
1
40
1
40
1
41
1
10
-1.4950399779394
20
2.34749772747679
30
0
41
1
10
-1.43636647390602
20
2.67845911204324
30
0
41
1
10
-1.37234124557347
20
3.00091149187799
30
0
41
1
10
-1.30710678118655
20
3.31403252781453
30
0
0
SPLINE
5
197
100
AcDbEntity
8
SK1
62
256
6
ByLayer
370
18
48
1
60
0
100
AcDbSpline
70
4
71
3
72
30
73
26
40
0
40
0
40
0
40
0
40
0.360052108286739
40
0.360052108286739
40
0.414182795369029
40
0.414182795369029
40
0.441319094800672
40
0.441319094800672
40
0.451195262960072
40
0.451195262960072
40
0.461224946381245
40
0.461224946381245
40
0.467711236499062
40
0.467711236499062
40
0.474212016079713
40
0.474212016079713
40
0.482847947921514
40
0.482847947921514
40
0.498532582458581
40
0.498532582458581
40
0.552379769925851
40
0.552379769925851
40
0.810349417089643
40
0.810349417089643
40
1
40
1
40
1
40
1
41
1
10
-1.70000000000019
20
2.3475116817483
30
0
41
1
10
-1.69943534817307
20
2.21647118487891
30
0
41
1
10
-1.69844614237979
20
2.08289239857018
30
0
41
1
10
-1.67656862366601
20
1.93048811627656
30
0
41
1
10
-1.67316038985987
20
1.91036346359695
30
0
41
1
10
-1.66561843849143
20
1.88100938605297
30
0
41
1
10
-1.66268553859865
20
1.87122075315878
30
0
41
1
10
-1.65724625767592
20
1.85893849976404
30
0
41
1
10
-1.65562897748316
20
1.85574110436585
30
0
41
1
10
-1.6519311451772
20
1.84988105484797
30
0
41
1
10
-1.64979259662024
20
1.84716009843925
30
0
41
1
10
-1.64585108476751
20
1.84387231659994
30
0
41
1
10
-1.64415793169223
20
1.84287333682909
30
0
41
1
10
-1.64073072295233
20
1.84175513669575
30
0
41
1
10
-1.63895837579804
20
1.84162628990126
30
0
41
1
10
-1.635035216164
20
1.84220716119697
30
0
41
1
10
-1.63288581659657
20
1.84318624425814
30
0
41
1
10
-1.62734818582317
20
1.84688091511674
30
0
41
1
10
-1.62421744742181
20
1.85036268886339
30
0
41
1
10
-1.6117794554678
20
1.86703561073952
30
0
41
1
10
-1.604832422019
20
1.8835838297675
30
0
41
1
10
-1.56808403778945
20
1.97915260079586
30
0
41
1
10
-1.54998962063459
20
2.0676165097141
30
0
41
1
10
-1.5186007803438
20
2.21850563673004
30
0
41
1
10
-1.5064842336844
20
2.28294377267119
30
0
41
1
10
-1.49503997793821
20
2.34749772746747
30
0
0
SPLINE
5
198
100
AcDbEntity
8
SK1
62
256
6
ByLayer
370
18
48
1
60
0
100
AcDbSpline
70
4
71
3
72
24
73
20
40
0
40
0
40
0
40
0
40
0.408376563842919
40
0.408376563842919
40
0.590835889028663
40
0.590835889028663
40
0.775086150017169
40
0.775086150017169
40
0.828531189558963
40
0.828531189558963
40
0.869657835859007
40
0.869657835859007
40
0.900601749045859
40
0.900601749045859
40
0.931618254112826
40
0.931618254112826
40
0.972400059148962
40
0.972400059148962
40
1
40
1
40
1
40
1
41
1
10
-1.30710678118655
20
-3.31403271963518
30
0
41
1
10
-1.2559838803231
20
-3.55942158652502
30
0
41
1
10
-1.19453871593757
20
-3.79878086806582
30
0
41
1
10
-1.07463317102506
20
-4.12991464169377
30
0
41
1
10
-1.03315372296908
20
-4.23044470813102
30
0
41
1
10
-0.933421287209484
20
-4.42439620445134
30
0
41
1
10
-0.876012164358116
20
-4.52058411767737
30
0
41
1
10
-0.771196593353352
20
-4.62470115719427
30
0
41
1
10
-0.744945905488407
20
-4.64699527823976
30
0
41
1
10
-0.692659478740381
20
-4.68003423159399
30
0
41
1
10
-0.667470836328533
20
-4.69244795089361
30
0
41
1
10
-0.620248549564394
20
-4.70666093811084
30
0
41
1
10
-0.598519884659027
20
-4.71034447812073
30
0
41
1
10
-0.555414291762958
20
-4.71130494933678
30
0
41
1
10
-0.533554485474468
20
-4.70857045210869
30
0
41
1
10
-0.486310637142424
20
-4.69632743776958
30
0
41
1
10
-0.461171363725498
20
-4.68495700384938
30
0
41
1
10
-0.42312766746349
20
-4.6623550622588
30
0
41
1
10
-0.408633205232604
20
-4.65212577667924
30
0
41
1
10
-0.394976888875277
20
-4.64126507959352
30
0
0
SPLINE
5
199
100
AcDbEntity
8
1
62
256
6
ByLayer
370
18
48
1
60
0
100
AcDbSpline
70
4
71
3
72
8
73
4
40
0
40
0
40
0
40
0
40
1
40
1
40
1
40
1
41
1
10
19.4597448697402
20
-15.4952137924635
30
0
41
1
10
18.5940231739259
20
-15.6415144575746
30
0
41
1
10
17.8238798474467
20
-15.7255358290926
30
0
41
1
10
17.3003094401605
20
-15.6955864921763
30
0
0
SPLINE
5
19A
100
AcDbEntity
8
1
62
256
6
ByLayer
370
18
48
1
60
0
100
AcDbSpline
70
4
71
3
72
24
73
20
40
0
40
0
40
0
40
0
40
0.142613444608223
40
0.142613444608223
40
0.190795218269491
40
0.190795218269491
40
0.226951176162323
40
0.226951176162323
40
0.263437466712857
40
0.263437466712857
40
0.296119365572356
40
0.296119365572356
40
0.352324850832286
40
0.352324850832286
40
0.455294648588107
40
0.455294648588107
40
0.662705158043639
40
0.662705158043639
40
1
40
1
40
1
40
1
41
1
10
30.4856308592437
20
-17.8475000084385
30
0
41
1
10
30.4005648503626
20
-17.8374164861206
30
0
41
1
10
30.3163947396955
20
-17.823215943535
30
0
41
1
10
30.2329871046465
20
-17.7775614681712
30
0
41
1
10
30.2144263454112
20
-17.7631879002321
30
0
41
1
10
30.1928223690152
20
-17.7312753842067
30
0
41
1
10
30.1870540251283
20
-17.7150535900125
30
0
41
1
10
30.1858870242787
20
-17.6785962786342
30
0
41
1
10
30.1906851200331
20
-17.6578236346656
30
0
41
1
10
30.208710344292
20
-17.6176809571598
30
0
41
1
10
30.2210836625259
20
-17.5979699150708
30
0
41
1
10
30.2607649805622
20
-17.5458538277303
30
0
41
1
10
30.2928443643696
20
-17.513504108815
30
0
41
1
10
30.3898050283804
20
-17.4280109177245
30
0
41
1
10
30.4617690456821
20
-17.3775376442595
30
0
41
1
10
30.6815414947036
20
-17.2400499367005
30
0
41
1
10
30.8386606728651
20
-17.1636357980174
30
0
41
1
10
31.2451282883527
20
-16.9940112158295
30
0
41
1
10
31.4992177739788
20
-16.9174433320683
30
0
41
1
10
31.7437211229173
20
-16.8613053028987
30
0
0
SPLINE
5
19B
100
AcDbEntity
8
1
62
256
6
ByLayer
370
18
48
1
60
0
100
AcDbSpline
70
4
71
2
72
8
73
5
40
0
40
0
40
0
40
0.581603760070721
40
0.872405640106081
40
1
40
1
40
1
41
1.02990374504916
10
26.9581731463226
20
-10.0898852094912
30
0
41
1.02669755169729
10
28.3484446636761
20
-11.1944518784832
30
0
41
1.02039724512338
10
30.2725173744686
20
-13.1653209620394
30
0
41
1.01761724169607
10
31.1313463367031
20
-14.2280973888895
30
0
41
1.01686274329306
10
31.4030013443908
20
-14.487325588207
30
0
0
SPLINE
5
19C
100
AcDbEntity
8
1
62
256
6
ByLayer
370
18
48
1
60
0
100
AcDbSpline
70
4
71
2
72
8
73
5
40
0
40
0
40
0
40
0.145991510275426
40
0.563470207592132
40
1
40
1
40
1
41
1.02393576174177
10
28.2345486183594
20
-16.3947018433563
30
0
41
1.02323174907605
10
28.4983793336992
20
-16.4361365343396
30
0
41
1.02039724512338
10
29.5132154196095
20
-16.5866371145367
30
0
41
1.01644464721292
10
31.0092897088467
20
-16.7295040467943
30
0
41
1.01495409538139
10
31.7437211229376
20
-16.8613053029024
30
0
0
SPLINE
5
19D
100
AcDbEntity
8
1
62
256
6
ByLayer
370
18
48
1
60
0
100
AcDbSpline
70
4
71
2
72
6
73
3
40
0
40
0
40
0
40
1
40
1
40
1
41
1.02990374504916
10
24.4394549143301
20
-19.3155281863751
30
0
41
1.02990374504916
10
24.2272962376328
20
-19.5556988325539
30
0
41
1.02990374504916
10
24.0151375609356
20
-19.7958694787327
30
0
0
SPLINE
5
19E
100
AcDbEntity
8
1
62
256
6
ByLayer
370
18
48
1
60
0
100
AcDbSpline
70
4
71
3
72
8
73
4
40
0
40
0
40
0
40
0
40
1
40
1
40
1
40
1
41
1
10
24.0151375609356
20
-19.7958694787327
30
0
41
1
10
26.0066276077739
20
-20.1601798614158
30
0
41
1
10
28.020745045727
20
-20.2042552188485
30
0
41
1
10
30.0338502469983
20
-19.9399022694486
30
0
0
SPLINE
5
19F
100
AcDbEntity
8
1
62
256
6
ByLayer
370
18
48
1
60
0
100
AcDbSpline
70
4
71
3
72
11
73
7
40
0
40
0
40
0
40
0
40
0.559926195718574
40
0.559926195718574
40
0.559926195718574
40
1
40
1
40
1
40
1
41
1
10
32.0265659261208
20
-19.9127663753211
30
0
41
1
10
31.7086802747558
20
-19.8700135100342
30
0
41
1
10
31.342376093554
20
-19.8506257327348
30
0
41
1
10
30.9624133295463
20
-19.8621895322163
30
0
41
1
10
30.6616267822858
20
-19.8713436800663
30
0
41
1
10
30.3470049772321
20
-19.8987800387259
30
0
41
1
10
30.0338502469983
20
-19.9399022694486
30
0
0
SPLINE
5
1A0
100
AcDbEntity
8
1
62
256
6
ByLayer
370
18
48
1
60
0
100
AcDbSpline
70
4
71
3
72
8
73
4
40
0
40
0
40
0
40
0
40
1
40
1
40
1
40
1
41
1
10
20.6154538607969
20
-11.2620453493903
30
0
41
1
10
20.6575361217223
20
-11.2749175820415
30
0
41
1
10
20.7000332811728
20
-11.2878295951642
30
0
41
1
10
20.7428868851699
20
-11.3007627373416
30
0
0
SPLINE
5
1A1
100
AcDbEntity
8
1
62
256
6
ByLayer
370
18
48
1
60
0
100
AcDbSpline
70
4
71
3
72
8
73
4
40
0
40
0
40
0
40
0
40
1
40
1
40
1
40
1
41
1
10
26.768732830298
20
-11.7666910523643
30
0
41
1
10
26.9039830064712
20
-11.0345348425218
30
0
41
1
10
26.9715420987714
20
-10.4365444934487
30
0
41
1
10
26.9581731463226
20
-10.0898852094912
30
0
0
SPLINE
5
1A2
100
AcDbEntity
8
1
62
256
6
ByLayer
370
18
48
1
60
0
100
AcDbSpline
70
4
71
3
72
10
73
6
40
0
40
0
40
0
40
0
40
0.207845795367689
40
0.207845795367689
40
1
40
1
40
1
40
1
41
1
10
22.0082975353969
20
-11.3989561331948
30
0
41
1
10
22.0490172996574
20
-11.39166156961
30
0
41
1
10
22.0894952750746
20
-11.3834076817362
30
0
41
1
10
22.2812921320911
20
-11.3394649007905
30
0
41
1
10
22.4291610889925
20
-11.2908598212927
30
0
41
1
10
22.5684013879498
20
-11.2300348826916
30
0
0
SPLINE
5
1A3
100
AcDbEntity
8
1
62
256
6
ByLayer
370
18
48
1
60
0
100
AcDbSpline
70
4
71
3
72
10
73
6
40
0
40
0
40
0
40
0
40
0.759976532001898
40
0.759976532001898
40
1
40
1
40
1
40
1
41
1
10
31.7437211229173
20
-16.8613053028987
30
0
41
1
10
32.0344833250718
20
-16.7946266296906
30
0
41
1
10
32.3221648115701
20
-16.7386838845733
30
0
41
1
10
32.6939749585352
20
-16.6798649348943
30
0
41
1
10
32.7827859997188
20
-16.6668529083098
30
0
41
1
10
32.8710660561664
20
-16.6549594781868
30
0
0
SPLINE
5
1A4
100
AcDbEntity
8
1
62
256
6
ByLayer
370
18
48
1
60
0
100
AcDbSpline
70
4
71
2
72
8
73
5
40
0
40
0
40
0
40
0.145991510278039
40
0.563470207586081
40
1
40
1
40
1
41
1.02393576174182
10
28.6587942704885
20
-14.840761084541
30
0
41
1.02323174907608
10
28.9102176531137
20
-14.9276417569648
30
0
41
1.02039724512338
10
29.8743277173388
20
-15.2639432575646
30
0
41
1.01644464721285
10
31.2615186414868
20
-15.8056317171478
30
0
41
1.01495409538129
10
31.9785008833118
20
-16.0013463684703
30
0
0
SPLINE
5
1A5
100
AcDbEntity
8
1
62
256
6
ByLayer
370
18
48
1
60
0
100
AcDbSpline
70
4
71
3
72
8
73
4
40
0
40
0
40
0
40
0
40
1
40
1
40
1
40
1
41
1
10
26.7687328206218
20
-11.7666911047446
30
0
41
1
10
26.5521472299498
20
-11.6542900548638
30
0
41
1
10
26.3195181922185
20
-11.5626796908674
30
0
41
1
10
26.0812202609508
20
-11.5000381276747
30
0
0
SPLINE
5
1A6
100
AcDbEntity
8
1
62
256
6
ByLayer
370
18
48
1
60
0
100
AcDbSpline
70
4
71
3
72
8
73
4
40
0
40
0
40
0
40
0
40
1
40
1
40
1
40
1
41
1
10
17.1707219611137
20
-15.6035921716631
30
0
41
1
10
17.1629670294465
20
-15.6319971873425
30
0
41
1
10
17.1562076723194
20
-15.6604303716733
30
0
41
1
10
17.1503707744403
20
-15.6888908007895
30
0
0
SPLINE
5
1A7
100
AcDbEntity
8
1
62
256
6
ByLayer
370
18
48
1
60
0
100
AcDbSpline
70
4
71
3
72
25
73
21
40
0
40
0
40
0
40
0
40
0.442411593548776
40
0.442411593548776
40
0.442411593548776
40
0.583396916265377
40
0.583396916265377
40
0.651602530488656
40
0.651602530488656
40
0.70634152130645
40
0.70634152130645
40
0.742475286987738
40
0.742475286987738
40
0.778972968742934
40
0.778972968742934
40
0.811539464980182
40
0.811539464980182
40
0.868309796146658
40
0.868309796146658
40
1
40
1
40
1
40
1
41
1
10
31.9785008832425
20
-16.0013463684514
30
0
41
1
10
31.7348365317923
20
-15.8015010351146
30
0
41
1
10
31.4920478769605
20
-15.5575648977255
30
0
41
1
10
31.2933437157537
20
-15.2632729009152
30
0
41
1
10
31.2288387597247
20
-15.1677374466065
30
0
41
1
10
31.1681677593119
20
-15.0654613373854
30
0
41
1
10
31.0946369255655
20
-14.9054953031383
30
0
41
1
10
31.0730247284864
20
-14.8513157113799
30
0
41
1
10
31.0434687786735
20
-14.7529254964084
30
0
41
1
10
31.0334575127275
20
-14.7079863610533
30
0
41
1
10
31.0274387939665
20
-14.6369872674258
30
0
41
1
10
31.0279175747369
20
-14.6091771815479
30
0
41
1
10
31.0365131305559
20
-14.5594458464118
30
0
41
1
10
31.0449284920257
20
-14.5370361228321
30
0
41
1
10
31.0670202965348
20
-14.5035839528998
30
0
41
1
10
31.080195043171
20
-14.4911197996535
30
0
41
1
10
31.1199249296183
20
-14.4657230510772
30
0
41
1
10
31.1496401070415
20
-14.4583729054197
30
0
41
1
10
31.250573197285
20
-14.4496751672307
30
0
41
1
10
31.3272120774216
20
-14.4662552468693
30
0
41
1
10
31.4030013443909
20
-14.4873255882072
30
0
0
SPLINE
5
1A8
100
AcDbEntity
8
1
62
256
6
ByLayer
370
18
48
1
60
0
100
AcDbSpline
70
4
71
3
72
8
73
4
40
0
40
0
40
0
40
0
40
1
40
1
40
1
40
1
41
1
10
22.0082975353969
20
-11.3989561331948
30
0
41
1
10
21.6231486011812
20
-10.1876883254083
30
0
41
1
10
21.2252295531827
20
-9.08420803540557
30
0
41
1
10
20.8948990601257
20
-8.4960276178447
30
0
0
SPLINE
5
1A9
100
AcDbEntity
8
1
62
256
6
ByLayer
370
18
48
1
60
0
100
AcDbSpline
70
4
71
3
72
12
73
8
40
0
40
0
40
0
40
0
40
0.415356444741148
40
0.415356444741148
40
0.825259843212191
40
0.825259843212191
40
1
40
1
40
1
40
1
41
1
10
20.7232009483223
20
-16.1060496669498
30
0
41
1
10
20.5894360226084
20
-15.9994344626515
30
0
41
1
10
20.4348908814108
20
-15.899483165708
30
0
41
1
10
20.1201032029348
20
-15.7315535738234
30
0
41
1
10
19.9559739549769
20
-15.660530029315
30
0
41
1
10
19.725210255818
20
-15.5774622360915
30
0
41
1
10
19.6559329476422
20
-15.5546813344222
30
0
41
1
10
19.5871778941131
20
-15.5339311804148
30
0
0
SPLINE
5
1AA
100
AcDbEntity
8
1
62
256
6
ByLayer
370
18
48
1
60
0
100
AcDbSpline
70
4
71
3
72
8
73
4
40
0
40
0
40
0
40
0
40
1
40
1
40
1
40
1
41
1
10
32.2079340442012
20
-11.976597497976
30
0
41
1
10
30.6087311450577
20
-10.7674209608601
30
0
41
1
10
28.8255687038569
20
-9.80799713978624
30
0
41
1
10
26.921885449759
20
-9.1489388671734
30
0
0
SPLINE
5
1AB
100
AcDbEntity
8
1
62
256
6
ByLayer
370
18
48
1
60
0
100
AcDbSpline
70
4
71
3
72
8
73
4
40
0
40
0
40
0
40
0
40
1
40
1
40
1
40
1
41
1
10
19.5871778941131
20
-15.5339311804148
30
0
41
1
10
19.5443242901161
20
-15.5209980382374
30
0
41
1
10
19.5018271306649
20
-15.5080860251147
30
0
41
1
10
19.4597448697395
20
-15.4952137924635
30
0
0
SPLINE
5
1AC
100
AcDbEntity
8
1
62
256
6
ByLayer
370
18
48
1
60
0
100
AcDbSpline
70
4
71
3
72
12
73
8
40
0
40
0
40
0
40
0
40
0.30757327017341
40
0.30757327017341
40
0.648852820657661
40
0.648852820657661
40
1
40
1
40
1
40
1
41
1
10
28.2345486188896
20
-16.3947018434396
30
0
41
1
10
28.314408997814
20
-16.2478850489484
30
0
41
1
10
28.3839572690859
20
-16.0949388164328
30
0
41
1
10
28.5065528278439
20
-15.7648786101834
30
0
41
1
10
28.5573794387568
20
-15.5858191014423
30
0
41
1
10
28.6307356817103
20
-15.2187925735335
30
0
41
1
10
28.6526687892064
20
-15.0293972180433
30
0
41
1
10
28.658794270958
20
-14.8407610847033
30
0
0
SPLINE
5
1AD
100
AcDbEntity
8
1
62
256
6
ByLayer
370
18
48
1
60
0
100
AcDbSpline
70
4
71
3
72
8
73
4
40
0
40
0
40
0
40
0
40
1
40
1
40
1
40
1
41
1
10
24.4952722055446
20
-11.0831387244595
30
0
41
1
10
23.8343076954774
20
-10.909390467791
30
0
41
1
10
23.1613527781827
20
-10.9710133768889
30
0
41
1
10
22.5684013879498
20
-11.2300348826916
30
0
0
SPLINE
5
1AE
100
AcDbEntity
8
1
62
256
6
ByLayer
370
18
48
1
60
0
100
AcDbSpline
70
4
71
3
72
12
73
8
40
0
40
0
40
0
40
0
40
0.391502209781614
40
0.391502209781614
40
0.886018843801027
40
0.886018843801027
40
1
40
1
40
1
40
1
41
1
10
18.921999488655
20
-9.75560749153206
30
0
41
1
10
19.0916168884642
20
-9.89154649306644
30
0
41
1
10
19.2891761033109
20
-10.0601754933568
30
0
41
1
10
19.7744785676781
20
-10.4880457438392
30
0
41
1
10
20.0778339926697
20
-10.7643441632607
30
0
41
1
10
20.4663788377187
20
-11.1235719564087
30
0
41
1
10
20.5405979578235
20
-11.1924180318268
30
0
41
1
10
20.6154538607974
20
-11.2620453493895
30
0
0
SPLINE
5
1AF
100
AcDbEntity
8
1
62
256
6
ByLayer
370
18
48
1
60
0
100
AcDbSpline
70
4
71
3
72
8
73
4
40
0
40
0
40
0
40
0
40
1
40
1
40
1
40
1
41
1
10
25.0504920582238
20
-18.0603191271142
30
0
41
1
10
24.8027814991962
20
-18.0461345805283
30
0
41
1
10
24.5595859548601
20
-18.0086137488257
30
0
41
1
10
24.3213906609326
20
-17.9459991659909
30
0
0
SPLINE
5
1B0
100
AcDbEntity
8
1
62
256
6
ByLayer
370
18
48
1
60
0
100
AcDbSpline
70
4
71
3
72
12
73
8
40
0
40
0
40
0
40
0
40
0.369659083875781
40
0.369659083875781
40
0.727704501586108
40
0.727704501586108
40
1
40
1
40
1
40
1
41
1
10
18.3761808281331
20
-17.7216705947286
30
0
41
1
10
18.5718309176459
20
-17.6574985888733
30
0
41
1
10
18.8200134760324
20
-17.5275649822524
30
0
41
1
10
19.3650644657747
20
-17.1805732767812
30
0
41
1
10
19.6666600711241
20
-16.9624622037047
30
0
41
1
10
20.2202762684
20
-16.5291197767441
30
0
41
1
10
20.4705071031786
20
-16.3228650143062
30
0
41
1
10
20.7232009483221
20
-16.1060496669496
30
0
0
SPLINE
5
1B1
100
AcDbEntity
8
1
62
256
6
ByLayer
370
18
48
1
60
0
100
AcDbSpline
70
4
71
3
72
16
73
12
40
0
40
0
40
0
40
0
40
0.151798394921707
40
0.151798394921707
40
0.302355402833642
40
0.302355402833642
40
0.469907609657965
40
0.469907609657965
40
0.750934341340613
40
0.750934341340613
40
1
40
1
40
1
40
1
41
1
10
17.1503707744403
20
-15.6888908007895
30
0
41
1
10
17.1131292775496
20
-15.870478521592
30
0
41
1
10
17.0880736511231
20
-16.0581472597395
30
0
41
1
10
17.0702311115305
20
-16.4126654767833
30
0
41
1
10
17.0765184765882
20
-16.5845083897405
30
0
41
1
10
17.114994930721
20
-16.9152081179251
30
0
41
1
10
17.1500569001362
20
-17.0740845286768
30
0
41
1
10
17.2640882196316
20
-17.4414235662887
30
0
41
1
10
17.3547752156844
20
-17.6177868519105
30
0
41
1
10
17.5612223447404
20
-17.8922269516456
30
0
41
1
10
17.6772091226793
20
-18.0025197717314
30
0
41
1
10
17.8377319709043
20
-18.1008381154977
30
0
0
SPLINE
5
1B2
100
AcDbEntity
8
1
62
256
6
ByLayer
370
18
48
1
60
0
100
AcDbSpline
70
4
71
3
72
16
73
12
40
0
40
0
40
0
40
0
40
0.346164403850464
40
0.346164403850464
40
0.574058138681868
40
0.574058138681868
40
0.756733946461147
40
0.756733946461147
40
0.941193093213316
40
0.941193093213316
40
1
40
1
40
1
40
1
41
1
10
20.6978205178257
20
-7.62481285748351
30
0
41
1
10
20.4240596016089
20
-7.67537982451483
30
0
41
1
10
20.2099881938618
20
-7.79183389128809
30
0
41
1
10
19.8457125181459
20
-8.06817775137097
30
0
41
1
10
19.6946450585277
20
-8.20564389782294
30
0
41
1
10
19.4191390781667
20
-8.51344884592174
30
0
41
1
10
19.2938013596245
20
-8.67528981213238
30
0
41
1
10
19.0651978860079
20
-9.03549106011201
30
0
41
1
10
18.9591923282408
20
-9.24040027170437
30
0
41
1
10
18.8474014919517
20
-9.51572819897035
30
0
41
1
10
18.8219295440148
20
-9.58400751950452
30
0
41
1
10
18.79858199693
20
-9.65176918232504
30
0
0
SPLINE
5
1B3
100
AcDbEntity
8
1
62
256
6
ByLayer
370
18
48
1
60
0
100
AcDbSpline
70
4
71
3
72
8
73
4
40
0
40
0
40
0
40
0
40
1
40
1
40
1
40
1
41
1
10
34.114278366178
20
-12.9547510195006
30
0
41
1
10
34.0567240439501
20
-12.9360984261298
30
0
41
1
10
33.9989208341479
20
-12.9181587440677
30
0
41
1
10
33.9408771441862
20
-12.9009650470939
30
0
0
SPLINE
5
1B4
100
AcDbEntity
8
1
62
256
6
ByLayer
370
18
48
1
60
0
100
AcDbSpline
70
4
71
3
72
8
73
4
40
0
40
0
40
0
40
0
40
1
40
1
40
1
40
1
41
1
10
21.1272810855726
20
-16.508617150289
30
0
41
1
10
21.513716077133
20
-16.993796551295
30
0
41
1
10
22.0829596802138
20
-17.3575810669118
30
0
41
1
10
22.7354426055263
20
-17.5290997627756
30
0
0
SPLINE
5
1B5
100
AcDbEntity
8
1
62
256
6
ByLayer
370
18
48
1
60
0
100
AcDbSpline
70
4
71
3
72
8
73
4
40
0
40
0
40
0
40
0
40
1
40
1
40
1
40
1
41
1
10
32.9357131267587
20
-19.7271778524986
30
0
41
1
10
31.7814389001642
20
-19.3958798391362
30
0
41
1
10
31.5118470820987
20
-18.3133083107116
30
0
41
1
10
30.4856308592437
20
-17.8475000084385
30
0
0
SPLINE
5
1B6
100
AcDbEntity
8
1
62
256
6
ByLayer
370
18
48
1
60
0
100
AcDbSpline
70
4
71
2
72
8
73
5
40
0
40
0
40
0
40
0.581603760044148
40
0.872405640066222
40
1
40
1
40
1
41
1.02990374504916
10
24.4394549143301
20
-19.3155281863751
30
0
41
1.02669755169729
10
26.1875331852746
20
-19.1095086511143
30
0
41
1.02039724512338
10
28.8401131140552
20
-18.411977826609
30
0
41
1.01761724169577
10
30.1181186785726
20
-17.9393805762445
30
0
41
1.01686274329252
10
30.4856308592435
20
-17.8475000084385
30
0
0
SPLINE
5
1B7
100
AcDbEntity
8
1
62
256
6
ByLayer
370
18
48
1
60
0
100
AcDbSpline
70
4
71
3
72
15
73
11
40
0
40
0
40
0
40
0
40
0.225043240787981
40
0.225043240787981
40
0.52048282722711
40
0.52048282722711
40
0.820975208236874
40
0.820975208236874
40
0.820975208236874
40
1
40
1
40
1
40
1
41
1
10
28.658794270958
20
-14.8407610847033
30
0
41
1
10
28.6678973584059
20
-14.5594743311327
30
0
41
1
10
28.6329403452291
20
-14.2702565164785
30
0
41
1
10
28.4667574733624
20
-13.6351602674826
30
0
41
1
10
28.3076741409156
20
-13.2882401921433
30
0
41
1
10
27.8955159775508
20
-12.6620016382465
30
0
41
1
10
27.6345949406721
20
-12.3743566101767
30
0
41
1
10
27.3391652709594
20
-12.1378788946922
30
0
41
1
10
27.1617135120682
20
-11.9958370117896
30
0
41
1
10
26.9695997964267
20
-11.8704116387697
30
0
41
1
10
26.7687328206218
20
-11.7666911047446
30
0
0
SPLINE
5
1B8
100
AcDbEntity
8
1
62
256
6
ByLayer
370
18
48
1
60
0
100
AcDbSpline
70
4
71
3
72
12
73
8
40
0
40
0
40
0
40
0
40
0.501637567130157
40
0.501637567130157
40
0.886957471304443
40
0.886957471304443
40
1
40
1
40
1
40
1
41
1
10
20.7428868851699
20
-11.3007627373416
30
0
41
1
10
20.9381870552802
20
-11.3597039845581
30
0
41
1
10
21.1488437782418
20
-11.4041352703468
30
0
41
1
10
21.528786395401
20
-11.4381660171149
30
0
41
1
10
21.7000439764346
20
-11.4379870641495
30
0
41
1
10
21.9126261108294
20
-11.4144123562026
30
0
41
1
10
21.9609091464739
20
-11.4074453182984
30
0
41
1
10
22.0082975353969
20
-11.3989561331948
30
0
0
SPLINE
5
1B9
100
AcDbEntity
8
1
62
256
6
ByLayer
370
18
48
1
60
0
100
AcDbSpline
70
4
71
1
72
4
73
2
40
0
40
0
40
1
40
1
41
1
10
26.9581731463226
20
-10.0898852094912
30
0
41
1
10
26.921885449759
20
-9.1489388671734
30
0
0
SPLINE
5
1BA
100
AcDbEntity
8
1
62
256
6
ByLayer
370
18
48
1
60
0
100
AcDbSpline
70
4
71
3
72
14
73
10
40
0
40
0
40
0
40
0
40
0.304391776008983
40
0.304391776008983
40
0.577373879687166
40
0.577373879687166
40
0.85161037846392
40
0.85161037846392
40
1
40
1
40
1
40
1
41
1
10
36.3784340126775
20
-17.7579633063987
30
0
41
1
10
36.2661930864183
20
-17.8782743752517
30
0
41
1
10
36.1368427414415
20
-17.995977139842
30
0
41
1
10
35.8687894297505
20
-18.196630887521
30
0
41
1
10
35.7291267359853
20
-18.2838764524182
30
0
41
1
10
35.4446490998523
20
-18.4253887977671
30
0
41
1
10
35.295950430796
20
-18.4812612087499
30
0
41
1
10
35.0775619589167
20
-18.5366304690958
30
0
41
1
10
35.0015493798007
20
-18.550640834166
30
0
41
1
10
34.928596600354
20
-18.5590895396576
30
0
0
SPLINE
5
1BB
100
AcDbEntity
8
1
62
256
6
ByLayer
370
18
48
1
60
0
100
AcDbSpline
70
4
71
3
72
8
73
4
40
0
40
0
40
0
40
0
40
1
40
1
40
1
40
1
41
1
10
24.43945491433
20
-19.3155281863751
30
0
41
1
10
24.5957800380814
20
-19.1385629706703
30
0
41
1
10
24.8136909721124
20
-18.6909244391102
30
0
41
1
10
25.0504920771025
20
-18.0603191281953
30
0
0
SPLINE
5
1BC
100
AcDbEntity
8
1
62
256
6
ByLayer
370
18
48
1
60
0
100
AcDbSpline
70
4
71
3
72
10
73
6
40
0
40
0
40
0
40
0
40
0.715855354518053
40
0.715855354518053
40
1
40
1
40
1
40
1
41
1
10
20.9502797959963
20
-7.41993024441408
30
0
41
1
10
20.6667323269242
20
-7.32001973802346
30
0
41
1
10
20.3397830468923
20
-7.23972052982626
30
0
41
1
10
19.8451873335156
20
-7.2105468109265
30
0
41
1
10
19.6992555141892
20
-7.21169341307566
30
0
41
1
10
19.5512748521875
20
-7.2249724353309
30
0
0
SPLINE
5
1BD
100
AcDbEntity
8
1
62
256
6
ByLayer
370
18
48
1
60
0
100
AcDbSpline
70
4
71
3
72
14
73
10
40
0
40
0
40
0
40
0
40
0.26293248248933
40
0.26293248248933
40
0.526305718382448
40
0.526305718382448
40
0.786105451116564
40
0.786105451116564
40
1
40
1
40
1
40
1
41
1
10
35.7690661191386
20
-15.4805904782012
30
0
41
1
10
35.8750277942821
20
-15.5457670461864
30
0
41
1
10
35.9805420530575
20
-15.6333348416902
30
0
41
1
10
36.1728197310185
20
-15.8426788602152
30
0
41
1
10
36.2619804526912
20
-15.9672179333287
30
0
41
1
10
36.411522844142
20
-16.2318791666996
30
0
41
1
10
36.4741907321381
20
-16.374753536541
30
0
41
1
10
36.563476744727
20
-16.6370677461368
30
0
41
1
10
36.5952722329032
20
-16.7579355344168
30
0
41
1
10
36.6188766396548
20
-16.877262239983
30
0
0
SPLINE
5
1BE
100
AcDbEntity
8
1
62
256
6
ByLayer
370
18
48
1
60
0
100
AcDbSpline
70
4
71
3
72
10
73
6
40
0
40
0
40
0
40
0
40
0.106616270583437
40
0.106616270583437
40
1
40
1
40
1
40
1
41
1
10
32.8710660561664
20
-16.6549594781867
30
0
41
1
10
32.8389482135576
20
-16.634179778581
30
0
41
1
10
32.8068605100724
20
-16.6131305796894
30
0
41
1
10
32.5065591674348
20
-16.4134224296033
30
0
41
1
10
32.2402702219349
20
-16.215899601469
30
0
41
1
10
31.9785008832425
20
-16.0013463684514
30
0
0
SPLINE
5
1BF
100
AcDbEntity
8
1
62
256
6
ByLayer
370
18
48
1
60
0
100
AcDbSpline
70
4
71
3
72
8
73
4
40
0
40
0
40
0
40
0
40
1
40
1
40
1
40
1
41
1
10
32.0265659261207
20
-19.9127663753211
30
0
41
1
10
32.0870817054089
20
-19.9209052232009
30
0
41
1
10
32.1477683900301
20
-19.9282832199868
30
0
41
1
10
32.2086014356903
20
-19.9349263986534
30
0
0
SPLINE
5
1C0
100
AcDbEntity
8
1
62
256
6
ByLayer
370
18
48
1
60
0
100
AcDbSpline
70
4
71
3
72
10
73
6
40
0
40
0
40
0
40
0
40
0.560518156563274
40
0.560518156563274
40
1
40
1
40
1
40
1
41
1
10
32.2079340442012
20
-11.976597497976
30
0
41
1
10
32.524892390897
20
-12.2162535142781
30
0
41
1
10
32.858626585192
20
-12.4308663420271
30
0
41
1
10
33.4425941208515
20
-12.7273469629454
30
0
41
1
10
33.7001975715617
20
-12.8296709642707
30
0
41
1
10
33.9408771441862
20
-12.9009650470939
30
0
0
SPLINE
5
1C1
100
AcDbEntity
8
1
62
256
6
ByLayer
370
18
48
1
60
0
100
AcDbSpline
70
4
71
2
72
6
73
3
40
0
40
0
40
0
40
1
40
1
40
1
41
1
10
34.1155317492232
20
-12.9524704907849
30
0
41
1
10
34.3823544692217
20
-13.2130574100726
30
0
41
1
10
34.6362132688589
20
-13.4851512929052
30
0
0
SPLINE
5
1C2
100
AcDbEntity
8
1
62
256
6
ByLayer
370
18
48
1
60
0
100
AcDbSpline
70
4
71
3
72
16
73
12
40
0
40
0
40
0
40
0
40
0.283825424659829
40
0.283825424659829
40
0.572792249827487
40
0.572792249827487
40
0.572792249827487
40
0.894188232602854
40
0.894188232602854
40
0.894188232602854
40
1
40
1
40
1
40
1
41
1
10
25.0504920771025
20
-18.0603191281953
30
0
41
1
10
25.4070528752504
20
-18.0756658032448
30
0
41
1
10
25.7726398551375
20
-18.0367846405486
30
0
41
1
10
26.471343224803
20
-17.861363713394
30
0
41
1
10
26.8129892127695
20
-17.7214568421738
30
0
41
1
10
27.1213287138946
20
-17.5353850506297
30
0
41
1
10
27.4622672347284
20
-17.3296409239561
30
0
41
1
10
27.7742601346442
20
-17.058151657248
30
0
41
1
10
28.0153772713865
20
-16.7360073232538
30
0
41
1
10
28.0962338080961
20
-16.6279790200013
30
0
41
1
10
28.1698771794366
20
-16.5135596166704
30
0
41
1
10
28.2345486188896
20
-16.3947018434396
30
0
0
SPLINE
5
1C3
100
AcDbEntity
8
1
62
256
6
ByLayer
370
18
48
1
60
0
100
AcDbSpline
70
4
71
3
72
8
73
4
40
0
40
0
40
0
40
0
40
1
40
1
40
1
40
1
41
1
10
18.7729548805333
20
-9.73488137558425
30
0
41
1
10
18.7807098122005
20
-9.70647635990488
30
0
41
1
10
18.7892715721061
20
-9.67879085896365
30
0
41
1
10
18.79858199693
20
-9.65176918232504
30
0
0
SPLINE
5
1C4
100
AcDbEntity
8
1
62
256
6
ByLayer
370
18
48
1
60
0
100
AcDbSpline
70
4
71
3
72
10
73
6
40
0
40
0
40
0
40
0
40
0.679966690484305
40
0.679966690484305
40
1
40
1
40
1
40
1
41
1
10
21.1272810855726
20
-16.508617150289
30
0
41
1
10
21.0488220486739
20
-16.4101097444966
30
0
41
1
10
20.9605650982522
20
-16.3154056324611
30
0
41
1
10
20.8192022867668
20
-16.18536779144
30
0
41
1
10
20.7719964588168
20
-16.1449413516903
30
0
41
1
10
20.7232009483223
20
-16.1060496669498
30
0
0
SPLINE
5
1C5
100
AcDbEntity
8
1
62
256
6
ByLayer
370
18
48
1
60
0
100
AcDbSpline
70
4
71
2
72
6
73
3
40
0
40
0
40
0
40
1
40
1
40
1
41
1
10
32.930856539763
20
-19.7315873243205
30
0
41
1
10
32.5723735206061
20
-19.8427144347685
30
0
41
1
10
32.2085251174013
20
-19.9375163431692
30
0
0
SPLINE
5
1C6
100
AcDbEntity
8
1
62
256
6
ByLayer
370
18
48
1
60
0
100
AcDbSpline
70
4
71
3
72
8
73
4
40
0
40
0
40
0
40
0
40
1
40
1
40
1
40
1
41
1
10
31.4030013443909
20
-14.4873255882072
30
0
41
1
10
32.5787622102172
20
-14.4038866366718
30
0
41
1
10
33.4174296293207
20
-13.3848551951079
30
0
41
1
10
34.6381729855852
20
-13.491352572044
30
0
0
SPLINE
5
1C7
100
AcDbEntity
8
1
62
256
6
ByLayer
370
18
48
1
60
0
100
AcDbSpline
70
4
71
3
72
10
73
6
40
0
40
0
40
0
40
0
40
0.123732606265383
40
0.123732606265383
40
1
40
1
40
1
40
1
41
1
10
25.05213420847
20
-13.9024863845294
30
0
41
1
10
25.0510942499771
20
-13.9005156320491
30
0
41
1
10
25.0500974613621
20
-13.8985588489275
30
0
41
1
10
25.0424420942968
20
-13.8830010177925
30
0
41
1
10
25.0377218592865
20
-13.8700570652117
30
0
41
1
10
25.0343771518346
20
-13.857836860664
30
0
0
SPLINE
5
1C8
100
AcDbEntity
8
1
62
256
6
ByLayer
370
18
48
1
60
0
100
AcDbSpline
70
4
71
3
72
10
73
6
40
0
40
0
40
0
40
0
40
0.516155291935638
40
0.516155291935638
40
1
40
1
40
1
40
1
41
1
10
23.740251012689
20
-15.1519629998038
30
0
41
1
10
23.7474655579234
20
-15.1539376429543
30
0
41
1
10
23.7549147051099
20
-15.1563905367895
30
0
41
1
10
23.7698074376954
20
-15.1622933563609
30
0
41
1
10
23.7772531160362
20
-15.1656845420809
30
0
41
1
10
23.7849005365502
20
-15.1697200564296
30
0
0
SPLINE
5
1C9
100
AcDbEntity
8
1
62
256
6
ByLayer
370
18
48
1
60
0
100
AcDbSpline
70
4
71
3
72
8
73
4
40
0
40
0
40
0
40
0
40
1
40
1
40
1
40
1
41
1
10
25.3241222104522
20
-14.9600706579363
30
0
41
1
10
25.3195416357247
20
-14.9420706642209
30
0
41
1
10
25.31610610951
20
-14.9225674776861
30
0
41
1
10
25.3147878269372
20
-14.9016602673617
30
0
0
SPLINE
5
1CA
100
AcDbEntity
8
1
62
256
6
ByLayer
370
18
48
1
60
0
100
AcDbSpline
70
4
71
3
72
8
73
4
40
0
40
0
40
0
40
0
40
1
40
1
40
1
40
1
41
1
10
23.5956405750747
20
-14.449746687407
30
0
41
1
10
23.5868512961687
20
-14.4679969151562
30
0
41
1
10
23.5776555249111
20
-14.4841797026653
30
0
41
1
10
23.5684922544454
20
-14.4985668410672
30
0
0
SPLINE
5
1CB
100
AcDbEntity
8
1
62
256
6
ByLayer
370
18
48
1
60
0
100
AcDbSpline
70
4
71
3
72
10
73
6
40
0
40
0
40
0
40
0
40
0.6298938133793
40
0.6298938133793
40
1
40
1
40
1
40
1
41
1
10
24.3809809931158
20
-13.6860781024159
30
0
41
1
10
24.3719019213669
20
-13.6918606275917
30
0
41
1
10
24.3621401183857
20
-13.6976324062774
30
0
41
1
10
24.3454099382759
20
-13.7066505503276
30
0
41
1
10
24.3389297053812
20
-13.7099665486274
30
0
41
1
10
24.3321608394449
20
-13.7132264230471
30
0
0
SPLINE
5
1CC
100
AcDbEntity
8
1
62
256
6
ByLayer
370
18
48
1
60
0
100
AcDbSpline
70
4
71
3
72
8
73
4
40
0
40
0
40
0
40
0
40
1
40
1
40
1
40
1
41
1
10
23.6394472670411
20
-14.238670515502
30
0
41
1
10
23.6406819173123
20
-14.2533245847611
30
0
41
1
10
23.6409890529256
20
-14.2696993806944
30
0
41
1
10
23.6397783083495
20
-14.2880775638701
30
0
0
SPLINE
5
1CD
100
AcDbEntity
8
1
62
256
6
ByLayer
370
18
48
1
60
0
100
AcDbSpline
70
4
71
3
72
8
73
4
40
0
40
0
40
0
40
0
40
1
40
1
40
1
40
1
41
1
10
25.3589255602121
20
-14.7399911438247
30
0
41
1
10
25.3702438662668
20
-14.7242699432243
30
0
41
1
10
25.3825680281259
20
-14.7112155463167
30
0
41
1
10
25.3950772230479
20
-14.7001743323711
30
0
0
SPLINE
5
1CE
100
AcDbEntity
8
1
62
256
6
ByLayer
370
18
48
1
60
0
100
AcDbSpline
70
4
71
3
72
10
73
6
40
0
40
0
40
0
40
0
40
0.123732606265365
40
0.123732606265365
40
1
40
1
40
1
40
1
41
1
10
23.9024319268168
20
-15.2872514467023
30
0
41
1
10
23.9037878343513
20
-15.2895381482242
30
0
41
1
10
23.9051100211706
20
-15.2918203295502
30
0
41
1
10
23.9154397575813
20
-15.3100525300305
30
0
41
1
10
23.9229163406962
20
-15.3257528307161
30
0
41
1
10
23.9291923256587
20
-15.3409043127743
30
0
0
SPLINE
5
1CF
100
AcDbEntity
8
1
62
256
6
ByLayer
370
18
48
1
60
0
100
AcDbSpline
70
4
71
3
72
10
73
6
40
0
40
0
40
0
40
0
40
0.315026012182563
40
0.315026012182563
40
1
40
1
40
1
40
1
41
1
10
24.1704917158971
20
-13.7573641563233
30
0
41
1
10
24.1646730336727
20
-13.7577474879005
30
0
41
1
10
24.1590590252819
20
-13.7579766978371
30
0
41
1
10
24.1419415257166
20
-13.758283493959
30
0
41
1
10
24.1311261456245
20
-13.757879140333
30
0
41
1
10
24.1210846675333
20
-13.757033115012
30
0
0
SPLINE
5
1D0
100
AcDbEntity
8
1
62
256
6
ByLayer
370
18
48
1
60
0
100
AcDbSpline
70
4
71
3
72
10
73
6
40
0
40
0
40
0
40
0
40
0.629893813379406
40
0.629893813379406
40
1
40
1
40
1
40
1
41
1
10
24.5825884843743
20
-15.5126630710193
30
0
41
1
10
24.5895560946664
20
-15.5047690843867
30
0
41
1
10
24.5973036177673
20
-15.4969830258206
30
0
41
1
10
24.611115957973
20
-15.4850470418664
30
0
41
1
10
24.6165744261826
20
-15.4807092788814
30
0
41
1
10
24.6224052958399
20
-15.4765114081827
30
0
0
SPLINE
5
1D1
100
AcDbEntity
8
1
62
256
6
ByLayer
370
18
48
1
60
0
100
AcDbSpline
70
4
71
3
72
10
73
6
40
0
40
0
40
0
40
0
40
0.315026012182592
40
0.315026012182592
40
1
40
1
40
1
40
1
41
1
10
24.7840744193883
20
-15.432373674907
30
0
41
1
10
24.7906938121713
20
-15.4327910538885
30
0
41
1
10
24.7971695372123
20
-15.433423560602
30
0
41
1
10
24.8171555972949
20
-15.4359853249975
30
0
41
1
10
24.8301505880221
20
-15.4385692892586
30
0
41
1
10
24.84248480996
20
-15.4417080584263
30
0
0
SPLINE
5
1D2
100
AcDbEntity
8
1
62
256
6
ByLayer
370
18
48
1
60
0
100
AcDbSpline
70
4
71
3
72
10
73
6
40
0
40
0
40
0
40
0
40
0.516155291935492
40
0.516155291935492
40
1
40
1
40
1
40
1
41
1
10
25.2233184648044
20
-14.0467781736346
30
0
41
1
10
25.214373356541
20
-14.0430729674552
30
0
41
1
10
25.2052604549216
20
-14.038956319187
30
0
41
1
10
25.1873538731004
20
-14.0300396503799
30
0
41
1
10
25.1785390459597
20
-14.0252793158599
30
0
41
1
10
25.1696655987343
20
-14.0200177747999
30
0
0
LINE
5
72
100
AcDbEntity
8
80
62
256
6
ByLayer
370
18
48
1
60
0
100
AcDbLine
10
0
20
0
30
0
11
-5
21
0
31
0
39
0
210
0
220
0
230
1
0
LINE
5
73
100
AcDbEntity
8
4
62
256
6
ByLayer
370
18
48
0.05
60
0
100
AcDbLine
10
0
20
0
30
0
11
40
21
0
31
0
39
0
210
0
220
0
230
1
0
LINE
5
75
100
AcDbEntity
8
81
62
256
6
ByLayer
370
18
48
1
60
0
100
AcDbLine
10
40
20
-22
30
0
11
50
21
-22
31
0
39
0
210
0
220
0
230
1
0
LINE
5
76
100
AcDbEntity
8
SK4
62
256
6
ByLayer
370
18
48
0.05
60
0
100
AcDbLine
10
-24
20
0
30
0
11
40
21
0
31
0
39
0
210
0
220
0
230
1
0
LINE
5
78
100
AcDbEntity
8
1
62
256
6
ByLayer
370
18
48
1
60
0
100
AcDbLine
10
37.075115
20
-10.390642
30
0
11
36.580258
21
-9.895785
31
0
39
0
210
0
220
0
230
1
0
LINE
5
7A
100
AcDbEntity
8
1
62
256
6
ByLayer
370
18
48
1
60
0
100
AcDbLine
10
17.183324
20
-17.702663
30
0
11
17.841787
21
-18.103313
31
0
39
0
210
0
220
0
230
1
0
LINE
5
7B
100
AcDbEntity
8
1
62
256
6
ByLayer
370
18
48
1
60
0
100
AcDbLine
10
0.3
20
-16
30
0
11
14.225095
21
-16
31
0
39
0
210
0
220
0
230
1
0
LINE
5
7C
100
AcDbEntity
8
1
62
256
6
ByLayer
370
18
48
1
60
0
100
AcDbLine
10
15.920792
20
16
30
0
11
0.3
21
16
31
0
39
0
210
0
220
0
230
1
0
LINE
5
7D
100
AcDbEntity
8
1
62
256
6
ByLayer
370
18
48
1
60
0
100
AcDbLine
10
0.3
20
16
30
0
11
0
21
15.7
31
0
39
0
210
0
220
0
230
1
0
LINE
5
7E
100
AcDbEntity
8
1
62
256
6
ByLayer
370
18
48
1
60
0
100
AcDbLine
10
0
20
-15.7
30
0
11
0.3
21
-16
31
0
39
0
210
0
220
0
230
1
0
LINE
5
7F
100
AcDbEntity
8
1
62
256
6
ByLayer
370
18
48
1
60
0
100
AcDbLine
10
16.88903
20
16.15
30
0
11
15.960985
21
16.15
31
0
39
0
210
0
220
0
230
1
0
LINE
5
80
100
AcDbEntity
8
1
62
256
6
ByLayer
370
18
48
1
60
0
100
AcDbLine
10
15.960985
20
16.15
30
0
11
15.920792
21
16
31
0
39
0
210
0
220
0
230
1
0
LINE
5
81
100
AcDbEntity
8
1
62
256
6
ByLayer
370
18
48
1
60
0
100
AcDbLine
10
16.199502
20
-17.040158
30
0
11
16.575433
21
-18.443151
31
0
39
0
210
0
220
0
230
1
0
LINE
5
82
100
AcDbEntity
8
1
62
256
6
ByLayer
370
18
48
1
60
0
100
AcDbLine
10
22.002672
20
-16.645741
30
0
11
22.173406
21
-16.816475
31
0
39
0
210
0
220
0
230
1
0
LINE
5
83
100
AcDbEntity
8
1
62
256
6
ByLayer
370
18
48
1
60
0
100
AcDbLine
10
26.698889
20
-12.290992
30
0
11
26.526207
21
-12.118309
31
0
39
0
210
0
220
0
230
1
0
LINE
5
84
100
AcDbEntity
8
1
62
256
6
ByLayer
370
18
48
1
60
0
100
AcDbLine
10
20.428832
20
-15.901618
30
0
11
20.056956
21
-15.675345
31
0
39
0
210
0
220
0
230
1
0
LINE
5
85
100
AcDbEntity
8
1
62
256
6
ByLayer
370
13
48
0.05
60
0
100
AcDbLine
10
0
20
-0.447214
30
0
11
0
21
3.622214
31
0
39
0
210
0
220
0
230
1
0
LINE
5
86
100
AcDbEntity
8
1
62
256
6
ByLayer
370
18
48
1
60
0
100
AcDbLine
10
25.169666
20
-14.020018
30
0
11
25.052135
21
-13.902487
31
0
39
0
210
0
220
0
230
1
0
LINE
5
87
100
AcDbEntity
8
1
62
256
6
ByLayer
370
18
48
1
60
0
100
AcDbLine
10
23.784901
20
-15.169721
30
0
11
23.902432
21
-15.287251
31
0
39
0
210
0
220
0
230
1
0
LINE
5
88
100
AcDbEntity
8
1
62
256
6
ByLayer
370
18
48
1
60
0
100
AcDbLine
10
30.126661
20
-19.929853
30
0
11
32.866885
21
-21.195895
31
0
39
0
210
0
220
0
230
1
0
LINE
5
89
100
AcDbEntity
8
1
62
256
6
ByLayer
370
18
48
1
60
0
100
AcDbLine
10
36.064643
20
-10.307718
30
0
11
32.977867
21
-12.477664
31
0
39
0
210
0
220
0
230
1
0
LINE
5
8A
100
AcDbEntity
8
1
62
256
6
ByLayer
370
18
48
1
60
0
100
AcDbLine
10
35.713171
20
-9.956245
30
0
11
36.064643
21
-10.307718
31
0
39
0
210
0
220
0
230
1
0
LINE
5
8B
100
AcDbEntity
8
1
62
256
6
ByLayer
370
18
48
1
60
0
100
AcDbLine
10
15.920792
20
16
30
0
11
15.920792
21
15.592323
31
0
39
0
210
0
220
0
230
1
0
LINE
5
8C
100
AcDbEntity
8
1
62
256
6
ByLayer
370
18
48
1
60
0
100
AcDbLine
10
0.3
20
0
30
0
11
0.3
21
-16
31
0
39
0
210
0
220
0
230
1
0
LINE
5
8D
100
AcDbEntity
8
1
62
256
6
ByLayer
370
18
48
1
60
0
100
AcDbLine
10
0.3
20
16
30
0
11
0.3
21
0
31
0
39
0
210
0
220
0
230
1
0
LINE
5
8E
100
AcDbEntity
8
1
62
256
6
ByLayer
370
18
48
1
60
0
100
AcDbLine
10
0
20
0
30
0
11
0
21
-15.7
31
0
39
0
210
0
220
0
230
1
0
LINE
5
8F
100
AcDbEntity
8
1
62
256
6
ByLayer
370
18
48
1
60
0
100
AcDbLine
10
0
20
15.7
30
0
11
0
21
0
31
0
39
0
210
0
220
0
230
1
0
LINE
5
90
100
AcDbEntity
8
1
62
256
6
ByLayer
370
18
48
1
60
0
100
AcDbLine
10
32.205788
20
-20.890456
30
0
11
32.14398
21
-21.063162
31
0
39
0
210
0
220
0
230
1
0
LINE
5
91
100
AcDbEntity
8
1
62
256
6
ByLayer
370
18
48
1
60
0
100
AcDbLine
10
32.915478
20
-12.441853
30
0
11
35.89413
21
-10.347915
31
0
39
0
210
0
220
0
230
1
0
LINE
5
92
100
AcDbEntity
8
SK1
62
256
6
ByLayer
370
18
48
1
60
0
100
AcDbLine
10
-0.2
20
10.883485
30
0
11
-0.2
21
5.362019
31
0
39
0
210
0
220
0
230
1
0
LINE
5
94
100
AcDbEntity
8
SK1
62
256
6
ByLayer
370
18
48
1
60
0
100
AcDbLine
10
-0.2
20
-5.362019
30
0
11
-0.2
21
-10.883485
31
0
39
0
210
0
220
0
230
1
0
LINE
5
95
100
AcDbEntity
8
1
62
256
6
ByLayer
370
18
48
1
60
0
100
AcDbLine
10
13.170847
20
-5.950024
30
0
11
12.864335
21
-7.072726
31
0
39
0
210
0
220
0
230
1
0
LINE
5
96
100
AcDbEntity
8
1
62
256
6
ByLayer
370
18
48
1
60
0
100
AcDbLine
10
10.741918
20
-14.846786
30
0
11
10.623214
21
-15.281578
31
0
39
0
210
0
220
0
230
1
0
LINE
5
97
100
AcDbEntity
8
1
62
256
6
ByLayer
370
18
48
1
60
0
100
AcDbLine
10
14.356198
20
4.221783
30
0
11
12.503893
21
1.333379
31
0
39
0
210
0
220
0
230
1
0
LINE
5
98
100
AcDbEntity
8
1
62
256
6
ByLayer
370
18
48
1
60
0
100
AcDbLine
10
19.259053
20
-19.183912
30
0
11
19.418239
21
-18.600838
31
0
39
0
210
0
220
0
230
1
0
LINE
5
99
100
AcDbEntity
8
1
62
256
6
ByLayer
370
18
48
1
60
0
100
AcDbLine
10
18.341447
20
-6.953018
30
0
11
17.993059
21
-8.229103
31
0
39
0
210
0
220
0
230
1
0
LINE
5
9A
100
AcDbEntity
8
1
62
256
6
ByLayer
370
18
48
1
60
0
100
AcDbLine
10
15.932512
20
-15.77654
30
0
11
15.872802
21
-15.995249
31
0
39
0
210
0
220
0
230
1
0
LINE
5
9B
100
AcDbEntity
8
1
62
256
6
ByLayer
370
18
48
1
60
0
100
AcDbLine
10
22.337231
20
-7.909061
30
0
11
22.376235
21
-7.766195
31
0
39
0
210
0
220
0
230
1
0
LINE
5
9C
100
AcDbEntity
8
1
62
256
6
ByLayer
370
18
48
1
60
0
100
AcDbLine
10
17.172978
20
15.766182
30
0
11
16.88903
21
16.15
31
0
39
0
210
0
220
0
230
1
0
LINE
5
9D
100
AcDbEntity
8
1
62
256
6
ByLayer
370
18
48
1
60
0
100
AcDbLine
10
15.960985
20
16.15
30
0
11
15.960985
21
15.748119
31
0
39
0
210
0
220
0
230
1
0
LINE
5
9E
100
AcDbEntity
8
1
62
256
6
ByLayer
370
18
48
1
60
0
100
AcDbLine
10
32.835702
20
-12.396073
30
0
11
35.858606
21
-10.271028
31
0
39
0
210
0
220
0
230
1
0
LINE
5
9F
100
AcDbEntity
8
1
62
256
6
ByLayer
370
18
48
1
60
0
100
AcDbLine
10
29.757038
20
-19.973061
30
0
11
32.14398
21
-21.063162
31
0
39
0
210
0
220
0
230
1
0
LINE
5
A0
100
AcDbEntity
8
1
62
256
6
ByLayer
370
18
48
1
60
0
100
AcDbLine
10
12.745244
20
-14.142925
30
0
11
12.774154
21
-11.486724
31
0
39
0
210
0
220
0
230
1
0
LINE
5
A1
100
AcDbEntity
8
1
62
256
6
ByLayer
370
18
48
1
60
0
100
AcDbLine
10
7.076795
20
15.276962
30
0
11
7.076795
21
9.870081
31
0
39
0
210
0
220
0
230
1
0
LINE
5
A2
100
AcDbEntity
8
1
62
256
6
ByLayer
370
18
48
1
60
0
100
AcDbLine
10
27.424862
20
-21.453807
30
0
11
19.259053
21
-19.183912
31
0
39
0
210
0
220
0
230
1
0
LINE
5
A3
100
AcDbEntity
8
1
62
256
6
ByLayer
370
18
48
1
60
0
100
AcDbLine
10
34.899445
20
-8.195019
30
0
11
35.858606
21
-10.271028
31
0
39
0
210
0
220
0
230
1
0
LINE
5
A4
100
AcDbEntity
8
1
62
256
6
ByLayer
370
18
48
1
60
0
100
AcDbLine
10
4.663397
20
-5.068619
30
0
11
4.663397
21
-15.175938
31
0
39
0
210
0
220
0
230
1
0
LINE
5
A5
100
AcDbEntity
8
1
62
256
6
ByLayer
370
18
48
1
60
0
100
AcDbLine
10
32.004174
20
-21.453807
30
0
11
32.14398
21
-21.063162
31
0
39
0
210
0
220
0
230
1
0
LINE
5
A6
100
AcDbEntity
8
1
62
256
6
ByLayer
370
18
48
1
60
0
100
AcDbLine
10
12.774154
20
-11.486724
30
0
11
12.774154
21
-0.55987
31
0
39
0
210
0
220
0
230
1
0
LINE
5
A7
100
AcDbEntity
8
1
62
256
6
ByLayer
370
18
48
1
60
0
100
AcDbLine
10
7.076795
20
-4.755463
30
0
11
7.076795
21
-15.276962
31
0
39
0
210
0
220
0
230
1
0
LINE
5
A8
100
AcDbEntity
8
1
62
256
6
ByLayer
370
18
48
1
60
0
100
AcDbLine
10
7.336603
20
15.175938
30
0
11
7.336603
21
9.854397
31
0
39
0
210
0
220
0
230
1
0
LINE
5
A9
100
AcDbEntity
8
1
62
256
6
ByLayer
370
18
48
1
60
0
100
AcDbLine
10
4.923205
20
15.276962
30
0
11
4.923205
21
9.870081
31
0
39
0
210
0
220
0
230
1
0
LINE
5
AA
100
AcDbEntity
8
1
62
256
6
ByLayer
370
18
48
1
60
0
100
AcDbLine
10
4.923205
20
15.276962
30
0
11
7.076795
21
15.276962
31
0
39
0
210
0
220
0
230
1
0
LINE
5
AB
100
AcDbEntity
8
1
62
256
6
ByLayer
370
18
48
1
60
0
100
AcDbLine
10
15.431661
20
-4.977228
30
0
11
15.340941
21
-4.961508
31
0
39
0
210
0
220
0
230
1
0
LINE
5
AC
100
AcDbEntity
8
1
62
256
6
ByLayer
370
18
48
1
60
0
100
AcDbLine
10
22.376235
20
-7.766195
30
0
11
29.39197
21
-0.75046
31
0
39
0
210
0
220
0
230
1
0
LINE
5
AD
100
AcDbEntity
8
1
62
256
6
ByLayer
370
18
48
1
60
0
100
AcDbLine
10
35.858606
20
-10.271028
30
0
11
35.89413
21
-10.347915
31
0
39
0
210
0
220
0
230
1
0
LINE
5
AE
100
AcDbEntity
8
1
62
256
6
ByLayer
370
18
48
1
60
0
100
AcDbLine
10
7.076795
20
4.755463
30
0
11
4.923205
21
4.755463
31
0
39
0
210
0
220
0
230
1
0
LINE
5
AF
100
AcDbEntity
8
1
62
256
6
ByLayer
370
18
48
1
60
0
100
AcDbLine
10
14.418011
20
-15.99824
30
0
11
16.981057
21
-6.610233
31
0
39
0
210
0
220
0
230
1
0
LINE
5
B0
100
AcDbEntity
8
1
62
256
6
ByLayer
370
18
48
1
60
0
100
AcDbLine
10
12.774154
20
5.053158
30
0
11
12.774154
21
14.312855
31
0
39
0
210
0
220
0
230
1
0
LINE
5
B1
100
AcDbEntity
8
1
62
256
6
ByLayer
370
18
48
1
60
0
100
AcDbLine
10
19.259053
20
-19.183912
30
0
11
16.575677
21
-18.437999
31
0
39
0
210
0
220
0
230
1
0
LINE
5
B2
100
AcDbEntity
8
1
62
256
6
ByLayer
370
18
48
1
60
0
100
AcDbLine
10
32.004174
20
-21.453807
30
0
11
27.424862
21
-21.453807
31
0
39
0
210
0
220
0
230
1
0
LINE
5
B3
100
AcDbEntity
8
1
62
256
6
ByLayer
370
18
48
1
60
0
100
AcDbLine
10
17.172978
20
15.766182
30
0
11
16.758933
21
15.766182
31
0
39
0
210
0
220
0
230
1
0
LINE
5
B4
100
AcDbEntity
8
1
62
256
6
ByLayer
370
18
48
1
60
0
100
AcDbLine
10
22.376235
20
-7.766195
30
0
11
22.733515
21
-5.704256
31
0
39
0
210
0
220
0
230
1
0
LINE
5
B5
100
AcDbEntity
8
1
62
256
6
ByLayer
370
18
48
1
60
0
100
AcDbLine
10
4.923205
20
-4.755463
30
0
11
4.923205
21
-15.276962
31
0
39
0
210
0
220
0
230
1
0
LINE
5
B6
100
AcDbEntity
8
1
62
256
6
ByLayer
370
18
48
1
60
0
100
AcDbLine
10
4.663397
20
15.175938
30
0
11
4.663397
21
9.854397
31
0
39
0
210
0
220
0
230
1
0
LINE
5
B7
100
AcDbEntity
8
1
62
256
6
ByLayer
370
18
48
1
60
0
100
AcDbLine
10
4.923205
20
6.630087
30
0
11
4.923205
21
4.755463
31
0
39
0
210
0
220
0
230
1
0
LINE
5
B8
100
AcDbEntity
8
1
62
256
6
ByLayer
370
18
48
1
60
0
100
AcDbLine
10
34.899445
20
-8.195019
30
0
11
29.39197
21
-0.75046
31
0
39
0
210
0
220
0
230
1
0
LINE
5
B9
100
AcDbEntity
8
1
62
256
6
ByLayer
370
18
48
1
60
0
100
AcDbLine
10
12.774154
20
-0.55987
30
0
11
12.502729
21
-0.385808
31
0
39
0
210
0
220
0
230
1
0
LINE
5
BA
100
AcDbEntity
8
1
62
256
6
ByLayer
370
18
48
1
60
0
100
AcDbLine
10
7.076795
20
6.630087
30
0
11
7.076795
21
4.755463
31
0
39
0
210
0
220
0
230
1
0
LINE
5
BB
100
AcDbEntity
8
1
62
256
6
ByLayer
370
18
48
1
60
0
100
AcDbLine
10
12.661654
20
4.589414
30
0
11
12.774154
21
5.053158
31
0
39
0
210
0
220
0
230
1
0
LINE
5
BC
100
AcDbEntity
8
1
62
256
6
ByLayer
370
18
48
1
60
0
100
AcDbLine
10
15.252691
20
-2.149331
30
0
11
12.774154
21
-0.55987
31
0
39
0
210
0
220
0
230
1
0
LINE
5
BD
100
AcDbEntity
8
1
62
256
6
ByLayer
370
18
48
1
60
0
100
AcDbLine
10
7.336603
20
-5.068619
30
0
11
7.336603
21
-15.175938
31
0
39
0
210
0
220
0
230
1
0
LINE
5
BE
100
AcDbEntity
8
1
62
256
6
ByLayer
370
18
48
1
60
0
100
AcDbLine
10
16.758933
20
-3.009219
30
0
11
16.758933
21
15.766182
31
0
39
0
210
0
220
0
230
1
0
LINE
5
BF
100
AcDbEntity
8
1
62
256
6
ByLayer
370
18
48
1
60
0
100
AcDbLine
10
15.52238
20
-4.992947
30
0
11
15.431661
21
-4.977228
31
0
39
0
210
0
220
0
230
1
0
LINE
5
C0
100
AcDbEntity
8
1
62
256
6
ByLayer
370
18
48
1
60
0
100
AcDbLine
10
7.076795
20
-15.276962
30
0
11
4.923205
21
-15.276962
31
0
39
0
210
0
220
0
230
1
0
LINE
5
C1
100
AcDbEntity
8
1
62
256
6
ByLayer
370
18
48
1
60
0
100
AcDbLine
10
12.502729
20
-0.385808
30
0
11
12.500572
21
-0.0118
31
0
39
0
210
0
220
0
230
1
0
LINE
5
C2
100
AcDbEntity
8
1
62
256
6
ByLayer
370
18
48
1
60
0
100
AcDbLine
10
17.172978
20
15.766182
30
0
11
29.39197
21
-0.75046
31
0
39
0
210
0
220
0
230
1
0
LINE
5
C3
100
AcDbEntity
8
1
62
256
6
ByLayer
370
18
48
1
60
0
100
AcDbLine
10
4.923205
20
-4.755463
30
0
11
7.076795
21
-4.755463
31
0
39
0
210
0
220
0
230
1
0
LINE
5
C4
100
AcDbEntity
8
1
62
256
6
ByLayer
370
18
48
1
60
0
100
AcDbLine
10
7.336603
20
6.820499
30
0
11
7.336603
21
5.068619
31
0
39
0
210
0
220
0
230
1
0
LINE
5
C5
100
AcDbEntity
8
1
62
256
6
ByLayer
370
18
48
1
60
0
100
AcDbLine
10
4.663397
20
6.820499
30
0
11
4.663397
21
5.068619
31
0
39
0
210
0
220
0
230
1
0
LINE
5
C6
100
AcDbEntity
8
SK1
62
256
6
ByLayer
370
18
48
1
60
0
100
AcDbLine
10
-1.307107
20
3.314033
30
0
11
-1.307107
21
-3.314033
31
0
39
0
210
0
220
0
230
1
0
LINE
5
C7
100
AcDbEntity
8
1
62
256
6
ByLayer
370
18
48
1
60
0
100
AcDbLine
10
39.997365
20
-21.13751
30
0
11
39.612975
21
-16.453518
31
0
39
0
210
0
220
0
230
1
0
LINE
5
C8
100
AcDbEntity
8
1
62
256
6
ByLayer
370
18
48
1
60
0
100
AcDbLine
10
39.195895
20
-14.866885
30
0
11
37.231135
21
-10.614355
31
0
39
0
210
0
220
0
230
1
0
LINE
5
C9
100
AcDbEntity
8
1
62
256
6
ByLayer
370
18
48
1
60
0
100
AcDbLine
10
34.453518
20
-21.612975
30
0
11
39.13751
21
-21.997365
31
0
39
0
210
0
220
0
230
1
0
LINE
5
CA
100
AcDbEntity
8
1
62
256
6
ByLayer
370
18
48
1
60
0
100
AcDbLine
10
21.350022
20
-7.663158
30
0
11
22.488771
21
-7.962502
31
0
39
0
210
0
220
0
230
1
0
LINE
5
CB
100
AcDbEntity
8
1
62
256
6
ByLayer
370
18
48
1
60
0
100
AcDbLine
10
26.08122
20
-11.500038
30
0
11
24.495272
21
-11.083139
31
0
39
0
210
0
220
0
230
1
0
LINE
5
CC
100
AcDbEntity
8
1
62
256
6
ByLayer
370
18
48
1
60
0
100
AcDbLine
10
21.350022
20
-7.663158
30
0
11
20.95028
21
-7.41993
31
0
39
0
210
0
220
0
230
1
0
LINE
5
CD
100
AcDbEntity
8
1
62
256
6
ByLayer
370
18
48
1
60
0
100
AcDbLine
10
17.170722
20
-15.603592
30
0
11
18.772955
21
-9.734881
31
0
39
0
210
0
220
0
230
1
0
LINE
5
CE
100
AcDbEntity
8
1
62
256
6
ByLayer
370
18
48
1
60
0
100
AcDbLine
10
19.274097
20
-15.343434
30
0
11
17.933286
21
-14.992847
31
0
39
0
210
0
220
0
230
1
0
LINE
5
CF
100
AcDbEntity
8
1
62
256
6
ByLayer
370
18
48
1
60
0
100
AcDbLine
10
24.015138
20
-19.795869
30
0
11
19.620458
21
-18.640637
31
0
39
0
210
0
220
0
230
1
0
LINE
5
D0
100
AcDbEntity
8
1
62
256
6
ByLayer
370
18
48
1
60
0
100
AcDbLine
10
20.894899
20
-8.496028
30
0
11
26.958173
21
-10.089885
31
0
39
0
210
0
220
0
230
1
0
LINE
5
D1
100
AcDbEntity
8
1
62
256
6
ByLayer
370
18
48
1
60
0
100
AcDbLine
10
32.871066
20
-16.654959
30
0
11
36.593844
21
-17.367014
31
0
39
0
210
0
220
0
230
1
0
LINE
5
D2
100
AcDbEntity
8
1
62
256
6
ByLayer
370
18
48
1
60
0
100
AcDbLine
10
19.587178
20
-15.533931
30
0
11
19.274097
21
-15.343434
31
0
39
0
210
0
220
0
230
1
0
LINE
5
D3
100
AcDbEntity
8
1
62
256
6
ByLayer
370
18
48
1
60
0
100
AcDbLine
10
22.735443
20
-17.5291
30
0
11
22.460971
21
-17.362094
31
0
39
0
210
0
220
0
230
1
0
LINE
5
D4
100
AcDbEntity
8
1
62
256
6
ByLayer
370
18
48
1
60
0
100
AcDbLine
10
22.460971
20
-17.362094
30
0
11
24.040534
21
-17.775109
31
0
39
0
210
0
220
0
230
1
0
LINE
5
D5
100
AcDbEntity
8
1
62
256
6
ByLayer
370
18
48
1
60
0
100
AcDbLine
10
17.933286
20
-14.992847
30
0
11
19.088995
21
-10.759678
31
0
39
0
210
0
220
0
230
1
0
LINE
5
D6
100
AcDbEntity
8
1
62
256
6
ByLayer
370
18
48
1
60
0
100
AcDbLine
10
18.376181
20
-17.721671
30
0
11
24.439455
21
-19.315528
31
0
39
0
210
0
220
0
230
1
0
LINE
5
D7
100
AcDbEntity
8
1
62
256
6
ByLayer
370
18
48
1
60
0
100
AcDbLine
10
17.611987
20
-9.028477
30
0
11
16.009754
21
-14.897187
31
0
39
0
210
0
220
0
230
1
0
LINE
5
D8
100
AcDbEntity
8
1
62
256
6
ByLayer
370
18
48
1
60
0
100
AcDbLine
10
19.573233
20
-18.641631
30
0
11
19.620458
21
-18.640637
31
0
39
0
210
0
220
0
230
1
0
LINE
5
D9
100
AcDbEntity
8
1
62
256
6
ByLayer
370
18
48
1
60
0
100
AcDbLine
10
22.735443
20
-17.5291
30
0
11
24.321391
21
-17.945999
31
0
39
0
210
0
220
0
230
1
0
LINE
5
DA
100
AcDbEntity
8
1
62
256
6
ByLayer
370
18
48
1
60
0
100
AcDbLine
10
17.170722
20
-15.603592
30
0
11
16.009754
21
-14.897187
31
0
39
0
210
0
220
0
230
1
0
LINE
5
DB
100
AcDbEntity
8
1
62
256
6
ByLayer
370
18
48
1
60
0
100
AcDbLine
10
34.928597
20
-18.55909
30
0
11
32.925201
21
-19.733339
31
0
39
0
210
0
220
0
230
1
0
LINE
5
DC
100
AcDbEntity
8
1
62
256
6
ByLayer
370
18
48
1
60
0
100
AcDbLine
10
22.488771
20
-7.962502
30
0
11
20.95791
21
-7.42262
31
0
39
0
210
0
220
0
230
1
0
LINE
5
DD
100
AcDbEntity
8
1
62
256
6
ByLayer
370
18
48
1
60
0
100
AcDbLine
10
26.921885
20
-9.148939
30
0
11
22.527206
21
-7.993706
31
0
39
0
210
0
220
0
230
1
0
LINE
5
DE
100
AcDbEntity
8
1
62
256
6
ByLayer
370
18
48
1
60
0
100
AcDbLine
10
22.488771
20
-7.962502
30
0
11
22.527206
21
-7.993706
31
0
39
0
210
0
220
0
230
1
0
LINE
5
DF
100
AcDbEntity
8
1
62
256
6
ByLayer
370
18
48
1
60
0
100
AcDbLine
10
34.632208
20
-13.480859
30
0
11
35.769066
21
-15.48059
31
0
39
0
210
0
220
0
230
1
0
LINE
5
E0
100
AcDbEntity
8
1
62
256
6
ByLayer
370
18
48
1
60
0
100
AcDbLine
10
18.772955
20
-9.734881
30
0
11
17.611987
21
-9.028477
31
0
39
0
210
0
220
0
230
1
0
LINE
5
E1
100
AcDbEntity
8
1
62
256
6
ByLayer
370
18
48
1
60
0
100
AcDbLine
10
24.321391
20
-17.945999
30
0
11
24.040534
21
-17.775109
31
0
39
0
210
0
220
0
230
1
0
LINE
5
E2
100
AcDbEntity
8
1
62
256
6
ByLayer
370
18
48
1
60
0
100
AcDbLine
10
19.573233
20
-18.641631
30
0
11
18.434483
21
-18.342287
31
0
39
0
210
0
220
0
230
1
0
LINE
5
E3
100
AcDbEntity
8
1
62
256
6
ByLayer
370
18
48
1
60
0
100
AcDbLine
10
24.648228
20
-15.296527
30
0
11
24.784074
21
-15.432374
31
0
39
0
210
0
220
0
230
1
0
LINE
5
E4
100
AcDbEntity
8
1
62
256
6
ByLayer
370
18
48
1
60
0
100
AcDbLine
10
24.87934
20
-13.571523
30
0
11
25.019688
21
-13.711871
31
0
39
0
210
0
220
0
230
1
0
LINE
5
E5
100
AcDbEntity
8
1
62
256
6
ByLayer
370
18
48
1
60
0
100
AcDbLine
10
24.836037
20
-15.36024
30
0
11
24.976386
21
-15.500588
31
0
39
0
210
0
220
0
230
1
0
LINE
5
E6
100
AcDbEntity
8
1
62
256
6
ByLayer
370
18
48
1
60
0
100
AcDbLine
10
24.622405
20
-15.476511
30
0
11
24.486559
21
-15.340665
31
0
39
0
210
0
220
0
230
1
0
LINE
5
E7
100
AcDbEntity
8
1
62
256
6
ByLayer
370
18
48
1
60
0
100
AcDbLine
10
25.223079
20
-14.604145
30
0
11
25.358926
21
-14.739991
31
0
39
0
210
0
220
0
230
1
0
LINE
5
E8
100
AcDbEntity
8
1
62
256
6
ByLayer
370
18
48
1
60
0
100
AcDbLine
10
25.242654
20
-14.953623
30
0
11
25.383002
21
-15.093971
31
0
39
0
210
0
220
0
230
1
0
LINE
5
E9
100
AcDbEntity
8
1
62
256
6
ByLayer
370
18
48
1
60
0
100
AcDbLine
10
23.453937
20
-14.996926
30
0
11
23.594286
21
-15.137274
31
0
39
0
210
0
220
0
230
1
0
LINE
5
EA
100
AcDbEntity
8
1
62
256
6
ByLayer
370
18
48
1
60
0
100
AcDbLine
10
25.314788
20
-14.90166
30
0
11
25.178941
21
-14.765814
31
0
39
0
210
0
220
0
230
1
0
LINE
5
EB
100
AcDbEntity
8
1
62
256
6
ByLayer
370
18
48
1
60
0
100
AcDbLine
10
23.784901
20
-15.16972
30
0
11
23.649054
21
-15.033874
31
0
39
0
210
0
220
0
230
1
0
LINE
5
EC
100
AcDbEntity
8
1
62
256
6
ByLayer
370
18
48
1
60
0
100
AcDbLine
10
25.373941
20
-14.47274
30
0
11
25.514289
21
-14.613089
31
0
39
0
210
0
220
0
230
1
0
LINE
5
ED
100
AcDbEntity
8
1
62
256
6
ByLayer
370
18
48
1
60
0
100
AcDbLine
10
24.916288
20
-13.76664
30
0
11
25.052134
21
-13.902486
31
0
39
0
210
0
220
0
230
1
0
LINE
5
EE
100
AcDbEntity
8
1
62
256
6
ByLayer
370
18
48
1
60
0
100
AcDbLine
10
24.355155
20
-15.491527
30
0
11
24.495503
21
-15.631875
31
0
39
0
210
0
220
0
230
1
0
MTEXT
5
1D3
100
AcDbEntity
8
SK6
62
256
6
ByLayer
370
18
48
1
60
0
100
AcDbMText
10
-6.125
20
25.199998
30
0
210
0
220
0
230
1
1
\W0.7739;C3-DWLNL-22040-06
40
3.5
41
0
44
1.084337
50
0
71
7
72
5
7
iso_b_vert
0
DIMENSION
5
1E4
100
AcDbEntity
8
2
62
256
6
ByLayer
370
13
48
1
60
0
100
AcDbDimension
2
DimnDraft3D1
10
40
20
-20.4125
30
0
11
27.554118
21
-33.53416
31
0
70
34
71
5
72
1
41
1
210
0
220
0
230
1
3
Standard
100
AcDb2LineAngularDimension
13
33.161432
23
-21.506602
33
0
14
39.141329
24
-21.997341
34
0
15
40
25
-22
35
0
16
24.244568
26
-36.583239
36
0
40
0
0
DIMENSION
5
1F9
100
AcDbEntity
8
2
62
256
6
ByLayer
370
13
48
1
60
0
100
AcDbDimension
2
DimnDraft3D2
10
40
20
-49.25
30
0
11
14.481579
21
-49.25
31
0
70
32
71
5
72
1
41
1
210
0
220
0
230
1
3
Standard
100
AcDbAlignedDimension
13
0
23
-18
33
0
14
40
24
-24
34
0
50
0
100
AcDbRotatedDimension
1001
ACAD
1000
DSTYLE
1002
{
1070
   279
1070
     0
1070
   172
1070
     1
1070
   173
1070
     1
1070
   340
1005
1D4
1070
    77
1070
     1
1070
    73
1070
     0
1070
   171
1070
     3
1070
   274
1070
     4
1070
   177
1070
     2
1070
   176
1070
     2
1070
   178
1070
     7
1070
    78
1070
     8
1070
    41
1041
3.175
1070
   147
1041
2.25
1070
    42
1041
2.0
1070
    44
1041
2.0
1070
   140
1041
4.5
1070
   343
1005
1E5
1070
   344
1005
1E5
1002
}
0
DIMENSION
5
208
100
AcDbEntity
8
SK2
62
256
6
ByLayer
370
13
48
1
60
0
100
AcDbDimension
2
DimnDraft3D3
10
-26.75
20
16
30
0
11
-26.75
21
-2.688158
31
0
70
32
71
5
72
1
41
1
210
0
220
0
230
1
3
Standard
100
AcDbAlignedDimension
13
-2
23
-16
33
0
14
-2
24
16
34
0
50
90
100
AcDbRotatedDimension
1001
ACAD
1000
DSTYLE
1002
{
1070
    74
1070
     0
1070
   279
1070
     0
1070
   172
1070
     1
1070
   173
1070
     1
1070
   340
1005
1D4
1070
    77
1070
     1
1070
    73
1070
     0
1070
   171
1070
     3
1070
   274
1070
     4
1070
   177
1070
     2
1070
   176
1070
     2
1070
   178
1070
     7
1070
    78
1070
     8
1070
    41
1041
3.175
1070
   147
1041
2.25
1070
    42
1041
2.0
1070
    44
1041
2.0
1070
   140
1041
4.5
1070
   343
1005
1E5
1070
   344
1005
1E5
1002
}
0
DIMENSION
5
216
100
AcDbEntity
8
2
62
256
6
ByLayer
370
13
48
1
60
0
100
AcDbDimension
2
DimnDraft3D4
10
62.25
20
-22
30
0
11
62.25
21
-16.281579
31
0
70
32
71
5
72
1
41
1
210
0
220
0
230
1
3
Standard
100
AcDbAlignedDimension
13
42
23
0
33
0
14
42
24
-22
34
0
50
90
100
AcDbRotatedDimension
1001
ACAD
1000
DSTYLE
1002
{
1070
    74
1070
     0
1070
   279
1070
     0
1070
   172
1070
     1
1070
   173
1070
     1
1070
   340
1005
1D4
1070
    77
1070
     1
1070
    73
1070
     0
1070
   171
1070
     3
1070
   274
1070
     4
1070
   177
1070
     2
1070
   176
1070
     2
1070
   178
1070
     7
1070
    78
1070
     8
1070
    41
1041
3.175
1070
   147
1041
2.25
1070
    42
1041
2.0
1070
    44
1041
2.0
1070
   140
1041
4.5
1070
   343
1005
1E5
1070
   344
1005
1E5
1002
}
0
ENDSEC
0
SECTION
2
OBJECTS
0
DICTIONARY
5
281
330
0
100
AcDbDictionary
280
0
281
1
3
ACAD_GROUP
350
282
3
ACAD_MLINESTYLE
350
283
0
DICTIONARY
5
282
330
0
100
AcDbDictionary
280
0
281
1
0
DICTIONARY
5
283
330
0
100
AcDbDictionary
280
0
281
1
3
Standard
350
18
0
MLINESTYLE
5
18
330
283
100
AcDbMlineStyle
2
Standard
70
0
3

62
256
51
90
52
90
71
2
49
-0.5
62
256
6
ByLayer
49
0.5
62
256
6
ByLayer
0
RASTERVARIABLES
5
26f
330

100
AcDbRasterVariables
90
0
70
1
71
1
72
1
0
ENDSEC
0
EOF
