0
SECTION
2
HEADER
9
$ACADVER
1
AC1015
9
$DWGCODEPAGE
3
ANSI_1252
9
$HANDSEED
5
1bf
9
$ANGBASE
50
0
9
$ANGDIR
70
0
9
$ATTMODE
70
1
9
$AUNITS
70
0
9
$AUPREC
70
0
9
$CECOLOR
62
256
9
$CELTSCALE
40
1
9
$CELTYPE
6
ByLayer
9
$CELWEIGHT
370
18
9
$CLAYER
8
0
9
$CMLJUST
70
0
9
$CMLSCALE
40
1
9
$CMLSTYLE
2
Standard
9
$DIMSTYLE
2
Standard
9
$TEXTSIZE
40
0.2
9
$TEXTSTYLE
7
Standard
9
$LUNITS
70
2
9
$LUPREC
70
4
9
$EXTNAMES
290
1
9
$INSUNITS
70
4
9
$LTSCALE
40
1
9
$LWDISPLAY
290
1
9
$PDMODE
70
0
9
$PDSIZE
40
0
9
$PLINEGEN
70
0
0
ENDSEC
0
SECTION
2
CLASSES
0
CLASS
1
RASTERVARIABLES
2
AcDbRasterVariables
3
ISM
90
0
280
0
281
0
0
ENDSEC
0
SECTION
2
TABLES
0
TABLE
2
VPORT
5
1b5
100
AcDbSymbolTable
0
VPORT
5
1
100
AcDbSymbolTableRecord
100
AcDbViewportTableRecord
2
*Active
70
0
10
0
20
0
11
1
21
1
12
-1
22
1
13
0
23
0
14
0.5
24
0.5
15
10
25
10
16
0
26
0
36
1
17
0
27
0
37
0
0
ENDTAB
0
TABLE
2
LTYPE
5
1b6
100
AcDbSymbolTable
0
LTYPE
5
14
100
AcDbSymbolTableRecord
100
AcDbLinetypeTableRecord
70
0
2
ByBlock
3

72
65
73
0
40
0
0
LTYPE
5
15
100
AcDbSymbolTableRecord
100
AcDbLinetypeTableRecord
70
0
2
ByLayer
3

72
65
73
0
40
0
0
LTYPE
5
16
100
AcDbSymbolTableRecord
100
AcDbLinetypeTableRecord
70
0
2
CONTINUOUS
3
Solid line
72
65
73
0
40
0
0
LTYPE
5
6A
100
AcDbSymbolTableRecord
100
AcDbLinetypeTableRecord
70
0
2
CENTER
3
____ _ ____ _ ____ _ ____
72
65
73
4
40
47.5
49
22
74
0
49
-8.5
74
0
49
8.5
74
0
49
-8.5
74
0
0
LTYPE
5
6B
100
AcDbSymbolTableRecord
100
AcDbLinetypeTableRecord
70
0
2
DASHED
3
__ __ __ __ __ __ __ __ __
72
65
73
2
40
25.72
49
12.86
74
0
49
-12.86
74
0
0
ENDTAB
0
TABLE
2
LAYER
5
1b7
100
AcDbSymbolTable
0
LAYER
5
10
100
AcDbSymbolTableRecord
100
AcDbLayerTableRecord
2
0
70
0
62
7
6
CONTINUOUS
290
1
370
-3
390
0
0
LAYER
5
6D
100
AcDbSymbolTableRecord
100
AcDbLayerTableRecord
2
81
70
0
62
-3
6
CONTINUOUS
290
1
370
-3
390
0
0
LAYER
5
6F
100
AcDbSymbolTableRecord
100
AcDbLayerTableRecord
2
80
70
0
62
-6
6
CONTINUOUS
290
1
370
-3
390
0
0
LAYER
5
71
100
AcDbSymbolTableRecord
100
AcDbLayerTableRecord
2
1
70
0
62
4
6
CONTINUOUS
290
1
370
-3
390
0
0
LAYER
5
80
100
AcDbSymbolTableRecord
100
AcDbLayerTableRecord
2
4
70
0
62
-2
6
CENTER
290
1
370
-3
390
0
0
LAYER
5
FA
100
AcDbSymbolTableRecord
100
AcDbLayerTableRecord
2
2
70
0
62
7
6
CONTINUOUS
290
1
370
-3
390
0
0
LAYER
5
1a0
100
AcDbSymbolTableRecord
100
AcDbLayerTableRecord
2
SK1
70
0
62
4
6
CONTINUOUS
290
1
370
-3
390
0
0
LAYER
5
1a1
100
AcDbSymbolTableRecord
100
AcDbLayerTableRecord
2
SK4
70
0
62
2
6
CENTER
290
1
370
-3
390
0
0
LAYER
5
1a2
100
AcDbSymbolTableRecord
100
AcDbLayerTableRecord
2
SK3
70
0
62
1
6
DASHED
290
1
370
-3
390
0
0
LAYER
5
1a3
100
AcDbSymbolTableRecord
100
AcDbLayerTableRecord
2
SK6
70
0
62
5
6
CONTINUOUS
290
1
370
-3
390
0
0
LAYER
5
1a4
100
AcDbSymbolTableRecord
100
AcDbLayerTableRecord
2
SK2
70
0
62
7
6
CONTINUOUS
290
1
370
-3
390
0
0
ENDTAB
0
TABLE
2
STYLE
5
1b8
100
AcDbSymbolTable
0
STYLE
5
11
100
AcDbSymbolTableRecord
100
AcDbTextStyleTableRecord
2
Standard
3
txt
70
0
71
0
40
0
41
1
42
0
50
0
0
STYLE
5
F5
100
AcDbSymbolTableRecord
100
AcDbTextStyleTableRecord
2
iso_b_vert
3
simplex.shx
70
0
71
0
40
0
41
1
42
0
50
0
0
STYLE
5
F6
100
AcDbSymbolTableRecord
100
AcDbTextStyleTableRecord
2
DWGDirectTextStyle
3
simplex
70
0
71
0
40
0
41
1
42
0
50
0
0
ENDTAB
0
TABLE
2
DIMSTYLE
5
1b9
100
AcDbSymbolTable
100
AcDbDimStyleTable
0
DIMSTYLE
105
27
100
AcDbSymbolTableRecord
100
AcDbDimStyleTableRecord
2
Standard
70
0
3
<>
41
0.18
42
0.0625
44
0.18
140
0.18
147
0.09
73
0
74
0
77
1
271
2
275
0
278
52
280
0
340
11
0
ENDTAB
0
TABLE
2
VIEW
5
1ba
100
AcDbSymbolTable
0
ENDTAB
0
TABLE
2
UCS
5
1bb
100
AcDbSymbolTable
0
ENDTAB
0
TABLE
2
APPID
5
1bc
100
AcDbSymbolTable
0
APPID
5
12
100
AcDbSymbolTableRecord
100
AcDbRegAppTableRecord
2
ACAD
70
0
0
ENDTAB
0
TABLE
2
BLOCK_RECORD
5
1bd
100
AcDbSymbolTable
0
BLOCK_RECORD
5
1F
100
AcDbSymbolTableRecord
100
AcDbBlockTableRecord
2
*Model_Space
340
0
70
0
0
BLOCK_RECORD
5
1B
100
AcDbSymbolTableRecord
100
AcDbBlockTableRecord
2
*Paper_Space
340
0
70
0
0
BLOCK_RECORD
5
23
100
AcDbSymbolTableRecord
100
AcDbBlockTableRecord
2
*Paper_Space0
340
0
70
0
0
BLOCK_RECORD
5
F8
100
AcDbSymbolTableRecord
100
AcDbBlockTableRecord
2
DimnDraft3D1
340
0
70
0
0
BLOCK_RECORD
5
107
100
AcDbSymbolTableRecord
100
AcDbBlockTableRecord
2
_CLOSED
340
0
70
0
0
BLOCK_RECORD
5
10E
100
AcDbSymbolTableRecord
100
AcDbBlockTableRecord
2
DimnDraft3D2
340
0
70
0
0
BLOCK_RECORD
5
11D
100
AcDbSymbolTableRecord
100
AcDbBlockTableRecord
2
DimnDraft3D3
340
0
70
0
0
BLOCK_RECORD
5
12B
100
AcDbSymbolTableRecord
100
AcDbBlockTableRecord
2
DimnDraft3D4
340
0
70
0
0
BLOCK_RECORD
5
139
100
AcDbSymbolTableRecord
100
AcDbBlockTableRecord
2
DimnDraft3D5
340
0
70
0
0
ENDTAB
0
ENDSEC
0
SECTION
2
BLOCKS
0
BLOCK
5
20
100
AcDbEntity
8
0
100
AcDbBlockBegin
2
*Model_Space
70
0
10
0
20
0
30
0
3
*Model_Space
0
ENDBLK
5
21
100
AcDbEntity
8
0
100
AcDbBlockEnd
0
BLOCK
5
1C
100
AcDbEntity
8
0
100
AcDbBlockBegin
2
*Paper_Space
70
0
10
0
20
0
30
0
3
*Paper_Space
0
ENDBLK
5
1D
100
AcDbEntity
8
0
100
AcDbBlockEnd
0
BLOCK
5
24
100
AcDbEntity
8
0
100
AcDbBlockBegin
2
*Paper_Space0
70
0
10
0
20
0
30
0
3
*Paper_Space0
0
ENDBLK
5
25
100
AcDbEntity
8
0
100
AcDbBlockEnd
0
BLOCK
5
104
100
AcDbEntity
8
0
100
AcDbBlockBegin
2
DimnDraft3D1
70
0
10
0
20
0
30
0
3
DimnDraft3D1
0
MTEXT
5
F9
100
AcDbEntity
8
2
62
256
6
ByLayer
370
18
48
1
60
0
100
AcDbMText
10
49.271053
20
49.787958
30
0
210
0
220
0
230
1
1
\W0.6044;102
40
3
41
0
44
1.084337
50
0
71
7
72
5
7
iso_b_vert
0
LINE
5
FB
100
AcDbEntity
8
2
62
256
6
ByLayer
370
13
48
1
60
0
100
AcDbLine
10
0
20
17.2
30
0
11
0
21
52.037958
31
0
39
0
210
0
220
0
230
1
0
LINE
5
FC
100
AcDbEntity
8
2
62
256
6
ByLayer
370
13
48
1
60
0
100
AcDbLine
10
102
20
9.351702
30
0
11
102
21
52.037958
31
0
39
0
210
0
220
0
230
1
0
LINE
5
FD
100
AcDbEntity
8
2
62
256
6
ByLayer
370
13
48
1
60
0
100
AcDbLine
10
0
20
49.037958
30
0
11
102
21
49.037958
31
0
39
0
210
0
220
0
230
1
0
LINE
5
FE
100
AcDbEntity
8
2
62
256
6
ByLayer
370
13
48
1
60
0
100
AcDbLine
10
0
20
49.037958
30
0
11
2.999998
21
49.566939
31
0
39
0
210
0
220
0
230
1
0
LINE
5
FF
100
AcDbEntity
8
2
62
256
6
ByLayer
370
13
48
1
60
0
100
AcDbLine
10
0
20
49.037958
30
0
11
3.000002
21
48.508977
31
0
39
0
210
0
220
0
230
1
0
LINE
5
100
100
AcDbEntity
8
2
62
256
6
ByLayer
370
13
48
1
60
0
100
AcDbLine
10
2.999998
20
49.566939
30
0
11
3.000002
21
48.508977
31
0
39
0
210
0
220
0
230
1
0
LINE
5
101
100
AcDbEntity
8
2
62
256
6
ByLayer
370
13
48
1
60
0
100
AcDbLine
10
102
20
49.037958
30
0
11
99.000002
21
48.508977
31
0
39
0
210
0
220
0
230
1
0
LINE
5
102
100
AcDbEntity
8
2
62
256
6
ByLayer
370
13
48
1
60
0
100
AcDbLine
10
102
20
49.037958
30
0
11
98.999998
21
49.566939
31
0
39
0
210
0
220
0
230
1
0
LINE
5
103
100
AcDbEntity
8
2
62
256
6
ByLayer
370
13
48
1
60
0
100
AcDbLine
10
99.000002
20
48.508977
30
0
11
98.999998
21
49.566939
31
0
39
0
210
0
220
0
230
1
0
ENDBLK
5
105
100
AcDbEntity
8
0
100
AcDbBlockEnd
0
BLOCK
5
108
100
AcDbEntity
8
0
100
AcDbBlockBegin
2
_CLOSED
70
0
10
0
20
0
30
0
3
_CLOSED
0
LINE
5
10A
100
AcDbEntity
8
0
62
256
6
ByLayer
370
-2
48
1
60
0
100
AcDbLine
10
-1
20
0.166667
30
0
11
0
21
0
31
0
39
0
210
0
220
0
230
1
0
LINE
5
10B
100
AcDbEntity
8
0
62
256
6
ByLayer
370
-2
48
1
60
0
100
AcDbLine
10
0
20
0
30
0
11
-1
21
-0.166667
31
0
39
0
210
0
220
0
230
1
0
LINE
5
10C
100
AcDbEntity
8
0
62
256
6
ByLayer
370
-2
48
1
60
0
100
AcDbLine
10
-1
20
0.166667
30
0
11
-1
21
-0.166667
31
0
39
0
210
0
220
0
230
1
0
LINE
5
10D
100
AcDbEntity
8
0
62
256
6
ByLayer
370
-2
48
1
60
0
100
AcDbLine
10
0
20
0
30
0
11
-1
21
0
31
0
39
0
210
0
220
0
230
1
0
ENDBLK
5
109
100
AcDbEntity
8
0
100
AcDbBlockEnd
0
BLOCK
5
11A
100
AcDbEntity
8
0
100
AcDbBlockBegin
2
DimnDraft3D2
70
0
10
0
20
0
30
0
3
DimnDraft3D2
0
MTEXT
5
10F
100
AcDbEntity
8
SK2
62
256
6
ByLayer
370
18
48
1
60
0
100
AcDbMText
10
-27.866622
20
-3.323684
30
0
210
0
220
0
230
1
1
\W0.7884;%%c 32
40
3
41
0
44
1.084337
50
90
71
7
72
5
7
iso_b_vert
0
LINE
5
111
100
AcDbEntity
8
SK2
62
256
6
ByLayer
370
13
48
1
60
0
100
AcDbLine
10
-1.2
20
-16
30
0
11
-30.116622
21
-16
31
0
39
0
210
0
220
0
230
1
0
LINE
5
112
100
AcDbEntity
8
SK2
62
256
6
ByLayer
370
13
48
1
60
0
100
AcDbLine
10
-1.2
20
16
30
0
11
-30.116622
21
16
31
0
39
0
210
0
220
0
230
1
0
LINE
5
113
100
AcDbEntity
8
SK2
62
256
6
ByLayer
370
13
48
1
60
0
100
AcDbLine
10
-27.116622
20
-16
30
0
11
-27.116622
21
16
31
0
39
0
210
0
220
0
230
1
0
LINE
5
114
100
AcDbEntity
8
SK2
62
256
6
ByLayer
370
13
48
1
60
0
100
AcDbLine
10
-27.116622
20
-16
30
0
11
-27.645603
21
-13.000002
31
0
39
0
210
0
220
0
230
1
0
LINE
5
115
100
AcDbEntity
8
SK2
62
256
6
ByLayer
370
13
48
1
60
0
100
AcDbLine
10
-27.116622
20
-16
30
0
11
-26.587641
21
-12.999998
31
0
39
0
210
0
220
0
230
1
0
LINE
5
116
100
AcDbEntity
8
SK2
62
256
6
ByLayer
370
13
48
1
60
0
100
AcDbLine
10
-27.645603
20
-13.000002
30
0
11
-26.587641
21
-12.999998
31
0
39
0
210
0
220
0
230
1
0
LINE
5
117
100
AcDbEntity
8
SK2
62
256
6
ByLayer
370
13
48
1
60
0
100
AcDbLine
10
-27.116622
20
16
30
0
11
-26.587641
21
13.000002
31
0
39
0
210
0
220
0
230
1
0
LINE
5
118
100
AcDbEntity
8
SK2
62
256
6
ByLayer
370
13
48
1
60
0
100
AcDbLine
10
-27.116622
20
16
30
0
11
-27.645603
21
12.999998
31
0
39
0
210
0
220
0
230
1
0
LINE
5
119
100
AcDbEntity
8
SK2
62
256
6
ByLayer
370
13
48
1
60
0
100
AcDbLine
10
-26.587641
20
13.000002
30
0
11
-27.645603
21
12.999998
31
0
39
0
210
0
220
0
230
1
0
ENDBLK
5
11B
100
AcDbEntity
8
0
100
AcDbBlockEnd
0
BLOCK
5
128
100
AcDbEntity
8
0
100
AcDbBlockBegin
2
DimnDraft3D3
70
0
10
0
20
0
30
0
3
DimnDraft3D3
0
MTEXT
5
11E
100
AcDbEntity
8
SK2
62
256
6
ByLayer
370
18
48
1
60
0
100
AcDbMText
10
6.711599
20
28.457549
30
0
210
0
220
0
230
1
1
\W0.5144;15
40
3
41
0
44
1.084337
50
0
71
7
72
5
7
iso_b_vert
0
LINE
5
11F
100
AcDbEntity
8
SK2
62
256
6
ByLayer
370
13
48
1
60
0
100
AcDbLine
10
0
20
17.2
30
0
11
0
21
30.707549
31
0
39
0
210
0
220
0
230
1
0
LINE
5
120
100
AcDbEntity
8
SK2
62
256
6
ByLayer
370
13
48
1
60
0
100
AcDbLine
10
14.678461
20
17.5
30
0
11
14.678461
21
30.707549
31
0
39
0
210
0
220
0
230
1
0
LINE
5
121
100
AcDbEntity
8
SK2
62
256
6
ByLayer
370
13
48
1
60
0
100
AcDbLine
10
0
20
27.707549
30
0
11
14.678461
21
27.707549
31
0
39
0
210
0
220
0
230
1
0
LINE
5
122
100
AcDbEntity
8
SK2
62
256
6
ByLayer
370
13
48
1
60
0
100
AcDbLine
10
0
20
27.707549
30
0
11
2.999998
21
28.23653
31
0
39
0
210
0
220
0
230
1
0
LINE
5
123
100
AcDbEntity
8
SK2
62
256
6
ByLayer
370
13
48
1
60
0
100
AcDbLine
10
0
20
27.707549
30
0
11
3.000002
21
27.178568
31
0
39
0
210
0
220
0
230
1
0
LINE
5
124
100
AcDbEntity
8
SK2
62
256
6
ByLayer
370
13
48
1
60
0
100
AcDbLine
10
2.999998
20
28.23653
30
0
11
3.000002
21
27.178568
31
0
39
0
210
0
220
0
230
1
0
LINE
5
125
100
AcDbEntity
8
SK2
62
256
6
ByLayer
370
13
48
1
60
0
100
AcDbLine
10
14.678461
20
27.707549
30
0
11
11.678463
21
27.178568
31
0
39
0
210
0
220
0
230
1
0
LINE
5
126
100
AcDbEntity
8
SK2
62
256
6
ByLayer
370
13
48
1
60
0
100
AcDbLine
10
14.678461
20
27.707549
30
0
11
11.678459
21
28.23653
31
0
39
0
210
0
220
0
230
1
0
LINE
5
127
100
AcDbEntity
8
SK2
62
256
6
ByLayer
370
13
48
1
60
0
100
AcDbLine
10
11.678463
20
27.178568
30
0
11
11.678459
21
28.23653
31
0
39
0
210
0
220
0
230
1
0
ENDBLK
5
129
100
AcDbEntity
8
0
100
AcDbBlockEnd
0
BLOCK
5
136
100
AcDbEntity
8
0
100
AcDbBlockBegin
2
DimnDraft3D4
70
0
10
0
20
0
30
0
3
DimnDraft3D4
0
MTEXT
5
12C
100
AcDbEntity
8
SK2
62
256
6
ByLayer
370
18
48
1
60
0
100
AcDbMText
10
131.496442
20
-3.285704
30
0
210
0
220
0
230
1
1
\W0.7884;%%c 50
40
3
41
0
44
1.084337
50
90
71
7
72
5
7
iso_b_vert
0
LINE
5
12D
100
AcDbEntity
8
SK2
62
256
6
ByLayer
370
13
48
1
60
0
100
AcDbLine
10
81.486606
20
-24.924039
30
0
11
135.246442
21
-24.924039
31
0
39
0
210
0
220
0
230
1
0
LINE
5
12E
100
AcDbEntity
8
SK2
62
256
6
ByLayer
370
13
48
1
60
0
100
AcDbLine
10
80.618365
20
25
30
0
11
135.246442
21
25
31
0
39
0
210
0
220
0
230
1
0
LINE
5
12F
100
AcDbEntity
8
SK2
62
256
6
ByLayer
370
13
48
1
60
0
100
AcDbLine
10
132.246442
20
-24.924039
30
0
11
132.246442
21
25
31
0
39
0
210
0
220
0
230
1
0
LINE
5
130
100
AcDbEntity
8
SK2
62
256
6
ByLayer
370
13
48
1
60
0
100
AcDbLine
10
132.246442
20
-24.924039
30
0
11
131.717461
21
-21.924041
31
0
39
0
210
0
220
0
230
1
0
LINE
5
131
100
AcDbEntity
8
SK2
62
256
6
ByLayer
370
13
48
1
60
0
100
AcDbLine
10
132.246442
20
-24.924039
30
0
11
132.775422
21
-21.924037
31
0
39
0
210
0
220
0
230
1
0
LINE
5
132
100
AcDbEntity
8
SK2
62
256
6
ByLayer
370
13
48
1
60
0
100
AcDbLine
10
131.717461
20
-21.924041
30
0
11
132.775422
21
-21.924037
31
0
39
0
210
0
220
0
230
1
0
LINE
5
133
100
AcDbEntity
8
SK2
62
256
6
ByLayer
370
13
48
1
60
0
100
AcDbLine
10
132.246442
20
25
30
0
11
132.775422
21
22.000002
31
0
39
0
210
0
220
0
230
1
0
LINE
5
134
100
AcDbEntity
8
SK2
62
256
6
ByLayer
370
13
48
1
60
0
100
AcDbLine
10
132.246442
20
25
30
0
11
131.717461
21
21.999998
31
0
39
0
210
0
220
0
230
1
0
LINE
5
135
100
AcDbEntity
8
SK2
62
256
6
ByLayer
370
13
48
1
60
0
100
AcDbLine
10
132.775422
20
22.000002
30
0
11
131.717461
21
21.999998
31
0
39
0
210
0
220
0
230
1
0
ENDBLK
5
137
100
AcDbEntity
8
0
100
AcDbBlockEnd
0
BLOCK
5
144
100
AcDbEntity
8
0
100
AcDbBlockBegin
2
DimnDraft3D5
70
0
10
0
20
0
30
0
3
DimnDraft3D5
0
MTEXT
5
13A
100
AcDbEntity
8
SK2
62
256
6
ByLayer
370
18
48
1
60
0
100
AcDbMText
10
46.997368
20
37.410778
30
0
210
0
220
0
230
1
1
\W0.6563;96
40
3
41
0
44
1.084337
50
0
71
7
72
5
7
iso_b_vert
0
LINE
5
13B
100
AcDbEntity
8
SK2
62
256
6
ByLayer
370
13
48
1
60
0
100
AcDbLine
10
0
20
17.2
30
0
11
0
21
39.660778
31
0
39
0
210
0
220
0
230
1
0
LINE
5
13C
100
AcDbEntity
8
SK2
62
256
6
ByLayer
370
13
48
1
60
0
100
AcDbLine
10
96
20
19.976269
30
0
11
96
21
39.660778
31
0
39
0
210
0
220
0
230
1
0
LINE
5
13D
100
AcDbEntity
8
SK2
62
256
6
ByLayer
370
13
48
1
60
0
100
AcDbLine
10
0
20
36.660778
30
0
11
96
21
36.660778
31
0
39
0
210
0
220
0
230
1
0
LINE
5
13E
100
AcDbEntity
8
SK2
62
256
6
ByLayer
370
13
48
1
60
0
100
AcDbLine
10
0
20
36.660778
30
0
11
2.999998
21
37.189759
31
0
39
0
210
0
220
0
230
1
0
LINE
5
13F
100
AcDbEntity
8
SK2
62
256
6
ByLayer
370
13
48
1
60
0
100
AcDbLine
10
0
20
36.660778
30
0
11
3.000002
21
36.131797
31
0
39
0
210
0
220
0
230
1
0
LINE
5
140
100
AcDbEntity
8
SK2
62
256
6
ByLayer
370
13
48
1
60
0
100
AcDbLine
10
2.999998
20
37.189759
30
0
11
3.000002
21
36.131797
31
0
39
0
210
0
220
0
230
1
0
LINE
5
141
100
AcDbEntity
8
SK2
62
256
6
ByLayer
370
13
48
1
60
0
100
AcDbLine
10
96
20
36.660778
30
0
11
93.000002
21
36.131797
31
0
39
0
210
0
220
0
230
1
0
LINE
5
142
100
AcDbEntity
8
SK2
62
256
6
ByLayer
370
13
48
1
60
0
100
AcDbLine
10
96
20
36.660778
30
0
11
92.999998
21
37.189759
31
0
39
0
210
0
220
0
230
1
0
LINE
5
143
100
AcDbEntity
8
SK2
62
256
6
ByLayer
370
13
48
1
60
0
100
AcDbLine
10
93.000002
20
36.131797
30
0
11
92.999998
21
37.189759
31
0
39
0
210
0
220
0
230
1
0
ENDBLK
5
145
100
AcDbEntity
8
0
100
AcDbBlockEnd
0
ENDSEC
0
SECTION
2
ENTITIES
0
ARC
5
E5
100
AcDbEntity
8
1
62
256
6
ByLayer
370
18
48
1
60
0
100
AcDbCircle
39
0
10
14.678461
20
17.2
30
0
40
1.2
210
0
220
0
230
1
100
AcDbArc
50
270
51
300
0
ARC
5
E6
100
AcDbEntity
8
1
62
256
6
ByLayer
370
18
48
1
60
0
100
AcDbCircle
39
0
10
79.118365
20
-20
30
0
40
5
210
0
220
0
230
1
100
AcDbArc
50
270
51
290
0
ARC
5
E7
100
AcDbEntity
8
1
62
256
6
ByLayer
370
18
48
1
60
0
100
AcDbCircle
39
0
10
95
20
18.476269
30
0
40
1
210
0
220
0
230
1
100
AcDbArc
50
0
51
70
0
ARC
5
E8
100
AcDbEntity
8
1
62
256
6
ByLayer
370
18
48
1
60
0
100
AcDbCircle
39
0
10
95
20
-18.476269
30
0
40
1
210
0
220
0
230
1
100
AcDbArc
50
290
51
0
0
ARC
5
E9
100
AcDbEntity
8
1
62
256
6
ByLayer
370
18
48
1
60
0
100
AcDbCircle
39
0
10
14.678461
20
17.2
30
0
40
1.2
210
0
220
0
230
1
100
AcDbArc
50
270
51
300
0
ARC
5
EA
100
AcDbEntity
8
1
62
256
6
ByLayer
370
18
48
1
60
0
100
AcDbCircle
39
0
10
14.678461
20
-17.2
30
0
40
1.2
210
0
220
0
230
1
100
AcDbArc
50
60
51
90
0
ARC
5
EB
100
AcDbEntity
8
1
62
256
6
ByLayer
370
18
48
1
60
0
100
AcDbCircle
39
0
10
18.414253
20
24
30
0
40
1
210
0
220
0
230
1
100
AcDbArc
50
90
51
165
0
ARC
5
EC
100
AcDbEntity
8
1
62
256
6
ByLayer
370
18
48
1
60
0
100
AcDbCircle
39
0
10
18.414253
20
-24
30
0
40
1
210
0
220
0
230
1
100
AcDbArc
50
195
51
270
0
ARC
5
ED
100
AcDbEntity
8
1
62
256
6
ByLayer
370
18
48
1
60
0
100
AcDbCircle
39
0
10
-79.118365
20
20
30
0
40
5
210
0
220
0
230
-1
100
AcDbArc
50
90
51
110
0
POINT
5
6C
100
AcDbEntity
8
81
62
256
6
ByLayer
370
18
48
1
60
0
100
AcDbPoint
10
96
20
0
30
0
39
0
210
0
220
0
230
1
50
360
0
POINT
5
6E
100
AcDbEntity
8
80
62
256
6
ByLayer
370
18
48
1
60
0
100
AcDbPoint
10
0
20
0
30
0
39
0
210
0
220
0
230
1
50
360
0
SPLINE
5
EE
100
AcDbEntity
8
SK1
62
256
6
ByLayer
370
18
48
1
60
0
100
AcDbSpline
70
4
71
3
72
19
73
15
40
0
40
0
40
0
40
0
40
0.0701254132640724
40
0.142944364476631
40
0.205724492114359
40
0.273969418427289
40
0.367793728081462
40
0.464779133597562
40
0.571900568072682
40
0.678163255204531
40
0.763453148813921
40
0.865019326337912
40
0.914316404631947
40
1
40
1
40
1
40
1
41
1
10
-1.6
20
11.0229464505193
30
0
41
1
10
-1.58710110534078
20
10.9806344363072
30
0
41
1
10
-1.54786462202564
20
10.9099615894677
30
0
41
1
10
-1.4515626988905
20
10.8117707385478
30
0
41
1
10
-1.3238857864911
20
10.8352467901134
30
0
41
1
10
-1.19180327873942
20
10.8277292858294
30
0
41
1
10
-1.03681074039622
20
10.8331573502437
30
0
41
1
10
-0.859590654355846
20
10.837658971281
30
0
41
1
10
-0.675014029347707
20
10.848385862984
30
0
41
1
10
-0.496648645876501
20
10.8495879461147
30
0
41
1
10
-0.323509359127435
20
10.8565870142736
30
0
41
1
10
-0.177710653792584
20
10.8297379543021
30
0
41
1
10
-0.0494946383695681
20
10.9060652239528
30
0
41
1
10
-0.0154797621922851
20
10.9766544319726
30
0
41
1
10
-0.0064237485896408
20
11.035123578874
30
0
0
SPLINE
5
EF
100
AcDbEntity
8
SK1
62
256
6
ByLayer
370
18
48
1
60
0
100
AcDbSpline
70
4
71
3
72
19
73
15
40
0
40
0
40
0
40
0
40
0.0701254132640724
40
0.142944364476631
40
0.205724492114359
40
0.273969418427289
40
0.367793728081462
40
0.464779133597562
40
0.571900568072682
40
0.678163255204531
40
0.763453148813921
40
0.865019326337912
40
0.914316404631947
40
1
40
1
40
1
40
1
41
1
10
-1.6
20
-11.0229464505193
30
0
41
1
10
-1.58710110534078
20
-10.9806344363072
30
0
41
1
10
-1.54786462202564
20
-10.9099615894677
30
0
41
1
10
-1.4515626988905
20
-10.8117707385478
30
0
41
1
10
-1.3238857864911
20
-10.8352467901134
30
0
41
1
10
-1.19180327873942
20
-10.8277292858294
30
0
41
1
10
-1.03681074039622
20
-10.8331573502437
30
0
41
1
10
-0.859590654355846
20
-10.837658971281
30
0
41
1
10
-0.675014029347707
20
-10.848385862984
30
0
41
1
10
-0.496648645876501
20
-10.8495879461147
30
0
41
1
10
-0.323509359127435
20
-10.8565870142736
30
0
41
1
10
-0.177710653792584
20
-10.8297379543022
30
0
41
1
10
-0.0494946383695681
20
-10.9060652239528
30
0
41
1
10
-0.0154797621922851
20
-10.9766544319726
30
0
41
1
10
-0.0064237485896408
20
-11.035123578874
30
0
0
SPLINE
5
F0
100
AcDbEntity
8
1
62
256
6
ByLayer
370
18
48
1
60
0
100
AcDbSpline
70
4
71
3
72
12
73
8
40
0
40
0
40
0
40
0
40
0.0187968678060145
40
0.0187968678060145
40
0.509398433886129
40
0.509398433886129
40
1
40
1
40
1
40
1
41
1
10
4.75000000000001
20
-15.2769622091388
30
0
41
1
10
4.72484944961467
20
-15.2491177836659
30
0
41
1
10
4.70009009780112
20
-15.220455085712
30
0
41
1
10
4.03996166147519
20
-14.421577231569
30
0
41
1
10
3.67765675189687
20
-13.0165315444996
30
0
41
1
10
3.70430892492382
20
-9.40365256422504
30
0
41
1
10
4.09356619757002
20
-7.09013500118898
30
0
41
1
10
4.75000000000004
20
-4.75546271781754
30
0
0
SPLINE
5
F1
100
AcDbEntity
8
1
62
256
6
ByLayer
370
18
48
1
60
0
100
AcDbSpline
70
4
71
3
72
12
73
8
40
0
40
0
40
0
40
0
40
0.490601566113871
40
0.490601566113871
40
0.981203132193985
40
0.981203132193985
40
1
40
1
40
1
40
1
41
1
10
4.75000000000001
20
15.2769622091385
30
0
41
1
10
4.09356619757
20
14.5502177916356
30
0
41
1
10
3.70430892492381
20
13.1901819252502
30
0
41
1
10
3.67765675189688
20
9.64258716942798
30
0
41
1
10
4.03996166147521
20
7.3500793225723
30
0
41
1
10
4.70009009780115
20
4.93422363472945
30
0
41
1
10
4.7248494496147
20
4.84491315848436
30
0
41
1
10
4.75000000000004
20
4.75546271781717
30
0
0
SPLINE
5
F2
100
AcDbEntity
8
1
62
256
6
ByLayer
370
18
48
1
60
0
100
AcDbSpline
70
4
71
3
72
12
73
8
40
0
40
0
40
0
40
0
40
0.475866797437965
40
0.475866797437965
40
0.951733594394614
40
0.951733594394614
40
1
40
1
40
1
40
1
41
1
10
7.25000000000004
20
-4.75546271781751
30
0
41
1
10
7.88734796563714
20
-7.0222543192368
30
0
41
1
10
8.27362154092839
20
-9.26731303107075
30
0
41
1
10
8.34011021802588
20
-12.8238079694709
30
0
41
1
10
8.02111136992793
20
-14.233964353891
30
0
41
1
10
7.37671662979987
20
-15.1284010503999
30
0
41
1
10
7.31464518135631
20
-15.205392883445
30
0
41
1
10
7.25000000000001
20
-15.2769622092362
30
0
0
SPLINE
5
F3
100
AcDbEntity
8
1
62
256
6
ByLayer
370
18
48
1
60
0
100
AcDbSpline
70
4
71
3
72
12
73
8
40
0
40
0
40
0
40
0
40
0.475866797437965
40
0.475866797437965
40
0.951733594394614
40
0.951733594394614
40
1
40
1
40
1
40
1
41
1
10
7.25000000000001
20
15.2769622091386
30
0
41
1
10
7.88734796563712
20
14.5713479121311
30
0
41
1
10
8.27362154092838
20
13.2724623608812
30
0
41
1
10
8.34011021802589
20
9.87883075504266
30
0
41
1
10
8.02111136992795
20
7.68728996421048
30
0
41
1
10
7.37671662979989
20
5.2144149614545
30
0
41
1
10
7.31464518135634
20
4.98537975210514
30
0
41
1
10
7.25000000000004
20
4.75546271766133
30
0
0
LINE
5
70
100
AcDbEntity
8
1
62
256
6
ByLayer
370
18
48
1
60
0
100
AcDbLine
10
0
20
-15.7
30
0
11
0
21
15.7
31
0
39
0
210
0
220
0
230
1
0
LINE
5
72
100
AcDbEntity
8
SK1
62
256
6
ByLayer
370
18
48
1
60
0
100
AcDbLine
10
-19
20
-10.027461
30
0
11
-19
21
10.027461
31
0
39
0
210
0
220
0
230
1
0
LINE
5
74
100
AcDbEntity
8
SK1
62
256
6
ByLayer
370
18
48
1
60
0
100
AcDbLine
10
-1.6
20
-11.022946
30
0
11
-1.6
21
11.022946
31
0
39
0
210
0
220
0
230
1
0
LINE
5
75
100
AcDbEntity
8
1
62
256
6
ByLayer
370
18
48
1
60
0
100
AcDbLine
10
0
20
15.7
30
0
11
0.3
21
16
31
0
39
0
210
0
220
0
230
1
0
LINE
5
76
100
AcDbEntity
8
1
62
256
6
ByLayer
370
18
48
1
60
0
100
AcDbLine
10
0
20
-15.7
30
0
11
0.3
21
-16
31
0
39
0
210
0
220
0
230
1
0
LINE
5
77
100
AcDbEntity
8
SK1
62
256
6
ByLayer
370
18
48
1
60
0
100
AcDbLine
10
-1.6
20
11.022946
30
0
11
-18
21
10.604811
31
0
39
0
210
0
220
0
230
1
0
LINE
5
78
100
AcDbEntity
8
SK1
62
256
6
ByLayer
370
18
48
1
60
0
100
AcDbLine
10
-1.6
20
-11.022946
30
0
11
-18
21
-10.604811
31
0
39
0
210
0
220
0
230
1
0
LINE
5
79
100
AcDbEntity
8
SK1
62
256
6
ByLayer
370
18
48
1
60
0
100
AcDbLine
10
-18
20
-10.604811
30
0
11
-18
21
10.604811
31
0
39
0
210
0
220
0
230
1
0
LINE
5
7A
100
AcDbEntity
8
SK1
62
256
6
ByLayer
370
18
48
1
60
0
100
AcDbLine
10
-19
20
10.027461
30
0
11
-18
21
10.604811
31
0
39
0
210
0
220
0
230
1
0
LINE
5
7B
100
AcDbEntity
8
SK1
62
256
6
ByLayer
370
18
48
1
60
0
100
AcDbLine
10
-19
20
-10.027461
30
0
11
-18
21
-10.604811
31
0
39
0
210
0
220
0
230
1
0
LINE
5
7C
100
AcDbEntity
8
1
62
256
6
ByLayer
370
18
48
1
60
0
100
AcDbLine
10
14.678461
20
-16
30
0
11
0.3
21
-16
31
0
39
0
210
0
220
0
230
1
0
LINE
5
7D
100
AcDbEntity
8
1
62
256
6
ByLayer
370
18
48
1
60
0
100
AcDbLine
10
14.678461
20
16
30
0
11
0.3
21
16
31
0
39
0
210
0
220
0
230
1
0
LINE
5
7E
100
AcDbEntity
8
80
62
256
6
ByLayer
370
13
48
0.05
60
0
100
AcDbLine
10
0
20
0
30
0
11
-3.563404
21
0
31
0
39
0
210
0
220
0
230
1
0
LINE
5
7F
100
AcDbEntity
8
4
62
256
6
ByLayer
370
13
48
0.05
60
0
100
AcDbLine
10
0
20
0
30
0
11
35
21
0
31
0
39
0
210
0
220
0
230
1
0
LINE
5
81
100
AcDbEntity
8
SK4
62
256
6
ByLayer
370
13
48
0.05
60
0
100
AcDbLine
10
36.45331
20
0
30
0
11
-21
21
0
31
0
39
0
210
0
220
0
230
1
0
LINE
5
83
100
AcDbEntity
8
1
62
256
6
ByLayer
370
18
48
1
60
0
100
AcDbLine
10
4.75
20
-15.276962
30
0
11
7.25
21
-15.276962
31
0
39
0
210
0
220
0
230
1
0
LINE
5
84
100
AcDbEntity
8
1
62
256
6
ByLayer
370
18
48
1
60
0
100
AcDbLine
10
4.75
20
-4.755463
30
0
11
4.75
21
-15.276962
31
0
39
0
210
0
220
0
230
1
0
LINE
5
85
100
AcDbEntity
8
1
62
256
6
ByLayer
370
18
48
1
60
0
100
AcDbLine
10
4.75
20
4.755463
30
0
11
4.75
21
15.276962
31
0
39
0
210
0
220
0
230
1
0
LINE
5
86
100
AcDbEntity
8
1
62
256
6
ByLayer
370
18
48
1
60
0
100
AcDbLine
10
4.75
20
4.755463
30
0
11
7.25
21
4.755463
31
0
39
0
210
0
220
0
230
1
0
LINE
5
87
100
AcDbEntity
8
1
62
256
6
ByLayer
370
18
48
1
60
0
100
AcDbLine
10
7.25
20
-4.755463
30
0
11
4.75
21
-4.755463
31
0
39
0
210
0
220
0
230
1
0
LINE
5
88
100
AcDbEntity
8
1
62
256
6
ByLayer
370
18
48
1
60
0
100
AcDbLine
10
7.25
20
-15.276962
30
0
11
7.25
21
-4.755463
31
0
39
0
210
0
220
0
230
1
0
LINE
5
89
100
AcDbEntity
8
1
62
256
6
ByLayer
370
18
48
1
60
0
100
AcDbLine
10
7.25
20
15.276962
30
0
11
4.75
21
15.276962
31
0
39
0
210
0
220
0
230
1
0
LINE
5
8A
100
AcDbEntity
8
1
62
256
6
ByLayer
370
18
48
1
60
0
100
AcDbLine
10
7.25
20
4.755463
30
0
11
7.25
21
15.276962
31
0
39
0
210
0
220
0
230
1
0
LINE
5
8B
100
AcDbEntity
8
81
62
256
6
ByLayer
370
13
48
0.05
60
0
100
AcDbLine
10
96
20
0
30
0
11
97.702963
21
0
31
0
39
0
210
0
220
0
230
1
0
LINE
5
8C
100
AcDbEntity
8
1
62
256
6
ByLayer
370
18
48
1
60
0
100
AcDbLine
10
95.34202
20
19.415961
30
0
11
80.828466
21
24.698463
31
0
39
0
210
0
220
0
230
1
0
LINE
5
8D
100
AcDbEntity
8
SK1
62
256
6
ByLayer
370
18
48
0.05
60
1
100
AcDbLine
10
16.161166
20
-19.455071
30
0
11
15.278461
21
-16.16077
31
0
39
0
210
0
220
0
230
1
0
LINE
5
8E
100
AcDbEntity
8
1
62
256
6
ByLayer
370
18
48
1
60
0
100
AcDbLine
10
95.34202
20
-19.415961
30
0
11
80.828466
21
-24.698463
31
0
39
0
210
0
220
0
230
1
0
LINE
5
8F
100
AcDbEntity
8
SK1
62
256
6
ByLayer
370
18
48
0.05
60
1
100
AcDbLine
10
99
20
-8.925851
30
0
11
96
21
-10
31
0
39
0
210
0
220
0
230
1
0
LINE
5
90
100
AcDbEntity
8
SK4
62
256
6
ByLayer
370
13
48
0.05
60
1
100
AcDbLine
10
77.092971
20
0
30
0
11
-21
21
0
31
0
39
0
210
0
220
0
230
1
0
LINE
5
91
100
AcDbEntity
8
SK1
62
256
6
ByLayer
370
18
48
0.05
60
1
100
AcDbLine
10
96
20
-11.476269
30
0
11
96
21
11.476269
31
0
39
0
210
0
220
0
230
1
0
LINE
5
92
100
AcDbEntity
8
SK1
62
256
6
ByLayer
370
18
48
0.05
60
1
100
AcDbLine
10
102
20
-4.925851
30
0
11
102
21
4.925851
31
0
39
0
210
0
220
0
230
1
0
LINE
5
93
100
AcDbEntity
8
1
62
256
6
ByLayer
370
13
48
1
60
0
100
AcDbLine
10
15
20
-15.7
30
0
11
15
21
15.7
31
0
39
0
210
0
220
0
230
1
0
LINE
5
94
100
AcDbEntity
8
SK1
62
256
6
ByLayer
370
18
48
0.05
60
1
100
AcDbLine
10
17.96904
20
17.216651
30
0
11
17.521886
21
-16.748917
31
0
39
0
210
0
220
0
230
1
0
LINE
5
95
100
AcDbEntity
8
SK1
62
256
6
ByLayer
370
18
48
0.05
60
1
100
AcDbLine
10
23.8
20
25
30
0
11
56.218365
21
25
31
0
39
0
210
0
220
0
230
1
0
LINE
5
96
100
AcDbEntity
8
1
62
256
6
ByLayer
370
18
48
1
60
0
100
AcDbLine
10
25.8
20
-25
30
0
11
25.600537
21
-24.800537
31
0
39
0
210
0
220
0
230
1
0
LINE
5
97
100
AcDbEntity
8
SK1
62
256
6
ByLayer
370
18
48
0.05
60
1
100
AcDbLine
10
23.7
20
-25
30
0
11
56.118365
21
-25
31
0
39
0
210
0
220
0
230
1
0
LINE
5
98
100
AcDbEntity
8
SK1
62
256
6
ByLayer
370
18
48
0.05
60
1
100
AcDbLine
10
99
20
8.925851
30
0
11
96
21
10
31
0
39
0
210
0
220
0
230
1
0
LINE
5
99
100
AcDbEntity
8
SK1
62
256
6
ByLayer
370
18
48
0.05
60
1
100
AcDbLine
10
23.6
20
-8.7
30
0
11
23.6
21
22.7
31
0
39
0
210
0
220
0
230
1
0
LINE
5
9A
100
AcDbEntity
8
SK1
62
256
6
ByLayer
370
18
48
0.05
60
1
100
AcDbLine
10
13.849742
20
-25.542563
30
0
11
17.805702
21
-27.826537
31
0
39
0
210
0
220
0
230
1
0
LINE
5
9B
100
AcDbEntity
8
1
62
256
6
ByLayer
370
18
48
1
60
0
100
AcDbLine
10
25.4
20
25
30
0
11
25.600537
21
24.800537
31
0
39
0
210
0
220
0
230
1
0
LINE
5
9C
100
AcDbEntity
8
1
62
256
6
ByLayer
370
18
48
1
60
0
100
AcDbLine
10
23.8
20
25
30
0
11
23.600537
21
24.800537
31
0
39
0
210
0
220
0
230
1
0
LINE
5
9D
100
AcDbEntity
8
SK1
62
256
6
ByLayer
370
18
48
0.05
60
1
100
AcDbLine
10
13.849742
20
25.542563
30
0
11
17.805702
21
27.826537
31
0
39
0
210
0
220
0
230
1
0
LINE
5
9E
100
AcDbEntity
8
SK1
62
256
6
ByLayer
370
18
48
0.05
60
1
100
AcDbLine
10
53
20
-30.7
30
0
11
53
21
0.7
31
0
39
0
210
0
220
0
230
1
0
LINE
5
9F
100
AcDbEntity
8
4
62
256
6
ByLayer
370
13
48
0.05
60
0
100
AcDbLine
10
102
20
0
30
0
11
0
21
0
31
0
39
0
210
0
220
0
230
1
0
LINE
5
A0
100
AcDbEntity
8
SK1
62
256
6
ByLayer
370
18
48
0.05
60
1
100
AcDbLine
10
16.161166
20
19.455071
30
0
11
15.278461
21
16.16077
31
0
39
0
210
0
220
0
230
1
0
LINE
5
A1
100
AcDbEntity
8
1
62
256
6
ByLayer
370
18
48
1
60
0
100
AcDbLine
10
102
20
-7.851702
30
0
11
96
21
-10
31
0
39
0
210
0
220
0
230
1
0
LINE
5
A2
100
AcDbEntity
8
SK1
62
256
6
ByLayer
370
18
48
0.05
60
1
100
AcDbLine
10
102
20
-7.851702
30
0
11
102
21
4.925851
31
0
39
0
210
0
220
0
230
1
0
LINE
5
A3
100
AcDbEntity
8
1
62
256
6
ByLayer
370
18
48
1
60
0
100
AcDbLine
10
102
20
7.851702
30
0
11
96
21
10
31
0
39
0
210
0
220
0
230
1
0
LINE
5
A4
100
AcDbEntity
8
1
62
256
6
ByLayer
370
18
48
1
60
0
100
AcDbLine
10
102
20
7.851702
30
0
11
102
21
-7.851702
31
0
39
0
210
0
220
0
230
1
0
LINE
5
A5
100
AcDbEntity
8
SK1
62
256
6
ByLayer
370
18
48
0.05
60
1
100
AcDbLine
10
96
20
18.476269
30
0
11
96
21
-11.476269
31
0
39
0
210
0
220
0
230
1
0
LINE
5
A6
100
AcDbEntity
8
1
62
256
6
ByLayer
370
18
48
1
60
0
100
AcDbLine
10
96
20
-18.476269
30
0
11
96
21
18.476269
31
0
39
0
210
0
220
0
230
1
0
LINE
5
A7
100
AcDbEntity
8
SK1
62
256
6
ByLayer
370
18
48
0.05
60
1
100
AcDbLine
10
18.513844
20
28.235383
30
0
11
15.278461
21
16.16077
31
0
39
0
210
0
220
0
230
1
0
LINE
5
A8
100
AcDbEntity
8
SK1
62
256
6
ByLayer
370
18
48
0.05
60
1
100
AcDbLine
10
49.118365
20
25
30
0
11
-2.8
21
25
31
0
39
0
210
0
220
0
230
1
0
LINE
5
A9
100
AcDbEntity
8
SK1
62
256
6
ByLayer
370
18
48
0.05
60
1
100
AcDbLine
10
26.8
20
25
30
0
11
18.414253
21
25
31
0
39
0
210
0
220
0
230
1
0
LINE
5
AA
100
AcDbEntity
8
1
62
256
6
ByLayer
370
18
48
1
60
0
100
AcDbLine
10
17.448327
20
24.258819
30
0
11
15.278461
21
16.16077
31
0
39
0
210
0
220
0
230
1
0
LINE
5
AB
100
AcDbEntity
8
SK1
62
256
6
ByLayer
370
18
48
0.05
60
1
100
AcDbLine
10
20.836791
20
-29.576537
30
0
11
13.849742
21
-25.542563
31
0
39
0
210
0
220
0
230
1
0
LINE
5
AC
100
AcDbEntity
8
SK1
62
256
6
ByLayer
370
18
48
0.05
60
1
100
AcDbLine
10
15.278461
20
-16.16077
30
0
11
18.513844
21
-28.235383
31
0
39
0
210
0
220
0
230
1
0
LINE
5
AD
100
AcDbEntity
8
1
62
256
6
ByLayer
370
18
48
1
60
0
100
AcDbLine
10
17.448327
20
-24.258819
30
0
11
15.278461
21
-16.16077
31
0
39
0
210
0
220
0
230
1
0
LINE
5
AE
100
AcDbEntity
8
SK1
62
256
6
ByLayer
370
18
48
0.05
60
1
100
AcDbLine
10
26.8
20
-25
30
0
11
18.414253
21
-25
31
0
39
0
210
0
220
0
230
1
0
LINE
5
AF
100
AcDbEntity
8
1
62
256
6
ByLayer
370
18
48
1
60
0
100
AcDbLine
10
25.4
20
-25
30
0
11
25.600537
21
-24.800537
31
0
39
0
210
0
220
0
230
1
0
LINE
5
B0
100
AcDbEntity
8
SK1
62
256
6
ByLayer
370
18
48
0.05
60
1
100
AcDbLine
10
17.646926
20
-25
30
0
11
15.278461
21
-16.16077
31
0
39
0
210
0
220
0
230
1
0
LINE
5
B1
100
AcDbEntity
8
1
62
256
6
ByLayer
370
18
48
1
60
0
100
AcDbLine
10
17.448327
20
-24.258819
30
0
11
15.278461
21
-16.16077
31
0
39
0
210
0
220
0
230
1
0
LINE
5
B2
100
AcDbEntity
8
SK1
62
256
6
ByLayer
370
18
48
0.05
60
1
100
AcDbLine
10
18.063019
20
24.355251
30
0
11
17.521886
21
-16.748917
31
0
39
0
210
0
220
0
230
1
0
LINE
5
B3
100
AcDbEntity
8
1
62
256
6
ByLayer
370
13
48
1
60
0
100
AcDbLine
10
18.018481
20
24.277813
30
0
11
18.183283
21
-24.091758
31
0
39
0
210
0
220
0
230
1
0
LINE
5
B4
100
AcDbEntity
8
SK1
62
256
6
ByLayer
370
18
48
0.05
60
1
100
AcDbLine
10
20.812771
20
29.562669
30
0
11
13.849742
21
25.542563
31
0
39
0
210
0
220
0
230
1
0
LINE
5
B5
100
AcDbEntity
8
SK1
62
256
6
ByLayer
370
18
48
0.05
60
1
100
AcDbLine
10
25.8
20
-25
30
0
11
56.118365
21
-25
31
0
39
0
210
0
220
0
230
1
0
LINE
5
B6
100
AcDbEntity
8
1
62
256
6
ByLayer
370
18
48
1
60
0
100
AcDbLine
10
79.118365
20
-25
30
0
11
25.8
21
-25
31
0
39
0
210
0
220
0
230
1
0
LINE
5
B7
100
AcDbEntity
8
SK1
62
256
6
ByLayer
370
18
48
0.05
60
1
100
AcDbLine
10
25.4
20
25
30
0
11
-2.8
21
25
31
0
39
0
210
0
220
0
230
1
0
LINE
5
B8
100
AcDbEntity
8
1
62
256
6
ByLayer
370
18
48
0.05
60
1
100
AcDbLine
10
25.4
20
25
30
0
11
18.414253
21
25
31
0
39
0
210
0
220
0
230
1
0
LINE
5
B9
100
AcDbEntity
8
1
62
256
6
ByLayer
370
18
48
1
60
0
100
AcDbLine
10
25.4
20
-25
30
0
11
18.414253
21
-25
31
0
39
0
210
0
220
0
230
1
0
LINE
5
BA
100
AcDbEntity
8
SK1
62
256
6
ByLayer
370
18
48
0.05
60
1
100
AcDbLine
10
53
20
12.421235
30
0
11
53
21
-30.7
31
0
39
0
210
0
220
0
230
1
0
LINE
5
BB
100
AcDbEntity
8
SK1
62
256
6
ByLayer
370
18
48
0.05
60
1
100
AcDbLine
10
53
20
-6.654226
30
0
11
53
21
12.421235
31
0
39
0
210
0
220
0
230
1
0
LINE
5
BC
100
AcDbEntity
8
1
62
256
6
ByLayer
370
13
48
0.05
60
1
100
AcDbLine
10
53
20
9.238479
30
0
11
53
21
-6.654226
31
0
39
0
210
0
220
0
230
1
0
LINE
5
BD
100
AcDbEntity
8
SK4
62
256
6
ByLayer
370
13
48
0.05
60
0
100
AcDbLine
10
102
20
0
30
0
11
-21
21
0
31
0
39
0
210
0
220
0
230
1
0
LINE
5
BE
100
AcDbEntity
8
1
62
256
6
ByLayer
370
18
48
0.05
60
1
100
AcDbLine
10
45
20
5.37593
30
0
11
45
21
-6.654226
31
0
39
0
210
0
220
0
230
1
0
LINE
5
BF
100
AcDbEntity
8
1
62
256
6
ByLayer
370
18
48
0.05
60
1
100
AcDbLine
10
77.118365
20
23.8
30
0
11
23.8
21
23.8
31
0
39
0
210
0
220
0
230
1
0
LINE
5
C0
100
AcDbEntity
8
1
62
256
6
ByLayer
370
18
48
0.05
60
1
100
AcDbLine
10
51.25
20
5.37593
30
0
11
51.25
21
-6.654226
31
0
39
0
210
0
220
0
230
1
0
LINE
5
C1
100
AcDbEntity
8
1
62
256
6
ByLayer
370
18
48
0.05
60
1
100
AcDbLine
10
49.55
20
5.37593
30
0
11
49.55
21
-6.654226
31
0
39
0
210
0
220
0
230
1
0
LINE
5
C2
100
AcDbEntity
8
1
62
256
6
ByLayer
370
18
48
0.05
60
1
100
AcDbLine
10
47
20
14.6
30
0
11
79.118365
21
14.6
31
0
39
0
210
0
220
0
230
1
0
LINE
5
C3
100
AcDbEntity
8
SK3
62
256
6
ByLayer
370
13
48
0.05
60
0
100
AcDbLine
10
56.45
20
23.8
30
0
11
56.45
21
14.6
31
0
39
0
210
0
220
0
230
1
0
LINE
5
C5
100
AcDbEntity
8
SK3
62
256
6
ByLayer
370
13
48
0.05
60
0
100
AcDbLine
10
54.75
20
23.8
30
0
11
54.75
21
14.6
31
0
39
0
210
0
220
0
230
1
0
LINE
5
C6
100
AcDbEntity
8
SK3
62
256
6
ByLayer
370
13
48
0.05
60
0
100
AcDbLine
10
61
20
25
30
0
11
61
21
23.8
31
0
39
0
210
0
220
0
230
1
0
LINE
5
C7
100
AcDbEntity
8
1
62
256
6
ByLayer
370
18
48
0.05
60
1
100
AcDbLine
10
56.45
20
14.6
30
0
11
51.375022
21
11.661497
31
0
39
0
210
0
220
0
230
1
0
LINE
5
C8
100
AcDbEntity
8
1
62
256
6
ByLayer
370
18
48
0.05
60
1
100
AcDbLine
10
49.55
20
14.6
30
0
11
54.624978
21
11.661497
31
0
39
0
210
0
220
0
230
1
0
LINE
5
C9
100
AcDbEntity
8
SK3
62
256
6
ByLayer
370
13
48
0.05
60
0
100
AcDbLine
10
53
20
12.602389
30
0
11
49.55
21
14.6
31
0
39
0
210
0
220
0
230
1
0
LINE
5
CA
100
AcDbEntity
8
SK3
62
256
6
ByLayer
370
13
48
0.05
60
0
100
AcDbLine
10
53
20
12.602389
30
0
11
56.45
21
14.6
31
0
39
0
210
0
220
0
230
1
0
LINE
5
CB
100
AcDbEntity
8
1
62
256
6
ByLayer
370
18
48
0.05
60
1
100
AcDbLine
10
53
20
23.8
30
0
11
53
21
12.602389
31
0
39
0
210
0
220
0
230
1
0
LINE
5
CC
100
AcDbEntity
8
1
62
256
6
ByLayer
370
18
48
0.05
60
1
100
AcDbLine
10
53
20
26.59154
30
0
11
53
21
12.602389
31
0
39
0
210
0
220
0
230
1
0
LINE
5
CD
100
AcDbEntity
8
SK3
62
256
6
ByLayer
370
13
48
0.05
60
0
100
AcDbLine
10
53
20
11.483335
30
0
11
53
21
26.59154
31
0
39
0
210
0
220
0
230
1
0
LINE
5
CE
100
AcDbEntity
8
SK1
62
256
6
ByLayer
370
18
48
0.05
60
1
100
AcDbLine
10
23.6
20
25
30
0
11
23.6
21
-8.7
31
0
39
0
210
0
220
0
230
1
0
LINE
5
CF
100
AcDbEntity
8
SK1
62
256
6
ByLayer
370
18
48
0.05
60
1
100
AcDbLine
10
23.6
20
25
30
0
11
56.218365
21
25
31
0
39
0
210
0
220
0
230
1
0
LINE
5
D0
100
AcDbEntity
8
SK1
62
256
6
ByLayer
370
18
48
0.05
60
1
100
AcDbLine
10
23.6
20
-24.800537
30
0
11
23.6
21
25
31
0
39
0
210
0
220
0
230
1
0
LINE
5
D1
100
AcDbEntity
8
SK1
62
256
6
ByLayer
370
18
48
0.05
60
1
100
AcDbLine
10
23.8
20
25
30
0
11
56.218365
21
25
31
0
39
0
210
0
220
0
230
1
0
LINE
5
D2
100
AcDbEntity
8
1
62
256
6
ByLayer
370
18
48
1
60
0
100
AcDbLine
10
23.6
20
24.800537
30
0
11
23.6
21
-24.800537
31
0
39
0
210
0
220
0
230
1
0
LINE
5
D3
100
AcDbEntity
8
1
62
256
6
ByLayer
370
18
48
0.05
60
1
100
AcDbLine
10
45
20
23.8
30
0
11
45
21
-6.654226
31
0
39
0
210
0
220
0
230
1
0
LINE
5
D4
100
AcDbEntity
8
1
62
256
6
ByLayer
370
18
48
0.05
60
1
100
AcDbLine
10
77.118365
20
25
30
0
11
23.8
21
25
31
0
39
0
210
0
220
0
230
1
0
LINE
5
D5
100
AcDbEntity
8
1
62
256
6
ByLayer
370
18
48
0.05
60
1
100
AcDbLine
10
45
20
25
30
0
11
45
21
-6.654226
31
0
39
0
210
0
220
0
230
1
0
LINE
5
D6
100
AcDbEntity
8
1
62
256
6
ByLayer
370
18
48
0.05
60
1
100
AcDbLine
10
45
20
23.8
30
0
11
77.118365
21
23.8
31
0
39
0
210
0
220
0
230
1
0
LINE
5
D7
100
AcDbEntity
8
SK3
62
256
6
ByLayer
370
13
48
0.05
60
0
100
AcDbLine
10
45
20
25
30
0
11
45
21
23.8
31
0
39
0
210
0
220
0
230
1
0
LINE
5
D8
100
AcDbEntity
8
1
62
256
6
ByLayer
370
18
48
0.05
60
1
100
AcDbLine
10
49.55
20
23.8
30
0
11
49.55
21
-6.654226
31
0
39
0
210
0
220
0
230
1
0
LINE
5
D9
100
AcDbEntity
8
1
62
256
6
ByLayer
370
18
48
0.05
60
1
100
AcDbLine
10
51.25
20
23.8
30
0
11
51.25
21
-6.654226
31
0
39
0
210
0
220
0
230
1
0
LINE
5
DA
100
AcDbEntity
8
SK3
62
256
6
ByLayer
370
13
48
0.05
60
0
100
AcDbLine
10
51.25
20
23.8
30
0
11
51.25
21
14.6
31
0
39
0
210
0
220
0
230
1
0
LINE
5
DB
100
AcDbEntity
8
SK3
62
256
6
ByLayer
370
13
48
0.05
60
0
100
AcDbLine
10
49.55
20
23.8
30
0
11
49.55
21
14.6
31
0
39
0
210
0
220
0
230
1
0
LINE
5
DC
100
AcDbEntity
8
1
62
256
6
ByLayer
370
18
48
0.05
60
1
100
AcDbLine
10
49.55
20
14.6
30
0
11
79.118365
21
14.6
31
0
39
0
210
0
220
0
230
1
0
LINE
5
DD
100
AcDbEntity
8
SK3
62
256
6
ByLayer
370
13
48
0.05
60
0
100
AcDbLine
10
61
20
23.8
30
0
11
45
21
23.8
31
0
39
0
210
0
220
0
230
1
0
LINE
5
DE
100
AcDbEntity
8
SK3
62
256
6
ByLayer
370
13
48
0.05
60
0
100
AcDbLine
10
49.55
20
14.6
30
0
11
56.45
21
14.6
31
0
39
0
210
0
220
0
230
1
0
LINE
5
DF
100
AcDbEntity
8
1
62
256
6
ByLayer
370
18
48
0.05
60
1
100
AcDbLine
10
79.118365
20
25
30
0
11
23.8
21
25
31
0
39
0
210
0
220
0
230
1
0
LINE
5
E0
100
AcDbEntity
8
1
62
256
6
ByLayer
370
18
48
1
60
0
100
AcDbLine
10
23.8
20
-25
30
0
11
23.600537
21
-24.800537
31
0
39
0
210
0
220
0
230
1
0
LINE
5
E1
100
AcDbEntity
8
1
62
256
6
ByLayer
370
18
48
1
60
0
100
AcDbLine
10
25.8
20
25
30
0
11
25.700268
21
24.900268
31
0
39
0
210
0
220
0
230
1
0
LINE
5
E2
100
AcDbEntity
8
1
62
256
6
ByLayer
370
18
48
1
60
0
100
AcDbLine
10
25.700268
20
24.900268
30
0
11
25.600537
21
24.800537
31
0
39
0
210
0
220
0
230
1
0
LINE
5
E3
100
AcDbEntity
8
1
62
256
6
ByLayer
370
18
48
1
60
0
100
AcDbLine
10
25.8
20
25
30
0
11
79.118365
21
25
31
0
39
0
210
0
220
0
230
1
0
LINE
5
E4
100
AcDbEntity
8
1
62
256
6
ByLayer
370
18
48
1
60
0
100
AcDbLine
10
25.4
20
25
30
0
11
18.414253
21
25
31
0
39
0
210
0
220
0
230
1
0
MTEXT
5
F4
100
AcDbEntity
8
SK6
62
256
6
ByLayer
370
18
48
1
60
0
100
AcDbMText
10
2.179758
20
-36.878654
30
0
210
0
220
0
230
1
1
\W0.6675;C3-391.32-13 102
40
3.5
41
0
44
1.084337
50
0
71
7
72
5
7
iso_b_vert
0
DIMENSION
5
106
100
AcDbEntity
8
2
62
256
6
ByLayer
370
13
48
1
60
0
100
AcDbDimension
2
DimnDraft3D1
10
102
20
49.037958
30
0
11
48.521053
21
49.037958
31
0
70
32
71
5
72
1
41
1
210
0
220
0
230
1
3
Standard
100
AcDbAlignedDimension
13
0
23
17.2
33
0
14
102
24
9.351702
34
0
50
0
100
AcDbRotatedDimension
1001
ACAD
1000
DSTYLE
1002
{
1070
   279
1070
     0
1070
   173
1070
     1
1070
   340
1005
F5
1070
   271
1070
     0
1070
   272
1070
     2
1070
    77
1070
     1
1070
    73
1070
     0
1070
   171
1070
     4
1070
   274
1070
     4
1070
   177
1070
     7
1070
   176
1070
     7
1070
   178
1070
     7
1070
    41
1041
3.0
1070
   147
1041
1.5
1070
    42
1041
1.5
1070
    44
1041
3.0
1070
   140
1041
3.0
1070
   343
1005
107
1070
   344
1005
107
1002
}
0
DIMENSION
5
11C
100
AcDbEntity
8
SK2
62
256
6
ByLayer
370
13
48
1
60
0
100
AcDbDimension
2
DimnDraft3D2
10
-27.116622
20
16
30
0
11
-27.116622
21
-4.073684
31
0
70
32
71
5
72
1
41
1
210
0
220
0
230
1
3
Standard
100
AcDbAlignedDimension
13
-1.2
23
-16
33
0
14
-1.2
24
16
34
0
50
90
100
AcDbRotatedDimension
1001
ACAD
1000
DSTYLE
1002
{
1070
    74
1070
     0
1070
   279
1070
     0
1070
   173
1070
     1
1070
   340
1005
F5
1070
   271
1070
     0
1070
   272
1070
     2
1070
    77
1070
     1
1070
    73
1070
     0
1070
   171
1070
     4
1070
   274
1070
     4
1070
   177
1070
     7
1070
   176
1070
     7
1070
   178
1070
     7
1070
    41
1041
3.0
1070
   147
1041
1.5
1070
    42
1041
1.5
1070
    44
1041
3.0
1070
   140
1041
3.0
1070
   343
1005
107
1070
   344
1005
107
1002
}
0
DIMENSION
5
12A
100
AcDbEntity
8
SK2
62
256
6
ByLayer
370
13
48
1
60
0
100
AcDbDimension
2
DimnDraft3D3
10
14.678461
20
27.707549
30
0
11
5.961599
21
27.707549
31
0
70
32
71
5
72
1
41
1
210
0
220
0
230
1
3
Standard
100
AcDbAlignedDimension
13
0
23
17.2
33
0
14
14.678461
24
17.5
34
0
50
0
100
AcDbRotatedDimension
1001
ACAD
1000
DSTYLE
1002
{
1070
   279
1070
     0
1070
   173
1070
     1
1070
   340
1005
F5
1070
   271
1070
     0
1070
    77
1070
     1
1070
    73
1070
     0
1070
   171
1070
     3
1070
   274
1070
     3
1070
   177
1070
     7
1070
   176
1070
     7
1070
   178
1070
     7
1070
    41
1041
3.0
1070
   147
1041
1.5
1070
    42
1041
1.5
1070
    44
1041
3.0
1070
   140
1041
3.0
1070
   343
1005
107
1070
   344
1005
107
1002
}
0
DIMENSION
5
138
100
AcDbEntity
8
SK2
62
256
6
ByLayer
370
13
48
1
60
0
100
AcDbDimension
2
DimnDraft3D4
10
132.246442
20
25
30
0
11
132.246442
21
-4.035704
31
0
70
32
71
5
72
1
41
1
210
0
220
0
230
1
3
Standard
100
AcDbAlignedDimension
13
81.486606
23
-24.924039
33
0
14
80.618365
24
25
34
0
50
90
100
AcDbRotatedDimension
1001
ACAD
1000
DSTYLE
1002
{
1070
    74
1070
     0
1070
   279
1070
     0
1070
   173
1070
     1
1070
   340
1005
F5
1070
   271
1070
     1
1070
    77
1070
     1
1070
    73
1070
     0
1070
   171
1070
     3
1070
   274
1070
     3
1070
   177
1070
     7
1070
   176
1070
     7
1070
   178
1070
     7
1070
    41
1041
3.0
1070
   147
1041
1.5
1070
    42
1041
1.5
1070
    44
1041
3.0
1070
   140
1041
3.0
1070
   343
1005
107
1070
   344
1005
107
1002
}
0
DIMENSION
5
146
100
AcDbEntity
8
SK2
62
256
6
ByLayer
370
13
48
1
60
0
100
AcDbDimension
2
DimnDraft3D5
10
96
20
36.660778
30
0
11
46.247368
21
36.660778
31
0
70
32
71
5
72
1
41
1
210
0
220
0
230
1
3
Standard
100
AcDbAlignedDimension
13
0
23
17.2
33
0
14
96
24
19.976269
34
0
50
0
100
AcDbRotatedDimension
1001
ACAD
1000
DSTYLE
1002
{
1070
   279
1070
     0
1070
   173
1070
     1
1070
   340
1005
F5
1070
   271
1070
     0
1070
    77
1070
     1
1070
    73
1070
     0
1070
   171
1070
     3
1070
   274
1070
     3
1070
   177
1070
     7
1070
   176
1070
     7
1070
   178
1070
     7
1070
    41
1041
3.0
1070
   147
1041
1.5
1070
    42
1041
1.5
1070
    44
1041
3.0
1070
   140
1041
3.0
1070
   343
1005
107
1070
   344
1005
107
1002
}
0
ENDSEC
0
SECTION
2
OBJECTS
0
DICTIONARY
5
1b2
330
0
100
AcDbDictionary
280
0
281
1
3
ACAD_GROUP
350
1b3
3
ACAD_MLINESTYLE
350
1b4
0
DICTIONARY
5
1b3
330
0
100
AcDbDictionary
280
0
281
1
0
DICTIONARY
5
1b4
330
0
100
AcDbDictionary
280
0
281
1
3
Standard
350
18
0
MLINESTYLE
5
18
330
1b4
100
AcDbMlineStyle
2
Standard
70
0
3

62
256
51
90
52
90
71
2
49
-0.5
62
256
6
ByLayer
49
0.5
62
256
6
ByLayer
0
RASTERVARIABLES
5
19f
330

100
AcDbRasterVariables
90
0
70
1
71
1
72
1
0
ENDSEC
0
EOF
