0
SECTION
2
HEADER
9
$ACADVER
1
AC1015
9
$DWGCODEPAGE
3
ANSI_1252
9
$HANDSEED
5
1ac
9
$ANGBASE
50
0
9
$ANGDIR
70
0
9
$ATTMODE
70
1
9
$AUNITS
70
0
9
$AUPREC
70
0
9
$CECOLOR
62
256
9
$CELTSCALE
40
1
9
$CELTYPE
6
ByLayer
9
$CELWEIGHT
370
18
9
$CLAYER
8
0
9
$CMLJUST
70
0
9
$CMLSCALE
40
1
9
$CMLSTYLE
2
Standard
9
$DIMSTYLE
2
Standard
9
$TEXTSIZE
40
0.2
9
$TEXTSTYLE
7
Standard
9
$LUNITS
70
2
9
$LUPREC
70
4
9
$EXTNAMES
290
1
9
$INSUNITS
70
4
9
$LTSCALE
40
1
9
$LWDISPLAY
290
1
9
$PDMODE
70
0
9
$PDSIZE
40
0
9
$PLINEGEN
70
0
0
ENDSEC
0
SECTION
2
CLASSES
0
CLASS
1
RASTERVARIABLES
2
AcDbRasterVariables
3
ISM
90
0
280
0
281
0
0
ENDSEC
0
SECTION
2
TABLES
0
TABLE
2
VPORT
5
1a2
100
AcDbSymbolTable
0
VPORT
5
1
100
AcDbSymbolTableRecord
100
AcDbViewportTableRecord
2
*Active
70
0
10
0
20
0
11
1
21
1
12
-1
22
1
13
0
23
0
14
0.5
24
0.5
15
10
25
10
16
0
26
0
36
1
17
0
27
0
37
0
0
ENDTAB
0
TABLE
2
LTYPE
5
1a3
100
AcDbSymbolTable
0
LTYPE
5
14
100
AcDbSymbolTableRecord
100
AcDbLinetypeTableRecord
70
0
2
ByBlock
3

72
65
73
0
40
0
0
LTYPE
5
15
100
AcDbSymbolTableRecord
100
AcDbLinetypeTableRecord
70
0
2
ByLayer
3

72
65
73
0
40
0
0
LTYPE
5
16
100
AcDbSymbolTableRecord
100
AcDbLinetypeTableRecord
70
0
2
Continuous
3
Solid line
72
65
73
0
40
0
0
LTYPE
5
6E
100
AcDbSymbolTableRecord
100
AcDbLinetypeTableRecord
70
0
2
CENTER
3
____ _ ____ _ ____ _ ____
72
65
73
4
40
47.5
49
22
74
0
49
-8.5
74
0
49
8.5
74
0
49
-8.5
74
0
0
LTYPE
5
6F
100
AcDbSymbolTableRecord
100
AcDbLinetypeTableRecord
70
0
2
DASHED
3
__ __ __ __ __ __ __ __ __
72
65
73
2
40
25.72
49
12.86
74
0
49
-12.86
74
0
0
ENDTAB
0
TABLE
2
LAYER
5
1a4
100
AcDbSymbolTable
0
LAYER
5
10
100
AcDbSymbolTableRecord
100
AcDbLayerTableRecord
2
0
70
0
62
7
6
Continuous
290
1
370
-3
390
0
0
LAYER
5
71
100
AcDbSymbolTableRecord
100
AcDbLayerTableRecord
2
1
70
0
62
4
6
Continuous
290
1
370
-3
390
0
0
LAYER
5
73
100
AcDbSymbolTableRecord
100
AcDbLayerTableRecord
2
80
70
0
62
-6
6
Continuous
290
1
370
-3
390
0
0
LAYER
5
75
100
AcDbSymbolTableRecord
100
AcDbLayerTableRecord
2
81
70
0
62
-3
6
Continuous
290
1
370
-3
390
0
0
LAYER
5
A0
100
AcDbSymbolTableRecord
100
AcDbLayerTableRecord
2
4
70
0
62
-2
6
CENTER
290
1
370
-3
390
0
0
LAYER
5
100
100
AcDbSymbolTableRecord
100
AcDbLayerTableRecord
2
Defpoints
70
0
62
7
6
Continuous
290
0
370
-3
390
0
0
LAYER
5
10D
100
AcDbSymbolTableRecord
100
AcDbLayerTableRecord
2
2
70
0
62
7
6
Continuous
290
1
370
-3
390
0
0
LAYER
5
18e
100
AcDbSymbolTableRecord
100
AcDbLayerTableRecord
2
SK1
70
0
62
4
6
Continuous
290
1
370
-3
390
0
0
LAYER
5
18f
100
AcDbSymbolTableRecord
100
AcDbLayerTableRecord
2
SK4
70
0
62
2
6
CENTER
290
1
370
-3
390
0
0
LAYER
5
190
100
AcDbSymbolTableRecord
100
AcDbLayerTableRecord
2
SK2
70
0
62
7
6
Continuous
290
1
370
-3
390
0
0
LAYER
5
191
100
AcDbSymbolTableRecord
100
AcDbLayerTableRecord
2
SK6
70
0
62
5
6
Continuous
290
1
370
-3
390
0
0
ENDTAB
0
TABLE
2
STYLE
5
1a5
100
AcDbSymbolTable
0
STYLE
5
11
100
AcDbSymbolTableRecord
100
AcDbTextStyleTableRecord
2
Standard
3
txt
70
0
71
0
40
0
41
1
42
0
50
0
0
STYLE
5
E5
100
AcDbSymbolTableRecord
100
AcDbTextStyleTableRecord
2
iso_b_vert
3
simplex.shx
70
0
71
0
40
0
41
1
42
0
50
0
0
STYLE
5
E6
100
AcDbSymbolTableRecord
100
AcDbTextStyleTableRecord
2
DWGDirectTextStyle
3
simplex
70
0
71
0
40
0
41
1
42
0
50
0
0
ENDTAB
0
TABLE
2
DIMSTYLE
5
1a6
100
AcDbSymbolTable
100
AcDbDimStyleTable
0
DIMSTYLE
105
27
100
AcDbSymbolTableRecord
100
AcDbDimStyleTableRecord
2
Standard
70
0
3
<>
41
0.18
42
0.0625
44
0.18
140
0.18
147
0.09
73
0
74
0
77
1
271
2
275
0
278
52
280
0
340
11
0
ENDTAB
0
TABLE
2
VIEW
5
1a7
100
AcDbSymbolTable
0
ENDTAB
0
TABLE
2
UCS
5
1a8
100
AcDbSymbolTable
0
ENDTAB
0
TABLE
2
APPID
5
1a9
100
AcDbSymbolTable
0
APPID
5
12
100
AcDbSymbolTableRecord
100
AcDbRegAppTableRecord
2
ACAD
70
0
0
APPID
5
FC
100
AcDbSymbolTableRecord
100
AcDbRegAppTableRecord
2
ACAD_DSTYLE_DIMBREAK
70
0
0
APPID
5
14D
100
AcDbSymbolTableRecord
100
AcDbRegAppTableRecord
2
ACAD_DSTYLE_DIM_LINETYPE
70
0
0
APPID
5
14E
100
AcDbSymbolTableRecord
100
AcDbRegAppTableRecord
2
ACAD_DSTYLE_DIM_EXT1_LINETYPE
70
0
0
APPID
5
14F
100
AcDbSymbolTableRecord
100
AcDbRegAppTableRecord
2
ACAD_DSTYLE_DIM_EXT2_LINETYPE
70
0
0
APPID
5
18A
100
AcDbSymbolTableRecord
100
AcDbRegAppTableRecord
2
ACAD_MLEADERVER
70
0
0
ENDTAB
0
TABLE
2
BLOCK_RECORD
5
1aa
100
AcDbSymbolTable
0
BLOCK_RECORD
5
1F
100
AcDbSymbolTableRecord
100
AcDbBlockTableRecord
2
*Model_Space
340
0
70
0
0
BLOCK_RECORD
5
1B
100
AcDbSymbolTableRecord
100
AcDbBlockTableRecord
2
*Paper_Space
340
0
70
0
0
BLOCK_RECORD
5
23
100
AcDbSymbolTableRecord
100
AcDbBlockTableRecord
2
*Paper_Space0
340
0
70
0
0
BLOCK_RECORD
5
101
100
AcDbSymbolTableRecord
100
AcDbBlockTableRecord
2
*D1
340
0
70
0
0
BLOCK_RECORD
5
10E
100
AcDbSymbolTableRecord
100
AcDbBlockTableRecord
2
_U0
340
0
70
0
0
BLOCK_RECORD
5
11A
100
AcDbSymbolTableRecord
100
AcDbBlockTableRecord
2
*D3
340
0
70
0
0
BLOCK_RECORD
5
126
100
AcDbSymbolTableRecord
100
AcDbBlockTableRecord
2
_U1
340
0
70
0
0
ENDTAB
0
ENDSEC
0
SECTION
2
BLOCKS
0
BLOCK
5
20
100
AcDbEntity
8
0
100
AcDbBlockBegin
2
*Model_Space
70
0
10
0
20
0
30
0
3
*Model_Space
0
ENDBLK
5
21
100
AcDbEntity
8
0
100
AcDbBlockEnd
0
BLOCK
5
1C
100
AcDbEntity
8
0
100
AcDbBlockBegin
2
*Paper_Space
70
0
10
0
20
0
30
0
3
*Paper_Space
0
ENDBLK
5
1D
100
AcDbEntity
8
0
100
AcDbBlockEnd
0
BLOCK
5
24
100
AcDbEntity
8
0
100
AcDbBlockBegin
2
*Paper_Space0
70
0
10
0
20
0
30
0
3
*Paper_Space0
0
ENDBLK
5
25
100
AcDbEntity
8
0
100
AcDbBlockEnd
0
BLOCK
5
102
100
AcDbEntity
8
0
100
AcDbBlockBegin
2
*D1
70
1
10
0
20
0
30
0
3
*D1
0
LINE
5
104
100
AcDbEntity
8
0
62
256
6
ByLayer
370
-2
48
1
60
0
100
AcDbLine
10
60
20
17.5875
30
0
11
60
21
34.6
31
0
39
0
210
0
220
0
230
1
0
LINE
5
105
100
AcDbEntity
8
0
62
256
6
ByLayer
370
-2
48
1
60
0
100
AcDbLine
10
0
20
17.5875
30
0
11
0
21
34.6
31
0
39
0
210
0
220
0
230
1
0
LINE
5
106
100
AcDbEntity
8
0
62
256
6
ByLayer
370
-2
48
1
60
0
100
AcDbLine
10
56.5
20
32.6
30
0
11
3.5
21
32.6
31
0
39
0
210
0
220
0
230
1
0
SOLID
5
107
100
AcDbEntity
8
0
62
256
6
ByLayer
370
-1
48
1
60
0
100
AcDbTrace
10
56.5
20
32.016667
30
0
11
56.5
21
33.183333
31
0
12
60
22
32.6
32
0
13
60
23
32.6
33
0
39
0
210
0
220
0
230
1
0
SOLID
5
108
100
AcDbEntity
8
0
62
256
6
ByLayer
370
-1
48
1
60
0
100
AcDbTrace
10
3.5
20
33.183333
30
0
11
3.5
21
32.016667
31
0
12
0
22
32.6
32
0
13
0
23
32.6
33
0
39
0
210
0
220
0
230
1
0
MTEXT
5
109
100
AcDbEntity
8
0
62
256
6
ByLayer
370
18
48
1
60
0
100
AcDbMText
10
30
20
39.6
30
0
210
0
220
0
230
1
1
\A1;60
40
3.5
41
0
44
1
50
0
71
5
72
5
7
iso_b_vert
0
POINT
5
10A
100
AcDbEntity
8
Defpoints
62
0
6
ByLayer
370
-1
48
1
60
0
100
AcDbPoint
10
60
20
16
30
0
39
0
210
0
220
0
230
1
50
360
0
POINT
5
10B
100
AcDbEntity
8
Defpoints
62
0
6
ByLayer
370
-1
48
1
60
0
100
AcDbPoint
10
0
20
16
30
0
39
0
210
0
220
0
230
1
50
360
0
POINT
5
10C
100
AcDbEntity
8
Defpoints
62
0
6
ByLayer
370
-1
48
1
60
0
100
AcDbPoint
10
0
20
32.6
30
0
39
0
210
0
220
0
230
1
50
360
0
ENDBLK
5
103
100
AcDbEntity
8
0
100
AcDbBlockEnd
0
BLOCK
5
115
100
AcDbEntity
8
0
100
AcDbBlockBegin
2
_U0
70
0
10
0
20
0
30
0
3
_U0
0
MTEXT
5
10F
100
AcDbEntity
8
2
62
256
6
ByLayer
370
18
48
1
60
0
100
AcDbMText
10
28.095034
20
33.632634
30
0
210
0
220
0
230
1
1
\W0.6740;60
40
3.5
41
0
44
1.084337
50
0
71
7
72
5
7
iso_b_vert
0
LINE
5
110
100
AcDbEntity
8
2
62
256
6
ByLayer
370
13
48
1
60
0
100
AcDbLine
10
60
20
17.5875
30
0
11
60
21
34.6
31
0
39
0
210
0
220
0
230
1
0
LINE
5
111
100
AcDbEntity
8
2
62
256
6
ByLayer
370
13
48
1
60
0
100
AcDbLine
10
0
20
17.5875
30
0
11
0
21
34.6
31
0
39
0
210
0
220
0
230
1
0
LINE
5
112
100
AcDbEntity
8
2
62
256
6
ByLayer
370
13
48
1
60
0
100
AcDbLine
10
60
20
32.6
30
0
11
0
21
32.6
31
0
39
0
210
0
220
0
230
1
0
SOLID
5
113
100
AcDbEntity
8
2
62
256
6
ByLayer
370
18
48
1
60
0
100
AcDbTrace
10
60
20
32.6
30
0
11
56.500002
21
32.139216
31
0
12
56.499998
22
33.060784
32
0
13
56.499998
23
33.060784
33
0
39
0
210
0
220
0
230
1
0
SOLID
5
114
100
AcDbEntity
8
2
62
256
6
ByLayer
370
18
48
1
60
0
100
AcDbTrace
10
0
20
32.6
30
0
11
3.499998
21
33.060784
31
0
12
3.500002
22
32.139216
32
0
13
3.500002
23
32.139216
33
0
39
0
210
0
220
0
230
1
0
ENDBLK
5
116
100
AcDbEntity
8
0
100
AcDbBlockEnd
0
BLOCK
5
11B
100
AcDbEntity
8
0
100
AcDbBlockBegin
2
*D3
70
1
10
0
20
0
30
0
3
*D3
0
LINE
5
11D
100
AcDbEntity
8
0
62
256
6
ByLayer
370
-2
48
1
60
0
100
AcDbLine
10
-19
20
12.5875
30
0
11
-19
21
34.6
31
0
39
0
210
0
220
0
230
1
0
LINE
5
11E
100
AcDbEntity
8
0
62
256
6
ByLayer
370
-2
48
1
60
0
100
AcDbLine
10
0
20
17.5875
30
0
11
0
21
34.6
31
0
39
0
210
0
220
0
230
1
0
LINE
5
11F
100
AcDbEntity
8
0
62
256
6
ByLayer
370
-2
48
1
60
0
100
AcDbLine
10
-15.5
20
32.6
30
0
11
-3.5
21
32.6
31
0
39
0
210
0
220
0
230
1
0
SOLID
5
120
100
AcDbEntity
8
0
62
256
6
ByLayer
370
-1
48
1
60
0
100
AcDbTrace
10
-15.5
20
33.183333
30
0
11
-15.5
21
32.016667
31
0
12
-19
22
32.6
32
0
13
-19
23
32.6
33
0
39
0
210
0
220
0
230
1
0
SOLID
5
121
100
AcDbEntity
8
0
62
256
6
ByLayer
370
-1
48
1
60
0
100
AcDbTrace
10
-3.5
20
32.016667
30
0
11
-3.5
21
33.183333
31
0
12
0
22
32.6
32
0
13
0
23
32.6
33
0
39
0
210
0
220
0
230
1
0
MTEXT
5
122
100
AcDbEntity
8
0
62
256
6
ByLayer
370
18
48
1
60
0
100
AcDbMText
10
-9.5
20
39.6
30
0
210
0
220
0
230
1
1
\A1;19
40
3.5
41
0
44
1
50
0
71
5
72
5
7
iso_b_vert
0
POINT
5
123
100
AcDbEntity
8
Defpoints
62
0
6
ByLayer
370
-1
48
1
60
0
100
AcDbPoint
10
-19
20
11
30
0
39
0
210
0
220
0
230
1
50
360
0
POINT
5
124
100
AcDbEntity
8
Defpoints
62
0
6
ByLayer
370
-1
48
1
60
0
100
AcDbPoint
10
0
20
16
30
0
39
0
210
0
220
0
230
1
50
360
0
POINT
5
125
100
AcDbEntity
8
Defpoints
62
0
6
ByLayer
370
-1
48
1
60
0
100
AcDbPoint
10
0
20
32.6
30
0
39
0
210
0
220
0
230
1
50
360
0
ENDBLK
5
11C
100
AcDbEntity
8
0
100
AcDbBlockEnd
0
BLOCK
5
12D
100
AcDbEntity
8
0
100
AcDbBlockBegin
2
_U1
70
0
10
0
20
0
30
0
3
_U1
0
MTEXT
5
127
100
AcDbEntity
8
SK2
62
256
6
ByLayer
370
18
48
1
60
0
100
AcDbMText
10
-10.967533
20
33.632634
30
0
210
0
220
0
230
1
1
\W0.5469;19
40
3.5
41
0
44
1.084337
50
0
71
7
72
5
7
iso_b_vert
0
LINE
5
128
100
AcDbEntity
8
SK2
62
256
6
ByLayer
370
13
48
1
60
0
100
AcDbLine
10
-19
20
12.5875
30
0
11
-19
21
34.6
31
0
39
0
210
0
220
0
230
1
0
LINE
5
129
100
AcDbEntity
8
SK2
62
256
6
ByLayer
370
13
48
1
60
0
100
AcDbLine
10
0
20
17.5875
30
0
11
0
21
34.6
31
0
39
0
210
0
220
0
230
1
0
LINE
5
12A
100
AcDbEntity
8
SK2
62
256
6
ByLayer
370
13
48
1
60
0
100
AcDbLine
10
-19
20
32.6
30
0
11
0
21
32.6
31
0
39
0
210
0
220
0
230
1
0
SOLID
5
12B
100
AcDbEntity
8
SK2
62
256
6
ByLayer
370
18
48
1
60
0
100
AcDbTrace
10
-19
20
32.6
30
0
11
-15.500002
21
33.060784
31
0
12
-15.499998
22
32.139216
32
0
13
-15.499998
23
32.139216
33
0
39
0
210
0
220
0
230
1
0
SOLID
5
12C
100
AcDbEntity
8
SK2
62
256
6
ByLayer
370
18
48
1
60
0
100
AcDbTrace
10
0
20
32.6
30
0
11
-3.499998
21
32.139216
31
0
12
-3.500002
22
33.060784
32
0
13
-3.500002
23
33.060784
33
0
39
0
210
0
220
0
230
1
0
ENDBLK
5
12E
100
AcDbEntity
8
0
100
AcDbBlockEnd
0
ENDSEC
0
SECTION
2
ENTITIES
0
ARC
5
B7
100
AcDbEntity
8
SK1
62
256
6
ByLayer
370
18
48
1
60
0
100
AcDbCircle
39
0
10
-0.6
20
11.8
30
0
40
0.999999999999989
210
0
220
0
230
1
100
AcDbArc
50
293.578178
51
306.869898
0
ARC
5
B8
100
AcDbEntity
8
SK1
62
256
6
ByLayer
370
18
48
1
60
0
100
AcDbCircle
39
0
10
-0.6
20
-11.8
30
0
40
0.999999999999989
210
0
220
0
230
1
100
AcDbArc
50
53.130102
51
66.421822
0
ELLIPSE
5
B9
100
AcDbEntity
8
1
62
256
6
ByLayer
370
18
48
1
60
0
100
AcDbEllipse
10
12.928203
20
0
30
0
11
7.49393430382504
21
-15.7933993221995
31
0
210
0
220
0
230
1
40
0.341999
41
-2.98012608239207
42
-2.05401345238923
0
ELLIPSE
5
BA
100
AcDbEntity
8
1
62
256
6
ByLayer
370
18
48
1
60
0
100
AcDbEllipse
10
12.928203
20
0
30
0
11
7.49393430382503
21
15.7933993221994
31
0
210
0
220
0
230
1
40
0.341999
41
2.05401345238923
42
2.98012608239207
0
ELLIPSE
5
BB
100
AcDbEntity
8
1
62
256
6
ByLayer
370
18
48
1
60
0
100
AcDbEllipse
10
-0.928203
20
0
30
0
11
7.49393430382555
21
-15.7933993222001
31
0
210
0
220
0
230
1
40
0.341999
41
0.161466571197716
42
1.08757920120053
0
ELLIPSE
5
BC
100
AcDbEntity
8
1
62
256
6
ByLayer
370
18
48
1
60
0
100
AcDbEllipse
10
-0.928203
20
0
30
0
11
7.4939343038257
21
15.7933993222003
31
0
210
0
220
0
230
1
40
0.341999
41
-1.08757920120052
42
-0.16146657119772
0
POINT
5
70
100
AcDbEntity
8
1
62
256
6
ByLayer
370
18
48
1
60
0
100
AcDbPoint
10
0
20
0
30
0
39
0
210
0
220
0
230
1
50
360
0
POINT
5
72
100
AcDbEntity
8
80
62
256
6
ByLayer
370
18
48
1
60
0
100
AcDbPoint
10
0
20
0
30
0
39
0
210
0
220
0
230
1
50
360
0
POINT
5
74
100
AcDbEntity
8
81
62
256
6
ByLayer
370
18
48
1
60
0
100
AcDbPoint
10
60
20
0
30
0
39
0
210
0
220
0
230
1
50
360
0
POINT
5
76
100
AcDbEntity
8
1
62
256
6
ByLayer
370
18
48
1
60
1
100
AcDbPoint
10
60
20
16
30
0
39
0
210
0
220
0
230
1
50
360
0
POINT
5
77
100
AcDbEntity
8
1
62
256
6
ByLayer
370
18
48
1
60
1
100
AcDbPoint
10
0
20
16
30
0
39
0
210
0
220
0
230
1
50
360
0
POINT
5
78
100
AcDbEntity
8
1
62
256
6
ByLayer
370
18
48
1
60
1
100
AcDbPoint
10
-19
20
11
30
0
39
0
210
0
220
0
230
1
50
360
0
POINT
5
79
100
AcDbEntity
8
1
62
256
6
ByLayer
370
18
48
1
60
1
100
AcDbPoint
10
0
20
16
30
0
39
0
210
0
220
0
230
1
50
360
0
SPLINE
5
BD
100
AcDbEntity
8
SK1
62
256
6
ByLayer
370
18
48
1
60
0
100
AcDbSpline
70
4
71
3
72
114
73
110
40
0
40
0
40
0
40
0
40
0.0068018317930594
40
0.0149960551366449
40
0.0231902784802304
40
0.0313845018238158
40
0.0477729485109867
40
0.0641613951981577
40
0.0805498418853286
40
0.0969382885724996
40
0.105132511916085
40
0.113326735259671
40
0.121520958603256
40
0.129715181946842
40
0.146103628634012
40
0.154297851977598
40
0.162492075321183
40
0.170686298664769
40
0.178880522008354
40
0.18707474535194
40
0.195268968695525
40
0.203463192039111
40
0.211657415382696
40
0.219851638726282
40
0.228045862069867
40
0.236240085413453
40
0.244434308757038
40
0.252628532100624
40
0.260822755444209
40
0.269016978787795
40
0.27721120213138
40
0.285405425474965
40
0.293599648818551
40
0.301793872162136
40
0.309988095505722
40
0.326376542192893
40
0.342764988880064
40
0.350959212223649
40
0.359153435567235
40
0.36734765891082
40
0.375541882254405
40
0.383736105597991
40
0.391930328941576
40
0.400124552285162
40
0.408318775628747
40
0.424707222315918
40
0.441095669003089
40
0.449289892346675
40
0.45748411569026
40
0.465678339033846
40
0.473872562377431
40
0.482066785721017
40
0.490261009064602
40
0.498455232408188
40
0.506649455751773
40
0.523037902438944
40
0.539426349126115
40
0.5476205724697
40
0.555814795813286
40
0.564009019156871
40
0.572203242500457
40
0.580397465844042
40
0.588591689187628
40
0.596785912531213
40
0.604980135874799
40
0.62136858256197
40
0.637757029249141
40
0.645951252592726
40
0.654145475936311
40
0.662339699279897
40
0.670533922623482
40
0.678728145967068
40
0.686922369310653
40
0.695116592654239
40
0.703310815997824
40
0.71150503934141
40
0.719699262684995
40
0.727893486028581
40
0.736087709372166
40
0.744281932715752
40
0.752476156059337
40
0.760670379402923
40
0.768864602746508
40
0.777058826090093
40
0.785253049433679
40
0.80164149612085
40
0.818029942808021
40
0.834418389495192
40
0.850806836182363
40
0.859001059525948
40
0.867195282869534
40
0.875389506213119
40
0.883583729556705
40
0.89177795290029
40
0.899972176243876
40
0.908166399587461
40
0.916360622931046
40
0.924554846274632
40
0.932749069618217
40
0.940943292961803
40
0.949137516305388
40
0.957331739648974
40
0.965525962992559
40
0.973720186336145
40
0.98191440967973
40
0.990108633023316
40
0.994205744695108
40
0.998302856366901
40
1
40
1
40
1
40
1
41
1
10
-1.69999999999999
20
-11.0168256829722
30
-1E-16
41
1
10
-1.69999999999999
20
-11.0159248566329
30
-1E-16
41
1
10
-1.69999999999999
20
-11.0135338010555
30
-1E-16
41
1
10
-1.69999999999999
20
-11.0084752989365
30
-1E-16
41
1
10
-1.69999999999999
20
-11.0015624988159
30
-1E-16
41
1
10
-1.69999999999999
20
-10.9903135336491
30
-1E-16
41
1
10
-1.69999999999999
20
-10.9724987368511
30
-1E-16
41
1
10
-1.69999999999999
20
-10.9453046900679
30
0
41
1
10
-1.69999999999999
20
-10.9124599417153
30
0
41
1
10
-1.69999999999999
20
-10.8805066448562
30
0
41
1
10
-1.69999999999999
20
-10.8522711614578
30
0
41
1
10
-1.69999999999999
20
-10.8297709184935
30
0
41
1
10
-1.69999999999999
20
-10.8059645321906
30
0
41
1
10
-1.69999999999999
20
-10.7725058156908
30
0
41
1
10
-1.69999999999999
20
-10.7364870112034
30
0
41
1
10
-1.69999999999999
20
-10.6979846325427
30
0
41
1
10
-1.69999999999999
20
-10.6678717210084
30
0
41
1
10
-1.69999999999999
20
-10.6365384804889
30
0
41
1
10
-1.69999999999999
20
-10.6039972784095
30
-1E-16
41
1
10
-1.69999999999999
20
-10.5702601801729
30
-1E-16
41
1
10
-1.69999999999999
20
-10.5353389668746
30
-1E-16
41
1
10
-1.69999999999999
20
-10.4992449917908
30
-1E-16
41
1
10
-1.69999999999999
20
-10.4619889454751
30
-1E-16
41
1
10
-1.69999999999999
20
-10.4235819208782
30
-1E-16
41
1
10
-1.69999999999999
20
-10.3840336911891
30
-1E-16
41
1
10
-1.69999999999999
20
-10.3433544952797
30
-1E-16
41
1
10
-1.69999999999999
20
-10.3015538731596
30
-1E-16
41
1
10
-1.69999999999999
20
-10.2586409300894
30
-1E-16
41
1
10
-1.69999999999999
20
-10.214624938185
30
-1E-16
41
1
10
-1.69999999999999
20
-10.1695147015167
30
-1E-16
41
1
10
-1.69999999999999
20
-10.1233184572166
30
-1E-16
41
1
10
-1.69999999999999
20
-10.0760448746501
30
-1E-16
41
1
10
-1.69999999999999
20
-10.0277015194443
30
-1E-16
41
1
10
-1.69999999999999
20
-9.9782962601187
30
-1E-16
41
1
10
-1.69999999999999
20
-9.91102209624654
30
-1E-16
41
1
10
-1.69999999999999
20
-9.82429996242755
30
-1E-16
41
1
10
-1.69999999999999
20
-9.73413470277157
30
-1E-16
41
1
10
-1.69999999999999
20
-9.65997270948603
30
-1E-16
41
1
10
-1.69999999999999
20
-9.60333355436057
30
-1E-16
41
1
10
-1.69999999999999
20
-9.54568702498426
30
-1E-16
41
1
10
-1.69999999999999
20
-9.48703891782515
30
-1E-16
41
1
10
-1.69999999999999
20
-9.42739550269755
30
-1E-16
41
1
10
-1.69999999999999
20
-9.36676192571935
30
-1E-16
41
1
10
-1.69999999999999
20
-9.30514376314053
30
-1E-16
41
1
10
-1.69999999999999
20
-9.22168702931728
30
-1E-16
41
1
10
-1.69999999999999
20
-9.11491647650138
30
-1E-16
41
1
10
-1.69999999999999
20
-9.00493246986304
30
-1E-16
41
1
10
-1.69999999999999
20
-8.91504748954583
30
-1E-16
41
1
10
-1.69999999999999
20
-8.84667843706413
30
-1E-16
41
1
10
-1.69999999999999
20
-8.77736340151236
30
-1E-16
41
1
10
-1.69999999999999
20
-8.70710645983874
30
-1E-16
41
1
10
-1.69999999999999
20
-8.63591214139896
30
-1E-16
41
1
10
-1.69999999999999
20
-8.56378400031386
30
-1E-16
41
1
10
-1.69999999999999
20
-8.49072596407868
30
-1E-16
41
1
10
-1.69999999999999
20
-8.39208804491184
30
-1E-16
41
1
10
-1.69999999999999
20
-8.26646747522287
30
-1E-16
41
1
10
-1.69999999999999
20
-8.13779570521024
30
-1E-16
41
1
10
-1.69999999999999
20
-8.0330544688868
30
-1E-16
41
1
10
-1.69999999999999
20
-7.95358681402573
30
-1E-16
41
1
10
-1.69999999999999
20
-7.87321638075602
30
-1E-16
41
1
10
-1.69999999999999
20
-7.79194597495291
30
-1E-16
41
1
10
-1.69999999999999
20
-7.70977880868622
30
-1E-16
41
1
10
-1.69999999999999
20
-7.62671723619306
30
-1E-16
41
1
10
-1.69999999999999
20
-7.54276400792273
30
-1E-16
41
1
10
-1.69999999999999
20
-7.42964987262871
30
-1E-16
41
1
10
-1.69999999999999
20
-7.28602036791514
30
-1E-16
41
1
10
-1.69999999999999
20
-7.13945161440037
30
-1E-16
41
1
10
-1.69999999999999
20
-7.02045851391139
30
-1E-16
41
1
10
-1.69999999999999
20
-6.93033107540649
30
-1E-16
41
1
10
-1.69999999999999
20
-6.83933013294538
30
-1E-16
41
1
10
-1.69999999999999
20
-6.74745756863808
30
-1E-16
41
1
10
-1.69999999999999
20
-6.65471546144812
30
-1E-16
41
1
10
-1.69999999999999
20
-6.56110534348878
30
-1E-16
41
1
10
-1.69999999999999
20
-6.46662903768907
30
-1E-16
41
1
10
-1.69999999999999
20
-6.37128816532112
30
-1E-16
41
1
10
-1.69999999999999
20
-6.27508411030436
30
-1E-16
41
1
10
-1.69999999999999
20
-6.17801857115037
30
-1E-16
41
1
10
-1.69999999999999
20
-6.08009291387742
30
-1E-16
41
1
10
-1.69999999999999
20
-5.98130841102724
30
-1E-16
41
1
10
-1.69999999999999
20
-5.88166659485614
30
-1E-16
41
1
10
-1.69999999999999
20
-5.78116852113124
30
-1E-16
41
1
10
-1.69999999999999
20
-5.67981550565051
30
-1E-16
41
1
10
-1.69999999999999
20
-5.57760868171391
30
-1E-16
41
1
10
-1.69999999999999
20
-5.4745489994917
30
-1E-16
41
1
10
-1.69999999999999
20
-5.33601327110074
30
-1E-16
41
1
10
-1.69999999999999
20
-5.16068767245523
30
-1E-16
41
1
10
-1.69999999999999
20
-4.94691859926491
30
-1E-16
41
1
10
-1.69999999999999
20
-4.7297623506839
30
-1E-16
41
1
10
-1.69999999999999
20
-4.54596815109079
30
-1E-16
41
1
10
-1.69999999999999
20
-4.39727377856164
30
-1E-16
41
1
10
-1.69999999999999
20
-4.28489934734066
30
-1E-16
41
1
10
-1.69999999999999
20
-4.17168365277391
30
-1E-16
41
1
10
-1.69999999999999
20
-4.05762829513469
30
-1E-16
41
1
10
-1.69999999999999
20
-3.94273451640885
30
-1E-16
41
1
10
-1.69999999999999
20
-3.82700351079481
30
-1E-16
41
1
10
-1.69999999999999
20
-3.71043643743553
30
-1E-16
41
1
10
-1.69999999999999
20
-3.59303526241621
30
-1E-16
41
1
10
-1.69999999999999
20
-3.47480199284001
30
-1E-16
41
1
10
-1.69999999999999
20
-3.35573880021465
30
-1E-16
41
1
10
-1.69999999999999
20
-3.23584791746731
30
-1E-16
41
1
10
-1.69999999999999
20
-3.115131944757
30
-1E-16
41
1
10
-1.69999999999999
20
-2.99359419383882
30
-1E-16
41
1
10
-1.69999999999999
20
-2.8712390381817
30
-1E-16
41
1
10
-1.69999999999999
20
-2.74807047639385
30
-1E-16
41
1
10
-1.69999999999999
20
-2.62409374349514
30
-1E-16
41
1
10
-1.69999999999999
20
-2.52010001413041
30
-1E-16
41
1
10
-1.69999999999999
20
-2.43652877485601
30
-1E-16
41
1
10
-1.69999999999999
20
-2.38592944625577
30
-1E-16
41
1
10
-1.69999999999999
20
-2.35621957733798
30
-1E-16
41
1
10
-1.69999999999999
20
-2.34751168175018
30
-1E-16
0
SPLINE
5
BE
100
AcDbEntity
8
SK1
62
256
6
ByLayer
370
18
48
1
60
0
100
AcDbSpline
70
4
71
3
72
282
73
278
40
0
40
0
40
0
40
0
40
0.0005689210706919
40
0.0040614468881924
40
0.0075539727056927
40
0.0110464985231931
40
0.0145390243406935
40
0.0180315501581939
40
0.0215240759756943
40
0.0250166017931947
40
0.0320016534281955
40
0.0389867050631963
40
0.0459717566981971
40
0.0529568083331979
40
0.0564493341506982
40
0.0599418599681987
40
0.0634343857856991
40
0.0669269116031995
40
0.0739119632382002
40
0.0774044890557006
40
0.080897014873201
40
0.0843895406907014
40
0.0878820665082019
40
0.0913745923257022
40
0.0948671181432027
40
0.098359643960703
40
0.101852169778203
40
0.105344695595704
40
0.108837221413204
40
0.112329747230705
40
0.115822273048205
40
0.119314798865705
40
0.122807324683206
40
0.126299850500706
40
0.129792376318207
40
0.133284902135707
40
0.136777427953207
40
0.140269953770708
40
0.143762479588208
40
0.150747531223209
40
0.15773258285821
40
0.16122510867571
40
0.164717634493211
40
0.168210160310711
40
0.171702686128211
40
0.175195211945712
40
0.178687737763212
40
0.182180263580712
40
0.185672789398213
40
0.192657841033214
40
0.199642892668215
40
0.203135418485715
40
0.206627944303215
40
0.210120470120716
40
0.213612995938216
40
0.217105521755716
40
0.220598047573217
40
0.224090573390717
40
0.227583099208218
40
0.234568150843218
40
0.241553202478219
40
0.24504572829572
40
0.24853825411322
40
0.25203077993072
40
0.255523305748221
40
0.259015831565721
40
0.262508357383222
40
0.266000883200722
40
0.269493409018222
40
0.276478460653223
40
0.283463512288224
40
0.286956038105724
40
0.290448563923225
40
0.293941089740725
40
0.297433615558226
40
0.300926141375726
40
0.304418667193226
40
0.307911193010727
40
0.311403718828227
40
0.314896244645728
40
0.318388770463228
40
0.321881296280728
40
0.325373822098229
40
0.328866347915729
40
0.332358873733229
40
0.33585139955073
40
0.33934392536823
40
0.342836451185731
40
0.346328977003231
40
0.353314028638232
40
0.360299080273233
40
0.367284131908234
40
0.374269183543234
40
0.377761709360735
40
0.381254235178235
40
0.384746760995736
40
0.388239286813236
40
0.391731812630736
40
0.395224338448237
40
0.398716864265737
40
0.402209390083237
40
0.405701915900738
40
0.409194441718238
40
0.412686967535739
40
0.416179493353239
40
0.419672019170739
40
0.42316454498824
40
0.42665707080574
40
0.430149596623241
40
0.433642122440741
40
0.435388385349491
40
0.437134648258241
40
0.440627174075742
40
0.444119699893242
40
0.447612225710743
40
0.451104751528243
40
0.454597277345743
40
0.458089803163244
40
0.461582328980744
40
0.465074854798245
40
0.466821117706995
40
0.468567380615745
40
0.470313643524495
40
0.472059906433245
40
0.473806169341996
40
0.475552432250746
40
0.477298695159496
40
0.479044958068246
40
0.480791220976996
40
0.482537483885747
40
0.484283746794497
40
0.486030009703247
40
0.487776272611997
40
0.489522535520747
40
0.491268798429498
40
0.493015061338248
40
0.494761324246998
40
0.496507587155748
40
0.498253850064498
40
0.500000112973249
40
0.501746375881999
40
0.503492638790749
40
0.505238901699499
40
0.506985164608249
40
0.508731427517
40
0.51047769042575
40
0.5122239533345
40
0.51397021624325
40
0.515716479152
40
0.51746274206075
40
0.519209004969501
40
0.520955267878251
40
0.522701530787001
40
0.524447793695751
40
0.526194056604501
40
0.527940319513252
40
0.529686582422002
40
0.531432845330752
40
0.533179108239502
40
0.534925371148252
40
0.538417896965753
40
0.541910422783253
40
0.545402948600754
40
0.548895474418254
40
0.552388000235754
40
0.555880526053255
40
0.559373051870755
40
0.562865577688256
40
0.564611840597006
40
0.566358103505756
40
0.569850629323256
40
0.573343155140757
40
0.576835680958257
40
0.580328206775758
40
0.583820732593258
40
0.587313258410758
40
0.590805784228259
40
0.594298310045759
40
0.59779083586326
40
0.60128336168076
40
0.60477588749826
40
0.608268413315761
40
0.611760939133261
40
0.615253464950762
40
0.618745990768262
40
0.625731042403263
40
0.632716094038263
40
0.639701145673265
40
0.646686197308265
40
0.653671248943266
40
0.657163774760766
40
0.660656300578267
40
0.664148826395767
40
0.667641352213267
40
0.671133878030768
40
0.674626403848268
40
0.678118929665769
40
0.681611455483269
40
0.68510398130077
40
0.68859650711827
40
0.69208903293577
40
0.695581558753271
40
0.699074084570771
40
0.702566610388272
40
0.706059136205772
40
0.709551662023272
40
0.713044187840773
40
0.716536713658273
40
0.723521765293274
40
0.730506816928275
40
0.733999342745775
40
0.737491868563276
40
0.740984394380776
40
0.744476920198276
40
0.747969446015777
40
0.751461971833277
40
0.754954497650777
40
0.758447023468278
40
0.765432075103279
40
0.772417126738279
40
0.77590965255578
40
0.77940217837328
40
0.782894704190781
40
0.786387230008281
40
0.789879755825781
40
0.793372281643282
40
0.796864807460782
40
0.800357333278282
40
0.807342384913283
40
0.814327436548284
40
0.817819962365785
40
0.821312488183285
40
0.824805014000785
40
0.828297539818286
40
0.831790065635786
40
0.835282591453287
40
0.838775117270787
40
0.842267643088287
40
0.849252694723288
40
0.856237746358289
40
0.859730272175789
40
0.86322279799329
40
0.86671532381079
40
0.87020784962829
40
0.873700375445791
40
0.877192901263291
40
0.880685427080792
40
0.884177952898292
40
0.887670478715792
40
0.891163004533293
40
0.894655530350793
40
0.898148056168294
40
0.901640581985794
40
0.905133107803294
40
0.908625633620795
40
0.912118159438295
40
0.915610685255796
40
0.919103211073296
40
0.922595736890796
40
0.926088262708297
40
0.933073314343298
40
0.936565840160798
40
0.940058365978298
40
0.943550891795799
40
0.947043417613299
40
0.9540284692483
40
0.961013520883301
40
0.967998572518301
40
0.974983624153302
40
0.978476149970803
40
0.981968675788303
40
0.985461201605803
40
0.988953727423304
40
0.992446253240804
40
0.995938779058305
40
0.999431304875805
40
1
40
1
40
1
40
1
41
1
10
-18
20
-10.6091545223573
30
-2E-16
41
1
10
-18
20
-10.6092716930764
30
-2E-16
41
1
10
-18
20
-10.6100564998377
30
-2E-16
41
1
10
-18
20
-10.6108322853176
30
-2E-16
41
1
10
-18
20
-10.6103051294408
30
0
41
1
10
-18
20
-10.6082029107285
30
0
41
1
10
-18
20
-10.6045521568697
30
0
41
1
10
-18
20
-10.5993778692674
30
0
41
1
10
-18
20
-10.592703485268
30
0
41
1
10
-18
20
-10.5818120325131
30
0
41
1
10
-18
20
-10.5646169600635
30
0
41
1
10
-18
20
-10.5383008623823
30
0
41
1
10
-18
20
-10.506489279177
30
0
41
1
10
-18
20
-10.4755678604265
30
0
41
1
10
-18
20
-10.4481323749746
30
0
41
1
10
-18
20
-10.4263041143214
30
0
41
1
10
-18
20
-10.4032013500169
30
0
41
1
10
-18
20
-10.3706596087076
30
0
41
1
10
-18
20
-10.3358095016122
30
0
41
1
10
-18
20
-10.2983352440808
30
0
41
1
10
-18
20
-10.2690719526608
30
0
41
1
10
-18
20
-10.2386154290236
30
0
41
1
10
-18
20
-10.2069776182064
30
0
41
1
10
-18
20
-10.1741699845987
30
0
41
1
10
-18
20
-10.1402037914164
30
0
41
1
10
-18
20
-10.1050900925226
30
0
41
1
10
-18
20
-10.0688389871438
30
0
41
1
10
-18
20
-10.0314612764173
30
0
41
1
10
-18
20
-9.99296649945873
30
0
41
1
10
-18
20
-9.95336439144063
30
0
41
1
10
-18
20
-9.91266446536125
30
0
41
1
10
-18
20
-9.87087543880676
30
-2E-16
41
1
10
-18
20
-9.82800620569321
30
-2E-16
41
1
10
-18
20
-9.78406562726659
30
-2E-16
41
1
10
-18
20
-9.73906156658435
30
-2E-16
41
1
10
-18
20
-9.69300261323349
30
-2E-16
41
1
10
-18
20
-9.6458964026537
30
-2E-16
41
1
10
-18
20
-9.59775041479642
30
-2E-16
41
1
10
-18
20
-9.5320773748978
30
-2E-16
41
1
10
-18
20
-9.44765447086007
30
-2E-16
41
1
10
-18
20
-9.3598674830186
30
-2E-16
41
1
10
-18
20
-9.28744513180197
30
-2E-16
41
1
10
-18
20
-9.23221918172709
30
-2E-16
41
1
10
-18
20
-9.17600806496941
30
-2E-16
41
1
10
-18
20
-9.1188172233754
30
-2E-16
41
1
10
-18
20
-9.06065319401594
30
-2E-16
41
1
10
-18
20
-9.00152152233744
30
-2E-16
41
1
10
-18
20
-8.94142742966559
30
-2E-16
41
1
10
-18
20
-8.85990366278926
30
-2E-16
41
1
10
-18
20
-8.75589865176036
30
-2E-16
41
1
10
-18
20
-8.64876091292308
30
-2E-16
41
1
10
-18
20
-8.56095252446428
30
-2E-16
41
1
10
-18
20
-8.4942680885093
30
-2E-16
41
1
10
-18
20
-8.42666166687422
30
-2E-16
41
1
10
-18
20
-8.35813711319386
30
-2E-16
41
1
10
-18
20
-8.28869944694208
30
-2E-16
41
1
10
-18
20
-8.21835290126668
30
-2E-16
41
1
10
-18
20
-8.14710119768421
30
-2E-16
41
1
10
-18
20
-8.05075299167547
30
-2E-16
41
1
10
-18
20
-7.9284057431208
30
-2E-16
41
1
10
-18
20
-7.80309789738925
30
-2E-16
41
1
10
-18
20
-7.70081041299485
30
-2E-16
41
1
10
-18
20
-7.62333367085023
30
-2E-16
41
1
10
-18
20
-7.54498256644959
30
-2E-16
41
1
10
-18
20
-7.46575986597483
30
-2E-16
41
1
10
-18
20
-7.3856695697848
30
-2E-16
41
1
10
-18
20
-7.3047149669423
30
-2E-16
41
1
10
-18
20
-7.22289882691013
30
-2E-16
41
1
10
-18
20
-7.11249588450139
30
-2E-16
41
1
10
-18
20
-6.97274642193665
30
-2E-16
41
1
10
-18
20
-6.83016810635769
30
-2E-16
41
1
10
-18
20
-6.71409020409422
30
-2E-16
41
1
10
-18
20
-6.62633153834341
30
-2E-16
41
1
10
-18
20
-6.53773584474615
30
-2E-16
41
1
10
-18
20
-6.44830545225392
30
-2E-16
41
1
10
-18
20
-6.35804365721182
30
-2E-16
41
1
10
-18
20
-6.26695319447285
30
7E-16
41
1
10
-18
20
-6.17503662085343
30
7E-16
41
1
10
-18
20
-6.08229711859906
30
7E-16
41
1
10
-18
20
-5.98873701214285
30
7E-16
41
1
10
-18
20
-5.89435900496744
30
7E-16
41
1
10
-18
20
-5.79916628067869
30
7E-16
41
1
10
-18
20
-5.70316105559499
30
7E-16
41
1
10
-18
20
-5.60634647599673
30
7E-16
41
1
10
-18
20
-5.50872530998984
30
7E-16
41
1
10
-18
20
-5.41030022073681
30
7E-16
41
1
10
-18
20
-5.31107460858115
30
7E-16
41
1
10
-18
20
-5.2110504888509
30
7E-16
41
1
10
-18
20
-5.07638402809525
30
7E-16
41
1
10
-18
20
-4.90663494713598
30
7E-16
41
1
10
-18
20
-4.69948150824786
30
7E-16
41
1
10
-18
20
-4.48921431467912
30
7E-16
41
1
10
-18
20
-4.31169460692027
30
7E-16
41
1
10
-18
20
-4.16763243265373
30
7E-16
41
1
10
-18
20
-4.05905436847678
30
7E-16
41
1
10
-18
20
-3.94972277737918
30
7E-16
41
1
10
-18
20
-3.83964235720097
30
7E-16
41
1
10
-18
20
-3.72881992966333
30
7E-16
41
1
10
-18
20
-3.61726245308643
30
7E-16
41
1
10
-18
20
-3.50497537086059
30
7E-16
41
1
10
-18
20
-3.39196474884636
30
7E-16
41
1
10
-18
20
-3.27823874237262
30
7E-16
41
1
10
-18
20
-3.1638065993838
30
7E-16
41
1
10
-18
20
-3.04867826135629
30
7E-16
41
1
10
-18
20
-2.93286301922586
30
7E-16
41
1
10
-18
20
-2.81636991600769
30
7E-16
41
1
10
-18
20
-2.69921210979672
30
7E-16
41
1
10
-18
20
-2.58140376430018
30
7E-16
41
1
10
-18
20
-2.4629597502701
30
7E-16
41
1
10
-18
20
-2.36395705803145
30
7E-16
41
1
10
-18
20
-2.28404204181248
30
7E-16
41
1
10
-18
20
-2.20393495183686
30
7E-16
41
1
10
-18
20
-2.10398004111116
30
7E-16
41
1
10
-18
20
-1.98317119500538
30
7E-16
41
1
10
-18
20
-1.86182467095802
30
7E-16
41
1
10
-18
20
-1.73996860709434
30
7E-16
41
1
10
-18
20
-1.61763137476078
30
7E-16
41
1
10
-18
20
-1.49484382588881
30
7E-16
41
1
10
-18
20
-1.37164017880389
30
7E-16
41
1
10
-18
20
-1.26895273622944
30
7E-16
41
1
10
-18
20
-1.186063589047
30
7E-16
41
1
10
-18
20
-1.12406372316545
30
7E-16
41
1
10
-18
20
-1.06198969497243
30
7E-16
41
1
10
-18
20
-0.999845111434894
30
7E-16
41
1
10
-18
20
-0.937636300485195
30
7E-16
41
1
10
-18
20
-0.875367170941672
30
7E-16
41
1
10
-18
20
-0.813044890326779
30
7E-16
41
1
10
-18
20
-0.75067256225924
30
7E-16
41
1
10
-18
20
-0.688256665460784
30
7E-16
41
1
10
-18
20
-0.62580094788143
30
7E-16
41
1
10
-18
20
-0.563310894882505
30
7E-16
41
1
10
-18
20
-0.500790472931612
30
7E-16
41
1
10
-18
20
-0.438244302653686
30
7E-16
41
1
10
-18
20
-0.375676054943824
30
7E-16
41
1
10
-18
20
-0.313089739834197
30
7E-16
41
1
10
-18
20
-0.250488634444707
30
7E-16
41
1
10
-18
20
-0.187876220606341
30
7E-16
41
1
10
-18
20
-0.125255331589216
30
7E-16
41
1
10
-18
20
-0.0626290271069365
30
7E-16
41
1
10
-18
20
3.20922311E-08
30
7E-16
41
1
10
-18
20
0.0626290839053922
30
7E-16
41
1
10
-18
20
0.125255374427184
30
7E-16
41
1
10
-18
20
0.187876264694836
30
7E-16
41
1
10
-18
20
0.250488699287644
30
7E-16
41
1
10
-18
20
0.313089809374958
30
7E-16
41
1
10
-18
20
0.375676097210004
30
7E-16
41
1
10
-18
20
0.43824433367962
30
7E-16
41
1
10
-18
20
0.500790536511772
30
7E-16
41
1
10
-18
20
0.563310977461924
30
7E-16
41
1
10
-18
20
0.625800994862885
30
7E-16
41
1
10
-18
20
0.688256683922077
30
7E-16
41
1
10
-18
20
0.750672614854494
30
7E-16
41
1
10
-18
20
0.813044982640463
30
7E-16
41
1
10
-18
20
0.87536723489913
30
7E-16
41
1
10
-18
20
0.937636316394475
30
7E-16
41
1
10
-18
20
0.999845142204208
30
7E-16
41
1
10
-18
20
1.06198977283731
30
7E-16
41
1
10
-18
20
1.12406381547396
30
7E-16
41
1
10
-18
20
1.18606363592943
30
7E-16
41
1
10
-18
20
1.26895275020124
30
7E-16
41
1
10
-18
20
1.37164025517353
30
7E-16
41
1
10
-18
20
1.49484387929499
30
7E-16
41
1
10
-18
20
1.61763140130913
30
7E-16
41
1
10
-18
20
1.73996869594836
30
7E-16
41
1
10
-18
20
1.86182470164047
30
7E-16
41
1
10
-18
20
1.98317122682144
30
7E-16
41
1
10
-18
20
2.10398013562451
30
7E-16
41
1
10
-18
20
2.20393499577068
30
7E-16
41
1
10
-18
20
2.2840420412912
30
7E-16
41
1
10
-18
20
2.36395709248046
30
7E-16
41
1
10
-18
20
2.46295993427742
30
7E-16
41
1
10
-18
20
2.58140420660004
30
7E-16
41
1
10
-18
20
2.69921228427648
30
7E-16
41
1
10
-18
20
2.81636932516915
30
7E-16
41
1
10
-18
20
2.93286234661062
30
7E-16
41
1
10
-18
20
3.04867846612532
30
7E-16
41
1
10
-18
20
3.16380725793991
30
7E-16
41
1
10
-18
20
3.27823925856785
30
7E-16
41
1
10
-18
20
3.39196471421937
30
7E-16
41
1
10
-18
20
3.5049748957627
30
7E-16
41
1
10
-18
20
3.61726252861362
30
7E-16
41
1
10
-18
20
3.72882077112345
30
7E-16
41
1
10
-18
20
3.83964277700957
30
7E-16
41
1
10
-18
20
3.94972228937704
30
7E-16
41
1
10
-18
20
4.09581338934953
30
7E-16
41
1
10
-18
20
4.27586319348595
30
7E-16
41
1
10
-18
20
4.48921424352019
30
7E-16
41
1
10
-18
20
4.69948157884701
30
7E-16
41
1
10
-18
20
4.9066349784587
30
7E-16
41
1
10
-18
20
5.07638404339966
30
7E-16
41
1
10
-18
20
5.21105054825134
30
7E-16
41
1
10
-18
20
5.31107465945468
30
7E-16
41
1
10
-18
20
5.41030024314784
30
7E-16
41
1
10
-18
20
5.50872532385608
30
7E-16
41
1
10
-18
20
5.60634650403392
30
7E-16
41
1
10
-18
20
5.70316110146723
30
7E-16
41
1
10
-18
20
5.79916633117398
30
7E-16
41
1
10
-18
20
5.89435903702207
30
7E-16
41
1
10
-18
20
5.98873702476692
30
7E-16
41
1
10
-18
20
6.08229713807037
30
7E-16
41
1
10
-18
20
6.17503665947791
30
7E-16
41
1
10
-18
20
6.26695324021441
30
7E-16
41
1
10
-18
20
6.35804369451674
30
-2E-16
41
1
10
-18
20
6.44830547511725
30
-2E-16
41
1
10
-18
20
6.53773585931214
30
-2E-16
41
1
10
-18
20
6.62633156228856
30
-2E-16
41
1
10
-18
20
6.71409024311311
30
-2E-16
41
1
10
-18
20
6.83016814404567
30
-2E-16
41
1
10
-18
20
6.97274644349409
30
-2E-16
41
1
10
-18
20
7.11249590401042
30
-2E-16
41
1
10
-18
20
7.22289886113486
30
-2E-16
41
1
10
-18
20
7.30471500134038
30
-2E-16
41
1
10
-18
20
7.3856695958325
30
-2E-16
41
1
10
-18
20
7.4657598851355
30
-2E-16
41
1
10
-18
20
7.54498258382409
30
-2E-16
41
1
10
-18
20
7.62333369313473
30
-2E-16
41
1
10
-18
20
7.70081044177078
30
-2E-16
41
1
10
-18
20
7.80309792535269
30
-2E-16
41
1
10
-18
20
7.92840576311144
30
-2E-16
41
1
10
-18
20
8.05075300914629
30
-2E-16
41
1
10
-18
20
8.14710122037499
30
-2E-16
41
1
10
-18
20
8.21835292520672
30
-2E-16
41
1
10
-18
20
8.28869946906789
30
-2E-16
41
1
10
-18
20
8.35813713243078
30
-2E-16
41
1
10
-18
20
8.42666168347023
30
-2E-16
41
1
10
-18
20
8.49426810443586
30
-2E-16
41
1
10
-18
20
8.56095254151674
30
-2E-16
41
1
10
-18
20
8.64876093189611
30
-2E-16
41
1
10
-18
20
8.75589867127121
30
-2E-16
41
1
10
-18
20
8.8599036769107
30
-2E-16
41
1
10
-18
20
8.94142744136704
30
-2E-16
41
1
10
-18
20
9.00152153550755
30
-2E-16
41
1
10
-18
20
9.06065321078685
30
-2E-16
41
1
10
-18
20
9.11881724129319
30
-2E-16
41
1
10
-18
20
9.17600808045955
30
-2E-16
41
1
10
-18
20
9.23221919243571
30
-2E-16
41
1
10
-18
20
9.28744513847656
30
-2E-16
41
1
10
-18
20
9.3598674920926
30
-2E-16
41
1
10
-18
20
9.44765448811151
30
-2E-16
41
1
10
-18
20
9.53207738577578
30
-2E-16
41
1
10
-18
20
9.59775041693439
30
-2E-16
41
1
10
-18
20
9.64589640582304
30
-2E-16
41
1
10
-18
20
9.69300262436195
30
-2E-16
41
1
10
-18
20
9.73906158174464
30
-2E-16
41
1
10
-18
20
9.7840656391997
30
-2E-16
41
1
10
-18
20
9.82800620980919
30
-2E-16
41
1
10
-18
20
9.87087543598923
30
-2E-16
41
1
10
-18
20
9.91266446512716
30
0
41
1
10
-18
20
9.95336440120047
30
0
41
1
10
-18
20
9.99296651357056
30
0
41
1
10
-18
20
10.0314612838791
30
0
41
1
10
-18
20
10.0688389854125
30
0
41
1
10
-18
20
10.1050900859652
30
0
41
1
10
-18
20
10.1402037904431
30
0
41
1
10
-18
20
10.1741699954592
30
0
41
1
10
-18
20
10.2069776298432
30
0
41
1
10
-18
20
10.2386154287957
30
0
41
1
10
-18
20
10.2690719430376
30
0
41
1
10
-18
20
10.2983352374592
30
0
41
1
10
-18
20
10.3358095061466
30
0
41
1
10
-18
20
10.3706596194956
30
0
41
1
10
-18
20
10.4032013384501
30
0
41
1
10
-18
20
10.4263041000347
30
0
41
1
10
-18
20
10.4481323745122
30
0
41
1
10
-18
20
10.4755678718975
30
0
41
1
10
-18
20
10.5064892630525
30
0
41
1
10
-18
20
10.5383008597592
30
0
41
1
10
-18
20
10.5646169538388
30
0
41
1
10
-18
20
10.5818120868309
30
0
41
1
10
-18
20
10.592703758728
30
0
41
1
10
-18
20
10.599378203272
30
0
41
1
10
-18
20
10.6045523963069
30
0
41
1
10
-18
20
10.6082029915013
30
0
41
1
10
-18
20
10.6103050545653
30
0
41
1
10
-18
20
10.6108321487841
30
-2E-16
41
1
10
-18
20
10.6100564656712
30
-2E-16
41
1
10
-18
20
10.6092717701621
30
-2E-16
41
1
10
-18
20
10.6091546583187
30
-2E-16
0
SPLINE
5
BF
100
AcDbEntity
8
SK1
62
256
6
ByLayer
370
18
48
1
60
0
100
AcDbSpline
70
4
71
3
72
28
73
24
40
0
40
0
40
0
40
0
40
0.03125
40
0.03125
40
0.0625
40
0.0625
40
0.09375
40
0.09375
40
0.125
40
0.125
40
0.15625
40
0.15625
40
0.1875
40
0.1875
40
0.25
40
0.25
40
0.375000000000001
40
0.375000000000001
40
0.500000000000001
40
0.500000000000001
40
0.75
40
0.75
40
1
40
1
40
1
40
1
41
1
10
-0.394976888875306
20
-4.64126630128334
30
0
41
1
10
-0.410538103580563
20
-4.65364186521262
30
0
41
1
10
-0.427010604500822
20
-4.665082487902
30
0
41
1
10
-0.462648633838029
20
-4.68523662122519
30
0
41
1
10
-0.481821634374171
20
-4.69389268221391
30
0
41
1
10
-0.522184828139018
20
-4.706347312541
30
0
41
1
10
-0.544038833004549
20
-4.71022283513202
30
0
41
1
10
-0.587715077659595
20
-4.71138007136679
30
0
41
1
10
-0.609988656333798
20
-4.70866658407053
30
0
41
1
10
-0.651936333293094
20
-4.69780462997821
30
0
41
1
10
-0.672053792922554
20
-4.68964247903685
30
0
41
1
10
-0.709050896813835
20
-4.67034838331301
30
0
41
1
10
-0.726206785925058
20
-4.65916835210865
30
0
41
1
10
-0.774929279627884
20
-4.62246089456249
30
0
41
1
10
-0.802611101405375
20
-4.59486378444373
30
0
41
1
10
-0.878364934839794
20
-4.50792816081184
30
-1E-16
41
1
10
-0.91950832472844
20
-4.44378947618989
30
-1E-16
41
1
10
-0.992167313863234
20
-4.31355680330893
30
-1E-16
41
1
10
-1.02373064440482
20
-4.24668451829362
30
-1E-16
41
1
10
-1.11033810342741
20
-4.04239794781449
30
-1E-16
41
1
10
-1.15739594615658
20
-3.90123471857601
30
-1E-16
41
1
10
-1.24036363182
20
-3.61194658874774
30
-1E-16
41
1
10
-1.27578264448559
20
-3.46438627450036
30
-1E-16
41
1
10
-1.30710678118655
20
-3.31403252781453
30
-1E-16
0
SPLINE
5
C0
100
AcDbEntity
8
SK1
62
256
6
ByLayer
370
18
48
1
60
0
100
AcDbSpline
70
4
71
3
72
8
73
4
40
0
40
0
40
0
40
0
40
1
40
1
40
1
40
1
41
1
10
-1.30710678118655
20
3.31403271963524
30
-1E-16
41
1
10
-1.37243719891021
20
3.00044806563702
30
-1E-16
41
1
10
-1.43626555044062
20
2.67902815239273
30
-1E-16
41
1
10
-1.49503997793928
20
2.34749778874226
30
-1E-16
0
SPLINE
5
C1
100
AcDbEntity
8
SK1
62
256
6
ByLayer
370
13
48
1
60
0
100
AcDbSpline
70
4
71
3
72
106
73
102
40
0
40
0
40
0
40
0
40
0.0011893077579429
40
0.0056413561598319
40
0.0145454529636097
40
0.0234495497673876
40
0.0323536465711654
40
0.0412577433749433
40
0.0501618401787212
40
0.059065936982499
40
0.0679700337862769
40
0.0768741305900548
40
0.0857782273938326
40
0.0946823241976105
40
0.103586421001388
40
0.112490517805166
40
0.121394614608944
40
0.130298711412722
40
0.1392028082165
40
0.157011001824056
40
0.174819195431611
40
0.192627389039167
40
0.210435582646723
40
0.228243776254278
40
0.237147873058056
40
0.246051969861834
40
0.254956066665612
40
0.26386016346939
40
0.272764260273168
40
0.281668357076946
40
0.290572453880724
40
0.299476550684501
40
0.308380647488279
40
0.317284744292057
40
0.326188841095835
40
0.335092937899613
40
0.343997034703391
40
0.352901131507169
40
0.361805228310946
40
0.370709325114724
40
0.379613421918502
40
0.38851751872228
40
0.406325712329836
40
0.424133905937391
40
0.433038002741169
40
0.441942099544947
40
0.450846196348725
40
0.459750293152503
40
0.468654389956281
40
0.477558486760059
40
0.486462583563836
40
0.495366680367614
40
0.51317487397517
40
0.530983067582726
40
0.539887164386504
40
0.548791261190281
40
0.557695357994059
40
0.566599454797837
40
0.575503551601615
40
0.584407648405393
40
0.593311745209171
40
0.602215842012949
40
0.620024035620505
40
0.63783222922806
40
0.646736326031838
40
0.655640422835616
40
0.664544519639394
40
0.673448616443172
40
0.682352713246949
40
0.691256810050727
40
0.700160906854505
40
0.709065003658283
40
0.726873197265839
40
0.744681390873394
40
0.753585487677172
40
0.76248958448095
40
0.771393681284728
40
0.780297778088506
40
0.789201874892284
40
0.798105971696062
40
0.80701006849984
40
0.815914165303617
40
0.824818262107395
40
0.833722358911173
40
0.842626455714951
40
0.851530552518729
40
0.860434649322507
40
0.869338746126284
40
0.878242842930063
40
0.88714693973384
40
0.896051036537618
40
0.904955133341396
40
0.913859230145174
40
0.922763326948952
40
0.940571520556508
40
0.949475617360285
40
0.958379714164063
40
0.967283810967841
40
0.976187907771619
40
0.993996101379175
40
1
40
1
40
1
40
1
41
1
10
-1.49503997793928
20
2.34749778874223
30
-1E-16
41
1
10
-1.49503997793928
20
2.35297427447952
30
-1E-16
41
1
10
-1.49503997793928
20
2.37894315632079
30
-1E-16
41
1
10
-1.49503997793928
20
2.44578144693816
30
-1E-16
41
1
10
-1.49503997793928
20
2.54739968477233
30
-1E-16
41
1
10
-1.49503997793928
20
2.66874317257182
30
-1E-16
41
1
10
-1.49503997793928
20
2.78936037077261
30
-1E-16
41
1
10
-1.49503997793928
20
2.90924142661461
30
-1E-16
41
1
10
-1.49503997793928
20
3.02837792756958
30
-1E-16
41
1
10
-1.49503997793928
20
3.1467617159237
30
-1E-16
41
1
10
-1.49503997793928
20
3.26438606521717
30
-1E-16
41
1
10
-1.49503997793928
20
3.38124503613648
30
-1E-16
41
1
10
-1.49503997793928
20
3.49733277811788
30
-1E-16
41
1
10
-1.49503997793928
20
3.61264394142361
30
-1E-16
41
1
10
-1.49503997793928
20
3.72717408116662
30
-1E-16
41
1
10
-1.49503997793928
20
3.84091905980895
30
-1E-16
41
1
10
-1.49503997793928
20
3.9538749194972
30
-1E-16
41
1
10
-1.49503997793928
20
4.06603787841615
30
-1E-16
41
1
10
-1.49503997793928
20
4.21466878117025
30
-1E-16
41
1
10
-1.49503997793928
20
4.39815363484092
30
-1E-16
41
1
10
-1.49503997793928
20
4.61526983908041
30
-1E-16
41
1
10
-1.49503997793928
20
4.82914721456726
30
-1E-16
41
1
10
-1.49503997793928
20
5.03976746321263
30
-1E-16
41
1
10
-1.49503997793928
20
5.21243881483207
30
-1E-16
41
1
10
-1.49503997793928
20
5.34913293126229
30
-1E-16
41
1
10
-1.49503997793928
20
5.45074779186143
30
-1E-16
41
1
10
-1.49503997793928
20
5.5515356485646
30
-1E-16
41
1
10
-1.49503997793928
20
5.65149506497363
30
-1E-16
41
1
10
-1.49503997793928
20
5.75062383535882
30
-1E-16
41
1
10
-1.49503997793928
20
5.84891999499698
30
-1E-16
41
1
10
-1.49503997793928
20
5.94638166396857
30
-1E-16
41
1
10
-1.49503997793928
20
6.04300653314334
30
-1E-16
41
1
10
-1.49503997793928
20
6.13879288798532
30
-1E-16
41
1
10
-1.49503997793928
20
6.23373851513244
30
-1E-16
41
1
10
-1.49503997793928
20
6.32784123546003
30
-1E-16
41
1
10
-1.49503997793928
20
6.42109920426941
30
-1E-16
41
1
10
-1.49503997793928
20
6.51351005185586
30
-1E-16
41
1
10
-1.49503997793928
20
6.60507160913491
30
-1E-16
41
1
10
-1.49503997793928
20
6.69578177753257
30
-1E-16
41
1
10
-1.49503997793928
20
6.78563790735643
30
-1E-16
41
1
10
-1.49503997793928
20
6.87463790137696
30
-1E-16
41
1
10
-1.49503997793928
20
6.99224347204341
30
-1E-16
41
1
10
-1.49503997793928
20
7.13691290674728
30
-1E-16
41
1
10
-1.49503997793928
20
7.27869564084133
30
-1E-16
41
1
10
-1.49503997793928
20
7.39051935158955
30
-1E-16
41
1
10
-1.49503997793928
20
7.47345540258758
30
-1E-16
41
1
10
-1.49503997793928
20
7.55551412703409
30
-1E-16
41
1
10
-1.49503997793928
20
7.63669277063221
30
-1E-16
41
1
10
-1.49503997793928
20
7.71698853718178
30
-1E-16
41
1
10
-1.49503997793928
20
7.79639784158888
30
-1E-16
41
1
10
-1.49503997793928
20
7.87491789553505
30
-1E-16
41
1
10
-1.49503997793928
20
7.97849123285059
30
-1E-16
41
1
10
-1.49503997793928
20
8.10556188703811
30
-1E-16
41
1
10
-1.49503997793928
20
8.22962446603972
30
-1E-16
41
1
10
-1.49503997793928
20
8.32717256436729
30
-1E-16
41
1
10
-1.49503997793928
20
8.39937085059915
30
-1E-16
41
1
10
-1.49503997793928
20
8.47065101373664
30
-1E-16
41
1
10
-1.49503997793928
20
8.5410092251428
30
-1E-16
41
1
10
-1.49503997793928
20
8.61044160824594
30
-1E-16
41
1
10
-1.49503997793928
20
8.67894340179043
30
-1E-16
41
1
10
-1.49503997793928
20
8.74651063563283
30
-1E-16
41
1
10
-1.49503997793928
20
8.83540723159925
30
-1E-16
41
1
10
-1.49503997793928
20
8.94403651531519
30
-1E-16
41
1
10
-1.49503997793928
20
9.04949076260129
30
-1E-16
41
1
10
-1.49503997793928
20
9.13202746880455
30
-1E-16
41
1
10
-1.49503997793928
20
9.19292022720256
30
-1E-16
41
1
10
-1.49503997793928
20
9.25283895193832
30
-1E-16
41
1
10
-1.49503997793928
20
9.31177823255615
30
-1E-16
41
1
10
-1.49503997793928
20
9.36973273113713
30
-1E-16
41
1
10
-1.49503997793928
20
9.42669605087167
30
-1E-16
41
1
10
-1.49503997793928
20
9.48266256563366
30
-1E-16
41
1
10
-1.49503997793928
20
9.55599654929009
30
-1E-16
41
1
10
-1.49503997793928
20
9.64502984201664
30
-1E-16
41
1
10
-1.49503997793928
20
9.73065761931014
30
-1E-16
41
1
10
-1.49503997793928
20
9.79716969618076
30
-1E-16
41
1
10
-1.49503997793928
20
9.84597558452433
30
-1E-16
41
1
10
-1.49503997793928
20
9.89373010726783
30
-1E-16
41
1
10
-1.49503997793928
20
9.94042557325719
30
-1E-16
41
1
10
-1.49503997793928
20
9.9860543789782
30
-1E-16
41
1
10
-1.49503997793928
20
10.0306078935895
30
-1E-16
41
1
10
-1.49503997793928
20
10.0740780611805
30
-1E-16
41
1
10
-1.49503997793928
20
10.1164560583904
30
-1E-16
41
1
10
-1.49503997793928
20
10.1577327948517
30
-1E-16
41
1
10
-1.49503997793928
20
10.1978993403383
30
-1E-16
41
1
10
-1.49503997793928
20
10.2369461598887
30
-1E-16
41
1
10
-1.49503997793928
20
10.274863259213
30
-1E-16
41
1
10
-1.49503997793928
20
10.3116409824532
30
-1E-16
41
1
10
-1.49503997793928
20
10.3472683821575
30
-1E-16
41
1
10
-1.49503997793928
20
10.3817350495075
30
-1E-16
41
1
10
-1.49503997793928
20
10.4150297588919
30
-1E-16
41
1
10
-1.49503997793928
20
10.4471409696622
30
0
41
1
10
-1.49503997793928
20
10.4780569133
30
0
41
1
10
-1.49503997793928
20
10.5077654352017
30
0
41
1
10
-1.49503997793928
20
10.5457784732404
30
0
41
1
10
-1.49503997793928
20
10.5812410280458
30
0
41
1
10
-1.49503997793928
20
10.6142632763632
30
0
41
1
10
-1.49503997793928
20
10.6377347570968
30
0
41
1
10
-1.49503997793928
20
10.659915170864
30
0
41
1
10
-1.49503997793928
20
10.6877698984218
30
0
41
1
10
-1.49503997793928
20
10.7108900658989
30
0
41
1
10
-1.49503997793928
20
10.7261081907861
30
0
41
1
10
-1.49503997793928
20
10.729841788735
30
0
0
SPLINE
5
C2
100
AcDbEntity
8
SK1
62
256
6
ByLayer
370
18
48
1
60
0
100
AcDbSpline
70
4
71
3
72
16
73
12
40
0
40
0
40
0
40
0
40
0.118622628907216
40
0.297576478956771
40
0.476530329006327
40
0.566007254031105
40
0.655484179055883
40
0.744961104080659
40
0.834438029105438
40
0.923914954130215
40
1
40
1
40
1
40
1
41
1
10
-1.49503997793928
20
10.7298414686173
30
0
41
1
10
-1.49503997793928
20
10.737182232475
30
0
41
1
10
-1.49503997793928
20
10.7545940822048
30
0
41
1
10
-1.49503997793928
20
10.7783612085532
30
-1E-16
41
1
10
-1.49503997793928
20
10.7958810888031
30
-1E-16
41
1
10
-1.49503997793928
20
10.8069601105976
30
-1E-16
41
1
10
-1.49503997793928
20
10.8137595050794
30
-1E-16
41
1
10
-1.49503997793928
20
10.8190321898994
30
-1E-16
41
1
10
-1.49503997793928
20
10.8227534746688
30
-1E-16
41
1
10
-1.49503997793926
20
10.8247900473616
30
-1E-16
41
1
10
-1.49503997793926
20
10.8251957996947
30
-1E-16
41
1
10
-1.49503997793926
20
10.8251856883703
30
-1E-16
0
SPLINE
5
C3
100
AcDbEntity
8
SK1
62
256
6
ByLayer
370
18
48
1
60
0
100
AcDbSpline
70
4
71
3
72
30
73
26
40
0
40
0
40
0
40
0
40
0.250000000000013
40
0.250000000000013
40
0.375000000000021
40
0.375000000000021
40
0.437500000000023
40
0.437500000000023
40
0.468750000000025
40
0.468750000000025
40
0.500000000000026
40
0.500000000000026
40
0.515625000000025
40
0.515625000000025
40
0.531250000000024
40
0.531250000000024
40
0.546875000000023
40
0.546875000000023
40
0.562500000000022
40
0.562500000000022
40
0.625000000000019
40
0.625000000000019
40
0.750000000000013
40
0.750000000000013
40
1
40
1
40
1
40
1
41
1
10
-1.49503997793931
20
2.3474977887422
30
-1E-16
41
1
10
-1.51026622701841
20
2.2616107098022
30
-1E-16
41
1
10
-1.52656456425203
20
2.17591837283686
30
-1E-16
41
1
10
-1.55502350324258
20
2.0491015211598
30
-1E-16
41
1
10
-1.5651524500386
20
2.00704316685878
30
-1E-16
41
1
10
-1.5828414573366
20
1.94546560785196
30
-1E-16
41
1
10
-1.58913338529337
20
1.92520635057335
30
-1E-16
41
1
10
-1.6000168876086
20
1.89586019314885
30
-1E-16
41
1
10
-1.60388081298512
20
1.88626855833914
30
-1E-16
41
1
10
-1.61252833179685
20
1.8679665481456
30
-1E-16
41
1
10
-1.61726538174457
20
1.85911369906154
30
-1E-16
41
1
10
-1.6260421490887
20
1.84834715114525
30
-1E-16
41
1
10
-1.6293017707618
20
1.84512630100258
30
-1E-16
41
1
10
-1.63680843250094
20
1.84137683090361
30
-1E-16
41
1
10
-1.64117553963121
20
1.84118889478336
30
-1E-16
41
1
10
-1.64912521229266
20
1.84592799286963
30
-1E-16
41
1
10
-1.65244707684408
20
1.85033762500731
30
-1E-16
41
1
10
-1.65786489797694
20
1.85988754180067
30
-1E-16
41
1
10
-1.66008884696504
20
1.86520158775258
30
-1E-16
41
1
10
-1.66974701779969
20
1.89198140797458
30
-1E-16
41
1
10
-1.67393397902595
20
1.9151486728656
30
-1E-16
41
1
10
-1.68475730363912
20
1.98342364346891
30
-1E-16
41
1
10
-1.68861901323911
20
2.02910574454484
30
-1E-16
41
1
10
-1.69771675857876
20
2.16623612355892
30
-1E-16
41
1
10
-1.69961052068049
20
2.25712412228782
30
-1E-16
41
1
10
-1.69999999999999
20
2.34751178615272
30
-1E-16
0
SPLINE
5
C4
100
AcDbEntity
8
SK1
62
256
6
ByLayer
370
13
48
1
60
0
100
AcDbSpline
70
4
71
3
72
87
73
83
40
0
40
0
40
0
40
0
40
0.0205878931275042
40
0.0422076488703963
40
0.0638274046132884
40
0.0746372824847345
40
0.0854471603561805
40
0.0962570382276266
40
0.107066916099073
40
0.117876793970519
40
0.128686671841965
40
0.139496549713411
40
0.150306427584857
40
0.161116305456303
40
0.171926183327749
40
0.182736061199195
40
0.193545939070641
40
0.204355816942087
40
0.215165694813533
40
0.225975572684979
40
0.236785450556425
40
0.247595328427871
40
0.258405206299317
40
0.28002496204221
40
0.301644717785102
40
0.312454595656548
40
0.323264473527994
40
0.33407435139944
40
0.344884229270886
40
0.355694107142332
40
0.366503985013778
40
0.377313862885224
40
0.38812374075667
40
0.409743496499562
40
0.431363252242454
40
0.4421731301139
40
0.452983007985346
40
0.463792885856793
40
0.474602763728239
40
0.485412641599685
40
0.496222519471131
40
0.507032397342577
40
0.517842275214023
40
0.539462030956915
40
0.561081786699807
40
0.571891664571253
40
0.582701542442699
40
0.593511420314145
40
0.604321298185591
40
0.615131176057037
40
0.625941053928483
40
0.636750931799929
40
0.647560809671375
40
0.669180565414268
40
0.69080032115716
40
0.701610199028606
40
0.712420076900052
40
0.723229954771498
40
0.734039832642944
40
0.74484971051439
40
0.755659588385836
40
0.766469466257282
40
0.777279344128728
40
0.788089222000174
40
0.79889909987162
40
0.809708977743066
40
0.820518855614512
40
0.831328733485958
40
0.842138611357404
40
0.85294848922885
40
0.863758367100297
40
0.874568244971743
40
0.885378122843189
40
0.896188000714635
40
0.906997878586081
40
0.928617634328973
40
0.939427512200419
40
0.950237390071865
40
0.961047267943311
40
0.971857145814757
40
0.993476901557649
40
1
40
1
40
1
40
1
41
1
10
-0.394976888875306
20
4.64126507959355
30
0
41
1
10
-0.394976888875306
20
4.70977032131108
30
0
41
1
10
-0.394976888875306
20
4.84920429303571
30
0
41
1
10
-0.394976888875306
20
5.05691311008314
30
0
41
1
10
-0.394976888875306
20
5.22996081233961
30
0
41
1
10
-0.394976888875306
20
5.36691605746566
30
0
41
1
10
-0.394976888875306
20
5.46873578487436
30
0
41
1
10
-0.394976888875306
20
5.56972484101726
30
0
41
1
10
-0.394976888875306
20
5.66988185892194
30
0
41
1
10
-0.394976888875306
20
5.76920478634827
30
0
41
1
10
-0.394976888875306
20
5.86769175097615
30
0
41
1
10
-0.394976888875306
20
5.96534098944565
30
0
41
1
10
-0.394976888875306
20
6.06215030170887
30
0
41
1
10
-0.394976888875306
20
6.15811803500972
30
0
41
1
10
-0.394976888875306
20
6.25324209742863
30
0
41
1
10
-0.394976888875306
20
6.34752037917039
30
0
41
1
10
-0.394976888875306
20
6.44095110045453
30
0
41
1
10
-0.394976888875306
20
6.5335319966735
30
0
41
1
10
-0.394976888875306
20
6.62526094744771
30
0
41
1
10
-0.394976888875306
20
6.71613593458255
30
0
41
1
10
-0.394976888875306
20
6.80615439018041
30
0
41
1
10
-0.394976888875306
20
6.89531424839751
30
0
41
1
10
-0.394976888875306
20
7.01311656207406
30
0
41
1
10
-0.394976888875306
20
7.15805530645628
30
0
41
1
10
-0.394976888875306
20
7.30009989843438
30
0
41
1
10
-0.394976888875306
20
7.41210658285704
30
0
41
1
10
-0.394976888875306
20
7.49518686307914
30
0
41
1
10
-0.394976888875306
20
7.57738778439318
30
0
41
1
10
-0.394976888875306
20
7.65870659316923
30
0
41
1
10
-0.394976888875306
20
7.73914055621265
30
0
41
1
10
-0.394976888875306
20
7.81868614170455
30
0
41
1
10
-0.394976888875306
20
7.89734055913431
30
0
41
1
10
-0.394976888875306
20
8.00107949685969
30
0
41
1
10
-0.394976888875306
20
8.12837717774204
30
0
41
1
10
-0.394976888875306
20
8.25266066821666
30
0
41
1
10
-0.394976888875306
20
8.35036329562493
30
0
41
1
10
-0.394976888875306
20
8.42268348862098
30
0
41
1
10
-0.394976888875306
20
8.494083889178
30
0
41
1
10
-0.394976888875306
20
8.56456065460728
30
0
41
1
10
-0.394976888875306
20
8.63410995408893
30
0
41
1
10
-0.394976888875306
20
8.70272705940039
30
0
41
1
10
-0.394976888875306
20
8.77040798541609
30
0
41
1
10
-0.394976888875306
20
8.85944472740889
30
0
41
1
10
-0.394976888875306
20
8.96826610167739
30
0
41
1
10
-0.394976888875306
20
9.07390699150645
30
0
41
1
10
-0.394976888875306
20
9.15657415078076
30
0
41
1
10
-0.394976888875306
20
9.21756976623391
30
0
41
1
10
-0.394976888875306
20
9.27758985219697
30
0
41
1
10
-0.394976888875306
20
9.33662897444754
30
0
41
1
10
-0.394976888875306
20
9.39468182193772
30
0
41
1
10
-0.394976888875306
20
9.45174201576441
30
0
41
1
10
-0.394976888875306
20
9.50780390566945
30
0
41
1
10
-0.394976888875306
20
9.58125529483195
30
0
41
1
10
-0.394976888875306
20
9.67044909356338
30
0
41
1
10
-0.394976888875306
20
9.75623204290733
30
0
41
1
10
-0.394976888875306
20
9.8228521774133
30
0
41
1
10
-0.394976888875306
20
9.87174305179948
30
0
41
1
10
-0.394976888875306
20
9.9195810672756
30
0
41
1
10
-0.394976888875306
20
9.96635850688563
30
0
41
1
10
-0.394976888875306
20
10.0120677716559
30
0
41
1
10
-0.394976888875306
20
10.0567002250884
30
0
41
1
10
-0.394976888875306
20
10.1002477857307
30
0
41
1
10
-0.394976888875306
20
10.1427016339893
30
0
41
1
10
-0.394976888875306
20
10.1840526544675
30
0
41
1
10
-0.394976888875306
20
10.2242918912355
30
0
41
1
10
-0.394976888875306
20
10.2634098071932
30
0
41
1
10
-0.394976888875306
20
10.3013963735904
30
0
41
1
10
-0.394976888875306
20
10.3382419186448
30
0
41
1
10
-0.394976888875306
20
10.3739354752827
30
0
41
1
10
-0.394976888875306
20
10.4084665953504
30
0
41
1
10
-0.394976888875306
20
10.4418240333465
30
0
41
1
10
-0.394976888875306
20
10.4739962130972
30
0
41
1
10
-0.394976888875306
20
10.5049713249704
30
0
41
1
10
-0.394976888875306
20
10.5347371860945
30
0
41
1
10
-0.394976888875306
20
10.5728196102718
30
0
41
1
10
-0.394976888875277
20
10.6083610391774
30
0
41
1
10
-0.394976888875277
20
10.6414451731179
30
0
41
1
10
-0.394976888875277
20
10.6649641398451
30
0
41
1
10
-0.394976888875277
20
10.6871899043463
30
0
41
1
10
-0.394976888875277
20
10.7150986230281
30
0
41
1
10
-0.394976888875277
20
10.7378231841587
30
0
41
1
10
-0.394976888875277
20
10.7527120189554
30
0
41
1
10
-0.394976888875277
20
10.756080079574
30
0
0
SPLINE
5
C5
100
AcDbEntity
8
SK1
62
256
6
ByLayer
370
18
48
1
60
0
100
AcDbSpline
70
4
71
3
72
9
73
5
40
0
40
0
40
0
40
0
40
0.709711534835303
40
1
40
1
40
1
40
1
41
1
10
-0.394976888875306
20
10.7560806111677
30
0
41
1
10
-0.394976888875249
20
10.7638752458385
30
0
41
1
10
-0.394976888875249
20
10.7742320623595
30
0
41
1
10
-0.394976888875277
20
10.7836874558831
30
0
41
1
10
-0.394976888875277
20
10.7863556111442
30
0
0
SPLINE
5
C6
100
AcDbEntity
8
SK1
62
256
6
ByLayer
370
18
48
1
60
0
100
AcDbSpline
70
4
71
3
72
20
73
16
40
0
40
0
40
0
40
0
40
0.25
40
0.25
40
0.375
40
0.375
40
0.4375
40
0.4375
40
0.5
40
0.5
40
0.75
40
0.75
40
0.875
40
0.875
40
1
40
1
40
1
40
1
41
1
10
-1.69999999999999
20
2.34751178615284
30
-1E-16
41
1
10
-1.76414637505064
20
1.97300140449073
30
-1E-16
41
1
10
-1.82089672312665
20
1.59136711260305
30
-1E-16
41
1
10
-1.88290119130039
20
1.00406423386127
30
-1E-16
41
1
10
-1.89963532428709
20
0.805787687417592
30
-1E-16
41
1
10
-1.91684572834012
20
0.503843108448763
30
-1E-16
41
1
10
-1.92127360849329
20
0.402041495273067
30
-1E-16
41
1
10
-1.92714189282552
20
0.199131560733292
30
-1E-16
41
1
10
-1.9285951631897
20
0.0980575004784043
30
-1E-16
41
1
10
-1.92846658615332
20
-0.405427822128956
30
-1E-16
41
1
10
-1.90405295512116
20
-0.802099906254028
30
-1E-16
41
1
10
-1.84225469644395
20
-1.38985537635659
30
-1E-16
41
1
10
-1.81747808484104
20
-1.58519589538625
30
-1E-16
41
1
10
-1.76235990768896
20
-1.97047153963902
30
-1E-16
41
1
10
-1.73208064140053
20
-2.16021295650691
30
-1E-16
41
1
10
-1.69999999999842
20
-2.34751168173503
30
-1E-16
0
SPLINE
5
C7
100
AcDbEntity
8
SK1
62
256
6
ByLayer
370
18
48
1
60
0
100
AcDbSpline
70
4
71
3
72
30
73
26
40
0
40
0
40
0
40
0
40
0.249999999999991
40
0.249999999999991
40
0.374999999999985
40
0.374999999999985
40
0.406249999999984
40
0.406249999999984
40
0.437499999999983
40
0.437499999999983
40
0.453124999999982
40
0.453124999999982
40
0.468749999999982
40
0.468749999999982
40
0.484374999999981
40
0.484374999999981
40
0.49999999999998
40
0.49999999999998
40
0.562499999999982
40
0.562499999999982
40
0.624999999999983
40
0.624999999999983
40
0.749999999999989
40
0.749999999999989
40
1
40
1
40
1
40
1
41
1
10
-1.70000000000019
20
-2.3475116817483
30
-1E-16
41
1
10
-1.6996066854698
20
-2.25623396154072
30
-1E-16
41
1
10
-1.69768973423007
20
-2.16466871102159
30
-1E-16
41
1
10
-1.68840878636888
20
-2.02653832803941
30
-1E-16
41
1
10
-1.68447381012007
20
-1.98015033474312
30
-1E-16
41
1
10
-1.67500700264603
20
-1.92237117894837
30
-1E-16
41
1
10
-1.67286556273913
20
-1.91086845959941
30
-1E-16
41
1
10
-1.667616432496
20
-1.88806909845479
30
-1E-16
41
1
10
-1.66458097363636
20
-1.87674186892281
30
-1E-16
41
1
10
-1.65820304509464
20
-1.86077504854927
30
-1E-16
41
1
10
-1.65573672845014
20
-1.85556337213327
30
-1E-16
41
1
10
-1.64962232235669
20
-1.84672595826825
30
-1E-16
41
1
10
-1.64578432291501
20
-1.84310386516213
30
-1E-16
41
1
10
-1.63744105795166
20
-1.84104875536454
30
-1E-16
41
1
10
-1.63336738073835
20
-1.84262996287555
30
-1E-16
41
1
10
-1.62638521764788
20
-1.84784090568599
30
-1E-16
41
1
10
-1.62337884195335
20
-1.85136525078437
30
-1E-16
41
1
10
-1.60950691675956
20
-1.87066936025505
30
-1E-16
41
1
10
-1.60202770662031
20
-1.89002969081321
30
-1E-16
41
1
10
-1.58788655238158
20
-1.92906899596341
30
-1E-16
41
1
10
-1.58172364169806
20
-1.94916743771569
30
-1E-16
41
1
10
-1.56438502382093
20
-2.01014726079799
30
-1E-16
41
1
10
-1.55440302834037
20
-2.0517421190855
30
-1E-16
41
1
10
-1.52628861644462
20
-2.17740701281988
30
-1E-16
41
1
10
-1.51012717698117
20
-2.26239491373994
30
-1E-16
41
1
10
-1.49503997793821
20
-2.34749772746753
30
-1E-16
0
SPLINE
5
C8
100
AcDbEntity
8
SK1
62
256
6
ByLayer
370
18
48
1
60
0
100
AcDbSpline
70
4
71
3
72
16
73
12
40
0
40
0
40
0
40
0
40
0.076419557144751
40
0.165864220938915
40
0.255308884733078
40
0.344753548527242
40
0.434198212321406
40
0.523642876115569
40
0.702532203703897
40
0.881421531292224
40
1
40
1
40
1
40
1
41
1
10
-1.49503997793928
20
-10.825185640233
30
-1E-16
41
1
10
-1.49503997793928
20
-10.8251976795521
30
-1E-16
41
1
10
-1.49503997793928
20
-10.8247930043934
30
-1E-16
41
1
10
-1.49503997793928
20
-10.8227533881918
30
-1E-16
41
1
10
-1.49503997793928
20
-10.8190319435411
30
-1E-16
41
1
10
-1.49503997793928
20
-10.8137591702554
30
-1E-16
41
1
10
-1.49503997793928
20
-10.8069598479051
30
-1E-16
41
1
10
-1.49503997793928
20
-10.7958810461951
30
-1E-16
41
1
10
-1.49503997793928
20
-10.7783612166035
30
-1E-16
41
1
10
-1.49503997793928
20
-10.7545941549408
30
0
41
1
10
-1.49503997793928
20
-10.7371824038466
30
0
41
1
10
-1.49503997793928
20
-10.729841735779
30
0
0
SPLINE
5
C9
100
AcDbEntity
8
SK1
62
256
6
ByLayer
370
13
48
1
60
0
100
AcDbSpline
70
4
71
3
72
107
73
103
40
0
40
0
40
0
40
0
40
0.0060038656290872
40
0.0238120597935127
40
0.0327161568757254
40
0.0416202539579381
40
0.0505243510401509
40
0.0594284481223636
40
0.0772366422867891
40
0.0861407393690018
40
0.0950448364512146
40
0.103948933533427
40
0.11285303061564
40
0.121757127697853
40
0.130661224780066
40
0.139565321862278
40
0.148469418944491
40
0.157373516026704
40
0.166277613108917
40
0.175181710191129
40
0.184085807273342
40
0.192989904355555
40
0.201894001437768
40
0.21079809851998
40
0.219702195602193
40
0.228606292684406
40
0.237510389766619
40
0.246414486848831
40
0.255318583931044
40
0.273126778095469
40
0.290934972259895
40
0.299839069342108
40
0.30874316642432
40
0.317647263506533
40
0.326551360588746
40
0.335455457670959
40
0.344359554753171
40
0.353263651835384
40
0.362167748917597
40
0.379975943082022
40
0.397784137246448
40
0.406688234328661
40
0.415592331410873
40
0.424496428493086
40
0.433400525575299
40
0.442304622657512
40
0.451208719739724
40
0.460112816821937
40
0.46901691390415
40
0.486825108068575
40
0.504633302233001
40
0.513537399315213
40
0.522441496397426
40
0.531345593479639
40
0.540249690561852
40
0.549153787644065
40
0.558057884726277
40
0.56696198180849
40
0.575866078890703
40
0.593674273055128
40
0.611482467219554
40
0.620386564301767
40
0.629290661383979
40
0.638194758466192
40
0.647098855548405
40
0.656002952630617
40
0.66490704971283
40
0.673811146795043
40
0.682715243877256
40
0.691619340959468
40
0.700523438041681
40
0.709427535123894
40
0.718331632206107
40
0.727235729288319
40
0.736139826370532
40
0.745043923452745
40
0.753948020534958
40
0.762852117617171
40
0.771756214699383
40
0.789564408863809
40
0.807372603028234
40
0.82518079719266
40
0.842988991357085
40
0.851893088439298
40
0.860797185521511
40
0.869701282603723
40
0.878605379685936
40
0.887509476768149
40
0.896413573850362
40
0.905317670932574
40
0.914221768014787
40
0.923125865097
40
0.932029962179213
40
0.940934059261425
40
0.949838156343638
40
0.958742253425851
40
0.967646350508064
40
0.976550447590276
40
0.985454544672489
40
0.994358641754702
40
0.998810690295808
40
1
40
1
40
1
40
1
41
1
10
-1.49503997793928
20
-10.7298417357805
30
0
41
1
10
-1.49503997793928
20
-10.7261081574943
30
0
41
1
10
-1.49503997793928
20
-10.7108900504614
30
0
41
1
10
-1.49503997793928
20
-10.6877698864739
30
0
41
1
10
-1.49503997793928
20
-10.659915174236
30
0
41
1
10
-1.49503997793928
20
-10.6377347714484
30
0
41
1
10
-1.49503997793928
20
-10.6142632847113
30
0
41
1
10
-1.49503997793928
20
-10.5812410164663
30
0
41
1
10
-1.49503997793928
20
-10.5457784712346
30
0
41
1
10
-1.49503997793928
20
-10.5077654424246
30
0
41
1
10
-1.49503997793928
20
-10.4780569204745
30
0
41
1
10
-1.49503997793928
20
-10.4471409666571
30
0
41
1
10
-1.49503997793928
20
-10.4150297473557
30
-1E-16
41
1
10
-1.49503997793928
20
-10.3817350419115
30
-1E-16
41
1
10
-1.49503997793928
20
-10.3472683849274
30
-1E-16
41
1
10
-1.49503997793928
20
-10.3116409871695
30
-1E-16
41
1
10
-1.49503997793928
20
-10.2748632577403
30
-1E-16
41
1
10
-1.49503997793928
20
-10.2369461506972
30
-1E-16
41
1
10
-1.49503997793928
20
-10.1978993278187
30
-1E-16
41
1
10
-1.49503997793928
20
-10.1577327882333
30
-1E-16
41
1
10
-1.49503997793928
20
-10.1164560590941
30
-1E-16
41
1
10
-1.49503997793928
20
-10.0740780611422
30
-1E-16
41
1
10
-1.49503997793928
20
-10.0306078864835
30
-1E-16
41
1
10
-1.49503997793928
20
-9.9860543664019
30
-1E-16
41
1
10
-1.49503997793928
20
-9.94042555998314
30
-1E-16
41
1
10
-1.49503997793928
20
-9.89373009862075
30
-1E-16
41
1
10
-1.49503997793928
20
-9.84597558117031
30
-1E-16
41
1
10
-1.49503997793928
20
-9.79716969120636
30
-1E-16
41
1
10
-1.49503997793928
20
-9.73065760658244
30
-1E-16
41
1
10
-1.49503997793928
20
-9.64502982606291
30
-1E-16
41
1
10
-1.49503997793928
20
-9.55599654096136
30
-1E-16
41
1
10
-1.49503997793928
20
-9.48266255671325
30
-1E-16
41
1
10
-1.49503997793928
20
-9.42669603797344
30
-1E-16
41
1
10
-1.49503997793928
20
-9.36973271501176
30
-1E-16
41
1
10
-1.49503997793928
20
-9.31177821550872
30
-1E-16
41
1
10
-1.49503997793928
20
-9.25283893648347
30
-1E-16
41
1
10
-1.49503997793928
20
-9.19292021412031
30
-1E-16
41
1
10
-1.49503997793928
20
-9.13202745573767
30
-1E-16
41
1
10
-1.49503997793928
20
-9.04949074686073
30
-1E-16
41
1
10
-1.49503997793928
20
-8.94403649561855
30
-1E-16
41
1
10
-1.49503997793928
20
-8.83540721332508
30
-1E-16
41
1
10
-1.49503997793928
20
-8.74651061840999
30
-1E-16
41
1
10
-1.49503997793928
20
-8.67894338472402
30
-1E-16
41
1
10
-1.49503997793928
20
-8.61044158988983
30
-1E-16
41
1
10
-1.49503997793928
20
-8.54100920456628
30
-1E-16
41
1
10
-1.49503997793928
20
-8.47065099138817
30
-1E-16
41
1
10
-1.49503997793928
20
-8.39937082766957
30
-1E-16
41
1
10
-1.49503997793928
20
-8.327172542867
30
-1E-16
41
1
10
-1.49503997793928
20
-8.22962444741844
30
-1E-16
41
1
10
-1.49503997793928
20
-8.10556186458783
30
-1E-16
41
1
10
-1.49503997793928
20
-7.97849120537592
30
-1E-16
41
1
10
-1.49503997793928
20
-7.87491786951264
30
-1E-16
41
1
10
-1.49503997793928
20
-7.79639781976607
30
-1E-16
41
1
10
-1.49503997793928
20
-7.71698851670988
30
-1E-16
41
1
10
-1.49503997793928
20
-7.63669274732661
30
-1E-16
41
1
10
-1.49503997793928
20
-7.5555140988842
30
-1E-16
41
1
10
-1.49503997793928
20
-7.47345537056427
30
-1E-16
41
1
10
-1.49503997793928
20
-7.39051932186584
30
-1E-16
41
1
10
-1.49503997793928
20
-7.27869561996113
30
-1E-16
41
1
10
-1.49503997793928
20
-7.13691288017824
30
-1E-16
41
1
10
-1.49503997793928
20
-6.99224343614395
30
-1E-16
41
1
10
-1.49503997793928
20
-6.87463786848124
30
-1E-16
41
1
10
-1.49503997793928
20
-6.78563788330885
30
-1E-16
41
1
10
-1.49503997793928
20
-6.69578175553812
30
-1E-16
41
1
10
-1.49503997793928
20
-6.60507157996005
30
-1E-16
41
1
10
-1.49503997793928
20
-6.5135100149694
30
-1E-16
41
1
10
-1.49503997793928
20
-6.42109916514164
30
-1E-16
41
1
10
-1.49503997793928
20
-6.32784120271069
30
-1E-16
41
1
10
-1.49503997793928
20
-6.23373849191756
30
-1E-16
41
1
10
-1.49503997793928
20
-6.13879286433351
30
-1E-16
41
1
10
-1.49503997793928
20
-6.0430064968013
30
-1E-16
41
1
10
-1.49503997793928
20
-5.9463816204476
30
-1E-16
41
1
10
-1.49503997793928
20
-5.84891995701895
30
-1E-16
41
1
10
-1.49503997793928
20
-5.75062380699094
30
-1E-16
41
1
10
-1.49503997793928
20
-5.65149504114433
30
-1E-16
41
1
10
-1.49503997793928
20
-5.55153561657562
30
-1E-16
41
1
10
-1.49503997793928
20
-5.4507477456186
30
-1E-16
41
1
10
-1.49503997793928
20
-5.34913288542151
30
-1E-16
41
1
10
-1.49503997793928
20
-5.21243879366801
30
-1E-16
41
1
10
-1.49503997793928
20
-5.03976742322499
30
-1E-16
41
1
10
-1.49503997793928
20
-4.82914716155648
30
-1E-16
41
1
10
-1.49503997793928
20
-4.61526986323273
30
-1E-16
41
1
10
-1.49503997793928
20
-4.43446210322787
30
-1E-16
41
1
10
-1.49503997793928
20
-4.28797249574384
30
-1E-16
41
1
10
-1.49503997793928
20
-4.17740500301781
30
-1E-16
41
1
10
-1.49503997793928
20
-4.06603800642878
30
-1E-16
41
1
10
-1.49503997793928
20
-3.95387458058386
30
-1E-16
41
1
10
-1.49503997793928
20
-3.84091862322862
30
-1E-16
41
1
10
-1.49503997793928
20
-3.72717407208265
30
-1E-16
41
1
10
-1.49503997793928
20
-3.61264412544148
30
-1E-16
41
1
10
-1.49503997793928
20
-3.4973327007406
30
-1E-16
41
1
10
-1.49503997793928
20
-3.38124473142446
30
-1E-16
41
1
10
-1.49503997793928
20
-3.2643857571382
30
-1E-16
41
1
10
-1.49503997793928
20
-3.14676167980997
30
-1E-16
41
1
10
-1.49503997793928
20
-3.02837828417549
30
-1E-16
41
1
10
-1.49503997793928
20
-2.90924160987004
30
-1E-16
41
1
10
-1.49503997793928
20
-2.78936021153859
30
-1E-16
41
1
10
-1.49503997793928
20
-2.66874292602245
30
-1E-16
41
1
10
-1.49503997793928
20
-2.54739957461444
30
-1E-16
41
1
10
-1.49503997793928
20
-2.44578140509637
30
-1E-16
41
1
10
-1.49503997793928
20
-2.37894311658403
30
-1E-16
41
1
10
-1.49503997793928
20
-2.35297422288201
30
-1E-16
41
1
10
-1.49503997793928
20
-2.34749772747685
30
-1E-16
0
SPLINE
5
CA
100
AcDbEntity
8
SK1
62
256
6
ByLayer
370
18
48
1
60
0
100
AcDbSpline
70
4
71
3
72
24
73
20
40
0
40
0
40
0
40
0
40
0.25
40
0.25
40
0.499999999999999
40
0.499999999999999
40
0.624999999999999
40
0.624999999999999
40
0.749999999999999
40
0.749999999999999
40
0.812499999999999
40
0.812499999999999
40
0.875
40
0.875
40
0.90625
40
0.90625
40
0.9375
40
0.9375
40
1
40
1
40
1
40
1
41
1
10
-1.30710678118655
20
3.31403271963524
30
-1E-16
41
1
10
-1.27574947990777
20
3.46454711728401
30
-1E-16
41
1
10
-1.24031009287509
20
3.61214255513721
30
-1E-16
41
1
10
-1.15739630350018
20
3.90122349826424
30
-1E-16
41
1
10
-1.11012157217945
20
4.04313436218038
30
-1E-16
41
1
10
-1.02289253731746
20
4.24855125063863
30
-1E-16
41
1
10
-0.990963079692989
20
4.31599126643184
30
-1E-16
41
1
10
-0.918035594195459
20
4.44616891840178
30
-1E-16
41
1
10
-0.877605368911389
20
4.50901937908472
30
-1E-16
41
1
10
-0.801610001723731
20
4.59589845469472
30
0
41
1
10
-0.773445750781519
20
4.62376040356415
30
0
41
1
10
-0.708881579743121
20
4.67202946940958
30
0
41
1
10
-0.67177556495767
20
4.69287070208489
30
0
41
1
10
-0.608870282790974
20
4.70884940573077
30
0
41
1
10
-0.586919259134504
20
4.7114327189997
30
0
41
1
10
-0.543256086641406
20
4.71012444539565
30
0
41
1
10
-0.5217845470805
20
4.70626601243143
30
0
41
1
10
-0.460997604342367
20
4.6873790684993
30
0
41
1
10
-0.425968808471112
20
4.66591256446631
30
0
41
1
10
-0.394976888875306
20
4.64126507959352
30
0
0
SPLINE
5
CB
100
AcDbEntity
8
SK1
62
256
6
ByLayer
370
18
48
1
60
0
100
AcDbSpline
70
4
71
3
72
26
73
22
40
0
40
0
40
0
40
0
40
0.03125
40
0.03125
40
0.0625
40
0.0625
40
0.09375
40
0.09375
40
0.125
40
0.125
40
0.1875
40
0.1875
40
0.25
40
0.25
40
0.374999999999999
40
0.374999999999999
40
0.499999999999998
40
0.499999999999998
40
0.749999999999999
40
0.749999999999999
40
1
40
1
40
1
40
1
41
1
10
-0.394976888875306
20
4.64126507959352
30
0
41
1
10
-0.388229750847444
20
4.63589916536026
30
0
41
1
10
-0.380746262232634
20
4.63125993946142
30
0
41
1
10
-0.364126288101289
20
4.62555337087156
30
0
41
1
10
-0.354765000102134
20
4.6246512136812
30
0
41
1
10
-0.336462236204795
20
4.62886400864082
30
0
41
1
10
-0.327842804624339
20
4.63385912175335
30
0
41
1
10
-0.313368319474989
20
4.64605803968357
30
0
41
1
10
-0.307158686942017
20
4.65334903515713
30
0
41
1
10
-0.290903848595747
20
4.67602684096889
30
0
41
1
10
-0.2827156915763
20
4.69267611811986
30
0
41
1
10
-0.268787510495287
20
4.72597732550801
30
0
41
1
10
-0.26308051174712
20
4.74282823214691
30
0
41
1
10
-0.247968322277529
20
4.79366001026494
30
0
41
1
10
-0.240545716778598
20
4.82803961499471
30
0
41
1
10
-0.22829270700575
20
4.89636228055082
30
0
41
1
10
-0.223537065882226
20
4.9303117851901
30
0
41
1
10
-0.211726479729578
20
5.03163791327492
30
0
41
1
10
-0.207092626945553
20
5.09849503928629
30
0
41
1
10
-0.201186640396742
20
5.23108027913526
30
0
41
1
10
-0.200000000000046
20
5.29680323555488
30
0
41
1
10
-0.200000000000046
20
5.36201916429005
30
0
0
SPLINE
5
CC
100
AcDbEntity
8
SK1
62
256
6
ByLayer
370
18
48
1
60
0
100
AcDbSpline
70
4
71
3
72
8
73
4
40
0
40
0
40
0
40
0
40
1
40
1
40
1
40
1
41
1
10
-1.4950399779394
20
-2.34749772747679
30
-1E-16
41
1
10
-1.43626560612745
20
-2.67902807993096
30
-1E-16
41
1
10
-1.37243775634695
20
-3.00044824666469
30
-1E-16
41
1
10
-1.30710678118655
20
-3.31403252781453
30
-1E-16
0
SPLINE
5
CD
100
AcDbEntity
8
SK1
62
256
6
ByLayer
370
18
48
1
60
0
100
AcDbSpline
70
4
71
3
72
9
73
5
40
0
40
0
40
0
40
0
40
0.290288402219521
40
1
40
1
40
1
40
1
41
1
10
-0.394976888875277
20
-10.7863556154697
30
0
41
1
10
-0.394976888875277
20
-10.7836874606411
30
0
41
1
10
-0.394976888875277
20
-10.7742320663436
30
0
41
1
10
-0.394976888875277
20
-10.7638752517238
30
0
41
1
10
-0.394976888875277
20
-10.7560806154696
30
0
0
SPLINE
5
CE
100
AcDbEntity
8
SK1
62
256
6
ByLayer
370
13
48
1
60
0
100
AcDbSpline
70
4
71
3
72
87
73
83
40
0
40
0
40
0
40
0
40
0.0065232240674289
40
0.0281429409253827
40
0.0389527993543595
40
0.0497626577833364
40
0.0605725162123133
40
0.0713823746412902
40
0.0930020914992439
40
0.103811949928221
40
0.114621808357198
40
0.125431666786175
40
0.136241525215152
40
0.147051383644128
40
0.157861242073105
40
0.168671100502082
40
0.179480958931059
40
0.190290817360036
40
0.201100675789013
40
0.21191053421799
40
0.222720392646966
40
0.233530251075943
40
0.24434010950492
40
0.255149967933897
40
0.265959826362874
40
0.276769684791851
40
0.287579543220828
40
0.298389401649805
40
0.309199260078782
40
0.330818976936735
40
0.352438693794689
40
0.363248552223666
40
0.374058410652643
40
0.38486826908162
40
0.395678127510597
40
0.406487985939574
40
0.41729784436855
40
0.428107702797527
40
0.438917561226504
40
0.460537278084458
40
0.482156994942412
40
0.492966853371389
40
0.503776711800365
40
0.514586570229342
40
0.525396428658319
40
0.536206287087296
40
0.547016145516273
40
0.55782600394525
40
0.568635862374227
40
0.59025557923218
40
0.611875296090134
40
0.622685154519111
40
0.633495012948088
40
0.644304871377065
40
0.655114729806042
40
0.665924588235019
40
0.676734446663996
40
0.687544305092972
40
0.698354163521949
40
0.719973880379903
40
0.741593597237857
40
0.752403455666834
40
0.763213314095811
40
0.774023172524787
40
0.784833030953764
40
0.795642889382741
40
0.806452747811718
40
0.817262606240695
40
0.828072464669672
40
0.838882323098649
40
0.849692181527626
40
0.860502039956602
40
0.871311898385579
40
0.882121756814556
40
0.892931615243533
40
0.90374147367251
40
0.914551332101487
40
0.925361190530464
40
0.936171048959441
40
0.957790765817394
40
0.979410482675348
40
1
40
1
40
1
40
1
41
1
10
-0.394976888875277
20
-10.7560803012584
30
0
41
1
10
-0.394976888875277
20
-10.7527121732682
30
0
41
1
10
-0.394976888875277
20
-10.7378232718149
30
0
41
1
10
-0.394976888875277
20
-10.7150986110188
30
0
41
1
10
-0.394976888875277
20
-10.687189908093
30
0
41
1
10
-0.394976888875277
20
-10.664964154205
30
0
41
1
10
-0.394976888875277
20
-10.6414451810514
30
0
41
1
10
-0.394976888875277
20
-10.6083610274959
30
0
41
1
10
-0.394976888875306
20
-10.5728196085917
30
0
41
1
10
-0.394976888875306
20
-10.5347371933948
30
0
41
1
10
-0.394976888875306
20
-10.5049713318295
30
0
41
1
10
-0.394976888875306
20
-10.4739962096758
30
0
41
1
10
-0.394976888875306
20
-10.4418240218233
30
0
41
1
10
-0.394976888875306
20
-10.4084665881748
30
0
41
1
10
-0.394976888875306
20
-10.373935478284
30
0
41
1
10
-0.394976888875306
20
-10.3382419231241
30
0
41
1
10
-0.394976888875306
20
-10.3013963717051
30
0
41
1
10
-0.394976888875306
20
-10.2634097977789
30
0
41
1
10
-0.394976888875306
20
-10.2242918789209
30
0
41
1
10
-0.394976888875306
20
-10.1840526482538
30
0
41
1
10
-0.394976888875306
20
-10.1427016347534
30
0
41
1
10
-0.394976888875306
20
-10.1002477853245
30
0
41
1
10
-0.394976888875306
20
-10.0567002175973
30
0
41
1
10
-0.394976888875306
20
-10.0120677589968
30
0
41
1
10
-0.394976888875306
20
-9.9663584938545
30
0
41
1
10
-0.394976888875306
20
-9.91958105894813
30
0
41
1
10
-0.394976888875306
20
-9.87174304842168
30
0
41
1
10
-0.394976888875306
20
-9.8228521720736
30
0
41
1
10
-0.394976888875306
20
-9.75623202994143
30
0
41
1
10
-0.394976888875306
20
-9.67044907777677
30
0
41
1
10
-0.394976888875306
20
-9.58125528659923
30
0
41
1
10
-0.394976888875306
20
-9.50780389645979
30
0
41
1
10
-0.394976888875306
20
-9.45174200258421
30
0
41
1
10
-0.394976888875306
20
-9.39468180573056
30
0
41
1
10
-0.394976888875306
20
-9.33662895751223
30
0
41
1
10
-0.394976888875306
20
-9.27758983691163
30
0
41
1
10
-0.394976888875306
20
-9.21756975316299
30
0
41
1
10
-0.394976888875306
20
-9.156574137538
30
0
41
1
10
-0.394976888875306
20
-9.07390697555735
30
0
41
1
10
-0.394976888875306
20
-8.96826608195681
30
0
41
1
10
-0.394976888875306
20
-8.85944470922473
30
0
41
1
10
-0.394976888875306
20
-8.77040796817133
30
0
41
1
10
-0.394976888875306
20
-8.70272704218718
30
0
41
1
10
-0.394976888875306
20
-8.63410993550619
30
0
41
1
10
-0.394976888875306
20
-8.56456063385824
30
0
41
1
10
-0.394976888875306
20
-8.49408386680085
30
0
41
1
10
-0.394976888875306
20
-8.42268346582151
30
0
41
1
10
-0.394976888875306
20
-8.35036327427801
30
0
41
1
10
-0.394976888875306
20
-8.25266064944725
30
0
41
1
10
-0.394976888875306
20
-8.12837715497497
30
0
41
1
10
-0.394976888875306
20
-8.00107946944797
30
0
41
1
10
-0.394976888875306
20
-7.89734053346649
30
0
41
1
10
-0.394976888875306
20
-7.81868611994122
30
0
41
1
10
-0.394976888875306
20
-7.73914053534185
30
0
41
1
10
-0.394976888875306
20
-7.65870656932981
30
0
41
1
10
-0.394976888875306
20
-7.57738775597255
30
0
41
1
10
-0.394976888875306
20
-7.49518683136168
30
0
41
1
10
-0.394976888875306
20
-7.41210655371302
30
0
41
1
10
-0.394976888875306
20
-7.30009987737762
30
0
41
1
10
-0.394976888875306
20
-7.15805527924184
30
0
41
1
10
-0.394976888875306
20
-7.01311652640493
30
0
41
1
10
-0.394976888875306
20
-6.89531421629039
30
0
41
1
10
-0.394976888875306
20
-6.80615436611964
30
0
41
1
10
-0.394976888875306
20
-6.7161359116314
30
0
41
1
10
-0.394976888875306
20
-6.62526091746003
30
0
41
1
10
-0.394976888875306
20
-6.53353195984096
30
0
41
1
10
-0.394976888875306
20
-6.44095106217856
30
0
41
1
10
-0.394976888875306
20
-6.34752034717769
30
0
41
1
10
-0.394976888875306
20
-6.25324207373163
30
0
41
1
10
-0.394976888875306
20
-6.15811800993771
30
0
41
1
10
-0.394976888875306
20
-6.06215026481468
30
0
41
1
10
-0.394976888875306
20
-5.96534094682289
30
0
41
1
10
-0.394976888875306
20
-5.8676917140148
30
0
41
1
10
-0.394976888875306
20
-5.76920475793781
30
0
41
1
10
-0.394976888875306
20
-5.66988183380954
30
0
41
1
10
-0.394976888875306
20
-5.56972480779478
30
0
41
1
10
-0.394976888875306
20
-5.46873573922787
30
0
41
1
10
-0.394976888875306
20
-5.36691601337117
30
0
41
1
10
-0.394976888875306
20
-5.2299607904209
30
0
41
1
10
-0.394976888875306
20
-5.05691306897958
30
0
41
1
10
-0.394976888875306
20
-4.8491988364276
30
0
41
1
10
-0.394976888875306
20
-4.70975933848081
30
0
41
1
10
-0.394976888875306
20
-4.64126630128294
30
0
0
SPLINE
5
CF
100
AcDbEntity
8
SK1
62
256
6
ByLayer
370
18
48
1
60
0
100
AcDbSpline
70
4
71
3
72
280
73
276
40
0
40
0
40
0
40
0
40
0.0015538559680075
40
0.0050640536134068
40
0.0085742512588061
40
0.0120844489042054
40
0.0155946465496047
40
0.019104844195004
40
0.0226150418404033
40
0.0296354371312019
40
0.0366558324220005
40
0.043676227712799
40
0.0506966230035976
40
0.0542068206489969
40
0.0577170182943962
40
0.0612272159397955
40
0.0647374135851947
40
0.0717578088759934
40
0.0752680065213926
40
0.078778204166792
40
0.0822884018121912
40
0.0857985994575905
40
0.0893087971029898
40
0.0928189947483891
40
0.0963291923937884
40
0.0998393900391876
40
0.103349587684587
40
0.106859785329986
40
0.110369982975386
40
0.113880180620785
40
0.117390378266184
40
0.120900575911583
40
0.124410773556983
40
0.127920971202382
40
0.131431168847781
40
0.134941366493181
40
0.13845156413858
40
0.141961761783979
40
0.148982157074778
40
0.156002552365576
40
0.159512750010976
40
0.163022947656375
40
0.166533145301774
40
0.170043342947173
40
0.173553540592573
40
0.177063738237972
40
0.180573935883371
40
0.184084133528771
40
0.191104528819569
40
0.198124924110368
40
0.201635121755767
40
0.205145319401166
40
0.208655517046566
40
0.212165714691965
40
0.215675912337364
40
0.219186109982764
40
0.222696307628163
40
0.226206505273562
40
0.233226900564361
40
0.240247295855159
40
0.243757493500559
40
0.247267691145958
40
0.250777888791357
40
0.254288086436756
40
0.257798284082156
40
0.261308481727555
40
0.264818679372954
40
0.268328877018354
40
0.275349272309152
40
0.282369667599951
40
0.28587986524535
40
0.289390062890749
40
0.292900260536149
40
0.296410458181548
40
0.299920655826947
40
0.303430853472347
40
0.306941051117746
40
0.310451248763145
40
0.313961446408545
40
0.317471644053944
40
0.320981841699343
40
0.324492039344742
40
0.328002236990142
40
0.331512434635541
40
0.33502263228094
40
0.338532829926339
40
0.342043027571739
40
0.345553225217138
40
0.352573620507937
40
0.359594015798735
40
0.366614411089534
40
0.373634806380332
40
0.380655201671131
40
0.38416539931653
40
0.38767559696193
40
0.391185794607329
40
0.394695992252728
40
0.398206189898127
40
0.401716387543527
40
0.405226585188926
40
0.408736782834325
40
0.412246980479725
40
0.415757178125124
40
0.419267375770523
40
0.422777573415922
40
0.426287771061322
40
0.429797968706721
40
0.43330816635212
40
0.43506326517482
40
0.43681836399752
40
0.440328561642919
40
0.443838759288318
40
0.447348956933718
40
0.450859154579117
40
0.454369352224516
40
0.457879549869916
40
0.461389747515315
40
0.464899945160714
40
0.466655043983414
40
0.468410142806113
40
0.470165241628813
40
0.471920340451512
40
0.473675439274212
40
0.475430538096912
40
0.477185636919612
40
0.478940735742311
40
0.480695834565011
40
0.48245093338771
40
0.48420603221041
40
0.48596113103311
40
0.487716229855809
40
0.489471328678509
40
0.491226427501209
40
0.492981526323908
40
0.494736625146608
40
0.496491723969308
40
0.498246822792007
40
0.500001921614707
40
0.501757020437407
40
0.503512119260106
40
0.505267218082806
40
0.507022316905506
40
0.508777415728205
40
0.510532514550905
40
0.512287613373604
40
0.514042712196304
40
0.515797811019004
40
0.517552909841703
40
0.519308008664403
40
0.521063107487103
40
0.522818206309802
40
0.524573305132502
40
0.526328403955202
40
0.528083502777901
40
0.529838601600601
40
0.531593700423301
40
0.533348799246
40
0.5351038980687
40
0.538614095714099
40
0.542124293359498
40
0.545634491004898
40
0.549144688650297
40
0.552654886295696
40
0.556165083941096
40
0.559675281586495
40
0.563185479231894
40
0.564940578054594
40
0.566695676877294
40
0.570205874522693
40
0.573716072168092
40
0.577226269813491
40
0.580736467458891
40
0.58424666510429
40
0.587756862749689
40
0.591267060395089
40
0.594777258040488
40
0.598287455685887
40
0.601797653331286
40
0.605307850976686
40
0.608818048622085
40
0.612328246267484
40
0.615838443912884
40
0.619348641558283
40
0.622858839203682
40
0.626369036849081
40
0.63338943213988
40
0.640409827430679
40
0.647430222721477
40
0.654450618012276
40
0.657960815657675
40
0.661471013303074
40
0.664981210948474
40
0.668491408593873
40
0.672001606239272
40
0.675511803884671
40
0.679022001530071
40
0.68253219917547
40
0.686042396820869
40
0.689552594466269
40
0.693062792111668
40
0.696572989757067
40
0.700083187402467
40
0.703593385047866
40
0.707103582693265
40
0.710613780338664
40
0.714123977984064
40
0.717634175629463
40
0.724654570920261
40
0.73167496621106
40
0.735185163856459
40
0.738695361501859
40
0.742205559147258
40
0.745715756792657
40
0.749225954438057
40
0.752736152083456
40
0.756246349728855
40
0.759756547374254
40
0.766776942665053
40
0.773797337955852
40
0.777307535601251
40
0.78081773324665
40
0.78432793089205
40
0.787838128537449
40
0.791348326182848
40
0.794858523828247
40
0.798368721473647
40
0.801878919119046
40
0.808899314409845
40
0.815919709700643
40
0.819429907346042
40
0.822940104991442
40
0.826450302636841
40
0.82996050028224
40
0.83347069792764
40
0.836980895573039
40
0.840491093218438
40
0.844001290863838
40
0.851021686154636
40
0.858042081445435
40
0.861552279090834
40
0.865062476736233
40
0.868572674381633
40
0.872082872027032
40
0.875593069672431
40
0.87910326731783
40
0.88261346496323
40
0.886123662608629
40
0.889633860254028
40
0.893144057899428
40
0.896654255544827
40
0.900164453190226
40
0.903674650835625
40
0.907184848481025
40
0.910695046126424
40
0.914205243771823
40
0.917715441417223
40
0.921225639062622
40
0.924735836708021
40
0.92824603435342
40
0.935266429644219
40
0.938776627289618
40
0.942286824935018
40
0.945797022580417
40
0.949307220225816
40
0.956327615516615
40
0.963348010807413
40
0.970368406098212
40
0.977388801389011
40
0.98089899903441
40
0.984409196679809
40
0.987919394325208
40
0.991429591970608
40
0.994939789616007
40
0.998449987261406
40
1
40
1
40
1
40
1
41
1
10
-19
20
10.0329562513407
30
2E-16
41
1
10
-19
20
10.0330937729962
30
2E-16
41
1
10
-19
20
10.0333795945506
30
1E-16
41
1
10
-19
20
10.0329736292638
30
-1E-16
41
1
10
-19
20
10.0309830775664
30
-1E-16
41
1
10
-19
20
10.0275226633951
30
-1E-16
41
1
10
-19
20
10.0226134495803
30
-1E-16
41
1
10
-19
20
10.0162751664439
30
-1E-16
41
1
10
-19
20
10.0058875348545
30
-1E-16
41
1
10
-19
20
9.98956609173456
30
-1E-16
41
1
10
-19
20
9.9644877669829
30
-1E-16
41
1
10
-19
20
9.93413277211897
30
-1E-16
41
1
10
-19
20
9.90466617231215
30
0
41
1
10
-19
20
9.87835855867948
30
0
41
1
10
-19
20
9.85747766874042
30
0
41
1
10
-19
20
9.83536689762977
30
0
41
1
10
-19
20
9.80411797985391
30
0
41
1
10
-19
20
9.77091555985692
30
0
41
1
10
-19
20
9.73489077939223
30
0
41
1
10
-19
20
9.70682531106701
30
-1E-16
41
1
10
-19
20
9.67760483131215
30
-1E-16
41
1
10
-19
20
9.64724068471727
30
-1E-16
41
1
10
-19
20
9.6157434616903
30
-1E-16
41
1
10
-19
20
9.58312368489487
30
-1E-16
41
1
10
-19
20
9.54939200999823
30
-1E-16
41
1
10
-19
20
9.51455771866412
30
-1E-16
41
1
10
-19
20
9.47863119608741
30
-1E-16
41
1
10
-19
20
9.4416216418046
30
-1E-16
41
1
10
-19
20
9.40353806264943
30
-1E-16
41
1
10
-19
20
9.36438993231127
30
-1E-16
41
1
10
-19
20
9.32418544446557
30
-1E-16
41
1
10
-19
20
9.28293297227461
30
2E-16
41
1
10
-19
20
9.24064144704931
30
2E-16
41
1
10
-19
20
9.19731819280184
30
2E-16
41
1
10
-19
20
9.1529716782799
30
2E-16
41
1
10
-19
20
9.10760963710959
30
2E-16
41
1
10
-19
20
9.06123902108874
30
2E-16
41
1
10
-19
20
8.99782333228856
30
2E-16
41
1
10
-19
20
8.91664200511912
30
2E-16
41
1
10
-19
20
8.83220800680829
30
2E-16
41
1
10
-19
20
8.76223827415896
30
2E-16
41
1
10
-19
20
8.70900473105829
30
2E-16
41
1
10
-19
20
8.65481733532434
30
2E-16
41
1
10
-19
20
8.59968102157819
30
2E-16
41
1
10
-19
20
8.5436026997406
30
2E-16
41
1
10
-19
20
8.48658847771898
30
2E-16
41
1
10
-19
20
8.42864308493384
30
-3E-16
41
1
10
-19
20
8.34984450729289
30
-3E-16
41
1
10
-19
20
8.24973849608213
30
-3E-16
41
1
10
-19
20
8.1466135609819
30
-3E-16
41
1
10
-19
20
8.06173284490114
30
-3E-16
41
1
10
-19
20
7.99742345663478
30
-3E-16
41
1
10
-19
20
7.93222591806958
30
-3E-16
41
1
10
-19
20
7.86614377003909
30
-3E-16
41
1
10
-19
20
7.79918272035923
30
-3E-16
41
1
10
-19
20
7.73134795661787
30
-3E-16
41
1
10
-19
20
7.66264290479879
30
-3E-16
41
1
10
-19
20
7.56952283231723
30
-3E-16
41
1
10
-19
20
7.45179046448189
30
-3E-16
41
1
10
-19
20
7.33122525294459
30
-3E-16
41
1
10
-19
20
7.23239719005699
30
-3E-16
41
1
10
-19
20
7.15772731741785
30
-3E-16
41
1
10
-19
20
7.08222314311982
30
-3E-16
41
1
10
-19
20
7.00588739266459
30
-3E-16
41
1
10
-19
20
6.92872517773969
30
-3E-16
41
1
10
-19
20
6.8507410999662
30
-3E-16
41
1
10
-19
20
6.77193793275302
30
-3E-16
41
1
10
-19
20
6.66535732677102
30
-3E-16
41
1
10
-19
20
6.5310781219363
30
-3E-16
41
1
10
-19
20
6.39412574741868
30
-3E-16
41
1
10
-19
20
6.28215784138942
30
-3E-16
41
1
10
-19
20
6.19773875078891
30
-3E-16
41
1
10
-19
20
6.11253406080701
30
-3E-16
41
1
10
-19
20
6.02654676803036
30
-3E-16
41
1
10
-19
20
5.93978186598008
30
-3E-16
41
1
10
-19
20
5.85224375649918
30
-3E-16
41
1
10
-19
20
5.76393600430757
30
-3E-16
41
1
10
-19
20
5.67486399066652
30
-3E-16
41
1
10
-19
20
5.58503142050256
30
-3E-16
41
1
10
-19
20
5.49444245957596
30
-3E-16
41
1
10
-19
20
5.40310280117828
30
6E-16
41
1
10
-19
20
5.31101593014734
30
6E-16
41
1
10
-19
20
5.2181872813623
30
6E-16
41
1
10
-19
20
5.12462207475713
30
6E-16
41
1
10
-19
20
5.03032492286113
30
6E-16
41
1
10
-19
20
4.93530242964377
30
6E-16
41
1
10
-19
20
4.83955802089457
30
6E-16
41
1
10
-19
20
4.71034653885877
30
6E-16
41
1
10
-19
20
4.54845950265877
30
6E-16
41
1
10
-19
20
4.35063320532774
30
6E-16
41
1
10
-19
20
4.15007820921215
30
6E-16
41
1
10
-19
20
3.94685681236828
30
6E-16
41
1
10
-19
20
3.77604855813308
30
6E-16
41
1
10
-19
20
3.63679046418028
30
6E-16
41
1
10
-19
20
3.53231619129491
30
6E-16
41
1
10
-19
20
3.42723503898236
30
6E-16
41
1
10
-19
20
3.32155992301486
30
6E-16
41
1
10
-19
20
3.2153054606147
30
6E-16
41
1
10
-19
20
3.10848576848568
30
6E-16
41
1
10
-19
20
3.00111573414051
30
6E-16
41
1
10
-19
20
2.89321317852722
30
6E-16
41
1
10
-19
20
2.78479835655281
30
6E-16
41
1
10
-19
20
2.67589021302877
30
6E-16
41
1
10
-19
20
2.56650912624585
30
6E-16
41
1
10
-19
20
2.45668069003122
30
6E-16
41
1
10
-19
20
2.34643018241178
30
6E-16
41
1
10
-19
20
2.23578586879043
30
6E-16
41
1
10
-19
20
2.14381940674534
30
6E-16
41
1
10
-19
20
2.06905901211775
30
6E-16
41
1
10
-19
20
1.99420804195603
30
6E-16
41
1
10
-19
20
1.90180866816084
30
6E-16
41
1
10
-19
20
1.78992235940532
30
6E-16
41
1
10
-19
20
1.67782006325021
30
6E-16
41
1
10
-19
20
1.56555014993987
30
6E-16
41
1
10
-19
20
1.45315823265884
30
6E-16
41
1
10
-19
20
1.34069259518992
30
6E-16
41
1
10
-19
20
1.22820431977141
30
6E-16
41
1
10
-19
20
1.13522914745167
30
6E-16
41
1
10
-19
20
1.05947688607969
30
6E-16
41
1
10
-19
20
1.00330201206953
30
6E-16
41
1
10
-19
20
0.947161044590956
30
6E-16
41
1
10
-19
20
0.891055246744145
30
6E-16
41
1
10
-19
20
0.834992891996194
30
6E-16
41
1
10
-19
20
0.778974983835127
30
6E-16
41
1
10
-19
20
0.723010172894845
30
6E-16
41
1
10
-19
20
0.667096437512413
30
6E-16
41
1
10
-19
20
0.611239537520476
30
6E-16
41
1
10
-19
20
0.555438256952783
30
6E-16
41
1
10
-19
20
0.499694285660439
30
6E-16
41
1
10
-19
20
0.444005417542485
30
6E-16
41
1
10
-19
20
0.388370253126254
30
6E-16
41
1
10
-19
20
0.332784951295196
30
6E-16
41
1
10
-19
20
0.27724537907406
30
6E-16
41
1
10
-19
20
0.221745399560149
30
6E-16
41
1
10
-19
20
0.166278832055241
30
6E-16
41
1
10
-19
20
0.110837824934066
30
6E-16
41
1
10
-19
20
0.0554145387399103
30
6E-16
41
1
10
-19
20
3.86551449E-08
30
6E-16
41
1
10
-19
20
-0.0554144797882259
30
6E-16
41
1
10
-19
20
-0.110837800625205
30
6E-16
41
1
10
-19
20
-0.166278804490219
30
6E-16
41
1
10
-19
20
-0.221745320409724
30
6E-16
41
1
10
-19
20
-0.277245288582179
30
6E-16
41
1
10
-19
20
-0.332784928641019
30
6E-16
41
1
10
-19
20
-0.388370257726166
30
6E-16
41
1
10
-19
20
-0.444005340907694
30
6E-16
41
1
10
-19
20
-0.499694162742941
30
6E-16
41
1
10
-19
20
-0.555438223077687
30
6E-16
41
1
10
-19
20
-0.611239573198077
30
6E-16
41
1
10
-19
20
-0.667096387172222
30
6E-16
41
1
10
-19
20
-0.72301002513845
30
6E-16
41
1
10
-19
20
-0.778974908352097
30
6E-16
41
1
10
-19
20
-0.834992934518169
30
6E-16
41
1
10
-19
20
-0.891055249962079
30
6E-16
41
1
10
-19
20
-0.947160931144765
30
6E-16
41
1
10
-19
20
-1.00330186501549
30
6E-16
41
1
10
-19
20
-1.05947685359391
30
6E-16
41
1
10
-19
20
-1.13522919275331
30
6E-16
41
1
10
-19
20
-1.22820420682382
30
6E-16
41
1
10
-19
20
-1.34069255012383
30
6E-16
41
1
10
-19
20
-1.45315824122116
30
6E-16
41
1
10
-19
20
-1.56555001007138
30
6E-16
41
1
10
-19
20
-1.67782007270242
30
6E-16
41
1
10
-19
20
-1.78992235147862
30
6E-16
41
1
10
-19
20
-1.90180851379787
30
6E-16
41
1
10
-19
20
-1.99420801826724
30
6E-16
41
1
10
-19
20
-2.0690590907827
30
6E-16
41
1
10
-19
20
-2.14381939218558
30
6E-16
41
1
10
-19
20
-2.23578548610092
30
6E-16
41
1
10
-19
20
-2.34642921347091
30
6E-16
41
1
10
-19
20
-2.45668047453484
30
6E-16
41
1
10
-19
20
-2.56651081363336
30
6E-16
41
1
10
-19
20
-2.67589173582562
30
6E-16
41
1
10
-19
20
-2.7847976980388
30
6E-16
41
1
10
-19
20
-2.89321157705834
30
6E-16
41
1
10
-19
20
-3.00111464897742
30
6E-16
41
1
10
-19
20
-3.1084861044454
30
6E-16
41
1
10
-19
20
-3.21530671882519
30
6E-16
41
1
10
-19
20
-3.32155966873089
30
6E-16
41
1
10
-19
20
-3.42723310824633
30
6E-16
41
1
10
-19
20
-3.53231555384821
30
6E-16
41
1
10
-19
20
-3.63679192068699
30
6E-16
41
1
10
-19
20
-3.74064752046888
30
6E-16
41
1
10
-19
20
-3.84387328825898
30
6E-16
41
1
10
-19
20
-3.98140477206883
30
6E-16
41
1
10
-19
20
-4.15007840683617
30
6E-16
41
1
10
-19
20
-4.35063308740936
30
6E-16
41
1
10
-19
20
-4.548459494648
30
6E-16
41
1
10
-19
20
-4.710346539319
30
6E-16
41
1
10
-19
20
-4.83955792501368
30
6E-16
41
1
10
-19
20
-4.93530236631196
30
6E-16
41
1
10
-19
20
-5.03032492621836
30
6E-16
41
1
10
-19
20
-5.1246220876952
30
6E-16
41
1
10
-19
20
-5.21818725421468
30
6E-16
41
1
10
-19
20
-5.3110158630366
30
6E-16
41
1
10
-19
20
-5.40310273191946
30
6E-16
41
1
10
-19
20
-5.494442439056
30
-3E-16
41
1
10
-19
20
-5.58503143754709
30
-3E-16
41
1
10
-19
20
-5.67486398126673
30
-3E-16
41
1
10
-19
20
-5.76393594987684
30
-3E-16
41
1
10
-19
20
-5.85224369296404
30
-3E-16
41
1
10
-19
20
-5.93978182754935
30
-3E-16
41
1
10
-19
20
-6.02654676214735
30
-3E-16
41
1
10
-19
20
-6.11253406622629
30
-3E-16
41
1
10
-19
20
-6.19773872711932
30
-3E-16
41
1
10
-19
20
-6.28215778589691
30
-3E-16
41
1
10
-19
20
-6.39412570491888
30
-3E-16
41
1
10
-19
20
-6.53107811386184
30
-3E-16
41
1
10
-19
20
-6.66535731095081
30
-3E-16
41
1
10
-19
20
-6.77193788641881
30
-3E-16
41
1
10
-19
20
-6.85074105917917
30
-3E-16
41
1
10
-19
20
-6.9287251573476
30
-3E-16
41
1
10
-19
20
-7.00588738465538
30
-3E-16
41
1
10
-19
20
-7.0822231340785
30
-3E-16
41
1
10
-19
20
-7.15772729389116
30
-3E-16
41
1
10
-19
20
-7.23239715387311
30
-3E-16
41
1
10
-19
20
-7.33122522366617
30
-3E-16
41
1
10
-19
20
-7.45179045110856
30
-3E-16
41
1
10
-19
20
-7.5695228179415
30
-3E-16
41
1
10
-19
20
-7.66264287890505
30
-3E-16
41
1
10
-19
20
-7.73134792995933
30
-3E-16
41
1
10
-19
20
-7.7991826988324
30
-3E-16
41
1
10
-19
20
-7.86614375440624
30
-3E-16
41
1
10
-19
20
-7.9322259062088
30
-3E-16
41
1
10
-19
20
-7.99742344377475
30
-3E-16
41
1
10
-19
20
-8.06173282830702
30
-3E-16
41
1
10
-19
20
-8.14661354012861
30
-3E-16
41
1
10
-19
20
-8.24973847707108
30
-3E-16
41
1
10
-19
20
-8.34984449752756
30
-3E-16
41
1
10
-19
20
-8.4286430769059
30
-3E-16
41
1
10
-19
20
-8.48658846431246
30
2E-16
41
1
10
-19
20
-8.54360267942897
30
2E-16
41
1
10
-19
20
-8.59968100131871
30
2E-16
41
1
10
-19
20
-8.65481732154311
30
2E-16
41
1
10
-19
20
-8.70900472624047
30
2E-16
41
1
10
-19
20
-8.76223827352649
30
2E-16
41
1
10
-19
20
-8.83220799572914
30
2E-16
41
1
10
-19
20
-8.91664198437633
30
2E-16
41
1
10
-19
20
-8.99782332638691
30
2E-16
41
1
10
-19
20
-9.06123902658183
30
2E-16
41
1
10
-19
20
-9.10760963443713
30
2E-16
41
1
10
-19
20
-9.15297166047549
30
2E-16
41
1
10
-19
20
-9.19731817256692
30
2E-16
41
1
10
-19
20
-9.24064143684652
30
2E-16
41
1
10
-19
20
-9.2829329762028
30
2E-16
41
1
10
-19
20
-9.32418545496637
30
-1E-16
41
1
10
-19
20
-9.36438993128212
30
-1E-16
41
1
10
-19
20
-9.4035380444378
30
-1E-16
41
1
10
-19
20
-9.44162162340905
30
-1E-16
41
1
10
-19
20
-9.47863119327923
30
-1E-16
41
1
10
-19
20
-9.51455772901525
30
-1E-16
41
1
10
-19
20
-9.54939202150851
30
-1E-16
41
1
10
-19
20
-9.58312368103438
30
-1E-16
41
1
10
-19
20
-9.61574344204712
30
-1E-16
41
1
10
-19
20
-9.6472406728098
30
-1E-16
41
1
10
-19
20
-9.67760484023773
30
-1E-16
41
1
10
-19
20
-9.70682532727795
30
-1E-16
41
1
10
-19
20
-9.7348907843963
30
0
41
1
10
-19
20
-9.77091554851933
30
0
41
1
10
-19
20
-9.8041179711955
30
0
41
1
10
-19
20
-9.83536691785611
30
0
41
1
10
-19
20
-9.85747768285276
30
0
41
1
10
-19
20
-9.8783585513138
30
0
41
1
10
-19
20
-9.90466616212436
30
0
41
1
10
-19
20
-9.93413279070074
30
-1E-16
41
1
10
-19
20
-9.96448776920468
30
-1E-16
41
1
10
-19
20
-9.9895660930479
30
-1E-16
41
1
10
-19
20
-10.0058874490332
30
-1E-16
41
1
10
-19
20
-10.0162748640149
30
-1E-16
41
1
10
-19
20
-10.0226131177802
30
-1E-16
41
1
10
-19
20
-10.0275224425778
30
-1E-16
41
1
10
-19
20
-10.0309830121398
30
-1E-16
41
1
10
-19
20
-10.0329737078169
30
-1E-16
41
1
10
-19
20
-10.0333795365627
30
1E-16
41
1
10
-19
20
-10.0330943033144
30
2E-16
41
1
10
-19
20
-10.0329573560819
30
2E-16
0
SPLINE
5
D0
100
AcDbEntity
8
SK1
62
256
6
ByLayer
370
18
48
1
60
0
100
AcDbSpline
70
4
71
3
72
26
73
22
40
0
40
0
40
0
40
0
40
0.25
40
0.25
40
0.5
40
0.5
40
0.625
40
0.625
40
0.75
40
0.75
40
0.8125
40
0.8125
40
0.875
40
0.875
40
0.90625
40
0.90625
40
0.9375
40
0.9375
40
0.96875
40
0.96875
40
1
40
1
40
1
40
1
41
1
10
-0.199999999999989
20
10.8830974324245
30
0
41
1
10
-0.199999999999989
20
10.8824645943826
30
0
41
1
10
-0.201187513292353
20
10.8805342384832
30
0
41
1
10
-0.207122203656127
20
10.8736239540415
30
0
41
1
10
-0.211794067452075
20
10.8686560710883
30
0
41
1
10
-0.223700935835382
20
10.8582147381252
30
0
41
1
10
-0.228491814250987
20
10.854236889961
30
0
41
1
10
-0.240792613043794
20
10.8449936136375
30
0
41
1
10
-0.248216122890199
20
10.8397475078909
30
0
41
1
10
-0.26336156208427
20
10.830498675013
30
0
41
1
10
-0.269082760992802
20
10.8271830435623
30
0
41
1
10
-0.283069792502459
20
10.8198207388364
30
0
41
1
10
-0.291209812579695
20
10.8157954409435
30
0
41
1
10
-0.307599008254016
20
10.8088998867936
30
0
41
1
10
-0.313694145561414
20
10.806488718077
30
0
41
1
10
-0.328298858095224
20
10.8013304121265
30
0
41
1
10
-0.336778157208187
20
10.7986240120534
30
0
41
1
10
-0.354898271374481
20
10.7936923742731
30
0
41
1
10
-0.364327685730132
20
10.7915489208813
30
0
41
1
10
-0.380847600244238
20
10.7883706781472
30
0
41
1
10
-0.388267203768805
20
10.7872290918977
30
0
41
1
10
-0.394976888893865
20
10.7863556111439
30
0
0
SPLINE
5
D1
100
AcDbEntity
8
SK1
62
256
6
ByLayer
370
18
48
1
60
0
100
AcDbSpline
70
4
71
3
72
26
73
22
40
0
40
0
40
0
40
0
40
0.250000000000001
40
0.250000000000001
40
0.500000000000003
40
0.500000000000003
40
0.625000000000001
40
0.625000000000001
40
0.749999999999999
40
0.749999999999999
40
0.812499999999999
40
0.812499999999999
40
0.874999999999999
40
0.874999999999999
40
0.90625
40
0.90625
40
0.9375
40
0.9375
40
0.96875
40
0.96875
40
1
40
1
40
1
40
1
41
1
10
-0.199999999999989
20
-5.36201916124898
30
0
41
1
10
-0.199999999999989
20
-5.2967520626737
30
0
41
1
10
-0.201187505702677
20
-5.23092296375003
30
0
41
1
10
-0.207122231944624
20
-5.09796886159597
30
0
41
1
10
-0.211794119514963
20
-5.0307395361431
30
0
41
1
10
-0.223700934218556
20
-4.92906885664189
30
0
41
1
10
-0.228491790652356
20
-4.89506905509066
30
0
41
1
10
-0.240792603174469
20
-4.82685288199073
30
0
41
1
10
-0.248216142554213
20
-4.79265006972088
30
0
41
1
10
-0.263361632838922
20
-4.74197486929811
30
0
41
1
10
-0.269082848553211
20
-4.72516942352706
30
0
41
1
10
-0.283069915142221
20
-4.69193708071452
30
0
41
1
10
-0.291209949024278
20
-4.67546427087299
30
0
41
1
10
-0.307599171561776
20
-4.65280751148737
30
0
41
1
10
-0.313694332721269
20
-4.64571002360921
30
0
41
1
10
-0.328299048109756
20
-4.63355422885837
30
0
41
1
10
-0.336778349987412
20
-4.62874696522633
30
0
41
1
10
-0.354898435363282
20
-4.62466840301937
30
0
41
1
10
-0.364327807714176
20
-4.62559851438346
30
0
41
1
10
-0.380847649097603
20
-4.63132181882534
30
0
41
1
10
-0.388267224060115
20
-4.63593022132775
30
0
41
1
10
-0.394976888875306
20
-4.6412663012828
30
0
0
SPLINE
5
D2
100
AcDbEntity
8
SK1
62
256
6
ByLayer
370
18
48
1
60
0
100
AcDbSpline
70
4
71
3
72
24
73
20
40
0
40
0
40
0
40
0
40
0.0492744443913542
40
0.0492744443913542
40
0.0985488887827084
40
0.0985488887827084
40
0.147823333174063
40
0.147823333174063
40
0.197097777565417
40
0.197097777565417
40
0.295646666348123
40
0.295646666348123
40
0.394195555130829
40
0.394195555130829
40
0.591293332696241
40
0.591293332696241
40
0.788391110261654
40
0.788391110261654
40
1
40
1
40
1
40
1
41
1
10
-0.394976888875277
20
-10.7863556154697
30
0
41
1
10
-0.388229723946807
20
-10.7872339754396
30
0
41
1
10
-0.380746207620859
20
-10.7883866177815
30
0
41
1
10
-0.364126187236963
20
-10.7915913284423
30
0
41
1
10
-0.354764882875145
20
-10.7937223561149
30
0
41
1
10
-0.336462108145696
20
-10.7987165168013
30
0
41
1
10
-0.327842670130309
20
-10.801482093034
30
0
41
1
10
-0.313368169427036
20
-10.8066138265058
30
0
41
1
10
-0.307158527568106
20
-10.8090774621456
30
0
41
1
10
-0.290903658928926
20
-10.8159406487968
30
0
41
1
10
-0.282715487075364
20
-10.8199974787336
30
0
41
1
10
-0.268787290911746
20
-10.8273487980068
30
0
41
1
10
-0.26308029778906
20
-10.8306636269559
30
0
41
1
10
-0.247968148818728
20
-10.8399131272224
30
0
41
1
10
-0.240545595772318
20
-10.8451697506636
30
0
41
1
10
-0.22829263615688
20
-10.8543964009072
30
0
41
1
10
-0.223536988817415
20
-10.8583532007604
30
0
41
1
10
-0.215373405730674
20
-10.8655231800321
30
0
41
1
10
-0.21208032875893
20
-10.8686633656872
30
0
41
1
10
-0.20947971530498
20
-10.8713081169579
30
0
0
SPLINE
5
D3
100
AcDbEntity
8
SK1
62
256
6
ByLayer
370
18
48
1
60
0
100
AcDbSpline
70
4
71
3
72
113
73
109
40
0
40
0
40
0
40
0
40
0.001697140600165
40
0.0057942524462703
40
0.0098913642923756
40
0.0180855879845861
40
0.0262798116767967
40
0.0344740353690073
40
0.0426682590612179
40
0.0508624827534284
40
0.059056706445639
40
0.0672509301378496
40
0.0754451538300601
40
0.0836393775222707
40
0.0918336012144813
40
0.100027824906692
40
0.108222048598902
40
0.116416272291113
40
0.124610495983324
40
0.132804719675534
40
0.149193167059955
40
0.165581614444376
40
0.181970061828797
40
0.198358509213219
40
0.21474695659764
40
0.22294118028985
40
0.231135403982061
40
0.239329627674271
40
0.247523851366482
40
0.255718075058693
40
0.263912298750903
40
0.272106522443114
40
0.280300746135324
40
0.288494969827535
40
0.296689193519745
40
0.304883417211956
40
0.313077640904167
40
0.321271864596377
40
0.329466088288588
40
0.337660311980798
40
0.345854535673009
40
0.35404875936522
40
0.36224298305743
40
0.378631430441851
40
0.395019877826272
40
0.403214101518483
40
0.411408325210693
40
0.419602548902904
40
0.427796772595115
40
0.435990996287325
40
0.444185219979536
40
0.452379443671746
40
0.460573667363957
40
0.476962114748378
40
0.493350562132799
40
0.50154478582501
40
0.50973900951722
40
0.517933233209431
40
0.526127456901641
40
0.534321680593852
40
0.542515904286063
40
0.550710127978273
40
0.558904351670484
40
0.575292799054905
40
0.591681246439326
40
0.599875470131537
40
0.608069693823747
40
0.616263917515958
40
0.624458141208168
40
0.632652364900379
40
0.640846588592589
40
0.6490408122848
40
0.657235035977011
40
0.673623483361432
40
0.690011930745853
40
0.698206154438063
40
0.706400378130274
40
0.714594601822485
40
0.722788825514695
40
0.730983049206906
40
0.739177272899116
40
0.747371496591327
40
0.755565720283538
40
0.763759943975748
40
0.771954167667959
40
0.780148391360169
40
0.78834261505238
40
0.79653683874459
40
0.804731062436801
40
0.812925286129011
40
0.821119509821222
40
0.829313733513433
40
0.837507957205643
40
0.845702180897854
40
0.853896404590064
40
0.870284851974485
40
0.878479075666696
40
0.886673299358907
40
0.894867523051117
40
0.903061746743328
40
0.919450194127749
40
0.93583864151217
40
0.952227088896591
40
0.968615536281012
40
0.976809759973223
40
0.985003983665433
40
0.993198207357644
40
1
40
1
40
1
40
1
41
1
10
-1.69999999999999
20
2.34751178615289
30
-1E-16
41
1
10
-1.69999999999999
20
2.35621966593379
30
-1E-16
41
1
10
-1.69999999999999
20
2.38592951909064
30
-1E-16
41
1
10
-1.69999999999999
20
2.43652882976181
30
-1E-16
41
1
10
-1.69999999999999
20
2.52010006268682
30
-1E-16
41
1
10
-1.69999999999999
20
2.62409378657779
30
-1E-16
41
1
10
-1.69999999999999
20
2.74807054514892
30
-1E-16
41
1
10
-1.69999999999999
20
2.87123918356852
30
-1E-16
41
1
10
-1.69999999999999
20
2.993594380779
30
-1E-16
41
1
10
-1.69999999999999
20
3.11513187517292
30
-1E-16
41
1
10
-1.69999999999999
20
3.23584780039647
30
-1E-16
41
1
10
-1.69999999999999
20
3.3557387899657
30
-1E-16
41
1
10
-1.69999999999999
20
3.47480210546814
30
-1E-16
41
1
10
-1.69999999999999
20
3.59303544152357
30
-1E-16
41
1
10
-1.69999999999999
20
3.71043651779695
30
-1E-16
41
1
10
-1.69999999999999
20
3.82700345953037
30
-1E-16
41
1
10
-1.69999999999999
20
3.94273458524899
30
-1E-16
41
1
10
-1.69999999999999
20
4.05762856057325
30
-1E-16
41
1
10
-1.69999999999999
20
4.171683851729
30
-1E-16
41
1
10
-1.69999999999999
20
4.32262158144502
30
-1E-16
41
1
10
-1.69999999999999
20
4.50922638794765
30
-1E-16
41
1
10
-1.69999999999999
20
4.72976236922625
30
-1E-16
41
1
10
-1.69999999999999
20
4.94691863630067
30
-1E-16
41
1
10
-1.69999999999999
20
5.16068772031301
30
-1E-16
41
1
10
-1.69999999999999
20
5.33601329758696
30
-1E-16
41
1
10
-1.69999999999999
20
5.47454903301667
30
-1E-16
41
1
10
-1.69999999999999
20
5.57760872375084
30
-1E-16
41
1
10
-1.69999999999999
20
5.67981554633886
30
-1E-16
41
1
10
-1.69999999999999
20
5.7811685540097
30
-1E-16
41
1
10
-1.69999999999999
20
5.88166662352432
30
-1E-16
41
1
10
-1.69999999999999
20
5.98130844183515
30
-1E-16
41
1
10
-1.69999999999999
20
6.08009295106382
30
-1E-16
41
1
10
-1.69999999999999
20
6.17801861138651
30
-1E-16
41
1
10
-1.69999999999999
20
6.27508414397229
30
-1E-16
41
1
10
-1.69999999999999
20
6.37128819193615
30
-1E-16
41
1
10
-1.69999999999999
20
6.46662906510221
30
-1E-16
41
1
10
-1.69999999999999
20
6.56110537660942
30
-1E-16
41
1
10
-1.69999999999999
20
6.6547154979545
30
-1E-16
41
1
10
-1.69999999999999
20
6.74745760354551
30
-1E-16
41
1
10
-1.69999999999999
20
6.83933016168689
30
-1E-16
41
1
10
-1.69999999999999
20
6.93033109954712
30
-1E-16
41
1
10
-1.69999999999999
20
7.0204585412456
30
-1E-16
41
1
10
-1.69999999999999
20
7.13945164867536
30
-1E-16
41
1
10
-1.69999999999999
20
7.28602039903603
30
-1E-16
41
1
10
-1.69999999999999
20
7.42964989475425
30
-1E-16
41
1
10
-1.69999999999999
20
7.54276403355829
30
-1E-16
41
1
10
-1.69999999999999
20
7.62671726605947
30
-1E-16
41
1
10
-1.69999999999999
20
7.70977883874548
30
-1E-16
41
1
10
-1.69999999999999
20
7.79194600202328
30
-1E-16
41
1
10
-1.69999999999999
20
7.87321640404122
30
-1E-16
41
1
10
-1.69999999999999
20
7.95358683542918
30
-1E-16
41
1
10
-1.69999999999999
20
8.0330544924083
30
-1E-16
41
1
10
-1.69999999999999
20
8.13779573224099
30
-1E-16
41
1
10
-1.69999999999999
20
8.26646749990718
30
-1E-16
41
1
10
-1.69999999999999
20
8.39208806457802
30
-1E-16
41
1
10
-1.69999999999999
20
8.49072598449763
30
-1E-16
41
1
10
-1.69999999999999
20
8.56378402232568
30
-1E-16
41
1
10
-1.69999999999999
20
8.63591216394966
30
-1E-16
41
1
10
-1.69999999999999
20
8.707106481632
30
-1E-16
41
1
10
-1.69999999999999
20
8.77736342146704
30
-1E-16
41
1
10
-1.69999999999999
20
8.8466784551658
30
-1E-16
41
1
10
-1.69999999999999
20
8.9150475069234
30
-1E-16
41
1
10
-1.69999999999999
20
9.0049324875024
30
-1E-16
41
1
10
-1.69999999999999
20
9.11491649636679
30
-1E-16
41
1
10
-1.69999999999999
20
9.22168704652844
30
-1E-16
41
1
10
-1.69999999999999
20
9.3051437774476
30
-1E-16
41
1
10
-1.69999999999999
20
9.36676193872179
30
-1E-16
41
1
10
-1.69999999999999
20
9.42739551695706
30
-1E-16
41
1
10
-1.69999999999999
20
9.48703893408199
30
-1E-16
41
1
10
-1.69999999999999
20
9.54568704168656
30
-1E-16
41
1
10
-1.69999999999999
20
9.60333356924752
30
-1E-16
41
1
10
-1.69999999999999
20
9.65997272044626
30
-1E-16
41
1
10
-1.69999999999999
20
9.73413471042332
30
-1E-16
41
1
10
-1.69999999999999
20
9.8242999772026
30
-1E-16
41
1
10
-1.69999999999999
20
9.91102211065424
30
-1E-16
41
1
10
-1.69999999999999
20
9.97829626766935
30
-1E-16
41
1
10
-1.69999999999999
20
10.027701522966
30
-1E-16
41
1
10
-1.69999999999999
20
10.0760448810433
30
-1E-16
41
1
10
-1.69999999999999
20
10.1233184687774
30
-1E-16
41
1
10
-1.69999999999999
20
10.1695147146772
30
-1E-16
41
1
10
-1.69999999999999
20
10.2146249480068
30
-1E-16
41
1
10
-1.69999999999999
20
10.2586409327216
30
-1E-16
41
1
10
-1.69999999999999
20
10.3015538720295
30
-1E-16
41
1
10
-1.69999999999999
20
10.3433544990447
30
-1E-16
41
1
10
-1.69999999999999
20
10.3840337022625
30
-1E-16
41
1
10
-1.69999999999999
20
10.4235819316408
30
-1E-16
41
1
10
-1.69999999999999
20
10.4619889498579
30
-1E-16
41
1
10
-1.69999999999999
20
10.4992449887466
30
-1E-16
41
1
10
-1.69999999999999
20
10.5353389624728
30
-1E-16
41
1
10
-1.69999999999999
20
10.5702601848038
30
-1E-16
41
1
10
-1.69999999999999
20
10.6039972898543
30
-1E-16
41
1
10
-1.69999999999999
20
10.6365384864303
30
0
41
1
10
-1.69999999999999
20
10.667871716058
30
0
41
1
10
-1.69999999999999
20
10.6979846247737
30
0
41
1
10
-1.69999999999999
20
10.7364870109124
30
0
41
1
10
-1.69999999999999
20
10.7725058279894
30
0
41
1
10
-1.69999999999999
20
10.805964526766
30
0
41
1
10
-1.69999999999999
20
10.8297709040831
30
0
41
1
10
-1.69999999999999
20
10.8522711554431
30
0
41
1
10
-1.69999999999999
20
10.8805066572373
30
0
41
1
10
-1.69999999999999
20
10.9124599273338
30
0
41
1
10
-1.69999999999999
20
10.9453046871603
30
0
41
1
10
-1.69999999999999
20
10.9724987271428
30
-1E-16
41
1
10
-1.69999999999999
20
10.9903135656216
30
-1E-16
41
1
10
-1.69999999999999
20
11.0015627517285
30
-1E-16
41
1
10
-1.69999999999999
20
11.0084756345047
30
-1E-16
41
1
10
-1.69999999999999
20
11.0135340497939
30
-1E-16
41
1
10
-1.69999999999999
20
11.0159250072376
30
-1E-16
41
1
10
-1.70000000000002
20
11.0168257859722
30
-1E-16
0
SPLINE
5
D4
100
AcDbEntity
8
1
62
256
6
ByLayer
370
18
48
1
60
0
100
AcDbSpline
70
4
71
3
72
14
73
10
40
0
40
0
40
0
40
0
40
0.25
40
0.25
40
0.5
40
0.5
40
0.75
40
0.75
40
1
40
1
40
1
40
1
41
1
10
7.33660254037844
20
15.1759383782004
30
-4E-16
41
1
10
7.32728982767742
20
15.1873778358497
30
-4E-16
41
1
10
7.31614231629334
20
15.198472208594
30
-4E-16
41
1
10
7.28887004110391
20
15.2198416823914
30
-4E-16
41
1
10
7.27269635160141
20
15.2301915117671
30
-4E-16
41
1
10
7.23273141305907
20
15.2494254085199
30
4E-16
41
1
10
7.20888443598329
20
15.2583500685585
30
4E-16
41
1
10
7.1506958404527
20
15.2721173071439
30
4E-16
41
1
10
7.11461224097539
20
15.2769622091386
30
4E-16
41
1
10
7.07679491924313
20
15.2769622091386
30
4E-16
0
SPLINE
5
D5
100
AcDbEntity
8
1
62
256
6
ByLayer
370
18
48
1
60
0
100
AcDbSpline
70
4
71
3
72
14
73
10
40
0
40
0
40
0
40
0
40
0.25
40
0.25
40
0.5
40
0.5
40
0.75
40
0.75
40
1
40
1
40
1
40
1
41
1
10
4.92320508075687
20
-4.75546271781755
30
3E-16
41
1
10
4.88533182655883
20
-4.75546271781755
30
3E-16
41
1
10
4.84981270910521
20
-4.77068116219559
30
3E-16
41
1
10
4.79068698660564
20
-4.81521507849266
30
3E-16
41
1
10
4.76725654551677
20
-4.84315978484935
30
3E-16
41
1
10
4.72731528081931
20
-4.90327363414829
30
3E-16
41
1
10
4.71128297061327
20
-4.93501774293344
30
3E-16
41
1
10
4.68395161765926
20
-5.00049514204591
30
3E-16
41
1
10
4.67271377586189
20
-5.03435447791105
30
3E-16
41
1
10
4.66339745962151
20
-5.06861858311169
30
3E-16
0
SPLINE
5
D6
100
AcDbEntity
8
1
62
256
6
ByLayer
370
18
48
1
60
0
100
AcDbSpline
70
4
71
3
72
14
73
10
40
0
40
0
40
0
40
0
40
0.25
40
0.25
40
0.5
40
0.5
40
0.75
40
0.75
40
1
40
1
40
1
40
1
41
1
10
4.66339745962156
20
-15.1759383782004
30
3E-16
41
1
10
4.67271017232258
20
-15.1873778358497
30
3E-16
41
1
10
4.68385768370666
20
-15.198472208594
30
3E-16
41
1
10
4.71112995889609
20
-15.2198416823914
30
3E-16
41
1
10
4.72730364839859
20
-15.2301915117671
30
3E-16
41
1
10
4.76726858694093
20
-15.2494254085199
30
3E-16
41
1
10
4.79111556401671
20
-15.2583500685585
30
3E-16
41
1
10
4.8493041595473
20
-15.2721173071439
30
3E-16
41
1
10
4.88538775902461
20
-15.2769622091386
30
3E-16
41
1
10
4.92320508075687
20
-15.2769622091386
30
3E-16
0
SPLINE
5
D7
100
AcDbEntity
8
1
62
256
6
ByLayer
370
18
48
1
60
0
100
AcDbSpline
70
4
71
3
72
14
73
10
40
0
40
0
40
0
40
0
40
0.25
40
0.25
40
0.5
40
0.5
40
0.75
40
0.75
40
1
40
1
40
1
40
1
41
1
10
7.07679491924313
20
-15.2769622091386
30
4E-16
41
1
10
7.11466817344117
20
-15.2769622091386
30
4E-16
41
1
10
7.15018729089479
20
-15.2722344777971
30
4E-16
41
1
10
7.20931301339436
20
-15.2582518148049
30
4E-16
41
1
10
7.23274345448323
20
-15.249419631371
30
4E-16
41
1
10
7.27268471918069
20
-15.2301970920895
30
-4E-16
41
1
10
7.28871702938673
20
-15.219946979117
30
-4E-16
41
1
10
7.31604838234074
20
-15.1985602773611
30
-4E-16
41
1
10
7.32728622413811
20
-15.1873822623297
30
-4E-16
41
1
10
7.33660254037849
20
-15.1759383782004
30
-4E-16
0
SPLINE
5
D8
100
AcDbEntity
8
1
62
256
6
ByLayer
370
18
48
1
60
0
100
AcDbSpline
70
4
71
3
72
14
73
10
40
0
40
0
40
0
40
0
40
0.25
40
0.25
40
0.5
40
0.5
40
0.75
40
0.75
40
1
40
1
40
1
40
1
41
1
10
4.92320508075687
20
15.2769622091386
30
3E-16
41
1
10
4.88533182655883
20
15.2769622091386
30
3E-16
41
1
10
4.84981270910521
20
15.2722344777971
30
3E-16
41
1
10
4.79068698660564
20
15.2582518148049
30
3E-16
41
1
10
4.76725654551677
20
15.249419631371
30
3E-16
41
1
10
4.72731528081931
20
15.2301970920895
30
3E-16
41
1
10
4.71128297061327
20
15.219946979117
30
3E-16
41
1
10
4.68395161765926
20
15.1985602773611
30
3E-16
41
1
10
4.67271377586189
20
15.1873822623297
30
3E-16
41
1
10
4.66339745962151
20
15.1759383782004
30
3E-16
0
SPLINE
5
D9
100
AcDbEntity
8
1
62
256
6
ByLayer
370
18
48
1
60
0
100
AcDbSpline
70
4
71
3
72
14
73
10
40
0
40
0
40
0
40
0
40
0.25
40
0.25
40
0.5
40
0.5
40
0.75
40
0.75
40
1
40
1
40
1
40
1
41
1
10
7.0767949192431
20
4.75546271781755
30
4E-16
41
1
10
7.11466817344117
20
4.75546271781755
30
4E-16
41
1
10
7.15018729089479
20
4.77068116219559
30
4E-16
41
1
10
7.20931301339436
20
4.81521507849266
30
4E-16
41
1
10
7.23274345448323
20
4.84315978484935
30
4E-16
41
1
10
7.27268471918069
20
4.90327363414829
30
4E-16
41
1
10
7.28871702938673
20
4.93501774293344
30
4E-16
41
1
10
7.31604838234074
20
5.00049514204591
30
4E-16
41
1
10
7.32728622413811
20
5.03435447791105
30
4E-16
41
1
10
7.33660254037849
20
5.06861858311169
30
4E-16
0
SPLINE
5
DA
100
AcDbEntity
8
1
62
256
6
ByLayer
370
18
48
1
60
0
100
AcDbSpline
70
4
71
3
72
14
73
10
40
0
40
0
40
0
40
0
40
0.25
40
0.25
40
0.5
40
0.5
40
0.75
40
0.75
40
1
40
1
40
1
40
1
41
1
10
4.66339745962156
20
5.06861858311171
30
3E-16
41
1
10
4.67271017232258
20
5.03436773122368
30
3E-16
41
1
10
4.68385768370666
20
5.00076260618602
30
3E-16
41
1
10
4.71112995889609
20
4.93534226591984
30
3E-16
41
1
10
4.72730364839856
20
4.90329108735247
30
3E-16
41
1
10
4.76726858694093
20
4.84314171611766
30
3E-16
41
1
10
4.79111556401671
20
4.81490199488556
30
3E-16
41
1
10
4.8493041595473
20
4.77105449474931
30
3E-16
41
1
10
4.88538775902461
20
4.75546271781749
30
3E-16
41
1
10
4.92320508075687
20
4.75546271781749
30
3E-16
0
SPLINE
5
DB
100
AcDbEntity
8
1
62
256
6
ByLayer
370
18
48
1
60
0
100
AcDbSpline
70
4
71
3
72
14
73
10
40
0
40
0
40
0
40
0
40
0.25
40
0.25
40
0.5
40
0.5
40
0.75
40
0.75
40
1
40
1
40
1
40
1
41
1
10
7.33660254037844
20
-5.06861858311171
30
4E-16
41
1
10
7.32728982767742
20
-5.03436773122368
30
4E-16
41
1
10
7.31614231629334
20
-5.00076260618599
30
4E-16
41
1
10
7.28887004110391
20
-4.93534226591984
30
4E-16
41
1
10
7.27269635160144
20
-4.90329108735244
30
4E-16
41
1
10
7.23273141305907
20
-4.84314171611766
30
4E-16
41
1
10
7.20888443598329
20
-4.81490199488556
30
4E-16
41
1
10
7.1506958404527
20
-4.77105449474931
30
4E-16
41
1
10
7.11461224097539
20
-4.75546271781749
30
4E-16
41
1
10
7.07679491924313
20
-4.75546271781747
30
4E-16
0
SPLINE
5
DC
100
AcDbEntity
8
SK1
62
256
6
ByLayer
370
18
48
1
60
0
100
AcDbSpline
70
4
71
2
72
6
73
3
40
0
40
0
40
0
40
1
40
1
40
1
41
1
10
-18
20
10.6097643575036
30
0
41
1
10
-18.499999999638
20
10.3211140865705
30
0
41
1
10
-19
20
10.0324636942008
30
-1E-16
0
SPLINE
5
DD
100
AcDbEntity
8
SK1
62
256
6
ByLayer
370
18
48
1
60
0
100
AcDbSpline
70
4
71
2
72
6
73
3
40
0
40
0
40
0
40
1
40
1
40
1
41
1
10
-0.394976888875277
20
10.7560155133454
30
0
41
1
10
-0.94500843340731
20
10.7423063740663
30
1E-16
41
1
10
-1.49503997793928
20
10.7285972344608
30
0
0
SPLINE
5
DE
100
AcDbEntity
8
SK1
62
256
6
ByLayer
370
18
48
1
60
0
100
AcDbSpline
70
4
71
2
72
6
73
3
40
0
40
0
40
0
40
1
40
1
40
1
41
1
10
-1.49503997793928
20
-10.7285973110991
30
0
41
1
10
-0.94500843340731
20
-10.7423064506887
30
1E-16
41
1
10
-0.394976888875277
20
-10.7560155899517
30
0
0
SPLINE
5
DF
100
AcDbEntity
8
SK1
62
256
6
ByLayer
370
18
48
1
60
0
100
AcDbSpline
70
4
71
3
72
13
73
9
40
0
40
0
40
0
40
0
40
0.23945753149649
40
0.36836158366091
40
0.500001014748315
40
0.631640276873362
40
0.760543863293797
40
1
40
1
40
1
40
1
41
1
10
-1.49503997793928
20
10.8251848163966
30
-1E-16
41
1
10
-1.52111030873687
20
10.8247831752209
30
-1E-16
41
1
10
-1.5588406423507
20
10.8309554278117
30
-1E-16
41
1
10
-1.60627712752168
20
10.8539992258967
30
-1E-16
41
1
10
-1.63886378681679
20
10.8791665920529
30
-1E-16
41
1
10
-1.66563592205381
20
10.9104481413093
30
-1E-16
41
1
10
-1.69103284108891
20
10.9566673086802
30
-1E-16
41
1
10
-1.69909198644137
20
10.9940398877346
30
-1E-16
41
1
10
-1.69999999999999
20
11.0200973601888
30
-1E-16
0
SPLINE
5
E0
100
AcDbEntity
8
SK1
62
256
6
ByLayer
370
18
48
1
60
0
100
AcDbSpline
70
4
71
2
72
6
73
3
40
0
40
0
40
0
40
1
40
1
40
1
41
1
10
-1.69999999999999
20
11.0168421588455
30
-1E-16
41
1
10
-9.84999999997146
20
10.8121485451078
30
1E-16
41
1
10
-18
20
10.6074547380105
30
0
0
SPLINE
5
E1
100
AcDbEntity
8
SK1
62
256
6
ByLayer
370
18
48
1
60
0
100
AcDbSpline
70
4
71
3
72
13
73
9
40
0
40
0
40
0
40
0
40
0.239456136642581
40
0.3683597230429
40
0.499998985161566
40
0.631638416257693
40
0.76054246844361
40
1
40
1
40
1
40
1
41
1
10
-1.69999999999999
20
-11.0200974665178
30
-1E-16
41
1
10
-1.69909198644035
20
-10.9940399940815
30
-1E-16
41
1
10
-1.69103284108789
20
-10.9566674150535
30
-1E-16
41
1
10
-1.66563592205245
20
-10.9104482477182
30
-1E-16
41
1
10
-1.63886378681494
20
-10.8791666984849
30
-1E-16
41
1
10
-1.60627712751969
20
-10.8539993323472
30
-1E-16
41
1
10
-1.55884064234823
20
-10.8309555342783
30
-1E-16
41
1
10
-1.52111030873553
20
-10.8247832816898
30
-1E-16
41
1
10
-1.49503997793928
20
-10.8251849228641
30
-1E-16
0
SPLINE
5
E2
100
AcDbEntity
8
SK1
62
256
6
ByLayer
370
18
48
1
60
0
100
AcDbSpline
70
4
71
2
72
6
73
3
40
0
40
0
40
0
40
1
40
1
40
1
41
1
10
-19
20
-10.0324637535503
30
-1E-16
41
1
10
-18.4999999996377
20
-10.3211141428552
30
0
41
1
10
-18
20
-10.6097644106827
30
0
0
SPLINE
5
E3
100
AcDbEntity
8
SK1
62
256
6
ByLayer
370
18
48
1
60
0
100
AcDbSpline
70
4
71
2
72
6
73
3
40
0
40
0
40
0
40
1
40
1
40
1
41
1
10
-18
20
-10.607454619207
30
0
41
1
10
-9.84999999997146
20
-10.8121484207173
30
1E-16
41
1
10
-1.69999999999999
20
-11.0168420288686
30
-1E-16
0
LINE
5
7A
100
AcDbEntity
8
SK1
62
256
6
ByLayer
370
18
48
1
60
0
100
AcDbLine
10
-0.2
20
-10.883485
30
0
11
-0.2
21
-5.362019
31
0
39
0
210
0
220
0
230
1
0
LINE
5
7C
100
AcDbEntity
8
SK1
62
256
6
ByLayer
370
13
48
1
60
0
100
AcDbLine
10
-1.307107
20
-3.314033
30
0
11
-1.307107
21
3.314033
31
0
39
0
210
0
220
0
230
1
0
LINE
5
7D
100
AcDbEntity
8
SK1
62
256
6
ByLayer
370
18
48
1
60
0
100
AcDbLine
10
-0.2
20
5.362019
30
0
11
-0.2
21
10.883485
31
0
39
0
210
0
220
0
230
1
0
LINE
5
7E
100
AcDbEntity
8
1
62
256
6
ByLayer
370
18
48
1
60
0
100
AcDbLine
10
0.3
20
0
30
0
11
0.3
21
16
31
0
39
0
210
0
220
0
230
1
0
LINE
5
7F
100
AcDbEntity
8
1
62
256
6
ByLayer
370
18
48
1
60
0
100
AcDbLine
10
0.3
20
-16
30
0
11
0.3
21
0
31
0
39
0
210
0
220
0
230
1
0
LINE
5
80
100
AcDbEntity
8
1
62
256
6
ByLayer
370
18
48
1
60
0
100
AcDbLine
10
7.076795
20
15.276962
30
0
11
4.923205
21
15.276962
31
0
39
0
210
0
220
0
230
1
0
LINE
5
81
100
AcDbEntity
8
1
62
256
6
ByLayer
370
18
48
1
60
0
100
AcDbLine
10
0
20
0
30
0
11
0
21
15.7
31
0
39
0
210
0
220
0
230
1
0
LINE
5
82
100
AcDbEntity
8
1
62
256
6
ByLayer
370
18
48
1
60
0
100
AcDbLine
10
0
20
-15.7
30
0
11
0
21
0
31
0
39
0
210
0
220
0
230
1
0
LINE
5
83
100
AcDbEntity
8
1
62
256
6
ByLayer
370
13
48
1
60
0
100
AcDbLine
10
4.663397
20
-5.068619
30
0
11
4.663397
21
-15.175938
31
0
39
0
210
0
220
0
230
1
0
LINE
5
84
100
AcDbEntity
8
1
62
256
6
ByLayer
370
13
48
1
60
0
100
AcDbLine
10
7.076795
20
-4.755463
30
0
11
7.076795
21
-15.276962
31
0
39
0
210
0
220
0
230
1
0
LINE
5
85
100
AcDbEntity
8
1
62
256
6
ByLayer
370
13
48
1
60
0
100
AcDbLine
10
4.923205
20
-4.755463
30
0
11
4.923205
21
-15.276962
31
0
39
0
210
0
220
0
230
1
0
LINE
5
86
100
AcDbEntity
8
1
62
256
6
ByLayer
370
13
48
1
60
0
100
AcDbLine
10
4.923205
20
15.276962
30
0
11
4.923205
21
4.755463
31
0
39
0
210
0
220
0
230
1
0
LINE
5
87
100
AcDbEntity
8
1
62
256
6
ByLayer
370
18
48
1
60
0
100
AcDbLine
10
60
20
0
30
0
11
60
21
15.7
31
0
39
0
210
0
220
0
230
1
0
LINE
5
88
100
AcDbEntity
8
1
62
256
6
ByLayer
370
18
48
1
60
0
100
AcDbLine
10
60
20
-15.7
30
0
11
60
21
0
31
0
39
0
210
0
220
0
230
1
0
LINE
5
89
100
AcDbEntity
8
1
62
256
6
ByLayer
370
13
48
1
60
0
100
AcDbLine
10
4.663397
20
15.175938
30
0
11
4.663397
21
5.068619
31
0
39
0
210
0
220
0
230
1
0
LINE
5
8A
100
AcDbEntity
8
1
62
256
6
ByLayer
370
18
48
1
60
0
100
AcDbLine
10
4.923205
20
4.755463
30
0
11
7.076795
21
4.755463
31
0
39
0
210
0
220
0
230
1
0
LINE
5
8B
100
AcDbEntity
8
1
62
256
6
ByLayer
370
13
48
1
60
0
100
AcDbLine
10
7.076795
20
15.276962
30
0
11
7.076795
21
4.755463
31
0
39
0
210
0
220
0
230
1
0
LINE
5
8C
100
AcDbEntity
8
1
62
256
6
ByLayer
370
13
48
1
60
0
100
AcDbLine
10
7.336603
20
15.175938
30
0
11
7.336603
21
5.068619
31
0
39
0
210
0
220
0
230
1
0
LINE
5
8D
100
AcDbEntity
8
1
62
256
6
ByLayer
370
18
48
1
60
0
100
AcDbLine
10
7.076795
20
-4.755463
30
0
11
4.923205
21
-4.755463
31
0
39
0
210
0
220
0
230
1
0
LINE
5
8E
100
AcDbEntity
8
1
62
256
6
ByLayer
370
18
48
1
60
0
100
AcDbLine
10
4.923205
20
-15.276962
30
0
11
7.076795
21
-15.276962
31
0
39
0
210
0
220
0
230
1
0
LINE
5
8F
100
AcDbEntity
8
1
62
256
6
ByLayer
370
13
48
1
60
0
100
AcDbLine
10
7.336603
20
-5.068619
30
0
11
7.336603
21
-15.175938
31
0
39
0
210
0
220
0
230
1
0
LINE
5
90
100
AcDbEntity
8
1
62
256
6
ByLayer
370
18
48
1
60
0
100
AcDbLine
10
59.7
20
0
30
0
11
59.7
21
16
31
0
39
0
210
0
220
0
230
1
0
LINE
5
91
100
AcDbEntity
8
1
62
256
6
ByLayer
370
18
48
1
60
0
100
AcDbLine
10
59.7
20
-16
30
0
11
59.7
21
0
31
0
39
0
210
0
220
0
230
1
0
LINE
5
92
100
AcDbEntity
8
SK1
62
256
6
ByLayer
370
18
48
1
60
0
100
AcDbLine
10
62.85
20
6
30
0
11
62.85
21
-6
31
0
39
0
210
0
220
0
230
1
0
LINE
5
93
100
AcDbEntity
8
SK1
62
256
6
ByLayer
370
18
48
1
60
0
100
AcDbLine
10
64.05
20
4.8
30
0
11
64.05
21
-4.8
31
0
39
0
210
0
220
0
230
1
0
LINE
5
94
100
AcDbEntity
8
SK4
62
256
6
ByLayer
370
18
48
0.05
60
0
100
AcDbLine
10
-24
20
0
30
0
11
65
21
0
31
0
39
0
210
0
220
0
230
1
0
LINE
5
96
100
AcDbEntity
8
SK1
62
256
6
ByLayer
370
18
48
1
60
0
100
AcDbLine
10
60
20
-6
30
0
11
62.85
21
-6
31
0
39
0
210
0
220
0
230
1
0
LINE
5
97
100
AcDbEntity
8
SK1
62
256
6
ByLayer
370
18
48
1
60
0
100
AcDbLine
10
62.85
20
6
30
0
11
60
21
6
31
0
39
0
210
0
220
0
230
1
0
LINE
5
98
100
AcDbEntity
8
SK1
62
256
6
ByLayer
370
18
48
1
60
0
100
AcDbLine
10
64.05
20
4.8
30
0
11
62.85
21
6
31
0
39
0
210
0
220
0
230
1
0
LINE
5
99
100
AcDbEntity
8
SK1
62
256
6
ByLayer
370
18
48
1
60
0
100
AcDbLine
10
62.85
20
-6
30
0
11
64.05
21
-4.8
31
0
39
0
210
0
220
0
230
1
0
LINE
5
9A
100
AcDbEntity
8
1
62
256
6
ByLayer
370
18
48
1
60
0
100
AcDbLine
10
60
20
15.7
30
0
11
59.7
21
16
31
0
39
0
210
0
220
0
230
1
0
LINE
5
9B
100
AcDbEntity
8
1
62
256
6
ByLayer
370
18
48
1
60
0
100
AcDbLine
10
59.7
20
-16
30
0
11
60
21
-15.7
31
0
39
0
210
0
220
0
230
1
0
LINE
5
9C
100
AcDbEntity
8
1
62
256
6
ByLayer
370
18
48
1
60
0
100
AcDbLine
10
0
20
-15.7
30
0
11
0.3
21
-16
31
0
39
0
210
0
220
0
230
1
0
LINE
5
9D
100
AcDbEntity
8
1
62
256
6
ByLayer
370
18
48
1
60
0
100
AcDbLine
10
0.3
20
16
30
0
11
0
21
15.7
31
0
39
0
210
0
220
0
230
1
0
LINE
5
9E
100
AcDbEntity
8
1
62
256
6
ByLayer
370
18
48
1
60
0
100
AcDbLine
10
59.7
20
16
30
0
11
0.3
21
16
31
0
39
0
210
0
220
0
230
1
0
LINE
5
9F
100
AcDbEntity
8
4
62
256
6
ByLayer
370
18
48
0.05
60
0
100
AcDbLine
10
0
20
0
30
0
11
60
21
0
31
0
39
0
210
0
220
0
230
1
0
LINE
5
A1
100
AcDbEntity
8
80
62
256
6
ByLayer
370
18
48
1
60
0
100
AcDbLine
10
0
20
0
30
0
11
-6.08897
21
0
31
0
39
0
210
0
220
0
230
1
0
LINE
5
A2
100
AcDbEntity
8
1
62
256
6
ByLayer
370
18
48
1
60
0
100
AcDbLine
10
0.3
20
-16
30
0
11
59.7
21
-16
31
0
39
0
210
0
220
0
230
1
0
LINE
5
A3
100
AcDbEntity
8
81
62
256
6
ByLayer
370
18
48
1
60
0
100
AcDbLine
10
60
20
0
30
0
11
62.367097
21
0
31
0
39
0
210
0
220
0
230
1
0
LINE
5
A4
100
AcDbEntity
8
SK2
62
256
6
ByLayer
370
13
48
1
60
0
100
AcDbLine
10
-40.6
20
16
30
0
11
-40.6
21
-16
31
0
39
0
210
0
220
0
230
1
0
LINE
5
A6
100
AcDbEntity
8
SK2
62
256
6
ByLayer
370
13
48
1
60
0
100
AcDbLine
10
-1.5875
20
-16
30
0
11
-42.6
21
-16
31
0
39
0
210
0
220
0
230
1
0
LINE
5
A7
100
AcDbEntity
8
SK2
62
256
6
ByLayer
370
13
48
1
60
0
100
AcDbLine
10
-1.5875
20
16
30
0
11
-42.6
21
16
31
0
39
0
210
0
220
0
230
1
0
LINE
5
A8
100
AcDbEntity
8
1
62
256
6
ByLayer
370
18
48
1
60
1
100
AcDbLine
10
-40.6
20
-16
30
0
11
-41.060784
21
-12.500002
31
0
39
0
210
0
220
0
230
1
0
LINE
5
A9
100
AcDbEntity
8
1
62
256
6
ByLayer
370
18
48
1
60
1
100
AcDbLine
10
-41.060784
20
-12.500002
30
0
11
-40.139216
21
-12.499998
31
0
39
0
210
0
220
0
230
1
0
LINE
5
AA
100
AcDbEntity
8
1
62
256
6
ByLayer
370
18
48
1
60
1
100
AcDbLine
10
-40.139216
20
-12.499998
30
0
11
-40.6
21
-16
31
0
39
0
210
0
220
0
230
1
0
LINE
5
AB
100
AcDbEntity
8
1
62
256
6
ByLayer
370
18
48
1
60
1
100
AcDbLine
10
-40.6
20
16
30
0
11
-40.139216
21
12.500002
31
0
39
0
210
0
220
0
230
1
0
LINE
5
AC
100
AcDbEntity
8
1
62
256
6
ByLayer
370
18
48
1
60
1
100
AcDbLine
10
-40.139216
20
12.500002
30
0
11
-41.060784
21
12.499998
31
0
39
0
210
0
220
0
230
1
0
LINE
5
AD
100
AcDbEntity
8
1
62
256
6
ByLayer
370
18
48
1
60
1
100
AcDbLine
10
-41.060784
20
12.499998
30
0
11
-40.6
21
16
31
0
39
0
210
0
220
0
230
1
0
LINE
5
AE
100
AcDbEntity
8
SK2
62
256
6
ByLayer
370
13
48
1
60
0
100
AcDbLine
10
85.1
20
16
30
0
11
85.1
21
-16
31
0
39
0
210
0
220
0
230
1
0
LINE
5
AF
100
AcDbEntity
8
SK2
62
256
6
ByLayer
370
13
48
1
60
0
100
AcDbLine
10
61.5875
20
-16
30
0
11
87.1
21
-16
31
0
39
0
210
0
220
0
230
1
0
LINE
5
B0
100
AcDbEntity
8
SK2
62
256
6
ByLayer
370
13
48
1
60
0
100
AcDbLine
10
61.5875
20
16
30
0
11
87.1
21
16
31
0
39
0
210
0
220
0
230
1
0
LINE
5
B1
100
AcDbEntity
8
1
62
256
6
ByLayer
370
18
48
1
60
1
100
AcDbLine
10
85.1
20
-16
30
0
11
84.639216
21
-12.500002
31
0
39
0
210
0
220
0
230
1
0
LINE
5
B2
100
AcDbEntity
8
1
62
256
6
ByLayer
370
18
48
1
60
1
100
AcDbLine
10
84.639216
20
-12.500002
30
0
11
85.560784
21
-12.499998
31
0
39
0
210
0
220
0
230
1
0
LINE
5
B3
100
AcDbEntity
8
1
62
256
6
ByLayer
370
18
48
1
60
1
100
AcDbLine
10
85.560784
20
-12.499998
30
0
11
85.1
21
-16
31
0
39
0
210
0
220
0
230
1
0
LINE
5
B4
100
AcDbEntity
8
1
62
256
6
ByLayer
370
18
48
1
60
1
100
AcDbLine
10
85.1
20
16
30
0
11
85.560784
21
12.500002
31
0
39
0
210
0
220
0
230
1
0
LINE
5
B5
100
AcDbEntity
8
1
62
256
6
ByLayer
370
18
48
1
60
1
100
AcDbLine
10
85.560784
20
12.500002
30
0
11
84.639216
21
12.499998
31
0
39
0
210
0
220
0
230
1
0
LINE
5
B6
100
AcDbEntity
8
1
62
256
6
ByLayer
370
18
48
1
60
1
100
AcDbLine
10
84.639216
20
12.499998
30
0
11
85.1
21
16
31
0
39
0
210
0
220
0
230
1
0
LINE
5
E8
100
AcDbEntity
8
1
62
256
6
ByLayer
370
18
48
1
60
1
100
AcDbLine
10
-40.6
20
-16
30
0
11
-41.060784
21
-12.500002
31
0
39
0
210
0
220
0
230
1
0
LINE
5
E9
100
AcDbEntity
8
1
62
256
6
ByLayer
370
18
48
1
60
1
100
AcDbLine
10
-41.060784
20
-12.500002
30
0
11
-40.139216
21
-12.499998
31
0
39
0
210
0
220
0
230
1
0
LINE
5
EA
100
AcDbEntity
8
1
62
256
6
ByLayer
370
18
48
1
60
1
100
AcDbLine
10
-40.139216
20
-12.499998
30
0
11
-40.6
21
-16
31
0
39
0
210
0
220
0
230
1
0
LINE
5
EC
100
AcDbEntity
8
1
62
256
6
ByLayer
370
18
48
1
60
1
100
AcDbLine
10
-40.6
20
16
30
0
11
-40.139216
21
12.500002
31
0
39
0
210
0
220
0
230
1
0
LINE
5
ED
100
AcDbEntity
8
1
62
256
6
ByLayer
370
18
48
1
60
1
100
AcDbLine
10
-40.139216
20
12.500002
30
0
11
-41.060784
21
12.499998
31
0
39
0
210
0
220
0
230
1
0
LINE
5
EE
100
AcDbEntity
8
1
62
256
6
ByLayer
370
18
48
1
60
1
100
AcDbLine
10
-41.060784
20
12.499998
30
0
11
-40.6
21
16
31
0
39
0
210
0
220
0
230
1
0
LINE
5
F2
100
AcDbEntity
8
1
62
256
6
ByLayer
370
18
48
1
60
1
100
AcDbLine
10
85.1
20
-16
30
0
11
84.639216
21
-12.500002
31
0
39
0
210
0
220
0
230
1
0
LINE
5
F3
100
AcDbEntity
8
1
62
256
6
ByLayer
370
18
48
1
60
1
100
AcDbLine
10
84.639216
20
-12.500002
30
0
11
85.560784
21
-12.499998
31
0
39
0
210
0
220
0
230
1
0
LINE
5
F4
100
AcDbEntity
8
1
62
256
6
ByLayer
370
18
48
1
60
1
100
AcDbLine
10
85.560784
20
-12.499998
30
0
11
85.1
21
-16
31
0
39
0
210
0
220
0
230
1
0
LINE
5
F6
100
AcDbEntity
8
1
62
256
6
ByLayer
370
18
48
1
60
1
100
AcDbLine
10
85.1
20
16
30
0
11
85.560784
21
12.500002
31
0
39
0
210
0
220
0
230
1
0
LINE
5
F7
100
AcDbEntity
8
1
62
256
6
ByLayer
370
18
48
1
60
1
100
AcDbLine
10
85.560784
20
12.500002
30
0
11
84.639216
21
12.499998
31
0
39
0
210
0
220
0
230
1
0
LINE
5
F8
100
AcDbEntity
8
1
62
256
6
ByLayer
370
18
48
1
60
1
100
AcDbLine
10
84.639216
20
12.499998
30
0
11
85.1
21
16
31
0
39
0
210
0
220
0
230
1
0
MTEXT
5
E4
100
AcDbEntity
8
SK2
62
256
6
ByLayer
370
18
48
1
60
0
100
AcDbMText
10
-42.164634
20
-3.655088
30
0
210
0
220
0
230
1
1
%%c
40
3.5
41
0
44
1.084337
50
90
71
7
72
5
7
iso_b_vert
0
MTEXT
5
E7
100
AcDbEntity
8
SK2
62
256
6
ByLayer
370
18
48
1
60
0
100
AcDbMText
10
-42.164634
20
1.567568
30
0
210
0
220
0
230
1
1
\W0.6740;32
40
3.5
41
0
44
1.084337
50
90
71
7
72
5
7
iso_b_vert
0
MTEXT
5
F0
100
AcDbEntity
8
SK2
62
256
6
ByLayer
370
18
48
1
60
0
100
AcDbMText
10
83.535366
20
-3.655088
30
0
210
0
220
0
230
1
1
%%c
40
3.5
41
0
44
1.084337
50
90
71
7
72
5
7
iso_b_vert
0
MTEXT
5
F1
100
AcDbEntity
8
SK2
62
256
6
ByLayer
370
18
48
1
60
0
100
AcDbMText
10
83.535366
20
1.567568
30
0
210
0
220
0
230
1
1
\W0.6740;32
40
3.5
41
0
44
1.084337
50
90
71
7
72
5
7
iso_b_vert
0
MTEXT
5
FA
100
AcDbEntity
8
SK6
62
256
6
ByLayer
370
18
48
1
60
0
100
AcDbMText
10
0.1855
20
-31.717366
30
0
210
0
220
0
230
1
1
\W0.7239;C3-391.01-32060A
40
3.5
41
0
44
1.084337
50
0
71
7
72
5
7
iso_b_vert
0
HATCH
5
EB
100
AcDbEntity
8
SK2
62
256
6
ByLayer
370
13
48
1
60
0
100
AcDbHatch
10
0
20
0
30
0
210
0
220
0
230
1
2
ANSI31
70
0
71
0
91
1
92
5
93
3
72
1
10
-40.6
20
-16
11
-41.0607837415528
21
-12.5000016925532
72
1
10
-41.0607837415528
20
-12.5000016925532
11
-40.1392162584472
21
-12.4999983074468
72
1
10
-40.1392162584472
20
-12.4999983074468
11
-40.6
21
-16
97
0
75
0
76
1
52
0
41
0.0062
77
0
78
1
53
45
43
0
44
0
45
-0.0139193969876572
46
0.0139193969876572
79
0
47
0
98
1
10
0
20
0
0
HATCH
5
EF
100
AcDbEntity
8
SK2
62
256
6
ByLayer
370
13
48
1
60
0
100
AcDbHatch
10
0
20
0
30
0
210
0
220
0
230
1
2
ANSI31
70
0
71
0
91
1
92
5
93
3
72
1
10
-40.6
20
16
11
-40.1392162584472
21
12.5000016925532
72
1
10
-40.1392162584472
20
12.5000016925532
11
-41.0607837415528
21
12.4999983074468
72
1
10
-41.0607837415528
20
12.4999983074468
11
-40.6
21
16
97
0
75
0
76
1
52
0
41
0.0062
77
0
78
1
53
45
43
0
44
0
45
-0.0139193969876572
46
0.0139193969876572
79
0
47
0
98
1
10
0
20
0
0
HATCH
5
F5
100
AcDbEntity
8
SK2
62
256
6
ByLayer
370
13
48
1
60
0
100
AcDbHatch
10
0
20
0
30
0
210
0
220
0
230
1
2
ANSI31
70
0
71
0
91
1
92
5
93
3
72
1
10
85.1
20
-16
11
84.6392162584472
21
-12.5000016925532
72
1
10
84.6392162584472
20
-12.5000016925532
11
85.5607837415528
21
-12.4999983074468
72
1
10
85.5607837415528
20
-12.4999983074468
11
85.1
21
-16
97
0
75
0
76
1
52
0
41
0.0062
77
0
78
1
53
45
43
0
44
0
45
-0.0139193969876572
46
0.0139193969876572
79
0
47
0
98
1
10
0
20
0
0
HATCH
5
F9
100
AcDbEntity
8
SK2
62
256
6
ByLayer
370
13
48
1
60
0
100
AcDbHatch
10
0
20
0
30
0
210
0
220
0
230
1
2
ANSI31
70
0
71
0
91
1
92
5
93
3
72
1
10
85.1
20
16
11
85.5607837415528
21
12.5000016925532
72
1
10
85.5607837415528
20
12.5000016925532
11
84.6392162584472
21
12.4999983074468
72
1
10
84.6392162584472
20
12.4999983074468
11
85.1
21
16
97
0
75
0
76
1
52
0
41
0.0062
77
0
78
1
53
45
43
0
44
0
45
-0.0139193969876572
46
0.0139193969876572
79
0
47
0
98
1
10
0
20
0
0
DIMENSION
5
FD
100
AcDbEntity
8
2
62
256
6
ByLayer
370
18
48
1
60
0
100
AcDbDimension
2
_U0
10
0
20
32.6
30
0
11
30
21
32.6
31
0
70
32
71
1
72
1
41
1
210
0
220
0
230
1
3
Standard
100
AcDbAlignedDimension
13
60
23
16
33
0
14
0
24
16
34
0
50
0
100
AcDbRotatedDimension
1001
ACAD
1000
DSTYLE
1002
{
1070
   371
1070
    13
1070
   372
1070
    13
1070
   170
1070
     0
1070
   144
1040
1.0
1070
   277
1070
     2
1070
   284
1070
     8
1070
   278
1070
    44
1070
   146
1040
1.0
1070
   345
1005
16
1070
   347
1005
16
1070
   346
1005
16
1070
   344
1005
0
1070
   343
1005
0
1070
   172
1070
     1
1070
    76
1070
     0
1070
    75
1070
     0
1070
   282
1070
     0
1070
   281
1070
     0
1070
    71
1070
     0
1070
    74
1070
     0
1070
   279
1070
     0
1070
   173
1070
     1
1070
   340
1005
E5
1070
   271
1070
     1
1070
   272
1070
     2
1070
    77
1070
     1
1070
    73
1070
     1
1070
   171
1070
     3
1070
   274
1070
     4
1070
   177
1070
     2
1070
   176
1070
     2
1070
   178
1070
     2
1070
    78
1070
     8
1070
    48
1040
-0.1
1070
    41
1040
3.5
1070
   147
1040
1.75
1070
    42
1040
1.5875
1070
    44
1040
2.0
1070
   140
1040
3.5
1002
}
1001
ACAD_DSTYLE_DIM_LINETYPE
1070
   380
1005
16
1001
ACAD_DSTYLE_DIM_EXT1_LINETYPE
1070
   381
1005
16
1001
ACAD_DSTYLE_DIM_EXT2_LINETYPE
1070
   382
1005
16
0
DIMENSION
5
117
100
AcDbEntity
8
SK2
62
256
6
ByLayer
370
18
48
1
60
0
100
AcDbDimension
2
_U1
10
0
20
32.6
30
0
11
-9.5
21
32.6
31
0
70
32
71
1
72
1
41
1
210
0
220
0
230
1
3
Standard
100
AcDbAlignedDimension
13
-19
23
11
33
0
14
0
24
16
34
0
50
0
100
AcDbRotatedDimension
1001
ACAD
1000
DSTYLE
1002
{
1070
   371
1070
    13
1070
   372
1070
    13
1070
   170
1070
     0
1070
   144
1040
1.0
1070
   277
1070
     2
1070
   284
1070
     8
1070
   278
1070
    44
1070
   146
1040
1.0
1070
   345
1005
16
1070
   347
1005
16
1070
   346
1005
16
1070
   344
1005
0
1070
   343
1005
0
1070
   172
1070
     1
1070
    76
1070
     0
1070
    75
1070
     0
1070
   282
1070
     0
1070
   281
1070
     0
1070
    71
1070
     0
1070
    74
1070
     0
1070
   279
1070
     0
1070
   173
1070
     1
1070
   340
1005
E5
1070
   271
1070
     1
1070
   272
1070
     2
1070
    77
1070
     1
1070
    73
1070
     1
1070
   171
1070
     3
1070
   274
1070
     4
1070
   177
1070
     2
1070
   176
1070
     2
1070
   178
1070
     2
1070
    78
1070
     8
1070
    48
1040
-0.1
1070
    41
1040
3.5
1070
   147
1040
1.75
1070
    42
1040
1.5875
1070
    44
1040
2.0
1070
   140
1040
3.5
1002
}
1001
ACAD_DSTYLE_DIM_LINETYPE
1070
   380
1005
16
1001
ACAD_DSTYLE_DIM_EXT1_LINETYPE
1070
   381
1005
16
1001
ACAD_DSTYLE_DIM_EXT2_LINETYPE
1070
   382
1005
16
0
ENDSEC
0
SECTION
2
OBJECTS
0
DICTIONARY
5
19f
330
0
100
AcDbDictionary
280
0
281
1
3
ACAD_GROUP
350
1a0
3
ACAD_MLINESTYLE
350
1a1
0
DICTIONARY
5
1a0
330
0
100
AcDbDictionary
280
0
281
1
0
DICTIONARY
5
1a1
330
0
100
AcDbDictionary
280
0
281
1
3
Standard
350
18
0
MLINESTYLE
5
18
330
1a1
100
AcDbMlineStyle
2
Standard
70
0
3

62
256
51
90
52
90
71
2
49
-0.5
62
256
6
ByLayer
49
0.5
62
256
6
ByLayer
0
RASTERVARIABLES
5
18d
330

100
AcDbRasterVariables
90
0
70
1
71
1
72
1
0
ENDSEC
0
EOF
