0
SECTION
2
HEADER
9
$ACADVER
1
AC1015
9
$DWGCODEPAGE
3
ANSI_1252
9
$HANDSEED
5
26c
9
$ANGBASE
50
0
9
$ANGDIR
70
0
9
$ATTMODE
70
1
9
$AUNITS
70
0
9
$AUPREC
70
0
9
$CECOLOR
62
256
9
$CELTSCALE
40
1
9
$CELTYPE
6
ByLayer
9
$CELWEIGHT
370
18
9
$CLAYER
8
0
9
$CMLJUST
70
0
9
$CMLSCALE
40
1
9
$CMLSTYLE
2
Standard
9
$DIMSTYLE
2
Standard
9
$TEXTSIZE
40
0.2
9
$TEXTSTYLE
7
Standard
9
$LUNITS
70
2
9
$LUPREC
70
4
9
$EXTNAMES
290
1
9
$INSUNITS
70
4
9
$LTSCALE
40
1
9
$LWDISPLAY
290
1
9
$PDMODE
70
0
9
$PDSIZE
40
0
9
$PLINEGEN
70
0
0
ENDSEC
0
SECTION
2
CLASSES
0
CLASS
1
RASTERVARIABLES
2
AcDbRasterVariables
3
ISM
90
0
280
0
281
0
0
ENDSEC
0
SECTION
2
TABLES
0
TABLE
2
VPORT
5
262
100
AcDbSymbolTable
0
VPORT
5
1
100
AcDbSymbolTableRecord
100
AcDbViewportTableRecord
2
*Active
70
0
10
0
20
0
11
1
21
1
12
-1
22
1
13
0
23
0
14
0.5
24
0.5
15
10
25
10
16
0
26
0
36
1
17
0
27
0
37
0
0
ENDTAB
0
TABLE
2
LTYPE
5
263
100
AcDbSymbolTable
0
LTYPE
5
14
100
AcDbSymbolTableRecord
100
AcDbLinetypeTableRecord
70
0
2
ByBlock
3

72
65
73
0
40
0
0
LTYPE
5
15
100
AcDbSymbolTableRecord
100
AcDbLinetypeTableRecord
70
0
2
ByLayer
3

72
65
73
0
40
0
0
LTYPE
5
16
100
AcDbSymbolTableRecord
100
AcDbLinetypeTableRecord
70
0
2
CONTINUOUS
3
Solid line
72
65
73
0
40
0
0
LTYPE
5
6A
100
AcDbSymbolTableRecord
100
AcDbLinetypeTableRecord
70
0
2
CENTER
3
____ _ ____ _ ____ _ ____
72
65
73
4
40
47.5
49
22
74
0
49
-8.5
74
0
49
8.5
74
0
49
-8.5
74
0
0
LTYPE
5
6B
100
AcDbSymbolTableRecord
100
AcDbLinetypeTableRecord
70
0
2
DASHED
3
__ __ __ __ __ __ __ __ __
72
65
73
2
40
25.72
49
12.86
74
0
49
-12.86
74
0
0
ENDTAB
0
TABLE
2
LAYER
5
264
100
AcDbSymbolTable
0
LAYER
5
10
100
AcDbSymbolTableRecord
100
AcDbLayerTableRecord
2
0
70
0
62
7
6
CONTINUOUS
290
1
370
-3
390
0
0
LAYER
5
6D
100
AcDbSymbolTableRecord
100
AcDbLayerTableRecord
2
81
70
0
62
-3
6
CONTINUOUS
290
1
370
-3
390
0
0
LAYER
5
6F
100
AcDbSymbolTableRecord
100
AcDbLayerTableRecord
2
80
70
0
62
-6
6
CONTINUOUS
290
1
370
-3
390
0
0
LAYER
5
71
100
AcDbSymbolTableRecord
100
AcDbLayerTableRecord
2
1
70
0
62
4
6
CONTINUOUS
290
1
370
-3
390
0
0
LAYER
5
FC
100
AcDbSymbolTableRecord
100
AcDbLayerTableRecord
2
4
70
0
62
-2
6
CENTER
290
1
370
-3
390
0
0
LAYER
5
1DA
100
AcDbSymbolTableRecord
100
AcDbLayerTableRecord
2
2
70
0
62
7
6
CONTINUOUS
290
1
370
-3
390
0
0
LAYER
5
24e
100
AcDbSymbolTableRecord
100
AcDbLayerTableRecord
2
SK1
70
0
62
4
6
CONTINUOUS
290
1
370
-3
390
0
0
LAYER
5
24f
100
AcDbSymbolTableRecord
100
AcDbLayerTableRecord
2
SK4
70
0
62
2
6
CENTER
290
1
370
-3
390
0
0
LAYER
5
250
100
AcDbSymbolTableRecord
100
AcDbLayerTableRecord
2
SK6
70
0
62
5
6
CONTINUOUS
290
1
370
-3
390
0
0
LAYER
5
251
100
AcDbSymbolTableRecord
100
AcDbLayerTableRecord
2
SK2
70
0
62
7
6
CONTINUOUS
290
1
370
-3
390
0
0
ENDTAB
0
TABLE
2
STYLE
5
265
100
AcDbSymbolTable
0
STYLE
5
11
100
AcDbSymbolTableRecord
100
AcDbTextStyleTableRecord
2
Standard
3
txt
70
0
71
0
40
0
41
1
42
0
50
0
0
STYLE
5
1A9
100
AcDbSymbolTableRecord
100
AcDbTextStyleTableRecord
2
iso_b_vert
3
simplex.shx
70
0
71
0
40
0
41
1
42
0
50
0
0
STYLE
5
1AA
100
AcDbSymbolTableRecord
100
AcDbTextStyleTableRecord
2
DWGDirectTextStyle
3
simplex
70
0
71
0
40
0
41
1
42
0
50
0
0
ENDTAB
0
TABLE
2
DIMSTYLE
5
266
100
AcDbSymbolTable
100
AcDbDimStyleTable
0
DIMSTYLE
105
27
100
AcDbSymbolTableRecord
100
AcDbDimStyleTableRecord
2
Standard
70
0
3
<>
41
0.18
42
0.0625
44
0.18
140
0.18
147
0.09
73
0
74
0
77
1
271
2
275
0
278
52
280
0
340
11
0
ENDTAB
0
TABLE
2
VIEW
5
267
100
AcDbSymbolTable
0
ENDTAB
0
TABLE
2
UCS
5
268
100
AcDbSymbolTable
0
ENDTAB
0
TABLE
2
APPID
5
269
100
AcDbSymbolTable
0
APPID
5
12
100
AcDbSymbolTableRecord
100
AcDbRegAppTableRecord
2
ACAD
70
0
0
ENDTAB
0
TABLE
2
BLOCK_RECORD
5
26a
100
AcDbSymbolTable
0
BLOCK_RECORD
5
1F
100
AcDbSymbolTableRecord
100
AcDbBlockTableRecord
2
*Model_Space
340
0
70
0
0
BLOCK_RECORD
5
1B
100
AcDbSymbolTableRecord
100
AcDbBlockTableRecord
2
*Paper_Space
340
0
70
0
0
BLOCK_RECORD
5
23
100
AcDbSymbolTableRecord
100
AcDbBlockTableRecord
2
*Paper_Space0
340
0
70
0
0
BLOCK_RECORD
5
1AC
100
AcDbSymbolTableRecord
100
AcDbBlockTableRecord
2
DimnDraft3D1
340
0
70
0
0
BLOCK_RECORD
5
1BC
100
AcDbSymbolTableRecord
100
AcDbBlockTableRecord
2
DimnDraft3D2
340
0
70
0
0
BLOCK_RECORD
5
1CA
100
AcDbSymbolTableRecord
100
AcDbBlockTableRecord
2
DimnDraft3D3
340
0
70
0
0
BLOCK_RECORD
5
1D8
100
AcDbSymbolTableRecord
100
AcDbBlockTableRecord
2
DimnDraft3D4
340
0
70
0
0
BLOCK_RECORD
5
1E7
100
AcDbSymbolTableRecord
100
AcDbBlockTableRecord
2
DimnDraft3D5
340
0
70
0
0
ENDTAB
0
ENDSEC
0
SECTION
2
BLOCKS
0
BLOCK
5
20
100
AcDbEntity
8
0
100
AcDbBlockBegin
2
*Model_Space
70
0
10
0
20
0
30
0
3
*Model_Space
0
ENDBLK
5
21
100
AcDbEntity
8
0
100
AcDbBlockEnd
0
BLOCK
5
1C
100
AcDbEntity
8
0
100
AcDbBlockBegin
2
*Paper_Space
70
0
10
0
20
0
30
0
3
*Paper_Space
0
ENDBLK
5
1D
100
AcDbEntity
8
0
100
AcDbBlockEnd
0
BLOCK
5
24
100
AcDbEntity
8
0
100
AcDbBlockBegin
2
*Paper_Space0
70
0
10
0
20
0
30
0
3
*Paper_Space0
0
ENDBLK
5
25
100
AcDbEntity
8
0
100
AcDbBlockEnd
0
BLOCK
5
1B9
100
AcDbEntity
8
0
100
AcDbBlockBegin
2
DimnDraft3D1
70
0
10
0
20
0
30
0
3
DimnDraft3D1
0
MTEXT
5
1AD
100
AcDbEntity
8
SK2
62
256
6
ByLayer
370
18
48
1
60
0
100
AcDbMText
10
-71.013869
20
3.233006
30
0
210
0
220
0
230
1
1
\W0.6044;100
40
3.50012
41
0
44
1.084337
50
90
71
7
72
5
7
iso_b_vert
0
MTEXT
5
1AF
100
AcDbEntity
8
SK2
62
256
6
ByLayer
370
18
48
1
60
0
100
AcDbMText
10
-71.013869
20
-5.48995
30
0
210
0
220
0
230
1
1
%%c
40
3.50012
41
0
44
1.084337
50
90
71
7
72
5
7
iso_b_vert
0
LINE
5
1B0
100
AcDbEntity
8
SK2
62
256
6
ByLayer
370
13
48
1
60
0
100
AcDbLine
10
-1.2875
20
-50
30
0
11
-72.438809
21
-50
31
0
39
0
210
0
220
0
230
1
0
LINE
5
1B1
100
AcDbEntity
8
SK2
62
256
6
ByLayer
370
13
48
1
60
0
100
AcDbLine
10
-1.2875
20
50
30
0
11
-72.438809
21
50
31
0
39
0
210
0
220
0
230
1
0
LINE
5
1B2
100
AcDbEntity
8
SK2
62
256
6
ByLayer
370
13
48
1
60
0
100
AcDbLine
10
-69.263809
20
-50
30
0
11
-69.263809
21
50
31
0
39
0
210
0
220
0
230
1
0
LINE
5
1B3
100
AcDbEntity
8
SK2
62
256
6
ByLayer
370
13
48
1
60
0
100
AcDbLine
10
-69.263809
20
-50
30
0
11
-69.681806
21
-46.825002
31
0
39
0
210
0
220
0
230
1
0
LINE
5
1B4
100
AcDbEntity
8
SK2
62
256
6
ByLayer
370
13
48
1
60
0
100
AcDbLine
10
-69.263809
20
-50
30
0
11
-68.845813
21
-46.824998
31
0
39
0
210
0
220
0
230
1
0
LINE
5
1B5
100
AcDbEntity
8
SK2
62
256
6
ByLayer
370
13
48
1
60
0
100
AcDbLine
10
-69.681806
20
-46.825002
30
0
11
-68.845813
21
-46.824998
31
0
39
0
210
0
220
0
230
1
0
LINE
5
1B6
100
AcDbEntity
8
SK2
62
256
6
ByLayer
370
13
48
1
60
0
100
AcDbLine
10
-69.263809
20
50
30
0
11
-68.845813
21
46.825002
31
0
39
0
210
0
220
0
230
1
0
LINE
5
1B7
100
AcDbEntity
8
SK2
62
256
6
ByLayer
370
13
48
1
60
0
100
AcDbLine
10
-69.263809
20
50
30
0
11
-69.681806
21
46.824998
31
0
39
0
210
0
220
0
230
1
0
LINE
5
1B8
100
AcDbEntity
8
SK2
62
256
6
ByLayer
370
13
48
1
60
0
100
AcDbLine
10
-68.845813
20
46.825002
30
0
11
-69.681806
21
46.824998
31
0
39
0
210
0
220
0
230
1
0
ENDBLK
5
1BA
100
AcDbEntity
8
0
100
AcDbBlockEnd
0
BLOCK
5
1C7
100
AcDbEntity
8
0
100
AcDbBlockBegin
2
DimnDraft3D2
70
0
10
0
20
0
30
0
3
DimnDraft3D2
0
MTEXT
5
1BD
100
AcDbEntity
8
SK2
62
256
6
ByLayer
370
18
48
1
60
0
100
AcDbMText
10
109.635126
20
-28.454123
30
0
210
0
220
0
230
1
1
\W0.6367;51.5
40
3.50012
41
0
44
1.084337
50
90
71
7
72
5
7
iso_b_vert
0
LINE
5
1BE
100
AcDbEntity
8
SK2
62
256
6
ByLayer
370
13
48
1
60
0
100
AcDbLine
10
95.924595
20
0
30
0
11
113.685156
21
0
31
0
39
0
210
0
220
0
230
1
0
LINE
5
1BF
100
AcDbEntity
8
SK2
62
256
6
ByLayer
370
13
48
1
60
0
100
AcDbLine
10
71.5875
20
-51.501481
30
0
11
113.685156
21
-51.501481
31
0
39
0
210
0
220
0
230
1
0
LINE
5
1C0
100
AcDbEntity
8
SK2
62
256
6
ByLayer
370
13
48
1
60
0
100
AcDbLine
10
110.510156
20
0
30
0
11
110.510156
21
-51.501481
31
0
39
0
210
0
220
0
230
1
0
LINE
5
1C1
100
AcDbEntity
8
SK2
62
256
6
ByLayer
370
13
48
1
60
0
100
AcDbLine
10
110.510156
20
0
30
0
11
110.928153
21
-3.174998
31
0
39
0
210
0
220
0
230
1
0
LINE
5
1C2
100
AcDbEntity
8
SK2
62
256
6
ByLayer
370
13
48
1
60
0
100
AcDbLine
10
110.510156
20
0
30
0
11
110.09216
21
-3.175002
31
0
39
0
210
0
220
0
230
1
0
LINE
5
1C3
100
AcDbEntity
8
SK2
62
256
6
ByLayer
370
13
48
1
60
0
100
AcDbLine
10
110.928153
20
-3.174998
30
0
11
110.09216
21
-3.175002
31
0
39
0
210
0
220
0
230
1
0
LINE
5
1C4
100
AcDbEntity
8
SK2
62
256
6
ByLayer
370
13
48
1
60
0
100
AcDbLine
10
110.510156
20
-51.501481
30
0
11
110.09216
21
-48.326482
31
0
39
0
210
0
220
0
230
1
0
LINE
5
1C5
100
AcDbEntity
8
SK2
62
256
6
ByLayer
370
13
48
1
60
0
100
AcDbLine
10
110.510156
20
-51.501481
30
0
11
110.928153
21
-48.326479
31
0
39
0
210
0
220
0
230
1
0
LINE
5
1C6
100
AcDbEntity
8
SK2
62
256
6
ByLayer
370
13
48
1
60
0
100
AcDbLine
10
110.09216
20
-48.326482
30
0
11
110.928153
21
-48.326479
31
0
39
0
210
0
220
0
230
1
0
ENDBLK
5
1C8
100
AcDbEntity
8
0
100
AcDbBlockEnd
0
BLOCK
5
1D5
100
AcDbEntity
8
0
100
AcDbBlockBegin
2
DimnDraft3D3
70
0
10
0
20
0
30
0
3
DimnDraft3D3
0
MTEXT
5
1CB
100
AcDbEntity
8
SK2
62
256
6
ByLayer
370
18
48
1
60
0
100
AcDbMText
10
41.891994
20
61.576411
30
0
210
0
220
0
230
1
1
\W0.7346;90.2
40
3.50012
41
0
44
1.084337
50
0
71
7
72
5
7
iso_b_vert
0
LINE
5
1CC
100
AcDbEntity
8
SK2
62
256
6
ByLayer
370
13
48
1
60
0
100
AcDbLine
10
0
20
51.2875
30
0
11
0
21
63.876381
31
0
39
0
210
0
220
0
230
1
0
LINE
5
1CD
100
AcDbEntity
8
SK2
62
256
6
ByLayer
370
13
48
1
60
0
100
AcDbLine
10
90.25
20
-13.211997
30
0
11
90.25
21
63.876381
31
0
39
0
210
0
220
0
230
1
0
LINE
5
1CE
100
AcDbEntity
8
SK2
62
256
6
ByLayer
370
13
48
1
60
0
100
AcDbLine
10
0
20
60.701381
30
0
11
90.25
21
60.701381
31
0
39
0
210
0
220
0
230
1
0
LINE
5
1CF
100
AcDbEntity
8
SK2
62
256
6
ByLayer
370
13
48
1
60
0
100
AcDbLine
10
0
20
60.701381
30
0
11
3.174998
21
61.119378
31
0
39
0
210
0
220
0
230
1
0
LINE
5
1D0
100
AcDbEntity
8
SK2
62
256
6
ByLayer
370
13
48
1
60
0
100
AcDbLine
10
0
20
60.701381
30
0
11
3.175002
21
60.283384
31
0
39
0
210
0
220
0
230
1
0
LINE
5
1D1
100
AcDbEntity
8
SK2
62
256
6
ByLayer
370
13
48
1
60
0
100
AcDbLine
10
3.174998
20
61.119378
30
0
11
3.175002
21
60.283384
31
0
39
0
210
0
220
0
230
1
0
LINE
5
1D2
100
AcDbEntity
8
SK2
62
256
6
ByLayer
370
13
48
1
60
0
100
AcDbLine
10
90.25
20
60.701381
30
0
11
87.075002
21
60.283384
31
0
39
0
210
0
220
0
230
1
0
LINE
5
1D3
100
AcDbEntity
8
SK2
62
256
6
ByLayer
370
13
48
1
60
0
100
AcDbLine
10
90.25
20
60.701381
30
0
11
87.074998
21
61.119378
31
0
39
0
210
0
220
0
230
1
0
LINE
5
1D4
100
AcDbEntity
8
SK2
62
256
6
ByLayer
370
13
48
1
60
0
100
AcDbLine
10
87.075002
20
60.283384
30
0
11
87.074998
21
61.119378
31
0
39
0
210
0
220
0
230
1
0
ENDBLK
5
1D6
100
AcDbEntity
8
0
100
AcDbBlockEnd
0
BLOCK
5
1E4
100
AcDbEntity
8
0
100
AcDbBlockBegin
2
DimnDraft3D4
70
0
10
0
20
0
30
0
3
DimnDraft3D4
0
MTEXT
5
1D9
100
AcDbEntity
8
2
62
256
6
ByLayer
370
18
48
1
60
0
100
AcDbMText
10
33.784169
20
-89.42922
30
0
210
0
220
0
230
1
1
\W0.6740;70
40
3.50012
41
0
44
1.084337
50
0
71
7
72
5
7
iso_b_vert
0
LINE
5
1DB
100
AcDbEntity
8
2
62
256
6
ByLayer
370
13
48
1
60
0
100
AcDbLine
10
0
20
-51.2875
30
0
11
0
21
-93.47925
31
0
39
0
210
0
220
0
230
1
0
LINE
5
1DC
100
AcDbEntity
8
2
62
256
6
ByLayer
370
13
48
1
60
0
100
AcDbLine
10
70
20
-68.525981
30
0
11
70
21
-93.47925
31
0
39
0
210
0
220
0
230
1
0
LINE
5
1DD
100
AcDbEntity
8
2
62
256
6
ByLayer
370
13
48
1
60
0
100
AcDbLine
10
0
20
-90.30425
30
0
11
70
21
-90.30425
31
0
39
0
210
0
220
0
230
1
0
LINE
5
1DE
100
AcDbEntity
8
2
62
256
6
ByLayer
370
13
48
1
60
0
100
AcDbLine
10
0
20
-90.30425
30
0
11
3.174998
21
-89.886253
31
0
39
0
210
0
220
0
230
1
0
LINE
5
1DF
100
AcDbEntity
8
2
62
256
6
ByLayer
370
13
48
1
60
0
100
AcDbLine
10
0
20
-90.30425
30
0
11
3.175002
21
-90.722247
31
0
39
0
210
0
220
0
230
1
0
LINE
5
1E0
100
AcDbEntity
8
2
62
256
6
ByLayer
370
13
48
1
60
0
100
AcDbLine
10
3.174998
20
-89.886253
30
0
11
3.175002
21
-90.722247
31
0
39
0
210
0
220
0
230
1
0
LINE
5
1E1
100
AcDbEntity
8
2
62
256
6
ByLayer
370
13
48
1
60
0
100
AcDbLine
10
70
20
-90.30425
30
0
11
66.825002
21
-90.722247
31
0
39
0
210
0
220
0
230
1
0
LINE
5
1E2
100
AcDbEntity
8
2
62
256
6
ByLayer
370
13
48
1
60
0
100
AcDbLine
10
70
20
-90.30425
30
0
11
66.824998
21
-89.886253
31
0
39
0
210
0
220
0
230
1
0
LINE
5
1E3
100
AcDbEntity
8
2
62
256
6
ByLayer
370
13
48
1
60
0
100
AcDbLine
10
66.825002
20
-90.722247
30
0
11
66.824998
21
-89.886253
31
0
39
0
210
0
220
0
230
1
0
ENDBLK
5
1E5
100
AcDbEntity
8
0
100
AcDbBlockEnd
0
BLOCK
5
1F2
100
AcDbEntity
8
0
100
AcDbBlockBegin
2
DimnDraft3D5
70
0
10
0
20
0
30
0
3
DimnDraft3D5
0
MTEXT
5
1E8
100
AcDbEntity
8
SK2
62
256
6
ByLayer
370
18
48
1
60
0
100
AcDbMText
10
61.830096
20
-81.006595
30
0
210
0
220
0
230
1
1
\W0.7361;40
40
3.50012
41
0
44
1.084337
50
0
71
7
72
5
7
iso_b_vert
0
LINE
5
1E9
100
AcDbEntity
8
SK2
62
256
6
ByLayer
370
13
48
1
60
0
100
AcDbLine
10
50
20
-52.5875
30
0
11
50
21
-85.056625
31
0
39
0
210
0
220
0
230
1
0
LINE
5
1EA
100
AcDbEntity
8
SK2
62
256
6
ByLayer
370
13
48
1
60
0
100
AcDbLine
10
90
20
-52.5875
30
0
11
90
21
-85.056625
31
0
39
0
210
0
220
0
230
1
0
LINE
5
1EB
100
AcDbEntity
8
SK2
62
256
6
ByLayer
370
13
48
1
60
0
100
AcDbLine
10
50
20
-81.881625
30
0
11
90
21
-81.881625
31
0
39
0
210
0
220
0
230
1
0
LINE
5
1EC
100
AcDbEntity
8
SK2
62
256
6
ByLayer
370
13
48
1
60
0
100
AcDbLine
10
50
20
-81.881625
30
0
11
53.174998
21
-81.463628
31
0
39
0
210
0
220
0
230
1
0
LINE
5
1ED
100
AcDbEntity
8
SK2
62
256
6
ByLayer
370
13
48
1
60
0
100
AcDbLine
10
50
20
-81.881625
30
0
11
53.175002
21
-82.299622
31
0
39
0
210
0
220
0
230
1
0
LINE
5
1EE
100
AcDbEntity
8
SK2
62
256
6
ByLayer
370
13
48
1
60
0
100
AcDbLine
10
53.174998
20
-81.463628
30
0
11
53.175002
21
-82.299622
31
0
39
0
210
0
220
0
230
1
0
LINE
5
1EF
100
AcDbEntity
8
SK2
62
256
6
ByLayer
370
13
48
1
60
0
100
AcDbLine
10
90
20
-81.881625
30
0
11
86.825002
21
-82.299622
31
0
39
0
210
0
220
0
230
1
0
LINE
5
1F0
100
AcDbEntity
8
SK2
62
256
6
ByLayer
370
13
48
1
60
0
100
AcDbLine
10
90
20
-81.881625
30
0
11
86.824998
21
-81.463628
31
0
39
0
210
0
220
0
230
1
0
LINE
5
1F1
100
AcDbEntity
8
SK2
62
256
6
ByLayer
370
13
48
1
60
0
100
AcDbLine
10
86.825002
20
-82.299622
30
0
11
86.824998
21
-81.463628
31
0
39
0
210
0
220
0
230
1
0
ENDBLK
5
1F3
100
AcDbEntity
8
0
100
AcDbBlockEnd
0
ENDSEC
0
SECTION
2
ENTITIES
0
ARC
5
100
100
AcDbEntity
8
1
62
256
6
ByLayer
370
18
48
1
60
0
100
AcDbCircle
39
0
10
74.5
20
-51.159481
30
0
40
0.154500000000086
210
0
220
0
230
1
100
AcDbArc
50
30
51
150
0
ARC
5
101
100
AcDbEntity
8
1
62
256
6
ByLayer
370
18
48
1
60
0
100
AcDbCircle
39
0
10
73
20
-51.159481
30
0
40
0.154500000000067
210
0
220
0
230
1
100
AcDbArc
50
30
51
150
0
ARC
5
102
100
AcDbEntity
8
1
62
256
6
ByLayer
370
18
48
1
60
0
100
AcDbCircle
39
0
10
71.5
20
-51.159481
30
0
40
0.154500000000036
210
0
220
0
230
1
100
AcDbArc
50
30
51
150
0
ARC
5
103
100
AcDbEntity
8
1
62
256
6
ByLayer
370
18
48
1
60
0
100
AcDbCircle
39
0
10
70
20
-51.159481
30
0
40
0.154500000000036
210
0
220
0
230
1
100
AcDbArc
50
30
51
150
0
ARC
5
104
100
AcDbEntity
8
1
62
256
6
ByLayer
370
18
48
1
60
0
100
AcDbCircle
39
0
10
68.5
20
-51.159481
30
0
40
0.1545
210
0
220
0
230
1
100
AcDbArc
50
30
51
150
0
ARC
5
105
100
AcDbEntity
8
1
62
256
6
ByLayer
370
18
48
1
60
0
100
AcDbCircle
39
0
10
67
20
-51.159481
30
0
40
0.154499999999976
210
0
220
0
230
1
100
AcDbArc
50
30
51
150
0
ARC
5
106
100
AcDbEntity
8
1
62
256
6
ByLayer
370
18
48
1
60
0
100
AcDbCircle
39
0
10
65.5
20
-51.159481
30
0
40
0.154499999999976
210
0
220
0
230
1
100
AcDbArc
50
30
51
150
0
ARC
5
107
100
AcDbEntity
8
1
62
256
6
ByLayer
370
18
48
1
60
0
100
AcDbCircle
39
0
10
68.632708
20
-65.225019
30
0
40
0.5
210
0
220
0
230
1
100
AcDbArc
50
270
51
0
0
ARC
5
108
100
AcDbEntity
8
1
62
256
6
ByLayer
370
18
48
1
60
0
100
AcDbCircle
39
0
10
56.632708
20
-65.225019
30
0
40
0.5
210
0
220
0
230
1
100
AcDbArc
50
180
51
270
0
ARC
5
109
100
AcDbEntity
8
1
62
256
6
ByLayer
370
18
48
1
60
0
100
AcDbCircle
39
0
10
83.367292
20
-65.225019
30
0
40
0.5
210
0
220
0
230
1
100
AcDbArc
50
270
51
0
0
ARC
5
10A
100
AcDbEntity
8
1
62
256
6
ByLayer
370
18
48
1
60
0
100
AcDbCircle
39
0
10
71.367292
20
-65.225019
30
0
40
0.5
210
0
220
0
230
1
100
AcDbArc
50
180
51
270
0
ELLIPSE
5
10B
100
AcDbEntity
8
1
62
256
6
ByLayer
370
18
48
1
60
0
100
AcDbEllipse
10
39.094011
20
0
30
0
11
-23.4185446994526
21
49.3543728818727
31
0
210
0
220
0
230
-1
40
0.341999
41
-1.09444724969938
42
-0.154598522698919
0
ELLIPSE
5
10C
100
AcDbEntity
8
1
62
256
6
ByLayer
370
18
48
1
60
0
100
AcDbEllipse
10
-7.094011
20
0
30
0
11
23.4185446994556
21
49.3543728818766
31
0
210
0
220
0
230
-1
40
0.341999
41
0.154598522698911
42
1.0944472496993
0
ELLIPSE
5
10D
100
AcDbEntity
8
1
62
256
6
ByLayer
370
18
48
1
60
0
100
AcDbEllipse
10
-7.094011
20
0
30
0
11
-23.4185446994575
21
49.3543728818787
31
0
210
0
220
0
230
-1
40
0.341999
41
2.04714540389051
42
2.98699413089087
0
ELLIPSE
5
10E
100
AcDbEntity
8
1
62
256
6
ByLayer
370
18
48
1
60
0
100
AcDbEllipse
10
-7.094011
20
0
30
0
11
23.4185446994556
21
49.3543728818766
31
0
210
0
220
0
230
-1
40
0.341999
41
0.154598522698911
42
1.0944472496993
0
ELLIPSE
5
10F
100
AcDbEntity
8
1
62
256
6
ByLayer
370
18
48
1
60
0
100
AcDbEllipse
10
39.094011
20
0
30
0
11
23.418544699456
21
49.3543728818767
31
0
210
0
220
0
230
-1
40
0.341999
41
-2.98699413089089
42
-2.04714540389048
0
ELLIPSE
5
110
100
AcDbEntity
8
1
62
256
6
ByLayer
370
18
48
1
60
0
100
AcDbEllipse
10
39.094011
20
0
30
0
11
-23.4185446994526
21
49.3543728818727
31
0
210
0
220
0
230
-1
40
0.341999
41
-1.09444724969938
42
-0.154598522698919
0
POINT
5
6C
100
AcDbEntity
8
81
62
256
6
ByLayer
370
18
48
1
60
0
100
AcDbPoint
10
70
20
-51.501481
30
0
39
0
210
0
220
0
230
1
50
360
0
POINT
5
6E
100
AcDbEntity
8
80
62
256
6
ByLayer
370
18
48
1
60
0
100
AcDbPoint
10
0
20
0
30
0
39
0
210
0
220
0
230
1
50
360
0
SPLINE
5
111
100
AcDbEntity
8
1
62
256
6
ByLayer
370
18
48
1
60
0
100
AcDbSpline
70
4
71
3
72
10
73
6
40
0
40
0
40
0
40
0
40
0.500719913220808
40
0.500719913220808
40
1
40
1
40
1
40
1
41
1
10
50.2538502579759
20
-50.8000000000002
30
0
41
1
10
50.1144698426525
20
-50.8000000000002
30
0
41
1
10
50.0075690375963
20
-50.8000000000002
30
0
41
1
10
49.8645895967117
20
-50.8000000000002
30
0
41
1
10
49.8283440233363
20
-50.8000000000002
30
0
41
1
10
49.8282212579751
20
-50.8000000000002
30
0
0
SPLINE
5
112
100
AcDbEntity
8
1
62
256
6
ByLayer
370
18
48
1
60
0
100
AcDbSpline
70
4
71
3
72
18
73
14
40
0
40
0
40
0
40
0
40
0.25
40
0.25
40
0.5
40
0.5
40
0.75
40
0.75
40
0.875
40
0.875
40
0.9375
40
0.9375
40
1
40
1
40
1
40
1
41
1
10
60.3475990982499
20
-50.8000000000002
30
0
41
1
10
59.2797629652577
20
-50.8000000000002
30
0
41
1
10
58.2491766816634
20
-50.8000000000002
30
0
41
1
10
56.2860595107444
20
-50.8000000000002
30
0
41
1
10
55.3534275795694
20
-50.8000000000002
30
0
41
1
10
53.6186799447869
20
-50.8000000000002
30
0
41
1
10
52.8164450320219
20
-50.8000000000002
30
0
41
1
10
51.7446341757629
20
-50.8000000000002
30
0
41
1
10
51.4093966039536
20
-50.8000000000002
30
0
41
1
10
50.944901261364
20
-50.8000000000002
30
0
41
1
10
50.7963703528376
20
-50.8000000000002
30
0
41
1
10
50.5135261056076
20
-50.8000000000002
30
0
41
1
10
50.3797197275869
20
-50.8000000000002
30
0
41
1
10
50.253850257976
20
-50.8000000000002
30
0
0
SPLINE
5
113
100
AcDbEntity
8
1
62
256
6
ByLayer
370
18
48
1
60
0
100
AcDbSpline
70
4
71
3
72
18
73
14
40
0
40
0
40
0
40
0
40
0.250000000000022
40
0.250000000000022
40
0.500000000000043
40
0.500000000000043
40
0.625000000000032
40
0.625000000000032
40
0.750000000000022
40
0.750000000000022
40
0.875000000000011
40
0.875000000000011
40
1
40
1
40
1
40
1
41
1
10
80.5868035654747
20
-51.0316709670318
30
0
41
1
10
80.5760915674578
20
-51.0243957947779
30
0
41
1
10
80.5640333043649
20
-51.0180947731642
30
0
41
1
10
80.5359606052535
20
-51.0084936989076
30
0
41
1
10
80.520292589157
20
-51.0051822495457
30
0
41
1
10
80.4922466006953
20
-51.0048926500162
30
0
41
1
10
80.4820725684835
20
-51.0056008426195
30
0
41
1
10
80.4596584251616
20
-51.0099047568297
30
0
41
1
10
80.4473745522521
20
-51.0134658178231
30
0
41
1
10
80.42057885474
20
-51.026131266127
30
0
41
1
10
80.406062206861
20
-51.0357009616872
30
0
41
1
10
80.3819118131833
20
-51.0584810762793
30
0
41
1
10
80.3728215811863
20
-51.0707604301732
30
0
41
1
10
80.3661990751151
20
-51.0822309471619
30
0
0
SPLINE
5
114
100
AcDbEntity
8
1
62
256
6
ByLayer
370
18
48
1
60
0
100
AcDbSpline
70
4
71
3
72
8
73
4
40
0
40
0
40
0
40
0
40
1
40
1
40
1
40
1
41
1
10
79.9802537178637
20
-51.7507079148665
30
0
41
1
10
80.1076188680562
20
-51.5301050036194
30
0
41
1
10
80.2364800461178
20
-51.3069108960936
30
0
41
1
10
80.366199075115
20
-51.082230947162
30
0
0
SPLINE
5
115
100
AcDbEntity
8
1
62
256
6
ByLayer
370
18
48
1
60
0
100
AcDbSpline
70
4
71
3
72
12
73
8
40
0
40
0
40
0
40
0
40
0.25
40
0.25
40
0.5
40
0.5
40
1
40
1
40
1
40
1
41
1
10
79.9452353838241
20
-51.7922205393034
30
0
41
1
10
79.9366656843998
20
-51.7991947105643
30
0
41
1
10
79.9273540223102
20
-51.8050514193376
30
0
41
1
10
79.9099804468298
20
-51.8137873543921
30
0
41
1
10
79.9018279654195
20
-51.816835612194
30
0
41
1
10
79.8787299906522
20
-51.8236028679146
30
0
41
1
10
79.8654197300609
20
-51.8249809471619
30
0
41
1
10
79.8530790233727
20
-51.8249809471619
30
0
0
SPLINE
5
116
100
AcDbEntity
8
1
62
256
6
ByLayer
370
18
48
1
60
0
100
AcDbSpline
70
4
71
3
72
10
73
6
40
0
40
0
40
0
40
0
40
0.5
40
0.5
40
1
40
1
40
1
40
1
41
1
10
79.6469209766267
20
-51.8249809471619
30
0
41
1
10
79.6151456399557
20
-51.8249809471619
30
0
41
1
10
79.5903786279503
20
-51.8157668775138
30
0
41
1
10
79.549092753145
20
-51.7900532957753
30
0
41
1
10
79.5325898131687
20
-51.7729535631641
30
0
41
1
10
79.5204812676742
20
-51.7519809471619
30
0
0
SPLINE
5
117
100
AcDbEntity
8
1
62
256
6
ByLayer
370
18
48
1
60
0
100
AcDbSpline
70
4
71
3
72
8
73
4
40
0
40
0
40
0
40
0
40
1
40
1
40
1
40
1
41
1
10
79.1338009248845
20
-51.082230947162
30
0
41
1
10
79.2740438648727
20
-51.3251388446244
30
0
41
1
10
79.4044665117312
20
-51.5510374954409
30
0
41
1
10
79.5204812676743
20
-51.751980947162
30
0
0
SPLINE
5
118
100
AcDbEntity
8
1
62
256
6
ByLayer
370
18
48
1
60
0
100
AcDbSpline
70
4
71
3
72
18
73
14
40
0
40
0
40
0
40
0
40
0.249999999999999
40
0.249999999999999
40
0.499999999999999
40
0.499999999999999
40
0.624999999999999
40
0.624999999999999
40
0.749999999999999
40
0.749999999999999
40
0.875
40
0.875
40
1
40
1
40
1
40
1
41
1
10
79.1338009248845
20
-51.0822309471619
30
0
41
1
10
79.1237857639754
20
-51.0648841796214
30
0
41
1
10
79.1106658186449
20
-51.0496120212697
30
0
41
1
10
79.0770454803463
20
-51.0239003502784
30
0
41
1
10
79.0563771709336
20
-51.0132951957627
30
0
41
1
10
79.0180948057916
20
-51.0054925374292
30
0
41
1
10
79.0043846282919
20
-51.00429073821
30
0
41
1
10
78.9739327792733
20
-51.0064328307952
30
0
41
1
10
78.9570804558867
20
-51.0100181815205
30
0
41
1
10
78.9245050202634
20
-51.0235334807837
30
0
41
1
10
78.9088650794857
20
-51.0335298816007
30
0
41
1
10
78.8832760874768
20
-51.0567932025259
30
0
41
1
10
78.8735632599783
20
-51.0694758048224
30
0
41
1
10
78.8661990751148
20
-51.0822309471624
30
0
0
SPLINE
5
119
100
AcDbEntity
8
1
62
256
6
ByLayer
370
18
48
1
60
0
100
AcDbSpline
70
4
71
3
72
8
73
4
40
0
40
0
40
0
40
0
40
1
40
1
40
1
40
1
41
1
10
78.4795187323252
20
-51.7519809471619
30
0
41
1
10
78.6084101856924
20
-51.5287344012686
30
0
41
1
10
78.7373038558047
20
-51.3054840158601
30
0
41
1
10
78.8661990751147
20
-51.0822309471624
30
0
0
SPLINE
5
11A
100
AcDbEntity
8
1
62
256
6
ByLayer
370
18
48
1
60
0
100
AcDbSpline
70
4
71
3
72
10
73
6
40
0
40
0
40
0
40
0
40
0.5
40
0.5
40
1
40
1
40
1
40
1
41
1
10
78.4795187323286
20
-51.7519809471621
30
0
41
1
10
78.4684008150635
20
-51.7712377447402
30
0
41
1
10
78.4505121644745
20
-51.7911530760994
30
0
41
1
10
78.4029072825919
20
-51.8189557594622
30
0
41
1
10
78.37594809051
20
-51.8249809471667
30
0
41
1
10
78.3530790233703
20
-51.8249809471663
30
0
0
SPLINE
5
11B
100
AcDbEntity
8
1
62
256
6
ByLayer
370
18
48
1
60
0
100
AcDbSpline
70
4
71
3
72
12
73
8
40
0
40
0
40
0
40
0
40
0.249999999999974
40
0.249999999999974
40
0.499999999999948
40
0.499999999999948
40
1
40
1
40
1
40
1
41
1
10
78.146920976622
20
-51.8249809471697
30
0
41
1
10
78.1311707809718
20
-51.8249809471693
30
0
41
1
10
78.1166764162102
20
-51.8224676968486
30
0
41
1
10
78.0905452688843
20
-51.8143506644069
30
0
41
1
10
78.0789844205168
20
-51.8088037617639
30
0
41
1
10
78.0476431929859
20
-51.7888594121331
30
0
41
1
10
78.0318413911722
20
-51.7716572582409
30
0
41
1
10
78.0204812676741
20
-51.751980947162
30
0
0
SPLINE
5
11C
100
AcDbEntity
8
1
62
256
6
ByLayer
370
18
48
1
60
0
100
AcDbSpline
70
4
71
3
72
8
73
4
40
0
40
0
40
0
40
0
40
1
40
1
40
1
40
1
41
1
10
77.6338009248845
20
-51.082230947162
30
0
41
1
10
77.7667211785014
20
-51.3124555797814
30
0
41
1
10
77.8960950799239
20
-51.5365377502186
30
0
41
1
10
78.0204812676742
20
-51.7519809471619
30
0
0
SPLINE
5
11D
100
AcDbEntity
8
1
62
256
6
ByLayer
370
18
48
1
60
0
100
AcDbSpline
70
4
71
3
72
16
73
12
40
0
40
0
40
0
40
0
40
0.249999999999997
40
0.249999999999997
40
0.499999999999994
40
0.499999999999994
40
0.624999999999996
40
0.624999999999996
40
0.749999999999997
40
0.749999999999997
40
1
40
1
40
1
40
1
41
1
10
77.6338009248845
20
-51.0822309471619
30
0
41
1
10
77.6231605143144
20
-51.063801215441
30
0
41
1
10
77.6088956281189
20
-51.0473406989214
30
0
41
1
10
77.5702101029742
20
-51.0198233854647
30
0
41
1
10
77.5461739598995
20
-51.0092202625304
30
0
41
1
10
77.5029740968634
20
-51.0043312799767
30
0
41
1
10
77.487459208678
20
-51.0046620224332
30
0
41
1
10
77.4560042543824
20
-51.0105160342841
30
0
41
1
10
77.4406351641986
20
-51.0159809639557
30
0
41
1
10
77.3991804393646
20
-51.0382770617749
30
0
41
1
10
77.3790507982685
20
-51.0599711096953
30
0
41
1
10
77.366199075115
20
-51.0822309471621
30
0
0
SPLINE
5
11E
100
AcDbEntity
8
1
62
256
6
ByLayer
370
18
48
1
60
0
100
AcDbSpline
70
4
71
3
72
8
73
4
40
0
40
0
40
0
40
0
40
1
40
1
40
1
40
1
41
1
10
76.9795187323252
20
-51.7519809471619
30
0
41
1
10
77.1080919166888
20
-51.5292856593533
30
0
41
1
10
77.237017134239
20
-51.3059806321796
30
0
41
1
10
77.3661990751149
20
-51.082230947162
30
0
0
SPLINE
5
11F
100
AcDbEntity
8
1
62
256
6
ByLayer
370
18
48
1
60
0
100
AcDbSpline
70
4
71
3
72
10
73
6
40
0
40
0
40
0
40
0
40
0.5
40
0.5
40
1
40
1
40
1
40
1
41
1
10
76.9795187323256
20
-51.7519809471621
30
0
41
1
10
76.9686761779064
20
-51.7707608023
30
0
41
1
10
76.9524534526719
20
-51.789121541965
30
0
41
1
10
76.9078241221137
20
-51.8168548097535
30
0
41
1
10
76.8796834824863
20
-51.8249809471631
30
0
41
1
10
76.853079023366
20
-51.8249809471619
30
0
0
SPLINE
5
120
100
AcDbEntity
8
1
62
256
6
ByLayer
370
18
48
1
60
0
100
AcDbSpline
70
4
71
3
72
10
73
6
40
0
40
0
40
0
40
0
40
0.5
40
0.5
40
1
40
1
40
1
40
1
41
1
10
76.6469209766267
20
-51.824980947162
30
0
41
1
10
76.6168409221307
20
-51.824980947162
30
0
41
1
10
76.5893526677136
20
-51.8154563756184
30
0
41
1
10
76.5472649000366
20
-51.7885634236905
30
0
41
1
10
76.5314655147942
20
-51.7710062212621
30
0
41
1
10
76.5204812676658
20
-51.7519809471478
30
0
0
SPLINE
5
121
100
AcDbEntity
8
1
62
256
6
ByLayer
370
18
48
1
60
0
100
AcDbSpline
70
4
71
3
72
8
73
4
40
0
40
0
40
0
40
0
40
1
40
1
40
1
40
1
41
1
10
76.1338009248845
20
-51.082230947162
30
0
41
1
10
76.264380549372
20
-51.3084014912076
30
0
41
1
10
76.3934605636452
20
-51.5319746341706
30
0
41
1
10
76.5204812676663
20
-51.7519809471482
30
0
0
SPLINE
5
122
100
AcDbEntity
8
1
62
256
6
ByLayer
370
18
48
1
60
0
100
AcDbSpline
70
4
71
3
72
18
73
14
40
0
40
0
40
0
40
0
40
0.24999999999996
40
0.24999999999996
40
0.374999999999975
40
0.374999999999975
40
0.49999999999999
40
0.49999999999999
40
0.625000000000005
40
0.625000000000005
40
0.75000000000002
40
0.75000000000002
40
1
40
1
40
1
40
1
41
1
10
76.1338009248845
20
-51.0822309471619
30
0
41
1
10
76.1225174479224
20
-51.0626873917775
30
0
41
1
10
76.1064536805105
20
-51.0445423031842
30
0
41
1
10
76.0739189816782
20
-51.0231926822921
30
0
41
1
10
76.0614822650529
20
-51.0170248718993
30
0
41
1
10
76.0343550392613
20
-51.0081748548437
30
0
41
1
10
76.0192992300662
20
-51.0054426855068
30
0
41
1
10
75.9889788562878
20
-51.0046301133696
30
0
41
1
10
75.9732805835151
20
-51.0065664759244
30
0
41
1
10
75.9442711852366
20
-51.014598022232
30
0
41
1
10
75.930765108854
20
-51.0206576171877
30
0
41
1
10
75.8950994226713
20
-51.042661996368
30
0
41
1
10
75.8779954501167
20
-51.0617990263139
30
0
41
1
10
75.866199075115
20
-51.082230947162
30
0
0
SPLINE
5
123
100
AcDbEntity
8
1
62
256
6
ByLayer
370
18
48
1
60
0
100
AcDbSpline
70
4
71
3
72
8
73
4
40
0
40
0
40
0
40
0
40
1
40
1
40
1
40
1
41
1
10
75.5521678957212
20
-51.6261489050328
30
0
41
1
10
75.6561633085841
20
-51.4460235662001
30
0
41
1
10
75.7608943427435
20
-51.2646240939067
30
0
41
1
10
75.866199075115
20
-51.082230947162
30
0
0
SPLINE
5
124
100
AcDbEntity
8
1
62
256
6
ByLayer
370
18
48
1
60
0
100
AcDbSpline
70
4
71
3
72
18
73
14
40
0
40
0
40
0
40
0
40
0.125000000000011
40
0.125000000000011
40
0.250000000000021
40
0.250000000000021
40
0.375000000000032
40
0.375000000000032
40
0.500000000000043
40
0.500000000000043
40
0.750000000000022
40
0.750000000000022
40
1
40
1
40
1
40
1
41
1
10
59.6338009248892
20
-51.082230947168
30
0
41
1
10
59.6272005673432
20
-51.070798792549
30
0
41
1
10
59.6180760507353
20
-51.0584576577873
30
0
41
1
10
59.5938320896406
20
-51.0356132850906
30
0
41
1
10
59.5791528387736
20
-51.0259804121515
30
0
41
1
10
59.5524785916957
20
-51.0134208152038
30
0
41
1
10
59.5401102453374
20
-51.009848562974
30
0
41
1
10
59.5178469194896
20
-51.0055973234604
30
0
41
1
10
59.507653519178
20
-51.0048895364396
30
0
41
1
10
59.479700255517
20
-51.0051906594778
30
0
41
1
10
59.4639601819686
20
-51.0085174003039
30
0
41
1
10
59.4359824112818
20
-51.0180927959667
30
0
41
1
10
59.4239230711967
20
-51.024385852773
30
0
41
1
10
59.4131964345248
20
-51.0316709670319
30
0
0
SPLINE
5
125
100
AcDbEntity
8
1
62
256
6
ByLayer
370
18
48
1
60
0
100
AcDbSpline
70
4
71
3
72
8
73
4
40
0
40
0
40
0
40
0
40
1
40
1
40
1
40
1
41
1
10
64.1338009248845
20
-51.082230947162
30
0
41
1
10
64.2391056572559
20
-51.2646240939067
30
0
41
1
10
64.3438366914153
20
-51.4460235662001
30
0
41
1
10
64.4478321042782
20
-51.6261489050328
30
0
0
SPLINE
5
126
100
AcDbEntity
8
1
62
256
6
ByLayer
370
18
48
1
60
0
100
AcDbSpline
70
4
71
3
72
20
73
16
40
0
40
0
40
0
40
0
40
0.125
40
0.125
40
0.25
40
0.25
40
0.375
40
0.375
40
0.5
40
0.5
40
0.625
40
0.625
40
0.75
40
0.75
40
1
40
1
40
1
40
1
41
1
10
64.1338009248846
20
-51.082230947162
30
0
41
1
10
64.1279392020827
20
-51.0720781454492
30
0
41
1
10
64.1208368205509
20
-51.0623914963904
30
0
41
1
10
64.1035742955586
20
-51.044154176846
30
0
41
1
10
64.0932527446354
20
-51.0355223490854
30
0
41
1
10
64.0697357750236
20
-51.0209214649855
30
0
41
1
10
64.0562202498921
20
-51.0147898667274
30
0
41
1
10
64.0272736497475
20
-51.0066661138352
30
0
41
1
10
64.0116725604084
20
-51.0046621820185
30
0
41
1
10
63.9810315564616
20
-51.0053858568548
30
0
41
1
10
63.9660431641786
20
-51.0080684510485
30
0
41
1
10
63.9385705181038
20
-51.0169845281463
30
0
41
1
10
63.9264107161858
20
-51.0229998390631
30
0
41
1
10
63.893462533891
20
-51.0445508790525
30
0
41
1
10
63.8775469596378
20
-51.0625758346101
30
0
41
1
10
63.8661990751151
20
-51.082230947162
30
0
0
SPLINE
5
127
100
AcDbEntity
8
1
62
256
6
ByLayer
370
18
48
1
60
0
100
AcDbSpline
70
4
71
3
72
8
73
4
40
0
40
0
40
0
40
0
40
1
40
1
40
1
40
1
41
1
10
63.4795187323312
20
-51.7519809471517
30
0
41
1
10
63.6065394363529
20
-51.5319746341729
30
0
41
1
10
63.7356194506268
20
-51.3084014912088
30
0
41
1
10
63.866199075115
20
-51.082230947162
30
0
0
SPLINE
5
128
100
AcDbEntity
8
1
62
256
6
ByLayer
370
18
48
1
60
0
100
AcDbSpline
70
4
71
3
72
10
73
6
40
0
40
0
40
0
40
0
40
0.5
40
0.5
40
1
40
1
40
1
40
1
41
1
10
63.4795187323319
20
-51.7519809471511
30
0
41
1
10
63.4685590167845
20
-51.7709637313197
30
0
41
1
10
63.4528005779232
20
-51.7885085107254
30
0
41
1
10
63.4106901632
20
-51.8154420485422
30
0
41
1
10
63.3832846508188
20
-51.8249809471619
30
0
41
1
10
63.3530790233728
20
-51.8249809471619
30
0
0
SPLINE
5
129
100
AcDbEntity
8
1
62
256
6
ByLayer
370
18
48
1
60
0
100
AcDbSpline
70
4
71
3
72
12
73
8
40
0
40
0
40
0
40
0
40
0.250000000000006
40
0.250000000000006
40
0.500000000000013
40
0.500000000000013
40
1
40
1
40
1
40
1
41
1
10
63.1469209766267
20
-51.8249809471619
30
0
41
1
10
63.1336907316266
20
-51.8249809471619
30
0
41
1
10
63.1198510430656
20
-51.8230954460141
30
0
41
1
10
63.0936438123736
20
-51.8155946867768
30
0
41
1
10
63.0810197124634
20
-51.8099161130843
30
0
41
1
10
63.0476914291356
20
-51.7892237432008
30
0
41
1
10
63.0313580604913
20
-51.770820104956
30
0
41
1
10
63.0204812676555
20
-51.7519809471301
30
0
0
SPLINE
5
12A
100
AcDbEntity
8
1
62
256
6
ByLayer
370
18
48
1
60
0
100
AcDbSpline
70
4
71
3
72
8
73
4
40
0
40
0
40
0
40
0
40
1
40
1
40
1
40
1
41
1
10
62.6338009248845
20
-51.082230947162
30
0
41
1
10
62.7629828657543
20
-51.3059806321688
30
0
41
1
10
62.8919080832983
20
-51.5292856593319
30
0
41
1
10
63.0204812676557
20
-51.75198094713
30
0
0
SPLINE
5
12B
100
AcDbEntity
8
1
62
256
6
ByLayer
370
18
48
1
60
0
100
AcDbSpline
70
4
71
3
72
18
73
14
40
0
40
0
40
0
40
0
40
0.124999999999989
40
0.124999999999989
40
0.249999999999978
40
0.249999999999978
40
0.374999999999967
40
0.374999999999967
40
0.499999999999956
40
0.499999999999956
40
0.749999999999978
40
0.749999999999978
40
1
40
1
40
1
40
1
41
1
10
62.6338009248846
20
-51.082230947162
30
0
41
1
10
62.6274108395848
20
-51.0711629947579
30
0
41
1
10
62.6194025082614
20
-51.060398191731
30
0
41
1
10
62.5992091826965
20
-51.0401834640721
30
0
41
1
10
62.5871255482176
20
-51.0309390251827
30
0
41
1
10
62.5596546626117
20
-51.0161100711548
30
0
41
1
10
62.5442241382539
20
-51.0106042487006
30
0
41
1
10
62.5131642252351
20
-51.0047335758659
30
0
41
1
10
62.4975070719533
20
-51.004316514425
30
0
41
1
10
62.4540940084994
20
-51.0091122221835
30
0
41
1
10
62.4298841123305
20
-51.0198242877991
30
0
41
1
10
62.3916003406747
20
-51.0469210339324
30
0
41
1
10
62.3768832251423
20
-51.0637254564793
30
0
41
1
10
62.366199075115
20
-51.082230947162
30
0
0
SPLINE
5
12C
100
AcDbEntity
8
1
62
256
6
ByLayer
370
18
48
1
60
0
100
AcDbSpline
70
4
71
3
72
8
73
4
40
0
40
0
40
0
40
0
40
1
40
1
40
1
40
1
41
1
10
61.9795187323253
20
-51.751980947162
30
0
41
1
10
62.1039049200756
20
-51.5365377502186
30
0
41
1
10
62.2332788214981
20
-51.3124555797814
30
0
41
1
10
62.366199075115
20
-51.082230947162
30
0
0
SPLINE
5
12D
100
AcDbEntity
8
1
62
256
6
ByLayer
370
18
48
1
60
0
100
AcDbSpline
70
4
71
3
72
10
73
6
40
0
40
0
40
0
40
0
40
0.5
40
0.5
40
1
40
1
40
1
40
1
41
1
10
61.979518732326
20
-51.7519809471624
30
0
41
1
10
61.9682145447945
20
-51.7715603743052
30
0
41
1
10
61.9523960148861
20
-51.7888154669517
30
0
41
1
10
61.9106886059745
20
-51.8153943722093
30
0
41
1
10
61.8848992215748
20
-51.8249809471619
30
0
41
1
10
61.8530790233727
20
-51.8249809471619
30
0
0
SPLINE
5
12E
100
AcDbEntity
8
1
62
256
6
ByLayer
370
18
48
1
60
0
100
AcDbSpline
70
4
71
3
72
14
73
10
40
0
40
0
40
0
40
0
40
0.25
40
0.25
40
0.5
40
0.5
40
0.75
40
0.75
40
1
40
1
40
1
40
1
41
1
10
61.6469209766269
20
-51.8249809471624
30
0
41
1
10
61.6354356378493
20
-51.8249809471625
30
0
41
1
10
61.6230746527339
20
-51.8235991495391
30
0
41
1
10
61.5980381211306
20
-51.8171603163186
30
0
41
1
10
61.5851437188595
20
-51.8119655546595
30
0
41
1
10
61.5616221510395
20
-51.7982514202974
30
0
41
1
10
61.5508866678227
20
-51.7896959734825
30
0
41
1
10
61.5330590299939
20
-51.7712623788241
30
0
41
1
10
61.5261041425076
20
-51.7617200520576
30
0
41
1
10
61.5204812676751
20
-51.7519809471635
30
0
0
SPLINE
5
12F
100
AcDbEntity
8
1
62
256
6
ByLayer
370
18
48
1
60
0
100
AcDbSpline
70
4
71
3
72
8
73
4
40
0
40
0
40
0
40
0
40
1
40
1
40
1
40
1
41
1
10
61.1338009248845
20
-51.082230947162
30
0
41
1
10
61.2626961441949
20
-51.3054840158603
30
0
41
1
10
61.3915898143075
20
-51.5287344012694
30
0
41
1
10
61.5204812676751
20
-51.7519809471635
30
0
0
SPLINE
5
130
100
AcDbEntity
8
1
62
256
6
ByLayer
370
18
48
1
60
0
100
AcDbSpline
70
4
71
3
72
18
73
14
40
0
40
0
40
0
40
0
40
0.125000000000007
40
0.125000000000007
40
0.250000000000013
40
0.250000000000013
40
0.37500000000002
40
0.37500000000002
40
0.500000000000026
40
0.500000000000026
40
0.750000000000013
40
0.750000000000013
40
1
40
1
40
1
40
1
41
1
10
61.1338009248848
20
-51.082230947162
30
0
41
1
10
61.1264946448462
20
-51.0695760989207
30
0
41
1
10
61.1166906505353
20
-51.0567975377137
30
0
41
1
10
61.0915089185932
20
-51.0338357788657
30
0
41
1
10
61.0759249478846
20
-51.0237593372679
30
0
41
1
10
61.0431871528083
20
-51.0100827445763
30
0
41
1
10
61.0265796939249
20
-51.0065221318009
30
0
41
1
10
60.9961580107264
20
-51.0042774728315
30
0
41
1
10
60.9820884684339
20
-51.0054779057709
30
0
41
1
10
60.9440298560603
20
-51.0131674759326
30
0
41
1
10
60.9234520331116
20
-51.0236089501775
30
0
41
1
10
60.8896462385555
20
-51.0492864004078
30
0
41
1
10
60.876235137445
20
-51.0648479772986
30
0
41
1
10
60.866199075115
20
-51.082230947162
30
0
0
SPLINE
5
131
100
AcDbEntity
8
1
62
256
6
ByLayer
370
18
48
1
60
0
100
AcDbSpline
70
4
71
3
72
8
73
4
40
0
40
0
40
0
40
0
40
1
40
1
40
1
40
1
41
1
10
60.4795187323252
20
-51.7519809471621
30
0
41
1
10
60.5955334882683
20
-51.551037495441
30
0
41
1
10
60.7259561351268
20
-51.3251388446244
30
0
41
1
10
60.866199075115
20
-51.082230947162
30
0
0
SPLINE
5
132
100
AcDbEntity
8
1
62
256
6
ByLayer
370
18
48
1
60
0
100
AcDbSpline
70
4
71
3
72
12
73
8
40
0
40
0
40
0
40
0
40
0.500000000000016
40
0.500000000000016
40
0.750000000000008
40
0.750000000000008
40
1
40
1
40
1
40
1
41
1
10
60.4795187323253
20
-51.751980947162
30
0
41
1
10
60.4674705318892
20
-51.7728490424569
30
0
41
1
10
60.4511111354858
20
-51.7899169674753
30
0
41
1
10
60.4199009626118
20
-51.8093692224764
30
0
41
1
10
60.4083177987825
20
-51.8147803647765
30
0
41
1
10
60.3828769357521
20
-51.8225249771703
30
0
41
1
10
60.3690160209869
20
-51.8249809471611
30
0
41
1
10
60.3530790233807
20
-51.8249809471619
30
0
0
SPLINE
5
133
100
AcDbEntity
8
1
62
256
6
ByLayer
370
18
48
1
60
0
100
AcDbSpline
70
4
71
3
72
12
73
8
40
0
40
0
40
0
40
0
40
0.499999999999892
40
0.499999999999892
40
0.749999999999946
40
0.749999999999946
40
1
40
1
40
1
40
1
41
1
10
60.1469209766267
20
-51.8249809471619
30
0
41
1
10
60.13465030342
20
-51.8249809471619
30
0
41
1
10
60.1212905137547
20
-51.8236086709685
30
0
41
1
10
60.0981643474794
20
-51.8168334621713
30
0
41
1
10
60.0899032491089
20
-51.8137330317694
30
0
41
1
10
60.0726615740196
20
-51.8050550788535
30
0
41
1
10
60.0634691269408
20
-51.7993044223913
30
0
41
1
10
60.0547646161754
20
-51.7922205393034
30
0
0
SPLINE
5
134
100
AcDbEntity
8
1
62
256
6
ByLayer
370
18
48
1
60
0
100
AcDbSpline
70
4
71
3
72
8
73
4
40
0
40
0
40
0
40
0
40
1
40
1
40
1
40
1
41
1
10
59.6338009248877
20
-51.0822309471676
30
0
41
1
10
59.7635199538838
20
-51.3069108960973
30
0
41
1
10
59.8923811319443
20
-51.5301050036212
30
0
41
1
10
60.0197462821357
20
-51.7507079148665
30
0
0
SPLINE
5
135
100
AcDbEntity
8
1
62
256
6
ByLayer
370
18
48
1
60
0
100
AcDbSpline
70
4
71
3
72
10
73
6
40
0
40
0
40
0
40
0
40
0.5
40
0.5
40
1
40
1
40
1
40
1
41
1
10
70.8530790233728
20
-51.8249809471619
30
0
41
1
10
70.8837862522321
20
-51.8249809471619
30
0
41
1
10
70.9122139242457
20
-51.8148023309617
30
0
41
1
10
70.9541316335016
20
-51.7872987886504
30
0
41
1
10
70.9690514685454
20
-51.7701107798451
30
0
41
1
10
70.9795187323254
20
-51.7519809471619
30
0
0
SPLINE
5
136
100
AcDbEntity
8
1
62
256
6
ByLayer
370
18
48
1
60
0
100
AcDbSpline
70
4
71
3
72
10
73
6
40
0
40
0
40
0
40
0
40
0.5
40
0.5
40
1
40
1
40
1
40
1
41
1
10
70.5204812676742
20
-51.7519809471619
30
0
41
1
10
70.5309410812164
20
-51.7700978756546
30
0
41
1
10
70.5457175310295
20
-51.7871737005528
30
0
41
1
10
70.587725387243
20
-51.8147885002824
30
0
41
1
10
70.6162186604578
20
-51.8249809471619
30
0
41
1
10
70.6469209766267
20
-51.8249809471619
30
0
0
SPLINE
5
137
100
AcDbEntity
8
1
62
256
6
ByLayer
370
18
48
1
60
0
100
AcDbSpline
70
4
71
3
72
10
73
6
40
0
40
0
40
0
40
0
40
0.5
40
0.5
40
1
40
1
40
1
40
1
41
1
10
75.3530790233728
20
-51.8249809471619
30
0
41
1
10
75.3837862522321
20
-51.8249809471619
30
0
41
1
10
75.4122139242457
20
-51.8148023309617
30
0
41
1
10
75.4541316335016
20
-51.7872987886504
30
0
41
1
10
75.4690514685454
20
-51.7701107798451
30
0
41
1
10
75.4795187323254
20
-51.7519809471619
30
0
0
SPLINE
5
138
100
AcDbEntity
8
1
62
256
6
ByLayer
370
18
48
1
60
0
100
AcDbSpline
70
4
71
3
72
10
73
6
40
0
40
0
40
0
40
0
40
0.5
40
0.5
40
1
40
1
40
1
40
1
41
1
10
75.0204812676742
20
-51.7519809471619
30
0
41
1
10
75.0309410812164
20
-51.7700978756546
30
0
41
1
10
75.0457175310295
20
-51.7871737005528
30
0
41
1
10
75.087725387243
20
-51.8147885002824
30
0
41
1
10
75.1162186604578
20
-51.8249809471619
30
0
41
1
10
75.1469209766267
20
-51.8249809471619
30
0
0
SPLINE
5
139
100
AcDbEntity
8
1
62
256
6
ByLayer
370
18
48
1
60
0
100
AcDbSpline
70
4
71
3
72
10
73
6
40
0
40
0
40
0
40
0
40
0.5
40
0.5
40
1
40
1
40
1
40
1
41
1
10
72.3530790233728
20
-51.8249809471619
30
0
41
1
10
72.3837862522321
20
-51.8249809471619
30
0
41
1
10
72.4122139242457
20
-51.8148023309617
30
0
41
1
10
72.4541316335016
20
-51.7872987886503
30
0
41
1
10
72.4690514685454
20
-51.7701107798452
30
0
41
1
10
72.4795187323254
20
-51.751980947162
30
0
0
SPLINE
5
13A
100
AcDbEntity
8
1
62
256
6
ByLayer
370
18
48
1
60
0
100
AcDbSpline
70
4
71
3
72
10
73
6
40
0
40
0
40
0
40
0
40
0.5
40
0.5
40
1
40
1
40
1
40
1
41
1
10
72.0204812676742
20
-51.7519809471619
30
0
41
1
10
72.0309410812164
20
-51.7700978756547
30
0
41
1
10
72.0457175310295
20
-51.7871737005528
30
0
41
1
10
72.087725387243
20
-51.8147885002824
30
0
41
1
10
72.1162186604578
20
-51.8249809471619
30
0
41
1
10
72.1469209766267
20
-51.8249809471619
30
0
0
SPLINE
5
13B
100
AcDbEntity
8
1
62
256
6
ByLayer
370
18
48
1
60
0
100
AcDbSpline
70
4
71
3
72
10
73
6
40
0
40
0
40
0
40
0
40
0.5
40
0.5
40
1
40
1
40
1
40
1
41
1
10
67.8530790233728
20
-51.8249809471619
30
0
41
1
10
67.8837862522321
20
-51.8249809471619
30
0
41
1
10
67.9122139242457
20
-51.8148023309617
30
0
41
1
10
67.9541316335016
20
-51.7872987886503
30
0
41
1
10
67.9690514685454
20
-51.7701107798451
30
0
41
1
10
67.9795187323254
20
-51.7519809471619
30
0
0
SPLINE
5
13C
100
AcDbEntity
8
1
62
256
6
ByLayer
370
18
48
1
60
0
100
AcDbSpline
70
4
71
3
72
10
73
6
40
0
40
0
40
0
40
0
40
0.5
40
0.5
40
1
40
1
40
1
40
1
41
1
10
67.5204812676742
20
-51.7519809471619
30
0
41
1
10
67.5309410812164
20
-51.7700978756547
30
0
41
1
10
67.5457175310295
20
-51.7871737005528
30
0
41
1
10
67.587725387243
20
-51.8147885002824
30
0
41
1
10
67.6162186604578
20
-51.8249809471619
30
0
41
1
10
67.6469209766267
20
-51.8249809471619
30
0
0
SPLINE
5
13D
100
AcDbEntity
8
1
62
256
6
ByLayer
370
18
48
1
60
0
100
AcDbSpline
70
4
71
3
72
10
73
6
40
0
40
0
40
0
40
0
40
0.5
40
0.5
40
1
40
1
40
1
40
1
41
1
10
66.3530790233728
20
-51.8249809471619
30
0
41
1
10
66.3837862522321
20
-51.8249809471619
30
0
41
1
10
66.4122139242457
20
-51.8148023309617
30
0
41
1
10
66.4541316335016
20
-51.7872987886503
30
0
41
1
10
66.4690514685454
20
-51.7701107798452
30
0
41
1
10
66.4795187323254
20
-51.751980947162
30
0
0
SPLINE
5
13E
100
AcDbEntity
8
1
62
256
6
ByLayer
370
18
48
1
60
0
100
AcDbSpline
70
4
71
3
72
10
73
6
40
0
40
0
40
0
40
0
40
0.5
40
0.5
40
1
40
1
40
1
40
1
41
1
10
66.0204812676742
20
-51.7519809471619
30
0
41
1
10
66.0309410812164
20
-51.7700978756547
30
0
41
1
10
66.0457175310295
20
-51.7871737005528
30
0
41
1
10
66.087725387243
20
-51.8147885002824
30
0
41
1
10
66.1162186604581
20
-51.824980947162
30
0
41
1
10
66.146920976627
20
-51.8249809471619
30
0
0
SPLINE
5
13F
100
AcDbEntity
8
1
62
256
6
ByLayer
370
18
48
1
60
0
100
AcDbSpline
70
4
71
3
72
10
73
6
40
0
40
0
40
0
40
0
40
0.5
40
0.5
40
1
40
1
40
1
40
1
41
1
10
69.3530790233728
20
-51.8249809471619
30
0
41
1
10
69.3837862522321
20
-51.8249809471619
30
0
41
1
10
69.4122139242457
20
-51.8148023309617
30
0
41
1
10
69.4541316335016
20
-51.7872987886503
30
0
41
1
10
69.4690514685454
20
-51.7701107798451
30
0
41
1
10
69.4795187323254
20
-51.7519809471619
30
0
0
SPLINE
5
140
100
AcDbEntity
8
1
62
256
6
ByLayer
370
18
48
1
60
0
100
AcDbSpline
70
4
71
3
72
10
73
6
40
0
40
0
40
0
40
0
40
0.5
40
0.5
40
1
40
1
40
1
40
1
41
1
10
69.0204812676742
20
-51.7519809471619
30
0
41
1
10
69.0309410812164
20
-51.7700978756547
30
0
41
1
10
69.0457175310295
20
-51.7871737005528
30
0
41
1
10
69.087725387243
20
-51.8147885002824
30
0
41
1
10
69.1162186604578
20
-51.8249809471619
30
0
41
1
10
69.1469209766267
20
-51.8249809471619
30
0
0
SPLINE
5
141
100
AcDbEntity
8
1
62
256
6
ByLayer
370
18
48
1
60
0
100
AcDbSpline
70
4
71
3
72
10
73
6
40
0
40
0
40
0
40
0
40
0.5
40
0.5
40
1
40
1
40
1
40
1
41
1
10
64.8530790233728
20
-51.8249809471619
30
0
41
1
10
64.8837862522321
20
-51.8249809471619
30
0
41
1
10
64.9122139242457
20
-51.8148023309617
30
0
41
1
10
64.9541316335016
20
-51.7872987886503
30
0
41
1
10
64.9690514685454
20
-51.7701107798452
30
0
41
1
10
64.9795187323254
20
-51.751980947162
30
0
0
SPLINE
5
142
100
AcDbEntity
8
1
62
256
6
ByLayer
370
18
48
1
60
0
100
AcDbSpline
70
4
71
3
72
10
73
6
40
0
40
0
40
0
40
0
40
0.5
40
0.5
40
1
40
1
40
1
40
1
41
1
10
64.5204812676742
20
-51.7519809471619
30
0
41
1
10
64.5309410812164
20
-51.7700978756546
30
0
41
1
10
64.5457175310295
20
-51.7871737005528
30
0
41
1
10
64.587725387243
20
-51.8147885002824
30
0
41
1
10
64.6162186604577
20
-51.8249809471619
30
0
41
1
10
64.6469209766267
20
-51.8249809471619
30
0
0
SPLINE
5
143
100
AcDbEntity
8
1
62
256
6
ByLayer
370
18
48
1
60
0
100
AcDbSpline
70
4
71
3
72
10
73
6
40
0
40
0
40
0
40
0
40
0.5
40
0.5
40
1
40
1
40
1
40
1
41
1
10
73.8530790233728
20
-51.8249809471619
30
0
41
1
10
73.8837862522321
20
-51.8249809471619
30
0
41
1
10
73.9122139242457
20
-51.8148023309617
30
0
41
1
10
73.9541316335016
20
-51.7872987886504
30
0
41
1
10
73.9690514685455
20
-51.7701107798449
30
0
41
1
10
73.9795187323255
20
-51.7519809471618
30
0
0
SPLINE
5
144
100
AcDbEntity
8
1
62
256
6
ByLayer
370
18
48
1
60
0
100
AcDbSpline
70
4
71
3
72
10
73
6
40
0
40
0
40
0
40
0
40
0.5
40
0.5
40
1
40
1
40
1
40
1
41
1
10
73.5204812676742
20
-51.7519809471619
30
0
41
1
10
73.5309410812163
20
-51.7700978756546
30
0
41
1
10
73.5457175310295
20
-51.7871737005528
30
0
41
1
10
73.587725387243
20
-51.8147885002824
30
0
41
1
10
73.6162186604578
20
-51.8249809471619
30
0
41
1
10
73.6469209766267
20
-51.8249809471619
30
0
0
SPLINE
5
145
100
AcDbEntity
8
1
62
256
6
ByLayer
370
18
48
1
60
0
100
AcDbSpline
70
4
71
3
72
8
73
4
40
0
40
0
40
0
40
0
40
1
40
1
40
1
40
1
41
1
10
58.9795187323244
20
-51.7519809471636
30
0
41
1
10
59.1052525051107
20
-51.5342036644702
30
0
41
1
10
59.234186617601
20
-51.3108832308083
30
0
41
1
10
59.3661990751151
20
-51.0822309471619
30
0
0
SPLINE
5
146
100
AcDbEntity
8
1
62
256
6
ByLayer
370
18
48
1
60
0
100
AcDbSpline
70
4
71
3
72
12
73
8
40
0
40
0
40
0
40
0
40
0.499999999999996
40
0.499999999999996
40
0.749999999999998
40
0.749999999999998
40
1
40
1
40
1
40
1
41
1
10
58.9795187323244
20
-51.7519809471635
30
0
41
1
10
58.9676071189893
20
-51.7726124666594
30
0
41
1
10
58.9514840936559
20
-51.7895540670525
30
0
41
1
10
58.9205463735003
20
-51.8090295913
30
0
41
1
10
58.9090838053963
20
-51.8144729790842
30
0
41
1
10
58.883552729438
20
-51.8223893833244
30
0
41
1
10
58.8695236633698
20
-51.8249809471619
30
0
41
1
10
58.8530790233728
20
-51.8249809471619
30
0
0
SPLINE
5
147
100
AcDbEntity
8
1
62
256
6
ByLayer
370
18
48
1
60
0
100
AcDbSpline
70
4
71
3
72
14
73
10
40
0
40
0
40
0
40
0
40
0.25
40
0.25
40
0.5
40
0.5
40
0.75
40
0.75
40
1
40
1
40
1
40
1
41
1
10
58.6469209766268
20
-51.8249809471619
30
0
41
1
10
58.6386068194037
20
-51.8249809471619
30
0
41
1
10
58.6296425246482
20
-51.8242984211109
30
0
41
1
10
58.6100180473327
20
-51.8205926943695
30
0
41
1
10
58.599231715756
20
-51.8176094276686
30
0
41
1
10
58.5750178109893
20
-51.8067387491988
30
0
41
1
10
58.5608826109011
20
-51.7981384016299
30
0
41
1
10
58.5359564107963
20
-51.7753550332126
30
0
41
1
10
58.5267837407685
20
-51.7628971508316
30
0
41
1
10
58.5204812676306
20
-51.7519809471357
30
0
0
SPLINE
5
148
100
AcDbEntity
8
1
62
256
6
ByLayer
370
18
48
1
60
0
100
AcDbSpline
70
4
71
3
72
8
73
4
40
0
40
0
40
0
40
0
40
1
40
1
40
1
40
1
41
1
10
58.1338009248844
20
-51.0822309471619
30
0
41
1
10
58.2629042680423
20
-51.3058444969383
30
0
41
1
10
58.3918018175237
20
-51.5291016016113
30
0
41
1
10
58.5204812676686
20
-51.7519809471523
30
0
0
SPLINE
5
149
100
AcDbEntity
8
1
62
256
6
ByLayer
370
18
48
1
60
0
100
AcDbSpline
70
4
71
3
72
22
73
18
40
0
40
0
40
0
40
0
40
0.0624999999999922
40
0.0624999999999922
40
0.124999999999984
40
0.124999999999984
40
0.187499999999977
40
0.187499999999977
40
0.249999999999969
40
0.249999999999969
40
0.37499999999997
40
0.37499999999997
40
0.499999999999971
40
0.499999999999971
40
0.749999999999985
40
0.749999999999985
40
1
40
1
40
1
40
1
41
1
10
58.1338009248862
20
-51.0822309471626
30
0
41
1
10
58.1287301252377
20
-51.0734480645362
30
0
41
1
10
58.1222022599193
20
-51.0640538909796
30
0
41
1
10
58.1045117001402
20
-51.0449513880306
30
0
41
1
10
58.0936825405039
20
-51.0359811748774
30
0
41
1
10
58.0724618937368
20
-51.0224485199571
30
0
41
1
10
58.0624231334344
20
-51.0178186492455
30
0
41
1
10
58.0441641396183
20
-51.0111085002234
30
0
41
1
10
58.0357176381017
20
-51.0089564994514
30
0
41
1
10
58.0122772061596
20
-51.004652150327
30
0
41
1
10
57.9989635443995
20
-51.004494596609
30
0
41
1
10
57.9744303663751
20
-51.0066148720039
30
0
41
1
10
57.9633395921419
20
-51.0090186916637
30
0
41
1
10
57.9329961357186
20
-51.0186575275647
30
0
41
1
10
57.9162751930313
20
-51.0283088911406
30
0
41
1
10
57.8875449959776
20
-51.0519178324194
30
0
41
1
10
57.8755719650582
20
-51.0659966255667
30
0
41
1
10
57.8661990751151
20
-51.0822309471619
30
0
0
SPLINE
5
14A
100
AcDbEntity
8
1
62
256
6
ByLayer
370
18
48
1
60
0
100
AcDbSpline
70
4
71
3
72
8
73
4
40
0
40
0
40
0
40
0
40
1
40
1
40
1
40
1
41
1
10
57.4795187323253
20
-51.7519809471618
30
0
41
1
10
57.6044545353291
20
-51.5355857886749
30
0
41
1
10
57.7333996998416
20
-51.3122462123488
30
0
41
1
10
57.8661990751151
20
-51.0822309471619
30
0
0
SPLINE
5
14B
100
AcDbEntity
8
1
62
256
6
ByLayer
370
18
48
1
60
0
100
AcDbSpline
70
4
71
3
72
12
73
8
40
0
40
0
40
0
40
0
40
0.500000000000011
40
0.500000000000011
40
0.750000000000006
40
0.750000000000006
40
1
40
1
40
1
40
1
41
1
10
57.4795187323253
20
-51.7519809471618
30
0
41
1
10
57.4675532506545
20
-51.7727057693528
30
0
41
1
10
57.4511645903748
20
-51.7898063352194
30
0
41
1
10
57.4203730934359
20
-51.8091126858247
30
0
41
1
10
57.4090632435102
20
-51.8144749875919
30
0
41
1
10
57.3836606121276
20
-51.8223602843262
30
0
41
1
10
57.3696654824907
20
-51.8249809471619
30
0
41
1
10
57.3530790233729
20
-51.8249809471619
30
0
0
SPLINE
5
14C
100
AcDbEntity
8
1
62
256
6
ByLayer
370
18
48
1
60
0
100
AcDbSpline
70
4
71
3
72
14
73
10
40
0
40
0
40
0
40
0
40
0.25
40
0.25
40
0.5
40
0.5
40
0.75
40
0.75
40
1
40
1
40
1
40
1
41
1
10
57.1469209766501
20
-51.8249809471898
30
0
41
1
10
57.1389732657184
20
-51.8249809471911
30
0
41
1
10
57.1305187900737
20
-51.8243659293153
30
0
41
1
10
57.1118603152307
20
-51.8210252176621
30
0
41
1
10
57.1015443917819
20
-51.8183381454191
30
0
41
1
10
57.0780136686948
20
-51.8083302651803
30
0
41
1
10
57.0637246080377
20
-51.8002877835229
30
0
41
1
10
57.0368629586169
20
-51.7765730419548
30
0
41
1
10
57.0269511078188
20
-51.7631870390616
30
0
41
1
10
57.0204812676144
20
-51.7519809470953
30
0
0
SPLINE
5
14D
100
AcDbEntity
8
1
62
256
6
ByLayer
370
18
48
1
60
0
100
AcDbSpline
70
4
71
3
72
8
73
4
40
0
40
0
40
0
40
0
40
1
40
1
40
1
40
1
41
1
10
56.6338009248779
20
-51.0822309471506
30
0
41
1
10
56.763030125233
20
-51.3060624879871
30
0
41
1
10
56.8919308703057
20
-51.5293251275865
30
0
41
1
10
57.0204812676432
20
-51.7519809471083
30
0
0
SPLINE
5
14E
100
AcDbEntity
8
1
62
256
6
ByLayer
370
18
48
1
60
0
100
AcDbSpline
70
4
71
3
72
22
73
18
40
0
40
0
40
0
40
0
40
0.062499999999997
40
0.062499999999997
40
0.124999999999994
40
0.124999999999994
40
0.187499999999991
40
0.187499999999991
40
0.249999999999988
40
0.249999999999988
40
0.374999999999995
40
0.374999999999995
40
0.500000000000001
40
0.500000000000001
40
0.750000000000001
40
0.750000000000001
40
1
40
1
40
1
40
1
41
1
10
56.633800924878
20
-51.0822309471506
30
0
41
1
10
56.6284956772321
20
-51.073041988683
30
0
41
1
10
56.6213718092057
20
-51.0628108480321
30
0
41
1
10
56.6014890251114
20
-51.0421088809895
30
0
41
1
10
56.5892923502994
20
-51.0327634793333
30
0
41
1
10
56.5674788908021
20
-51.0199207817457
30
0
41
1
10
56.5575657458674
20
-51.0157967000745
30
0
41
1
10
56.5396839847313
20
-51.0098675810671
30
0
41
1
10
56.5314838120667
20
-51.0080284720272
30
0
41
1
10
56.5087502060302
20
-51.0044679977633
30
0
41
1
10
56.4958382643465
20
-51.0045759294417
30
0
41
1
10
56.4720813989867
20
-51.0070557646099
30
0
41
1
10
56.4612917271391
20
-51.0095462306889
30
0
41
1
10
56.431628815503
20
-51.0193751674905
30
0
41
1
10
56.415261595091
20
-51.0290043688683
30
0
41
1
10
56.3871401568057
20
-51.0523950445234
30
0
41
1
10
56.3754471683746
20
-51.0662127797622
30
0
41
1
10
56.3661990751147
20
-51.0822309471615
30
0
0
SPLINE
5
14F
100
AcDbEntity
8
1
62
256
6
ByLayer
370
18
48
1
60
0
100
AcDbSpline
70
4
71
3
72
8
73
4
40
0
40
0
40
0
40
0
40
1
40
1
40
1
40
1
41
1
10
55.9795187323254
20
-51.7519809471619
30
0
41
1
10
56.1032316122183
20
-51.5377039536367
30
0
41
1
10
56.232193827569
20
-51.3143348443926
30
0
41
1
10
56.3661990751151
20
-51.0822309471619
30
0
0
SPLINE
5
150
100
AcDbEntity
8
1
62
256
6
ByLayer
370
18
48
1
60
0
100
AcDbSpline
70
4
71
3
72
12
73
8
40
0
40
0
40
0
40
0
40
0.499999999999985
40
0.499999999999985
40
0.749999999999992
40
0.749999999999992
40
1
40
1
40
1
40
1
41
1
10
55.9795187323253
20
-51.7519809471618
30
0
41
1
10
55.9674477013504
20
-51.7728885861101
30
0
41
1
10
55.9510296289348
20
-51.7899281855057
30
0
41
1
10
55.9201980923993
20
-51.8092035768403
30
0
41
1
10
55.908885654542
20
-51.8145457511607
30
0
41
1
10
55.8835224133928
20
-51.8223873492846
30
0
41
1
10
55.8695647864116
20
-51.824980947162
30
0
41
1
10
55.853079023372
20
-51.8249809471619
30
0
0
SPLINE
5
151
100
AcDbEntity
8
1
62
256
6
ByLayer
370
18
48
1
60
0
100
AcDbSpline
70
4
71
3
72
18
73
14
40
0
40
0
40
0
40
0
40
0.25
40
0.25
40
0.5
40
0.5
40
0.625
40
0.625
40
0.75
40
0.75
40
0.875
40
0.875
40
1
40
1
40
1
40
1
41
1
10
55.6469209766268
20
-51.8249809471619
30
0
41
1
10
55.6394143039371
20
-51.8249809471619
30
0
41
1
10
55.6314386946083
20
-51.8244298561275
30
0
41
1
10
55.6138997050257
20
-51.8214754445912
30
0
41
1
10
55.6044501097969
20
-51.8192034903416
30
0
41
1
10
55.5873669373249
20
-51.8124232584395
30
0
41
1
10
55.5812373177221
20
-51.8095962200262
30
0
41
1
10
55.5679280404495
20
-51.8020045570366
30
0
41
1
10
55.5605807678592
20
-51.7971080807309
30
0
41
1
10
55.5458196125081
20
-51.7847503449507
30
0
41
1
10
55.5388779695197
20
-51.7775584169138
30
0
41
1
10
55.5279948268073
20
-51.7641124913539
30
0
41
1
10
55.5238537055948
20
-51.7578221809863
30
0
41
1
10
55.5204812676738
20
-51.7519809471617
30
0
0
SPLINE
5
152
100
AcDbEntity
8
1
62
256
6
ByLayer
370
18
48
1
60
0
100
AcDbSpline
70
4
71
3
72
8
73
4
40
0
40
0
40
0
40
0
40
1
40
1
40
1
40
1
41
1
10
55.1338009248851
20
-51.082230947163
30
0
41
1
10
55.2632655006994
20
-51.3064701702538
30
0
41
1
10
55.3921731045878
20
-51.5297446896705
30
0
41
1
10
55.5204812676741
20
-51.7519809471618
30
0
0
SPLINE
5
153
100
AcDbEntity
8
1
62
256
6
ByLayer
370
18
48
1
60
0
100
AcDbSpline
70
4
71
3
72
26
73
22
40
0
40
0
40
0
40
0
40
0.0312499999999996
40
0.0312499999999996
40
0.0624999999999992
40
0.0624999999999992
40
0.0937499999999988
40
0.0937499999999988
40
0.124999999999998
40
0.124999999999998
40
0.187499999999999
40
0.187499999999999
40
0.249999999999999
40
0.249999999999999
40
0.374999999999999
40
0.374999999999999
40
0.499999999999999
40
0.499999999999999
40
0.75
40
0.75
40
1
40
1
40
1
40
1
41
1
10
55.1338009248851
20
-51.082230947163
30
0
41
1
10
55.1309658315441
20
-51.077320421452
30
0
41
1
10
55.1276609433027
20
-51.0721783984016
30
0
41
1
10
55.1192612560687
20
-51.0610136720603
30
0
41
1
10
55.1141561859628
20
-51.0550590331913
30
0
41
1
10
55.1026379835189
20
-51.0437181930048
30
0
41
1
10
55.0962170875709
20
-51.0383571081974
30
0
41
1
10
55.0837876077506
20
-51.0294488392288
30
0
41
1
10
55.0779425342376
20
-51.0259349090938
30
0
41
1
10
55.0613215785703
20
-51.0171178701019
30
0
41
1
10
55.0518864269232
20
-51.0136732049164
30
0
41
1
10
55.0345140636573
20
-51.0086138586122
30
0
41
1
10
55.026757943849
20
-51.0071394062385
30
0
41
1
10
55.0049529991099
20
-51.0043666396346
30
0
41
1
10
54.9923280121324
20
-51.0047345512645
30
0
41
1
10
54.9692654891091
20
-51.0076234604141
30
0
41
1
10
54.9589338244398
20
-51.0101965677783
30
0
41
1
10
54.9303059789677
20
-51.0201216265382
30
0
41
1
10
54.914345275973
20
-51.0296488951875
30
0
41
1
10
54.8868361955112
20
-51.0527708406974
30
0
41
1
10
54.8753182908936
20
-51.0664360021084
30
0
41
1
10
54.8661990751151
20
-51.0822309471619
30
0
0
SPLINE
5
154
100
AcDbEntity
8
1
62
256
6
ByLayer
370
18
48
1
60
0
100
AcDbSpline
70
4
71
3
72
8
73
4
40
0
40
0
40
0
40
0
40
1
40
1
40
1
40
1
41
1
10
54.4795187323254
20
-51.7519809471619
30
0
41
1
10
54.6011289271816
20
-51.5413459109524
30
0
41
1
10
54.7301206286125
20
-51.3179257303194
30
0
41
1
10
54.8661990751151
20
-51.0822309471619
30
0
0
SPLINE
5
155
100
AcDbEntity
8
1
62
256
6
ByLayer
370
18
48
1
60
0
100
AcDbSpline
70
4
71
3
72
12
73
8
40
0
40
0
40
0
40
0
40
0.500000000000004
40
0.500000000000004
40
0.750000000000002
40
0.750000000000002
40
1
40
1
40
1
40
1
41
1
10
54.4795187323281
20
-51.7519809471644
30
0
41
1
10
54.4673329773367
20
-51.7730872939378
30
0
41
1
10
54.4507936681361
20
-51.7901223989277
30
0
41
1
10
54.4200103031397
20
-51.8092972827236
30
0
41
1
10
54.4087224761898
20
-51.8146089607501
30
0
41
1
10
54.3834272788694
20
-51.8224038717576
30
0
41
1
10
54.3695137079082
20
-51.8249809471622
30
0
41
1
10
54.3530790233706
20
-51.8249809471619
30
0
0
SPLINE
5
156
100
AcDbEntity
8
1
62
256
6
ByLayer
370
18
48
1
60
0
100
AcDbSpline
70
4
71
3
72
18
73
14
40
0
40
0
40
0
40
0
40
0.249999999999963
40
0.249999999999963
40
0.499999999999927
40
0.499999999999927
40
0.624999999999945
40
0.624999999999945
40
0.749999999999963
40
0.749999999999963
40
0.874999999999982
40
0.874999999999982
40
1
40
1
40
1
40
1
41
1
10
54.1469209766268
20
-51.8249809471619
30
0
41
1
10
54.1398090344688
20
-51.8249809471619
30
0
41
1
10
54.1322535620826
20
-51.824485480313
30
0
41
1
10
54.1156460943009
20
-51.8218395624164
30
0
41
1
10
54.1066014759696
20
-51.819758987616
30
0
41
1
10
54.0906894505854
20
-51.8138365928823
30
0
41
1
10
54.0849594456462
20
-51.8113766362938
30
0
41
1
10
54.0722323973484
20
-51.8046370888643
30
0
41
1
10
54.0650877817391
20
-51.8003225614068
30
0
41
1
10
54.0489800667221
20
-51.7877377276408
30
0
41
1
10
54.0406121549259
20
-51.7795171564507
30
0
41
1
10
54.0283063852095
20
-51.7646528425098
30
0
41
1
10
54.0239472657236
20
-51.7579842318928
30
0
41
1
10
54.0204812676656
20
-51.7519809471566
30
0
0
SPLINE
5
157
100
AcDbEntity
8
1
62
256
6
ByLayer
370
18
48
1
60
0
100
AcDbSpline
70
4
71
3
72
8
73
4
40
0
40
0
40
0
40
0
40
1
40
1
40
1
40
1
41
1
10
53.6338009248804
20
-51.0822309471549
30
0
41
1
10
53.7637932140896
20
-51.3073841966574
30
0
41
1
10
53.8927187576766
20
-51.5306897885436
30
0
41
1
10
54.0204812676741
20
-51.7519809471618
30
0
0
SPLINE
5
158
100
AcDbEntity
8
1
62
256
6
ByLayer
370
18
48
1
60
0
100
AcDbSpline
70
4
71
3
72
24
73
20
40
0
40
0
40
0
40
0
40
0.0312500000000075
40
0.0312500000000075
40
0.062500000000015
40
0.062500000000015
40
0.0937500000000225
40
0.0937500000000225
40
0.12500000000003
40
0.12500000000003
40
0.187500000000026
40
0.187500000000026
40
0.250000000000023
40
0.250000000000023
40
0.500000000000015
40
0.500000000000015
40
0.750000000000008
40
0.750000000000008
40
1
40
1
40
1
40
1
41
1
10
53.6338009248805
20
-51.0822309471549
30
0
41
1
10
53.6307209777732
20
-51.0768963222812
30
0
41
1
10
53.6269939252321
20
-51.0711127260332
30
0
41
1
10
53.6170139122875
20
-51.0582675889404
30
0
41
1
10
53.6105675694025
20
-51.0511453212451
30
0
41
1
10
53.5963559030629
20
-51.0383308947834
30
0
41
1
10
53.5891628016953
20
-51.0330736613111
30
0
41
1
10
53.5762353510814
20
-51.0248816218744
30
0
41
1
10
53.5705340764141
20
-51.0218940647483
30
0
41
1
10
53.5544523169061
20
-51.01441192988
30
0
41
1
10
53.5455363898465
20
-51.0116006200039
30
0
41
1
10
53.5290790183308
20
-51.0075054075066
30
0
41
1
10
53.5215831636596
20
-51.0063345582237
30
0
41
1
10
53.4865977720771
20
-51.0030168277579
30
0
41
1
10
53.4658176000744
20
-51.0075316287027
30
0
41
1
10
53.4288403389847
20
-51.020940936735
30
0
41
1
10
53.4131996622417
20
-51.0304552559667
30
0
41
1
10
53.3863302368803
20
-51.0533625577297
30
0
41
1
10
53.3751196342741
20
-51.0667800854665
30
0
41
1
10
53.3661990751151
20
-51.0822309471619
30
0
0
SPLINE
5
159
100
AcDbEntity
8
1
62
256
6
ByLayer
370
18
48
1
60
0
100
AcDbSpline
70
4
71
3
72
8
73
4
40
0
40
0
40
0
40
0
40
1
40
1
40
1
40
1
41
1
10
52.9795187323253
20
-51.7519809471619
30
0
41
1
10
53.0966750872774
20
-51.5490601879552
30
0
41
1
10
53.2257295379797
20
-51.325531322396
30
0
41
1
10
53.3661990751151
20
-51.0822309471619
30
0
0
SPLINE
5
15A
100
AcDbEntity
8
1
62
256
6
ByLayer
370
18
48
1
60
0
100
AcDbSpline
70
4
71
3
72
12
73
8
40
0
40
0
40
0
40
0
40
0.499999999999998
40
0.499999999999998
40
0.749999999999999
40
0.749999999999999
40
1
40
1
40
1
40
1
41
1
10
52.9795187323261
20
-51.7519809471626
30
0
41
1
10
52.9671506085469
20
-51.7734031659424
30
0
41
1
10
52.9504648621609
20
-51.7904062946465
30
0
41
1
10
52.9196533316483
20
-51.8094790846669
30
0
41
1
10
52.9083785900322
20
-51.8147435960239
30
0
41
1
10
52.8831838680223
20
-51.822449540336
30
0
41
1
10
52.8693541934692
20
-51.8249809471622
30
0
41
1
10
52.8530790233704
20
-51.8249809471619
30
0
0
SPLINE
5
15B
100
AcDbEntity
8
1
62
256
6
ByLayer
370
18
48
1
60
0
100
AcDbSpline
70
4
71
3
72
18
73
14
40
0
40
0
40
0
40
0
40
0.499999999999924
40
0.499999999999924
40
0.624999999999926
40
0.624999999999926
40
0.749999999999928
40
0.749999999999928
40
0.812499999999937
40
0.812499999999937
40
0.874999999999945
40
0.874999999999945
40
1
40
1
40
1
40
1
41
1
10
52.6469209766268
20
-51.8249809471619
30
0
41
1
10
52.6337481561492
20
-51.8249809471619
30
0
41
1
10
52.6195253121352
20
-51.8237953314501
30
0
41
1
10
52.5956575129876
20
-51.8157779329341
30
0
41
1
10
52.5905290646124
20
-51.8138052165437
30
0
41
1
10
52.5788554512483
20
-51.8083050192055
30
0
41
1
10
52.5724202680276
20
-51.8049157651759
30
0
41
1
10
52.5604256395778
20
-51.7967011245373
30
0
41
1
10
52.5558270695703
20
-51.7932649716241
30
0
41
1
10
52.5459554358713
20
-51.7846450268203
30
0
41
1
10
52.5408424072465
20
-51.7794853226985
30
0
41
1
10
52.5287324297877
20
-51.7655756174988
30
0
41
1
10
52.5241317497767
20
-51.7583037676356
30
0
41
1
10
52.5204812676741
20
-51.7519809471618
30
0
0
SPLINE
5
15C
100
AcDbEntity
8
1
62
256
6
ByLayer
370
18
48
1
60
0
100
AcDbSpline
70
4
71
3
72
8
73
4
40
0
40
0
40
0
40
0
40
1
40
1
40
1
40
1
41
1
10
52.1338009248844
20
-51.0822309471618
30
0
41
1
10
52.2654238614366
20
-51.3102085607116
30
0
41
1
10
52.3944162242406
20
-51.5336298868766
30
0
41
1
10
52.5204812676741
20
-51.7519809471618
30
0
0
SPLINE
5
15D
100
AcDbEntity
8
1
62
256
6
ByLayer
370
18
48
1
60
0
100
AcDbSpline
70
4
71
3
72
26
73
22
40
0
40
0
40
0
40
0
40
0.0312499999999955
40
0.0312499999999955
40
0.0468749999999934
40
0.0468749999999934
40
0.0624999999999913
40
0.0624999999999913
40
0.0937499999999893
40
0.0937499999999893
40
0.124999999999987
40
0.124999999999987
40
0.187499999999986
40
0.187499999999986
40
0.249999999999985
40
0.249999999999985
40
0.49999999999999
40
0.49999999999999
40
0.749999999999995
40
0.749999999999995
40
1
40
1
40
1
40
1
41
1
10
52.1338009248845
20
-51.0822309471619
30
0
41
1
10
52.1303409240557
20
-51.0762380499322
30
0
41
1
10
52.126009888522
20
-51.0694530810361
30
0
41
1
10
52.1158592384623
20
-51.0571325151562
30
0
41
1
10
52.1117690784162
20
-51.0526320128989
30
0
41
1
10
52.1028080564226
20
-51.0439840849631
30
0
41
1
10
52.0980981990282
20
-51.04000323647
30
0
41
1
10
52.0855078864945
20
-51.0303671548511
30
0
41
1
10
52.0786201523319
20
-51.0262985397117
30
0
41
1
10
52.0663278983616
20
-51.0197694876968
30
0
41
1
10
52.0610157361681
20
-51.01744017732
30
0
41
1
10
52.0461572325374
20
-51.0116541521813
30
0
41
1
10
52.0377079102681
20
-51.0094429069743
30
0
41
1
10
52.0221276943199
20
-51.0063677042852
30
0
41
1
10
52.0150858892441
20
-51.005576910371
30
0
41
1
10
51.982050027938
20
-51.0037612180965
30
0
41
1
10
51.9619628833691
20
-51.0085278906028
30
0
41
1
10
51.92641155882
20
-51.0223008143043
30
0
41
1
10
51.9114011366594
20
-51.0317581505221
30
0
41
1
10
51.8856067472019
20
-51.0542333577309
30
0
41
1
10
51.8748227242569
20
-51.0672943487015
30
0
41
1
10
51.866199075115
20
-51.0822309471618
30
0
0
SPLINE
5
15E
100
AcDbEntity
8
1
62
256
6
ByLayer
370
18
48
1
60
0
100
AcDbSpline
70
4
71
3
72
8
73
4
40
0
40
0
40
0
40
0
40
1
40
1
40
1
40
1
41
1
10
51.4795187323253
20
-51.7519809471619
30
0
41
1
10
51.5806220508291
20
-51.5768648626995
30
0
41
1
10
51.709903463775
20
-51.3529428870029
30
0
41
1
10
51.8661990751151
20
-51.0822309471619
30
0
0
SPLINE
5
15F
100
AcDbEntity
8
1
62
256
6
ByLayer
370
18
48
1
60
0
100
AcDbSpline
70
4
71
3
72
10
73
6
40
0
40
0
40
0
40
0
40
0.5
40
0.5
40
1
40
1
40
1
40
1
41
1
10
51.4795187323253
20
-51.7519809471618
30
0
41
1
10
51.4664146179044
20
-51.7746779391271
30
0
41
1
10
51.4489328867239
20
-51.7917436344859
30
0
41
1
10
51.407358481053
20
-51.8166658310302
30
0
41
1
10
51.3836883768957
20
-51.8249809471772
30
0
41
1
10
51.3530790233912
20
-51.8249809471811
30
0
0
SPLINE
5
160
100
AcDbEntity
8
1
62
256
6
ByLayer
370
18
48
1
60
0
100
AcDbSpline
70
4
71
3
72
26
73
22
40
0
40
0
40
0
40
0
40
0.500000000000005
40
0.500000000000005
40
0.750000000000011
40
0.750000000000011
40
0.812500000000015
40
0.812500000000015
40
0.843750000000018
40
0.843750000000018
40
0.85937500000002
40
0.85937500000002
40
0.875000000000022
40
0.875000000000022
40
0.890625000000023
40
0.890625000000023
40
0.906250000000025
40
0.906250000000025
40
0.937500000000015
40
0.937500000000015
40
1
40
1
40
1
40
1
41
1
10
51.1469209766331
20
-51.8249809471682
30
0
41
1
10
51.1345439086522
20
-51.8249809471688
30
0
41
1
10
51.1213089543176
20
-51.8237658747728
30
0
41
1
10
51.0963309470112
20
-51.8162118170164
30
0
41
1
10
51.0875835405695
20
-51.8131960967761
30
0
41
1
10
51.0715180132047
20
-51.8040571557862
30
0
41
1
10
51.0680369418949
20
-51.8019500362166
30
0
41
1
10
51.0615058073041
20
-51.7974177269189
30
0
41
1
10
51.0591248948143
20
-51.7956953279156
30
0
41
1
10
51.054666734725
20
-51.7921567154055
30
0
41
1
10
51.0530225166402
20
-51.7908111684215
30
0
41
1
10
51.0490551490826
20
-51.7873562163608
30
0
41
1
10
51.0465542922481
20
-51.785076925687
30
0
41
1
10
51.0412834287945
20
-51.7798300248986
30
0
41
1
10
51.0389928900319
20
-51.7773394010612
30
0
41
1
10
51.0355351363365
20
-51.7734057951223
30
0
41
1
10
51.0341842708777
20
-51.7717708871212
30
0
41
1
10
51.0306547867983
20
-51.7673683004763
30
0
41
1
10
51.028926897911
20
-51.7650058535034
30
0
41
1
10
51.024403866882
20
-51.758561763392
30
0
41
1
10
51.0223074929507
20
-51.755144062127
30
0
41
1
10
51.020481267674
20
-51.7519809471617
30
0
0
SPLINE
5
161
100
AcDbEntity
8
1
62
256
6
ByLayer
370
18
48
1
60
0
100
AcDbSpline
70
4
71
3
72
8
73
4
40
0
40
0
40
0
40
0
40
1
40
1
40
1
40
1
41
1
10
50.6338009248844
20
-51.0822309471618
30
0
41
1
10
50.7823562201177
20
-51.3395362662394
30
0
41
1
10
50.9122169597165
20
-51.5644616651329
30
0
41
1
10
51.0204812676742
20
-51.7519809471619
30
0
0
SPLINE
5
162
100
AcDbEntity
8
1
62
256
6
ByLayer
370
18
48
1
60
0
100
AcDbSpline
70
4
71
3
72
28
73
24
40
0
40
0
40
0
40
0
40
0.0156250000000034
40
0.0156250000000034
40
0.0234375000000033
40
0.0234375000000033
40
0.0312500000000033
40
0.0312500000000033
40
0.0390625000000032
40
0.0390625000000032
40
0.0468750000000032
40
0.0468750000000032
40
0.0625000000000031
40
0.0625000000000031
40
0.0937500000000037
40
0.0937500000000037
40
0.125000000000004
40
0.125000000000004
40
0.250000000000004
40
0.250000000000004
40
0.500000000000003
40
0.500000000000003
40
1
40
1
40
1
40
1
41
1
10
50.6338009248845
20
-51.0822309471619
30
0
41
1
10
50.6316374507676
20
-51.0784837000706
30
0
41
1
10
50.6291393494116
20
-51.0744272741291
30
0
41
1
10
50.623539726343
20
-51.0666456185915
30
0
41
1
10
50.6213327997746
20
-51.063716724571
30
0
41
1
10
50.6152740032491
20
-51.0565035768105
30
0
41
1
10
50.6108459151282
20
-51.0516685314774
30
0
41
1
10
50.6016530897357
20
-51.0429606346686
30
0
41
1
10
50.5978219864871
20
-51.0398252892376
30
0
41
1
10
50.5914257065272
20
-51.0348697209438
30
0
41
1
10
50.588782993815
20
-51.0330038783927
30
0
41
1
10
50.5814795323345
20
-51.0280815123402
30
0
41
1
10
50.5774685108637
20
-51.0257417191071
30
0
41
1
10
50.566506337471
20
-51.0197799727171
30
0
41
1
10
50.560598980289
20
-51.0172414239209
30
0
41
1
10
50.5496943108622
20
-51.0130746841407
30
0
41
1
10
50.5447843991882
20
-51.0115371149083
30
0
41
1
10
50.5217463077271
20
-51.0053327499809
30
0
41
1
10
50.5078277606969
20
-51.0046648377887
30
0
41
1
10
50.4700111621892
20
-51.0058348413124
30
0
41
1
10
50.4510132416681
20
-51.0118481454333
30
0
41
1
10
50.4020093356111
20
-51.0347104929471
30
0
41
1
10
50.3806939455295
20
-51.057125095155
30
0
41
1
10
50.3661990751151
20
-51.0822309471619
30
0
0
SPLINE
5
163
100
AcDbEntity
8
1
62
256
6
ByLayer
370
18
48
1
60
0
100
AcDbSpline
70
4
71
3
72
8
73
4
40
0
40
0
40
0
40
0
40
1
40
1
40
1
40
1
41
1
10
50.2623258549494
20
-51.2621446420346
30
0
41
1
10
50.2620716114742
20
-51.2625850046511
30
0
41
1
10
50.2966970135549
20
-51.2026120490149
30
0
41
1
10
50.3661990751151
20
-51.0822309471619
30
0
0
SPLINE
5
164
100
AcDbEntity
8
1
62
256
6
ByLayer
370
18
48
1
60
0
100
AcDbSpline
70
4
71
3
72
8
73
4
40
0
40
0
40
0
40
0
40
1
40
1
40
1
40
1
41
1
10
59.4131964345249
20
-51.0316709670319
30
0
41
1
10
59.3935873062012
20
-51.0449887240069
30
0
41
1
10
59.3778703052611
20
-51.0620157835622
30
0
41
1
10
59.3661990751151
20
-51.0822309471619
30
0
0
SPLINE
5
165
100
AcDbEntity
8
1
62
256
6
ByLayer
370
18
48
1
60
0
100
AcDbSpline
70
4
71
3
72
8
73
4
40
0
40
0
40
0
40
0
40
1
40
1
40
1
40
1
41
1
10
89.6338009248845
20
-51.082230947162
30
0
41
1
10
89.7028252613522
20
-51.2017846048829
30
0
41
1
10
89.7374487865439
20
-51.2617543096519
30
0
41
1
10
89.7376744248845
20
-51.2621451267219
30
0
0
SPLINE
5
166
100
AcDbEntity
8
1
62
256
6
ByLayer
370
18
48
1
60
0
100
AcDbSpline
70
4
71
3
72
28
73
24
40
0
40
0
40
0
40
0
40
0.499999999999992
40
0.499999999999992
40
0.749999999999987
40
0.749999999999987
40
0.874999999999983
40
0.874999999999983
40
0.906249999999984
40
0.906249999999984
40
0.937499999999985
40
0.937499999999985
40
0.953124999999987
40
0.953124999999987
40
0.960937499999988
40
0.960937499999988
40
0.968749999999989
40
0.968749999999989
40
0.97656249999999
40
0.97656249999999
40
0.984374999999991
40
0.984374999999991
40
1
40
1
40
1
40
1
41
1
10
89.6338009248845
20
-51.0822309471619
30
0
41
1
10
89.6193147472979
20
-51.0571401515745
30
0
41
1
10
89.5980086827086
20
-51.034734567854
30
0
41
1
10
89.5490604726459
20
-51.0118747217413
30
0
41
1
10
89.5300814650783
20
-51.0058647141356
30
0
41
1
10
89.4923737179538
20
-51.004657700455
30
0
41
1
10
89.4784997522245
20
-51.0053153749595
30
0
41
1
10
89.4556142267269
20
-51.0114181470562
30
0
41
1
10
89.4507312360691
20
-51.0129317840935
30
0
41
1
10
89.4398540862941
20
-51.0170501311149
30
0
41
1
10
89.4339136531794
20
-51.0195813703815
30
0
41
1
10
89.422945834461
20
-51.0255027128178
30
0
41
1
10
89.418984344022
20
-51.0277957649015
30
0
41
1
10
89.4116845089805
20
-51.0326771913771
30
0
41
1
10
89.4090589772584
20
-51.0345196288052
30
0
41
1
10
89.4028421021095
20
-51.0392896680264
30
0
41
1
10
89.3990785628685
20
-51.0423308772137
30
0
41
1
10
89.3899498251138
20
-51.0508612695291
30
0
41
1
10
89.385314748144
20
-51.055841461317
30
0
41
1
10
89.3790302068433
20
-51.0632512263731
30
0
41
1
10
89.3767959007593
20
-51.0661970505621
30
0
41
1
10
89.3709909410195
20
-51.0742139874771
30
0
41
1
10
89.3684082537648
20
-51.0784045374976
30
0
41
1
10
89.3661990751151
20
-51.0822309471619
30
0
0
SPLINE
5
167
100
AcDbEntity
8
1
62
256
6
ByLayer
370
18
48
1
60
0
100
AcDbSpline
70
4
71
3
72
8
73
4
40
0
40
0
40
0
40
0
40
1
40
1
40
1
40
1
41
1
10
88.9795187323273
20
-51.7519809471585
30
0
41
1
10
89.0877830402845
20
-51.5644616651302
30
0
41
1
10
89.2176437798825
20
-51.339536266238
30
0
41
1
10
89.3661990751149
20
-51.0822309471621
30
0
0
SPLINE
5
168
100
AcDbEntity
8
1
62
256
6
ByLayer
370
18
48
1
60
0
100
AcDbSpline
70
4
71
3
72
26
73
22
40
0
40
0
40
0
40
0
40
0.0624999999999478
40
0.0624999999999478
40
0.0937499999999234
40
0.0937499999999234
40
0.109374999999907
40
0.109374999999907
40
0.12499999999989
40
0.12499999999989
40
0.140624999999874
40
0.140624999999874
40
0.156249999999857
40
0.156249999999857
40
0.187499999999853
40
0.187499999999853
40
0.24999999999986
40
0.24999999999986
40
0.499999999999906
40
0.499999999999906
40
1
40
1
40
1
40
1
41
1
10
88.9795187323274
20
-51.7519809471583
30
0
41
1
10
88.9776662140819
20
-51.7551896028818
30
0
41
1
10
88.97553182881
20
-51.7586689704965
30
0
41
1
10
88.9708902819481
20
-51.7652579719682
30
0
41
1
10
88.9691433323707
20
-51.7676394893324
30
0
41
1
10
88.965462969151
20
-51.7721993142472
30
0
41
1
10
88.9640479059671
20
-51.773900091108
30
0
41
1
10
88.9603520025602
20
-51.7780579108212
30
0
41
1
10
88.9578553330972
20
-51.780724846482
30
0
41
1
10
88.952526636609
20
-51.7859392023362
30
0
41
1
10
88.9501581825045
20
-51.7880589782858
30
0
41
1
10
88.9463270143173
20
-51.7913517271556
30
0
41
1
10
88.944723133988
20
-51.7926504129396
30
0
41
1
10
88.9403793709828
20
-51.7960630173079
30
0
41
1
10
88.9380277700969
20
-51.7977517688068
30
0
41
1
10
88.9315856210068
20
-51.8021877030836
30
0
41
1
10
88.9281500433458
20
-51.8042554069514
30
0
41
1
10
88.9122504764756
20
-51.8132504976296
30
0
41
1
10
88.9035045989121
20
-51.8162701221856
30
0
41
1
10
88.8786197312723
20
-51.8237700946439
30
0
41
1
10
88.8654269522395
20
-51.8249809471619
30
0
41
1
10
88.8530790233732
20
-51.8249809471619
30
0
0
SPLINE
5
169
100
AcDbEntity
8
1
62
256
6
ByLayer
370
18
48
1
60
0
100
AcDbSpline
70
4
71
3
72
10
73
6
40
0
40
0
40
0
40
0
40
0.5
40
0.5
40
1
40
1
40
1
40
1
41
1
10
88.6469209766002
20
-51.8249809471886
30
0
41
1
10
88.616312406388
20
-51.8249809471831
30
0
41
1
10
88.592640291401
20
-51.8166654089371
30
0
41
1
10
88.5510655597706
20
-51.7917423894293
30
0
41
1
10
88.5335858962772
20
-51.7746788297168
30
0
41
1
10
88.5204812676741
20
-51.7519809471617
30
0
0
SPLINE
5
16A
100
AcDbEntity
8
1
62
256
6
ByLayer
370
18
48
1
60
0
100
AcDbSpline
70
4
71
3
72
8
73
4
40
0
40
0
40
0
40
0
40
1
40
1
40
1
40
1
41
1
10
88.1338009248845
20
-51.082230947162
30
0
41
1
10
88.2900965362244
20
-51.3529428870028
30
0
41
1
10
88.4193779491704
20
-51.5768648626995
30
0
41
1
10
88.5204812676741
20
-51.7519809471617
30
0
0
SPLINE
5
16B
100
AcDbEntity
8
1
62
256
6
ByLayer
370
18
48
1
60
0
100
AcDbSpline
70
4
71
3
72
26
73
22
40
0
40
0
40
0
40
0
40
0.250000000000014
40
0.250000000000014
40
0.500000000000029
40
0.500000000000029
40
0.750000000000043
40
0.750000000000043
40
0.81250000000005
40
0.81250000000005
40
0.875000000000056
40
0.875000000000056
40
0.906250000000057
40
0.906250000000057
40
0.937500000000058
40
0.937500000000058
40
0.953125000000041
40
0.953125000000041
40
0.968750000000024
40
0.968750000000024
40
1
40
1
40
1
40
1
41
1
10
88.1338009248845
20
-51.0822309471619
30
0
41
1
10
88.1251742176362
20
-51.0672890519058
30
0
41
1
10
88.1143722586753
20
-51.0542074883215
30
0
41
1
10
88.0885420151258
20
-51.0317162170985
30
0
41
1
10
88.0735675782443
20
-51.0222911993958
30
0
41
1
10
88.0380363619317
20
-51.0085291315654
30
0
41
1
10
88.017821036723
20
-51.0037352129296
30
0
41
1
10
87.9847053508109
20
-51.0055968080384
30
0
41
1
10
87.9776622148469
20
-51.0064003063314
30
0
41
1
10
87.9621647846329
20
-51.0094770948088
30
0
41
1
10
87.9537734296686
20
-51.0116694192136
30
0
41
1
10
87.9387970459351
20
-51.0175190796989
30
0
41
1
10
87.9334593906053
20
-51.0198732197495
30
0
41
1
10
87.9212655710153
20
-51.0263687390654
30
0
41
1
10
87.9144631252004
20
-51.0303777938989
30
0
41
1
10
87.9017572492203
20
-51.0401197528712
30
0
41
1
10
87.8971229112218
20
-51.0440466679575
30
0
41
1
10
87.8881952838966
20
-51.0526704904268
30
0
41
1
10
87.8840540663341
20
-51.0572328935621
30
0
41
1
10
87.873989919441
20
-51.0694631400881
30
0
41
1
10
87.8696799123697
20
-51.0762019601857
30
0
41
1
10
87.8661990751242
20
-51.0822309471462
30
0
0
SPLINE
5
16C
100
AcDbEntity
8
1
62
256
6
ByLayer
370
18
48
1
60
0
100
AcDbSpline
70
4
71
3
72
8
73
4
40
0
40
0
40
0
40
0
40
1
40
1
40
1
40
1
41
1
10
87.4795187323305
20
-51.7519809471529
30
0
41
1
10
87.6055837757651
20
-51.5336298868657
30
0
41
1
10
87.7345761385704
20
-51.3102085606986
30
0
41
1
10
87.8661990751238
20
-51.0822309471467
30
0
0
SPLINE
5
16D
100
AcDbEntity
8
1
62
256
6
ByLayer
370
18
48
1
60
0
100
AcDbSpline
70
4
71
3
72
20
73
16
40
0
40
0
40
0
40
0
40
0.0624999999999914
40
0.0624999999999914
40
0.124999999999983
40
0.124999999999983
40
0.187499999999974
40
0.187499999999974
40
0.249999999999965
40
0.249999999999965
40
0.374999999999974
40
0.374999999999974
40
0.499999999999982
40
0.499999999999982
40
1
40
1
40
1
40
1
41
1
10
87.4795187323308
20
-51.7519809471526
30
0
41
1
10
87.4776890532002
20
-51.7551500443689
30
0
41
1
10
87.4755929804616
20
-51.7585242665136
30
0
41
1
10
87.470388244999
20
-51.7660174674076
30
0
41
1
10
87.4672430508027
20
-51.7701959376816
30
0
41
1
10
87.4591926204413
20
-51.7794473802215
30
0
41
1
10
87.4541263766881
20
-51.784566028499
30
0
41
1
10
87.4442807060086
20
-51.7931782768041
30
0
41
1
10
87.4397519438504
20
-51.7965735242699
30
0
41
1
10
87.4275816066439
20
-51.8049261829831
30
0
41
1
10
87.4212997072266
20
-51.8082223270027
30
0
41
1
10
87.4096664359113
20
-51.8137224059296
30
0
41
1
10
87.4045618372615
20
-51.8156957406458
30
0
41
1
10
87.3806798819577
20
-51.823759504749
30
0
41
1
10
87.3662990493662
20
-51.8249809471707
30
0
41
1
10
87.3530790233728
20
-51.8249809471706
30
0
0
SPLINE
5
16E
100
AcDbEntity
8
1
62
256
6
ByLayer
370
18
48
1
60
0
100
AcDbSpline
70
4
71
3
72
12
73
8
40
0
40
0
40
0
40
0
40
0.249999999999997
40
0.249999999999997
40
0.499999999999995
40
0.499999999999995
40
1
40
1
40
1
40
1
41
1
10
87.1469209766267
20
-51.8249809471619
30
0
41
1
10
87.1306766777331
20
-51.8249809471619
30
0
41
1
10
87.1168191289746
20
-51.8224539088007
30
0
41
1
10
87.0915485672427
20
-51.8147178553059
30
0
41
1
10
87.0802283039684
20
-51.809419766279
30
0
41
1
10
87.0494044236375
20
-51.7902972279522
30
0
41
1
10
87.0328222880773
20
-51.7733562215174
30
0
41
1
10
87.0204812676742
20
-51.751980947162
30
0
0
SPLINE
5
16F
100
AcDbEntity
8
1
62
256
6
ByLayer
370
18
48
1
60
0
100
AcDbSpline
70
4
71
3
72
8
73
4
40
0
40
0
40
0
40
0
40
1
40
1
40
1
40
1
41
1
10
86.6338009248845
20
-51.082230947162
30
0
41
1
10
86.7742704620198
20
-51.3255313223961
30
0
41
1
10
86.9033249127221
20
-51.5490601879553
30
0
41
1
10
87.0204812676742
20
-51.7519809471619
30
0
0
SPLINE
5
170
100
AcDbEntity
8
1
62
256
6
ByLayer
370
18
48
1
60
0
100
AcDbSpline
70
4
71
3
72
24
73
20
40
0
40
0
40
0
40
0
40
0.250000000000011
40
0.250000000000011
40
0.500000000000022
40
0.500000000000022
40
0.750000000000034
40
0.750000000000034
40
0.812500000000035
40
0.812500000000035
40
0.875000000000037
40
0.875000000000037
40
0.906250000000027
40
0.906250000000027
40
0.937500000000018
40
0.937500000000018
40
0.968750000000009
40
0.968750000000009
40
1
40
1
40
1
40
1
41
1
10
86.6338009248845
20
-51.0822309471619
30
0
41
1
10
86.6248777148423
20
-51.0667754940022
30
0
41
1
10
86.6136614069201
20
-51.0533515387351
30
0
41
1
10
86.586769211227
20
-51.0304326200162
30
0
41
1
10
86.5711408047074
20
-51.0209239668519
30
0
41
1
10
86.534060654287
20
-51.0074976496698
30
0
41
1
10
86.512980133347
20
-51.0029984651818
30
0
41
1
10
86.4781211967872
20
-51.0063776142973
30
0
41
1
10
86.4706485478289
20
-51.0075565412983
30
0
41
1
10
86.4541558525065
20
-51.0116944559587
30
0
41
1
10
86.4452787978579
20
-51.014516902972
30
0
41
1
10
86.4292715599973
20
-51.0219948704385
30
0
41
1
10
86.4235862689483
20
-51.0249912765154
30
0
41
1
10
86.4109157615758
20
-51.0330272866051
30
0
41
1
10
86.4035769823706
20
-51.0383924964571
30
0
41
1
10
86.389519082509
20
-51.0510661045747
30
0
41
1
10
86.3829907909374
20
-51.058267266954
30
0
41
1
10
86.3730836684385
20
-51.0710071722359
30
0
41
1
10
86.3692951526672
20
-51.0768683834891
30
0
41
1
10
86.3661990750641
20
-51.082230947207
30
0
0
SPLINE
5
171
100
AcDbEntity
8
1
62
256
6
ByLayer
370
18
48
1
60
0
100
AcDbSpline
70
4
71
3
72
8
73
4
40
0
40
0
40
0
40
0
40
1
40
1
40
1
40
1
41
1
10
85.9795187323312
20
-51.7519809471517
30
0
41
1
10
86.1072812423216
20
-51.5306897885458
30
0
41
1
10
86.2362067859014
20
-51.3073841966722
30
0
41
1
10
86.3661990751032
20
-51.0822309471824
30
0
0
SPLINE
5
172
100
AcDbEntity
8
1
62
256
6
ByLayer
370
18
48
1
60
0
100
AcDbSpline
70
4
71
3
72
18
73
14
40
0
40
0
40
0
40
0
40
0.125000000000023
40
0.125000000000023
40
0.250000000000047
40
0.250000000000047
40
0.37500000000007
40
0.37500000000007
40
0.500000000000093
40
0.500000000000093
40
0.750000000000047
40
0.750000000000047
40
1
40
1
40
1
40
1
41
1
10
85.9795187323317
20
-51.7519809471513
30
0
41
1
10
85.9760374313197
20
-51.7580107373819
30
0
41
1
10
85.9716887042534
20
-51.7646654936225
30
0
41
1
10
85.9593102021208
20
-51.779604177892
30
0
41
1
10
85.950884529024
20
-51.7878571528256
30
0
41
1
10
85.9348031731059
20
-51.8003939137092
30
0
41
1
10
85.9276499904424
20
-51.8047068185217
30
0
41
1
10
85.9149199154164
20
-51.8114329306508
30
0
41
1
10
85.9091882578267
20
-51.813885570296
30
0
41
1
10
85.8934040534081
20
-51.8197499284342
30
0
41
1
10
85.884453168033
20
-51.8218192383621
30
0
41
1
10
85.8677987610353
20
-51.8244816128281
30
0
41
1
10
85.860201265107
20
-51.8249809471751
30
0
41
1
10
85.8530790233624
20
-51.8249809471746
30
0
0
SPLINE
5
173
100
AcDbEntity
8
1
62
256
6
ByLayer
370
18
48
1
60
0
100
AcDbSpline
70
4
71
3
72
12
73
8
40
0
40
0
40
0
40
0
40
0.250000000000001
40
0.250000000000001
40
0.500000000000002
40
0.500000000000002
40
1
40
1
40
1
40
1
41
1
10
85.6469209766267
20
-51.8249809471619
30
0
41
1
10
85.6305206852729
20
-51.8249809471619
30
0
41
1
10
85.6165860230143
20
-51.8224096709394
30
0
41
1
10
85.5912300257412
20
-51.814592621455
30
0
41
1
10
85.5798806787196
20
-51.8092442946563
30
0
41
1
10
85.5490336440649
20
-51.7899847088064
30
0
41
1
10
85.532643392244
20
-51.7730463648449
30
0
41
1
10
85.5204812676742
20
-51.7519809471619
30
0
0
SPLINE
5
174
100
AcDbEntity
8
1
62
256
6
ByLayer
370
18
48
1
60
0
100
AcDbSpline
70
4
71
3
72
8
73
4
40
0
40
0
40
0
40
0
40
1
40
1
40
1
40
1
41
1
10
85.1338009248845
20
-51.082230947162
30
0
41
1
10
85.2698793713871
20
-51.3179257303195
30
0
41
1
10
85.3988710728179
20
-51.5413459109525
30
0
41
1
10
85.5204812676742
20
-51.7519809471619
30
0
0
SPLINE
5
175
100
AcDbEntity
8
1
62
256
6
ByLayer
370
18
48
1
60
0
100
AcDbSpline
70
4
71
3
72
26
73
22
40
0
40
0
40
0
40
0
40
0.250000000000014
40
0.250000000000014
40
0.500000000000028
40
0.500000000000028
40
0.625000000000043
40
0.625000000000043
40
0.750000000000058
40
0.750000000000058
40
0.812500000000048
40
0.812500000000048
40
0.875000000000038
40
0.875000000000038
40
0.906250000000029
40
0.906250000000029
40
0.937500000000019
40
0.937500000000019
40
0.96875000000001
40
0.96875000000001
40
1
40
1
40
1
40
1
41
1
10
85.1338009248845
20
-51.0822309471619
30
0
41
1
10
85.1247083277436
20
-51.066482106941
30
0
41
1
10
85.1132369234218
20
-51.0528397423508
30
0
41
1
10
85.0856562950924
20
-51.0296427921355
30
0
41
1
10
85.0695234815116
20
-51.0200400681224
30
0
41
1
10
85.0409204233596
20
-51.0101573898802
30
0
41
1
10
85.0306352555358
20
-51.0076144373407
30
0
41
1
10
85.0078614607158
20
-51.0047548888445
30
0
41
1
10
84.9954581433283
20
-51.0043502442676
30
0
41
1
10
84.9735866349299
20
-51.0070783142899
30
0
41
1
10
84.965723520202
20
-51.0085667123176
30
0
41
1
10
84.9485655923336
20
-51.0135203872356
30
0
41
1
10
84.9392647789994
20
-51.016869018216
30
0
41
1
10
84.9226408397827
20
-51.0255967428381
30
0
41
1
10
84.9166991221853
20
-51.0291395975893
30
0
41
1
10
84.9043199972828
20
-51.0379357262227
30
0
41
1
10
84.8978511641618
20
-51.0432802981783
30
0
41
1
10
84.8861676199923
20
-51.0546994375855
30
0
41
1
10
84.8809666721919
20
-51.0607361131284
30
0
41
1
10
84.8725067547771
20
-51.0719312595558
30
0
41
1
10
84.8690954235233
20
-51.0772143245623
30
0
41
1
10
84.866199075115
20
-51.082230947162
30
0
0
SPLINE
5
176
100
AcDbEntity
8
1
62
256
6
ByLayer
370
18
48
1
60
0
100
AcDbSpline
70
4
71
3
72
8
73
4
40
0
40
0
40
0
40
0
40
1
40
1
40
1
40
1
41
1
10
84.4795187323252
20
-51.751980947162
30
0
41
1
10
84.6078268954118
20
-51.5297446896703
30
0
41
1
10
84.7367344993004
20
-51.3064701702532
30
0
41
1
10
84.866199075115
20
-51.082230947162
30
0
0
SPLINE
5
177
100
AcDbEntity
8
1
62
256
6
ByLayer
370
18
48
1
60
0
100
AcDbSpline
70
4
71
3
72
18
73
14
40
0
40
0
40
0
40
0
40
0.125000000000023
40
0.125000000000023
40
0.250000000000046
40
0.250000000000046
40
0.375000000000069
40
0.375000000000069
40
0.500000000000093
40
0.500000000000093
40
0.750000000000046
40
0.750000000000046
40
1
40
1
40
1
40
1
41
1
10
84.4795187323253
20
-51.7519809471619
30
0
41
1
10
84.4761556072871
20
-51.7578060506002
30
0
41
1
10
84.4720782761261
20
-51.7640092519947
30
0
41
1
10
84.4612203525041
20
-51.7774496615451
30
0
41
1
10
84.4544064072564
20
-51.7845354632016
30
0
41
1
10
84.4396428482393
20
-51.796945767365
30
0
41
1
10
84.4323275485064
20
-51.8018397867246
30
0
41
1
10
84.4190421830319
20
-51.8094550241364
30
0
41
1
10
84.4129486729454
20
-51.8122790077985
30
0
41
1
10
84.3960643021181
20
-51.8190354274503
30
0
41
1
10
84.3863259124953
20
-51.8214278416769
30
0
41
1
10
84.3686368970242
20
-51.8244265588548
30
0
41
1
10
84.3606176544619
20
-51.8249809471619
30
0
41
1
10
84.353079023374
20
-51.8249809471619
30
0
0
SPLINE
5
178
100
AcDbEntity
8
1
62
256
6
ByLayer
370
18
48
1
60
0
100
AcDbSpline
70
4
71
3
72
12
73
8
40
0
40
0
40
0
40
0
40
0.249999999999997
40
0.249999999999997
40
0.499999999999993
40
0.499999999999993
40
1
40
1
40
1
40
1
41
1
10
84.1469209766267
20
-51.8249809471619
30
0
41
1
10
84.1304561417451
20
-51.8249809471619
30
0
41
1
10
84.1164814763159
20
-51.8223904732222
30
0
41
1
10
84.0910719209308
20
-51.8145307104295
30
0
41
1
10
84.0797163862532
20
-51.8091624556832
30
0
41
1
10
84.0488199127892
20
-51.7898092368108
30
0
41
1
10
84.0325384545936
20
-51.7728646075027
30
0
41
1
10
84.0204812676742
20
-51.751980947162
30
0
0
SPLINE
5
179
100
AcDbEntity
8
1
62
256
6
ByLayer
370
18
48
1
60
0
100
AcDbSpline
70
4
71
3
72
8
73
4
40
0
40
0
40
0
40
0
40
1
40
1
40
1
40
1
41
1
10
83.6338009248845
20
-51.082230947162
30
0
41
1
10
83.7678061724305
20
-51.3143348443926
30
0
41
1
10
83.8967683877813
20
-51.5377039536367
30
0
41
1
10
84.0204812676742
20
-51.7519809471619
30
0
0
SPLINE
5
17A
100
AcDbEntity
8
1
62
256
6
ByLayer
370
18
48
1
60
0
100
AcDbSpline
70
4
71
3
72
22
73
18
40
0
40
0
40
0
40
0
40
0.250000000000017
40
0.250000000000017
40
0.500000000000034
40
0.500000000000034
40
0.625000000000047
40
0.625000000000047
40
0.750000000000061
40
0.750000000000061
40
0.812500000000046
40
0.812500000000046
40
0.87500000000003
40
0.87500000000003
40
0.937500000000015
40
0.937500000000015
40
1
40
1
40
1
40
1
41
1
10
83.6338009248846
20
-51.0822309471618
30
0
41
1
10
83.6245480312819
20
-51.066204465325
30
0
41
1
10
83.6128292820888
20
-51.0523483598278
30
0
41
1
10
83.584556710282
20
-51.0288746651082
30
0
41
1
10
83.5679647064921
20
-51.0191743129565
30
0
41
1
10
83.5382410648405
20
-51.0094256350517
30
0
41
1
10
83.5275249412567
20
-51.0069787103242
30
0
41
1
10
83.5036219343489
20
-51.0045569779923
30
0
41
1
10
83.4906157707433
20
-51.0045006737783
30
0
41
1
10
83.4678320071665
20
-51.0081711822351
30
0
41
1
10
83.459708995513
20
-51.010027726699
30
0
41
1
10
83.4417872608778
20
-51.0160553317607
30
0
41
1
10
83.4319922994228
20
-51.0201776338712
30
0
41
1
10
83.4102264111124
20
-51.0331038797413
30
0
41
1
10
83.3981972451708
20
-51.0424127534818
30
0
41
1
10
83.3787008214532
20
-51.0627582913557
30
0
41
1
10
83.371524522744
20
-51.073007001295
30
0
41
1
10
83.3661990751143
20
-51.0822309471629
30
0
0
SPLINE
5
17B
100
AcDbEntity
8
1
62
256
6
ByLayer
370
18
48
1
60
0
100
AcDbSpline
70
4
71
3
72
8
73
4
40
0
40
0
40
0
40
0
40
1
40
1
40
1
40
1
41
1
10
82.9795187323251
20
-51.7519809471621
30
0
41
1
10
83.1080691296706
20
-51.5293251276265
30
0
41
1
10
83.2369698747514
20
-51.3060624880132
30
0
41
1
10
83.3661990751145
20
-51.0822309471628
30
0
0
SPLINE
5
17C
100
AcDbEntity
8
1
62
256
6
ByLayer
370
18
48
1
60
0
100
AcDbSpline
70
4
71
3
72
18
73
14
40
0
40
0
40
0
40
0
40
0.125000000000007
40
0.125000000000007
40
0.250000000000014
40
0.250000000000014
40
0.37500000000002
40
0.37500000000002
40
0.500000000000027
40
0.500000000000027
40
0.750000000000014
40
0.750000000000014
40
1
40
1
40
1
40
1
41
1
10
82.9795187323509
20
-51.7519809471471
30
0
41
1
10
82.9762708255709
20
-51.7576064867108
30
0
41
1
10
82.972356348339
20
-51.7635555029924
30
0
41
1
10
82.9624068736229
20
-51.7760755242747
30
0
41
1
10
82.9563047531526
20
-51.7826101925359
30
0
41
1
10
82.9430095212752
20
-51.7943372531551
30
0
41
1
10
82.935842087451
20
-51.7995148696968
30
0
41
1
10
82.9223816934787
20
-51.8077260098767
30
0
41
1
10
82.9161481604828
20
-51.8108134306013
30
0
41
1
10
82.8983593352992
20
-51.818378839306
30
0
41
1
10
82.8882476950445
20
-51.8210051075473
30
0
41
1
10
82.8693959771709
20
-51.8243819602914
30
0
41
1
10
82.8609654343858
20
-51.8249809471619
30
0
41
1
10
82.8530790233728
20
-51.8249809471619
30
0
0
SPLINE
5
17D
100
AcDbEntity
8
1
62
256
6
ByLayer
370
18
48
1
60
0
100
AcDbSpline
70
4
71
3
72
12
73
8
40
0
40
0
40
0
40
0
40
0.250000000000007
40
0.250000000000007
40
0.500000000000014
40
0.500000000000014
40
1
40
1
40
1
40
1
41
1
10
82.6469209766267
20
-51.8249809471619
30
0
41
1
10
82.63043396777
20
-51.8249809471619
30
0
41
1
10
82.6161653400055
20
-51.8223300558948
30
0
41
1
10
82.5906325384941
20
-51.8143563064083
30
0
41
1
10
82.5793471184237
20
-51.8089625415852
30
0
41
1
10
82.5487289768371
20
-51.789688200684
30
0
41
1
10
82.5325154798573
20
-51.7728248140925
30
0
41
1
10
82.5204812676741
20
-51.7519809471621
30
0
0
SPLINE
5
17E
100
AcDbEntity
8
1
62
256
6
ByLayer
370
18
48
1
60
0
100
AcDbSpline
70
4
71
3
72
8
73
4
40
0
40
0
40
0
40
0
40
1
40
1
40
1
40
1
41
1
10
82.1338009248844
20
-51.082230947162
30
0
41
1
10
82.2666003001579
20
-51.3122462123489
30
0
41
1
10
82.3955454646704
20
-51.5355857886749
30
0
41
1
10
82.5204812676742
20
-51.7519809471619
30
0
0
SPLINE
5
17F
100
AcDbEntity
8
1
62
256
6
ByLayer
370
18
48
1
60
0
100
AcDbSpline
70
4
71
3
72
22
73
18
40
0
40
0
40
0
40
0
40
0.250000000000007
40
0.250000000000007
40
0.500000000000013
40
0.500000000000013
40
0.625000000000016
40
0.625000000000016
40
0.75000000000002
40
0.75000000000002
40
0.812500000000015
40
0.812500000000015
40
0.87500000000001
40
0.87500000000001
40
0.937500000000005
40
0.937500000000005
40
1
40
1
40
1
40
1
41
1
10
82.1338009248846
20
-51.0822309471618
30
0
41
1
10
82.1244328122772
20
-51.0660049001547
30
0
41
1
10
82.1125335315576
20
-51.0519923277673
30
0
41
1
10
82.0837447213313
20
-51.0283153240995
30
0
41
1
10
82.0668232444523
20
-51.018549058744
30
0
41
1
10
82.0362431349769
20
-51.0089123300443
30
0
41
1
10
82.0252160395073
20
-51.0065521358557
30
0
41
1
10
82.0005782578259
20
-51.00448825187
30
0
41
1
10
81.9871588405186
20
-51.0046972386445
30
0
41
1
10
81.9637248842126
20
-51.0090897026547
30
0
41
1
10
81.9553050094263
20
-51.0112634187716
30
0
41
1
10
81.9369553073955
20
-51.0180898419292
30
0
41
1
10
81.9269698884022
20
-51.0227588219542
30
0
41
1
10
81.9059506561051
20
-51.0362695124886
30
0
41
1
10
81.8951555264274
20
-51.0452791305349
30
0
41
1
10
81.8777754775467
20
-51.0641101724417
30
0
41
1
10
81.8712312691629
20
-51.073514931396
30
0
41
1
10
81.866199075114
20
-51.0822309471623
30
0
0
SPLINE
5
180
100
AcDbEntity
8
1
62
256
6
ByLayer
370
18
48
1
60
0
100
AcDbSpline
70
4
71
3
72
8
73
4
40
0
40
0
40
0
40
0
40
1
40
1
40
1
40
1
41
1
10
81.4795187323252
20
-51.751980947162
30
0
41
1
10
81.6081982260478
20
-51.5291015261423
30
0
41
1
10
81.7370957748365
20
-51.3058444226691
30
0
41
1
10
81.8661990751149
20
-51.082230947162
30
0
0
SPLINE
5
181
100
AcDbEntity
8
1
62
256
6
ByLayer
370
18
48
1
60
0
100
AcDbSpline
70
4
71
3
72
14
73
10
40
0
40
0
40
0
40
0
40
0.25
40
0.25
40
0.5
40
0.5
40
0.75
40
0.75
40
1
40
1
40
1
40
1
41
1
10
81.4795187323253
20
-51.7519809471619
30
0
41
1
10
81.4732018557538
20
-51.7629220983289
30
0
41
1
10
81.4640059973427
20
-51.775411966302
30
0
41
1
10
81.4389422782901
20
-51.7982756933225
30
0
41
1
10
81.4248299889388
20
-51.8068225259341
30
0
41
1
10
81.400635501144
20
-51.817653409261
30
0
41
1
10
81.3898377796841
20
-51.8206273613563
30
0
41
1
10
81.3702894918492
20
-51.8243037347573
30
0
41
1
10
81.3614213515018
20
-51.8249809471619
30
0
41
1
10
81.3530790233728
20
-51.8249809471619
30
0
0
SPLINE
5
182
100
AcDbEntity
8
1
62
256
6
ByLayer
370
18
48
1
60
0
100
AcDbSpline
70
4
71
3
72
12
73
8
40
0
40
0
40
0
40
0
40
0.250000000000007
40
0.250000000000007
40
0.500000000000014
40
0.500000000000014
40
1
40
1
40
1
40
1
41
1
10
81.1469209766267
20
-51.8249809471619
30
0
41
1
10
81.1304589726566
20
-51.8249809471619
30
0
41
1
10
81.1162884836463
20
-51.8223659893971
30
0
41
1
10
81.0905591675965
20
-51.8143359117765
30
0
41
1
10
81.0792347106992
20
-51.8089063033036
30
0
41
1
10
81.0485745663435
20
-51.7895616807436
30
0
41
1
10
81.0324391277863
20
-51.772692568426
30
0
41
1
10
81.0204812676741
20
-51.751980947162
30
0
0
SPLINE
5
183
100
AcDbEntity
8
1
62
256
6
ByLayer
370
18
48
1
60
0
100
AcDbSpline
70
4
71
3
72
8
73
4
40
0
40
0
40
0
40
0
40
1
40
1
40
1
40
1
41
1
10
80.6338009248844
20
-51.0822309471619
30
0
41
1
10
80.7658133823982
20
-51.3108832308077
30
0
41
1
10
80.8947474948881
20
-51.5342036644692
30
0
41
1
10
81.0204812676742
20
-51.7519809471619
30
0
0
SPLINE
5
184
100
AcDbEntity
8
1
62
256
6
ByLayer
370
18
48
1
60
0
100
AcDbSpline
70
4
71
3
72
8
73
4
40
0
40
0
40
0
40
0
40
1
40
1
40
1
40
1
41
1
10
80.6338009248847
20
-51.0822309471618
30
0
41
1
10
80.6220877436955
20
-51.0619431222239
30
0
41
1
10
80.6064853936834
20
-51.04503809894
30
0
41
1
10
80.5868035654747
20
-51.0316709670319
30
0
0
SPLINE
5
185
100
AcDbEntity
8
1
62
256
6
ByLayer
370
18
48
1
60
0
100
AcDbSpline
70
4
71
3
72
10
73
6
40
0
40
0
40
0
40
0
40
0.5
40
0.5
40
1
40
1
40
1
40
1
41
1
10
79.9795187323067
20
-51.7519809471942
30
0
41
1
10
79.9757453415929
20
-51.7585166516235
30
0
41
1
10
79.9712046416914
20
-51.7652573151028
30
0
41
1
10
79.9596930108947
20
-51.779134484458
30
0
41
1
10
79.9527511843425
20
-51.7861040494031
30
0
41
1
10
79.9452353838241
20
-51.7922205393034
30
0
0
SPLINE
5
186
100
AcDbEntity
8
1
62
256
6
ByLayer
370
18
48
1
60
0
100
AcDbSpline
70
4
71
3
72
8
73
4
40
0
40
0
40
0
40
0
40
1
40
1
40
1
40
1
41
1
10
79.9795187323057
20
-51.7519809471958
30
0
41
1
10
79.9797637269794
20
-51.7515566039733
30
0
41
1
10
79.9800087221655
20
-51.7511322598635
30
0
41
1
10
79.9802537178637
20
-51.7507079148665
30
0
0
SPLINE
5
187
100
AcDbEntity
8
1
62
256
6
ByLayer
370
18
48
1
60
0
100
AcDbSpline
70
4
71
3
72
8
73
4
40
0
40
0
40
0
40
0
40
1
40
1
40
1
40
1
41
1
10
60.0547646161754
20
-51.7922205393034
30
0
41
1
10
60.0394994057551
20
-51.7797974441009
30
0
41
1
10
60.0279483747938
20
-51.7649143561284
30
0
41
1
10
60.0204812676421
20
-51.7519809471508
30
0
0
SPLINE
5
188
100
AcDbEntity
8
1
62
256
6
ByLayer
370
18
48
1
60
0
100
AcDbSpline
70
4
71
3
72
8
73
4
40
0
40
0
40
0
40
0
40
1
40
1
40
1
40
1
41
1
10
60.0197462821357
20
-51.7507079148664
30
0
41
1
10
60.0199912778274
20
-51.7511322598521
30
0
41
1
10
60.0202362730069
20
-51.7515566039506
30
0
41
1
10
60.0204812676742
20
-51.7519809471619
30
0
0
SPLINE
5
189
100
AcDbEntity
8
SK1
62
256
6
ByLayer
370
18
48
1
60
0
100
AcDbSpline
70
4
71
3
72
14
73
10
40
0
40
0
40
0
40
0
40
0.229379192399015
40
0.229379192399015
40
0.486252794933587
40
0.486252794933587
40
0.743126397468218
40
0.743126397468218
40
1
40
1
40
1
40
1
41
1
10
-1.79497698875895
20
34.9458025494523
30
3.9E-15
41
1
10
-1.67263659707143
20
34.9489385109554
30
3.9E-15
41
1
10
-1.55029620507054
20
34.9520744602335
30
-2E-16
41
1
10
-1.29095115692641
20
34.958722221716
30
-2E-16
41
1
10
-1.15394650070357
20
34.9622340308156
30
-5.8E-15
41
1
10
-0.879937187472791
20
34.9692576183881
30
-5.8E-15
41
1
10
-0.742932530464856
20
34.9727693968609
30
3.1E-15
41
1
10
-0.468923215665967
20
34.9797929231984
30
3.1E-15
41
1
10
-0.331918557875014
20
34.9833046710631
30
-1.74E-14
41
1
10
-0.194913899692011
20
34.9868164036332
30
-1.74E-14
0
SPLINE
5
18A
100
AcDbEntity
8
SK1
62
256
6
ByLayer
370
18
48
1
60
0
100
AcDbSpline
70
4
71
3
72
10
73
6
40
0
40
0
40
0
40
0
40
0.499999986385622
40
0.499999986385622
40
1
40
1
40
1
40
1
41
1
10
-58.0000001
20
-33.7085659832085
30
8.30788E-11
41
1
10
-58.3333796400708
20
-33.5119761480261
30
8.30788E-11
41
1
10
-58.6667366076928
20
-33.3153480288148
30
6.4E-15
41
1
10
-59.3334037909216
20
-32.9220125175118
30
6.4E-15
41
1
10
-59.6667140116194
20
-32.7253051232569
30
5.2E-15
41
1
10
-60.0000000018222
20
-32.5285566886438
30
5.2E-15
0
SPLINE
5
18B
100
AcDbEntity
8
1
62
256
6
ByLayer
370
18
48
1
60
0
100
AcDbSpline
70
4
71
3
72
12
73
8
40
0
40
0
40
0
40
0
40
0.248394932939005
40
0.597943829925757
40
0.756501810326884
40
0.916727759260195
40
1
40
1
40
1
40
1
41
1
10
18.6443375672973
20
-15.5133461831295
30
0
41
1
10
18.6298839930568
20
-15.456014942323
30
0
41
1
10
18.5832143505246
20
-15.3237868008296
30
0
41
1
10
18.4969209088333
20
-15.1620477600978
30
0
41
1
10
18.3820725613891
20
-15.0478585820922
30
0
41
1
10
18.2917877152368
20
-15.0005872747837
30
0
41
1
10
18.2324153217986
20
-14.9935699180668
30
0
41
1
10
18.2113248654051
20
-14.993154515568
30
0
0
SPLINE
5
18C
100
AcDbEntity
8
1
62
256
6
ByLayer
370
18
48
1
60
0
100
AcDbSpline
70
4
71
3
72
12
73
8
40
0
40
0
40
0
40
0
40
0.248394932938855
40
0.597943829925667
40
0.756501810326806
40
0.916727759260138
40
1
40
1
40
1
40
1
41
1
10
13.3556624327025
20
15.5133461831287
30
0
41
1
10
13.370116006943
20
15.4560149423222
30
0
41
1
10
13.4167856494751
20
15.3237868008288
30
0
41
1
10
13.5030790911665
20
15.1620477600971
30
0
41
1
10
13.6179274386106
20
15.0478585820914
30
0
41
1
10
13.708212284763
20
15.000587274783
30
0
41
1
10
13.7675846782012
20
14.993569918066
30
0
41
1
10
13.7886751345947
20
14.9931545155672
30
0
0
SPLINE
5
18D
100
AcDbEntity
8
SK1
62
256
6
ByLayer
370
18
48
1
60
0
100
AcDbSpline
70
4
71
3
72
12
73
8
40
0
40
0
40
0
40
0
40
0.436693566127561
40
0.436693566127561
40
0.718346783053134
40
0.718346783053134
40
1
40
1
40
1
40
1
41
1
10
-58.0000001
20
33.7085659832081
30
8.30763E-11
41
1
10
-49.8483810161605
20
33.9177393748827
30
8.30763E-11
41
1
10
-41.6967604342833
20
34.1268543946468
30
-2E-15
41
1
10
-28.2876060250198
20
34.4707493136182
30
-2E-15
41
1
10
-23.0300730397485
20
34.6055620586663
30
2.3E-15
41
1
10
-12.5150058973192
20
34.8751418503653
30
2.3E-15
41
1
10
-7.25747174006068
20
35.0099088969791
30
-2.03E-14
41
1
10
-1.99993701093302
20
35.1446536281881
30
-2.03E-14
0
SPLINE
5
18E
100
AcDbEntity
8
SK1
62
256
6
ByLayer
370
18
48
1
60
0
100
AcDbSpline
70
4
71
3
72
10
73
6
40
0
40
0
40
0
40
0
40
0.499999985552588
40
0.499999985552588
40
1
40
1
40
1
40
1
41
1
10
-60
20
32.5285566855548
30
9.7619587E-09
41
1
10
-59.6667140286627
20
32.7253051090488
30
9.7619587E-09
41
1
10
-59.3334038286403
20
32.9220124952512
30
-4.6E-15
41
1
10
-58.6667366454117
20
33.3153480065662
30
-4.6E-15
41
1
10
-58.3333796589391
20
33.5119761369336
30
1.678E-12
41
1
10
-58.0000001
20
33.7085659832423
30
1.678E-12
0
SPLINE
5
18F
100
AcDbEntity
8
1
62
256
6
ByLayer
370
18
48
1
60
0
100
AcDbSpline
70
4
71
3
72
12
73
8
40
0
40
0
40
0
40
0
40
0.248394932938855
40
0.597943829925667
40
0.756501810326806
40
0.916727759260138
40
1
40
1
40
1
40
1
41
1
10
13.3556624327025
20
15.5133461831287
30
0
41
1
10
13.370116006943
20
15.4560149423222
30
0
41
1
10
13.4167856494751
20
15.3237868008288
30
0
41
1
10
13.5030790911665
20
15.1620477600971
30
0
41
1
10
13.6179274386106
20
15.0478585820914
30
0
41
1
10
13.708212284763
20
15.000587274783
30
0
41
1
10
13.7675846782012
20
14.993569918066
30
0
41
1
10
13.7886751345947
20
14.9931545155672
30
0
0
SPLINE
5
190
100
AcDbEntity
8
1
62
256
6
ByLayer
370
18
48
1
60
0
100
AcDbSpline
70
4
71
3
72
12
73
8
40
0
40
0
40
0
40
0
40
0.248394932938942
40
0.597943829925697
40
0.756501810326831
40
0.916727759260161
40
1
40
1
40
1
40
1
41
1
10
13.3556624327025
20
-47.5324740593462
30
0
41
1
10
13.370116006943
20
-47.5511683591634
30
0
41
1
10
13.4167856494751
20
-47.5940893052641
30
0
41
1
10
13.5030790911665
20
-47.6457742934074
30
0
41
1
10
13.6179274386106
20
-47.6819026842736
30
0
41
1
10
13.708212284763
20
-47.6967749310648
30
0
41
1
10
13.7675846782012
20
-47.6989838057232
30
0
41
1
10
13.7886751345947
20
-47.6991123363144
30
0
0
SPLINE
5
191
100
AcDbEntity
8
SK1
62
256
6
ByLayer
370
18
48
1
60
0
100
AcDbSpline
70
4
71
3
72
14
73
10
40
0
40
0
40
0
40
0
40
0.256873602532104
40
0.256873602532104
40
0.513747205067064
40
0.513747205067064
40
0.770620807602081
40
0.770620807602081
40
1
40
1
40
1
40
1
41
1
10
-0.194913899692011
20
-34.9868164038123
30
-4.414671E-10
41
1
10
-0.331918557876492
20
-34.9833046712421
30
-4.414671E-10
41
1
10
-0.468923215664375
20
-34.9797929231988
30
3E-16
41
1
10
-0.742932530464714
20
-34.9727693968613
30
3E-16
41
1
10
-0.879937187472621
20
-34.9692576183885
30
-9.3E-15
41
1
10
-1.15394650070337
20
-34.962234030816
30
-9.3E-15
41
1
10
-1.29095115692627
20
-34.9587222217164
30
9.1E-15
41
1
10
-1.55029620507048
20
-34.9520744602339
30
9.1E-15
41
1
10
-1.67263659707137
20
-34.9489385109558
30
-3.43E-14
41
1
10
-1.79497698875895
20
-34.9458025494527
30
-3.43E-14
0
SPLINE
5
192
100
AcDbEntity
8
SK1
62
256
6
ByLayer
370
18
48
1
60
0
100
AcDbSpline
70
4
71
3
72
16
73
12
40
0
40
0
40
0
40
0
40
0.220301175175071
40
0.220301175175071
40
0.44073598176843
40
0.44073598176843
40
0.658998147016101
40
0.658998147016101
40
0.872977870338591
40
0.872977870338591
40
1
40
1
40
1
40
1
41
1
10
-1.99993701093302
20
35.1446536283538
30
-4.108361E-10
41
1
10
-1.99936659785854
20
35.1214925125866
30
-4.108361E-10
41
1
10
-1.99481549053888
20
35.0981091127217
30
1.1143E-12
41
1
10
-1.97844393451064
20
35.0547530240983
30
1.1143E-12
41
1
10
-1.96638634691357
20
35.034177654722
30
-1E-16
41
1
10
-1.93660198557356
20
34.9989630875991
30
-1E-16
41
1
10
-1.91850749130356
20
34.9837754029888
30
1E-15
41
1
10
-1.87916961879966
20
34.9610190486089
30
1E-15
41
1
10
-1.85744197541555
20
34.9529936939537
30
2.4E-15
41
1
10
-1.82204459810873
20
34.9465159843161
30
2.4E-15
41
1
10
-1.80845728198122
20
34.9454570079698
30
-4.5E-15
41
1
10
-1.79497698879234
20
34.9458025494514
30
-4.5E-15
0
SPLINE
5
193
100
AcDbEntity
8
1
62
256
6
ByLayer
370
18
48
1
60
0
100
AcDbSpline
70
4
71
3
72
13
73
9
40
0
40
0
40
0
40
0
40
0.0240447084909111
40
0.13109432223371
40
0.2779714617461
40
0.517913729912989
40
0.989127494362577
40
1
40
1
40
1
40
1
41
1
10
18.2113248654051
20
14.9931545155672
30
0
41
1
10
18.2172850605253
20
14.9931643124948
30
0
41
1
10
18.2495539054399
20
14.9943055313943
30
0
41
1
10
18.3174270086885
20
15.0108718060459
30
0
41
1
10
18.4202613626751
20
15.076963230976
30
0
41
1
10
18.5508668849867
20
15.2396279566263
30
0
41
1
10
18.6132596843707
20
15.4015557550577
30
0
41
1
10
18.6436602449256
20
15.5108774867067
30
0
41
1
10
18.6443375672973
20
15.5133461831297
30
0
0
SPLINE
5
194
100
AcDbEntity
8
SK1
62
256
6
ByLayer
370
18
48
1
60
0
100
AcDbSpline
70
4
71
3
72
16
73
12
40
0
40
0
40
0
40
0
40
0.20975322493521
40
0.20975322493521
40
0.419381946813498
40
0.419381946813498
40
0.630956053839332
40
0.630956053839332
40
0.846612475590046
40
0.846612475590046
40
1
40
1
40
1
40
1
41
1
10
-0.194913899692011
20
34.9868164052724
30
-4.0508598E-09
41
1
10
-0.172849045600032
20
34.9873819763106
30
-4.0508598E-09
41
1
10
-0.150578685052608
20
34.9917918144136
30
6E-15
41
1
10
-0.109335252236775
20
35.0075093387081
30
6E-15
41
1
10
-0.0897967065872933
20
35.0190233296231
30
-6E-15
41
1
10
-0.0558327298087704
20
35.0475219042624
30
-6E-15
41
1
10
-0.040993723905018
20
35.064936948035
30
1.832E-13
41
1
10
-0.0178021934711126
20
35.1034637545703
30
1.832E-13
41
1
10
-0.0092603803493887
20
35.1251617241438
30
2E-16
41
1
10
-0.0011258444650366
20
35.1632531427368
30
2E-16
41
1
10
0.0004000888077371
20
35.1796600681375
30
2.4E-15
41
1
10
-1.00042854E-07
20
35.195908698712
30
2.4E-15
0
SPLINE
5
195
100
AcDbEntity
8
1
62
256
6
ByLayer
370
18
48
1
60
0
100
AcDbSpline
70
4
71
3
72
13
73
9
40
0
40
0
40
0
40
0
40
0.0240447084909111
40
0.13109432223371
40
0.2779714617461
40
0.517913729912989
40
0.989127494362577
40
1
40
1
40
1
40
1
41
1
10
18.2113248654051
20
14.9931545155672
30
0
41
1
10
18.2172850605253
20
14.9931643124948
30
0
41
1
10
18.2495539054399
20
14.9943055313943
30
0
41
1
10
18.3174270086885
20
15.0108718060459
30
0
41
1
10
18.4202613626751
20
15.076963230976
30
0
41
1
10
18.5508668849867
20
15.2396279566263
30
0
41
1
10
18.6132596843707
20
15.4015557550577
30
0
41
1
10
18.6436602449256
20
15.5108774867067
30
0
41
1
10
18.6443375672973
20
15.5133461831297
30
0
0
SPLINE
5
196
100
AcDbEntity
8
1
62
256
6
ByLayer
370
18
48
1
60
0
100
AcDbSpline
70
4
71
3
72
12
73
8
40
0
40
0
40
0
40
0
40
0.248394932939058
40
0.597943829925774
40
0.756501810326916
40
0.916727759260247
40
1
40
1
40
1
40
1
41
1
10
18.6443375672973
20
47.5324740593457
30
0
41
1
10
18.6298839930568
20
47.5511683591628
30
0
41
1
10
18.5832143505246
20
47.5940893052636
30
0
41
1
10
18.4969209088333
20
47.6457742934068
30
0
41
1
10
18.3820725613891
20
47.681902684273
30
0
41
1
10
18.2917877152368
20
47.6967749310642
30
0
41
1
10
18.2324153217986
20
47.6989838057227
30
0
41
1
10
18.2113248654051
20
47.6991123363139
30
0
0
SPLINE
5
197
100
AcDbEntity
8
1
62
256
6
ByLayer
370
18
48
1
60
0
100
AcDbSpline
70
4
71
3
72
13
73
9
40
0
40
0
40
0
40
0
40
0.0240447084910314
40
0.131094322234008
40
0.277971461746674
40
0.517913729914058
40
0.989127494364635
40
1
40
1
40
1
40
1
41
1
10
13.7886751345947
20
-14.993154515568
30
0
41
1
10
13.7827149394745
20
-14.9931643124956
30
0
41
1
10
13.7504460945599
20
-14.994305531395
30
0
41
1
10
13.6825729913112
20
-15.0108718060467
30
0
41
1
10
13.5797386373247
20
-15.0769632309768
30
0
41
1
10
13.449133115012
20
-15.2396279566276
30
0
41
1
10
13.3867403156336
20
-15.4015557550565
30
0
41
1
10
13.3563397550741
20
-15.5108774867069
30
0
41
1
10
13.3556624327025
20
-15.5133461831295
30
0
0
SPLINE
5
198
100
AcDbEntity
8
1
62
256
6
ByLayer
370
18
48
1
60
0
100
AcDbSpline
70
4
71
3
72
13
73
9
40
0
40
0
40
0
40
0
40
0.0240447084908536
40
0.131094322233654
40
0.277971461746019
40
0.517913729912845
40
0.989127494362274
40
1
40
1
40
1
40
1
41
1
10
18.2113248654051
20
-47.6991123363144
30
0
41
1
10
18.2172850605253
20
-47.6991093101436
30
0
41
1
10
18.2495539054399
20
-47.6987503734313
30
0
41
1
10
18.3174270086885
20
-47.6935440853339
30
0
41
1
10
18.4202613626751
20
-47.6727202570785
30
0
41
1
10
18.5508668849866
20
-47.6211266899107
30
0
41
1
10
18.6132596843705
20
-47.5689507236586
30
0
41
1
10
18.6436602449256
20
-47.5332797590518
30
0
41
1
10
18.6443375672973
20
-47.5324740593452
30
0
0
SPLINE
5
199
100
AcDbEntity
8
SK1
62
256
6
ByLayer
370
18
48
1
60
0
100
AcDbSpline
70
4
71
3
72
12
73
8
40
0
40
0
40
0
40
0
40
0.436693566125707
40
0.436693566125707
40
0.718346783051446
40
0.718346783051446
40
1
40
1
40
1
40
1
41
1
10
-1.99993701093302
20
-35.1446536283542
30
-4.108289E-10
41
1
10
-10.151562668717
20
-34.9357365855269
30
-4.108289E-10
41
1
10
-18.3031869519394
20
-34.7267659019825
30
3.6E-15
41
1
10
-31.7123427298555
20
-34.3829243545208
30
3.6E-15
41
1
10
-36.9698750580627
20
-34.2480859870479
30
1.06E-14
41
1
10
-47.4849384985019
20
-33.9783618353482
30
1.06E-14
41
1
10
-52.7424696108422
20
-33.8434760511619
30
1.04E-14
41
1
10
-58.0000001
20
-33.708565983243
30
1.04E-14
0
SPLINE
5
19A
100
AcDbEntity
8
SK1
62
256
6
ByLayer
370
18
48
1
60
0
100
AcDbSpline
70
4
71
3
72
16
73
12
40
0
40
0
40
0
40
0
40
0.20957066768366
40
0.20957066768366
40
0.419033902995078
40
0.419033902995078
40
0.630202517781564
40
0.630202517781564
40
0.845341964658444
40
0.845341964658444
40
1
40
1
40
1
40
1
41
1
10
-1.79497698875895
20
-34.9458025496343
30
-4.485514E-10
41
1
10
-1.81700925039257
20
-34.9452377948272
30
-4.485514E-10
41
1
10
-1.83944329845852
20
-34.9484907014151
30
9E-16
41
1
10
-1.88137892518017
20
-34.9620483738583
30
9E-16
41
1
10
-1.90145474690524
20
-34.9725309167572
30
-9.7E-15
41
1
10
-1.93675808394857
20
-34.999206981938
30
-9.7E-15
41
1
10
-1.95242517611231
20
-35.015802173148
30
1.857E-13
41
1
10
-1.97747700686031
20
-35.0529966232387
30
1.857E-13
41
1
10
-1.98708289101117
20
-35.074167424077
30
3.6E-15
41
1
10
-1.99716949562432
20
-35.1118458956807
30
3.6E-15
41
1
10
-1.99953382069663
20
-35.1282824470928
30
6.4E-15
41
1
10
-1.99993701093709
20
-35.1446536283531
30
6.4E-15
0
SPLINE
5
19B
100
AcDbEntity
8
1
62
256
6
ByLayer
370
18
48
1
60
0
100
AcDbSpline
70
4
71
3
72
12
73
8
40
0
40
0
40
0
40
0
40
0.248394932939058
40
0.597943829925774
40
0.756501810326916
40
0.916727759260247
40
1
40
1
40
1
40
1
41
1
10
13.3556624327025
20
47.5324740593457
30
0
41
1
10
13.370116006943
20
47.5511683591628
30
0
41
1
10
13.4167856494752
20
47.5940893052636
30
0
41
1
10
13.5030790911665
20
47.6457742934068
30
0
41
1
10
13.6179274386107
20
47.681902684273
30
0
41
1
10
13.7082122847631
20
47.6967749310642
30
0
41
1
10
13.7675846782012
20
47.6989838057227
30
0
41
1
10
13.7886751345947
20
47.6991123363139
30
0
0
SPLINE
5
19C
100
AcDbEntity
8
SK1
62
256
6
ByLayer
370
18
48
1
60
0
100
AcDbSpline
70
4
71
3
72
16
73
12
40
0
40
0
40
0
40
0
40
0.20975322493521
40
0.20975322493521
40
0.419381946813498
40
0.419381946813498
40
0.630956053839332
40
0.630956053839332
40
0.846612475590046
40
0.846612475590046
40
1
40
1
40
1
40
1
41
1
10
-0.194913899692011
20
-34.9868164052728
30
-4.0508598E-09
41
1
10
-0.172849045600032
20
-34.987381976311
30
-4.0508598E-09
41
1
10
-0.150578685052608
20
-34.991791814414
30
6E-15
41
1
10
-0.109335252236775
20
-35.0075093387085
30
6E-15
41
1
10
-0.0897967065872933
20
-35.0190233296235
30
-6E-15
41
1
10
-0.0558327298087704
20
-35.0475219042628
30
-6E-15
41
1
10
-0.040993723905018
20
-35.0649369480354
30
1.832E-13
41
1
10
-0.0178021934711126
20
-35.1034637545707
30
1.832E-13
41
1
10
-0.0092603803493887
20
-35.1251617241442
30
2E-16
41
1
10
-0.0011258444650366
20
-35.1632531427371
30
2E-16
41
1
10
0.0004000888077371
20
-35.1796600681379
30
2.4E-15
41
1
10
-1.00042854E-07
20
-35.1959086987124
30
2.4E-15
0
SPLINE
5
19D
100
AcDbEntity
8
1
62
256
6
ByLayer
370
18
48
1
60
0
100
AcDbSpline
70
4
71
3
72
26
73
22
40
0
40
0
40
0
40
0
40
0.0078124999999997
40
0.0078124999999997
40
0.0156249999999993
40
0.0312499999999991
40
0.0624999999999991
40
0.0624999999999991
40
0.124999999999999
40
0.124999999999999
40
0.25
40
0.25
40
0.375
40
0.375
40
0.4375
40
0.4375
40
0.500000000000001
40
0.500000000000001
40
0.75
40
0.75
40
1
40
1
40
1
40
1
41
1
10
54.5967477524975
20
-2.083E-13
30
0
41
1
10
54.6346456112688
20
0.0537294915569871
30
0
41
1
10
54.6731287905023
20
0.108288810325672
30
0
41
1
10
54.7498017142899
20
0.216991872038611
30
0
41
1
10
54.8647989878567
20
0.380029941219128
30
0
41
1
10
55.1330390750799
20
0.760338010078322
30
0
41
1
10
55.3628030058677
20
1.08612613217802
30
0
41
1
10
55.8221033991368
20
1.73746286309293
30
0
41
1
10
56.1280004287029
20
2.17136804770949
30
0
41
1
10
57.0446259808904
20
3.47223652031534
30
0
41
1
10
57.6542906922017
20
4.33835296237727
30
0
41
1
10
58.8699202847795
20
6.06890558049408
30
0
41
1
10
59.475886339187
20
6.93334102786717
30
0
41
1
10
60.381363920577
20
8.22916737811748
30
0
41
1
10
60.6826105495458
20
8.66097176731584
30
0
41
1
10
61.2838194332613
20
9.52437940968248
30
0
41
1
10
61.5835955357489
20
9.95571703542239
30
0
41
1
10
63.0739720230269
20
12.1049145234611
30
0
41
1
10
64.2428807079119
20
13.8056562984282
30
0
41
1
10
66.5247927635849
20
17.1739356012696
30
0
41
1
10
67.637871416623
20
18.8414544852357
30
0
41
1
10
68.7164055778736
20
20.4939694560094
30
0
0
SPLINE
5
19E
100
AcDbEntity
8
1
62
256
6
ByLayer
370
18
48
1
60
0
100
AcDbSpline
70
4
71
3
72
8
73
4
40
0
40
0
40
0
40
0
40
1
40
1
40
1
40
1
41
1
10
37.4068532112536
20
-12.6344064732942
30
0
41
1
10
37.3070459885172
20
-11.1068340663021
30
0
41
1
10
37.2240757973874
20
-9.57603434195539
30
0
41
1
10
37.1591116436059
20
-8.0417832255713
30
0
0
SPLINE
5
19F
100
AcDbEntity
8
1
62
256
6
ByLayer
370
18
48
1
60
0
100
AcDbSpline
70
4
71
3
72
18
73
14
40
0
40
0
40
0
40
0
40
0.25
40
0.25
40
0.5
40
0.5
40
0.75
40
0.75
40
0.875
40
0.875
40
0.9375
40
0.9375
40
1
40
1
40
1
40
1
41
1
10
37.1591116436059
20
-8.04178322557128
30
0
41
1
10
37.1307170874243
20
-7.37119218443366
30
0
41
1
10
37.0903155088841
20
-6.70109182987798
30
0
41
1
10
37.0003176423716
20
-5.36157920467861
30
0
41
1
10
36.950573309328
20
-4.69208795075184
30
0
41
1
10
36.8572596131309
20
-3.35276053427148
30
0
41
1
10
36.8137574494016
20
-2.6829206182322
30
0
41
1
10
36.7669705964598
20
-1.67712928681481
30
0
41
1
10
36.754475887837
20
-1.34169230554796
30
0
41
1
10
36.7417779696124
20
-0.838199232381764
30
0
41
1
10
36.7385471836181
20
-0.670312248548476
30
0
41
1
10
36.7342267023312
20
-0.334418688290035
30
0
41
1
10
36.7331445669929
20
-0.167370224801148
30
0
41
1
10
36.7331445669929
20
-2.586E-13
30
0
0
SPLINE
5
1A0
100
AcDbEntity
8
1
62
256
6
ByLayer
370
18
48
1
60
0
100
AcDbSpline
70
4
71
3
72
64
73
60
40
0
40
0
40
0
40
0
40
0.0156249999999996
40
0.0156249999999996
40
0.0195312499999996
40
0.0195312499999996
40
0.0234374999999996
40
0.0234374999999996
40
0.0312499999999996
40
0.0312499999999996
40
0.0390624999999994
40
0.0390624999999994
40
0.0468749999999994
40
0.0468749999999994
40
0.0624999999999993
40
0.0624999999999993
40
0.0781249999999993
40
0.0781249999999993
40
0.0937499999999992
40
0.0937499999999992
40
0.124999999999999
40
0.124999999999999
40
0.156249999999999
40
0.156249999999999
40
0.187499999999999
40
0.187499999999999
40
0.25
40
0.25
40
0.3125
40
0.3125
40
0.375
40
0.375
40
0.437500000000001
40
0.437500000000001
40
0.500000000000001
40
0.500000000000001
40
0.515625000000001
40
0.515625000000001
40
0.531250000000001
40
0.531250000000001
40
0.562500000000001
40
0.562500000000001
40
0.625000000000001
40
0.625000000000001
40
0.687500000000001
40
0.687500000000001
40
0.750000000000001
40
0.750000000000001
40
0.765625
40
0.765625
40
0.78125
40
0.78125
40
0.8125
40
0.8125
40
0.875
40
0.875
40
0.9375
40
0.9375
40
1
40
1
40
1
40
1
41
1
10
43.2499999999998
20
49.9999999999998
30
0
41
1
10
43.547198937893
20
49.9999999999998
30
0
41
1
10
43.8343569886026
20
49.9947342332904
30
0
41
1
10
44.1837294121953
20
49.9826547361359
30
0
41
1
10
44.2532272448915
20
49.9799555855041
30
0
41
1
10
44.3894245562106
20
49.9741137508292
30
0
41
1
10
44.4563828118182
20
49.9709632189833
30
0
41
1
10
44.6542980181004
20
49.9608774157933
30
0
41
1
10
44.7823148880251
20
49.9533106729481
30
0
41
1
10
45.0323824485967
20
49.9366961577444
30
0
41
1
10
45.1544258671695
20
49.9276471164563
30
0
41
1
10
45.3938757296767
20
49.9081959503658
30
0
41
1
10
45.5115164418145
20
49.8977676529179
30
0
41
1
10
45.855806632615
20
49.8648936184046
30
0
41
1
10
46.0749589580391
20
49.8408045302228
30
0
41
1
10
46.5005606149726
20
49.7887034455562
30
0
41
1
10
46.7069089679733
20
49.7606844317453
30
0
41
1
10
47.1109862838834
20
49.7009007539602
30
0
41
1
10
47.3086751991788
20
49.6691335847342
30
0
41
1
10
47.8924621610616
20
49.5683440601664
30
0
41
1
10
48.26948455873
20
49.4938435863279
30
0
41
1
10
49.0095523977568
20
49.3304573537843
30
0
41
1
10
49.372721554411
20
49.241464710722
30
0
41
1
10
50.0859483480968
20
49.0500756908618
30
0
41
1
10
50.4364246126402
20
48.9475852453785
30
0
41
1
10
51.4739101368516
20
48.6197682726217
30
0
41
1
10
52.1472213036374
20
48.3741240397731
30
0
41
1
10
53.4673041743543
20
47.8279853898964
30
0
41
1
10
54.1138415265507
20
47.5274883424853
30
0
41
1
10
55.3830633105239
20
46.8700607780966
30
0
41
1
10
56.0056802570993
20
46.5131342614954
30
0
41
1
10
57.2271773308349
20
45.7403191498316
30
0
41
1
10
57.8260370911216
20
45.3244389788492
30
0
41
1
10
58.998547496973
20
44.4300522084297
30
0
41
1
10
59.5721965885854
20
43.9515597675136
30
0
41
1
10
60.2717439479514
20
43.3110954181883
30
0
41
1
10
60.4107743163057
20
43.1808808532865
30
0
41
1
10
60.6870188510515
20
42.9161094360537
30
0
41
1
10
60.8241946252545
20
42.7815827798853
30
0
41
1
10
61.2315077762237
20
42.3727772572667
30
0
41
1
10
61.4979002951287
20
42.0928328923929
30
0
41
1
10
62.2810252065081
20
41.2303199433097
30
0
41
1
10
62.7817542567348
20
40.6251143140025
30
0
41
1
10
63.7361960042807
20
39.3509370755124
30
0
41
1
10
64.1899263240654
20
38.6819803906354
30
0
41
1
10
65.0443001819693
20
37.2754055511512
30
0
41
1
10
65.4449759775744
20
36.5378128872069
30
0
41
1
10
65.907283984914
20
35.5685198931086
30
0
41
1
10
65.997811076233
20
35.3722897703473
30
0
41
1
10
66.1748275351845
20
34.9749479358083
30
0
41
1
10
66.2614003837596
20
34.7736210173188
30
0
41
1
10
66.5135864081613
20
34.1650645975642
30
0
41
1
10
66.6720103642508
20
33.7525604593941
30
0
41
1
10
67.116842693633
20
32.4943549576399
30
0
41
1
10
67.3729213636076
20
31.6280016897441
30
0
41
1
10
67.7946961333199
20
29.8377301740625
30
0
41
1
10
67.9604486999508
20
28.9138267039262
30
0
41
1
10
68.1880476088056
20
27.0045188655177
30
0
41
1
10
68.2499999999998
20
26.0191422150912
30
0
41
1
10
68.2499999999998
20
24.9999999999998
30
0
0
SPLINE
5
1A1
100
AcDbEntity
8
1
62
256
6
ByLayer
370
18
48
1
60
0
100
AcDbSpline
70
4
71
3
72
10
73
6
40
0
40
0
40
0
40
0
40
0.5
40
0.5
40
1
40
1
40
1
40
1
41
1
10
68.2499999999998
20
24.9999999999998
30
0
41
1
10
68.2499999999998
20
24.2581102471659
30
0
41
1
10
68.2874455839614
20
23.5112173694827
30
0
41
1
10
68.4412255000773
20
22.0087419018228
30
0
41
1
10
68.5575414937683
20
21.2531553341275
30
0
41
1
10
68.7164055778736
20
20.4939694560094
30
0
0
SPLINE
5
1A2
100
AcDbEntity
8
1
62
256
6
ByLayer
370
18
48
1
60
0
100
AcDbSpline
70
4
71
3
72
22
73
18
40
0
40
0
40
0
40
0
40
0.125
40
0.125
40
0.1875
40
0.1875
40
0.25
40
0.25
40
0.500000000000001
40
0.500000000000001
40
0.750000000000002
40
0.750000000000002
40
0.812500000000002
40
0.812500000000002
40
0.875000000000002
40
0.875000000000002
40
1
40
1
40
1
40
1
41
1
10
68.7164055778736
20
20.4939694560094
30
0
41
1
10
68.7926036177958
20
20.1298312924024
30
0
41
1
10
68.8780353816033
20
19.7676134283333
30
0
41
1
10
69.0200675986074
20
19.2272488834482
30
0
41
1
10
69.0698231984007
20
19.0472999708848
30
0
41
1
10
69.1733919563624
20
18.6903945956577
30
0
41
1
10
69.2272016669691
20
18.5134081905616
30
0
41
1
10
69.5060754131803
20
17.6357375390901
30
0
41
1
10
69.7605712983946
20
16.9567685282564
30
0
41
1
10
70.3254949279809
20
15.6445545984541
30
0
41
1
10
70.6359566284806
20
15.0113213699867
30
0
41
1
10
71.0550744493949
20
14.2489485169434
30
0
41
1
10
71.14044994845
20
14.0979357087082
30
0
41
1
10
71.3142033712526
20
13.7988609945742
30
0
41
1
10
71.4026293748829
20
13.6507306105382
30
0
41
1
10
71.6709247481382
20
13.2129247306202
30
0
41
1
10
71.854210442992
20
12.9291259871311
30
0
41
1
10
72.0412497046235
20
12.6532833238695
30
0
0
SPLINE
5
1A3
100
AcDbEntity
8
1
62
256
6
ByLayer
370
18
48
1
60
0
100
AcDbSpline
70
4
71
3
72
10
73
6
40
0
40
0
40
0
40
0
40
0.5
40
0.5
40
1
40
1
40
1
40
1
41
1
10
72.0412497046235
20
-45.2067934798139
30
0
41
1
10
73.0985308180775
20
-46.1900399318886
30
0
41
1
10
74.1248748638069
20
-47.1494851983036
30
0
41
1
10
76.1136745242143
20
-49.0157153456276
30
0
41
1
10
77.0761381384353
20
-49.9225199820803
30
0
41
1
10
78.0047133102571
20
-50.8000000000002
30
0
0
SPLINE
5
1A4
100
AcDbEntity
8
1
62
256
6
ByLayer
370
18
48
1
60
0
100
AcDbSpline
70
4
71
3
72
23
73
19
40
0
40
0
40
0
40
0
40
0.125
40
0.125
40
0.187500000000001
40
0.218750000000001
40
0.218750000000001
40
0.250000000000001
40
0.250000000000001
40
0.375000000000001
40
0.375000000000001
40
0.5
40
0.5
40
0.625
40
0.625
40
0.75
40
0.75
40
1
40
1
40
1
40
1
41
1
10
37.4068532112536
20
-12.6344064732943
30
0
41
1
10
37.7295467429927
20
-13.7448489777058
30
0
41
1
10
38.0896372021802
20
-14.846331888797
30
0
41
1
10
38.6806096999687
20
-16.4863767218333
30
0
41
1
10
38.9888084603322
20
-17.3033534621258
30
0
41
1
10
39.3151264443759
20
-18.1159891806677
30
0
41
1
10
39.5365957505978
20
-18.6568062144604
30
0
41
1
10
39.649331399535
20
-18.9268290349641
30
0
41
1
10
40.2208376911381
20
-20.2706678458598
30
0
41
1
10
40.7042967943335
20
-21.328845429026
30
0
41
1
10
41.7161388769587
20
-23.4162938407839
30
0
41
1
10
42.2445315509241
20
-24.4455584313216
30
0
41
1
10
43.3399946948322
20
-26.4791999657932
30
0
41
1
10
43.9070728053885
20
-27.4835719932915
30
0
41
1
10
45.0747163450554
20
-29.4707682705816
30
0
41
1
10
45.6752878028769
20
-30.4535886411342
30
0
41
1
10
47.5207257528973
20
-33.3739153440417
30
0
41
1
10
48.8090480387436
20
-35.2834595754584
30
0
41
1
10
50.1419305959527
20
-37.164331017792
30
0
0
SPLINE
5
1A5
100
AcDbEntity
8
1
62
256
6
ByLayer
370
18
48
1
60
0
100
AcDbSpline
70
4
71
3
72
33
73
29
40
0
40
0
40
0
40
0
40
0.0039062499999999
40
0.0039062499999999
40
0.0078124999999999
40
0.0156249999999999
40
0.03125
40
0.0625
40
0.0625
40
0.125
40
0.125
40
0.25
40
0.25
40
0.375
40
0.375
40
0.500000000000001
40
0.500000000000001
40
0.531250000000001
40
0.531250000000001
40
0.562500000000001
40
0.562500000000001
40
0.625000000000001
40
0.625000000000001
40
0.75
40
0.75
40
0.875
40
0.875
40
1
40
1
40
1
40
1
41
1
10
90.2499999999998
20
-14.799497484265
30
0
41
1
10
90.2499999999998
20
-14.7687703338033
30
0
41
1
10
90.2499428495546
20
-14.7376845758037
30
0
41
1
10
90.2497123040786
20
-14.6756103180779
30
0
41
1
10
90.2491931376558
20
-14.5825124874361
30
0
41
1
10
90.2467693116694
20
-14.3653804386728
30
0
41
1
10
90.2370795078199
20
-13.9315118876709
30
0
41
1
10
90.220497806892
20
-13.5603391449311
30
0
41
1
10
90.1763495498577
20
-12.8190443608388
30
0
41
1
10
90.1322765500579
20
-12.3262482123562
30
0
41
1
10
89.9563278483882
20
-10.8528587439926
30
0
41
1
10
89.7808134252664
20
-9.87724579517342
30
0
41
1
10
89.312209733189
20
-7.94388432773287
30
0
41
1
10
89.01913238984
20
-6.98611992814132
30
0
41
1
10
88.3112141364594
20
-5.09378133589939
30
0
41
1
10
87.8964020511534
20
-4.15918369891119
30
0
41
1
10
87.2968961559721
20
-3.00960318470255
30
0
41
1
10
87.1729351217633
20
-2.78062480290059
30
0
41
1
10
86.9167260647499
20
-2.32466816603463
30
0
41
1
10
86.7845329123482
20
-2.09780551650086
30
0
41
1
10
86.3768102468656
20
-1.4228672964772
30
0
41
1
10
86.0897074110681
20
-0.979646781782432
30
0
41
1
10
85.1817806348504
20
0.32831909300627
30
0
41
1
10
84.5144740787553
20
1.17147701259885
30
0
41
1
10
83.0488418559077
20
2.79007944353235
30
0
41
1
10
82.2505724909887
20
3.56559193847433
30
0
41
1
10
80.5111176570147
20
5.03467157786935
30
0
41
1
10
79.5700462357619
20
5.72837084947355
30
0
41
1
10
78.5478723404253
20
6.37044798608862
30
0
0
SPLINE
5
1A6
100
AcDbEntity
8
1
62
256
6
ByLayer
370
18
48
1
60
0
100
AcDbSpline
70
4
71
3
72
16
73
12
40
0
40
0
40
0
40
0
40
0.249999999999999
40
0.249999999999999
40
0.499999999999998
40
0.499999999999998
40
0.624999999999998
40
0.624999999999998
40
0.749999999999998
40
0.749999999999998
40
1
40
1
40
1
40
1
41
1
10
78.5478723404253
20
6.37044798608861
30
0
41
1
10
77.9968622657996
20
6.7165642120809
30
0
41
1
10
77.440590683868
20
7.09995396407431
30
0
41
1
10
76.325670828324
20
7.95283976037995
30
0
41
1
10
75.7669954721731
20
8.42227832274685
30
0
41
1
10
74.9344162957157
20
9.20197908478874
30
0
41
1
10
74.6577832780637
20
9.4745266639801
30
0
41
1
10
74.1078989913864
20
10.0470698644376
30
0
41
1
10
73.83709544722
20
10.344528983016
30
0
41
1
10
73.0393907698112
20
11.2719267091484
30
0
41
1
10
72.5271054917878
20
11.9367505856443
30
0
41
1
10
72.0412497046235
20
12.6532833238695
30
0
0
SPLINE
5
1A7
100
AcDbEntity
8
1
62
256
6
ByLayer
370
18
48
1
60
0
100
AcDbSpline
70
4
71
3
72
30
73
26
40
0
40
0
40
0
40
0
40
0.125000000000002
40
0.125000000000002
40
0.187500000000003
40
0.187500000000003
40
0.218750000000004
40
0.218750000000004
40
0.250000000000004
40
0.250000000000004
40
0.375000000000006
40
0.375000000000006
40
0.500000000000007
40
0.500000000000007
40
0.531250000000007
40
0.531250000000007
40
0.562500000000008
40
0.562500000000008
40
0.625000000000007
40
0.625000000000007
40
0.750000000000005
40
0.750000000000005
40
0.875000000000002
40
0.875000000000002
40
1
40
1
40
1
40
1
41
1
10
54.5967477524975
20
-37.164331017792
30
0
41
1
10
55.4919919639745
20
-37.164331017792
30
0
41
1
10
56.3735555628863
20
-37.2293467970005
30
0
41
1
10
57.6770982262643
20
-37.4154631863094
30
0
41
1
10
58.1084752701908
20
-37.4922679561505
30
0
41
1
10
58.7510195920422
20
-37.6285271228735
30
0
41
1
10
58.9644472822112
20
-37.6774557314881
30
0
41
1
10
59.3898233405915
20
-37.7821512792779
30
0
41
1
10
59.6022004058362
20
-37.8380418916183
30
0
41
1
10
60.6544815970243
20
-38.1324412837112
30
0
41
1
10
61.4641624031346
20
-38.4147548522249
30
0
41
1
10
63.0306951931842
20
-39.0524431470448
30
0
41
1
10
63.7874962110014
20
-39.4078902852044
30
0
41
1
10
64.7051672460219
20
-39.8886412994936
30
0
41
1
10
64.887277407364
20
-39.9866246311131
30
0
41
1
10
65.2487402322865
20
-40.1860658899362
30
0
41
1
10
65.4279486001503
20
-40.2874511388627
30
0
41
1
10
65.9588308361125
20
-40.5949074396391
30
0
41
1
10
66.304698259157
20
-40.8047757443522
30
0
41
1
10
67.3203021938088
20
-41.4468325263432
30
0
41
1
10
67.9681563562691
20
-41.8913785144597
30
0
41
1
10
69.2134424885828
20
-42.8044557761774
30
0
41
1
10
69.810832611893
20
-43.2730259742399
30
0
41
1
10
70.9598265162367
20
-44.2278144383603
30
0
41
1
10
71.5114099458268
20
-44.7140550241887
30
0
41
1
10
72.0412497046235
20
-45.2067934798139
30
0
0
LINE
5
70
100
AcDbEntity
8
1
62
256
6
ByLayer
370
18
48
1
60
0
100
AcDbLine
10
80.396927
20
-50.8
30
0
11
78.51325
21
-50.8
31
0
39
0
210
0
220
0
230
1
0
LINE
5
72
100
AcDbEntity
8
1
62
256
6
ByLayer
370
18
48
1
60
0
100
AcDbLine
10
78.51325
20
-50.8
30
0
11
60.347599
21
-50.8
31
0
39
0
210
0
220
0
230
1
0
LINE
5
73
100
AcDbEntity
8
1
62
256
6
ByLayer
370
18
48
1
60
0
100
AcDbLine
10
79.980254
20
-51.750708
30
0
11
79.945235
21
-51.792221
31
0
39
0
210
0
220
0
230
1
0
LINE
5
74
100
AcDbEntity
8
1
62
256
6
ByLayer
370
18
48
1
60
0
100
AcDbLine
10
79.853079
20
-51.824981
30
0
11
79.646921
21
-51.824981
31
0
39
0
210
0
220
0
230
1
0
LINE
5
75
100
AcDbEntity
8
1
62
256
6
ByLayer
370
18
48
1
60
0
100
AcDbLine
10
78.353079
20
-51.824981
30
0
11
78.146921
21
-51.824981
31
0
39
0
210
0
220
0
230
1
0
LINE
5
76
100
AcDbEntity
8
1
62
256
6
ByLayer
370
18
48
1
60
0
100
AcDbLine
10
76.853079
20
-51.824981
30
0
11
76.646921
21
-51.824981
31
0
39
0
210
0
220
0
230
1
0
LINE
5
77
100
AcDbEntity
8
1
62
256
6
ByLayer
370
18
48
1
60
0
100
AcDbLine
10
75.552168
20
-51
30
0
11
75.552168
21
-51.626149
31
0
39
0
210
0
220
0
230
1
0
LINE
5
78
100
AcDbEntity
8
1
62
256
6
ByLayer
370
18
48
1
60
0
100
AcDbLine
10
80.61352
20
-51
30
0
11
75.552168
21
-51
31
0
39
0
210
0
220
0
230
1
0
LINE
5
79
100
AcDbEntity
8
1
62
256
6
ByLayer
370
18
48
1
60
0
100
AcDbLine
10
80.61352
20
-51
30
0
11
80.586804
21
-51.031671
31
0
39
0
210
0
220
0
230
1
0
LINE
5
7A
100
AcDbEntity
8
1
62
256
6
ByLayer
370
18
48
1
60
0
100
AcDbLine
10
75.552168
20
-50.8
30
0
11
75.552168
21
-51
31
0
39
0
210
0
220
0
230
1
0
LINE
5
7B
100
AcDbEntity
8
1
62
256
6
ByLayer
370
18
48
1
60
0
100
AcDbLine
10
80.61352
20
-50.8
30
0
11
80.61352
21
-51
31
0
39
0
210
0
220
0
230
1
0
LINE
5
7C
100
AcDbEntity
8
1
62
256
6
ByLayer
370
18
48
1
60
0
100
AcDbLine
10
75.485479
20
-51.741657
30
0
11
75.014521
21
-51.741657
31
0
39
0
210
0
220
0
230
1
0
LINE
5
7D
100
AcDbEntity
8
1
62
256
6
ByLayer
370
18
48
1
60
0
100
AcDbLine
10
74.633801
20
-51.082231
30
0
11
75.014521
21
-51.741657
31
0
39
0
210
0
220
0
230
1
0
LINE
5
7E
100
AcDbEntity
8
1
62
256
6
ByLayer
370
18
48
1
60
0
100
AcDbLine
10
73.985479
20
-51.741657
30
0
11
74.366199
21
-51.082231
31
0
39
0
210
0
220
0
230
1
0
LINE
5
7F
100
AcDbEntity
8
1
62
256
6
ByLayer
370
18
48
1
60
0
100
AcDbLine
10
73.985479
20
-51.741657
30
0
11
73.514521
21
-51.741657
31
0
39
0
210
0
220
0
230
1
0
LINE
5
80
100
AcDbEntity
8
1
62
256
6
ByLayer
370
18
48
1
60
0
100
AcDbLine
10
73.133801
20
-51.082231
30
0
11
73.514521
21
-51.741657
31
0
39
0
210
0
220
0
230
1
0
LINE
5
81
100
AcDbEntity
8
1
62
256
6
ByLayer
370
18
48
1
60
0
100
AcDbLine
10
72.485479
20
-51.741657
30
0
11
72.866199
21
-51.082231
31
0
39
0
210
0
220
0
230
1
0
LINE
5
82
100
AcDbEntity
8
1
62
256
6
ByLayer
370
18
48
1
60
0
100
AcDbLine
10
72.485479
20
-51.741657
30
0
11
72.014521
21
-51.741657
31
0
39
0
210
0
220
0
230
1
0
LINE
5
83
100
AcDbEntity
8
1
62
256
6
ByLayer
370
18
48
1
60
0
100
AcDbLine
10
71.633801
20
-51.082231
30
0
11
72.014521
21
-51.741657
31
0
39
0
210
0
220
0
230
1
0
LINE
5
84
100
AcDbEntity
8
1
62
256
6
ByLayer
370
18
48
1
60
0
100
AcDbLine
10
70.985479
20
-51.741657
30
0
11
71.366199
21
-51.082231
31
0
39
0
210
0
220
0
230
1
0
LINE
5
85
100
AcDbEntity
8
1
62
256
6
ByLayer
370
18
48
1
60
0
100
AcDbLine
10
70.985479
20
-51.741657
30
0
11
70.514521
21
-51.741657
31
0
39
0
210
0
220
0
230
1
0
LINE
5
86
100
AcDbEntity
8
1
62
256
6
ByLayer
370
18
48
1
60
0
100
AcDbLine
10
70.133801
20
-51.082231
30
0
11
70.514521
21
-51.741657
31
0
39
0
210
0
220
0
230
1
0
LINE
5
87
100
AcDbEntity
8
1
62
256
6
ByLayer
370
18
48
1
60
0
100
AcDbLine
10
69.485479
20
-51.741657
30
0
11
69.866199
21
-51.082231
31
0
39
0
210
0
220
0
230
1
0
LINE
5
88
100
AcDbEntity
8
1
62
256
6
ByLayer
370
18
48
1
60
0
100
AcDbLine
10
69.485479
20
-51.741657
30
0
11
69.014521
21
-51.741657
31
0
39
0
210
0
220
0
230
1
0
LINE
5
89
100
AcDbEntity
8
1
62
256
6
ByLayer
370
18
48
1
60
0
100
AcDbLine
10
68.633801
20
-51.082231
30
0
11
69.014521
21
-51.741657
31
0
39
0
210
0
220
0
230
1
0
LINE
5
8A
100
AcDbEntity
8
1
62
256
6
ByLayer
370
18
48
1
60
0
100
AcDbLine
10
67.985479
20
-51.741657
30
0
11
68.366199
21
-51.082231
31
0
39
0
210
0
220
0
230
1
0
LINE
5
8B
100
AcDbEntity
8
1
62
256
6
ByLayer
370
18
48
1
60
0
100
AcDbLine
10
67.985479
20
-51.741657
30
0
11
67.514521
21
-51.741657
31
0
39
0
210
0
220
0
230
1
0
LINE
5
8C
100
AcDbEntity
8
1
62
256
6
ByLayer
370
18
48
1
60
0
100
AcDbLine
10
67.133801
20
-51.082231
30
0
11
67.514521
21
-51.741657
31
0
39
0
210
0
220
0
230
1
0
LINE
5
8D
100
AcDbEntity
8
1
62
256
6
ByLayer
370
18
48
1
60
0
100
AcDbLine
10
66.485479
20
-51.741657
30
0
11
66.866199
21
-51.082231
31
0
39
0
210
0
220
0
230
1
0
LINE
5
8E
100
AcDbEntity
8
1
62
256
6
ByLayer
370
18
48
1
60
0
100
AcDbLine
10
66.485479
20
-51.741657
30
0
11
66.014521
21
-51.741657
31
0
39
0
210
0
220
0
230
1
0
LINE
5
8F
100
AcDbEntity
8
1
62
256
6
ByLayer
370
18
48
1
60
0
100
AcDbLine
10
65.633801
20
-51.082231
30
0
11
66.014521
21
-51.741657
31
0
39
0
210
0
220
0
230
1
0
LINE
5
90
100
AcDbEntity
8
1
62
256
6
ByLayer
370
18
48
1
60
0
100
AcDbLine
10
64.985479
20
-51.741657
30
0
11
65.366199
21
-51.082231
31
0
39
0
210
0
220
0
230
1
0
LINE
5
91
100
AcDbEntity
8
1
62
256
6
ByLayer
370
18
48
1
60
0
100
AcDbLine
10
64.985479
20
-51.741657
30
0
11
64.514521
21
-51.741657
31
0
39
0
210
0
220
0
230
1
0
LINE
5
92
100
AcDbEntity
8
1
62
256
6
ByLayer
370
18
48
1
60
0
100
AcDbLine
10
64.447832
20
-51.626149
30
0
11
64.514521
21
-51.741657
31
0
39
0
210
0
220
0
230
1
0
LINE
5
93
100
AcDbEntity
8
1
62
256
6
ByLayer
370
18
48
1
60
0
100
AcDbLine
10
64.447832
20
-51
30
0
11
64.447832
21
-51.626149
31
0
39
0
210
0
220
0
230
1
0
LINE
5
94
100
AcDbEntity
8
1
62
256
6
ByLayer
370
18
48
1
60
0
100
AcDbLine
10
75.552168
20
-51
30
0
11
64.447832
21
-51
31
0
39
0
210
0
220
0
230
1
0
LINE
5
95
100
AcDbEntity
8
1
62
256
6
ByLayer
370
18
48
1
60
0
100
AcDbLine
10
75.485479
20
-51.741657
30
0
11
75.552168
21
-51.626149
31
0
39
0
210
0
220
0
230
1
0
LINE
5
96
100
AcDbEntity
8
1
62
256
6
ByLayer
370
18
48
1
60
0
100
AcDbLine
10
64.447832
20
-50.8
30
0
11
64.447832
21
-51
31
0
39
0
210
0
220
0
230
1
0
LINE
5
97
100
AcDbEntity
8
1
62
256
6
ByLayer
370
18
48
1
60
0
100
AcDbLine
10
59.38648
20
-50.8
30
0
11
59.38648
21
-51
31
0
39
0
210
0
220
0
230
1
0
LINE
5
98
100
AcDbEntity
8
1
62
256
6
ByLayer
370
18
48
1
60
0
100
AcDbLine
10
64.447832
20
-51
30
0
11
59.38648
21
-51
31
0
39
0
210
0
220
0
230
1
0
LINE
5
99
100
AcDbEntity
8
1
62
256
6
ByLayer
370
18
48
1
60
0
100
AcDbLine
10
59.38648
20
-51
30
0
11
59.413196
21
-51.031671
31
0
39
0
210
0
220
0
230
1
0
LINE
5
9A
100
AcDbEntity
8
1
62
256
6
ByLayer
370
18
48
1
60
0
100
AcDbLine
10
63.353079
20
-51.824981
30
0
11
63.146921
21
-51.824981
31
0
39
0
210
0
220
0
230
1
0
LINE
5
9B
100
AcDbEntity
8
1
62
256
6
ByLayer
370
18
48
1
60
0
100
AcDbLine
10
61.853079
20
-51.824981
30
0
11
61.646921
21
-51.824981
31
0
39
0
210
0
220
0
230
1
0
LINE
5
9C
100
AcDbEntity
8
1
62
256
6
ByLayer
370
18
48
1
60
0
100
AcDbLine
10
60.353079
20
-51.824981
30
0
11
60.146921
21
-51.824981
31
0
39
0
210
0
220
0
230
1
0
LINE
5
9D
100
AcDbEntity
8
1
62
256
6
ByLayer
370
18
48
1
60
0
100
AcDbLine
10
60.019746
20
-51.750708
30
0
11
60.054765
21
-51.792221
31
0
39
0
210
0
220
0
230
1
0
LINE
5
9E
100
AcDbEntity
8
1
62
256
6
ByLayer
370
18
48
1
60
0
100
AcDbLine
10
70.646921
20
-51.824981
30
0
11
70.853079
21
-51.824981
31
0
39
0
210
0
220
0
230
1
0
LINE
5
9F
100
AcDbEntity
8
1
62
256
6
ByLayer
370
18
48
1
60
0
100
AcDbLine
10
70.985479
20
-51.741657
30
0
11
70.979519
21
-51.751981
31
0
39
0
210
0
220
0
230
1
0
LINE
5
A0
100
AcDbEntity
8
1
62
256
6
ByLayer
370
18
48
1
60
0
100
AcDbLine
10
70.520481
20
-51.751981
30
0
11
70.514521
21
-51.741657
31
0
39
0
210
0
220
0
230
1
0
LINE
5
A1
100
AcDbEntity
8
1
62
256
6
ByLayer
370
18
48
1
60
0
100
AcDbLine
10
75.146921
20
-51.824981
30
0
11
75.353079
21
-51.824981
31
0
39
0
210
0
220
0
230
1
0
LINE
5
A2
100
AcDbEntity
8
1
62
256
6
ByLayer
370
18
48
1
60
0
100
AcDbLine
10
75.485479
20
-51.741657
30
0
11
75.479519
21
-51.751981
31
0
39
0
210
0
220
0
230
1
0
LINE
5
A3
100
AcDbEntity
8
1
62
256
6
ByLayer
370
18
48
1
60
0
100
AcDbLine
10
75.020481
20
-51.751981
30
0
11
75.014521
21
-51.741657
31
0
39
0
210
0
220
0
230
1
0
LINE
5
A4
100
AcDbEntity
8
1
62
256
6
ByLayer
370
18
48
1
60
0
100
AcDbLine
10
72.146921
20
-51.824981
30
0
11
72.353079
21
-51.824981
31
0
39
0
210
0
220
0
230
1
0
LINE
5
A5
100
AcDbEntity
8
1
62
256
6
ByLayer
370
18
48
1
60
0
100
AcDbLine
10
72.485479
20
-51.741657
30
0
11
72.479519
21
-51.751981
31
0
39
0
210
0
220
0
230
1
0
LINE
5
A6
100
AcDbEntity
8
1
62
256
6
ByLayer
370
18
48
1
60
0
100
AcDbLine
10
72.020481
20
-51.751981
30
0
11
72.014521
21
-51.741657
31
0
39
0
210
0
220
0
230
1
0
LINE
5
A7
100
AcDbEntity
8
1
62
256
6
ByLayer
370
18
48
1
60
0
100
AcDbLine
10
67.646921
20
-51.824981
30
0
11
67.853079
21
-51.824981
31
0
39
0
210
0
220
0
230
1
0
LINE
5
A8
100
AcDbEntity
8
1
62
256
6
ByLayer
370
18
48
1
60
0
100
AcDbLine
10
67.985479
20
-51.741657
30
0
11
67.979519
21
-51.751981
31
0
39
0
210
0
220
0
230
1
0
LINE
5
A9
100
AcDbEntity
8
1
62
256
6
ByLayer
370
18
48
1
60
0
100
AcDbLine
10
67.520481
20
-51.751981
30
0
11
67.514521
21
-51.741657
31
0
39
0
210
0
220
0
230
1
0
LINE
5
AA
100
AcDbEntity
8
1
62
256
6
ByLayer
370
18
48
1
60
0
100
AcDbLine
10
66.146921
20
-51.824981
30
0
11
66.353079
21
-51.824981
31
0
39
0
210
0
220
0
230
1
0
LINE
5
AB
100
AcDbEntity
8
1
62
256
6
ByLayer
370
18
48
1
60
0
100
AcDbLine
10
66.020481
20
-51.751981
30
0
11
66.014521
21
-51.741657
31
0
39
0
210
0
220
0
230
1
0
LINE
5
AC
100
AcDbEntity
8
1
62
256
6
ByLayer
370
18
48
1
60
0
100
AcDbLine
10
66.485479
20
-51.741657
30
0
11
66.479519
21
-51.751981
31
0
39
0
210
0
220
0
230
1
0
LINE
5
AD
100
AcDbEntity
8
1
62
256
6
ByLayer
370
18
48
1
60
0
100
AcDbLine
10
69.146921
20
-51.824981
30
0
11
69.353079
21
-51.824981
31
0
39
0
210
0
220
0
230
1
0
LINE
5
AE
100
AcDbEntity
8
1
62
256
6
ByLayer
370
18
48
1
60
0
100
AcDbLine
10
69.020481
20
-51.751981
30
0
11
69.014521
21
-51.741657
31
0
39
0
210
0
220
0
230
1
0
LINE
5
AF
100
AcDbEntity
8
1
62
256
6
ByLayer
370
18
48
1
60
0
100
AcDbLine
10
69.485479
20
-51.741657
30
0
11
69.479519
21
-51.751981
31
0
39
0
210
0
220
0
230
1
0
LINE
5
B0
100
AcDbEntity
8
1
62
256
6
ByLayer
370
18
48
1
60
0
100
AcDbLine
10
64.646921
20
-51.824981
30
0
11
64.853079
21
-51.824981
31
0
39
0
210
0
220
0
230
1
0
LINE
5
B1
100
AcDbEntity
8
1
62
256
6
ByLayer
370
18
48
1
60
0
100
AcDbLine
10
64.520481
20
-51.751981
30
0
11
64.514521
21
-51.741657
31
0
39
0
210
0
220
0
230
1
0
LINE
5
B2
100
AcDbEntity
8
1
62
256
6
ByLayer
370
18
48
1
60
0
100
AcDbLine
10
64.985479
20
-51.741657
30
0
11
64.979519
21
-51.751981
31
0
39
0
210
0
220
0
230
1
0
LINE
5
B3
100
AcDbEntity
8
1
62
256
6
ByLayer
370
18
48
1
60
0
100
AcDbLine
10
73.646921
20
-51.824981
30
0
11
73.853079
21
-51.824981
31
0
39
0
210
0
220
0
230
1
0
LINE
5
B4
100
AcDbEntity
8
1
62
256
6
ByLayer
370
18
48
1
60
0
100
AcDbLine
10
73.520481
20
-51.751981
30
0
11
73.514521
21
-51.741657
31
0
39
0
210
0
220
0
230
1
0
LINE
5
B5
100
AcDbEntity
8
1
62
256
6
ByLayer
370
18
48
1
60
0
100
AcDbLine
10
73.985479
20
-51.741657
30
0
11
73.979519
21
-51.751981
31
0
39
0
210
0
220
0
230
1
0
LINE
5
B6
100
AcDbEntity
8
1
62
256
6
ByLayer
370
18
48
1
60
0
100
AcDbLine
10
80.396927
20
-50.8
30
0
11
90.25
21
-50.8
31
0
39
0
210
0
220
0
230
1
0
LINE
5
B7
100
AcDbEntity
8
1
62
256
6
ByLayer
370
18
48
1
60
0
100
AcDbLine
10
59.38648
20
-51
30
0
11
50
21
-51
31
0
39
0
210
0
220
0
230
1
0
LINE
5
B8
100
AcDbEntity
8
1
62
256
6
ByLayer
370
18
48
1
60
0
100
AcDbLine
10
50
20
-51
30
0
11
50.262163
21
-51.262163
31
0
39
0
210
0
220
0
230
1
0
LINE
5
B9
100
AcDbEntity
8
1
62
256
6
ByLayer
370
18
48
1
60
0
100
AcDbLine
10
58.853079
20
-51.824981
30
0
11
58.646921
21
-51.824981
31
0
39
0
210
0
220
0
230
1
0
LINE
5
BA
100
AcDbEntity
8
1
62
256
6
ByLayer
370
18
48
1
60
0
100
AcDbLine
10
57.353079
20
-51.824981
30
0
11
57.146921
21
-51.824981
31
0
39
0
210
0
220
0
230
1
0
LINE
5
BB
100
AcDbEntity
8
1
62
256
6
ByLayer
370
18
48
1
60
0
100
AcDbLine
10
55.853079
20
-51.824981
30
0
11
55.646921
21
-51.824981
31
0
39
0
210
0
220
0
230
1
0
LINE
5
BC
100
AcDbEntity
8
1
62
256
6
ByLayer
370
18
48
1
60
0
100
AcDbLine
10
54.353079
20
-51.824981
30
0
11
54.146921
21
-51.824981
31
0
39
0
210
0
220
0
230
1
0
LINE
5
BD
100
AcDbEntity
8
1
62
256
6
ByLayer
370
18
48
1
60
0
100
AcDbLine
10
52.853079
20
-51.824981
30
0
11
52.646921
21
-51.824981
31
0
39
0
210
0
220
0
230
1
0
LINE
5
BE
100
AcDbEntity
8
1
62
256
6
ByLayer
370
18
48
1
60
0
100
AcDbLine
10
51.353079
20
-51.824981
30
0
11
51.146921
21
-51.824981
31
0
39
0
210
0
220
0
230
1
0
LINE
5
BF
100
AcDbEntity
8
1
62
256
6
ByLayer
370
18
48
1
60
0
100
AcDbLine
10
80.61352
20
-51
30
0
11
90
21
-51
31
0
39
0
210
0
220
0
230
1
0
LINE
5
C0
100
AcDbEntity
8
1
62
256
6
ByLayer
370
18
48
1
60
0
100
AcDbLine
10
50
20
-50.8
30
0
11
50
21
-51
31
0
39
0
210
0
220
0
230
1
0
LINE
5
C1
100
AcDbEntity
8
1
62
256
6
ByLayer
370
18
48
1
60
0
100
AcDbLine
10
90
20
-51
30
0
11
90
21
-50.8
31
0
39
0
210
0
220
0
230
1
0
LINE
5
C2
100
AcDbEntity
8
1
62
256
6
ByLayer
370
18
48
1
60
0
100
AcDbLine
10
89.737837
20
-51.262163
30
0
11
90
21
-51
31
0
39
0
210
0
220
0
230
1
0
LINE
5
C3
100
AcDbEntity
8
1
62
256
6
ByLayer
370
18
48
1
60
0
100
AcDbLine
10
88.853079
20
-51.824981
30
0
11
88.646921
21
-51.824981
31
0
39
0
210
0
220
0
230
1
0
LINE
5
C4
100
AcDbEntity
8
1
62
256
6
ByLayer
370
18
48
1
60
0
100
AcDbLine
10
87.353079
20
-51.824981
30
0
11
87.146921
21
-51.824981
31
0
39
0
210
0
220
0
230
1
0
LINE
5
C5
100
AcDbEntity
8
1
62
256
6
ByLayer
370
18
48
1
60
0
100
AcDbLine
10
85.853079
20
-51.824981
30
0
11
85.646921
21
-51.824981
31
0
39
0
210
0
220
0
230
1
0
LINE
5
C6
100
AcDbEntity
8
1
62
256
6
ByLayer
370
18
48
1
60
0
100
AcDbLine
10
84.353079
20
-51.824981
30
0
11
84.146921
21
-51.824981
31
0
39
0
210
0
220
0
230
1
0
LINE
5
C7
100
AcDbEntity
8
1
62
256
6
ByLayer
370
18
48
1
60
0
100
AcDbLine
10
82.853079
20
-51.824981
30
0
11
82.646921
21
-51.824981
31
0
39
0
210
0
220
0
230
1
0
LINE
5
C8
100
AcDbEntity
8
1
62
256
6
ByLayer
370
18
48
1
60
0
100
AcDbLine
10
81.353079
20
-51.824981
30
0
11
81.146921
21
-51.824981
31
0
39
0
210
0
220
0
230
1
0
LINE
5
C9
100
AcDbEntity
8
1
62
256
6
ByLayer
370
18
48
1
60
0
100
AcDbLine
10
69.132708
20
-65.225019
30
0
11
69.132708
21
-57.725019
31
0
39
0
210
0
220
0
230
1
0
LINE
5
CA
100
AcDbEntity
8
1
62
256
6
ByLayer
370
18
48
1
60
0
100
AcDbLine
10
69.132708
20
-57.725019
30
0
11
56.132708
21
-57.725019
31
0
39
0
210
0
220
0
230
1
0
LINE
5
CB
100
AcDbEntity
8
1
62
256
6
ByLayer
370
18
48
1
60
0
100
AcDbLine
10
56.132708
20
-57.725019
30
0
11
56.132708
21
-65.225019
31
0
39
0
210
0
220
0
230
1
0
LINE
5
CC
100
AcDbEntity
8
1
62
256
6
ByLayer
370
18
48
1
60
0
100
AcDbLine
10
56.132708
20
-65.225019
30
0
11
69.132708
21
-65.225019
31
0
39
0
210
0
220
0
230
1
0
LINE
5
CD
100
AcDbEntity
8
1
62
256
6
ByLayer
370
18
48
1
60
0
100
AcDbLine
10
68.632708
20
-65.725019
30
0
11
56.632708
21
-65.725019
31
0
39
0
210
0
220
0
230
1
0
LINE
5
CE
100
AcDbEntity
8
1
62
256
6
ByLayer
370
18
48
1
60
0
100
AcDbLine
10
58.632708
20
-51.824121
30
0
11
58.632708
21
-57.725019
31
0
39
0
210
0
220
0
230
1
0
LINE
5
CF
100
AcDbEntity
8
1
62
256
6
ByLayer
370
18
48
1
60
0
100
AcDbLine
10
66.632708
20
-57.725019
30
0
11
66.632708
21
-51.486511
31
0
39
0
210
0
220
0
230
1
0
LINE
5
D0
100
AcDbEntity
8
1
62
256
6
ByLayer
370
18
48
1
60
0
100
AcDbLine
10
83.867292
20
-65.225019
30
0
11
83.867292
21
-57.725019
31
0
39
0
210
0
220
0
230
1
0
LINE
5
D1
100
AcDbEntity
8
1
62
256
6
ByLayer
370
18
48
1
60
0
100
AcDbLine
10
83.867292
20
-57.725019
30
0
11
70.867292
21
-57.725019
31
0
39
0
210
0
220
0
230
1
0
LINE
5
D2
100
AcDbEntity
8
1
62
256
6
ByLayer
370
18
48
1
60
0
100
AcDbLine
10
70.867292
20
-57.725019
30
0
11
70.867292
21
-65.225019
31
0
39
0
210
0
220
0
230
1
0
LINE
5
D3
100
AcDbEntity
8
1
62
256
6
ByLayer
370
18
48
1
60
0
100
AcDbLine
10
70.867292
20
-65.225019
30
0
11
83.867292
21
-65.225019
31
0
39
0
210
0
220
0
230
1
0
LINE
5
D4
100
AcDbEntity
8
1
62
256
6
ByLayer
370
18
48
1
60
0
100
AcDbLine
10
83.367292
20
-65.725019
30
0
11
71.367292
21
-65.725019
31
0
39
0
210
0
220
0
230
1
0
LINE
5
D5
100
AcDbEntity
8
1
62
256
6
ByLayer
370
18
48
1
60
0
100
AcDbLine
10
73.367292
20
-51.486511
30
0
11
73.367292
21
-57.725019
31
0
39
0
210
0
220
0
230
1
0
LINE
5
D6
100
AcDbEntity
8
1
62
256
6
ByLayer
370
18
48
1
60
0
100
AcDbLine
10
81.367292
20
-57.725019
30
0
11
81.367292
21
-51.822667
31
0
39
0
210
0
220
0
230
1
0
LINE
5
D7
100
AcDbEntity
8
81
62
256
6
ByLayer
370
13
48
1
60
0
100
AcDbLine
10
70
20
-51.501481
30
0
11
70
21
-66.938481
31
0
39
0
210
0
220
0
230
1
0
LINE
5
D8
100
AcDbEntity
8
1
62
256
6
ByLayer
370
18
48
1
60
0
100
AcDbLine
10
0.3
20
50
30
0
11
0
21
49.7
31
0
39
0
210
0
220
0
230
1
0
LINE
5
D9
100
AcDbEntity
8
1
62
256
6
ByLayer
370
18
48
1
60
0
100
AcDbLine
10
13.355662
20
15.513346
30
0
11
13.355662
21
47.532474
31
0
39
0
210
0
220
0
230
1
0
LINE
5
DA
100
AcDbEntity
8
1
62
256
6
ByLayer
370
18
48
1
60
0
100
AcDbLine
10
18.211325
20
14.993155
30
0
11
13.788675
21
14.993155
31
0
39
0
210
0
220
0
230
1
0
LINE
5
DB
100
AcDbEntity
8
1
62
256
6
ByLayer
370
18
48
1
60
0
100
AcDbLine
10
13.788675
20
47.699112
30
0
11
18.211325
21
47.699112
31
0
39
0
210
0
220
0
230
1
0
LINE
5
DC
100
AcDbEntity
8
1
62
256
6
ByLayer
370
18
48
1
60
0
100
AcDbLine
10
13.355662
20
15.513346
30
0
11
13.355662
21
47.532474
31
0
39
0
210
0
220
0
230
1
0
LINE
5
DD
100
AcDbEntity
8
1
62
256
6
ByLayer
370
18
48
1
60
0
100
AcDbLine
10
13.788675
20
47.699112
30
0
11
18.211325
21
47.699112
31
0
39
0
210
0
220
0
230
1
0
LINE
5
DE
100
AcDbEntity
8
1
62
256
6
ByLayer
370
18
48
1
60
0
100
AcDbLine
10
0
20
-49.7
30
0
11
0.3
21
-50
31
0
39
0
210
0
220
0
230
1
0
LINE
5
DF
100
AcDbEntity
8
1
62
256
6
ByLayer
370
18
48
1
60
0
100
AcDbLine
10
18.211325
20
14.993155
30
0
11
13.788675
21
14.993155
31
0
39
0
210
0
220
0
230
1
0
LINE
5
E0
100
AcDbEntity
8
1
62
256
6
ByLayer
370
18
48
1
60
0
100
AcDbLine
10
18.644338
20
15.513346
30
0
11
18.644338
21
47.532474
31
0
39
0
210
0
220
0
230
1
0
LINE
5
E1
100
AcDbEntity
8
1
62
256
6
ByLayer
370
18
48
1
60
0
100
AcDbLine
10
13.355662
20
-47.532474
30
0
11
13.355662
21
-15.513346
31
0
39
0
210
0
220
0
230
1
0
LINE
5
E2
100
AcDbEntity
8
1
62
256
6
ByLayer
370
18
48
1
60
0
100
AcDbLine
10
18.211325
20
-47.699112
30
0
11
13.788675
21
-47.699112
31
0
39
0
210
0
220
0
230
1
0
LINE
5
E3
100
AcDbEntity
8
1
62
256
6
ByLayer
370
18
48
1
60
0
100
AcDbLine
10
18.644338
20
-47.532474
30
0
11
18.644338
21
-15.513346
31
0
39
0
210
0
220
0
230
1
0
LINE
5
E4
100
AcDbEntity
8
1
62
256
6
ByLayer
370
18
48
1
60
0
100
AcDbLine
10
13.788675
20
-14.993155
30
0
11
18.211325
21
-14.993155
31
0
39
0
210
0
220
0
230
1
0
LINE
5
E5
100
AcDbEntity
8
1
62
256
6
ByLayer
370
18
48
1
60
0
100
AcDbLine
10
18.644338
20
15.513346
30
0
11
18.644338
21
47.532474
31
0
39
0
210
0
220
0
230
1
0
LINE
5
E6
100
AcDbEntity
8
SK1
62
256
6
ByLayer
370
18
48
1
60
0
100
AcDbLine
10
-60
20
32.528557
30
0
11
-60
21
-32.528557
31
0
39
0
210
0
220
0
230
1
0
LINE
5
E8
100
AcDbEntity
8
SK1
62
256
6
ByLayer
370
18
48
1
60
0
100
AcDbLine
10
-58
20
33.708566
30
0
11
-58
21
-33.708566
31
0
39
0
210
0
220
0
230
1
0
LINE
5
E9
100
AcDbEntity
8
SK1
62
256
6
ByLayer
370
18
48
1
60
0
100
AcDbLine
10
-1.999937
20
35.144654
30
0
11
-1.999937
21
-35.144654
31
0
39
0
210
0
220
0
230
1
0
LINE
5
EA
100
AcDbEntity
8
1
62
256
6
ByLayer
370
18
48
1
60
0
100
AcDbLine
10
0
20
49.7
30
0
11
0
21
-49.7
31
0
39
0
210
0
220
0
230
1
0
LINE
5
EB
100
AcDbEntity
8
1
62
256
6
ByLayer
370
18
48
1
60
0
100
AcDbLine
10
54.596748
20
-37.164331
30
0
11
54.596748
21
0
31
0
39
0
210
0
220
0
230
1
0
LINE
5
EC
100
AcDbEntity
8
1
62
256
6
ByLayer
370
18
48
1
60
0
100
AcDbLine
10
54.596748
20
0
30
0
11
36.733145
21
0
31
0
39
0
210
0
220
0
230
1
0
LINE
5
ED
100
AcDbEntity
8
1
62
256
6
ByLayer
370
18
48
1
60
0
100
AcDbLine
10
61.995403
20
-50.79989
30
0
11
50.141931
21
-50.79989
31
0
39
0
210
0
220
0
230
1
0
LINE
5
EE
100
AcDbEntity
8
1
62
256
6
ByLayer
370
18
48
1
60
0
100
AcDbLine
10
36.733145
20
0
30
0
11
36.733145
21
50
31
0
39
0
210
0
220
0
230
1
0
LINE
5
EF
100
AcDbEntity
8
1
62
256
6
ByLayer
370
18
48
1
60
0
100
AcDbLine
10
36.733145
20
50
30
0
11
43.25
21
50
31
0
39
0
210
0
220
0
230
1
0
LINE
5
F0
100
AcDbEntity
8
1
62
256
6
ByLayer
370
18
48
1
60
0
100
AcDbLine
10
72.04125
20
12.653283
30
0
11
72.04125
21
-45.206793
31
0
39
0
210
0
220
0
230
1
0
LINE
5
F1
100
AcDbEntity
8
1
62
256
6
ByLayer
370
18
48
1
60
0
100
AcDbLine
10
50.141931
20
-50.79989
30
0
11
37.406853
21
-50.79989
31
0
39
0
210
0
220
0
230
1
0
LINE
5
F2
100
AcDbEntity
8
1
62
256
6
ByLayer
370
18
48
1
60
0
100
AcDbLine
10
37.406853
20
-50.79989
30
0
11
37.406853
21
-12.634406
31
0
39
0
210
0
220
0
230
1
0
LINE
5
F3
100
AcDbEntity
8
1
62
256
6
ByLayer
370
18
48
1
60
0
100
AcDbLine
10
50.141931
20
-37.164331
30
0
11
50.141931
21
-50.79989
31
0
39
0
210
0
220
0
230
1
0
LINE
5
F4
100
AcDbEntity
8
1
62
256
6
ByLayer
370
18
48
1
60
0
100
AcDbLine
10
78.004713
20
-50.8
30
0
11
61.995287
21
-50.8
31
0
39
0
210
0
220
0
230
1
0
LINE
5
F5
100
AcDbEntity
8
1
62
256
6
ByLayer
370
18
48
1
60
0
100
AcDbLine
10
50.141931
20
-37.164331
30
0
11
54.596748
21
-37.164331
31
0
39
0
210
0
220
0
230
1
0
LINE
5
F6
100
AcDbEntity
8
1
62
256
6
ByLayer
370
18
48
1
60
0
100
AcDbLine
10
36
20
50
30
0
11
36
21
-50
31
0
39
0
210
0
220
0
230
1
0
LINE
5
F7
100
AcDbEntity
8
1
62
256
6
ByLayer
370
18
48
1
60
0
100
AcDbLine
10
36
20
-50
30
0
11
37.406853
21
-50.79989
31
0
39
0
210
0
220
0
230
1
0
LINE
5
F8
100
AcDbEntity
8
1
62
256
6
ByLayer
370
18
48
1
60
0
100
AcDbLine
10
90.25
20
-50.8
30
0
11
90.25
21
-14.799497
31
0
39
0
210
0
220
0
230
1
0
LINE
5
F9
100
AcDbEntity
8
SK4
62
256
6
ByLayer
370
13
48
0.05
60
0
100
AcDbLine
10
-63.559855
20
0
30
0
11
94.337095
21
0
31
0
39
0
210
0
220
0
230
1
0
LINE
5
FB
100
AcDbEntity
8
4
62
256
6
ByLayer
370
13
48
0.05
60
0
100
AcDbLine
10
72.923848
20
0
30
0
11
0
21
0
31
0
39
0
210
0
220
0
230
1
0
LINE
5
FD
100
AcDbEntity
8
1
62
256
6
ByLayer
370
18
48
1
60
0
100
AcDbLine
10
0.3
20
-50
30
0
11
36
21
-50
31
0
39
0
210
0
220
0
230
1
0
LINE
5
FE
100
AcDbEntity
8
1
62
256
6
ByLayer
370
18
48
1
60
0
100
AcDbLine
10
36.733145
20
50
30
0
11
0.3
21
50
31
0
39
0
210
0
220
0
230
1
0
LINE
5
FF
100
AcDbEntity
8
80
62
256
6
ByLayer
370
13
48
1
60
0
100
AcDbLine
10
0
20
0
30
0
11
-25.979761
21
0
31
0
39
0
210
0
220
0
230
1
0
MTEXT
5
1A8
100
AcDbEntity
8
SK6
62
256
6
ByLayer
370
18
48
1
60
0
100
AcDbMText
10
5.903748
20
-68.172029
30
0
210
0
220
0
230
1
1
\W0.7202;C10-SL70-LF-070
40
3.5
41
0
44
1.084337
50
0
71
7
72
5
7
iso_b_vert
0
DIMENSION
5
1BB
100
AcDbEntity
8
SK2
62
256
6
ByLayer
370
13
48
1
60
0
100
AcDbDimension
2
DimnDraft3D1
10
-72.438809
20
50
30
0
11
-71.888899
21
2.357976
31
0
70
33
71
5
72
1
41
1
210
0
220
0
230
1
3
Standard
100
AcDbAlignedDimension
13
-1.2875
23
-50
33
0
14
-1.2875
24
50
34
0
1001
ACAD
1000
DSTYLE
1002
{
1070
   279
1070
     0
1070
    74
1070
     0
1070
   173
1070
     1
1070
   340
1005
1A9
1070
   271
1070
     1
1070
   272
1070
     2
1070
    77
1070
     1
1070
    73
1070
     0
1070
   171
1070
     3
1070
   274
1070
     4
1070
   177
1070
     7
1070
   176
1070
     7
1070
   178
1070
     7
1070
    78
1070
     8
1070
    48
1040
-0.005
1070
    41
1041
3.175
1070
   147
1041
1.75006
1070
    42
1041
1.5875
1070
    44
1041
3.175
1070
   140
1041
3.50012
1070
   343
1005
0
1070
   344
1005
0
1002
}
0
DIMENSION
5
1C9
100
AcDbEntity
8
SK2
62
256
6
ByLayer
370
13
48
1
60
0
100
AcDbDimension
2
DimnDraft3D2
10
-51.501481
20
-110.510156
30
0
11
-25.75074
21
-110.510156
31
0
70
32
71
5
72
1
41
1
210
0
220
0
230
1
3
Standard
100
AcDbAlignedDimension
13
0
23
-95.924595
33
0
14
-51.501481
24
-71.5875
34
0
50
0
100
AcDbRotatedDimension
1001
ACAD
1000
DSTYLE
1002
{
1070
   279
1070
     0
1070
   172
1070
     1
1070
   173
1070
     1
1070
   340
1005
1A9
1070
   271
1070
     1
1070
   272
1070
     2
1070
    77
1070
     1
1070
    73
1070
     0
1070
   171
1070
     3
1070
   274
1070
     4
1070
   177
1070
     7
1070
   176
1070
     7
1070
   178
1070
     7
1070
    78
1070
     8
1070
    48
1040
-0.005
1070
    41
1041
3.175
1070
   147
1041
1.75006
1070
    42
1041
1.5875
1070
    44
1041
3.175
1070
   140
1041
3.50012
1070
   343
1005
0
1070
   344
1005
0
1002
}
0
DIMENSION
5
1D7
100
AcDbEntity
8
SK2
62
256
6
ByLayer
370
13
48
1
60
0
100
AcDbDimension
2
DimnDraft3D3
10
90.25
20
60.701381
30
0
11
45.125
21
60.701381
31
0
70
32
71
5
72
1
41
1
210
0
220
0
230
1
3
Standard
100
AcDbAlignedDimension
13
0
23
51.2875
33
0
14
90.25
24
-13.211997
34
0
50
0
100
AcDbRotatedDimension
1001
ACAD
1000
DSTYLE
1002
{
1070
   279
1070
     0
1070
   172
1070
     1
1070
   173
1070
     1
1070
   340
1005
1A9
1070
   271
1070
     1
1070
   272
1070
     2
1070
    77
1070
     1
1070
    73
1070
     0
1070
   171
1070
     3
1070
   274
1070
     4
1070
   177
1070
     7
1070
   176
1070
     7
1070
   178
1070
     7
1070
    78
1070
     8
1070
    48
1040
-0.005
1070
    41
1041
3.175
1070
   147
1041
1.75006
1070
    42
1041
1.5875
1070
    44
1041
3.175
1070
   140
1041
3.50012
1070
   343
1005
0
1070
   344
1005
0
1002
}
0
DIMENSION
5
1E6
100
AcDbEntity
8
2
62
256
6
ByLayer
370
13
48
1
60
0
100
AcDbDimension
2
DimnDraft3D4
10
70
20
-90.30425
30
0
11
35
21
-90.30425
31
0
70
32
71
5
72
1
41
1
210
0
220
0
230
1
3
Standard
100
AcDbAlignedDimension
13
0
23
-51.2875
33
0
14
70
24
-68.525981
34
0
50
0
100
AcDbRotatedDimension
1001
ACAD
1000
DSTYLE
1002
{
1070
   279
1070
     0
1070
   172
1070
     1
1070
   173
1070
     1
1070
   340
1005
1A9
1070
   271
1070
     1
1070
   272
1070
     2
1070
    77
1070
     1
1070
    73
1070
     0
1070
   171
1070
     3
1070
   274
1070
     4
1070
   177
1070
     7
1070
   176
1070
     7
1070
   178
1070
     7
1070
    78
1070
     8
1070
    48
1040
-0.005
1070
    41
1041
3.175
1070
   147
1041
1.75006
1070
    42
1041
1.5875
1070
    44
1041
3.175
1070
   140
1041
3.50012
1070
   343
1005
0
1070
   344
1005
0
1002
}
0
DIMENSION
5
1F4
100
AcDbEntity
8
SK2
62
256
6
ByLayer
370
13
48
1
60
0
100
AcDbDimension
2
DimnDraft3D5
10
90
20
-81.881625
30
0
11
63.230144
21
-81.881625
31
0
70
32
71
5
72
1
41
1
210
0
220
0
230
1
3
Standard
100
AcDbAlignedDimension
13
50
23
-52.5875
33
0
14
90
24
-52.5875
34
0
50
0
100
AcDbRotatedDimension
1001
ACAD
1000
DSTYLE
1002
{
1070
   279
1070
     0
1070
   172
1070
     1
1070
   173
1070
     1
1070
   340
1005
1A9
1070
   271
1070
     1
1070
   272
1070
     2
1070
    77
1070
     1
1070
    73
1070
     0
1070
   171
1070
     3
1070
   274
1070
     4
1070
   177
1070
     7
1070
   176
1070
     7
1070
   178
1070
     7
1070
    78
1070
     8
1070
    48
1040
-0.005
1070
    41
1041
3.175
1070
   147
1041
1.75006
1070
    42
1041
1.5875
1070
    44
1041
3.175
1070
   140
1041
3.50012
1070
   343
1005
0
1070
   344
1005
0
1002
}
0
ENDSEC
0
SECTION
2
OBJECTS
0
DICTIONARY
5
25f
330
0
100
AcDbDictionary
280
0
281
1
3
ACAD_GROUP
350
260
3
ACAD_MLINESTYLE
350
261
0
DICTIONARY
5
260
330
0
100
AcDbDictionary
280
0
281
1
0
DICTIONARY
5
261
330
0
100
AcDbDictionary
280
0
281
1
3
Standard
350
18
0
MLINESTYLE
5
18
330
261
100
AcDbMlineStyle
2
Standard
70
0
3

62
256
51
90
52
90
71
2
49
-0.5
62
256
6
ByLayer
49
0.5
62
256
6
ByLayer
0
RASTERVARIABLES
5
24d
330

100
AcDbRasterVariables
90
0
70
1
71
1
72
1
0
ENDSEC
0
EOF
