0
SECTION
2
HEADER
9
$ACADVER
1
AC1015
9
$DWGCODEPAGE
3
ANSI_1252
9
$HANDSEED
5
219
9
$ANGBASE
50
0
9
$ANGDIR
70
0
9
$ATTMODE
70
1
9
$AUNITS
70
0
9
$AUPREC
70
0
9
$CECOLOR
62
256
9
$CELTSCALE
40
1
9
$CELTYPE
6
ByLayer
9
$CELWEIGHT
370
18
9
$CLAYER
8
0
9
$CMLJUST
70
0
9
$CMLSCALE
40
1
9
$CMLSTYLE
2
Standard
9
$DIMSTYLE
2
Standard
9
$TEXTSIZE
40
0.2
9
$TEXTSTYLE
7
Standard
9
$LUNITS
70
2
9
$LUPREC
70
4
9
$EXTNAMES
290
1
9
$INSUNITS
70
4
9
$LTSCALE
40
1
9
$LWDISPLAY
290
1
9
$PDMODE
70
0
9
$PDSIZE
40
0
9
$PLINEGEN
70
0
0
ENDSEC
0
SECTION
2
CLASSES
0
CLASS
1
RASTERVARIABLES
2
AcDbRasterVariables
3
ISM
90
0
280
0
281
0
0
ENDSEC
0
SECTION
2
TABLES
0
TABLE
2
VPORT
5
20f
100
AcDbSymbolTable
0
VPORT
5
1
100
AcDbSymbolTableRecord
100
AcDbViewportTableRecord
2
*Active
70
0
10
0
20
0
11
1
21
1
12
-1
22
1
13
0
23
0
14
0.5
24
0.5
15
10
25
10
16
0
26
0
36
1
17
0
27
0
37
0
0
ENDTAB
0
TABLE
2
LTYPE
5
210
100
AcDbSymbolTable
0
LTYPE
5
14
100
AcDbSymbolTableRecord
100
AcDbLinetypeTableRecord
70
0
2
ByBlock
3

72
65
73
0
40
0
0
LTYPE
5
15
100
AcDbSymbolTableRecord
100
AcDbLinetypeTableRecord
70
0
2
ByLayer
3

72
65
73
0
40
0
0
LTYPE
5
16
100
AcDbSymbolTableRecord
100
AcDbLinetypeTableRecord
70
0
2
CONTINUOUS
3
Solid line
72
65
73
0
40
0
0
LTYPE
5
6A
100
AcDbSymbolTableRecord
100
AcDbLinetypeTableRecord
70
0
2
CENTER
3
____ _ ____ _ ____ _ ____
72
65
73
4
40
47.5
49
22
74
0
49
-8.5
74
0
49
8.5
74
0
49
-8.5
74
0
0
LTYPE
5
6B
100
AcDbSymbolTableRecord
100
AcDbLinetypeTableRecord
70
0
2
DASHED
3
__ __ __ __ __ __ __ __ __
72
65
73
2
40
25.72
49
12.86
74
0
49
-12.86
74
0
0
ENDTAB
0
TABLE
2
LAYER
5
211
100
AcDbSymbolTable
0
LAYER
5
10
100
AcDbSymbolTableRecord
100
AcDbLayerTableRecord
2
0
70
0
62
7
6
CONTINUOUS
290
1
370
-3
390
0
0
LAYER
5
6D
100
AcDbSymbolTableRecord
100
AcDbLayerTableRecord
2
80
70
0
62
-6
6
CONTINUOUS
290
1
370
-3
390
0
0
LAYER
5
6F
100
AcDbSymbolTableRecord
100
AcDbLayerTableRecord
2
81
70
0
62
-3
6
CONTINUOUS
290
1
370
-3
390
0
0
LAYER
5
71
100
AcDbSymbolTableRecord
100
AcDbLayerTableRecord
2
1
70
0
62
4
6
CONTINUOUS
290
1
370
-3
390
0
0
LAYER
5
C0
100
AcDbSymbolTableRecord
100
AcDbLayerTableRecord
2
4
70
0
62
-2
6
CENTER
290
1
370
-3
390
0
0
LAYER
5
165
100
AcDbSymbolTableRecord
100
AcDbLayerTableRecord
2
2
70
0
62
7
6
CONTINUOUS
290
1
370
-3
390
0
0
LAYER
5
1fb
100
AcDbSymbolTableRecord
100
AcDbLayerTableRecord
2
SK1
70
0
62
4
6
CONTINUOUS
290
1
370
-3
390
0
0
LAYER
5
1fc
100
AcDbSymbolTableRecord
100
AcDbLayerTableRecord
2
SK4
70
0
62
2
6
CENTER
290
1
370
-3
390
0
0
LAYER
5
1fd
100
AcDbSymbolTableRecord
100
AcDbLayerTableRecord
2
SK6
70
0
62
5
6
CONTINUOUS
290
1
370
-3
390
0
0
LAYER
5
1fe
100
AcDbSymbolTableRecord
100
AcDbLayerTableRecord
2
SK2
70
0
62
7
6
CONTINUOUS
290
1
370
-3
390
0
0
ENDTAB
0
TABLE
2
STYLE
5
212
100
AcDbSymbolTable
0
STYLE
5
11
100
AcDbSymbolTableRecord
100
AcDbTextStyleTableRecord
2
Standard
3
txt
70
0
71
0
40
0
41
1
42
0
50
0
0
STYLE
5
15E
100
AcDbSymbolTableRecord
100
AcDbTextStyleTableRecord
2
iso_b_vert
3
simplex.shx
70
0
71
0
40
0
41
1
42
0
50
0
0
STYLE
5
15F
100
AcDbSymbolTableRecord
100
AcDbTextStyleTableRecord
2
DWGDirectTextStyle
3
simplex
70
0
71
0
40
0
41
1
42
0
50
0
0
ENDTAB
0
TABLE
2
DIMSTYLE
5
213
100
AcDbSymbolTable
100
AcDbDimStyleTable
0
DIMSTYLE
105
27
100
AcDbSymbolTableRecord
100
AcDbDimStyleTableRecord
2
Standard
70
0
3
<>
41
0.18
42
0.0625
44
0.18
140
0.18
147
0.09
73
0
74
0
77
1
271
2
275
0
278
52
280
0
340
11
0
ENDTAB
0
TABLE
2
VIEW
5
214
100
AcDbSymbolTable
0
ENDTAB
0
TABLE
2
UCS
5
215
100
AcDbSymbolTable
0
ENDTAB
0
TABLE
2
APPID
5
216
100
AcDbSymbolTable
0
APPID
5
12
100
AcDbSymbolTableRecord
100
AcDbRegAppTableRecord
2
ACAD
70
0
0
ENDTAB
0
TABLE
2
BLOCK_RECORD
5
217
100
AcDbSymbolTable
0
BLOCK_RECORD
5
1F
100
AcDbSymbolTableRecord
100
AcDbBlockTableRecord
2
*Model_Space
340
0
70
0
0
BLOCK_RECORD
5
1B
100
AcDbSymbolTableRecord
100
AcDbBlockTableRecord
2
*Paper_Space
340
0
70
0
0
BLOCK_RECORD
5
23
100
AcDbSymbolTableRecord
100
AcDbBlockTableRecord
2
*Paper_Space0
340
0
70
0
0
BLOCK_RECORD
5
161
100
AcDbSymbolTableRecord
100
AcDbBlockTableRecord
2
DimnDraft3D11
340
0
70
0
0
BLOCK_RECORD
5
170
100
AcDbSymbolTableRecord
100
AcDbBlockTableRecord
2
DimnDraft3D2
340
0
70
0
0
BLOCK_RECORD
5
17F
100
AcDbSymbolTableRecord
100
AcDbBlockTableRecord
2
_CLOSED
340
0
70
0
0
BLOCK_RECORD
5
186
100
AcDbSymbolTableRecord
100
AcDbBlockTableRecord
2
DimnDraft3D3
340
0
70
0
0
BLOCK_RECORD
5
194
100
AcDbSymbolTableRecord
100
AcDbBlockTableRecord
2
DimnDraft3D4
340
0
70
0
0
ENDTAB
0
ENDSEC
0
SECTION
2
BLOCKS
0
BLOCK
5
20
100
AcDbEntity
8
0
100
AcDbBlockBegin
2
*Model_Space
70
0
10
0
20
0
30
0
3
*Model_Space
0
ENDBLK
5
21
100
AcDbEntity
8
0
100
AcDbBlockEnd
0
BLOCK
5
1C
100
AcDbEntity
8
0
100
AcDbBlockBegin
2
*Paper_Space
70
0
10
0
20
0
30
0
3
*Paper_Space
0
ENDBLK
5
1D
100
AcDbEntity
8
0
100
AcDbBlockEnd
0
BLOCK
5
24
100
AcDbEntity
8
0
100
AcDbBlockBegin
2
*Paper_Space0
70
0
10
0
20
0
30
0
3
*Paper_Space0
0
ENDBLK
5
25
100
AcDbEntity
8
0
100
AcDbBlockEnd
0
BLOCK
5
162
100
AcDbEntity
8
0
100
AcDbBlockBegin
2
DimnDraft3D11
70
0
10
0
20
0
30
0
3
DimnDraft3D11
0
LINE
5
164
100
AcDbEntity
8
2
62
256
6
ByLayer
370
25
48
1
60
0
100
AcDbLine
10
51.5875
20
0
30
0
11
141.405218
21
0
31
0
39
0
210
0
220
0
230
1
0
LINE
5
166
100
AcDbEntity
8
2
62
256
6
ByLayer
370
25
48
1
60
0
100
AcDbLine
10
93.5875
20
68
30
0
11
141.405218
21
68
31
0
39
0
210
0
220
0
230
1
0
LINE
5
167
100
AcDbEntity
8
2
62
256
6
ByLayer
370
25
48
1
60
0
100
AcDbLine
10
138.230218
20
0
30
0
11
138.230218
21
68
31
0
39
0
210
0
220
0
230
1
0
LINE
5
168
100
AcDbEntity
8
2
62
256
6
ByLayer
370
25
48
1
60
0
100
AcDbLine
10
138.230218
20
0
30
0
11
137.379479
21
3.174997
31
0
39
0
210
0
220
0
230
1
0
LINE
5
169
100
AcDbEntity
8
2
62
256
6
ByLayer
370
25
48
1
60
0
100
AcDbLine
10
138.230218
20
0
30
0
11
139.080956
21
3.175003
31
0
39
0
210
0
220
0
230
1
0
LINE
5
16A
100
AcDbEntity
8
2
62
256
6
ByLayer
370
25
48
1
60
0
100
AcDbLine
10
137.379479
20
3.174997
30
0
11
139.080956
21
3.175003
31
0
39
0
210
0
220
0
230
1
0
LINE
5
16B
100
AcDbEntity
8
2
62
256
6
ByLayer
370
25
48
1
60
0
100
AcDbLine
10
138.230218
20
68
30
0
11
139.080956
21
64.825003
31
0
39
0
210
0
220
0
230
1
0
LINE
5
16C
100
AcDbEntity
8
2
62
256
6
ByLayer
370
25
48
1
60
0
100
AcDbLine
10
138.230218
20
68
30
0
11
137.379479
21
64.824997
31
0
39
0
210
0
220
0
230
1
0
LINE
5
16D
100
AcDbEntity
8
2
62
256
6
ByLayer
370
25
48
1
60
0
100
AcDbLine
10
139.080956
20
64.825003
30
0
11
137.379479
21
64.824997
31
0
39
0
210
0
220
0
230
1
0
MTEXT
5
16E
100
AcDbEntity
8
2
62
256
6
ByLayer
370
13
48
1
60
0
100
AcDbMText
10
137.105218
20
32.436842
30
0
210
0
220
0
230
1
1
\W0.6740;68
40
4.5
41
0
44
1.084337
50
90
71
7
72
5
7
iso_b_vert
0
ENDBLK
5
163
100
AcDbEntity
8
0
100
AcDbBlockEnd
0
BLOCK
5
17C
100
AcDbEntity
8
0
100
AcDbBlockBegin
2
DimnDraft3D2
70
0
10
0
20
0
30
0
3
DimnDraft3D2
0
MTEXT
5
171
100
AcDbEntity
8
SK2
62
256
6
ByLayer
370
13
48
1
60
0
100
AcDbMText
10
-70.875
20
-2.682237
30
0
210
0
220
0
230
1
1
\W0.6217;100
40
4.5
41
0
44
1.084337
50
90
71
7
72
5
7
iso_b_vert
0
LINE
5
173
100
AcDbEntity
8
SK2
62
256
6
ByLayer
370
13
48
1
60
0
100
AcDbLine
10
-1.5875
20
50
30
0
11
-72.925
21
50
31
0
39
0
210
0
220
0
230
1
0
LINE
5
174
100
AcDbEntity
8
SK2
62
256
6
ByLayer
370
13
48
1
60
0
100
AcDbLine
10
-1.5875
20
-50
30
0
11
-72.925
21
-50
31
0
39
0
210
0
220
0
230
1
0
LINE
5
175
100
AcDbEntity
8
SK2
62
256
6
ByLayer
370
13
48
1
60
0
100
AcDbLine
10
-69.75
20
50
30
0
11
-69.75
21
-50
31
0
39
0
210
0
220
0
230
1
0
LINE
5
176
100
AcDbEntity
8
SK2
62
256
6
ByLayer
370
13
48
1
60
0
100
AcDbLine
10
-69.75
20
50
30
0
11
-68.899261
21
46.825003
31
0
39
0
210
0
220
0
230
1
0
LINE
5
177
100
AcDbEntity
8
SK2
62
256
6
ByLayer
370
13
48
1
60
0
100
AcDbLine
10
-69.75
20
50
30
0
11
-70.600739
21
46.824997
31
0
39
0
210
0
220
0
230
1
0
LINE
5
178
100
AcDbEntity
8
SK2
62
256
6
ByLayer
370
13
48
1
60
0
100
AcDbLine
10
-68.899261
20
46.825003
30
0
11
-70.600739
21
46.824997
31
0
39
0
210
0
220
0
230
1
0
LINE
5
179
100
AcDbEntity
8
SK2
62
256
6
ByLayer
370
13
48
1
60
0
100
AcDbLine
10
-69.75
20
-50
30
0
11
-70.600739
21
-46.825003
31
0
39
0
210
0
220
0
230
1
0
LINE
5
17A
100
AcDbEntity
8
SK2
62
256
6
ByLayer
370
13
48
1
60
0
100
AcDbLine
10
-69.75
20
-50
30
0
11
-68.899261
21
-46.824997
31
0
39
0
210
0
220
0
230
1
0
LINE
5
17B
100
AcDbEntity
8
SK2
62
256
6
ByLayer
370
13
48
1
60
0
100
AcDbLine
10
-70.600739
20
-46.825003
30
0
11
-68.899261
21
-46.824997
31
0
39
0
210
0
220
0
230
1
0
ENDBLK
5
17D
100
AcDbEntity
8
0
100
AcDbBlockEnd
0
BLOCK
5
180
100
AcDbEntity
8
0
100
AcDbBlockBegin
2
_CLOSED
70
0
10
0
20
0
30
0
3
_CLOSED
0
LINE
5
182
100
AcDbEntity
8
0
62
256
6
ByLayer
370
-2
48
1
60
0
100
AcDbLine
10
-1
20
0.166667
30
0
11
0
21
0
31
0
39
0
210
0
220
0
230
1
0
LINE
5
183
100
AcDbEntity
8
0
62
256
6
ByLayer
370
-2
48
1
60
0
100
AcDbLine
10
0
20
0
30
0
11
-1
21
-0.166667
31
0
39
0
210
0
220
0
230
1
0
LINE
5
184
100
AcDbEntity
8
0
62
256
6
ByLayer
370
-2
48
1
60
0
100
AcDbLine
10
-1
20
0.166667
30
0
11
-1
21
-0.166667
31
0
39
0
210
0
220
0
230
1
0
LINE
5
185
100
AcDbEntity
8
0
62
256
6
ByLayer
370
-2
48
1
60
0
100
AcDbLine
10
0
20
0
30
0
11
-1
21
0
31
0
39
0
210
0
220
0
230
1
0
ENDBLK
5
181
100
AcDbEntity
8
0
100
AcDbBlockEnd
0
BLOCK
5
191
100
AcDbEntity
8
0
100
AcDbBlockBegin
2
DimnDraft3D3
70
0
10
0
20
0
30
0
3
DimnDraft3D3
0
MTEXT
5
187
100
AcDbEntity
8
2
62
256
6
ByLayer
370
13
48
1
60
0
100
AcDbMText
10
44.436842
20
76.625
30
0
210
0
220
0
230
1
1
\W0.6740;92
40
4.5
41
0
44
1.084337
50
0
71
7
72
5
7
iso_b_vert
0
LINE
5
188
100
AcDbEntity
8
2
62
256
6
ByLayer
370
13
48
1
60
0
100
AcDbLine
10
92
20
69.5875
30
0
11
92
21
78.675
31
0
39
0
210
0
220
0
230
1
0
LINE
5
189
100
AcDbEntity
8
2
62
256
6
ByLayer
370
13
48
1
60
0
100
AcDbLine
10
0
20
51.5875
30
0
11
0
21
78.675
31
0
39
0
210
0
220
0
230
1
0
LINE
5
18A
100
AcDbEntity
8
2
62
256
6
ByLayer
370
13
48
1
60
0
100
AcDbLine
10
92
20
75.5
30
0
11
0
21
75.5
31
0
39
0
210
0
220
0
230
1
0
LINE
5
18B
100
AcDbEntity
8
2
62
256
6
ByLayer
370
13
48
1
60
0
100
AcDbLine
10
92
20
75.5
30
0
11
88.825003
21
74.649261
31
0
39
0
210
0
220
0
230
1
0
LINE
5
18C
100
AcDbEntity
8
2
62
256
6
ByLayer
370
13
48
1
60
0
100
AcDbLine
10
92
20
75.5
30
0
11
88.824997
21
76.350739
31
0
39
0
210
0
220
0
230
1
0
LINE
5
18D
100
AcDbEntity
8
2
62
256
6
ByLayer
370
13
48
1
60
0
100
AcDbLine
10
88.825003
20
74.649261
30
0
11
88.824997
21
76.350739
31
0
39
0
210
0
220
0
230
1
0
LINE
5
18E
100
AcDbEntity
8
2
62
256
6
ByLayer
370
13
48
1
60
0
100
AcDbLine
10
0
20
75.5
30
0
11
3.174997
21
76.350739
31
0
39
0
210
0
220
0
230
1
0
LINE
5
18F
100
AcDbEntity
8
2
62
256
6
ByLayer
370
13
48
1
60
0
100
AcDbLine
10
0
20
75.5
30
0
11
3.175003
21
74.649261
31
0
39
0
210
0
220
0
230
1
0
LINE
5
190
100
AcDbEntity
8
2
62
256
6
ByLayer
370
13
48
1
60
0
100
AcDbLine
10
3.174997
20
76.350739
30
0
11
3.175003
21
74.649261
31
0
39
0
210
0
220
0
230
1
0
ENDBLK
5
192
100
AcDbEntity
8
0
100
AcDbBlockEnd
0
BLOCK
5
19F
100
AcDbEntity
8
0
100
AcDbBlockBegin
2
DimnDraft3D4
70
0
10
0
20
0
30
0
3
DimnDraft3D4
0
MTEXT
5
195
100
AcDbEntity
8
2
62
256
6
ByLayer
370
13
48
1
60
0
100
AcDbMText
10
120.521584
20
49.433209
30
0
210
0
220
0
230
1
1
\W0.8602;45%%d0'
40
4.5
41
0
44
1.084337
50
67.5
71
7
72
5
7
iso_b_vert
0
LINE
5
196
100
AcDbEntity
8
2
62
256
6
ByLayer
370
13
48
1
60
0
100
AcDbLine
10
110.10275
20
48.502346
30
0
11
118.21368
21
40.391416
31
0
39
0
210
0
220
0
230
1
0
LINE
5
197
100
AcDbEntity
8
2
62
256
6
ByLayer
370
13
48
1
60
0
100
AcDbLine
10
93.5875
20
68
30
0
11
129.64953
21
68
31
0
39
0
210
0
220
0
230
1
0
ARC
5
198
100
AcDbEntity
8
2
62
256
6
ByLayer
370
13
48
1
60
0
100
AcDbCircle
39
0
10
90.605096
20
68
30
0
40
35.8694341017009
210
0
220
0
230
1
100
AcDbArc
50
315
51
0
0
LINE
5
199
100
AcDbEntity
8
2
62
256
6
ByLayer
370
13
48
1
60
0
100
AcDbLine
10
115.968616
20
42.63648
30
0
11
117.548767
21
45.518751
31
0
39
0
210
0
220
0
230
1
0
LINE
5
19A
100
AcDbEntity
8
2
62
256
6
ByLayer
370
13
48
1
60
0
100
AcDbLine
10
115.968616
20
42.63648
30
0
11
118.778207
21
44.342528
31
0
39
0
210
0
220
0
230
1
0
LINE
5
19B
100
AcDbEntity
8
2
62
256
6
ByLayer
370
13
48
1
60
0
100
AcDbLine
10
117.548767
20
45.518751
30
0
11
118.778207
21
44.342528
31
0
39
0
210
0
220
0
230
1
0
LINE
5
19C
100
AcDbEntity
8
2
62
256
6
ByLayer
370
13
48
1
60
0
100
AcDbLine
10
126.47453
20
68
30
0
11
127.254853
21
64.806967
31
0
39
0
210
0
220
0
230
1
0
LINE
5
19D
100
AcDbEntity
8
2
62
256
6
ByLayer
370
13
48
1
60
0
100
AcDbLine
10
126.47453
20
68
30
0
11
125.553792
21
64.844585
31
0
39
0
210
0
220
0
230
1
0
LINE
5
19E
100
AcDbEntity
8
2
62
256
6
ByLayer
370
13
48
1
60
0
100
AcDbLine
10
127.254853
20
64.806967
30
0
11
125.553792
21
64.844585
31
0
39
0
210
0
220
0
230
1
0
ENDBLK
5
1A0
100
AcDbEntity
8
0
100
AcDbBlockEnd
0
ENDSEC
0
SECTION
2
ENTITIES
0
ARC
5
D6
100
AcDbEntity
8
1
62
256
6
ByLayer
370
18
48
1
60
0
100
AcDbCircle
39
0
10
-36.186138
20
50.8
30
0
40
0.8
210
0
220
0
230
-1
100
AcDbArc
50
234.340912
51
270
0
ARC
5
D7
100
AcDbEntity
8
1
62
256
6
ByLayer
370
18
48
1
60
0
100
AcDbCircle
39
0
10
-36.186138
20
-50.8
30
0
40
0.8
210
0
220
0
230
-1
100
AcDbArc
50
90
51
125.659088
0
ARC
5
D8
100
AcDbEntity
8
1
62
256
6
ByLayer
370
18
48
1
60
0
100
AcDbCircle
39
0
10
-39.5
20
54.15
30
0
40
4.00000000000001
210
0
220
0
230
-1
100
AcDbArc
50
195
51
270
0
ARC
5
D9
100
AcDbEntity
8
SK1
62
256
6
ByLayer
370
18
48
1
60
0
100
AcDbCircle
39
0
10
0.6
20
-38.9
30
0
40
1
210
0
220
0
230
-1
100
AcDbArc
50
113.578178
51
126.869898
0
ARC
5
DA
100
AcDbEntity
8
SK1
62
256
6
ByLayer
370
18
48
1
60
0
100
AcDbCircle
39
0
10
0.6
20
38.9
30
0
40
1
210
0
220
0
230
-1
100
AcDbArc
50
233.130102
51
246.421822
0
ARC
5
DB
100
AcDbEntity
8
1
62
256
6
ByLayer
370
18
48
1
60
0
100
AcDbCircle
39
0
10
48.2
20
-22.910174
30
0
40
10.2
210
0
220
0
230
1
100
AcDbArc
50
135
51
180
0
ELLIPSE
5
DC
100
AcDbEntity
8
1
62
256
6
ByLayer
370
18
48
1
60
0
100
AcDbEllipse
10
83.055438
20
47.368242
30
0
11
-3.18198051533948
21
3.18198051533945
31
0
210
0
220
0
230
1
40
0.990268
41
1.31187478478867
42
1.5707963267949
0
ELLIPSE
5
DD
100
AcDbEntity
8
1
62
256
6
ByLayer
370
18
48
1
60
0
100
AcDbEllipse
10
-7.094011
20
0
30
0
11
23.4185446994545
21
49.3543728818747
31
0
210
0
220
0
230
-1
40
0.341999
41
0.154598522698907
42
1.09444724969934
0
ELLIPSE
5
DE
100
AcDbEntity
8
1
62
256
6
ByLayer
370
18
48
1
60
0
100
AcDbEllipse
10
158.400096
20
-1.458714
30
0
11
514.907193442569
21
-5.41945129704195
31
0
210
0
220
0
230
-1
40
0.099675
41
-1.80630814356676
42
-1.80486388128207
0
ELLIPSE
5
DF
100
AcDbEntity
8
1
62
256
6
ByLayer
370
18
48
1
60
0
100
AcDbEllipse
10
77.725937
20
55.681395
30
0
11
0.106066327878426
21
-0.106067726117187
31
0
210
0
220
0
230
-1
40
0.127643
41
1.57074468838448
42
-3.13000876366833
0
ELLIPSE
5
E0
100
AcDbEntity
8
1
62
256
6
ByLayer
370
18
48
1
60
0
100
AcDbEllipse
10
32.369154
20
5.076802
30
0
11
0.0712703720551543
21
7.348896184316
31
0
210
0
220
0
230
-1
40
0.079216
41
1.92358890783951
42
3.05713367730669
0
ELLIPSE
5
E1
100
AcDbEntity
8
1
62
256
6
ByLayer
370
18
48
1
60
0
100
AcDbEllipse
10
32.369154
20
5.076802
30
0
11
0.0712703720551543
21
7.348896184316
31
0
210
0
220
0
230
-1
40
0.079216
41
-2.23439544173972
42
1.13399349667888
0
ELLIPSE
5
E2
100
AcDbEntity
8
1
62
256
6
ByLayer
370
18
48
1
60
0
100
AcDbEllipse
10
74.384867
20
53.337853
30
0
11
2.59696208859572
21
-2.5969620885957
31
0
210
0
220
0
230
1
40
0.990268
41
1.5707963267949
42
2.79238493704828
0
ELLIPSE
5
E3
100
AcDbEntity
8
1
62
256
6
ByLayer
370
18
48
1
60
0
100
AcDbEllipse
10
39.113477
20
55.906695
30
0
11
0.399429358573755
21
-40.8444371344374
31
0
210
3.85792749614476E-15
220
2.38493180044498E-17
230
1
40
0.097928
41
-0.441547087429928
42
-0.0995321306714482
0
ELLIPSE
5
E4
100
AcDbEntity
8
1
62
256
6
ByLayer
370
18
48
1
60
0
100
AcDbEllipse
10
75.335002
20
53.722302
30
0
11
2.38601206515914
21
-2.38601206515912
31
0
210
0
220
0
230
1
40
0.990268
41
-2.76729849497584
42
-1.5707963267949
0
ELLIPSE
5
E5
100
AcDbEntity
8
1
62
256
6
ByLayer
370
18
48
1
60
0
100
AcDbEllipse
10
25.312541
20
0
30
0
11
-3.71974179973499E-16
21
-2.02499999999974
31
0
210
0
220
0
230
1
40
0.97437
41
0
42
6.28318530717959
0
ELLIPSE
5
E6
100
AcDbEntity
8
1
62
256
6
ByLayer
370
18
48
1
60
0
100
AcDbEllipse
10
86.375769
20
44.047912
30
0
11
-3.18198051533947
21
3.18198051533945
31
0
210
0
220
0
230
1
40
0.990268
41
1.57079632679489
42
1.82971786880111
0
ELLIPSE
5
E7
100
AcDbEntity
8
1
62
256
6
ByLayer
370
18
48
1
60
0
100
AcDbEllipse
10
74.369934
20
53.32292
30
0
11
-2.49090325841971
21
2.49090325841969
31
0
210
0
220
0
230
1
40
0.990268
41
-1.57079632679489
42
-0.283626983986677
0
ELLIPSE
5
E8
100
AcDbEntity
8
1
62
256
6
ByLayer
370
18
48
1
60
0
100
AcDbEllipse
10
32.369154
20
5.076802
30
0
11
0.0630468679568728
21
6.50094663352057
31
0
210
0
220
0
230
-1
40
0.079216
41
-2.83702431294149
42
-2.62342275922802
0
ELLIPSE
5
E9
100
AcDbEntity
8
1
62
256
6
ByLayer
370
18
48
1
60
0
100
AcDbEllipse
10
-7.094011
20
0
30
0
11
23.4185446994527
21
-49.3543728818724
31
0
210
0
220
0
230
-1
40
0.341999
41
-1.09444724969938
42
-0.154598522698914
0
ELLIPSE
5
EA
100
AcDbEntity
8
1
62
256
6
ByLayer
370
18
48
1
60
0
100
AcDbEllipse
10
75.727995
20
54.680981
30
0
11
2.48460902628671
21
-2.48460902628669
31
0
210
0
220
0
230
1
40
0.990268
41
1.5707963267949
42
-2.46544990020782
0
ELLIPSE
5
EB
100
AcDbEntity
8
1
62
256
6
ByLayer
370
18
48
1
60
0
100
AcDbEllipse
10
25.312541
20
0
30
0
11
-4.59227382683377E-16
21
-2.49999999999992
31
0
210
0
220
0
230
1
40
0.97437
41
0
42
1.57079637581093
0
ELLIPSE
5
EC
100
AcDbEntity
8
1
62
256
6
ByLayer
370
18
48
1
60
0
100
AcDbEllipse
10
25.312541
20
0
30
0
11
-4.59227382683377E-16
21
-2.49999999999992
31
0
210
0
220
0
230
1
40
0.97437
41
1.57079617974679
42
3.14159255297907
0
ELLIPSE
5
ED
100
AcDbEntity
8
1
62
256
6
ByLayer
370
18
48
1
60
0
100
AcDbEllipse
10
39.094011
20
0
30
0
11
23.4185446994546
21
-49.3543728818748
31
0
210
0
220
0
230
-1
40
0.341999
41
2.04714540389045
42
2.98699413089088
0
ELLIPSE
5
EE
100
AcDbEntity
8
1
62
256
6
ByLayer
370
18
48
1
60
0
100
AcDbEllipse
10
39.094011
20
0
30
0
11
23.4185446994548
21
49.3543728818752
31
0
210
0
220
0
230
-1
40
0.341999
41
-2.98699413089089
42
-2.04714540389045
0
ELLIPSE
5
EF
100
AcDbEntity
8
1
62
256
6
ByLayer
370
18
48
1
60
0
100
AcDbEllipse
10
34.974887
20
0
30
0
11
-3.06151588455594E-15
21
50
31
0
210
0
220
0
230
-1
40
0.087489
41
-2.86505390991676
42
-0.276538743673042
0
ELLIPSE
5
F0
100
AcDbEntity
8
1
62
256
6
ByLayer
370
18
48
1
60
0
100
AcDbEllipse
10
89.965321
20
50.820149
30
0
11
3.18198051533948
21
-3.18198051533945
31
0
210
0
220
0
230
1
40
0.990268
41
-0.452781750117551
42
-2.71549418595294E-06
0
ELLIPSE
5
F1
100
AcDbEntity
8
1
62
256
6
ByLayer
370
18
48
1
60
0
100
AcDbEllipse
10
90.476623
20
49.626844
30
0
11
-3.18198051533948
21
3.18198051533945
31
0
210
0
220
0
230
1
40
0.990268
41
-1.0573679938706E-06
42
0.236716128795297
0
ELLIPSE
5
F2
100
AcDbEntity
8
1
62
256
6
ByLayer
370
18
48
1
60
0
100
AcDbEllipse
10
90.414723
20
50.205338
30
0
11
3.04055915910217
21
-3.04055915910214
31
0
210
0
220
0
230
1
40
0.990268
41
-3.1415679521296
42
-2.9107299697842
0
ELLIPSE
5
F3
100
AcDbEntity
8
1
62
256
6
ByLayer
370
18
48
1
60
0
100
AcDbEllipse
10
29.401009
20
3.541126
30
0
11
-2.64226324214918
21
5.10695065172822
31
0
210
0
220
0
230
1
40
0.154722
41
-2.79507680074093
42
-2.58147575922895
0
ELLIPSE
5
F4
100
AcDbEntity
8
1
62
256
6
ByLayer
370
18
48
1
60
0
100
AcDbEllipse
10
34.648368
20
6.256034
30
0
11
1.14881010528225
21
-2.22041332683836
31
0
210
0
220
0
230
1
40
0.154722
41
0
42
3.141591978493
0
ELLIPSE
5
F5
100
AcDbEntity
8
1
62
256
6
ByLayer
370
18
48
1
60
0
100
AcDbEllipse
10
34.779988
20
6.324133
30
0
11
-1.07988149896532
21
2.08718852722806
31
0
210
0
220
0
230
1
40
0.154722
41
-2.98441444109673
42
-0.157275681815409
0
ELLIPSE
5
F6
100
AcDbEntity
8
1
62
256
6
ByLayer
370
18
48
1
60
0
100
AcDbEllipse
10
89.134031
20
49.136555
30
0
11
-4.06586399182267
21
4.06586399182263
31
0
210
0
220
0
230
1
40
0.990268
41
-2.25446084726976
42
-2.24415083052454
0
ELLIPSE
5
F7
100
AcDbEntity
8
1
62
256
6
ByLayer
370
18
48
1
60
0
100
AcDbEllipse
10
89.134031
20
49.136555
30
0
11
-4.06586399182267
21
4.06586399182263
31
0
210
0
220
0
230
1
40
0.990268
41
-0.982519363561753
42
-0.887168663301418
0
ELLIPSE
5
F8
100
AcDbEntity
8
1
62
256
6
ByLayer
370
18
48
1
60
0
100
AcDbEllipse
10
25.08759
20
0
30
0
11
-1.10214571844014E-16
21
-0.6
31
0
210
0
220
0
230
1
40
0.97437
41
-3.14159206999769
42
-2.51363722984569E-16
0
ELLIPSE
5
F9
100
AcDbEntity
8
1
62
256
6
ByLayer
370
18
48
1
60
0
100
AcDbEllipse
10
25.08759
20
0
30
0
11
-1.83690953073357E-16
21
-1
31
0
210
0
220
0
230
1
40
0.97437
41
0.11564954289627
42
1.57079617974693
0
ELLIPSE
5
FA
100
AcDbEntity
8
1
62
256
6
ByLayer
370
18
48
1
60
0
100
AcDbEllipse
10
25.08759
20
0
30
0
11
-1.83690953073357E-16
21
-1
31
0
210
0
220
0
230
1
40
0.97437
41
1.57079617974692
42
3.02594280896869
0
ELLIPSE
5
FB
100
AcDbEntity
8
1
62
256
6
ByLayer
370
18
48
1
60
0
100
AcDbEllipse
10
90.395754
20
35.805362
30
0
11
1.68379802270047
21
-1.68379802270046
31
0
210
0
220
0
230
1
40
0.990268
41
-0.899428011135006
42
6.02646253717114E-15
0
ELLIPSE
5
FC
100
AcDbEntity
8
1
62
256
6
ByLayer
370
18
48
1
60
0
100
AcDbEllipse
10
75.802838
20
50.398279
30
0
11
1.68379802270047
21
-1.68379802270046
31
0
210
0
220
0
230
1
40
0.990268
41
-3.14159265358979
42
-2.54650636592042
0
ELLIPSE
5
FD
100
AcDbEntity
8
1
62
256
6
ByLayer
370
18
48
1
60
0
100
AcDbEllipse
10
90.324746
20
50.32727
30
0
11
-3.22440692221067
21
3.22440692221064
31
0
210
0
220
0
230
1
40
0.990268
41
-3.0188932538565
42
-2.46921267335894
0
ELLIPSE
5
FE
100
AcDbEntity
8
1
62
256
6
ByLayer
370
18
48
1
60
0
100
AcDbEllipse
10
90.324746
20
50.32727
30
0
11
-3.22440692221067
21
3.22440692221064
31
0
210
0
220
0
230
1
40
0.990268
41
-0.903815931881724
42
-0.122639276666899
0
ELLIPSE
5
FF
100
AcDbEntity
8
1
62
256
6
ByLayer
370
18
48
1
60
0
100
AcDbEllipse
10
70.344138
20
42.107639
30
0
11
-1.82079996155537
21
1.82079996155535
31
0
210
0
220
0
230
1
40
0.990268
41
-0.185106554305383
42
1.36052409309191E-06
0
ELLIPSE
5
100
100
AcDbEntity
8
1
62
256
6
ByLayer
370
18
48
1
60
0
100
AcDbEllipse
10
70.344138
20
42.107639
30
0
11
-1.82079996155537
21
1.82079996155535
31
0
210
0
220
0
230
1
40
0.990268
41
-2.99782615070575
42
-2.67723341896529
0
ELLIPSE
5
101
100
AcDbEntity
8
1
62
256
6
ByLayer
370
18
48
1
60
0
100
AcDbEllipse
10
89.826614
20
34.555631
30
0
11
-0.9192388155425
21
0.919238815542492
31
0
210
0
220
0
230
1
40
0.990268
41
2.44842932909428
42
2.88680397381766
0
ELLIPSE
5
102
100
AcDbEntity
8
1
62
256
6
ByLayer
370
18
48
1
60
0
100
AcDbEllipse
10
70.206364
20
41.969865
30
0
11
1.82079996155537
21
-1.82079996155535
31
0
210
0
220
0
230
1
40
0.990268
41
0.188967457240901
42
0.790287995965227
0
ELLIPSE
5
103
100
AcDbEntity
8
1
62
256
6
ByLayer
370
18
48
1
60
0
100
AcDbEllipse
10
70.206364
20
41.969865
30
0
11
1.82079996155537
21
-1.82079996155535
31
0
210
0
220
0
230
1
40
0.990268
41
0.790287995965227
42
3.10338389601467
0
ELLIPSE
5
104
100
AcDbEntity
8
1
62
256
6
ByLayer
370
18
48
1
60
0
100
AcDbEllipse
10
90.703398
20
51.558226
30
0
11
3.18198051533948
21
-3.18198051533945
31
0
210
0
220
0
230
1
40
0.990268
41
-1.55656780623289
42
0.788622935355395
0
ELLIPSE
5
105
100
AcDbEntity
8
1
62
256
6
ByLayer
370
18
48
1
60
0
100
AcDbEllipse
10
90.959049
20
50.961573
30
0
11
3.0334880912903
21
-3.03348809129028
31
0
210
0
220
0
230
1
40
0.990268
41
-2.21285105210494
42
-1.69668647236236
0
ELLIPSE
5
106
100
AcDbEntity
8
1
62
256
6
ByLayer
370
18
48
1
60
0
100
AcDbEllipse
10
91.263905
20
50.414126
30
0
11
-2.8284271247462
21
2.82842712474618
31
0
210
0
220
0
230
1
40
0.990268
41
-1.54777967576517
42
0.779834804887669
0
ELLIPSE
5
107
100
AcDbEntity
8
1
62
256
6
ByLayer
370
18
48
1
60
0
100
AcDbEllipse
10
91.2147
20
50.364921
30
0
11
3.18198051533948
21
-3.18198051533945
31
0
210
0
220
0
230
1
40
0.990268
41
1.5850248473569
42
-2.3529697182344
0
ELLIPSE
5
108
100
AcDbEntity
8
1
62
256
6
ByLayer
370
18
48
1
60
0
100
AcDbEllipse
10
90.959049
20
50.961573
30
0
11
3.0334880912903
21
-3.03348809129028
31
0
210
0
220
0
230
1
40
0.990268
41
0.92874160148486
42
1.44490618122743
0
ELLIPSE
5
109
100
AcDbEntity
8
1
62
256
6
ByLayer
370
18
48
1
60
0
100
AcDbEllipse
10
91.008254
20
51.010778
30
0
11
-2.67993470069703
21
2.67993470069701
31
0
210
0
220
0
230
1
40
0.990268
41
0.937988256332492
42
1.4356595263798
0
ELLIPSE
5
10A
100
AcDbEntity
8
1
62
256
6
ByLayer
370
18
48
1
60
0
100
AcDbEllipse
10
91.008254
20
51.010778
30
0
11
-2.67993470069703
21
2.67993470069701
31
0
210
0
220
0
230
1
40
0.990268
41
-2.2036043972573
42
-1.70593312721
0
ELLIPSE
5
10B
100
AcDbEntity
8
1
62
256
6
ByLayer
370
18
48
1
60
0
100
AcDbEllipse
10
90.752603
20
51.607431
30
0
11
-2.8284271247462
21
2.82842712474618
31
0
210
0
220
0
230
1
40
0.990268
41
1.59381297782462
42
-2.36175784870212
0
ELLIPSE
5
10C
100
AcDbEntity
8
1
62
256
6
ByLayer
370
18
48
1
60
0
100
AcDbEllipse
10
70.883919
20
42.647419
30
0
11
-1.82079996155537
21
1.82079996155535
31
0
210
0
220
0
230
1
40
0.990268
41
0.464359234624486
42
0.862090996891211
0
ELLIPSE
5
10D
100
AcDbEntity
8
1
62
256
6
ByLayer
370
18
48
1
60
0
100
AcDbEllipse
10
70.829793
20
42.593294
30
0
11
4.24264068711931
21
-4.24264068711927
31
0
210
0
220
0
230
1
40
0.990268
41
0
42
6.28318530717959
0
ELLIPSE
5
10E
100
AcDbEntity
8
1
62
256
6
ByLayer
370
18
48
1
60
0
100
AcDbEllipse
10
70.883919
20
42.647419
30
0
11
-1.82079996155537
21
1.82079996155535
31
0
210
0
220
0
230
1
40
0.990268
41
-1.6300358677687
42
-1.23230410550198
0
ELLIPSE
5
10F
100
AcDbEntity
8
1
62
256
6
ByLayer
370
18
48
1
60
0
100
AcDbEllipse
10
70.883919
20
42.647419
30
0
11
-1.82079996155537
21
1.82079996155535
31
0
210
0
220
0
230
1
40
0.990268
41
-0.582838316572126
42
-0.185106554305386
0
ELLIPSE
5
110
100
AcDbEntity
8
1
62
256
6
ByLayer
370
18
48
1
60
0
100
AcDbEllipse
10
70.883919
20
42.647419
30
0
11
-1.82079996155537
21
1.82079996155535
31
0
210
0
220
0
230
1
40
0.990268
41
-2.67723341896529
42
-2.27950165669859
0
ELLIPSE
5
111
100
AcDbEntity
8
1
62
256
6
ByLayer
370
18
48
1
60
0
100
AcDbEllipse
10
70.883919
20
42.647419
30
0
11
-1.82079996155537
21
1.82079996155535
31
0
210
0
220
0
230
1
40
0.990268
41
1.51155678582108
42
1.90928854808781
0
ELLIPSE
5
112
100
AcDbEntity
8
1
62
256
6
ByLayer
370
18
48
1
60
0
100
AcDbEllipse
10
70.905077
20
42.668578
30
0
11
3.70170399951159
21
-3.70170399951156
31
0
210
0
220
0
230
1
40
0.990268
41
0
42
6.28318530717959
0
ELLIPSE
5
113
100
AcDbEntity
8
1
62
256
6
ByLayer
370
18
48
1
60
0
100
AcDbEllipse
10
70.905077
20
42.668578
30
0
11
2.08412010890456
21
-2.08412010890454
31
0
210
0
220
0
230
1
40
0.990268
41
0
42
6.28318530717959
0
ELLIPSE
5
114
100
AcDbEntity
8
1
62
256
6
ByLayer
370
18
48
1
60
0
100
AcDbEllipse
10
70.344138
20
42.107639
30
0
11
-1.82079996155537
21
1.82079996155535
31
0
210
0
220
0
230
1
40
0.990268
41
-1.23230410550199
42
-0.582838316572131
0
ELLIPSE
5
115
100
AcDbEntity
8
1
62
256
6
ByLayer
370
18
48
1
60
0
100
AcDbEllipse
10
70.344138
20
42.107639
30
0
11
-1.82079996155537
21
1.82079996155535
31
0
210
0
220
0
230
1
40
0.990268
41
-2.2795016566986
42
-1.6300358677687
0
ELLIPSE
5
116
100
AcDbEntity
8
1
62
256
6
ByLayer
370
18
48
1
60
0
100
AcDbEllipse
10
70.883919
20
42.647419
30
0
11
-1.82079996155537
21
1.82079996155535
31
0
210
0
220
0
230
1
40
0.990268
41
2.55875433701765
42
2.9564860992844
0
ELLIPSE
5
117
100
AcDbEntity
8
1
62
256
6
ByLayer
370
18
48
1
60
0
100
AcDbEllipse
10
91.105877
20
51.108401
30
0
11
-3.22440692221067
21
3.22440692221064
31
0
210
0
220
0
230
1
40
0.990268
41
0
42
6.28318530717959
0
ELLIPSE
5
118
100
AcDbEntity
8
1
62
256
6
ByLayer
370
18
48
1
60
0
100
AcDbEllipse
10
105.627785
20
51.037393
30
0
11
-1.68379802270047
21
1.68379802270046
31
0
210
0
220
0
230
1
40
0.990268
41
-3.14159265358978
42
-1.57079632679491
0
ELLIPSE
5
119
100
AcDbEntity
8
1
62
256
6
ByLayer
370
18
48
1
60
0
100
AcDbEllipse
10
91.034868
20
65.630309
30
0
11
-1.68379802270047
21
1.68379802270046
31
0
210
0
220
0
230
1
40
0.990268
41
-1.5707963267949
42
1.20529250743423E-14
0
ELLIPSE
5
11A
100
AcDbEntity
8
1
62
256
6
ByLayer
370
18
48
1
60
0
100
AcDbEllipse
10
76.583969
20
51.17941
30
0
11
-1.68379802270047
21
1.68379802270046
31
0
210
0
220
0
230
1
40
0.990268
41
0
42
1.5707963267949
0
ELLIPSE
5
11B
100
AcDbEntity
8
1
62
256
6
ByLayer
370
18
48
1
60
0
100
AcDbEllipse
10
91.176886
20
36.586494
30
0
11
-1.68379802270047
21
1.68379802270046
31
0
210
0
220
0
230
1
40
0.990268
41
1.5707963267949
42
3.14159265358979
0
ELLIPSE
5
11C
100
AcDbEntity
8
1
62
256
6
ByLayer
370
18
48
1
60
0
100
AcDbEllipse
10
25.312541
20
0
30
0
11
-3.67381906146713E-16
21
-2
31
0
210
0
220
0
230
1
40
0.97437
41
0
42
6.28318530717959
0
ELLIPSE
5
11D
100
AcDbEntity
8
1
62
256
6
ByLayer
370
18
48
1
60
0
100
AcDbEllipse
10
25.312541
20
0
30
0
11
-1.83690953073357E-16
21
-1
31
0
210
0
220
0
230
1
40
0.97437
41
0
42
6.28318530717959
0
ELLIPSE
5
11E
100
AcDbEntity
8
1
62
256
6
ByLayer
370
18
48
1
60
0
100
AcDbEllipse
10
25.155076
20
0
30
0
11
-1.10214571844014E-16
21
-0.6
31
0
210
0
220
0
230
1
40
0.97437
41
0
42
6.28318530717959
0
POINT
5
6C
100
AcDbEntity
8
80
62
256
6
ByLayer
370
18
48
1
60
0
100
AcDbPoint
10
0
20
0
30
0
39
0
210
0
220
0
230
1
50
360
0
POINT
5
6E
100
AcDbEntity
8
81
62
256
6
ByLayer
370
18
48
1
60
0
100
AcDbPoint
10
92
20
68
30
0
39
0
210
0
220
0
230
1
50
360
0
POINT
5
70
100
AcDbEntity
8
1
62
256
6
ByLayer
370
18
48
1
60
0
100
AcDbPoint
10
0
20
0
30
0
39
0
210
0
220
0
230
1
50
360
0
SPLINE
5
11F
100
AcDbEntity
8
SK1
62
256
6
ByLayer
370
18
48
1
60
0
100
AcDbSpline
70
4
71
3
72
13
73
9
40
0
40
0
40
0
40
0
40
0.239456597695643
40
0.368360333413583
40
0.499999646097039
40
0.631639017851843
40
0.760542916288981
40
1
40
1
40
1
40
1
41
1
10
-2.20000000000005
20
-36.020098714425
30
0
41
1
10
-2.19909199362434
20
-35.9940411437021
30
0
41
1
10
-2.19103284825087
20
-35.9566684187022
30
0
41
1
10
-2.16563593150661
20
-35.9104490513904
30
0
41
1
10
-2.13886379933911
20
-35.8791673697466
30
0
41
1
10
-2.106277140956
20
-35.8539998944635
30
0
41
1
10
-2.05884066056893
20
-35.8309559959592
30
0
41
1
10
-2.02111031829256
20
-35.8247837166445
30
0
41
1
10
-1.99503997793934
20
-35.8251853523287
30
0
0
SPLINE
5
120
100
AcDbEntity
8
SK1
62
256
6
ByLayer
370
18
48
1
60
0
100
AcDbSpline
70
4
71
3
72
13
73
9
40
0
40
0
40
0
40
0
40
0.239457532542601
40
0.368361585146354
40
0.500001016451704
40
0.631640278504613
40
0.760543864569812
40
1
40
1
40
1
40
1
41
1
10
-1.99503997793934
20
35.8251861518663
30
0
41
1
10
-2.02111030872348
20
35.8247845119233
30
0
41
1
10
-2.0588406423278
20
35.8309567669304
30
0
41
1
10
-2.10627712748959
20
35.85400056933
30
0
41
1
10
-2.13886378678419
20
35.8791679394555
30
0
41
1
10
-2.16563592202701
20
35.9104494932213
30
0
41
1
10
-2.19103284106418
20
35.9566686669142
30
0
41
1
10
-2.19909198641744
20
35.9940412511456
30
0
41
1
10
-2.20000000000005
20
36.0200987271898
30
0
0
SPLINE
5
121
100
AcDbEntity
8
SK1
62
256
6
ByLayer
370
18
48
1
60
0
100
AcDbSpline
70
4
71
2
72
6
73
3
40
0
40
0
40
0
40
1
40
1
40
1
41
1
10
-58.0000000000001
20
-34.5974182144316
30
0
41
1
10
-30.1000000000006
20
-35.2979600359712
30
0
41
1
10
-2.20000000000005
20
-35.9985019194103
30
0
0
SPLINE
5
122
100
AcDbEntity
8
SK1
62
256
6
ByLayer
370
18
48
1
60
0
100
AcDbSpline
70
4
71
2
72
6
73
3
40
0
40
0
40
0
40
1
40
1
40
1
41
1
10
-2.20000000000005
20
35.9985021134432
30
0
41
1
10
-30.1000000000001
20
35.2979624159373
30
0
41
1
10
-58
20
34.5974227787246
30
0
0
SPLINE
5
123
100
AcDbEntity
8
SK1
62
256
6
ByLayer
370
18
48
1
60
0
100
AcDbSpline
70
4
71
2
72
6
73
3
40
0
40
0
40
0
40
1
40
1
40
1
41
1
10
-1.99503997793934
20
-35.8251729954496
30
0
41
1
10
-1.19500843340734
20
-35.8452725233881
30
0
41
1
10
-0.394976888875334
20
-35.8653720513261
30
0
0
SPLINE
5
124
100
AcDbEntity
8
SK1
62
256
6
ByLayer
370
18
48
1
60
0
100
AcDbSpline
70
4
71
2
72
6
73
3
40
0
40
0
40
0
40
1
40
1
40
1
41
1
10
-0.394976888875334
20
35.8653726648781
30
0
41
1
10
-1.19500843340734
20
35.845273220757
30
0
41
1
10
-1.99503997793934
20
35.8251737766339
30
0
0
SPLINE
5
125
100
AcDbEntity
8
SK1
62
256
6
ByLayer
370
18
48
1
60
0
100
AcDbSpline
70
4
71
2
72
6
73
3
40
0
40
0
40
0
40
1
40
1
40
1
41
1
10
-0.255719760959465
20
35.8160480706945
30
0
41
1
10
-0.298383114298474
20
35.8949960612986
30
0
41
1
10
-0.394976888875334
20
35.8653850534762
30
0
0
SPLINE
5
126
100
AcDbEntity
8
SK1
62
256
6
ByLayer
370
18
48
1
60
0
100
AcDbSpline
70
4
71
3
72
15
73
11
40
0
40
0
40
0
40
0
40
0.0431519861050252
40
0.221251549907245
40
0.38878070995227
40
0.544416936525896
40
0.686836803029803
40
0.814708003247078
40
0.926702152019838
40
1
40
1
40
1
40
1
41
1
10
-0.303542371732817
20
-30.3230515924084
30
0
41
1
10
-0.30255860943322
20
-30.2236255303109
30
0
41
1
10
-0.297511026084777
20
-29.7044723109736
30
0
41
1
10
-0.288589433499624
20
-28.671433161595
30
0
41
1
10
-0.277071290094057
20
-27.2604897539532
30
0
41
1
10
-0.266337672012327
20
-25.8452466779752
30
0
41
1
10
-0.256475067980716
20
-24.4731672601462
30
0
41
1
10
-0.247510695439502
20
-23.1769372477374
30
0
41
1
10
-0.240055909396688
20
-22.0714261561145
30
0
41
1
10
-0.235394926116896
20
-21.3935450568753
30
0
41
1
10
-0.233523737468573
20
-21.1218937131637
30
0
0
SPLINE
5
127
100
AcDbEntity
8
SK1
62
256
6
ByLayer
370
18
48
1
60
0
100
AcDbSpline
70
4
71
2
72
6
73
3
40
0
40
0
40
0
40
1
40
1
40
1
41
1
10
-60
20
-33.4633340188487
30
0
41
1
10
-59.0000000015329
20
-34.0406784545941
30
0
41
1
10
-58.0000000000001
20
-34.6180228183431
30
0
0
SPLINE
5
128
100
AcDbEntity
8
SK1
62
256
6
ByLayer
370
18
48
1
60
0
100
AcDbSpline
70
4
71
2
72
6
73
3
40
0
40
0
40
0
40
1
40
1
40
1
41
1
10
-58.0000000000001
20
34.6180277609945
30
0
41
1
10
-58.9999999990912
20
34.0406853811666
30
0
41
1
10
-60
20
33.4633429309407
30
0
0
SPLINE
5
129
100
AcDbEntity
8
SK1
62
256
6
ByLayer
370
18
48
1
60
0
100
AcDbSpline
70
4
71
3
72
316
73
312
40
0
40
0
40
0
40
0
40
0.0001689152212457
40
0.0036889515460513
40
0.007208987870857
40
0.0107290241956626
40
0.0142490605204683
40
0.0177690968452739
40
0.0212891331700796
40
0.0248091694948852
40
0.0283292058196909
40
0.0318492421444965
40
0.0353692784693022
40
0.0388893147941078
40
0.0424093511189135
40
0.0459293874437191
40
0.0494494237685248
40
0.0529694600933305
40
0.0564894964181361
40
0.0600095327429418
40
0.0635295690677474
40
0.0670496053925531
40
0.0705696417173587
40
0.0740896780421644
40
0.07760971436697
40
0.0846497870165813
40
0.088169823341387
40
0.0899298415037898
40
0.0916898596661926
40
0.0952098959909983
40
0.0987299323158039
40
0.105770004965415
40
0.109290041290221
40
0.112810077615026
40
0.119850150264638
40
0.126890222914249
40
0.130410259239055
40
0.13393029556386
40
0.137450331888666
40
0.140970368213472
40
0.148010440863083
40
0.155050513512694
40
0.1585705498375
40
0.162090586162306
40
0.169130658811917
40
0.176170731461528
40
0.18321080411114
40
0.186730840435945
40
0.190250876760751
40
0.193770913085557
40
0.197290949410362
40
0.204331022059973
40
0.211371094709585
40
0.21489113103439
40
0.218411167359196
40
0.221931203684002
40
0.225451240008807
40
0.232491312658419
40
0.23953138530803
40
0.246571457957641
40
0.250091494282447
40
0.253611530607253
40
0.260651603256864
40
0.267691675906475
40
0.271211712231281
40
0.274731748556087
40
0.278251784880892
40
0.281771821205698
40
0.288811893855309
40
0.292331930180115
40
0.295851966504921
40
0.299372002829726
40
0.302892039154532
40
0.309932111804143
40
0.313452148128949
40
0.316972184453754
40
0.32049222077856
40
0.324012257103366
40
0.331052329752977
40
0.334572366077783
40
0.338092402402588
40
0.341612438727394
40
0.3451324750522
40
0.346892493214602
40
0.348652511377005
40
0.352172547701811
40
0.359212620351422
40
0.362732656676228
40
0.366252693001034
40
0.369772729325839
40
0.373292765650645
40
0.37681280197545
40
0.380332838300256
40
0.383852874625062
40
0.387372910949867
40
0.390892947274673
40
0.394412983599479
40
0.397933019924284
40
0.40145305624909
40
0.403213074411493
40
0.404973092573896
40
0.408493128898701
40
0.412013165223507
40
0.415533201548313
40
0.419053237873118
40
0.422573274197924
40
0.424333292360327
40
0.42609331052273
40
0.429613346847535
40
0.431373365009938
40
0.433133383172341
40
0.436653419497146
40
0.440173455821952
40
0.441933473984355
40
0.443693492146758
40
0.447213528471563
40
0.450733564796369
40
0.452493582958772
40
0.454253601121175
40
0.456013619283578
40
0.45777363744598
40
0.459533655608383
40
0.461293673770786
40
0.462173682851988
40
0.463053691933189
40
0.464813710095592
40
0.465693719176793
40
0.466573728257995
40
0.468333746420397
40
0.4700937645828
40
0.470973773664002
40
0.471853782745203
40
0.472733791826405
40
0.473613800907606
40
0.474493809988807
40
0.475373819070009
40
0.47625382815121
40
0.477133837232411
40
0.478893855394814
40
0.480653873557217
40
0.48241389171962
40
0.484173909882023
40
0.485933928044426
40
0.486813937125627
40
0.487693946206828
40
0.48857395528803
40
0.489453964369231
40
0.491213982531634
40
0.492974000694037
40
0.493854009775238
40
0.49473401885644
40
0.495614027937641
40
0.496494037018843
40
0.498254055181245
40
0.499134064262447
40
0.500014073343648
40
0.50089408242485
40
0.501774091506051
40
0.503534109668454
40
0.504414118749655
40
0.505294127830857
40
0.506174136912058
40
0.50705414599326
40
0.508814164155663
40
0.510574182318065
40
0.511454191399267
40
0.512334200480468
40
0.51321420956167
40
0.514094218642871
40
0.515854236805274
40
0.516734245886475
40
0.517614254967677
40
0.519374273130079
40
0.520254282211281
40
0.521134291292482
40
0.522014300373684
40
0.522894309454885
40
0.523774318536086
40
0.524654327617288
40
0.526414345779691
40
0.527294354860892
40
0.528174363942093
40
0.529054373023295
40
0.529934382104496
40
0.531694400266899
40
0.533454418429302
40
0.534334427510503
40
0.535214436591705
40
0.536974454754108
40
0.537854463835309
40
0.53873447291651
40
0.540494491078913
40
0.542254509241316
40
0.544014527403719
40
0.545774545566122
40
0.547534563728525
40
0.549294581890927
40
0.552814618215733
40
0.556334654540539
40
0.558094672702942
40
0.559854690865344
40
0.56337472719015
40
0.566894763514956
40
0.568654781677359
40
0.570414799839761
40
0.573934836164567
40
0.577454872489373
40
0.580974908814178
40
0.584494945138984
40
0.58801498146379
40
0.591535017788595
40
0.595055054113401
40
0.598575090438207
40
0.602095126763012
40
0.605615163087818
40
0.609135199412624
40
0.612655235737429
40
0.616175272062235
40
0.61969530838704
40
0.623215344711846
40
0.624975362874249
40
0.626735381036652
40
0.630255417361457
40
0.633775453686263
40
0.637295490011069
40
0.640815526335874
40
0.64433556266068
40
0.647855598985486
40
0.651375635310291
40
0.653135653472694
40
0.654895671635097
40
0.658415707959903
40
0.661935744284708
40
0.665455780609514
40
0.66897581693432
40
0.676015889583931
40
0.679535925908737
40
0.683055962233542
40
0.686575998558348
40
0.690096034883154
40
0.697136107532765
40
0.700656143857571
40
0.704176180182376
40
0.707696216507182
40
0.711216252831987
40
0.718256325481599
40
0.721776361806404
40
0.72529639813121
40
0.728816434456016
40
0.732336470780821
40
0.739376543430433
40
0.746416616080044
40
0.74993665240485
40
0.753456688729655
40
0.760496761379267
40
0.767536834028878
40
0.774576906678489
40
0.778096943003295
40
0.7816169793281
40
0.785137015652906
40
0.788657051977712
40
0.795697124627323
40
0.802737197276934
40
0.80625723360174
40
0.809777269926546
40
0.813297306251351
40
0.816817342576157
40
0.823857415225768
40
0.83089748787538
40
0.837937560524991
40
0.841457596849796
40
0.844977633174602
40
0.852017705824214
40
0.859057778473825
40
0.86257781479863
40
0.866097851123436
40
0.869617887448242
40
0.873137923773047
40
0.880177996422659
40
0.88721806907227
40
0.890738105397076
40
0.894258141721881
40
0.901298214371493
40
0.904818250696298
40
0.908338287021104
40
0.910098305183507
40
0.91185832334591
40
0.915378359670715
40
0.922418432320327
40
0.925938468645132
40
0.929458504969938
40
0.932978541294744
40
0.936498577619549
40
0.940018613944355
40
0.943538650269161
40
0.947058686593966
40
0.950578722918772
40
0.954098759243577
40
0.957618795568383
40
0.964658868217994
40
0.9681789045428
40
0.971698940867606
40
0.975218977192411
40
0.978739013517217
40
0.982259049842023
40
0.985779086166828
40
0.989299122491634
40
0.99281915881644
40
0.996339195141245
40
0.999859231466051
40
1
40
1
40
1
40
1
41
1
10
-2.20000000000005
20
-35.9984815551196
30
0
41
1
10
-2.20000000000005
20
-35.9982416403156
30
0
41
1
10
-2.20000000000005
20
-35.9929593990274
30
0
41
1
10
-2.20000000000005
20
-35.9808152586154
30
0
41
1
10
-2.20000000000005
20
-35.9580337844422
30
0
41
1
10
-2.20000000000005
20
-35.930357415585
30
0
41
1
10
-2.20000000000002
20
-35.8978764072393
30
0
41
1
10
-2.20000000000002
20
-35.8606772012186
30
0
41
1
10
-2.20000000000005
20
-35.8188423507704
30
0
41
1
10
-2.20000000000005
20
-35.7724483138314
30
0
41
1
10
-2.20000000000005
20
-35.7215711806023
30
0
41
1
10
-2.20000000000002
20
-35.6662795049964
30
0
41
1
10
-2.20000000000005
20
-35.6066420981761
30
0
41
1
10
-2.20000000000005
20
-35.5427232831041
30
0
41
1
10
-2.20000000000002
20
-35.4745835494885
30
0
41
1
10
-2.20000000000002
20
-35.4022823040986
30
0
41
1
10
-2.20000000000005
20
-35.3258758054439
30
0
41
1
10
-2.20000000000002
20
-35.2454179865413
30
0
41
1
10
-2.20000000000002
20
-35.1609605897894
30
0
41
1
10
-2.20000000000002
20
-35.0725532425695
30
0
41
1
10
-2.20000000000002
20
-34.9802436065342
30
0
41
1
10
-2.20000000000002
20
-34.8840775983924
30
0
41
1
10
-2.20000000000002
20
-34.7840992673662
30
0
41
1
10
-2.20000000000002
20
-34.6803509079355
30
0
41
1
10
-2.20000000000002
20
-34.5370512446321
30
0
41
1
10
-2.20000000000002
20
-34.3863617307859
30
0
41
1
10
-2.20000000000002
20
-34.2481903116661
30
0
41
1
10
-2.19999999999999
20
-34.1674461732589
30
0
41
1
10
-2.20000000000002
20
-34.0855143686357
30
0
41
1
10
-2.20000000000002
20
-33.9808791024373
30
0
41
1
10
-2.20000000000002
20
-33.8087856254549
30
0
41
1
10
-2.20000000000002
20
-33.6297179034793
30
0
41
1
10
-2.19999999999999
20
-33.4438214227632
30
0
41
1
10
-2.20000000000002
20
-33.2534024597305
30
0
41
1
10
-2.20000000000002
20
-33.0069583004128
30
0
41
1
10
-2.20000000000002
20
-32.7494770380993
30
0
41
1
10
-2.19999999999999
20
-32.5369772821028
30
0
41
1
10
-2.20000000000002
20
-32.3743609910527
30
0
41
1
10
-2.19999999999999
20
-32.2085294030258
30
0
41
1
10
-2.19999999999999
20
-31.9831685438612
30
0
41
1
10
-2.19999999999999
20
-31.6935278654741
30
0
41
1
10
-2.20000000000002
20
-31.3934533930513
30
0
41
1
10
-2.19999999999999
20
-31.1472201983194
30
0
41
1
10
-2.19999999999999
20
-30.8968896848934
30
0
41
1
10
-2.19999999999999
20
-30.5763259691741
30
0
41
1
10
-2.19999999999999
20
-30.1795721880178
30
0
41
1
10
-2.19999999999999
20
-29.8389753334019
30
0
41
1
10
-2.19999999999999
20
-29.5605910229122
30
0
41
1
10
-2.19999999999999
20
-29.3488540584265
30
0
41
1
10
-2.19999999999999
20
-29.1341864928692
30
0
41
1
10
-2.19999999999999
20
-28.8440802923644
30
0
41
1
10
-2.19999999999999
20
-28.4741740127019
30
0
41
1
10
-2.19999999999999
20
-28.0946721119014
30
0
41
1
10
-2.19999999999996
20
-27.7853718286964
30
0
41
1
10
-2.19999999999999
20
-27.5505474715739
30
0
41
1
10
-2.19999999999996
20
-27.3128894716318
30
0
41
1
10
-2.19999999999996
20
-26.99225515776
30
0
41
1
10
-2.19999999999996
20
-26.5844139266108
30
0
41
1
10
-2.19999999999996
20
-26.0838374506717
30
0
41
1
10
-2.19999999999996
20
-25.657428854263
30
0
41
1
10
-2.19999999999996
20
-25.310795566268
30
0
41
1
10
-2.19999999999999
20
-24.9604927320777
30
0
41
1
10
-2.19999999999996
20
-24.5157343073517
30
0
41
1
10
-2.19999999999996
20
-24.0618724844523
30
0
41
1
10
-2.19999999999996
20
-23.6933606289521
30
0
41
1
10
-2.19999999999996
20
-23.4142578696928
30
0
41
1
10
-2.19999999999996
20
-23.1324477508894
30
0
41
1
10
-2.19999999999996
20
-22.7531069145399
30
0
41
1
10
-2.19999999999996
20
-22.3683458335126
30
0
41
1
10
-2.19999999999996
20
-21.9782353272421
30
0
41
1
10
-2.19999999999993
20
-21.6829615863146
30
0
41
1
10
-2.19999999999993
20
-21.3850073833771
30
0
41
1
10
-2.19999999999993
20
-20.984175332485
30
0
41
1
10
-2.19999999999996
20
-20.5779672141207
30
0
41
1
10
-2.19999999999996
20
-20.1664517398789
30
0
41
1
10
-2.19999999999993
20
-19.8551416161418
30
0
41
1
10
-2.19999999999996
20
-19.5411672734658
30
0
41
1
10
-2.19999999999996
20
-19.1189951374153
30
0
41
1
10
-2.19999999999993
20
-18.6914694093052
30
0
41
1
10
-2.19999999999993
20
-18.2586575687845
30
0
41
1
10
-2.19999999999993
20
-17.9313816332313
30
0
41
1
10
-2.19999999999993
20
-17.601447067755
30
0
41
1
10
-2.19999999999993
20
-17.3242802462531
30
0
41
1
10
-2.19999999999996
20
-17.1012276238876
30
0
41
1
10
-2.19999999999993
20
-16.8772884002214
30
0
41
1
10
-2.19999999999993
20
-16.4830628393222
30
0
41
1
10
-2.19999999999993
20
-16.0271656941318
30
0
41
1
10
-2.19999999999993
20
-15.5659788017487
30
0
41
1
10
-2.19999999999996
20
-15.2174126385948
30
0
41
1
10
-2.19999999999993
20
-14.8661779693539
30
0
41
1
10
-2.19999999999993
20
-14.5122728269276
30
0
41
1
10
-2.19999999999993
20
-14.1556932924213
30
0
41
1
10
-2.19999999999993
20
-13.7964372435234
30
0
41
1
10
-2.19999999999993
20
-13.434500435816
30
0
41
1
10
-2.19999999999993
20
-13.0698795558119
30
0
41
1
10
-2.19999999999993
20
-12.7025705743373
30
0
41
1
10
-2.19999999999993
20
-12.3325690014507
30
0
41
1
10
-2.19999999999993
20
-11.9598708409375
30
0
41
1
10
-2.19999999999993
20
-11.6470295372759
30
0
41
1
10
-2.19999999999993
20
-11.3954184217635
30
0
41
1
10
-2.19999999999993
20
-11.1429046192032
30
0
41
1
10
-2.19999999999993
20
-10.8255481020131
30
0
41
1
10
-2.19999999999993
20
-10.4420145743896
30
0
41
1
10
-2.19999999999993
20
-10.0557602279918
30
0
41
1
10
-2.19999999999993
20
-9.66678089901879
30
0
41
1
10
-2.1999999999999
20
-9.34034669943736
30
0
41
1
10
-2.1999999999999
20
-9.07784991102179
30
0
41
1
10
-2.19999999999993
20
-8.81444106406229
30
0
41
1
10
-2.19999999999993
20
-8.54963209943352
30
0
41
1
10
-2.19999999999993
20
-8.28348543659979
30
0
41
1
10
-2.1999999999999
20
-8.01642493811286
30
0
41
1
10
-2.1999999999999
20
-7.68085993160076
30
0
41
1
10
-2.19999999999993
20
-7.34301151247959
30
0
41
1
10
-2.1999999999999
20
-7.07138465930166
30
0
41
1
10
-2.19999999999993
20
-6.79884546670326
30
0
41
1
10
-2.1999999999999
20
-6.45643328069664
30
0
41
1
10
-2.19999999999993
20
-6.11175146674469
30
0
41
1
10
-2.1999999999999
20
-5.83467460689428
30
0
41
1
10
-2.19999999999993
20
-5.6261808540489
30
0
41
1
10
-2.1999999999999
20
-5.41701391929837
30
0
41
1
10
-2.1999999999999
20
-5.20717745478146
30
0
41
1
10
-2.19999999999993
20
-4.99667509392856
30
0
41
1
10
-2.1999999999999
20
-4.82069761094564
30
0
41
1
10
-2.19999999999993
20
-4.67960211600027
30
0
41
1
10
-2.19999999999993
20
-4.53828872405646
30
0
41
1
10
-2.19999999999993
20
-4.39662510037121
30
0
41
1
10
-2.19999999999993
20
-4.25466574513038
30
0
41
1
10
-2.1999999999999
20
-4.1124933975407
30
0
41
1
10
-2.1999999999999
20
-3.93436102619759
30
0
41
1
10
-2.1999999999999
20
-3.75570803581107
30
0
41
1
10
-2.1999999999999
20
-3.61249538417181
30
0
41
1
10
-2.1999999999999
20
-3.50492661910167
30
0
41
1
10
-2.1999999999999
20
-3.39720741056175
30
0
41
1
10
-2.19999999999993
20
-3.28933976181253
30
0
41
1
10
-2.1999999999999
20
-3.18132544112754
30
0
41
1
10
-2.1999999999999
20
-3.07316631132792
30
0
41
1
10
-2.19999999999993
20
-2.96486450366427
30
0
41
1
10
-2.1999999999999
20
-2.8202855732074
30
0
41
1
10
-2.1999999999999
20
-2.6391937472294
30
0
41
1
10
-2.19999999999993
20
-2.42136740345268
30
0
41
1
10
-2.1999999999999
20
-2.2030366306553
30
0
41
1
10
-2.1999999999999
20
-1.98422944343233
30
0
41
1
10
-2.1999999999999
20
-1.80150795480097
30
0
41
1
10
-2.19999999999993
20
-1.65514766840653
30
0
41
1
10
-2.1999999999999
20
-1.5452706495837
30
0
41
1
10
-2.1999999999999
20
-1.43530118015903
30
0
41
1
10
-2.1999999999999
20
-1.28857135826542
30
0
41
1
10
-2.19999999999993
20
-1.10492621249188
30
0
41
1
10
-2.1999999999999
20
-0.921048397975113
30
0
41
1
10
-2.19999999999993
20
-0.773855181921306
30
0
41
1
10
-2.1999999999999
20
-0.663399753590824
30
0
41
1
10
-2.1999999999999
20
-0.552900673038835
30
0
41
1
10
-2.1999999999999
20
-0.405533020604196
30
0
41
1
10
-2.1999999999999
20
-0.258066027197032
30
0
41
1
10
-2.19999999999993
20
-0.110609798282297
30
0
41
1
10
-2.1999999999999
20
7.9678557E-09
30
0
41
1
10
-2.1999999999999
20
0.110609814521041
30
0
41
1
10
-2.19999999999993
20
0.25806604329776
30
0
41
1
10
-2.1999999999999
20
0.405533036679543
30
0
41
1
10
-2.19999999999993
20
0.552900689625886
30
0
41
1
10
-2.1999999999999
20
0.663399769480293
30
0
41
1
10
-2.1999999999999
20
0.773855197893681
30
0
41
1
10
-2.19999999999993
20
0.921048414140927
30
0
41
1
10
-2.1999999999999
20
1.1049262291302
30
0
41
1
10
-2.1999999999999
20
1.28857137427266
30
0
41
1
10
-2.19999999999993
20
1.43530119545
30
0
41
1
10
-2.19999999999993
20
1.54527066672026
30
0
41
1
10
-2.19999999999993
20
1.65514768405933
30
0
41
1
10
-2.1999999999999
20
1.8015079794429
30
0
41
1
10
-2.1999999999999
20
1.947699848149
30
0
41
1
10
-2.1999999999999
20
2.09363388662032
30
0
41
1
10
-2.1999999999999
20
2.23941432408864
30
0
41
1
10
-2.1999999999999
20
2.38499085138608
30
0
41
1
10
-2.1999999999999
20
2.53028147448529
30
0
41
1
10
-2.1999999999999
20
2.63912850340498
30
0
41
1
10
-2.1999999999999
20
2.74784323707018
30
0
41
1
10
-2.19999999999993
20
2.8564227422421
30
0
41
1
10
-2.19999999999993
20
2.96486450652623
30
0
41
1
10
-2.1999999999999
20
3.10925640073572
30
0
41
1
10
-2.19999999999993
20
3.25339347207253
30
0
41
1
10
-2.19999999999993
20
3.39720740223609
30
0
41
1
10
-2.1999999999999
20
3.50492662159448
30
0
41
1
10
-2.1999999999999
20
3.61249538774427
30
0
41
1
10
-2.19999999999993
20
3.75570803460607
30
0
41
1
10
-2.1999999999999
20
3.93436102607177
30
0
41
1
10
-2.1999999999999
20
4.11249340828527
30
0
41
1
10
-2.1999999999999
20
4.2546657616511
30
0
41
1
10
-2.19999999999993
20
4.39662511608438
30
0
41
1
10
-2.19999999999993
20
4.53828873143232
30
0
41
1
10
-2.19999999999993
20
4.67960211602713
30
0
41
1
10
-2.1999999999999
20
4.82069760714901
30
0
41
1
10
-2.19999999999993
20
4.99667509827836
30
0
41
1
10
-2.1999999999999
20
5.20717747481996
30
0
41
1
10
-2.1999999999999
20
5.41701393923276
30
0
41
1
10
-2.19999999999993
20
5.62618085956723
30
0
41
1
10
-2.1999999999999
20
5.83467460016638
30
0
41
1
10
-2.19999999999993
20
6.11175147173765
30
0
41
1
10
-2.1999999999999
20
6.456433316795
30
0
41
1
10
-2.19999999999993
20
6.79884546868331
30
0
41
1
10
-2.1999999999999
20
7.07138465122813
30
0
41
1
10
-2.1999999999999
20
7.34301151998699
30
0
41
1
10
-2.19999999999993
20
7.68085996867353
30
0
41
1
10
-2.19999999999993
20
8.01642492609366
30
0
41
1
10
-2.1999999999999
20
8.28348540775056
30
0
41
1
10
-2.1999999999999
20
8.54963206906427
30
0
41
1
10
-2.19999999999993
20
8.88062693308251
30
0
41
1
10
-2.19999999999993
20
9.27507092999488
30
0
41
1
10
-2.19999999999993
20
9.66678080103017
30
0
41
1
10
-2.19999999999993
20
10.055760504374
30
0
41
1
10
-2.19999999999993
20
10.4420146592236
30
0
41
1
10
-2.19999999999993
20
10.8255477577392
30
0
41
1
10
-2.19999999999993
20
11.2063650265909
30
0
41
1
10
-2.19999999999993
20
11.5844709045752
30
0
41
1
10
-2.19999999999993
20
11.9598708451068
30
0
41
1
10
-2.19999999999993
20
12.332568976433
30
0
41
1
10
-2.19999999999993
20
12.7025705750891
30
0
41
1
10
-2.19999999999993
20
13.0698795474479
30
0
41
1
10
-2.19999999999993
20
13.434500413039
30
0
41
1
10
-2.19999999999993
20
13.7964372758264
30
0
41
1
10
-2.19999999999993
20
14.0958244492637
30
0
41
1
10
-2.1999999999999
20
14.3339831373198
30
0
41
1
10
-2.19999999999993
20
14.5712504744562
30
0
41
1
10
-2.19999999999993
20
14.8661782384876
30
0
41
1
10
-2.19999999999993
20
15.2174125550855
30
0
41
1
10
-2.19999999999993
20
15.5659787170004
30
0
41
1
10
-2.19999999999993
20
15.9118789297515
30
0
41
1
10
-2.19999999999993
20
16.2551149485891
30
0
41
1
10
-2.19999999999993
20
16.5956885399058
30
0
41
1
10
-2.19999999999993
20
16.8772884036231
30
0
41
1
10
-2.19999999999993
20
17.1012276273506
30
0
41
1
10
-2.19999999999993
20
17.3242802479083
30
0
41
1
10
-2.19999999999993
20
17.6014470745968
30
0
41
1
10
-2.19999999999993
20
17.9313816381119
30
0
41
1
10
-2.19999999999993
20
18.2586575717451
30
0
41
1
10
-2.19999999999993
20
18.6914694264878
30
0
41
1
10
-2.19999999999993
20
19.1189951390116
30
0
41
1
10
-2.19999999999993
20
19.5411672873635
30
0
41
1
10
-2.19999999999996
20
19.8551416115088
30
0
41
1
10
-2.19999999999993
20
20.1664517496922
30
0
41
1
10
-2.19999999999993
20
20.5779672218009
30
0
41
1
10
-2.19999999999993
20
20.9841753387679
30
0
41
1
10
-2.19999999999996
20
21.385007393
30
0
41
1
10
-2.19999999999993
20
21.6829615822886
30
0
41
1
10
-2.19999999999996
20
21.9782353365019
30
0
41
1
10
-2.19999999999996
20
22.3683458387384
30
0
41
1
10
-2.19999999999996
20
22.7531069193881
30
0
41
1
10
-2.19999999999996
20
23.1324477597271
30
0
41
1
10
-2.19999999999993
20
23.414257866645
30
0
41
1
10
-2.19999999999996
20
23.6933606344229
30
0
41
1
10
-2.19999999999996
20
24.0618724924846
30
0
41
1
10
-2.19999999999996
20
24.5157343100948
30
0
41
1
10
-2.19999999999996
20
24.9604927323371
30
0
41
1
10
-2.19999999999996
20
25.3107955671813
30
0
41
1
10
-2.19999999999996
20
25.6574288628695
30
0
41
1
10
-2.19999999999996
20
26.0838374470222
30
0
41
1
10
-2.19999999999996
20
26.5844139299712
30
0
41
1
10
-2.19999999999996
20
26.9922551600878
30
0
41
1
10
-2.19999999999996
20
27.312889474477
30
0
41
1
10
-2.19999999999999
20
27.5505474706334
30
0
41
1
10
-2.19999999999999
20
27.7853718293799
30
0
41
1
10
-2.19999999999996
20
28.0946721145145
30
0
41
1
10
-2.19999999999996
20
28.4741740106829
30
0
41
1
10
-2.19999999999999
20
28.8440802938742
30
0
41
1
10
-2.19999999999999
20
29.1341864918563
30
0
41
1
10
-2.19999999999999
20
29.3488540567688
30
0
41
1
10
-2.19999999999996
20
29.5605910235312
30
0
41
1
10
-2.19999999999999
20
29.8389753322122
30
0
41
1
10
-2.19999999999999
20
30.1795721887093
30
0
41
1
10
-2.19999999999999
20
30.5763259617257
30
0
41
1
10
-2.19999999999996
20
30.8968896882167
30
0
41
1
10
-2.19999999999999
20
31.1472201940908
30
0
41
1
10
-2.19999999999999
20
31.393453387608
30
0
41
1
10
-2.19999999999999
20
31.6935278618122
30
0
41
1
10
-2.19999999999999
20
31.9831685440602
30
0
41
1
10
-2.19999999999999
20
32.2085294017453
30
0
41
1
10
-2.20000000000002
20
32.3743609793662
30
0
41
1
10
-2.19999999999999
20
32.5369772815204
30
0
41
1
10
-2.19999999999999
20
32.7494770362055
30
0
41
1
10
-2.19999999999999
20
33.0069583008311
30
0
41
1
10
-2.20000000000002
20
33.2534024436424
30
0
41
1
10
-2.19999999999999
20
33.4438214187486
30
0
41
1
10
-2.19999999999999
20
33.6297179032972
30
0
41
1
10
-2.20000000000002
20
33.8087856219281
30
0
41
1
10
-2.20000000000002
20
33.9808790950557
30
0
41
1
10
-2.19999999999999
20
34.0855143550287
30
0
41
1
10
-2.19999999999999
20
34.1674461612967
30
0
41
1
10
-2.19999999999999
20
34.2481903083142
30
0
41
1
10
-2.20000000000002
20
34.3863617301769
30
0
41
1
10
-2.20000000000002
20
34.5370512371171
30
0
41
1
10
-2.19999999999999
20
34.680350907395
30
0
41
1
10
-2.20000000000002
20
34.7840992432799
30
0
41
1
10
-2.20000000000002
20
34.8840776031987
30
0
41
1
10
-2.20000000000002
20
34.9802435989443
30
0
41
1
10
-2.20000000000002
20
35.0725532191378
30
0
41
1
10
-2.20000000000002
20
35.1609605893934
30
0
41
1
10
-2.20000000000002
20
35.2454181739629
30
0
41
1
10
-2.20000000000002
20
35.3258752465303
30
0
41
1
10
-2.20000000000002
20
35.4022826774254
30
0
41
1
10
-2.20000000000002
20
35.4986806355994
30
0
41
1
10
-2.20000000000002
20
35.5867654490801
30
0
41
1
10
-2.20000000000002
20
35.6662795296583
30
0
41
1
10
-2.20000000000005
20
35.7215711644677
30
0
41
1
10
-2.20000000000002
20
35.7724483817261
30
0
41
1
10
-2.20000000000005
20
35.8188423246857
30
0
41
1
10
-2.20000000000002
20
35.8606772530753
30
0
41
1
10
-2.20000000000002
20
35.8978764151194
30
0
41
1
10
-2.20000000000005
20
35.9303574291782
30
0
41
1
10
-2.20000000000005
20
35.9580338304474
30
0
41
1
10
-2.20000000000005
20
35.9808152416011
30
0
41
1
10
-2.20000000000005
20
35.9929120233501
30
0
41
1
10
-2.20000000000005
20
35.9981609584538
30
0
41
1
10
-2.20000000000005
20
35.9983614366192
30
0
0
SPLINE
5
12A
100
AcDbEntity
8
SK1
62
256
6
ByLayer
370
18
48
1
60
0
100
AcDbSpline
70
4
71
3
72
126
73
122
40
0
40
0
40
0
40
0
40
0.0034555386536748
40
0.0072844909568758
40
0.0111134432600767
40
0.0149423955632776
40
0.0226003001696794
40
0.0302582047760813
40
0.0379161093824831
40
0.0455740139888849
40
0.0532319185952868
40
0.0608898232016886
40
0.0685477278080905
40
0.0762056324144923
40
0.0838635370208941
40
0.091521441627296
40
0.0991793462336979
40
0.1068372508401
40
0.114495155446502
40
0.122153060052903
40
0.129810964659305
40
0.137468869265707
40
0.145126773872109
40
0.152784678478511
40
0.160442583084913
40
0.168100487691314
40
0.175758392297716
40
0.183416296904118
40
0.19107420151052
40
0.206390010723324
40
0.214047915329725
40
0.217876867632926
40
0.221705819936127
40
0.229363724542529
40
0.237021629148931
40
0.252337438361735
40
0.259995342968136
40
0.267653247574538
40
0.282969056787342
40
0.298284866000146
40
0.305942770606548
40
0.313600675212949
40
0.321258579819351
40
0.328916484425753
40
0.344232293638557
40
0.359548102851361
40
0.367206007457762
40
0.374863912064164
40
0.390179721276968
40
0.405495530489771
40
0.420811339702575
40
0.428469244308977
40
0.436127148915379
40
0.443785053521781
40
0.451442958128183
40
0.466758767340986
40
0.48207457655379
40
0.489732481160192
40
0.497390385766594
40
0.505048290372995
40
0.512706194979397
40
0.528022004192201
40
0.543337813405005
40
0.558653622617808
40
0.56631152722421
40
0.573969431830612
40
0.589285241043416
40
0.604601050256219
40
0.612258954862621
40
0.619916859469023
40
0.627574764075425
40
0.635232668681827
40
0.65054847789463
40
0.658206382501032
40
0.665864287107434
40
0.673522191713836
40
0.681180096320238
40
0.696495905533042
40
0.704153810139443
40
0.711811714745845
40
0.719469619352247
40
0.727127523958649
40
0.742443333171453
40
0.750101237777854
40
0.757759142384256
40
0.765417046990658
40
0.77307495159706
40
0.776903903900261
40
0.780732856203462
40
0.788390760809864
40
0.803706570022667
40
0.811364474629069
40
0.819022379235471
40
0.826680283841873
40
0.834338188448275
40
0.841996093054676
40
0.849653997661078
40
0.85731190226748
40
0.864969806873882
40
0.872627711480284
40
0.880285616086686
40
0.887943520693088
40
0.895601425299489
40
0.89943037760269
40
0.903259329905891
40
0.910917234512293
40
0.918575139118695
40
0.926233043725097
40
0.933890948331499
40
0.9415488529379
40
0.945377805241101
40
0.949206757544302
40
0.956864662150704
40
0.960693614453905
40
0.964522566757106
40
0.972180471363508
40
0.97983837596991
40
0.98366732827311
40
0.987496280576311
40
0.995154185182713
40
1
40
1
40
1
40
1
41
1
10
-0.394976888875277
20
-35.8653776109853
30
0
41
1
10
-0.394976888875334
20
-35.8654184055616
30
0
41
1
10
-0.394976888875334
20
-35.8651176218115
30
0
41
1
10
-0.394976888875334
20
-35.8634269812557
30
0
41
1
10
-0.394976888875334
20
-35.8603562366916
30
0
41
1
10
-0.394976888875334
20
-35.854515215742
30
0
41
1
10
-0.394976888875334
20
-35.8439794508304
30
0
41
1
10
-0.394976888875334
20
-35.8262611583919
30
0
41
1
10
-0.394976888875334
20
-35.8035689891332
30
0
41
1
10
-0.394976888875334
20
-35.7759991267868
30
0
41
1
10
-0.394976888875306
20
-35.7436409316581
30
0
41
1
10
-0.394976888875306
20
-35.7065800027222
30
0
41
1
10
-0.394976888875334
20
-35.6648981651514
30
0
41
1
10
-0.394976888875306
20
-35.6186711780713
30
0
41
1
10
-0.394976888875306
20
-35.5679745134804
30
0
41
1
10
-0.394976888875306
20
-35.5128761760524
30
0
41
1
10
-0.394976888875306
20
-35.4534444043634
30
0
41
1
10
-0.394976888875306
20
-35.3897431016973
30
0
41
1
10
-0.394976888875306
20
-35.3218323112639
30
0
41
1
10
-0.394976888875334
20
-35.2497710104041
30
0
41
1
10
-0.394976888875306
20
-35.1736151059194
30
0
41
1
10
-0.394976888875306
20
-35.093418190414
30
0
41
1
10
-0.394976888875306
20
-35.0092316945093
30
0
41
1
10
-0.394976888875306
20
-34.9211049595596
30
0
41
1
10
-0.394976888875306
20
-34.829085378746
30
0
41
1
10
-0.394976888875306
20
-34.7332186246447
30
0
41
1
10
-0.394976888875306
20
-34.6335485304196
30
0
41
1
10
-0.394976888875306
20
-34.5301171783813
30
0
41
1
10
-0.394976888875306
20
-34.3872241353875
30
0
41
1
10
-0.394976888875306
20
-34.2370419140072
30
0
41
1
10
-0.394976888875306
20
-34.0992650937292
30
0
41
1
10
-0.394976888875277
20
-34.0187437263543
30
0
41
1
10
-0.394976888875277
20
-33.9370370034868
30
0
41
1
10
-0.394976888875277
20
-33.8327219580027
30
0
41
1
10
-0.394976888875306
20
-33.6610954992522
30
0
41
1
10
-0.394976888875306
20
-33.4826057621145
30
0
41
1
10
-0.394976888875306
20
-33.2972051581974
30
0
41
1
10
-0.394976888875306
20
-33.1072907380499
30
0
41
1
10
-0.394976888875277
20
-32.8615720411722
30
0
41
1
10
-0.394976888875277
20
-32.6048424706425
30
0
41
1
10
-0.394976888875277
20
-32.3928928336978
30
0
41
1
10
-0.394976888875306
20
-32.2307235620492
30
0
41
1
10
-0.394976888875277
20
-32.0653460684281
30
0
41
1
10
-0.394976888875277
20
-31.8405614201245
30
0
41
1
10
-0.394976888875277
20
-31.5517459050345
30
0
41
1
10
-0.394976888875277
20
-31.2525219538402
30
0
41
1
10
-0.394976888875277
20
-31.0069093628079
30
0
41
1
10
-0.394976888875249
20
-30.7572080028694
30
0
41
1
10
-0.394976888875277
20
-30.4375437762783
30
0
41
1
10
-0.394976888875277
20
-30.0418468835666
30
0
41
1
10
-0.394976888875249
20
-29.7022003148107
30
0
41
1
10
-0.394976888875277
20
-29.4245084215695
30
0
41
1
10
-0.394976888875249
20
-29.2133327662611
30
0
41
1
10
-0.394976888875277
20
-28.9992339821199
30
0
41
1
10
-0.394976888875277
20
-28.7098481386985
30
0
41
1
10
-0.394976888875249
20
-28.340970496997
30
0
41
1
10
-0.394976888875249
20
-27.9625243931996
30
0
41
1
10
-0.394976888875277
20
-27.6539931003944
30
0
41
1
10
-0.394976888875249
20
-27.4197920834741
30
0
41
1
10
-0.394976888875249
20
-27.1827656068871
30
0
41
1
10
-0.394976888875249
20
-26.8629311640439
30
0
41
1
10
-0.394976888875249
20
-26.4562321573554
30
0
41
1
10
-0.394976888875249
20
-25.9569955498363
30
0
41
1
10
-0.394976888875249
20
-25.5317904219061
30
0
41
1
10
-0.394976888875249
20
-25.1860341634964
30
0
41
1
10
-0.394976888875249
20
-24.8366207517989
30
0
41
1
10
-0.394976888875249
20
-24.3931333790251
30
0
41
1
10
-0.394976888875249
20
-23.9405766044572
30
0
41
1
10
-0.394976888875249
20
-23.5730166229077
30
0
41
1
10
-0.394976888875249
20
-23.294686474333
30
0
41
1
10
-0.394976888875249
20
-23.0136599895412
30
0
41
1
10
-0.39497688887522
20
-22.6353132371553
30
0
41
1
10
-0.394976888875249
20
-22.2517707343539
30
0
41
1
10
-0.394976888875249
20
-21.8626976854152
30
0
41
1
10
-0.39497688887522
20
-21.5682668931889
30
0
41
1
10
-0.39497688887522
20
-21.271168442681
30
0
41
1
10
-0.39497688887522
20
-20.8714231892215
30
0
41
1
10
-0.39497688887522
20
-20.4665491966628
30
0
41
1
10
-0.394976888875249
20
-20.0561712634218
30
0
41
1
10
-0.394976888875249
20
-19.7457866731406
30
0
41
1
10
-0.39497688887522
20
-19.4327531245027
30
0
41
1
10
-0.394976888875249
20
-19.0117775840375
30
0
41
1
10
-0.39497688887522
20
-18.5857236375232
30
0
41
1
10
-0.39497688887522
20
-18.1541693136932
30
0
41
1
10
-0.39497688887522
20
-17.8279183574374
30
0
41
1
10
-0.39497688887522
20
-17.4990274869923
30
0
41
1
10
-0.39497688887522
20
-17.2227901407219
30
0
41
1
10
-0.39497688887522
20
-17.0004108943221
30
0
41
1
10
-0.39497688887522
20
-16.7771522077328
30
0
41
1
10
-0.39497688887522
20
-16.3841710240748
30
0
41
1
10
-0.39497688887522
20
-15.9299794688331
30
0
41
1
10
-0.39497688887522
20
-15.4702555452062
30
0
41
1
10
-0.39497688887522
20
-15.1228861045844
30
0
41
1
10
-0.39497688887522
20
-14.7728737253136
30
0
41
1
10
-0.39497688887522
20
-14.4202178800222
30
0
41
1
10
-0.39497688887522
20
-14.0649158346649
30
0
41
1
10
-0.39497688887522
20
-13.706966774032
30
0
41
1
10
-0.39497688887522
20
-13.3463680945818
30
0
41
1
10
-0.39497688887522
20
-12.9831179010793
30
0
41
1
10
-0.39497688887522
20
-12.6172140721258
30
0
41
1
10
-0.39497688887522
20
-12.2486538786068
30
0
41
1
10
-0.39497688887522
20
-11.877435461996
30
0
41
1
10
-0.39497688887522
20
-11.5659225593266
30
0
41
1
10
-0.39497688887522
20
-11.3152803628128
30
0
41
1
10
-0.39497688887522
20
-11.0637515002381
30
0
41
1
10
-0.39497688887522
20
-10.7478052942324
30
0
41
1
10
-0.39497688887522
20
-10.3659294753254
30
0
41
1
10
-0.39497688887522
20
-9.98138431841267
30
0
41
1
10
-0.394976888875192
20
-9.59416962249634
30
0
41
1
10
-0.39497688887522
20
-9.26932873965481
30
0
41
1
10
-0.394976888875192
20
-9.00799999429159
30
0
41
1
10
-0.39497688887522
20
-8.7457829273653
30
0
41
1
10
-0.39497688887522
20
-8.48244127998379
30
0
41
1
10
-0.394976888875192
20
-8.21754953480053
30
0
41
1
10
-0.39497688887522
20
-7.95177203759238
30
0
41
1
10
-0.394976888875192
20
-7.61805779883338
30
0
41
1
10
-0.39497688887522
20
-7.28212707034135
30
0
41
1
10
-0.39497688887522
20
-7.01191435047286
30
0
41
1
10
-0.39497688887522
20
-6.74082520810299
30
0
41
1
10
-0.394976888875192
20
-6.45050039040558
30
0
41
1
10
-0.39497688887522
20
-6.22707378727881
30
0
41
1
10
-0.39497688887522
20
-6.1402972215279
30
0
0
SPLINE
5
12B
100
AcDbEntity
8
SK1
62
256
6
ByLayer
370
18
48
1
60
0
100
AcDbSpline
70
4
71
3
72
322
73
318
40
0
40
0
40
0
40
0
40
0.0016968219314871
40
0.003421149589517
40
0.0051454772475468
40
0.0068698049055766
40
0.0103184602216363
40
0.013767115537696
40
0.0172157708537556
40
0.0206644261698153
40
0.024113081485875
40
0.0275617368019346
40
0.0310103921179943
40
0.034459047434054
40
0.0379077027501136
40
0.0413563580661733
40
0.044805013382233
40
0.0482536686982926
40
0.0517023240143523
40
0.0551509793304119
40
0.0585996346464716
40
0.0620482899625313
40
0.0654969452785909
40
0.0689456005946506
40
0.0723942559107103
40
0.0758429112267699
40
0.0792915665428296
40
0.0827402218588893
40
0.0861888771749489
40
0.0930861878070682
40
0.0965348431231279
40
0.0982591707811577
40
0.0999834984391876
40
0.103432153755247
40
0.106880809071307
40
0.113778119703426
40
0.117226775019486
40
0.120675430335545
40
0.127572740967665
40
0.134470051599784
40
0.137918706915844
40
0.141367362231903
40
0.144816017547963
40
0.148264672864023
40
0.155161983496142
40
0.162059294128262
40
0.165507949444321
40
0.168956604760381
40
0.1758539153925
40
0.182751226024619
40
0.189648536656739
40
0.193097191972799
40
0.196545847288858
40
0.199994502604918
40
0.203443157920978
40
0.210340468553097
40
0.217237779185216
40
0.220686434501276
40
0.224135089817335
40
0.227583745133395
40
0.231032400449455
40
0.237929711081574
40
0.244827021713693
40
0.251724332345813
40
0.255172987661873
40
0.258621642977932
40
0.265518953610052
40
0.272416264242171
40
0.27586491955823
40
0.27931357487429
40
0.28276223019035
40
0.286210885506409
40
0.293108196138529
40
0.296556851454588
40
0.300005506770648
40
0.303454162086708
40
0.306902817402767
40
0.313800128034887
40
0.317248783350946
40
0.320697438667006
40
0.324146093983066
40
0.327594749299125
40
0.334492059931245
40
0.337940715247304
40
0.341389370563364
40
0.344838025879424
40
0.348286681195483
40
0.350011008853513
40
0.351735336511543
40
0.355183991827603
40
0.362081302459722
40
0.365529957775782
40
0.368978613091841
40
0.372427268407901
40
0.375875923723961
40
0.37932457904002
40
0.38277323435608
40
0.38622188967214
40
0.389670544988199
40
0.393119200304259
40
0.396567855620319
40
0.400016510936378
40
0.403465166252438
40
0.405189493910468
40
0.406913821568498
40
0.410362476884557
40
0.413811132200617
40
0.417259787516677
40
0.420708442832736
40
0.424157098148796
40
0.425881425806826
40
0.427605753464856
40
0.431054408780915
40
0.432778736438945
40
0.434503064096975
40
0.437951719413035
40
0.441400374729094
40
0.443124702387124
40
0.444849030045154
40
0.448297685361214
40
0.451746340677273
40
0.453470668335303
40
0.455194995993333
40
0.456919323651363
40
0.458643651309393
40
0.460367978967422
40
0.462092306625452
40
0.462954470454467
40
0.463816634283482
40
0.465540961941512
40
0.466403125770527
40
0.467265289599542
40
0.468989617257572
40
0.470713944915601
40
0.471576108744616
40
0.472438272573631
40
0.473300436402646
40
0.474162600231661
40
0.475024764060676
40
0.475886927889691
40
0.476749091718706
40
0.477611255547721
40
0.479335583205751
40
0.481059910863781
40
0.48278423852181
40
0.48450856617984
40
0.48623289383787
40
0.487095057666885
40
0.4879572214959
40
0.488819385324915
40
0.48968154915393
40
0.49140587681196
40
0.493130204469989
40
0.493992368299004
40
0.494854532128019
40
0.495716695957034
40
0.496578859786049
40
0.498303187444079
40
0.499165351273094
40
0.500027515102109
40
0.500889678931124
40
0.501751842760138
40
0.503476170418168
40
0.504338334247183
40
0.505200498076198
40
0.506062661905213
40
0.506924825734228
40
0.508649153392258
40
0.510373481050288
40
0.511235644879303
40
0.512097808708317
40
0.512959972537332
40
0.513822136366347
40
0.515546464024377
40
0.516408627853392
40
0.517270791682407
40
0.518995119340437
40
0.519857283169452
40
0.520719446998467
40
0.521581610827482
40
0.522443774656496
40
0.523305938485511
40
0.524168102314526
40
0.525892429972556
40
0.526754593801571
40
0.527616757630586
40
0.528478921459601
40
0.529341085288616
40
0.531065412946646
40
0.532789740604675
40
0.53365190443369
40
0.534514068262705
40
0.536238395920735
40
0.53710055974975
40
0.537962723578765
40
0.539687051236795
40
0.541411378894825
40
0.543135706552854
40
0.544860034210884
40
0.546584361868914
40
0.548308689526944
40
0.551757344843004
40
0.555206000159063
40
0.556930327817093
40
0.558654655475123
40
0.562103310791183
40
0.565551966107242
40
0.567276293765272
40
0.569000621423302
40
0.572449276739362
40
0.575897932055421
40
0.579346587371481
40
0.582795242687541
40
0.5862438980036
40
0.58969255331966
40
0.59314120863572
40
0.596589863951779
40
0.600038519267839
40
0.603487174583899
40
0.606935829899958
40
0.610384485216018
40
0.613833140532078
40
0.617281795848137
40
0.620730451164197
40
0.622454778822227
40
0.624179106480257
40
0.627627761796316
40
0.631076417112376
40
0.634525072428435
40
0.637973727744495
40
0.641422383060555
40
0.644871038376615
40
0.648319693692674
40
0.650044021350704
40
0.651768349008734
40
0.655217004324793
40
0.658665659640853
40
0.662114314956913
40
0.665562970272973
40
0.672460280905092
40
0.675908936221151
40
0.679357591537211
40
0.682806246853271
40
0.68625490216933
40
0.69315221280145
40
0.69660086811751
40
0.700049523433569
40
0.703498178749629
40
0.706946834065688
40
0.713844144697808
40
0.717292800013867
40
0.720741455329927
40
0.724190110645987
40
0.727638765962046
40
0.734536076594166
40
0.741433387226285
40
0.744882042542345
40
0.748330697858404
40
0.755228008490524
40
0.762125319122643
40
0.769022629754762
40
0.772471285070822
40
0.775919940386882
40
0.779368595702941
40
0.782817251019001
40
0.78971456165112
40
0.79661187228324
40
0.800060527599299
40
0.803509182915359
40
0.806957838231419
40
0.810406493547478
40
0.817303804179598
40
0.824201114811717
40
0.831098425443837
40
0.834547080759896
40
0.837995736075956
40
0.844893046708075
40
0.851790357340194
40
0.855239012656254
40
0.858687667972314
40
0.862136323288373
40
0.865584978604433
40
0.872482289236552
40
0.879379599868672
40
0.882828255184731
40
0.886276910500791
40
0.89317422113291
40
0.89662287644897
40
0.90007153176503
40
0.90179585942306
40
0.903520187081089
40
0.906968842397149
40
0.913866153029268
40
0.917314808345328
40
0.920763463661388
40
0.924212118977447
40
0.927660774293507
40
0.931109429609567
40
0.934558084925626
40
0.938006740241686
40
0.941455395557746
40
0.944904050873805
40
0.948352706189865
40
0.955250016821984
40
0.958698672138044
40
0.962147327454104
40
0.965595982770163
40
0.969044638086223
40
0.972493293402283
40
0.975941948718342
40
0.979390604034402
40
0.982839259350462
40
0.986287914666521
40
0.989736569982581
40
0.993185225298641
40
0.9966338806147
40
1
40
1
40
1
40
1
41
1
10
-1.99503997793934
20
-35.8251630218737
30
0
41
1
10
-1.99503997793934
20
-35.8252435757718
30
0
41
1
10
-1.99503997793937
20
-35.8249662888076
30
0
41
1
10
-1.99503997793934
20
-35.8232300538525
30
0
41
1
10
-1.99503997793934
20
-35.8201626633944
30
0
41
1
10
-1.99503997793934
20
-35.8143275520899
30
0
41
1
10
-1.99503997793934
20
-35.8038035395423
30
0
41
1
10
-1.99503997793934
20
-35.786103718398
30
0
41
1
10
-1.99503997793934
20
-35.763434753032
30
0
41
1
10
-1.99503997793934
20
-35.7358925640298
30
0
41
1
10
-1.99503997793934
20
-35.7035662791797
30
0
41
1
10
-1.99503997793931
20
-35.6665412784639
30
0
41
1
10
-1.99503997793934
20
-35.6248991978807
30
0
41
1
10
-1.99503997793934
20
-35.5787156149852
30
0
41
1
10
-1.99503997793931
20
-35.5280658411496
30
0
41
1
10
-1.99503997793934
20
-35.4730177383403
30
0
41
1
10
-1.99503997793934
20
-35.4136393963592
30
0
41
1
10
-1.99503997793931
20
-35.3499946094464
30
0
41
1
10
-1.99503997793934
20
-35.2821433047988
30
0
41
1
10
-1.99503997793931
20
-35.2101443481799
30
0
41
1
10
-1.99503997793934
20
-35.1340535550079
30
0
41
1
10
-1.99503997793931
20
-35.0539244294382
30
0
41
1
10
-1.99503997793931
20
-34.9698083210839
30
0
41
1
10
-1.99503997793931
20
-34.8817544969816
30
0
41
1
10
-1.99503997793934
20
-34.7898102805557
30
0
41
1
10
-1.99503997793931
20
-34.6940212809506
30
0
41
1
10
-1.99503997793931
20
-34.5944312751917
30
0
41
1
10
-1.99503997793931
20
-34.4910822904625
30
0
41
1
10
-1.99503997793934
20
-34.3482948986979
30
0
41
1
10
-1.99503997793931
20
-34.1982444859641
30
0
41
1
10
-1.99503997793931
20
-34.0605701934049
30
0
41
1
10
-1.99503997793931
20
-33.9801067081201
30
0
41
1
10
-1.99503997793931
20
-33.8984584677328
30
0
41
1
10
-1.99503997793931
20
-33.7942266244678
30
0
41
1
10
-1.99503997793931
20
-33.6227215100013
30
0
41
1
10
-1.99503997793931
20
-33.4443819493482
30
0
41
1
10
-1.99503997793931
20
-33.2591101879707
30
0
41
1
10
-1.99503997793931
20
-33.0693268620525
30
0
41
1
10
-1.99503997793931
20
-32.8237966604288
30
0
41
1
10
-1.99503997793928
20
-32.567262400264
30
0
41
1
10
-1.99503997793931
20
-32.3554556995001
30
0
41
1
10
-1.99503997793928
20
-32.1934025758849
30
0
41
1
10
-1.99503997793928
20
-32.0281430685794
30
0
41
1
10
-1.99503997793931
20
-31.8035081358321
30
0
41
1
10
-1.99503997793928
20
-31.5149070210429
30
0
41
1
10
-1.99503997793928
20
-31.2159040588431
30
0
41
1
10
-1.99503997793928
20
-30.9704527178571
30
0
41
1
10
-1.99503997793928
20
-30.7209148294369
30
0
41
1
10
-1.99503997793928
20
-30.4014843150581
30
0
41
1
10
-1.99503997793928
20
-30.0060620312649
30
0
41
1
10
-1.99503997793928
20
-29.6666623731205
30
0
41
1
10
-1.99503997793928
20
-29.3891503890766
30
0
41
1
10
-1.99503997793928
20
-29.1781205774538
30
0
41
1
10
-1.99503997793928
20
-28.964169578493
30
0
41
1
10
-1.99503997793928
20
-28.6749709038125
30
0
41
1
10
-1.99503997793928
20
-28.3063605307707
30
0
41
1
10
-1.99503997793928
20
-27.9281887523049
30
0
41
1
10
-1.99503997793928
20
-27.6198572645245
30
0
41
1
10
-1.99503997793928
20
-27.3858182086698
30
0
41
1
10
-1.99503997793928
20
-27.1489558193583
30
0
41
1
10
-1.99503997793928
20
-26.8293292051835
30
0
41
1
10
-1.99503997793928
20
-26.4229269800761
30
0
41
1
10
-1.99503997793926
20
-25.9240385075183
30
0
41
1
10
-1.99503997793928
20
-25.4991460740629
30
0
41
1
10
-1.99503997793926
20
-25.1536176922536
30
0
41
1
10
-1.99503997793926
20
-24.8044353771775
30
0
41
1
10
-1.99503997793926
20
-24.3612782589387
30
0
41
1
10
-1.99503997793926
20
-23.9090605721076
30
0
41
1
10
-1.99503997793926
20
-23.5417479137996
30
0
41
1
10
-1.99503997793926
20
-23.2636185109001
30
0
41
1
10
-1.99503997793926
20
-22.9827956359495
30
0
41
1
10
-1.99503997793926
20
-22.6047071741368
30
0
41
1
10
-1.99503997793926
20
-22.2214812917415
30
0
41
1
10
-1.99503997793926
20
-21.8326778029793
30
0
41
1
10
-1.99503997793926
20
-21.538466032195
30
0
41
1
10
-1.99503997793926
20
-21.2415899298926
30
0
41
1
10
-1.99503997793926
20
-20.8421270565358
30
0
41
1
10
-1.99503997793926
20
-20.4375997068478
30
0
41
1
10
-1.99503997793926
20
-20.0275173382951
30
0
41
1
10
-1.99503997793926
20
-19.7173732272647
30
0
41
1
10
-1.99503997793926
20
-19.4045841229999
30
0
41
1
10
-1.99503997793926
20
-18.9839194912414
30
0
41
1
10
-1.99503997793926
20
-18.5582479543883
30
0
41
1
10
-1.99503997793926
20
-18.1270203682571
30
0
41
1
10
-1.99503997793926
20
-17.8010357300387
30
0
41
1
10
-1.99503997793926
20
-17.4724160404973
30
0
41
1
10
-1.99503997793923
20
-17.1964201976603
30
0
41
1
10
-1.99503997793926
20
-16.9742159130046
30
0
41
1
10
-1.99503997793926
20
-16.7511340488146
30
0
41
1
10
-1.99503997793923
20
-16.3584761888621
30
0
41
1
10
-1.99503997793923
20
-15.9047277931739
30
0
41
1
10
-1.99503997793926
20
-15.4453839893882
30
0
41
1
10
-1.99503997793923
20
-15.0983254904573
30
0
41
1
10
-1.99503997793923
20
-14.7486306960068
30
0
41
1
10
-1.99503997793923
20
-14.3962994527457
30
0
41
1
10
-1.99503997793923
20
-14.0413293344855
30
0
41
1
10
-1.99503997793923
20
-13.683719865638
30
0
41
1
10
-1.99503997793923
20
-13.3234688690064
30
0
41
1
10
-1.99503997793923
20
-12.960574817857
30
0
41
1
10
-1.99503997793923
20
-12.595036086484
30
0
41
1
10
-1.99503997793923
20
-12.2268504032846
30
0
41
1
10
-1.99503997793923
20
-11.8560164651631
30
0
41
1
10
-1.99503997793923
20
-11.5448487178991
30
0
41
1
10
-1.99503997793923
20
-11.2944582734028
30
0
41
1
10
-1.99503997793923
20
-11.0431853255423
30
0
41
1
10
-1.99503997793923
20
-10.7276055574807
30
0
41
1
10
-1.99503997793923
20
-10.3461604572555
30
0
41
1
10
-1.99503997793923
20
-9.96205939515545
30
0
41
1
10
-1.9950399779392
20
-9.57530319982877
30
0
41
1
10
-1.99503997793923
20
-9.25087630484828
30
0
41
1
10
-1.99503997793923
20
-8.98985104945217
30
0
41
1
10
-1.99503997793923
20
-8.72794364001865
30
0
41
1
10
-1.99503997793923
20
-8.4649832423369
30
0
41
1
10
-1.99503997793923
20
-8.20041755954972
30
0
41
1
10
-1.99503997793923
20
-7.93497342164284
30
0
41
1
10
-1.99503997793923
20
-7.60174006365557
30
0
41
1
10
-1.99503997793923
20
-7.26630760435378
30
0
41
1
10
-1.99503997793923
20
-6.99646231552362
30
0
41
1
10
-1.99503997793923
20
-6.72574993640333
30
0
41
1
10
-1.99503997793923
20
-6.38598399194689
30
0
41
1
10
-1.9950399779392
20
-6.0440571882672
30
0
41
1
10
-1.99503997793923
20
-5.76902086988605
30
0
41
1
10
-1.99503997793923
20
-5.56220360150749
30
0
41
1
10
-1.99503997793923
20
-5.35475597589536
30
0
41
1
10
-1.99503997793923
20
-5.14668271481384
30
0
41
1
10
-1.9950399779392
20
-4.93799065000766
30
0
41
1
10
-1.99503997793923
20
-4.76363710905449
30
0
41
1
10
-1.9950399779392
20
-4.62372539696358
30
0
41
1
10
-1.99503997793923
20
-4.48361577983206
30
0
41
1
10
-1.9950399779392
20
-4.34342549686545
30
0
41
1
10
-1.99503997793923
20
-4.20271764804272
30
0
41
1
10
-1.99503997793923
20
-4.06181812904796
30
0
41
1
10
-1.9950399779392
20
-3.8855085074218
30
0
41
1
10
-1.99503997793923
20
-3.7087243230406
30
0
41
1
10
-1.9950399779392
20
-3.56687681977309
30
0
41
1
10
-1.9950399779392
20
-3.46041866707628
30
0
41
1
10
-1.9950399779392
20
-3.35382635526128
30
0
41
1
10
-1.9950399779392
20
-3.24710174058401
30
0
41
1
10
-1.9950399779392
20
-3.14024803839371
30
0
41
1
10
-1.99503997793923
20
-3.03326805859808
30
0
41
1
10
-1.99503997793923
20
-2.92616291868399
30
0
41
1
10
-1.9950399779392
20
-2.78310305721487
30
0
41
1
10
-1.9950399779392
20
-2.60418785734106
30
0
41
1
10
-1.99503997793923
20
-2.38891915598524
30
0
41
1
10
-1.9950399779392
20
-2.17322083473795
30
0
41
1
10
-1.99503997793923
20
-1.95712119571593
30
0
41
1
10
-1.99503997793923
20
-1.77682922491971
30
0
41
1
10
-1.99503997793923
20
-1.63223932075869
30
0
41
1
10
-1.99503997793923
20
-1.52379768483641
30
0
41
1
10
-1.9950399779392
20
-1.41528063419042
30
0
41
1
10
-1.99503997793923
20
-1.27038903897372
30
0
41
1
10
-1.9950399779392
20
-1.08935866678002
30
0
41
1
10
-1.99503997793923
20
-0.908138052921174
30
0
41
1
10
-1.9950399779392
20
-0.762866902191831
30
0
41
1
10
-1.9950399779392
20
-0.653960641303371
30
0
41
1
10
-1.9950399779392
20
-0.545019960941033
30
0
41
1
10
-1.99503997793923
20
-0.399611433921876
30
0
41
1
10
-1.9950399779392
20
-0.254507243772451
30
0
41
1
10
-1.99503997793923
20
-0.109027220250027
30
0
41
1
10
-1.9950399779392
20
9.1374659E-09
30
0
41
1
10
-1.99503997793923
20
0.109027235983348
30
0
41
1
10
-1.99503997793923
20
0.254507260377665
30
0
41
1
10
-1.9950399779392
20
0.399611451538959
30
0
41
1
10
-1.9950399779392
20
0.545019973860889
30
0
41
1
10
-1.9950399779392
20
0.653960658723463
30
0
41
1
10
-1.9950399779392
20
0.762866921466411
30
0
41
1
10
-1.9950399779392
20
0.908138069364867
30
0
41
1
10
-1.99503997793923
20
1.08935868161842
30
0
41
1
10
-1.9950399779392
20
1.27038905366359
30
0
41
1
10
-1.99503997793923
20
1.41528065788856
30
0
41
1
10
-1.9950399779392
20
1.52379770019971
30
0
41
1
10
-1.99503997793923
20
1.6322393388032
30
0
41
1
10
-1.9950399779392
20
1.77682919806017
30
0
41
1
10
-1.9950399779392
20
1.92093491483612
30
0
41
1
10
-1.99503997793923
20
2.06516367446017
30
0
41
1
10
-1.99503997793923
20
2.20926559475359
30
0
41
1
10
-1.99503997793923
20
2.35286670982623
30
0
41
1
10
-1.99503997793923
20
2.49654581237678
30
0
41
1
10
-1.9950399779392
20
2.6041237552831
30
0
41
1
10
-1.99503997793923
20
2.71158686216666
30
0
41
1
10
-1.99503997793923
20
2.81893418131361
30
0
41
1
10
-1.9950399779392
20
2.92616259642287
30
0
41
1
10
-1.99503997793923
20
3.06906085087897
30
0
41
1
10
-1.99503997793923
20
3.21144324089971
30
0
41
1
10
-1.9950399779392
20
3.35382641814786
30
0
41
1
10
-1.99503997793923
20
3.4604186809762
30
0
41
1
10
-1.99503997793923
20
3.5668768085371
30
0
41
1
10
-1.9950399779392
20
3.70872432201037
30
0
41
1
10
-1.9950399779392
20
3.88550853751428
30
0
41
1
10
-1.99503997793923
20
4.06181816740792
30
0
41
1
10
-1.99503997793923
20
4.20271766259083
30
0
41
1
10
-1.99503997793923
20
4.34342548405567
30
0
41
1
10
-1.99503997793923
20
4.48361575507573
30
0
41
1
10
-1.99503997793923
20
4.62372538326238
30
0
41
1
10
-1.9950399779392
20
4.76363712095312
30
0
41
1
10
-1.99503997793923
20
4.93799069007392
30
0
41
1
10
-1.9950399779392
20
5.14668274769548
30
0
41
1
10
-1.99503997793923
20
5.35475597096189
30
0
41
1
10
-1.9950399779392
20
5.56220357677802
30
0
41
1
10
-1.99503997793923
20
5.76902086592727
30
0
41
1
10
-1.99503997793923
20
6.04405722561486
30
0
41
1
10
-1.9950399779392
20
6.38598402190888
30
0
41
1
10
-1.99503997793923
20
6.72574990920413
30
0
41
1
10
-1.99503997793923
20
6.99646231662956
30
0
41
1
10
-1.9950399779392
20
7.26630764015115
30
0
41
1
10
-1.99503997793923
20
7.60174008666431
30
0
41
1
10
-1.99503997793923
20
7.93497336561654
30
0
41
1
10
-1.99503997793923
20
8.20041752296066
30
0
41
1
10
-1.9950399779392
20
8.46498321367616
30
0
41
1
10
-1.99503997793923
20
8.79382593589909
30
0
41
1
10
-1.99503997793923
20
9.18589158918715
30
0
41
1
10
-1.99503997793923
20
9.57530335790582
30
0
41
1
10
-1.99503997793923
20
9.96205972428265
30
0
41
1
10
-1.99503997793923
20
10.3461602965628
30
0
41
1
10
-1.99503997793923
20
10.7276051607687
30
0
41
1
10
-1.99503997793923
20
11.1063953922263
30
0
41
1
10
-1.99503997793923
20
11.4825318141738
30
0
41
1
10
-1.99503997793923
20
11.85601645061
30
0
41
1
10
-1.99503997793923
20
12.2268503778688
30
0
41
1
10
-1.99503997793923
20
12.5950360925706
30
0
41
1
10
-1.99503997793923
20
12.9605748020561
30
0
41
1
10
-1.99503997793923
20
13.3234688579878
30
0
41
1
10
-1.99503997793923
20
13.6837198698814
30
0
41
1
10
-1.99503997793923
20
13.9816645441138
30
0
41
1
10
-1.99503997793923
20
14.2188112194045
30
0
41
1
10
-1.99503997793923
20
14.455079118457
30
0
41
1
10
-1.99503997793926
20
14.7486309197531
30
0
41
1
10
-1.99503997793923
20
15.0983253104253
30
0
41
1
10
-1.99503997793923
20
15.4453840138399
30
0
41
1
10
-1.99503997793923
20
15.7898077032214
30
0
41
1
10
-1.99503997793923
20
16.1315968939283
30
0
41
1
10
-1.99503997793926
20
16.4707522036702
30
0
41
1
10
-1.99503997793923
20
16.7511340559088
30
0
41
1
10
-1.99503997793926
20
16.9742159134664
30
0
41
1
10
-1.99503997793923
20
17.1964202003686
30
0
41
1
10
-1.99503997793926
20
17.4724160483816
30
0
41
1
10
-1.99503997793923
20
17.8010357340039
30
0
41
1
10
-1.99503997793923
20
18.1270203733511
30
0
41
1
10
-1.99503997793923
20
18.5582479712653
30
0
41
1
10
-1.99503997793923
20
18.9839194922239
30
0
41
1
10
-1.99503997793923
20
19.4045841348166
30
0
41
1
10
-1.99503997793926
20
19.7173732218513
30
0
41
1
10
-1.99503997793923
20
20.0275173509219
30
0
41
1
10
-1.99503997793926
20
20.4375997139134
30
0
41
1
10
-1.99503997793923
20
20.8421270630884
30
0
41
1
10
-1.99503997793926
20
21.2415899372622
30
0
41
1
10
-1.99503997793926
20
21.5384660281962
30
0
41
1
10
-1.99503997793923
20
21.8326778142531
30
0
41
1
10
-1.99503997793926
20
22.2214812963055
30
0
41
1
10
-1.99503997793926
20
22.6047071794768
30
0
41
1
10
-1.99503997793926
20
22.9827956431365
30
0
41
1
10
-1.99503997793926
20
23.2636185073191
30
0
41
1
10
-1.99503997793926
20
23.5417479211437
30
0
41
1
10
-1.99503997793926
20
23.9090605798748
30
0
41
1
10
-1.99503997793928
20
24.3612782608926
30
0
41
1
10
-1.99503997793926
20
24.8044353773023
30
0
41
1
10
-1.99503997793926
20
25.1536176941803
30
0
41
1
10
-1.99503997793928
20
25.4991460823892
30
0
41
1
10
-1.99503997793926
20
25.9240385032945
30
0
41
1
10
-1.99503997793928
20
26.4229269838674
30
0
41
1
10
-1.99503997793928
20
26.8293292074653
30
0
41
1
10
-1.99503997793928
20
27.1489558217171
30
0
41
1
10
-1.99503997793926
20
27.3858182074443
30
0
41
1
10
-1.99503997793928
20
27.6198572656328
30
0
41
1
10
-1.99503997793926
20
27.9281887547298
30
0
41
1
10
-1.99503997793926
20
28.306360528673
30
0
41
1
10
-1.99503997793926
20
28.6749709053452
30
0
41
1
10
-1.99503997793926
20
28.9641695771706
30
0
41
1
10
-1.99503997793928
20
29.1781205760016
30
0
41
1
10
-1.99503997793926
20
29.3891503898005
30
0
41
1
10
-1.99503997793928
20
29.6666623719011
30
0
41
1
10
-1.99503997793928
20
30.0060620316198
30
0
41
1
10
-1.99503997793928
20
30.4014843078869
30
0
41
1
10
-1.99503997793928
20
30.720914832824
30
0
41
1
10
-1.99503997793928
20
30.9704527129577
30
0
41
1
10
-1.99503997793928
20
31.2159040534273
30
0
41
1
10
-1.99503997793928
20
31.5149070177094
30
0
41
1
10
-1.99503997793928
20
31.8035081361274
30
0
41
1
10
-1.99503997793928
20
32.0281430662551
30
0
41
1
10
-1.99503997793931
20
32.1934025642943
30
0
41
1
10
-1.99503997793931
20
32.3554556997831
30
0
41
1
10
-1.99503997793931
20
32.5672623983938
30
0
41
1
10
-1.99503997793931
20
32.8237966601455
30
0
41
1
10
-1.99503997793928
20
33.0693268459332
30
0
41
1
10
-1.99503997793931
20
33.2591101848391
30
0
41
1
10
-1.99503997793931
20
33.4443819491762
30
0
41
1
10
-1.99503997793928
20
33.622721506097
30
0
41
1
10
-1.99503997793928
20
33.7942266163982
30
0
41
1
10
-1.99503997793931
20
33.8984584538254
30
0
41
1
10
-1.99503997793931
20
33.9801066971493
30
0
41
1
10
-1.99503997793931
20
34.0605701909876
30
0
41
1
10
-1.99503997793928
20
34.1982444851696
30
0
41
1
10
-1.99503997793931
20
34.348294891195
30
0
41
1
10
-1.99503997793931
20
34.4910822889059
30
0
41
1
10
-1.99503997793931
20
34.5944312514431
30
0
41
1
10
-1.99503997793931
20
34.6940212865371
30
0
41
1
10
-1.99503997793931
20
34.7898102716018
30
0
41
1
10
-1.99503997793931
20
34.8817544739768
30
0
41
1
10
-1.99503997793931
20
34.9698083299964
30
0
41
1
10
-1.99503997793934
20
35.0539245925551
30
0
41
1
10
-1.99503997793931
20
35.1340530052702
30
0
41
1
10
-1.99503997793931
20
35.2101447225725
30
0
41
1
10
-1.99503997793934
20
35.3061643717785
30
0
41
1
10
-1.99503997793931
20
35.393827084185
30
0
41
1
10
-1.99503997793934
20
35.4730177575679
30
0
41
1
10
-1.99503997793934
20
35.5280658263188
30
0
41
1
10
-1.99503997793934
20
35.5787156824351
30
0
41
1
10
-1.99503997793931
20
35.6248991716382
30
0
41
1
10
-1.99503997793934
20
35.6665413308515
30
0
41
1
10
-1.99503997793934
20
35.7035662864511
30
0
41
1
10
-1.99503997793934
20
35.7358925782286
30
0
41
1
10
-1.99503997793934
20
35.7634347985348
30
0
41
1
10
-1.99503997793934
20
35.7861037017736
30
0
41
1
10
-1.99503997793934
20
35.8038036057849
30
0
41
1
10
-1.99503997793934
20
35.8164351684488
30
0
41
1
10
-1.99503997793931
20
35.8238320537395
30
0
41
1
10
-1.99503997793934
20
35.8253026775082
30
0
41
1
10
-1.99503997793934
20
35.8251709853829
30
0
0
SPLINE
5
12C
100
AcDbEntity
8
SK1
62
256
6
ByLayer
370
18
48
1
60
0
100
AcDbSpline
70
4
71
3
72
24
73
20
40
0
40
0
40
0
40
0
40
0.0605000578205783
40
0.0605000578205783
40
0.121000115641156
40
0.121000115641156
40
0.181500173461735
40
0.181500173461735
40
0.242000231282313
40
0.242000231282313
40
0.36300034692347
40
0.36300034692347
40
0.484000462564626
40
0.484000462564626
40
0.726000693846949
40
0.726000693846949
40
0.968000925129273
40
0.968000925129273
40
1
40
1
40
1
40
1
41
1
10
-0.394976888875277
20
-35.4775231381726
30
0
41
1
10
-0.388671475101063
20
-35.4766997478129
30
0
41
1
10
-0.381811534709101
20
-35.4762709949139
30
0
41
1
10
-0.366640616938611
20
-35.4768792325637
30
0
41
1
10
-0.358277609119455
20
-35.4779823276479
30
0
41
1
10
-0.341585771346672
20
-35.4821737215533
30
0
41
1
10
-0.333329482090733
20
-35.485267549144
30
0
41
1
10
-0.318937365840043
20
-35.4921874163471
30
0
41
1
10
-0.312691079617224
20
-35.4959734507353
30
0
41
1
10
-0.296014776342389
20
-35.5075158416867
30
0
41
1
10
-0.287611873903018
20
-35.5153652851929
30
0
41
1
10
-0.273149668289051
20
-35.5307592099813
30
0
41
1
10
-0.267232007765102
20
-35.5382733023983
30
0
41
1
10
-0.251522836037793
20
-35.5604731484623
30
0
41
1
10
-0.243762874650969
20
-35.5748469170972
30
0
41
1
10
-0.230811617005998
20
-35.6028852486128
30
0
41
1
10
-0.225742287920923
20
-35.6164587953366
30
0
41
1
10
-0.220958300237982
20
-35.6314721127433
30
0
41
1
10
-0.220414216140853
20
-35.6332200002982
30
0
41
1
10
-0.219884306376002
20
-35.6349625564951
30
0
0
SPLINE
5
12D
100
AcDbEntity
8
SK1
62
256
6
ByLayer
370
18
48
1
60
0
100
AcDbSpline
70
4
71
3
72
18
73
14
40
0
40
0
40
0
40
0
40
0.139336561036008
40
0.139336561036008
40
0.499660147637235
40
0.499660147637235
40
0.679821940937841
40
0.679821940937841
40
0.859983734238447
40
0.859983734238447
40
0.950064630888751
40
0.950064630888751
40
1
40
1
40
1
40
1
41
1
10
-0.201682998215489
20
-29.0174984733808
30
0
41
1
10
-0.202416260233918
20
-29.0342091312932
30
0
41
1
10
-0.203405110370056
20
-29.0508046335256
30
0
41
1
10
-0.20797808931195
20
-29.1098671795148
30
0
41
1
10
-0.213104238159332
20
-29.15166329712
30
0
41
1
10
-0.225863680076088
20
-29.212430708525
30
0
41
1
10
-0.230960581830033
20
-29.2323021122835
30
0
41
1
10
-0.243909693549227
20
-29.2709230268983
30
0
41
1
10
-0.251695468058358
20
-29.2897316982483
30
0
41
1
10
-0.267365194374378
20
-29.3158651092749
30
0
41
1
10
-0.273258925337132
20
-29.3242443982196
30
0
41
1
10
-0.284384967822547
20
-29.3363491201687
30
0
41
1
10
-0.288750053687409
20
-29.340543833953
30
0
41
1
10
-0.293751375740726
20
-29.3443560080459
30
0
0
SPLINE
5
12E
100
AcDbEntity
8
SK1
62
256
6
ByLayer
370
18
48
1
60
0
100
AcDbSpline
70
4
71
3
72
24
73
20
40
0
40
0
40
0
40
0
40
0.25
40
0.25
40
0.499999999999999
40
0.499999999999999
40
0.624999999999999
40
0.624999999999999
40
0.749999999999998
40
0.749999999999998
40
0.8125
40
0.8125
40
0.875000000000002
40
0.875000000000002
40
0.906250000000004
40
0.906250000000004
40
0.937500000000005
40
0.937500000000005
40
1
40
1
40
1
40
1
41
1
10
-0.199999999999903
20
-6.83961978441502
30
0
41
1
10
-0.199999999999903
20
-6.77266365744987
30
0
41
1
10
-0.201382572616865
20
-6.70565659874697
30
0
41
1
10
-0.207977972208084
20
-6.57153390296776
30
0
41
1
10
-0.213104017709355
20
-6.50438623378952
30
0
41
1
10
-0.225863327175546
20
-6.40368599150972
30
0
41
1
10
-0.230960199961061
20
-6.37022262623043
30
0
41
1
10
-0.243909322930904
20
-6.30365027444691
30
0
41
1
10
-0.251695140322738
20
-6.2704667975288
30
0
41
1
10
-0.267365003958702
20
-6.2222404342121
30
0
41
1
10
-0.273258792574495
20
-6.20639762175679
30
0
41
1
10
-0.287575041851966
20
-6.17559244970445
30
0
41
1
10
-0.296025423984275
20
-6.16029740280644
30
0
41
1
10
-0.312745147160314
20
-6.14053723214866
30
0
41
1
10
-0.31896439606976
20
-6.13456921276233
30
0
41
1
10
-0.333306743992097
20
-6.12532418760182
30
0
41
1
10
-0.341564173961785
20
-6.12220353729688
30
0
41
1
10
-0.36664059081545
20
-6.12048722824946
30
0
41
1
10
-0.382359877230101
20
-6.12921276185216
30
0
41
1
10
-0.394976888875419
20
-6.14029722152824
30
0
0
SPLINE
5
12F
100
AcDbEntity
8
SK1
62
256
6
ByLayer
370
18
48
1
60
0
100
AcDbSpline
70
4
71
3
72
123
73
119
40
0
40
0
40
0
40
0
40
0.0048496390931114
40
0.0125135941726558
40
0.016345571712428
40
0.0201775492522002
40
0.0278415043317445
40
0.0355054594112889
40
0.039337436951061
40
0.0431694144908332
40
0.0508333695703776
40
0.0584973246499219
40
0.0661612797294663
40
0.0738252348090106
40
0.081489189888555
40
0.0891531449680994
40
0.0968171000476437
40
0.104481055127188
40
0.112145010206732
40
0.119808965286277
40
0.127472920365821
40
0.135136875445366
40
0.14280083052491
40
0.150464785604454
40
0.158128740683998
40
0.161960718223771
40
0.165792695763543
40
0.173456650843087
40
0.181120605922632
40
0.188784561002176
40
0.19644851608172
40
0.204112471161265
40
0.211776426240809
40
0.219440381320353
40
0.223272358860126
40
0.227104336399898
40
0.234768291479442
40
0.242432246558986
40
0.250096201638531
40
0.257760156718075
40
0.273088066877164
40
0.280752021956708
40
0.288415977036253
40
0.296079932115797
40
0.303743887195341
40
0.31907179735443
40
0.326735752433974
40
0.334399707513519
40
0.342063662593063
40
0.349727617672607
40
0.365055527831696
40
0.372719482911241
40
0.380383437990785
40
0.388047393070329
40
0.395711348149874
40
0.411039258308962
40
0.426367168468051
40
0.434031123547595
40
0.44169507862714
40
0.457022988786228
40
0.472350898945317
40
0.487678809104406
40
0.49534276418395
40
0.503006719263495
40
0.510670674343039
40
0.518334629422583
40
0.533662539581672
40
0.548990449740761
40
0.556654404820305
40
0.564318359899849
40
0.571982314979394
40
0.579646270058938
40
0.594974180218027
40
0.610302090377115
40
0.625630000536204
40
0.633293955615749
40
0.640957910695293
40
0.656285820854382
40
0.67161373101347
40
0.679277686093015
40
0.686941641172559
40
0.694605596252103
40
0.702269551331648
40
0.717597461490736
40
0.732925371649825
40
0.74058932672937
40
0.748253281808914
40
0.763581191968003
40
0.771245147047547
40
0.778909102127091
40
0.782741079666863
40
0.786573057206636
40
0.79423701228618
40
0.809564922445269
40
0.817228877524813
40
0.824892832604357
40
0.832556787683902
40
0.840220742763446
40
0.84788469784299
40
0.855548652922535
40
0.863212608002079
40
0.870876563081624
40
0.878540518161168
40
0.886204473240712
40
0.901532383399801
40
0.909196338479345
40
0.91686029355889
40
0.924524248638434
40
0.932188203717979
40
0.939852158797523
40
0.947516113877067
40
0.955180068956611
40
0.962844024036156
40
0.9705079791157
40
0.978171934195245
40
0.985835889274789
40
0.993499844354333
40
1
40
1
40
1
40
1
41
1
10
-0.39497688887522
20
6.14029748393358
30
0
41
1
10
-0.39497688887522
20
6.22707397316501
30
0
41
1
10
-0.39497688887522
20
6.4505004917111
30
0
41
1
10
-0.39497688887522
20
6.74082518692177
30
0
41
1
10
-0.394976888875192
20
7.01191434968567
30
0
41
1
10
-0.39497688887522
20
7.28212710030419
30
0
41
1
10
-0.394976888875192
20
7.61805782474269
30
0
41
1
10
-0.39497688887522
20
7.95177199064213
30
0
41
1
10
-0.394976888875192
20
8.21754949980777
30
0
41
1
10
-0.394976888875192
20
8.48244125097074
30
0
41
1
10
-0.39497688887522
20
8.81172783237585
30
0
41
1
10
-0.39497688887522
20
9.20428399686458
30
0
41
1
10
-0.394976888875192
20
9.59416972776225
30
0
41
1
10
-0.39497688887522
20
9.98138463666174
30
0
41
1
10
-0.394976888875192
20
10.3659293652703
30
0
41
1
10
-0.394976888875192
20
10.7478049083352
30
0
41
1
10
-0.39497688887522
20
11.1270131973585
30
0
41
1
10
-0.394976888875192
20
11.5035558012536
30
0
41
1
10
-0.394976888875192
20
11.8774354513043
30
0
41
1
10
-0.39497688887522
20
12.2486538532732
30
0
41
1
10
-0.39497688887522
20
12.6172140771122
30
0
41
1
10
-0.39497688887522
20
12.9831178868122
30
0
41
1
10
-0.39497688887522
20
13.3463680811382
30
0
41
1
10
-0.39497688887522
20
13.7069667840625
30
0
41
1
10
-0.394976888875192
20
14.0052089603083
30
0
41
1
10
-0.39497688887522
20
14.2425643537976
30
0
41
1
10
-0.394976888875192
20
14.4790383776377
30
0
41
1
10
-0.39497688887522
20
14.7728739584207
30
0
41
1
10
-0.39497688887522
20
15.1228859444593
30
0
41
1
10
-0.39497688887522
20
15.4702555471364
30
0
41
1
10
-0.39497688887522
20
15.8149837556983
30
0
41
1
10
-0.394976888875249
20
16.1570713412192
30
0
41
1
10
-0.39497688887522
20
16.4965191583142
30
0
41
1
10
-0.39497688887522
20
16.7771522140654
30
0
41
1
10
-0.39497688887522
20
17.0004108954029
30
0
41
1
10
-0.39497688887522
20
17.222790143213
30
0
41
1
10
-0.39497688887522
20
17.4990274946616
30
0
41
1
10
-0.39497688887522
20
17.8279183615914
30
0
41
1
10
-0.39497688887522
20
18.1541693183472
30
0
41
1
10
-0.39497688887522
20
18.5857236544632
30
0
41
1
10
-0.394976888875249
20
19.0117775851467
30
0
41
1
10
-0.39497688887522
20
19.4327531367487
30
0
41
1
10
-0.39497688887522
20
19.7457866678881
30
0
41
1
10
-0.39497688887522
20
20.0561712754683
30
0
41
1
10
-0.39497688887522
20
20.4665492038552
30
0
41
1
10
-0.39497688887522
20
20.8714231957186
30
0
41
1
10
-0.394976888875249
20
21.2711684505154
30
0
41
1
10
-0.394976888875249
20
21.5682668891846
30
0
41
1
10
-0.394976888875249
20
21.8626976962737
30
0
41
1
10
-0.39497688887522
20
22.2517707390545
30
0
41
1
10
-0.394976888875249
20
22.635313242394
30
0
41
1
10
-0.39497688887522
20
23.0136599970686
30
0
41
1
10
-0.39497688887522
20
23.2946864708619
30
0
41
1
10
-0.39497688887522
20
23.5730166298655
30
0
41
1
10
-0.394976888875249
20
23.9405766122791
30
0
41
1
10
-0.394976888875249
20
24.3931333811418
30
0
41
1
10
-0.394976888875249
20
24.8366207519515
30
0
41
1
10
-0.39497688887522
20
25.1860341652141
30
0
41
1
10
-0.394976888875249
20
25.5317904302903
30
0
41
1
10
-0.39497688887522
20
25.9569955457311
30
0
41
1
10
-0.394976888875249
20
26.4562321610578
30
0
41
1
10
-0.394976888875249
20
26.8629311663352
30
0
41
1
10
-0.394976888875249
20
27.1827656093462
30
0
41
1
10
-0.394976888875249
20
27.4197920823074
30
0
41
1
10
-0.394976888875249
20
27.6539931014151
30
0
41
1
10
-0.394976888875249
20
27.9625243956634
30
0
41
1
10
-0.394976888875277
20
28.3409704949157
30
0
41
1
10
-0.394976888875277
20
28.7098481402264
30
0
41
1
10
-0.394976888875249
20
28.9992339808614
30
0
41
1
10
-0.394976888875249
20
29.2133327647665
30
0
41
1
10
-0.394976888875277
20
29.4245084222719
30
0
41
1
10
-0.394976888875277
20
29.7022003135975
30
0
41
1
10
-0.394976888875277
20
30.041846883991
30
0
41
1
10
-0.394976888875277
20
30.4375437690499
30
0
41
1
10
-0.394976888875277
20
30.7572080062434
30
0
41
1
10
-0.394976888875277
20
31.0069093580469
30
0
41
1
10
-0.394976888875249
20
31.2525219484188
30
0
41
1
10
-0.394976888875277
20
31.5517459016333
30
0
41
1
10
-0.394976888875277
20
31.8405614204
30
0
41
1
10
-0.394976888875277
20
32.0653460663191
30
0
41
1
10
-0.394976888875277
20
32.2307235504388
30
0
41
1
10
-0.394976888875277
20
32.3928928338023
30
0
41
1
10
-0.394976888875277
20
32.6048424687674
30
0
41
1
10
-0.394976888875277
20
32.8615720410335
30
0
41
1
10
-0.394976888875306
20
33.1072907219371
30
0
41
1
10
-0.394976888875277
20
33.2972051548837
30
0
41
1
10
-0.394976888875277
20
33.4826057619405
30
0
41
1
10
-0.394976888875277
20
33.6610954954258
30
0
41
1
10
-0.394976888875277
20
33.8327219500751
30
0
41
1
10
-0.394976888875277
20
33.9370369896414
30
0
41
1
10
-0.394976888875306
20
34.0187437151791
30
0
41
1
10
-0.394976888875277
20
34.0992650911192
30
0
41
1
10
-0.394976888875277
20
34.237041913251
30
0
41
1
10
-0.394976888875306
20
34.3872241278821
30
0
41
1
10
-0.394976888875306
20
34.5301171770343
30
0
41
1
10
-0.394976888875306
20
34.6335485066014
30
0
41
1
10
-0.394976888875306
20
34.7332186300704
30
0
41
1
10
-0.394976888875306
20
34.8290853700734
30
0
41
1
10
-0.394976888875306
20
34.9211049364669
30
0
41
1
10
-0.394976888875306
20
35.0092317015021
30
0
41
1
10
-0.394976888875334
20
35.0934183585436
30
0
41
1
10
-0.394976888875306
20
35.1736145542893
30
0
41
1
10
-0.394976888875306
20
35.2497713845769
30
0
41
1
10
-0.394976888875306
20
35.3458690564808
30
0
41
1
10
-0.394976888875306
20
35.4336188232989
30
0
41
1
10
-0.394976888875306
20
35.5128761964009
30
0
41
1
10
-0.394976888875306
20
35.5679744983808
30
0
41
1
10
-0.394976888875334
20
35.6186712456131
30
0
41
1
10
-0.394976888875306
20
35.6648981389415
30
0
41
1
10
-0.394976888875306
20
35.7065800550004
30
0
41
1
10
-0.394976888875306
20
35.7436409390551
30
0
41
1
10
-0.394976888875334
20
35.7759991408607
30
0
41
1
10
-0.394976888875306
20
35.8035690347397
30
0
41
1
10
-0.394976888875334
20
35.826261141687
30
0
41
1
10
-0.394976888875334
20
35.8439795171219
30
0
41
1
10
-0.394976888875334
20
35.8566245309614
30
0
41
1
10
-0.394976888875334
20
35.863711173876
30
0
41
1
10
-0.394976888875334
20
35.8652966708855
30
0
41
1
10
-0.394976888875334
20
35.8653774837283
30
0
0
SPLINE
5
130
100
AcDbEntity
8
SK1
62
256
6
ByLayer
370
18
48
1
60
0
100
AcDbSpline
70
4
71
3
72
26
73
22
40
0
40
0
40
0
40
0
40
0.0312499999999999
40
0.0312499999999999
40
0.0624999999999998
40
0.0624999999999998
40
0.0937499999999997
40
0.0937499999999997
40
0.125
40
0.125
40
0.187500000000002
40
0.187500000000002
40
0.250000000000004
40
0.250000000000004
40
0.375000000000005
40
0.375000000000005
40
0.500000000000007
40
0.500000000000007
40
0.750000000000003
40
0.750000000000003
40
1
40
1
40
1
40
1
41
1
10
-0.394976888875192
20
6.14029748393358
30
0
41
1
10
-0.38867154234373
20
6.13475802495364
30
0
41
1
10
-0.381811688236155
20
6.12988869329274
30
0
41
1
10
-0.366640931323417
20
6.12297362066241
30
0
41
1
10
-0.358278007449911
20
6.12106156290508
30
0
41
1
10
-0.341586244187795
20
6.12220054473732
30
0
41
1
10
-0.333329946063941
20
6.12530915500176
30
0
41
1
10
-0.318937761824714
20
6.13458695676917
30
0
41
1
10
-0.312691447115242
20
6.14059423910973
30
0
41
1
10
-0.296015040763535
20
6.16032344698255
30
0
41
1
10
-0.287612080656288
20
6.17550182304001
30
0
41
1
10
-0.273149761403346
20
6.20664379931856
30
0
41
1
10
-0.26723204792205
20
6.22260462544975
30
0
41
1
10
-0.251522730309659
20
6.27109030505437
30
0
41
1
10
-0.243762688270067
20
6.30429135194925
30
0
41
1
10
-0.230811347956603
20
6.3711040042067
30
0
41
1
10
-0.225742010447902
20
6.40454205690904
30
0
41
1
10
-0.213066187746506
20
6.50489212673546
30
0
41
1
10
-0.207959301007463
20
6.57183900384277
30
0
41
1
10
-0.201382597553732
20
6.70573141098549
30
0
41
1
10
-0.199999999999989
20
6.77268016381564
30
0
41
1
10
-0.199999999999989
20
6.83961987074574
30
0
0
SPLINE
5
131
100
AcDbEntity
8
SK1
62
256
6
ByLayer
370
18
48
1
60
0
100
AcDbSpline
70
4
71
3
72
321
73
317
40
0
40
0
40
0
40
0
40
0.0022722282138889
40
0.0057231523140469
40
0.0091740764142049
40
0.0126250005143629
40
0.0160759246145209
40
0.0195268487146789
40
0.0229777728148369
40
0.026428696914995
40
0.0298796210151529
40
0.033330545115311
40
0.036781469215469
40
0.040232393315627
40
0.043683317415785
40
0.047134241515943
40
0.050585165616101
40
0.057487013816417
40
0.060937937916575
40
0.064388862016733
40
0.067839786116891
40
0.071290710217049
40
0.074741634317207
40
0.078192558417365
40
0.081643482517523
40
0.0850944066176809
40
0.0885453307178389
40
0.0919962548179969
40
0.0988981030183129
40
0.102349027118471
40
0.10407448916855
40
0.105799951218629
40
0.109250875318787
40
0.112701799418945
40
0.119603647619261
40
0.123054571719419
40
0.126505495819577
40
0.133407344019893
40
0.140309192220209
40
0.143760116320367
40
0.147211040420525
40
0.150661964520683
40
0.154112888620841
40
0.161014736821157
40
0.167916585021473
40
0.171367509121631
40
0.174818433221789
40
0.181720281422105
40
0.188622129622421
40
0.195523977822737
40
0.198974901922895
40
0.202425826023053
40
0.205876750123211
40
0.209327674223369
40
0.216229522423685
40
0.223131370624001
40
0.226582294724159
40
0.230033218824317
40
0.233484142924475
40
0.236935067024633
40
0.243836915224949
40
0.250738763425265
40
0.257640611625581
40
0.261091535725739
40
0.264542459825897
40
0.271444308026213
40
0.278346156226529
40
0.281797080326687
40
0.285248004426845
40
0.288698928527003
40
0.292149852627161
40
0.299051700827477
40
0.302502624927635
40
0.305953549027793
40
0.309404473127951
40
0.312855397228109
40
0.319757245428425
40
0.323208169528583
40
0.326659093628741
40
0.330110017728899
40
0.333560941829057
40
0.340462790029373
40
0.343913714129531
40
0.347364638229689
40
0.350815562329847
40
0.354266486430005
40
0.355991948480084
40
0.357717410530163
40
0.361168334630321
40
0.364619258730479
40
0.368070182830637
40
0.371521106930795
40
0.374972031030953
40
0.378422955131111
40
0.381873879231269
40
0.383599341281348
40
0.385324803331427
40
0.388775727431585
40
0.392226651531743
40
0.395677575631901
40
0.399128499732059
40
0.402579423832217
40
0.406030347932375
40
0.409481272032533
40
0.412932196132691
40
0.416383120232849
40
0.419834044333007
40
0.423284968433165
40
0.426735892533323
40
0.430186816633481
40
0.433637740733639
40
0.437088664833797
40
0.438814126883876
40
0.440539588933955
40
0.443990513034113
40
0.447441437134271
40
0.44916689918435
40
0.450892361234429
40
0.454343285334587
40
0.457794209434745
40
0.459519671484824
40
0.461245133534903
40
0.462970595584982
40
0.464696057635061
40
0.46642151968514
40
0.468146981735219
40
0.469009712760259
40
0.469872443785298
40
0.471597905835377
40
0.472460636860417
40
0.473323367885456
40
0.475048829935535
40
0.476774291985614
40
0.477637023010654
40
0.478499754035693
40
0.479362485060733
40
0.480225216085772
40
0.481950678135851
40
0.482813409160891
40
0.48367614018593
40
0.48453887121097
40
0.485401602236009
40
0.486264333261049
40
0.487127064286088
40
0.488852526336167
40
0.489715257361207
40
0.490577988386246
40
0.492303450436325
40
0.493166181461364
40
0.494028912486404
40
0.494891643511444
40
0.495754374536483
40
0.497479836586562
40
0.499205298636641
40
0.500068029661681
40
0.50093076068672
40
0.50179349171176
40
0.502656222736799
40
0.504381684786878
40
0.505244415811918
40
0.506107146836957
40
0.506969877861997
40
0.507832608887036
40
0.509558070937115
40
0.510420801962155
40
0.511283532987194
40
0.512146264012234
40
0.513008995037273
40
0.514734457087352
40
0.516459919137431
40
0.51732265016247
40
0.51818538118751
40
0.51904811221255
40
0.519910843237589
40
0.521636305287668
40
0.523361767337747
40
0.525087229387826
40
0.526812691437905
40
0.528538153487984
40
0.529400884513024
40
0.530263615538063
40
0.531126346563103
40
0.531989077588142
40
0.532851808613182
40
0.533714539638221
40
0.534577270663261
40
0.5354400016883
40
0.537165463738379
40
0.538890925788458
40
0.539753656813498
40
0.540616387838537
40
0.542341849888616
40
0.543204580913656
40
0.544067311938695
40
0.545792773988774
40
0.547518236038853
40
0.549243698088932
40
0.550969160139011
40
0.55269462218909
40
0.554420084239169
40
0.557871008339327
40
0.561321932439485
40
0.563047394489564
40
0.564772856539643
40
0.568223780639801
40
0.571674704739959
40
0.573400166790038
40
0.575125628840117
40
0.578576552940275
40
0.580302014990354
40
0.582027477040433
40
0.585478401140591
40
0.588929325240749
40
0.592380249340907
40
0.595831173441065
40
0.599282097541223
40
0.601007559591302
40
0.602733021641381
40
0.606183945741539
40
0.609634869841697
40
0.613085793941855
40
0.616536718042013
40
0.619987642142171
40
0.623438566242329
40
0.626889490342487
40
0.630340414442645
40
0.633791338542803
40
0.637242262642961
40
0.640693186743119
40
0.644144110843277
40
0.651045959043593
40
0.654496883143751
40
0.65622234519383
40
0.657947807243909
40
0.661398731344067
40
0.664849655444225
40
0.668300579544383
40
0.671751503644541
40
0.678653351844857
40
0.682104275945015
40
0.685555200045173
40
0.689006124145331
40
0.692457048245489
40
0.699358896445805
40
0.702809820545963
40
0.706260744646121
40
0.709711668746279
40
0.713162592846437
40
0.720064441046753
40
0.723515365146911
40
0.726966289247069
40
0.730417213347227
40
0.733868137447385
40
0.740769985647701
40
0.747671833848017
40
0.751122757948175
40
0.754573682048333
40
0.761475530248649
40
0.768377378448965
40
0.775279226649281
40
0.778730150749439
40
0.782181074849597
40
0.785631998949755
40
0.789082923049913
40
0.795984771250229
40
0.802886619450545
40
0.806337543550703
40
0.809788467650861
40
0.813239391751019
40
0.816690315851177
40
0.823592164051493
40
0.830494012251809
40
0.837395860452125
40
0.840846784552283
40
0.844297708652441
40
0.851199556852757
40
0.858101405053073
40
0.861552329153231
40
0.865003253253389
40
0.868454177353547
40
0.871905101453705
40
0.878806949654021
40
0.885708797854337
40
0.889159721954495
40
0.892610646054653
40
0.899512494254969
40
0.902963418355127
40
0.906414342455285
40
0.908139804505364
40
0.909865266555443
40
0.913316190655601
40
0.920218038855917
40
0.923668962956075
40
0.927119887056233
40
0.930570811156391
40
0.934021735256549
40
0.937472659356707
40
0.940923583456865
40
0.944374507557023
40
0.947825431657181
40
0.951276355757339
40
0.954727279857497
40
0.958178203957655
40
0.961629128057813
40
0.965080052157971
40
0.968530976258129
40
0.971981900358287
40
0.975432824458445
40
0.978883748558603
40
0.982334672658761
40
0.985785596758919
40
0.989236520859077
40
0.992687444959235
40
0.996138369059393
40
0.999589293159551
40
1
40
1
40
1
40
1
41
1
10
-60.0000000000001
20
33.455655885708
30
0
41
1
10
-60
20
33.4576332350721
30
0
41
1
10
-60
20
33.4616638240474
30
0
41
1
10
-60
20
33.4643410509434
30
0
41
1
10
-60.0000000000001
20
33.4623133815696
30
0
41
1
10
-60
20
33.4553334593645
30
0
41
1
10
-60
20
33.4434921454555
30
0
41
1
10
-60
20
33.4268774268509
30
0
41
1
10
-60
20
33.4055717280174
30
0
41
1
10
-60
20
33.3796553140389
30
0
41
1
10
-60.0000000000001
20
33.3492037178841
30
0
41
1
10
-60
20
33.314289538161
30
0
41
1
10
-60.0000000000001
20
33.2749830705361
30
0
41
1
10
-60
20
33.2313495484921
30
0
41
1
10
-60
20
33.1834545182116
30
0
41
1
10
-60
20
33.1313576224893
30
0
41
1
10
-60
20
33.0560855188702
30
0
41
1
10
-60
20
32.9735372025895
30
0
41
1
10
-60
20
32.8821013415762
30
0
41
1
10
-60
20
32.8098349743486
30
0
41
1
10
-60
20
32.733688775323
30
0
41
1
10
-60
20
32.6537081477481
30
0
41
1
10
-60
20
32.5699376540553
30
0
41
1
10
-60
20
32.4824210440016
30
0
41
1
10
-60
20
32.391200116408
30
0
41
1
10
-60
20
32.2963152268368
30
0
41
1
10
-60
20
32.1978052794717
30
0
41
1
10
-60
20
32.0612248425865
30
0
41
1
10
-60
20
31.9189181156055
30
0
41
1
10
-60
20
31.7872672789305
30
0
41
1
10
-60
20
31.7102043249634
30
0
41
1
10
-60
20
31.6319918777348
30
0
41
1
10
-60
20
31.5326481176695
30
0
41
1
10
-60
20
31.3682719173465
30
0
41
1
10
-60
20
31.1987551463809
30
0
41
1
10
-60
20
31.0210528170066
30
0
41
1
10
-60
20
30.8389711768625
30
0
41
1
10
-60
20
30.6045149696702
30
0
41
1
10
-60
20
30.3594550872206
30
0
41
1
10
-60
20
30.1560458164262
30
0
41
1
10
-60
20
30.0008163011261
30
0
41
1
10
-60
20
29.8424884168047
30
0
41
1
10
-60
20
29.6266492024767
30
0
41
1
10
-60
20
29.3506439800406
30
0
41
1
10
-60
20
29.0646239872063
30
0
41
1
10
-60
20
28.8286459848585
30
0
41
1
10
-60
20
28.588711970395
30
0
41
1
10
-60
20
28.2830119047979
30
0
41
1
10
-60
20
27.9037227355801
30
0
41
1
10
-60
20
27.5788289346229
30
0
41
1
10
-60
20
27.3118865150179
30
0
41
1
10
-60
20
27.1094249342747
30
0
41
1
10
-60
20
26.9041562227329
30
0
41
1
10
-60
20
26.6259536097733
30
0
41
1
10
-59.9999999999999
20
26.2730451104148
30
0
41
1
10
-60
20
25.9109897890729
30
0
41
1
10
-60
20
25.6143967365825
30
0
41
1
10
-60
20
25.3898727883459
30
0
41
1
10
-60
20
25.1626504323296
30
0
41
1
10
-60
20
24.8552336369894
30
0
41
1
10
-60
20
24.4662671647181
30
0
41
1
10
-60
20
23.9878313987672
30
0
41
1
10
-60
20
23.581309600239
30
0
41
1
10
-60
20
23.249168845647
30
0
41
1
10
-60
20
22.9135633071667
30
0
41
1
10
-59.9999999999999
20
22.4898084449714
30
0
41
1
10
-60
20
22.0575119779296
30
0
41
1
10
-60
20
21.7047294419233
30
0
41
1
10
-60
20
21.4383936907813
30
0
41
1
10
-60
20
21.1695327729883
30
0
41
1
10
-60
20
20.8066187564656
30
0
41
1
10
-60
20
20.4419941243111
30
0
41
1
10
-60
20
20.0690271785162
30
0
41
1
10
-59.9999999999999
20
19.787682750911
30
0
41
1
10
-60
20
19.5038694602985
30
0
41
1
10
-59.9999999999999
20
19.1209962837445
30
0
41
1
10
-60
20
18.7368339912086
30
0
41
1
10
-59.9999999999999
20
18.3441159235589
30
0
41
1
10
-59.9999999999999
20
18.0480997672743
30
0
41
1
10
-59.9999999999999
20
17.7496716294468
30
0
41
1
10
-60
20
17.3472727105996
30
0
41
1
10
-60
20
16.9440675389051
30
0
41
1
10
-59.9999999999999
20
16.532035620606
30
0
41
1
10
-59.9999999999999
20
16.2216969743561
30
0
41
1
10
-59.9999999999999
20
15.9090090330769
30
0
41
1
10
-59.9999999999999
20
15.6472013716544
30
0
41
1
10
-60
20
15.4352759364928
30
0
41
1
10
-59.9999999999999
20
15.2225823733162
30
0
41
1
10
-59.9999999999999
20
14.9569585815733
30
0
41
1
10
-59.9999999999999
20
14.634987908958
30
0
41
1
10
-60
20
14.3107292402958
30
0
41
1
10
-59.9999999999999
20
13.9841958759155
30
0
41
1
10
-59.9999999999999
20
13.6554023236347
30
0
41
1
10
-59.9999999999999
20
13.3243664763056
30
0
41
1
10
-60
20
13.0474865550707
30
0
41
1
10
-59.9999999999999
20
12.8233283675936
30
0
41
1
10
-59.9999999999999
20
12.5984437652583
30
0
41
1
10
-59.9999999999999
20
12.3179771615538
30
0
41
1
10
-59.9999999999999
20
11.9781527958056
30
0
41
1
10
-59.9999999999999
20
11.6361816637219
30
0
41
1
10
-59.9999999999999
20
11.292092379822
30
0
41
1
10
-59.9999999999999
20
10.945908859449
30
0
41
1
10
-59.9999999999999
20
10.5976625981365
30
0
41
1
10
-59.9999999999999
20
10.2473847821601
30
0
41
1
10
-59.9999999999999
20
9.89511131375593
30
0
41
1
10
-60
20
9.54088172151239
30
0
41
1
10
-59.9999999999999
20
9.18473899017405
30
0
41
1
10
-59.9999999999999
20
8.82673234426119
30
0
41
1
10
-59.9999999999999
20
8.46691508480725
30
0
41
1
10
-59.9999999999999
20
8.10534831886903
30
0
41
1
10
-59.9999999999999
20
7.74209991377398
30
0
41
1
10
-59.9999999999999
20
7.4393336607493
30
0
41
1
10
-59.9999999999999
20
7.19392383197427
30
0
41
1
10
-59.9999999999999
20
6.94806390056186
30
0
41
1
10
-59.9999999999999
20
6.64308245049975
30
0
41
1
10
-59.9999999999999
20
6.33692354274459
30
0
41
1
10
-59.9999999999999
20
6.08866434779782
30
0
41
1
10
-59.9999999999999
20
5.84008609772042
30
0
41
1
10
-59.9999999999999
20
5.53238372840596
30
0
41
1
10
-59.9999999999999
20
5.22383853567212
30
0
41
1
10
-59.9999999999999
20
4.97352607912163
30
0
41
1
10
-59.9999999999999
20
4.78702154756596
30
0
41
1
10
-59.9999999999999
20
4.60040605057168
30
0
41
1
10
-59.9999999999999
20
4.41369717399607
30
0
41
1
10
-59.9999999999999
20
4.22693988185341
30
0
41
1
10
-59.9999999999999
20
4.07226259629712
30
0
41
1
10
-59.9999999999999
20
3.9466938307813
30
0
41
1
10
-59.9999999999999
20
3.82116954124061
30
0
41
1
10
-59.9999999999999
20
3.69883107629951
30
0
41
1
10
-59.9999999999999
20
3.57328747913135
30
0
41
1
10
-59.9999999999999
20
3.44781059563368
30
0
41
1
10
-59.9999999999999
20
3.2935863807572
30
0
41
1
10
-59.9999999999999
20
3.13944522665
30
0
41
1
10
-59.9999999999999
20
3.01413837924019
30
0
41
1
10
-59.9999999999999
20
2.92113732640235
30
0
41
1
10
-59.9999999999999
20
2.82819985495797
30
0
41
1
10
-59.9999999999999
20
2.70315242408563
30
0
41
1
10
-59.9999999999999
20
2.58203066540028
30
0
41
1
10
-59.9999999999999
20
2.45723012695291
30
0
41
1
10
-59.9999999999999
20
2.36470328144028
30
0
41
1
10
-59.9999999999999
20
2.27228576896138
30
0
41
1
10
-59.9999999999999
20
2.17998802306417
30
0
41
1
10
-59.9999999999999
20
2.08778698627512
30
0
41
1
10
-59.9999999999999
20
1.96363390475221
30
0
41
1
10
-59.9999999999999
20
1.84396791149473
30
0
41
1
10
-59.9999999999999
20
1.72020377819322
30
0
41
1
10
-59.9999999999999
20
1.59663706390083
30
0
41
1
10
-59.9999999999999
20
1.47780824879951
30
0
41
1
10
-59.9999999999999
20
1.35466991435547
30
0
41
1
10
-59.9999999999999
20
1.26362007097097
30
0
41
1
10
-59.9999999999999
20
1.17270141325395
30
0
41
1
10
-59.9999999999999
20
1.05008260157575
30
0
41
1
10
-59.9999999999999
20
0.900734180171582
30
0
41
1
10
-59.9999999999999
20
0.751709618123783
30
0
41
1
10
-59.9999999999999
20
0.629727249897627
30
0
41
1
10
-59.9999999999999
20
0.539591484049964
30
0
41
1
10
-59.9999999999999
20
0.44953312334124
30
0
41
1
10
-59.9999999999999
20
0.327862446496653
30
0
41
1
10
-59.9999999999999
20
0.211387195797528
30
0
41
1
10
-59.9999999999999
20
0.089851891411513
30
0
41
1
10
-59.9999999999999
20
2.33088997E-08
30
0
41
1
10
-59.9999999999999
20
-0.0898518818022467
30
0
41
1
10
-59.9999999999999
20
-0.211387173079913
30
0
41
1
10
-59.9999999999999
20
-0.32786241019906
30
0
41
1
10
-59.9999999999999
20
-0.44953315485472
30
0
41
1
10
-59.9999999999999
20
-0.539591448084252
30
0
41
1
10
-59.9999999999999
20
-0.629727190611248
30
0
41
1
10
-59.9999999999999
20
-0.751709598313141
30
0
41
1
10
-59.9999999999999
20
-0.900734187142206
30
0
41
1
10
-59.9999999999999
20
-1.05008260284762
30
0
41
1
10
-59.9999999999999
20
-1.17270128769022
30
0
41
1
10
-59.9999999999999
20
-1.26362007709338
30
0
41
1
10
-59.9999999999999
20
-1.35466986733158
30
0
41
1
10
-59.9999999999999
20
-1.47780889967763
30
0
41
1
10
-59.9999999999999
20
-1.62866356892965
30
0
41
1
10
-59.9999999999999
20
-1.81195714590723
30
0
41
1
10
-59.9999999999999
20
-1.99575931518561
30
0
41
1
10
-59.9999999999999
20
-2.18003829088599
30
0
41
1
10
-59.9999999999999
20
-2.33258035694229
30
0
41
1
10
-59.9999999999999
20
-2.45723438857442
30
0
41
1
10
-59.9999999999999
20
-2.54984007971646
30
0
41
1
10
-59.9999999999999
20
-2.64253286485464
30
0
41
1
10
-59.9999999999999
20
-2.7353239097923
30
0
41
1
10
-59.9999999999999
20
-2.82819892922643
30
0
41
1
10
-59.9999999999999
20
-2.92113717428768
30
0
41
1
10
-59.9999999999999
20
-3.01413856990277
30
0
41
1
10
-59.9999999999999
20
-3.13944522556258
30
0
41
1
10
-59.9999999999999
20
-3.2935859845241
30
0
41
1
10
-59.9999999999999
20
-3.44781022267125
30
0
41
1
10
-59.9999999999999
20
-3.57328748848443
30
0
41
1
10
-59.9999999999999
20
-3.6988314347083
30
0
41
1
10
-59.9999999999999
20
-3.82116995532769
30
0
41
1
10
-59.9999999999999
20
-3.94669401081842
30
0
41
1
10
-59.9999999999999
20
-4.07226239422653
30
0
41
1
10
-59.9999999999999
20
-4.22693940902755
30
0
41
1
10
-59.9999999999999
20
-4.41369698550011
30
0
41
1
10
-59.9999999999999
20
-4.60040635681673
30
0
41
1
10
-59.9999999999999
20
-4.7870219387934
30
0
41
1
10
-59.9999999999999
20
-4.97352604952795
30
0
41
1
10
-59.9999999999999
20
-5.22383810629833
30
0
41
1
10
-59.9999999999999
20
-5.53238377279544
30
0
41
1
10
-59.9999999999999
20
-5.8400864784706
30
0
41
1
10
-59.9999999999999
20
-6.08866423546837
30
0
41
1
10
-59.9999999999999
20
-6.33692316417091
30
0
41
1
10
-59.9999999999999
20
-6.64308259789809
30
0
41
1
10
-59.9999999999999
20
-6.94806448980088
30
0
41
1
10
-59.9999999999999
20
-7.19392396234312
30
0
41
1
10
-59.9999999999999
20
-7.43933366870848
30
0
41
1
10
-59.9999999999999
20
-7.67989586792564
30
0
41
1
10
-59.9999999999999
20
-7.92361107948267
30
0
41
1
10
-59.9999999999999
20
-8.16680647555478
30
0
41
1
10
-59.9999999999999
20
-8.46691182410567
30
0
41
1
10
-59.9999999999999
20
-8.82673137604746
30
0
41
1
10
-59.9999999999999
20
-9.18474212579679
30
0
41
1
10
-59.9999999999999
20
-9.54088275359163
30
0
41
1
10
-59.9999999999999
20
-9.8349345052263
30
0
41
1
10
-59.9999999999999
20
-10.0711726122456
30
0
41
1
10
-59.9999999999999
20
-10.3067727719092
30
0
41
1
10
-59.9999999999999
20
-10.5976628395392
30
0
41
1
10
-59.9999999999999
20
-10.9459088896872
30
0
41
1
10
-59.9999999999999
20
-11.2920923090958
30
0
41
1
10
-59.9999999999999
20
-11.6361817696307
30
0
41
1
10
-59.9999999999999
20
-11.9781526643528
30
0
41
1
10
-59.9999999999999
20
-12.3179774972949
30
0
41
1
10
-59.9999999999999
20
-12.6556361459602
30
0
41
1
10
-59.9999999999999
20
-12.991105740016
30
0
41
1
10
-59.9999999999999
20
-13.3243668024954
30
0
41
1
10
-59.9999999999999
20
-13.6554036731857
30
0
41
1
10
-59.9999999999999
20
-13.9841945283397
30
0
41
1
10
-60
20
-14.421206512195
30
0
41
1
10
-59.9999999999999
20
-14.8489195414718
30
0
41
1
10
-59.9999999999999
20
-15.2225823214827
30
0
41
1
10
-60
20
-15.4352759723946
30
0
41
1
10
-59.9999999999999
20
-15.647201356186
30
0
41
1
10
-59.9999999999999
20
-15.9090090125604
30
0
41
1
10
-59.9999999999999
20
-16.2216969814831
30
0
41
1
10
-60
20
-16.5320355896629
30
0
41
1
10
-59.9999999999999
20
-16.9440675257307
30
0
41
1
10
-59.9999999999999
20
-17.3472727170548
30
0
41
1
10
-59.9999999999999
20
-17.7496716428444
30
0
41
1
10
-60
20
-18.0480997821432
30
0
41
1
10
-60
20
-18.3441158768435
30
0
41
1
10
-60
20
-18.7368339915895
30
0
41
1
10
-60
20
-19.1209962739229
30
0
41
1
10
-60
20
-19.5038694802314
30
0
41
1
10
-59.9999999999999
20
-19.7876827545797
30
0
41
1
10
-60
20
-20.0690271428399
30
0
41
1
10
-60
20
-20.441994127766
30
0
41
1
10
-59.9999999999999
20
-20.8066187451665
30
0
41
1
10
-59.9999999999999
20
-21.1695327858038
30
0
41
1
10
-59.9999999999999
20
-21.4383937008238
30
0
41
1
10
-60
20
-21.7047294118794
30
0
41
1
10
-60
20
-22.0575119733736
30
0
41
1
10
-60
20
-22.4898084525807
30
0
41
1
10
-60
20
-22.9135633086718
30
0
41
1
10
-60
20
-23.2491688314427
30
0
41
1
10
-60
20
-23.5813095953078
30
0
41
1
10
-59.9999999999999
20
-23.9878314099488
30
0
41
1
10
-60
20
-24.4662671557058
30
0
41
1
10
-60
20
-24.8552336352658
30
0
41
1
10
-60
20
-25.1626504358649
30
0
41
1
10
-60
20
-25.3898727930232
30
0
41
1
10
-60
20
-25.6143967303269
30
0
41
1
10
-60
20
-25.9109897889273
30
0
41
1
10
-60
20
-26.2730451134658
30
0
41
1
10
-60
20
-26.6259536079636
30
0
41
1
10
-60
20
-26.904156227805
30
0
41
1
10
-60
20
-27.1094249332373
30
0
41
1
10
-60
20
-27.3118865130228
30
0
41
1
10
-60
20
-27.5788289362021
30
0
41
1
10
-60
20
-27.903722739304
30
0
41
1
10
-60
20
-28.2830119086102
30
0
41
1
10
-60
20
-28.5887119662347
30
0
41
1
10
-60
20
-28.8286459978862
30
0
41
1
10
-60
20
-29.0646239922872
30
0
41
1
10
-60
20
-29.3506439793956
30
0
41
1
10
-60
20
-29.626649201014
30
0
41
1
10
-60
20
-29.8424884317765
30
0
41
1
10
-60
20
-30.000816311555
30
0
41
1
10
-60
20
-30.1560458056576
30
0
41
1
10
-60
20
-30.3594550888042
30
0
41
1
10
-60
20
-30.6045149784549
30
0
41
1
10
-60
20
-30.8389711933591
30
0
41
1
10
-60
20
-31.0210528094401
30
0
41
1
10
-60
20
-31.1987551464293
30
0
41
1
10
-60
20
-31.3682719258243
30
0
41
1
10
-60
20
-31.5326481340748
30
0
41
1
10
-60
20
-31.6319918952804
30
0
41
1
10
-60
20
-31.7102043239203
30
0
41
1
10
-60
20
-31.7872672700223
30
0
41
1
10
-60
20
-31.9189181186465
30
0
41
1
10
-60
20
-32.061224849943
30
0
41
1
10
-60
20
-32.1978052933397
30
0
41
1
10
-60
20
-32.2963152464944
30
0
41
1
10
-60
20
-32.3912001013677
30
0
41
1
10
-60
20
-32.4824210694835
30
0
41
1
10
-60
20
-32.5699376718859
30
0
41
1
10
-60.0000000000001
20
-32.6537080260487
30
0
41
1
10
-60
20
-32.7336889066932
30
0
41
1
10
-60
20
-32.8098354129061
30
0
41
1
10
-60
20
-32.8821009542705
30
0
41
1
10
-60.0000000000001
20
-32.9504372229349
30
0
41
1
10
-60.0000000000001
20
-33.0147937722119
30
0
41
1
10
-60
20
-33.0751182914419
30
0
41
1
10
-60
20
-33.1313576691056
30
0
41
1
10
-60
20
-33.1834545172445
30
0
41
1
10
-60.0000000000001
20
-33.2313494864308
30
0
41
1
10
-60
20
-33.2749830986899
30
0
41
1
10
-60
20
-33.3142894793407
30
0
41
1
10
-60
20
-33.349203717987
30
0
41
1
10
-60.0000000000001
20
-33.3796552925038
30
0
41
1
10
-60
20
-33.4055716886024
30
0
41
1
10
-60
20
-33.4268774387512
30
0
41
1
10
-60.0000000000001
20
-33.443492082087
30
0
41
1
10
-60.0000000000001
20
-33.4518270677372
30
0
41
1
10
-60.0000000000001
20
-33.4552356670883
30
0
41
1
10
-60.0000000000001
20
-33.4555868333018
30
0
0
SPLINE
5
132
100
AcDbEntity
8
SK1
62
256
6
ByLayer
370
18
48
1
60
0
100
AcDbSpline
70
4
71
3
72
26
73
22
40
0
40
0
40
0
40
0
40
0.250000000000002
40
0.250000000000002
40
0.500000000000003
40
0.500000000000003
40
0.625000000000002
40
0.625000000000002
40
0.687500000000002
40
0.687500000000002
40
0.750000000000001
40
0.750000000000001
40
0.812500000000001
40
0.812500000000001
40
0.875000000000001
40
0.875000000000001
40
0.90625
40
0.90625
40
0.9375
40
0.9375
40
1
40
1
40
1
40
1
41
1
10
-1.30710678118646
20
4.60538005832731
30
0
41
1
10
-1.27841932930966
20
4.77334296698425
30
0
41
1
10
-1.24568573836751
20
4.93989365706821
30
0
41
1
10
-1.1675502186404
20
5.26941198485824
30
0
41
1
10
-1.1223633016358
20
5.43277058328297
30
0
41
1
10
-1.03736348465071
20
5.67036427900956
30
0
41
1
10
-1.00612384847756
20
5.74840054491565
30
0
41
1
10
-0.951664768597482
20
5.86260604873686
30
0
41
1
10
-0.932227264069638
20
5.90019356697596
30
0
41
1
10
-0.88952936903712
20
5.97397527026539
30
0
41
1
10
-0.866205195590709
20
6.01027560258413
30
0
41
1
10
-0.814627264862594
20
6.07870671929962
30
0
41
1
10
-0.786411999023869
20
6.1111217268699
30
0
41
1
10
-0.720237073541085
20
6.16880021462495
30
0
41
1
10
-0.682055653726877
20
6.19377677065563
30
0
41
1
10
-0.61854819570749
20
6.21384852858478
30
0
41
1
10
-0.595883870694507
20
6.21761323445153
30
0
41
1
10
-0.551151188429799
20
6.21761557504374
30
0
41
1
10
-0.528825837373489
20
6.21393440359407
30
0
41
1
10
-0.46502716170113
20
6.19373948168717
30
0
41
1
10
-0.427781370963885
20
6.16911732468003
30
0
41
1
10
-0.394976888875192
20
6.14029748393358
30
0
0
SPLINE
5
133
100
AcDbEntity
8
SK1
62
256
6
ByLayer
370
18
48
1
60
0
100
AcDbSpline
70
4
71
3
72
316
73
312
40
0
40
0
40
0
40
0
40
0.0029467217013065
40
0.0064470973290534
40
0.0099474729568002
40
0.013447848584547
40
0.0169482242122939
40
0.0204485998400407
40
0.0239489754677875
40
0.0274493510955344
40
0.0309497267232812
40
0.034450102351028
40
0.0379504779787749
40
0.0414508536065217
40
0.0449512292342685
40
0.0484516048620154
40
0.0519519804897622
40
0.0554523561175091
40
0.0589527317452559
40
0.0624531073730028
40
0.0659534830007496
40
0.0694538586284964
40
0.0729542342562433
40
0.0764546098839902
40
0.0799549855117369
40
0.0869557367672306
40
0.0904561123949775
40
0.0922063002088509
40
0.0939564880227243
40
0.0974568636504712
40
0.100957239278218
40
0.107957990533712
40
0.111458366161459
40
0.114958741789205
40
0.121959493044699
40
0.128960244300193
40
0.13246061992794
40
0.135960995555686
40
0.139461371183433
40
0.14296174681118
40
0.149962498066674
40
0.156963249322167
40
0.160463624949914
40
0.163964000577661
40
0.170964751833155
40
0.177965503088648
40
0.184966254344142
40
0.188466629971889
40
0.191967005599636
40
0.195467381227383
40
0.198967756855129
40
0.205968508110623
40
0.212969259366117
40
0.216469634993864
40
0.219970010621611
40
0.223470386249357
40
0.226970761877104
40
0.233971513132598
40
0.240972264388092
40
0.247973015643585
40
0.251473391271332
40
0.254973766899079
40
0.261974518154573
40
0.268975269410066
40
0.272475645037813
40
0.27597602066556
40
0.279476396293307
40
0.282976771921054
40
0.289977523176547
40
0.293477898804294
40
0.296978274432041
40
0.300478650059788
40
0.303979025687534
40
0.310979776943028
40
0.314480152570775
40
0.317980528198522
40
0.321480903826269
40
0.324981279454016
40
0.331982030709509
40
0.335482406337256
40
0.338982781965003
40
0.34248315759275
40
0.345983533220497
40
0.34773372103437
40
0.349483908848243
40
0.35298428447599
40
0.359985035731484
40
0.363485411359231
40
0.366985786986978
40
0.370486162614725
40
0.373986538242472
40
0.377486913870218
40
0.380987289497965
40
0.384487665125712
40
0.387988040753459
40
0.391488416381206
40
0.394988792008952
40
0.398489167636699
40
0.401989543264446
40
0.40373973107832
40
0.405489918892193
40
0.40899029451994
40
0.412490670147687
40
0.415991045775433
40
0.41949142140318
40
0.422991797030927
40
0.424741984844801
40
0.426492172658674
40
0.429992548286421
40
0.431742736100294
40
0.433492923914168
40
0.436993299541914
40
0.440493675169661
40
0.442243862983535
40
0.443994050797408
40
0.447494426425155
40
0.450994802052902
40
0.452744989866775
40
0.454495177680649
40
0.456245365494522
40
0.457995553308395
40
0.459745741122269
40
0.461495928936142
40
0.462371022843079
40
0.463246116750016
40
0.464996304563889
40
0.465871398470826
40
0.466746492377763
40
0.468496680191636
40
0.47024686800551
40
0.471121961912446
40
0.471997055819383
40
0.47287214972632
40
0.473747243633256
40
0.474622337540193
40
0.47549743144713
40
0.476372525354066
40
0.477247619261003
40
0.478997807074876
40
0.48074799488875
40
0.482498182702623
40
0.484248370516497
40
0.48599855833037
40
0.486873652237307
40
0.487748746144244
40
0.48862384005118
40
0.489498933958117
40
0.49124912177199
40
0.492999309585864
40
0.493874403492801
40
0.494749497399737
40
0.495624591306674
40
0.496499685213611
40
0.498249873027484
40
0.499124966934421
40
0.500000060841358
40
0.500875154748294
40
0.501750248655231
40
0.503500436469104
40
0.504375530376041
40
0.505250624282978
40
0.506125718189915
40
0.507000812096851
40
0.508750999910725
40
0.510501187724598
40
0.511376281631535
40
0.512251375538472
40
0.513126469445408
40
0.514001563352345
40
0.515751751166218
40
0.516626845073155
40
0.517501938980092
40
0.519252126793965
40
0.520127220700902
40
0.521002314607839
40
0.521877408514775
40
0.522752502421712
40
0.523627596328649
40
0.524502690235585
40
0.526252878049459
40
0.527127971956395
40
0.528003065863332
40
0.528878159770269
40
0.529753253677206
40
0.531503441491079
40
0.533253629304953
40
0.534128723211889
40
0.535003817118826
40
0.536754004932699
40
0.537629098839636
40
0.538504192746573
40
0.540254380560446
40
0.54200456837432
40
0.543754756188193
40
0.545504944002067
40
0.54725513181594
40
0.549005319629813
40
0.55250569525756
40
0.556006070885307
40
0.55775625869918
40
0.559506446513054
40
0.563006822140801
40
0.566507197768548
40
0.568257385582421
40
0.570007573396294
40
0.573507949024041
40
0.577008324651788
40
0.580508700279535
40
0.584009075907282
40
0.587509451535029
40
0.591009827162775
40
0.594510202790522
40
0.598010578418269
40
0.601510954046016
40
0.605011329673763
40
0.60851170530151
40
0.612012080929256
40
0.615512456557003
40
0.61901283218475
40
0.622513207812497
40
0.624263395626371
40
0.626013583440244
40
0.62951395906799
40
0.633014334695737
40
0.636514710323485
40
0.640015085951231
40
0.643515461578978
40
0.647015837206725
40
0.650516212834472
40
0.652266400648345
40
0.654016588462219
40
0.657516964089965
40
0.661017339717712
40
0.664517715345459
40
0.668018090973206
40
0.675018842228699
40
0.678519217856446
40
0.682019593484193
40
0.68551996911194
40
0.689020344739687
40
0.69602109599518
40
0.699521471622928
40
0.703021847250674
40
0.706522222878421
40
0.710022598506168
40
0.717023349761662
40
0.720523725389408
40
0.724024101017155
40
0.727524476644902
40
0.731024852272649
40
0.738025603528143
40
0.745026354783636
40
0.748526730411383
40
0.75202710603913
40
0.759027857294624
40
0.766028608550117
40
0.773029359805611
40
0.776529735433358
40
0.780030111061105
40
0.783530486688852
40
0.787030862316598
40
0.794031613572092
40
0.801032364827586
40
0.804532740455333
40
0.808033116083079
40
0.811533491710826
40
0.815033867338573
40
0.822034618594067
40
0.82903536984956
40
0.836036121105054
40
0.839536496732801
40
0.843036872360548
40
0.850037623616042
40
0.857038374871535
40
0.860538750499282
40
0.864039126127029
40
0.867539501754776
40
0.871039877382522
40
0.878040628638016
40
0.88504137989351
40
0.888541755521257
40
0.892042131149004
40
0.899042882404497
40
0.902543258032244
40
0.906043633659991
40
0.907793821473864
40
0.909544009287738
40
0.913044384915485
40
0.920045136170978
40
0.923545511798725
40
0.927045887426472
40
0.930546263054219
40
0.934046638681965
40
0.937547014309712
40
0.941047389937459
40
0.944547765565206
40
0.948048141192953
40
0.9515485168207
40
0.955048892448447
40
0.96204964370394
40
0.965550019331687
40
0.969050394959434
40
0.972550770587181
40
0.976051146214928
40
0.979551521842674
40
0.983051897470422
40
0.986552273098168
40
0.990052648725915
40
0.993553024353662
40
0.997053399981409
40
1
40
1
40
1
40
1
41
1
10
-58.0000000000001
20
-34.6073035506545
30
0
41
1
10
-58.0000000000001
20
-34.6043542873216
30
0
41
1
10
-58.0000000000001
20
-34.5966210284687
30
0
41
1
10
-58.0000000000001
20
-34.5803797589321
30
0
41
1
10
-58.0000000000001
20
-34.558407488607
30
0
41
1
10
-58.0000000000001
20
-34.5316961895766
30
0
41
1
10
-58
20
-34.5003280083155
30
0
41
1
10
-58
20
-34.4643817495677
30
0
41
1
10
-58.0000000000001
20
-34.4239333693917
30
0
41
1
10
-58.0000000000001
20
-34.3790529937039
30
0
41
1
10
-58.0000000000001
20
-34.3298111110901
30
0
41
1
10
-58
20
-34.2762712987306
30
0
41
1
10
-58
20
-34.2184971795059
30
0
41
1
10
-58
20
-34.1565492736136
30
0
41
1
10
-58.0000000000001
20
-34.090484024979
30
0
41
1
10
-58
20
-34.0203569492649
30
0
41
1
10
-58.0000000000001
20
-33.9462211181053
30
0
41
1
10
-58
20
-33.8681273799935
30
0
41
1
10
-58
20
-33.7861246522719
30
0
41
1
10
-58
20
-33.7002599705932
30
0
41
1
10
-58
20
-33.6105785639527
30
0
41
1
10
-58
20
-33.517124136941
30
0
41
1
10
-58
20
-33.4199387810475
30
0
41
1
10
-58
20
-33.3190628682572
30
0
41
1
10
-58
20
-33.1794476462955
30
0
41
1
10
-58
20
-33.0333547777464
30
0
41
1
10
-58
20
-32.8987588718319
30
0
41
1
10
-58.0000000000001
20
-32.8200332917252
30
0
41
1
10
-58
20
-32.7401409831787
30
0
41
1
10
-58
20
-32.6384072799631
30
0
41
1
10
-58
20
-32.4705455180243
30
0
41
1
10
-58
20
-32.2967149944414
30
0
41
1
10
-58
20
-32.1153117201282
30
0
41
1
10
-58
20
-31.9294644880725
30
0
41
1
10
-58
20
-31.6895938415452
30
0
41
1
10
-58
20
-31.4389237596357
30
0
41
1
10
-58
20
-31.2314087063946
30
0
41
1
10
-58
20
-31.0728429182949
30
0
41
1
10
-58
20
-30.9111259407838
30
0
41
1
10
-58
20
-30.6909862057692
30
0
41
1
10
-58
20
-30.4088224430552
30
0
41
1
10
-58
20
-30.1164546579335
30
0
41
1
10
-58
20
-29.8758448368358
30
0
41
1
10
-58
20
-29.6312151678218
30
0
41
1
10
-58
20
-29.3188018441321
30
0
41
1
10
-58
20
-28.9316246713931
30
0
41
1
10
-58
20
-28.5996384848297
30
0
41
1
10
-58
20
-28.3275282602039
30
0
41
1
10
-58
20
-28.1208773937063
30
0
41
1
10
-58
20
-27.911363633098
30
0
41
1
10
-58
20
-27.6277846850599
30
0
41
1
10
-58
20
-27.2671990323819
30
0
41
1
10
-58
20
-26.8972638502991
30
0
41
1
10
-58
20
-26.5949314925857
30
0
41
1
10
-57.9999999999999
20
-26.365755304915
30
0
41
1
10
-58
20
-26.1338196230742
30
0
41
1
10
-58
20
-25.8204330482275
30
0
41
1
10
-58
20
-25.4229416666195
30
0
41
1
10
-58
20
-24.9345059187337
30
0
41
1
10
-58
20
-24.5190021121539
30
0
41
1
10
-58
20
-24.1803157072481
30
0
41
1
10
-58
20
-23.8380720499499
30
0
41
1
10
-58
20
-23.4048307980022
30
0
41
1
10
-58
20
-22.9627941936476
30
0
41
1
10
-58
20
-22.6029073961028
30
0
41
1
10
-58
20
-22.3308053662237
30
0
41
1
10
-57.9999999999999
20
-22.0560958606497
30
0
41
1
10
-58
20
-21.6857625528636
30
0
41
1
10
-58
20
-21.3120431731188
30
0
41
1
10
-58
20
-20.9313332073365
30
0
41
1
10
-58
20
-20.6436975380219
30
0
41
1
10
-57.9999999999999
20
-20.3534974230034
30
0
41
1
10
-58
20
-19.962512989893
30
0
41
1
10
-58
20
-19.5683935649799
30
0
41
1
10
-57.9999999999999
20
-19.1671855028189
30
0
41
1
10
-58
20
-18.8642617622701
30
0
41
1
10
-57.9999999999999
20
-18.558812080972
30
0
41
1
10
-57.9999999999999
20
-18.1474824585398
30
0
41
1
10
-58
20
-17.7332927415188
30
0
41
1
10
-58
20
-17.31187542895
30
0
41
1
10
-58
20
-16.9938869687374
30
0
41
1
10
-57.9999999999999
20
-16.6734094643824
30
0
41
1
10
-57.9999999999999
20
-16.4046647430283
30
0
41
1
10
-57.9999999999999
20
-16.1877136709007
30
0
41
1
10
-58
20
-15.9699408852648
30
0
41
1
10
-57.9999999999999
20
-15.586990793997
30
0
41
1
10
-58
20
-15.1465482288459
30
0
41
1
10
-57.9999999999999
20
-14.6986174932262
30
0
41
1
10
-57.9999999999999
20
-14.3608949939723
30
0
41
1
10
-57.9999999999999
20
-14.0207356586278
30
0
41
1
10
-57.9999999999999
20
-13.6781505656526
30
0
41
1
10
-57.9999999999999
20
-13.3331465322306
30
0
41
1
10
-57.9999999999999
20
-12.9857332798767
30
0
41
1
10
-58
20
-12.6359214323733
30
0
41
1
10
-57.9999999999999
20
-12.2837205272056
30
0
41
1
10
-57.9999999999999
20
-11.9291438218093
30
0
41
1
10
-57.9999999999999
20
-11.5722027813319
30
0
41
1
10
-57.9999999999999
20
-11.21291277944
30
0
41
1
10
-58
20
-10.912108295924
30
0
41
1
10
-58
20
-10.6692766858405
30
0
41
1
10
-57.9999999999999
20
-10.4256875570292
30
0
41
1
10
-57.9999999999999
20
-10.1211100592584
30
0
41
1
10
-57.9999999999999
20
-9.75259725338501
30
0
41
1
10
-57.9999999999999
20
-9.38183010290783
30
0
41
1
10
-57.9999999999999
20
-9.00884035151952
30
0
41
1
10
-58
20
-8.6968434093225
30
0
41
1
10
-57.9999999999999
20
-8.44493041618213
30
0
41
1
10
-57.9999999999999
20
-8.19232044847527
30
0
41
1
10
-57.9999999999999
20
-7.94080704287336
30
0
41
1
10
-57.9999999999999
20
-7.68603135773839
30
0
41
1
10
-57.9999999999999
20
-7.43059630648503
30
0
41
1
10
-58
20
-7.11180135563231
30
0
41
1
10
-57.9999999999999
20
-6.79132938935567
30
0
41
1
10
-57.9999999999999
20
-6.53251618838755
30
0
41
1
10
-57.9999999999999
20
-6.27311609603564
30
0
41
1
10
-57.9999999999999
20
-5.94973663199025
30
0
41
1
10
-57.9999999999999
20
-5.62486984380908
30
0
41
1
10
-57.9999999999999
20
-5.36246929286631
30
0
41
1
10
-57.9999999999999
20
-5.16603341989486
30
0
41
1
10
-57.9999999999999
20
-4.96923237547443
30
0
41
1
10
-57.9999999999999
20
-4.77207750487506
30
0
41
1
10
-58
20
-4.57459544495507
30
0
41
1
10
-57.9999999999999
20
-4.41029793772168
30
0
41
1
10
-57.9999999999999
20
-4.2777166352657
30
0
41
1
10
-57.9999999999999
20
-4.14506122516991
30
0
41
1
10
-57.9999999999999
20
-4.01399439838318
30
0
41
1
10
-57.9999999999999
20
-3.88103632788403
30
0
41
1
10
-57.9999999999999
20
-3.74801862180834
30
0
41
1
10
-57.9999999999999
20
-3.5829961226784
30
0
41
1
10
-57.9999999999999
20
-3.4177842579125
30
0
41
1
10
-57.9999999999999
20
-3.28439024486019
30
0
41
1
10
-57.9999999999999
20
-3.18480940383549
30
0
41
1
10
-57.9999999999999
20
-3.08519524226031
30
0
41
1
10
-57.9999999999999
20
-2.98554870608601
30
0
41
1
10
-57.9999999999999
20
-2.88588197147467
30
0
41
1
10
-57.9999999999999
20
-2.78620371303603
30
0
41
1
10
-57.9999999999999
20
-2.68650877066605
30
0
41
1
10
-57.9999999999999
20
-2.55285553128309
30
0
41
1
10
-58
20
-2.38741878390206
30
0
41
1
10
-57.9999999999999
20
-2.18798792525018
30
0
41
1
10
-57.9999999999999
20
-1.98859069176862
30
0
41
1
10
-57.9999999999999
20
-1.78925716601174
30
0
41
1
10
-57.9999999999999
20
-1.62400964435551
30
0
41
1
10
-58
20
-1.49038258437858
30
0
41
1
10
-57.9999999999999
20
-1.39082935616076
30
0
41
1
10
-57.9999999999999
20
-1.29130620551007
30
0
41
1
10
-57.9999999999999
20
-1.15779757169761
30
0
41
1
10
-57.9999999999999
20
-0.992958818913309
30
0
41
1
10
-57.9999999999999
20
-0.828192548206204
30
0
41
1
10
-57.9999999999999
20
-0.694823517971315
30
0
41
1
10
-57.9999999999999
20
-0.595510259634267
30
0
41
1
10
-57.9999999999999
20
-0.496219754320578
30
0
41
1
10
-57.9999999999999
20
-0.362942837222505
30
0
41
1
10
-57.9999999999999
20
-0.232469975530592
30
0
41
1
10
-57.9999999999999
20
-0.0992273272949262
30
0
41
1
10
-57.9999999999999
20
1.6380028E-08
30
0
41
1
10
-57.9999999999999
20
0.099227339898448
30
0
41
1
10
-57.9999999999999
20
0.232469995259635
30
0
41
1
10
-57.9999999999999
20
0.362942864386611
30
0
41
1
10
-57.9999999999999
20
0.496219744532027
30
0
41
1
10
-57.9999999999999
20
0.595510286532431
30
0
41
1
10
-57.9999999999999
20
0.694823557694633
30
0
41
1
10
-57.9999999999999
20
0.82819256637066
30
0
41
1
10
-57.9999999999999
20
0.992958822605829
30
0
41
1
10
-58
20
1.15779757822997
30
0
41
1
10
-57.9999999999999
20
1.29130628126842
30
0
41
1
10
-57.9999999999999
20
1.39082936054342
30
0
41
1
10
-58
20
1.49038261723351
30
0
41
1
10
-57.9999999999999
20
1.62400929858035
30
0
41
1
10
-57.9999999999999
20
1.75519681152264
30
0
41
1
10
-57.9999999999999
20
1.88886587056908
30
0
41
1
10
-57.9999999999999
20
2.02257380819529
30
0
41
1
10
-57.9999999999999
20
2.15394245955969
30
0
41
1
10
-57.9999999999999
20
2.28764244667346
30
0
41
1
10
-57.9999999999999
20
2.38736175207308
30
0
41
1
10
-57.9999999999999
20
2.48707433529853
30
0
41
1
10
-57.9999999999999
20
2.58679151495224
30
0
41
1
10
-57.9999999999999
20
2.68650643512575
30
0
41
1
10
-57.9999999999999
20
2.82015553447045
30
0
41
1
10
-57.9999999999999
20
2.95167230604008
30
0
41
1
10
-57.9999999999999
20
3.08519574611898
30
0
41
1
10
-57.9999999999999
20
3.18480948837248
30
0
41
1
10
-57.9999999999999
20
3.28439014192511
30
0
41
1
10
-57.9999999999999
20
3.41778425796454
30
0
41
1
10
-57.9999999999999
20
3.58299633989347
30
0
41
1
10
-57.9999999999999
20
3.74801883117277
30
0
41
1
10
-57.9999999999999
20
3.881036330217
30
0
41
1
10
-57.9999999999999
20
4.01399420894896
30
0
41
1
10
-57.9999999999999
20
4.14506100143927
30
0
41
1
10
-57.9999999999999
20
4.27771653655566
30
0
41
1
10
-58
20
4.41029804681102
30
0
41
1
10
-57.9999999999999
20
4.57459570619073
30
0
41
1
10
-57.9999999999999
20
4.77207761728613
30
0
41
1
10
-57.9999999999999
20
4.96923221655041
30
0
41
1
10
-57.9999999999999
20
5.16603320786018
30
0
41
1
10
-57.9999999999999
20
5.36246930605512
30
0
41
1
10
-57.9999999999999
20
5.62487008150856
30
0
41
1
10
-57.9999999999999
20
5.94973662395361
30
0
41
1
10
-57.9999999999999
20
6.27311588814803
30
0
41
1
10
-57.9999999999999
20
6.53251624633623
30
0
41
1
10
-57.9999999999999
20
6.79132960033488
30
0
41
1
10
-57.9999999999999
20
7.11180129155153
30
0
41
1
10
-57.9999999999999
20
7.43059597795101
30
0
41
1
10
-57.9999999999999
20
7.68603127322152
30
0
41
1
10
-57.9999999999999
20
7.94080702479252
30
0
41
1
10
-57.9999999999999
20
8.25632291017837
30
0
41
1
10
-57.9999999999999
20
8.63366100346425
30
0
41
1
10
-57.9999999999999
20
9.00884209524725
30
0
41
1
10
-57.9999999999999
20
9.3818307586514
30
0
41
1
10
-57.9999999999999
20
9.75259557230214
30
0
41
1
10
-57.9999999999999
20
10.1211093378308
30
0
41
1
10
-57.9999999999999
20
10.487347423945
30
0
41
1
10
-57.9999999999999
20
10.851288265045
30
0
41
1
10
-57.9999999999999
20
11.2129126489515
30
0
41
1
10
-57.9999999999999
20
11.5722027534516
30
0
41
1
10
-58
20
11.9291438609312
30
0
41
1
10
-58
20
12.2837204653535
30
0
41
1
10
-57.9999999999999
20
12.6359214941673
30
0
41
1
10
-58
20
12.9857331103651
30
0
41
1
10
-57.9999999999999
20
13.2747453101746
30
0
41
1
10
-58
20
13.5056252380649
30
0
41
1
10
-57.9999999999999
20
13.7357042566718
30
0
41
1
10
-57.9999999999999
20
14.0207356013197
30
0
41
1
10
-58
20
14.3608942162371
30
0
41
1
10
-57.9999999999999
20
14.6986181938836
30
0
41
1
10
-57.9999999999999
20
15.0338987189648
30
0
41
1
10
-58
20
15.3667286289814
30
0
41
1
10
-57.9999999999999
20
15.6971014285855
30
0
41
1
10
-58
20
15.9699409152238
30
0
41
1
10
-58
20
16.1877136527783
30
0
41
1
10
-57.9999999999999
20
16.4046647522578
30
0
41
1
10
-57.9999999999999
20
16.6734094787226
30
0
41
1
10
-57.9999999999999
20
16.9938869670337
30
0
41
1
10
-57.9999999999999
20
17.3118754472546
30
0
41
1
10
-57.9999999999999
20
17.7332927565035
30
0
41
1
10
-57.9999999999999
20
18.1474824557211
30
0
41
1
10
-57.9999999999999
20
18.5588120799026
30
0
41
1
10
-57.9999999999999
20
18.8642617520243
30
0
41
1
10
-57.9999999999999
20
19.1671855328673
30
0
41
1
10
-57.9999999999999
20
19.5683935682398
30
0
41
1
10
-57.9999999999999
20
19.9625129981163
30
0
41
1
10
-58
20
20.3534974164196
30
0
41
1
10
-58
20
20.6436975341919
30
0
41
1
10
-58
20
20.9313332310817
30
0
41
1
10
-58
20
21.3120431735846
30
0
41
1
10
-58
20
21.6857625612491
30
0
41
1
10
-58
20
22.056095857614
30
0
41
1
10
-57.9999999999999
20
22.3308053593404
30
0
41
1
10
-57.9999999999999
20
22.6029074150481
30
0
41
1
10
-57.9999999999999
20
22.9627941997736
30
0
41
1
10
-58
20
23.4048307950687
30
0
41
1
10
-58
20
23.8380720492418
30
0
41
1
10
-58
20
24.1803157154495
30
0
41
1
10
-58
20
24.5190021187452
30
0
41
1
10
-58
20
24.934505910954
30
0
41
1
10
-58
20
25.4229416730791
30
0
41
1
10
-58
20
25.820433050224
30
0
41
1
10
-58
20
26.1338196224207
30
0
41
1
10
-58
20
26.3657553019254
30
0
41
1
10
-58
20
26.5949314963246
30
0
41
1
10
-58
20
26.8972638515592
30
0
41
1
10
-58
20
27.267199029797
30
0
41
1
10
-58
20
27.6277846867342
30
0
41
1
10
-58
20
27.9113636298593
30
0
41
1
10
-58
20
28.1208773935264
30
0
41
1
10
-58
20
28.3275282615774
30
0
41
1
10
-58
20
28.5996384834264
30
0
41
1
10
-58
20
28.9316246696634
30
0
41
1
10
-58
20
29.3188018386775
30
0
41
1
10
-58
20
29.631215171604
30
0
41
1
10
-58
20
29.8758448277823
30
0
41
1
10
-58
20
30.1164546526889
30
0
41
1
10
-58
20
30.4088224417549
30
0
41
1
10
-58
20
30.6909862066612
30
0
41
1
10
-58
20
30.9111259319957
30
0
41
1
10
-58
20
31.0728429072979
30
0
41
1
10
-58
20
31.2314087120365
30
0
41
1
10
-58
20
31.438923757912
30
0
41
1
10
-58
20
31.6895938369171
30
0
41
1
10
-58
20
31.9294644717604
30
0
41
1
10
-58
20
32.115311722464
30
0
41
1
10
-58
20
32.2967149943326
30
0
41
1
10
-58
20
32.4705455117827
30
0
41
1
10
-58.0000000000001
20
32.6384072676335
30
0
41
1
10
-58
20
32.7401409674119
30
0
41
1
10
-58
20
32.8200332868944
30
0
41
1
10
-58
20
32.8987588752027
30
0
41
1
10
-58
20
33.0333547758038
30
0
41
1
10
-58.0000000000001
20
33.1794476388675
30
0
41
1
10
-58.0000000000001
20
33.3190628604087
30
0
41
1
10
-58
20
33.4199387593897
30
0
41
1
10
-58
20
33.5171241473591
30
0
41
1
10
-58
20
33.6105785465519
30
0
41
1
10
-58
20
33.7002599502329
30
0
41
1
10
-58
20
33.7861247188262
30
0
41
1
10
-58.0000000000001
20
33.8681273926076
30
0
41
1
10
-58.0000000000001
20
33.9462206251882
30
0
41
1
10
-58.0000000000001
20
34.020357330257
30
0
41
1
10
-58
20
34.11403435413
30
0
41
1
10
-58
20
34.1990832647149
30
0
41
1
10
-58
20
34.2762712843076
30
0
41
1
10
-58.0000000000001
20
34.3298111043331
30
0
41
1
10
-58
20
34.3790530583999
30
0
41
1
10
-58.0000000000001
20
34.4239333421724
30
0
41
1
10
-58.0000000000001
20
34.4643818052429
30
0
41
1
10
-58.0000000000001
20
34.5003280118182
30
0
41
1
10
-58.0000000000001
20
34.5316962075247
30
0
41
1
10
-58
20
34.5584075309985
30
0
41
1
10
-58.0000000000001
20
34.580379744722
30
0
41
1
10
-58
20
34.5966208904056
30
0
41
1
10
-58
20
34.6043666753007
30
0
41
1
10
-58
20
34.6073164479403
30
0
0
SPLINE
5
134
100
AcDbEntity
8
SK1
62
256
6
ByLayer
370
18
48
1
60
0
100
AcDbSpline
70
4
71
3
72
26
73
22
40
0
40
0
40
0
40
0
40
0.0312499999999994
40
0.0312499999999994
40
0.0624999999999989
40
0.0624999999999989
40
0.0937499999999983
40
0.0937499999999983
40
0.124999999999998
40
0.124999999999998
40
0.187499999999997
40
0.187499999999997
40
0.249999999999996
40
0.249999999999996
40
0.374999999999996
40
0.374999999999996
40
0.499999999999997
40
0.499999999999997
40
0.749999999999999
40
0.749999999999999
40
1
40
1
40
1
40
1
41
1
10
-0.394976888875192
20
-6.14029722153333
30
0
41
1
10
-0.411386827853249
20
-6.15471389261222
30
0
41
1
10
-0.428762929070274
20
-6.16792682850331
30
0
41
1
10
-0.466312490804455
20
-6.19087886287881
30
0
41
1
10
-0.486486340955281
20
-6.20053205424253
30
0
41
1
10
-0.528636087579116
20
-6.21387385760752
30
0
41
1
10
-0.551333806654128
20
-6.21763094422386
30
0
41
1
10
-0.595996896779184
20
-6.21759710275106
30
0
41
1
10
-0.618501718611782
20
-6.21388050874927
30
0
41
1
10
-0.682666367362742
20
-6.19354801200384
30
0
41
1
10
-0.720497492514227
20
-6.16857769971648
30
0
41
1
10
-0.78620906487177
20
-6.11129360410717
30
0
41
1
10
-0.815074852177105
20
-6.07817489743732
30
0
41
1
10
-0.892438429618039
20
-5.97534441057221
30
0
41
1
10
-0.933322586559683
20
-5.90108526750922
30
0
41
1
10
-1.00643010561564
20
-5.74774420897123
30
0
41
1
10
-1.03799495343549
20
-5.66875170759863
30
0
41
1
10
-1.12311078163737
20
-5.4303704240005
30
0
41
1
10
-1.16788167463832
20
-5.26810674825339
30
0
41
1
10
-1.24572901926427
20
-4.9396173942236
30
0
41
1
10
-1.27842602392914
20
-4.77330384397376
30
0
41
1
10
-1.30710678118646
20
-4.60538003006582
30
0
0
SPLINE
5
135
100
AcDbEntity
8
SK1
62
256
6
ByLayer
370
18
48
1
60
0
100
AcDbSpline
70
4
71
3
72
24
73
20
40
0
40
0
40
0
40
0
40
0.25
40
0.25
40
0.3125
40
0.3125
40
0.375
40
0.375
40
0.5
40
0.5
40
0.625
40
0.625
40
0.75
40
0.75
40
0.8125
40
0.8125
40
0.875
40
0.875
40
1
40
1
40
1
40
1
41
1
10
-1.30710678118646
20
4.60538005832734
30
0
41
1
10
-1.43445095565699
20
3.85978933676734
30
0
41
1
10
-1.54387892248144
20
3.10383348780155
30
0
41
1
10
-1.64182277486105
20
2.14038734740581
30
0
41
1
10
-1.65943153712064
20
1.94675919611115
30
0
41
1
10
-1.69016128102561
20
1.55744142286955
30
0
41
1
10
-1.70329012775181
20
1.36146410626947
30
0
41
1
10
-1.73493134584365
20
0.775190730927648
30
0
41
1
10
-1.7457367363736
20
0.385182075791761
30
0
41
1
10
-1.7455909177946
20
-0.393092212237377
30
0
41
1
10
-1.73464574767843
20
-0.781358231863948
30
0
41
1
10
-1.69272967974086
20
-1.55625432464228
30
0
41
1
10
-1.66183533058259
20
-1.9428889807906
30
0
41
1
10
-1.60308307844798
20
-2.52176892060297
30
0
41
1
10
-1.58142702957946
20
-2.71455586541924
30
0
41
1
10
-1.53472161640738
20
-3.09756881527204
30
0
41
1
10
-1.50964113138204
20
-3.28809225111141
30
0
41
1
10
-1.42989928264939
20
-3.85698267981985
30
0
41
1
10
-1.37076249597746
20
-4.23268030289688
30
0
41
1
10
-1.30710678119229
20
-4.60538003003174
30
0
0
SPLINE
5
136
100
AcDbEntity
8
1
62
256
6
ByLayer
370
18
48
1
60
0
100
AcDbSpline
70
4
71
3
72
12
73
8
40
0
40
0
40
0
40
0
40
0.250000000000008
40
0.250000000000008
40
0.500000000000017
40
0.500000000000017
40
1
40
1
40
1
40
1
41
1
10
36.6525073622713
20
-49.1104807233468
30
0
41
1
10
36.6183324958399
20
-49.0833942001353
30
0
41
1
10
36.5825602534594
20
-49.0590795828888
30
0
41
1
10
36.5079953829329
20
-49.0158554799606
30
0
41
1
10
36.4688864339373
20
-48.9968444237935
30
0
41
1
10
36.3502471503262
20
-48.9493893142102
30
0
41
1
10
36.268624907219
20
-48.9298261778748
30
0
41
1
10
36.1861384096168
20
-48.9223456925295
30
0
0
SPLINE
5
137
100
AcDbEntity
8
1
62
256
6
ByLayer
370
18
48
1
60
0
100
AcDbSpline
70
4
71
3
72
16
73
12
40
0
40
0
40
0
40
0
40
0.249999999999999
40
0.249999999999999
40
0.499999999999997
40
0.499999999999997
40
0.749999999999996
40
0.749999999999996
40
0.874999999999998
40
0.874999999999998
40
1
40
1
40
1
40
1
41
1
10
13.3556624327026
20
47.5324740593459
30
0
41
1
10
13.3713369564231
20
47.5510763302181
30
0
41
1
10
13.390077598984
20
47.5691972862268
30
0
41
1
10
13.4357910527648
20
47.6042475586048
30
0
41
1
10
13.4628368001564
20
47.6212962856129
30
0
41
1
10
13.5295052401434
20
47.6531299493423
30
0
41
1
10
13.5692020024501
20
47.6679778471913
30
0
41
1
10
13.641729016901
20
47.685218753302
30
0
41
1
10
13.6686700313504
20
47.6901974749824
30
0
41
1
10
13.726220064296
20
47.6971341405705
30
0
41
1
10
13.7572518777782
20
47.6991123363141
30
0
41
1
10
13.7886751345948
20
47.6991123363141
30
0
0
SPLINE
5
138
100
AcDbEntity
8
1
62
256
6
ByLayer
370
18
48
1
60
0
100
AcDbSpline
70
4
71
3
72
14
73
10
40
0
40
0
40
0
40
0
40
0.500000000000008
40
0.500000000000008
40
0.625000000000008
40
0.625000000000008
40
0.750000000000008
40
0.750000000000008
40
1
40
1
40
1
40
1
41
1
10
36.6525073622712
20
49.5859573003184
30
0
41
1
10
36.9538504419046
20
49.6237402309525
30
0
41
1
10
37.2844218485304
20
49.6522521931171
30
0
41
1
10
37.7341652438456
20
49.678549063535
30
0
41
1
10
37.8262799698747
20
49.6833396761511
30
0
41
1
10
38.0117837894872
20
49.6918572498478
30
0
41
1
10
38.1053835512328
20
49.6956002628296
30
0
41
1
10
38.388698216092
20
49.7053511708321
30
0
41
1
10
38.5809144888667
20
49.7098930734622
30
0
41
1
10
38.7765611384602
20
49.7125127929583
30
0
0
SPLINE
5
139
100
AcDbEntity
8
1
62
256
6
ByLayer
370
18
48
1
60
0
100
AcDbSpline
70
4
71
3
72
18
73
14
40
0
40
0
40
0
40
0
40
0.249999999999997
40
0.249999999999997
40
0.374999999999997
40
0.374999999999997
40
0.499999999999996
40
0.499999999999996
40
0.749999999999998
40
0.749999999999998
40
0.874999999999999
40
0.874999999999999
40
1
40
1
40
1
40
1
41
1
10
33.7805459037027
20
48.1003108639833
30
0
41
1
10
33.8032084718897
20
48.1738275496574
30
0
41
1
10
33.8506053019658
20
48.2435225563677
30
0
41
1
10
33.9580098978256
20
48.3428150828786
30
0
41
1
10
33.9999044333535
20
48.3750343431843
30
0
41
1
10
34.0962588689132
20
48.4377612389291
30
0
41
1
10
34.1510384348861
20
48.4683942437157
30
0
41
1
10
34.3313289197238
20
48.5559795472965
30
0
41
1
10
34.4731744500153
20
48.6091719051636
30
0
41
1
10
34.7185164349803
20
48.6820070413193
30
0
41
1
10
34.8057622122229
20
48.7051195216176
30
0
41
1
10
34.9916786095645
20
48.749070575555
30
0
41
1
10
35.0890187592896
20
48.769587827564
30
0
41
1
10
35.1901859137181
20
48.7886717189492
30
0
0
SPLINE
5
13A
100
AcDbEntity
8
1
62
256
6
ByLayer
370
18
48
1
60
0
100
AcDbSpline
70
4
71
3
72
8
73
4
40
0
40
0
40
0
40
0
40
1
40
1
40
1
40
1
41
1
10
37.7653246960696
20
-49.1428784260749
30
0
41
1
10
37.3866017620969
20
-49.1428784260749
30
0
41
1
10
37.0156706438822
20
-49.1322372127609
30
0
41
1
10
36.6525073622712
20
-49.110480723347
30
0
0
SPLINE
5
13B
100
AcDbEntity
8
1
62
256
6
ByLayer
370
18
48
1
60
0
100
AcDbSpline
70
4
71
3
72
16
73
12
40
0
40
0
40
0
40
0
40
0.249999999999999
40
0.249999999999999
40
0.499999999999998
40
0.499999999999998
40
0.749999999999997
40
0.749999999999997
40
0.874999999999998
40
0.874999999999998
40
1
40
1
40
1
40
1
41
1
10
18.6443375672975
20
15.5133461831291
30
0
41
1
10
18.6286630435771
20
15.4563493271806
30
0
41
1
10
18.6099224010161
20
15.400478236028
30
0
41
1
10
18.5642089472353
20
15.2917910897776
30
0
41
1
10
18.5371631998438
20
15.2385985420777
30
0
41
1
10
18.4704947598567
20
15.1387566028337
30
0
41
1
10
18.43079799755
20
15.0918966685263
30
0
41
1
10
18.3582709830992
20
15.0372961905784
30
0
41
1
10
18.3313299686497
20
15.021491213259
30
0
41
1
10
18.2737799357041
20
14.9994509315928
30
0
41
1
10
18.2427481222219
20
14.9931545155676
30
0
41
1
10
18.2113248654053
20
14.9931545155676
30
0
0
SPLINE
5
13C
100
AcDbEntity
8
1
62
256
6
ByLayer
370
18
48
1
60
0
100
AcDbSpline
70
4
71
3
72
22
73
18
40
0
40
0
40
0
40
0
40
0.250000000000006
40
0.250000000000006
40
0.375000000000007
40
0.375000000000007
40
0.500000000000008
40
0.500000000000008
40
0.562500000000007
40
0.562500000000007
40
0.625000000000006
40
0.625000000000006
40
0.750000000000004
40
0.750000000000004
40
0.875000000000002
40
0.875000000000002
40
1
40
1
40
1
40
1
41
1
10
36.1861384096168
20
-48.9223456925298
30
0
41
1
10
35.8477393707358
20
-48.8916571662279
30
0
41
1
10
35.5378565259785
20
-48.8514560057735
30
0
41
1
10
35.1141366686975
20
-48.7752873477811
30
0
41
1
10
34.9793720073908
20
-48.747035196
30
0
41
1
10
34.7317301558891
20
-48.6863792657794
30
0
41
1
10
34.617804866474
20
-48.6538242201907
30
0
41
1
10
34.4614416438355
20
-48.6014279587248
30
0
41
1
10
34.4117494779607
20
-48.5833669760848
30
0
41
1
10
34.3172661926832
20
-48.5459961361387
30
0
41
1
10
34.272352432824
20
-48.5266271569036
30
0
41
1
10
34.1460019006601
20
-48.4669583495811
30
0
41
1
10
34.0735400612296
20
-48.4254430916949
30
0
41
1
10
33.9510446474293
20
-48.3388084001334
30
0
41
1
10
33.9010152427106
20
-48.2936892594817
30
0
41
1
10
33.8234698302563
20
-48.1996109075712
30
0
41
1
10
33.7960332830738
20
-48.1505514541823
30
0
41
1
10
33.7805459037027
20
-48.1003108639833
30
0
0
SPLINE
5
13D
100
AcDbEntity
8
1
62
256
6
ByLayer
370
18
48
1
60
0
100
AcDbSpline
70
4
71
3
72
16
73
12
40
0
40
0
40
0
40
0
40
0.124999999999998
40
0.124999999999998
40
0.249999999999997
40
0.249999999999997
40
0.499999999999998
40
0.499999999999998
40
0.749999999999999
40
0.749999999999999
40
1
40
1
40
1
40
1
41
1
10
18.2113248654052
20
47.6991123363141
30
0
41
1
10
18.2427942539064
20
47.6991123363141
30
0
41
1
10
18.2734136750629
20
47.6971731220929
30
0
41
1
10
18.3314372006436
20
47.6901896918971
30
0
41
1
10
18.357828126527
20
47.6853219328561
30
0
41
1
10
18.4315232223568
20
47.6678096320571
30
0
41
1
10
18.4705132203231
20
47.6531212535631
30
0
41
1
10
18.5371475309552
20
47.6213036484293
30
0
41
1
10
18.5639668420204
20
47.6044110998707
30
0
41
1
10
18.6097706080257
20
47.5693355727224
30
0
41
1
10
18.6286574316483
20
47.5510829903643
30
0
41
1
10
18.6443375672975
20
47.5324740593459
30
0
0
SPLINE
5
13E
100
AcDbEntity
8
1
62
256
6
ByLayer
370
18
48
1
60
0
100
AcDbSpline
70
4
71
3
72
28
73
24
40
0
40
0
40
0
40
0
40
0.0625000000000005
40
0.0625000000000005
40
0.125000000000001
40
0.125000000000001
40
0.250000000000003
40
0.250000000000003
40
0.312500000000004
40
0.312500000000004
40
0.375000000000005
40
0.375000000000005
40
0.500000000000003
40
0.500000000000003
40
0.562500000000003
40
0.562500000000003
40
0.625000000000002
40
0.625000000000002
40
0.750000000000002
40
0.750000000000002
40
0.875000000000001
40
0.875000000000001
40
1
40
1
40
1
40
1
41
1
10
39.5
20
49.7221446400516
30
0
41
1
10
39.6113608287647
20
49.7236188259216
30
0
41
1
10
39.7224521310019
20
49.7298298599701
30
0
41
1
10
39.9440981463449
20
49.7516823217072
30
0
41
1
10
40.054969168878
20
49.7674082082789
30
0
41
1
10
40.3821820606291
20
49.8279589143543
30
0
41
1
10
40.5944038801676
20
49.8860796804988
30
0
41
1
10
40.9042001089443
20
49.9988606758297
30
0
41
1
10
41.0060352098002
20
50.0407436493529
30
0
41
1
10
41.2068136365492
20
50.1331816504543
30
0
41
1
10
41.3061938501606
20
50.1840014356224
30
0
41
1
10
41.5956769752127
20
50.347410279926
30
0
41
1
10
41.7775695250726
20
50.4708277920703
30
0
41
1
10
42.0344163881293
20
50.6768203152021
30
0
41
1
10
42.117352651638
20
50.7489805057499
30
0
41
1
10
42.2778115608193
20
50.9003645561856
30
0
41
1
10
42.3556367550814
20
50.9799336047454
30
0
41
1
10
42.5783951854979
20
51.2268994839318
30
0
41
1
10
42.712017094217
20
51.4015004825784
30
0
41
1
10
42.950572876324
20
51.7698945368026
30
0
41
1
10
43.0555934177842
20
51.9638820756356
30
0
41
1
10
43.2353464133882
20
52.3710955283208
30
0
41
1
10
43.3078811362783
20
52.5792615283344
30
0
41
1
10
43.3637033051563
20
52.7918213754525
30
0
0
SPLINE
5
13F
100
AcDbEntity
8
1
62
256
6
ByLayer
370
18
48
1
60
0
100
AcDbSpline
70
4
71
3
72
18
73
14
40
0
40
0
40
0
40
0
40
0.250000000000001
40
0.250000000000001
40
0.375000000000001
40
0.375000000000001
40
0.500000000000001
40
0.500000000000001
40
0.750000000000001
40
0.750000000000001
40
0.875
40
0.875
40
1
40
1
40
1
40
1
41
1
10
35.1901859137181
20
48.7886717189492
30
0
41
1
10
35.1739850402016
20
48.8481882126684
30
0
41
1
10
35.182795953329
20
48.9051549526997
30
0
41
1
10
35.2334838006794
20
48.9869049329136
30
0
41
1
10
35.2566669884592
20
49.0135375544919
30
0
41
1
10
35.3161419040964
20
49.0655813986593
30
0
41
1
10
35.3523137487659
20
49.0908248442216
30
0
41
1
10
35.4783600348662
20
49.1632841265428
30
0
41
1
10
35.5860938949583
20
49.2077024287368
30
0
41
1
10
35.7842351580884
20
49.2691066003643
30
0
41
1
10
35.8567038397334
20
49.2887670406966
30
0
41
1
10
36.0131626225404
20
49.326062537776
30
0
41
1
10
36.09687048742
20
49.3436502809522
30
0
41
1
10
36.1861384096166
20
49.3602481347583
30
0
0
SPLINE
5
140
100
AcDbEntity
8
1
62
256
6
ByLayer
370
18
48
1
60
0
100
AcDbSpline
70
2053
71
3
72
90
73
86
40
0
40
0
40
0
40
0
40
0.0312500000000005
40
0.0312500000000005
40
0.0468750000000008
40
0.0468750000000008
40
0.0625000000000012
40
0.0625000000000012
40
0.0937500000000019
40
0.0937500000000019
40
0.109375000000002
40
0.109375000000002
40
0.125000000000003
40
0.125000000000003
40
0.156250000000003
40
0.156250000000003
40
0.187500000000004
40
0.187500000000004
40
0.203125000000004
40
0.203125000000004
40
0.218750000000005
40
0.218750000000005
40
0.250000000000005
40
0.250000000000005
40
0.281250000000006
40
0.281250000000006
40
0.312500000000006
40
0.312500000000006
40
0.328125000000006
40
0.328125000000006
40
0.343750000000007
40
0.343750000000007
40
0.375000000000007
40
0.375000000000007
40
0.406250000000006
40
0.406250000000006
40
0.421875000000007
40
0.421875000000007
40
0.437500000000007
40
0.437500000000007
40
0.468750000000007
40
0.468750000000007
40
0.500000000000007
40
0.500000000000007
40
0.531250000000007
40
0.531250000000007
40
0.546875000000007
40
0.546875000000007
40
0.562500000000007
40
0.578125000000008
40
0.578125000000008
40
0.593750000000008
40
0.593750000000008
40
0.625000000000008
40
0.625000000000008
40
0.656250000000007
40
0.656250000000007
40
0.687500000000007
40
0.687500000000007
40
0.703125000000007
40
0.703125000000007
40
0.718750000000006
40
0.734375000000006
40
0.734375000000006
40
0.750000000000006
40
0.750000000000006
40
0.781250000000005
40
0.781250000000005
40
0.796875000000004
40
0.796875000000004
40
0.812500000000004
40
0.812500000000004
40
0.843750000000003
40
0.843750000000003
40
0.875000000000003
40
0.875000000000003
40
0.906250000000002
40
0.906250000000002
40
0.921875000000001
40
0.921875000000001
40
0.937500000000001
40
0.937500000000001
40
0.968750000000001
40
0.968750000000001
40
1
40
1
40
1
40
1
41
1
10
28.1087734645644
20
-0.0436965742193365
30
0
41
1
10
28.1057360250792
20
-0.211114165465546
30
0
41
1
10
28.0854721635739
20
-0.375242153741084
30
0
41
1
10
28.0304468862049
20
-0.616731555784469
30
0
41
1
10
28.0079688301021
20
-0.696438279060374
30
0
41
1
10
27.9545714150949
20
-0.854240300529767
30
0
41
1
10
27.9236214100421
20
-0.93223259069245
30
0
41
1
10
27.8202889237523
20
-1.1585102975161
30
0
41
1
10
27.7369562428461
20
-1.30100616401711
30
0
41
1
10
27.5906625965499
20
-1.50243840876755
30
0
41
1
10
27.5380124135572
20
-1.56783342963581
30
0
41
1
10
27.4274005364956
20
-1.69211176769514
30
0
41
1
10
27.3693847732489
20
-1.75115284133508
30
0
41
1
10
27.1874654931325
20
-1.9192792896273
30
0
41
1
10
27.0556246156735
20
-2.01954049795381
30
0
41
1
10
26.7711769131929
20
-2.19534496706274
30
0
41
1
10
26.6227832647448
20
-2.26832449181862
30
0
41
1
10
26.3913756557446
20
-2.35648027703229
30
0
41
1
10
26.3127592011939
20
-2.38228648958889
30
0
41
1
10
26.1525085332554
20
-2.42660559550558
30
0
41
1
10
26.0706145684081
20
-2.44512637645306
30
0
41
1
10
25.8253500991844
20
-2.48853328731755
30
0
41
1
10
25.6609101792294
20
-2.50188741100661
30
0
41
1
10
25.3301851077127
20
-2.49768826556726
30
0
41
1
10
25.1625209497439
20
-2.47961202760425
30
0
41
1
10
24.8385954067503
20
-2.41295065161287
30
0
41
1
10
24.6809527083489
20
-2.36460008243992
30
0
41
1
10
24.4511178901828
20
-2.2690165441476
30
0
41
1
10
24.3752320837837
20
-2.23305338866132
30
0
41
1
10
24.2286302201127
20
-2.15457108536376
30
0
41
1
10
24.1577122333257
20
-2.11201880779748
30
0
41
1
10
23.9519782137869
20
-1.97460460963774
30
0
41
1
10
23.8241128289235
20
-1.87008178003256
30
0
41
1
10
23.5878953504236
20
-1.63389489508745
30
0
41
1
10
23.4828288936252
20
-1.50534701017344
30
0
41
1
10
23.3459047232057
20
-1.29933569742502
30
0
41
1
10
23.3036289968741
20
-1.22834608353395
30
0
41
1
10
23.2259678000621
20
-1.08161751273343
30
0
41
1
10
23.1904428165573
20
-1.00546130916592
30
0
41
1
10
23.096580091402
20
-0.774394495558084
30
0
41
1
10
23.050165281428
20
-0.616035310685106
30
0
41
1
10
22.9892847820032
20
-0.290783605298316
30
0
41
1
10
22.9751507976769
20
-0.122562922448822
30
0
41
1
10
22.9808898647947
20
0.208075516785698
30
0
41
1
10
23.0002181513543
20
0.372089192480701
30
0
41
1
10
23.054455205725
20
0.61610757812258
30
0
41
1
10
23.076799523214
20
0.696956480451433
30
0
41
1
10
23.1289518157765
20
0.854341057825053
30
0
41
1
10
23.1887522214047
20
1.0083436536423
30
0
41
1
10
23.2636058079536
20
1.15569133407885
30
0
41
1
10
23.3460874269685
20
1.29966767350291
30
0
41
1
10
23.3914300789239
20
1.37033980720722
30
0
41
1
10
23.5366226219295
20
1.57339502844385
30
0
41
1
10
23.6455936488799
20
1.69741659356691
30
0
41
1
10
23.8872321971893
20
1.9233891088206
30
0
41
1
10
24.0212132883101
20
2.02583649330597
30
0
41
1
10
24.3023643752022
20
2.20011709980849
30
0
41
1
10
24.4504596992468
20
2.27314297733784
30
0
41
1
10
24.683945852306
20
2.36140316957679
30
0
41
1
10
24.7638133793642
20
2.38723786230574
30
0
41
1
10
24.9239958658542
20
2.43068162583018
30
0
41
1
10
25.0854428446462
20
2.46624817877694
30
0
41
1
10
25.2493636239676
20
2.48640643127558
30
0
41
1
10
25.4145283818205
20
2.49881713249121
30
0
41
1
10
25.4980421574985
20
2.50114046215074
30
0
41
1
10
25.7483885418254
20
2.49614803015314
30
0
41
1
10
25.9125513503934
20
2.4771595879599
30
0
41
1
10
26.154839309703
20
2.42601850561943
30
0
41
1
10
26.234937858989
20
2.40516793841496
30
0
41
1
10
26.3937738608485
20
2.35566996508348
30
0
41
1
10
26.4726290053999
20
2.32692263187846
30
0
41
1
10
26.7021522606959
20
2.23069789548597
30
0
41
1
10
26.8475322923039
20
2.15288470040281
30
0
41
1
10
27.1229997214469
20
1.96987639009461
30
0
41
1
10
27.253890499624
20
1.86351721346335
30
0
41
1
10
27.4888539855028
20
1.63111838763251
30
0
41
1
10
27.5943344284139
20
1.50443841187064
30
0
41
1
10
27.7339069894998
20
1.29812234660358
30
0
41
1
10
27.7774634819814
20
1.22624201613547
30
0
41
1
10
27.8562812124028
20
1.07996946884688
30
0
41
1
10
27.8917671949851
20
1.00531527146723
30
0
41
1
10
27.986614275187
20
0.776858807144095
30
0
41
1
10
28.0345188784669
20
0.618435468897104
30
0
41
1
10
28.0975286698715
20
0.289647633262746
30
0
41
1
10
28.1118109040497
20
0.123721017026867
30
0
41
1
10
28.1087734645644
20
-0.0436965742193367
30
0
0
SPLINE
5
141
100
AcDbEntity
8
1
62
256
6
ByLayer
370
18
48
1
60
0
100
AcDbSpline
70
4
71
3
72
8
73
4
40
0
40
0
40
0
40
0
40
1
40
1
40
1
40
1
41
1
10
43.3637033051563
20
52.7918213754525
30
0
41
1
10
44.5582007074093
20
57.3402327021612
30
0
41
1
10
45.7604116781099
20
61.8865599624649
30
0
41
1
10
46.9664448837374
20
66.43181483
30
0
0
SPLINE
5
142
100
AcDbEntity
8
1
62
256
6
ByLayer
370
18
48
1
60
0
100
AcDbSpline
70
4
71
3
72
16
73
12
40
0
40
0
40
0
40
0
40
0.125
40
0.125
40
0.25
40
0.25
40
0.5
40
0.5
40
0.75
40
0.75
40
1
40
1
40
1
40
1
41
1
10
13.7886751345949
20
14.9931545155677
30
0
41
1
10
13.7572057460938
20
14.9931545155676
30
0
41
1
10
13.7265863249373
20
14.9993270329222
30
0
41
1
10
13.6685627993566
20
15.0215159830932
30
0
41
1
10
13.6421718734731
20
15.0369693753061
30
0
41
1
10
13.5684767776433
20
15.092429500184
30
0
41
1
10
13.5294867796771
20
15.1387838835225
30
0
41
1
10
13.462852469045
20
15.2385754420444
30
0
41
1
10
13.4360331579797
20
15.2912821270175
30
0
41
1
10
13.3902293919745
20
15.4000512474235
30
0
41
1
10
13.3713425683519
20
15.4563289206726
30
0
41
1
10
13.3556624327027
20
15.5133461831291
30
0
0
SPLINE
5
143
100
AcDbEntity
8
1
62
256
6
ByLayer
370
18
48
1
60
0
100
AcDbSpline
70
4
71
3
72
16
73
12
40
0
40
0
40
0
40
0
40
0.25
40
0.25
40
0.5
40
0.5
40
0.75
40
0.75
40
0.875
40
0.875
40
1
40
1
40
1
40
1
41
1
10
13.3556624327027
20
-15.5133461831291
30
0
41
1
10
13.3713369564232
20
-15.4563493271807
30
0
41
1
10
13.3900775989841
20
-15.400478236028
30
0
41
1
10
13.4357910527649
20
-15.2917910897776
30
0
41
1
10
13.4628368001565
20
-15.2385985420777
30
0
41
1
10
13.5295052401435
20
-15.1387566028337
30
0
41
1
10
13.5692020024502
20
-15.0918966685263
30
0
41
1
10
13.6417290169011
20
-15.0372961905784
30
0
41
1
10
13.6686700313505
20
-15.021491213259
30
0
41
1
10
13.7262200642961
20
-14.9994509315928
30
0
41
1
10
13.7572518777783
20
-14.9931545155676
30
0
41
1
10
13.7886751345949
20
-14.9931545155676
30
0
0
SPLINE
5
144
100
AcDbEntity
8
1
62
256
6
ByLayer
370
18
48
1
60
0
100
AcDbSpline
70
4
71
3
72
10
73
6
40
0
40
0
40
0
40
0
40
0.5
40
0.5
40
1
40
1
40
1
40
1
41
1
10
36.1861384096168
20
49.3602481347583
30
0
41
1
10
36.2623111984203
20
49.374411170947
30
0
41
1
10
36.3412385896104
20
49.3987026402283
30
0
41
1
10
36.5004856946346
20
49.4731517414676
30
0
41
1
10
36.5785213338463
20
49.5221146420378
30
0
41
1
10
36.6525073622713
20
49.5859573003183
30
0
0
SPLINE
5
145
100
AcDbEntity
8
1
62
256
6
ByLayer
370
18
48
1
60
0
100
AcDbSpline
70
4
71
3
72
16
73
12
40
0
40
0
40
0
40
0
40
0.125
40
0.125
40
0.25
40
0.25
40
0.5
40
0.5
40
0.75
40
0.75
40
1
40
1
40
1
40
1
41
1
10
13.7886751345948
20
-47.6991123363141
30
0
41
1
10
13.7572057460937
20
-47.6991123363141
30
0
41
1
10
13.7265863249372
20
-47.6971731220929
30
0
41
1
10
13.6685627993565
20
-47.6901896918971
30
0
41
1
10
13.642171873473
20
-47.685321932856
30
0
41
1
10
13.5684767776432
20
-47.6678096320571
30
0
41
1
10
13.529486779677
20
-47.6531212535631
30
0
41
1
10
13.4628524690449
20
-47.6213036484293
30
0
41
1
10
13.4360331579796
20
-47.6044110998707
30
0
41
1
10
13.3902293919744
20
-47.5693355727224
30
0
41
1
10
13.3713425683518
20
-47.5510829903643
30
0
41
1
10
13.3556624327026
20
-47.5324740593459
30
0
0
SPLINE
5
146
100
AcDbEntity
8
1
62
256
6
ByLayer
370
18
48
1
60
0
100
AcDbSpline
70
4
71
3
72
16
73
12
40
0
40
0
40
0
40
0
40
0.250000000000002
40
0.250000000000002
40
0.500000000000003
40
0.500000000000003
40
0.750000000000005
40
0.750000000000005
40
0.875000000000003
40
0.875000000000003
40
1
40
1
40
1
40
1
41
1
10
18.6443375672974
20
-47.532474059346
30
0
41
1
10
18.628663043577
20
-47.5510763302182
30
0
41
1
10
18.609922401016
20
-47.5691972862268
30
0
41
1
10
18.5642089472352
20
-47.6042475586048
30
0
41
1
10
18.5371631998437
20
-47.6212962856129
30
0
41
1
10
18.4704947598566
20
-47.6531299493423
30
0
41
1
10
18.4307979975499
20
-47.6679778471913
30
0
41
1
10
18.3582709830991
20
-47.685218753302
30
0
41
1
10
18.3313299686496
20
-47.6901974749824
30
0
41
1
10
18.273779935704
20
-47.6971341405705
30
0
41
1
10
18.2427481222218
20
-47.6991123363141
30
0
41
1
10
18.2113248654052
20
-47.6991123363141
30
0
0
SPLINE
5
147
100
AcDbEntity
8
1
62
256
6
ByLayer
370
18
48
1
60
0
100
AcDbSpline
70
4
71
3
72
22
73
18
40
0
40
0
40
0
40
0
40
0.125
40
0.125
40
0.25
40
0.25
40
0.3125
40
0.3125
40
0.375
40
0.375
40
0.5
40
0.5
40
0.625
40
0.625
40
0.750000000000001
40
0.750000000000001
40
1
40
1
40
1
40
1
41
1
10
37.7653246960696
20
18.9628664782974
30
0
41
1
10
37.4989483947084
20
20.188153324939
30
0
41
1
10
37.2464598756055
20
21.4150499801375
30
0
41
1
10
36.7912209772998
20
23.8767427887721
30
0
41
1
10
36.5883790904283
20
25.1115377110781
30
0
41
1
10
36.3242177133973
20
26.9707500531067
30
0
41
1
10
36.2427420336474
20
27.5914977304259
30
0
41
1
10
36.0924330918406
20
28.8330963685968
30
0
41
1
10
36.02355136732
20
29.4542126315282
30
0
41
1
10
35.833948858396
20
31.3184921355148
30
0
41
1
10
35.7302407955699
20
32.5625906414977
30
0
41
1
10
35.5575959721058
20
35.052934654763
30
0
41
1
10
35.4885906621777
20
36.2991733803296
30
0
41
1
10
35.3761124924403
20
38.7933658935604
30
0
41
1
10
35.3326387555441
20
40.0413175545179
30
0
41
1
10
35.2304946477103
20
43.7871909188629
30
0
41
1
10
35.1993729663223
20
46.2870918893843
30
0
41
1
10
35.1901859137181
20
48.7886717189492
30
0
0
SPLINE
5
148
100
AcDbEntity
8
1
62
256
6
ByLayer
370
18
48
1
60
0
100
AcDbSpline
70
4
71
3
72
16
73
12
40
0
40
0
40
0
40
0
40
0.125000000000004
40
0.125000000000004
40
0.250000000000008
40
0.250000000000008
40
0.500000000000005
40
0.500000000000005
40
0.750000000000003
40
0.750000000000003
40
1
40
1
40
1
40
1
41
1
10
18.2113248654053
20
-14.9931545155676
30
0
41
1
10
18.2427942539065
20
-14.9931545155676
30
0
41
1
10
18.273413675063
20
-14.9993270329222
30
0
41
1
10
18.3314372006437
20
-15.0215159830932
30
0
41
1
10
18.3578281265271
20
-15.0369693753061
30
0
41
1
10
18.4315232223569
20
-15.092429500184
30
0
41
1
10
18.4705132203231
20
-15.1387838835225
30
0
41
1
10
18.5371475309552
20
-15.2385754420444
30
0
41
1
10
18.5639668420206
20
-15.2912821270175
30
0
41
1
10
18.6097706080258
20
-15.4000512474235
30
0
41
1
10
18.6286574316484
20
-15.4563289206725
30
0
41
1
10
18.6443375672976
20
-15.5133461831291
30
0
0
SPLINE
5
149
100
AcDbEntity
8
1
62
256
6
ByLayer
370
18
48
1
60
0
100
AcDbSpline
70
4
71
3
72
10
73
6
40
0
40
0
40
0
40
0
40
0.634543451678885
40
0.634543451678885
40
1
40
1
40
1
40
1
41
1
10
88.4955905874479
20
54.0729355020596
30
0
41
1
10
88.607851860043
20
54.1173156680564
30
0
41
1
10
88.7222528902989
20
54.1570460587461
30
0
41
1
10
88.9059765305898
20
54.212201726557
30
0
41
1
10
88.9740406830379
20
54.2308240605636
30
0
41
1
10
89.0425645275707
20
54.2477868854595
30
0
0
SPLINE
5
14A
100
AcDbEntity
8
1
62
256
6
ByLayer
370
18
48
1
60
0
100
AcDbSpline
70
4
71
3
72
16
73
12
40
0
40
0
40
0
40
0
40
0.126230339899321
40
0.126230339899321
40
0.309699028421444
40
0.309699028421444
40
0.676636405465689
40
0.676636405465689
40
0.860105093987812
40
0.860105093987812
40
1
40
1
40
1
40
1
41
1
10
94.1804708918927
20
48.7513414268567
30
0
41
1
10
94.1530367212683
20
48.6715935895708
30
0
41
1
10
94.1232775202932
20
48.5922905175402
30
0
41
1
10
94.0449775741558
20
48.400393795842
30
0
41
1
10
93.9941862737491
20
48.2892230828425
30
0
41
1
10
93.8287120895196
20
47.9631698193755
30
0
41
1
10
93.7010178313602
20
47.7556952766132
30
0
41
1
10
93.482391023169
20
47.4598864648466
30
0
41
1
10
93.4048591830156
20
47.3638172907527
30
0
41
1
10
93.2627149411324
20
47.2022560287266
30
0
41
1
10
93.1992140591614
20
47.1346401659258
30
0
41
1
10
93.1337267115436
20
47.0692759767833
30
0
0
SPLINE
5
14B
100
AcDbEntity
8
1
62
256
6
ByLayer
370
18
48
1
60
0
100
AcDbSpline
70
4
71
3
72
16
73
12
40
0
40
0
40
0
40
0
40
0.114384954434215
40
0.114384954434215
40
0.291507963547372
40
0.291507963547372
40
0.468630972660529
40
0.468630972660529
40
0.645753981773686
40
0.645753981773686
40
1
40
1
40
1
40
1
41
1
10
86.7740963461489
20
52.4170631534141
30
0
41
1
10
86.8145890335345
20
52.49282586656
30
0
41
1
10
86.8587929469568
20
52.5689854288798
30
0
41
1
10
86.9791774098303
20
52.7599063742543
30
0
41
1
10
87.059663016101
20
52.8733654867969
30
0
41
1
10
87.2346136594332
20
53.0933024658336
30
0
41
1
10
87.3290879735174
20
53.1998107874191
30
0
41
1
10
87.5320421970175
20
53.404663653653
30
0
41
1
10
87.6407821746862
20
53.5031011409215
30
0
41
1
10
87.9808676750277
20
53.7786921187987
30
0
41
1
10
88.2280050449097
20
53.9386471769034
30
0
41
1
10
88.4955905874459
20
54.0729355020625
30
0
0
SPLINE
5
14C
100
AcDbEntity
8
1
62
256
6
ByLayer
370
18
48
1
60
0
100
AcDbSpline
70
4
71
3
72
8
73
4
40
0
40
0
40
0
40
0
40
1
40
1
40
1
40
1
41
1
10
88.3095337458761
20
53.9503726072861
30
0
41
1
10
87.9578231308133
20
53.7787804480898
30
0
41
1
10
87.6039171469473
20
53.6064120903085
30
0
41
1
10
87.242589719161
20
53.4314197933235
30
0
0
SPLINE
5
14D
100
AcDbEntity
8
1
62
256
6
ByLayer
370
18
48
1
60
0
100
AcDbSpline
70
4
71
3
72
8
73
4
40
0
40
0
40
0
40
0
40
1
40
1
40
1
40
1
41
1
10
88.0175392245982
20
48.7421764075183
30
0
41
1
10
87.8776524603299
20
48.6155352356115
30
0
41
1
10
87.7378020091133
20
48.4888957916304
30
0
41
1
10
87.5979767235217
20
48.3622575557432
30
0
0
SPLINE
5
14E
100
AcDbEntity
8
1
62
256
6
ByLayer
370
18
48
1
60
0
100
AcDbSpline
70
4
71
3
72
8
73
4
40
0
40
0
40
0
40
0
40
1
40
1
40
1
40
1
41
1
10
94.7331860609824
20
51.5658221708152
30
0
41
1
10
94.8826240523067
20
51.5608298348655
30
0
41
1
10
95.0320276373377
20
51.555809492345
30
0
41
1
10
95.181407376669
20
51.5507697507269
30
0
0
SPLINE
5
14F
100
AcDbEntity
8
1
62
256
6
ByLayer
370
18
48
1
60
0
100
AcDbSpline
70
4
71
3
72
8
73
4
40
0
40
0
40
0
40
0
40
1
40
1
40
1
40
1
41
1
10
94.3201211993388
20
53.5608886452365
30
0
41
1
10
94.2131045323636
20
53.4670590279657
30
0
41
1
10
94.1060581673297
20
53.3732236701673
30
0
41
1
10
93.99896894171
20
53.279380036909
30
0
0
SPLINE
5
150
100
AcDbEntity
8
1
62
256
6
ByLayer
370
18
48
1
60
0
100
AcDbSpline
70
4
71
3
72
8
73
4
40
0
40
0
40
0
40
0
40
1
40
1
40
1
40
1
41
1
10
86.7366905461916
20
50.3723764502528
30
0
41
1
10
86.9188789041392
20
50.4001453272511
30
0
41
1
10
87.1010865753529
20
50.4279290709132
30
0
41
1
10
87.2833221053257
20
50.4557342736121
30
0
0
SPLINE
5
151
100
AcDbEntity
8
1
62
256
6
ByLayer
370
18
48
1
60
0
100
AcDbSpline
70
4
71
3
72
8
73
4
40
0
40
0
40
0
40
0
40
1
40
1
40
1
40
1
41
1
10
68.3299406816484
20
42.4635819105615
30
0
41
1
10
68.2957792918287
20
42.1467463672767
30
0
41
1
10
68.2659901198441
20
41.8427961054294
30
0
41
1
10
68.2387755897521
20
41.546435889211
30
0
0
SPLINE
5
152
100
AcDbEntity
8
1
62
256
6
ByLayer
370
18
48
1
60
0
100
AcDbSpline
70
4
71
3
72
10
73
6
40
0
40
0
40
0
40
0
40
0.5
40
0.5
40
1
40
1
40
1
40
1
41
1
10
73.2282559400522
20
40.909789612769
30
0
41
1
10
73.241954956884
20
41.0589688775419
30
0
41
1
10
73.2564038457102
20
41.2110236738242
30
0
41
1
10
73.2867402915421
20
41.5171135104714
30
0
41
1
10
73.3026433673424
20
41.6713283678879
30
0
41
1
10
73.3194210319485
20
41.8269356341195
30
0
0
SPLINE
5
153
100
AcDbEntity
8
1
62
256
6
ByLayer
370
18
48
1
60
0
100
AcDbSpline
70
4
71
3
72
10
73
6
40
0
40
0
40
0
40
0
40
0.5
40
0.5
40
1
40
1
40
1
40
1
41
1
10
68.2387755897521
20
41.546435889211
30
0
41
1
10
68.3584764715252
20
41.4482219446418
30
0
41
1
10
68.4805903745432
20
41.3490019788289
30
0
41
1
10
68.7266805862157
20
41.1515533485961
30
0
41
1
10
68.8508009631907
20
41.0532044849989
30
0
41
1
10
68.9762010794456
20
40.9553024668898
30
0
0
SPLINE
5
154
100
AcDbEntity
8
1
62
256
6
ByLayer
370
18
48
1
60
0
100
AcDbSpline
70
4
71
3
72
8
73
4
40
0
40
0
40
0
40
0
40
1
40
1
40
1
40
1
41
1
10
71.9800609976372
20
44.952810613172
30
0
41
1
10
71.7247309290368
20
45.1521511699946
30
0
41
1
10
71.4804338323812
20
45.3488317597189
30
0
41
1
10
71.2426355079437
20
45.5439440354932
30
0
0
SPLINE
5
155
100
AcDbEntity
8
1
62
256
6
ByLayer
370
18
48
1
60
0
100
AcDbSpline
70
4
71
3
72
10
73
6
40
0
40
0
40
0
40
0
40
0.5
40
0.5
40
1
40
1
40
1
40
1
41
1
10
68.5781887517798
20
44.4236567455465
30
0
41
1
10
68.5556487900247
20
44.2656365358503
30
0
41
1
10
68.5332901175308
20
44.1056719559003
30
0
41
1
10
68.4898665771144
20
43.7864950246686
30
0
41
1
10
68.4687732806132
20
43.6270899465513
30
0
41
1
10
68.4484160636627
20
43.4679031279751
30
0
0
SPLINE
5
156
100
AcDbEntity
8
1
62
256
6
ByLayer
370
18
48
1
60
0
100
AcDbSpline
70
4
71
3
72
10
73
6
40
0
40
0
40
0
40
0
40
0.5
40
0.5
40
1
40
1
40
1
40
1
41
1
10
73.2282559400522
20
40.909789612769
30
0
41
1
10
73.082247096288
20
40.8458486094392
30
0
41
1
10
72.9351517064312
20
40.7817257731756
30
0
41
1
10
72.6380373794943
20
40.6529908465136
30
0
41
1
10
72.4894210104794
20
40.5889914676291
30
0
41
1
10
72.3417539641311
20
40.5258656194083
30
0
0
SPLINE
5
157
100
AcDbEntity
8
1
62
256
6
ByLayer
370
18
48
1
60
0
100
AcDbSpline
70
4
71
3
72
10
73
6
40
0
40
0
40
0
40
0
40
0.5
40
0.5
40
1
40
1
40
1
40
1
41
1
10
71.4117035635885
20
40.134818719962
30
0
41
1
10
71.2669125052135
20
40.0749833812704
30
0
41
1
10
71.1222161375447
20
40.0156762367703
30
0
41
1
10
70.8393793573377
20
39.9005566237313
30
0
41
1
10
70.700607243734
20
39.8444772798696
30
0
41
1
10
70.5638091838883
20
39.7895023228222
30
0
0
SPLINE
5
158
100
AcDbEntity
8
1
62
256
6
ByLayer
370
18
48
1
60
0
100
AcDbSpline
70
4
71
3
72
8
73
4
40
0
40
0
40
0
40
0
40
1
40
1
40
1
40
1
41
1
10
69.7877760979738
20
40.3420281489225
30
0
41
1
10
70.0503945756521
20
40.1499760011778
30
0
41
1
10
70.308447397444
20
39.9670511365898
30
0
41
1
10
70.5638091838883
20
39.7895023228222
30
0
0
SPLINE
5
159
100
AcDbEntity
8
1
62
256
6
ByLayer
370
18
48
1
60
0
100
AcDbSpline
70
4
71
3
72
10
73
6
40
0
40
0
40
0
40
0
40
0.5
40
0.5
40
1
40
1
40
1
40
1
41
1
10
73.5676691020799
20
43.7870104691045
30
0
41
1
10
73.4391272753834
20
43.8763834687504
30
0
41
1
10
73.3091035886978
20
43.9676936508956
30
0
41
1
10
73.0499262824408
20
44.1520551865439
30
0
41
1
10
72.920615684765
20
44.2452138294403
30
0
41
1
10
72.7916360161654
20
44.3395362952048
30
0
0
SPLINE
5
15A
100
AcDbEntity
8
1
62
256
6
ByLayer
370
18
48
1
60
0
100
AcDbSpline
70
4
71
3
72
8
73
4
40
0
40
0
40
0
40
0
40
1
40
1
40
1
40
1
41
1
10
73.4378964139626
20
42.831256851533
30
0
41
1
10
73.4793462128602
20
43.1553808038957
30
0
41
1
10
73.522891109981
20
43.4730867908792
30
0
41
1
10
73.5676691020799
20
43.7870104691045
30
0
0
SPLINE
5
15B
100
AcDbEntity
8
1
62
256
6
ByLayer
370
18
48
1
60
0
100
AcDbSpline
70
4
71
3
72
10
73
6
40
0
40
0
40
0
40
0
40
0.5
40
0.5
40
1
40
1
40
1
40
1
41
1
10
69.42608313148
20
44.7689731426863
30
0
41
1
10
69.2812920731051
20
44.7091378039947
30
0
41
1
10
69.1365957054362
20
44.6498306594946
30
0
41
1
10
68.8537589252292
20
44.5347110464556
30
0
41
1
10
68.7149868116255
20
44.4786317025939
30
0
41
1
10
68.5781887517798
20
44.4236567455465
30
0
0
SPLINE
5
15C
100
AcDbEntity
8
1
62
256
6
ByLayer
370
18
48
1
60
0
100
AcDbSpline
70
4
71
3
72
10
73
6
40
0
40
0
40
0
40
0
40
0.5
40
0.5
40
1
40
1
40
1
40
1
41
1
10
71.2426355079437
20
45.5439440354932
30
0
41
1
10
71.0966266641795
20
45.4800030321634
30
0
41
1
10
70.9495312743228
20
45.4158801958998
30
0
41
1
10
70.6524169473858
20
45.2871452692379
30
0
41
1
10
70.5038005783709
20
45.2231458903534
30
0
41
1
10
70.3561335320226
20
45.1600200421326
30
0
0
INSERT
5
16F
100
AcDbEntity
8
2
62
256
6
ByLayer
370
25
48
1
60
0
100
AcDbBlockReference
2
DimnDraft3D11
10
0
20
0
30
0
41
1
42
1
43
1
50
0
210
0
220
0
230
1
0
LINE
5
72
100
AcDbEntity
8
1
62
256
6
ByLayer
370
18
48
1
60
0
100
AcDbLine
10
0.3
20
-50
30
0
11
36.186138
21
-50
31
0
39
0
210
0
220
0
230
1
0
LINE
5
73
100
AcDbEntity
8
1
62
256
6
ByLayer
370
18
48
1
60
0
100
AcDbLine
10
93.056956
20
46.992504
30
0
11
93.136753
21
47.072301
31
0
39
0
210
0
220
0
230
1
0
LINE
5
74
100
AcDbEntity
8
1
62
256
6
ByLayer
370
18
48
1
60
0
100
AcDbLine
10
33.499558
20
8.476448
30
0
11
31.847479
21
7.621686
31
0
39
0
210
0
220
0
230
1
0
LINE
5
75
100
AcDbEntity
8
1
62
256
6
ByLayer
370
18
48
1
60
0
100
AcDbLine
10
25.155076
20
0.6
30
0
11
25.08759
21
0.6
31
0
39
0
210
0
220
0
230
1
0
LINE
5
76
100
AcDbEntity
8
1
62
256
6
ByLayer
370
18
48
1
60
0
100
AcDbLine
10
66.587152
20
46.835934
30
0
11
66.521232
21
46.770014
31
0
39
0
210
0
220
0
230
1
0
LINE
5
77
100
AcDbEntity
8
1
62
256
6
ByLayer
370
18
48
1
60
0
100
AcDbLine
10
75.006513
20
38.284733
30
0
11
75.072434
21
38.350653
31
0
39
0
210
0
220
0
230
1
0
LINE
5
78
100
AcDbEntity
8
1
62
256
6
ByLayer
370
18
48
1
60
0
100
AcDbLine
10
25.312541
20
2
30
0
11
25.003462
21
2
31
0
39
0
210
0
220
0
230
1
0
LINE
5
79
100
AcDbEntity
8
1
62
256
6
ByLayer
370
18
48
1
60
0
100
AcDbLine
10
25.003462
20
-2
30
0
11
25.312541
21
-2
31
0
39
0
210
0
220
0
230
1
0
LINE
5
7A
100
AcDbEntity
8
1
62
256
6
ByLayer
370
18
48
1
60
0
100
AcDbLine
10
25.08759
20
-0.6
30
0
11
25.155076
21
-0.6
31
0
39
0
210
0
220
0
230
1
0
LINE
5
7B
100
AcDbEntity
8
1
62
256
6
ByLayer
370
18
48
1
60
0
100
AcDbLine
10
36.186138
20
50
30
0
11
0.3
21
50
31
0
39
0
210
0
220
0
230
1
0
LINE
5
7C
100
AcDbEntity
8
1
62
256
6
ByLayer
370
18
48
1
60
0
100
AcDbLine
10
0.3
20
50
30
0
11
0
21
49.7
31
0
39
0
210
0
220
0
230
1
0
LINE
5
7D
100
AcDbEntity
8
1
62
256
6
ByLayer
370
18
48
1
60
0
100
AcDbLine
10
0
20
-49.7
30
0
11
0.3
21
-50
31
0
39
0
210
0
220
0
230
1
0
LINE
5
7E
100
AcDbEntity
8
1
62
256
6
ByLayer
370
18
48
1
60
0
100
AcDbLine
10
36.652507
20
-50.15
30
0
11
38
21
-50.15
31
0
39
0
210
0
220
0
230
1
0
LINE
5
7F
100
AcDbEntity
8
1
62
256
6
ByLayer
370
18
48
1
60
0
100
AcDbLine
10
39.5
20
50.15
30
0
11
36.652507
21
50.15
31
0
39
0
210
0
220
0
230
1
0
LINE
5
80
100
AcDbEntity
8
1
62
256
6
ByLayer
370
18
48
1
60
0
100
AcDbLine
10
46.932007
20
66.431815
30
0
11
43.363703
21
53.114724
31
0
39
0
210
0
220
0
230
1
0
LINE
5
81
100
AcDbEntity
8
1
62
256
6
ByLayer
370
18
48
1
60
0
100
AcDbLine
10
93.147302
20
47.638168
30
0
11
93.885379
21
48.376245
31
0
39
0
210
0
220
0
230
1
0
LINE
5
82
100
AcDbEntity
8
1
62
256
6
ByLayer
370
18
48
1
60
0
100
AcDbLine
10
88.032719
20
53.546901
30
0
11
87.294642
21
52.808824
31
0
39
0
210
0
220
0
230
1
0
LINE
5
83
100
AcDbEntity
8
1
62
256
6
ByLayer
370
18
48
1
60
0
100
AcDbLine
10
87.443988
20
53.315721
30
0
11
87.374164
21
53.245897
31
0
39
0
210
0
220
0
230
1
0
LINE
5
84
100
AcDbEntity
8
1
62
256
6
ByLayer
370
18
48
1
60
0
100
AcDbLine
10
31.811509
20
1.973493
30
0
11
35.797178
21
4.035621
31
0
39
0
210
0
220
0
230
1
0
LINE
5
85
100
AcDbEntity
8
1
62
256
6
ByLayer
370
18
48
1
60
0
100
AcDbLine
10
35.836805
20
4.090855
30
0
11
35.897119
21
4.288865
31
0
39
0
210
0
220
0
230
1
0
LINE
5
86
100
AcDbEntity
8
1
62
256
6
ByLayer
370
18
48
1
60
0
100
AcDbLine
10
33.764005
20
8.411734
30
0
11
33.567535
21
8.476886
31
0
39
0
210
0
220
0
230
1
0
LINE
5
87
100
AcDbEntity
8
SK1
62
256
6
ByLayer
370
18
48
1
60
0
100
AcDbLine
10
-1.307107
20
-4.60538
30
0
11
-1.307107
21
4.60538
31
0
39
0
210
0
220
0
230
1
0
LINE
5
89
100
AcDbEntity
8
SK1
62
256
6
ByLayer
370
18
48
1
60
0
100
AcDbLine
10
-0.2
20
-37.983485
30
0
11
-0.2
21
-6.83962
31
0
39
0
210
0
220
0
230
1
0
LINE
5
8A
100
AcDbEntity
8
SK1
62
256
6
ByLayer
370
18
48
1
60
0
100
AcDbLine
10
-0.2
20
6.83962
30
0
11
-0.2
21
37.983485
31
0
39
0
210
0
220
0
230
1
0
LINE
5
8B
100
AcDbEntity
8
1
62
256
6
ByLayer
370
18
48
1
60
0
100
AcDbLine
10
36.652507
20
50.15
30
0
11
36.652507
21
49.585957
31
0
39
0
210
0
220
0
230
1
0
LINE
5
8C
100
AcDbEntity
8
1
62
256
6
ByLayer
370
18
48
1
60
0
100
AcDbLine
10
36.652507
20
-49.110481
30
0
11
36.652507
21
-50.15
31
0
39
0
210
0
220
0
230
1
0
LINE
5
8D
100
AcDbEntity
8
1
62
256
6
ByLayer
370
18
48
1
60
0
100
AcDbLine
10
13.788675
20
47.699112
30
0
11
18.211325
21
47.699112
31
0
39
0
210
0
220
0
230
1
0
LINE
5
8E
100
AcDbEntity
8
1
62
256
6
ByLayer
370
18
48
1
60
0
100
AcDbLine
10
84.144497
20
40.187223
30
0
11
90.508458
21
33.823262
31
0
39
0
210
0
220
0
230
1
0
LINE
5
8F
100
AcDbEntity
8
1
62
256
6
ByLayer
370
18
48
1
60
0
100
AcDbLine
10
18.211325
20
14.993155
30
0
11
13.788675
21
14.993155
31
0
39
0
210
0
220
0
230
1
0
LINE
5
90
100
AcDbEntity
8
1
62
256
6
ByLayer
370
18
48
1
60
0
100
AcDbLine
10
82.096665
20
60.059701
30
0
11
78.668359
21
56.661474
31
0
39
0
210
0
220
0
230
1
0
LINE
5
91
100
AcDbEntity
8
1
62
256
6
ByLayer
370
18
48
1
60
0
100
AcDbLine
10
72.97221
20
51.359511
30
0
11
79.19475
21
45.136971
31
0
39
0
210
0
220
0
230
1
0
LINE
5
92
100
AcDbEntity
8
1
62
256
6
ByLayer
370
18
48
1
60
0
100
AcDbLine
10
76.836596
20
55.789581
30
0
11
76.956556
21
55.909542
31
0
39
0
210
0
220
0
230
1
0
LINE
5
93
100
AcDbEntity
8
1
62
256
6
ByLayer
370
18
48
1
60
0
100
AcDbLine
10
13.788675
20
-14.993155
30
0
11
18.211325
21
-14.993155
31
0
39
0
210
0
220
0
230
1
0
LINE
5
94
100
AcDbEntity
8
1
62
256
6
ByLayer
370
18
48
1
60
0
100
AcDbLine
10
18.644338
20
47.532474
30
0
11
18.644338
21
15.513346
31
0
39
0
210
0
220
0
230
1
0
LINE
5
95
100
AcDbEntity
8
1
62
256
6
ByLayer
370
18
48
1
60
0
100
AcDbLine
10
13.355662
20
47.532474
30
0
11
13.355662
21
15.513346
31
0
39
0
210
0
220
0
230
1
0
LINE
5
96
100
AcDbEntity
8
1
62
256
6
ByLayer
370
18
48
1
60
0
100
AcDbLine
10
32.154577
20
-1.12345
30
0
11
32.347248
21
-2.246375
31
0
39
0
210
0
220
0
230
1
0
LINE
5
97
100
AcDbEntity
8
1
62
256
6
ByLayer
370
18
48
1
60
0
100
AcDbLine
10
38
20
-50.15
30
0
11
38
21
-49.142878
31
0
39
0
210
0
220
0
230
1
0
LINE
5
98
100
AcDbEntity
8
1
62
256
6
ByLayer
370
18
48
1
60
0
100
AcDbLine
10
90.508458
20
33.823262
30
0
11
55.529596
21
-1.1556
31
0
39
0
210
0
220
0
230
1
0
LINE
5
99
100
AcDbEntity
8
1
62
256
6
ByLayer
370
18
48
1
60
0
100
AcDbLine
10
31.866648
20
0.554652
30
0
11
32.059319
21
-0.568273
31
0
39
0
210
0
220
0
230
1
0
LINE
5
9A
100
AcDbEntity
8
1
62
256
6
ByLayer
370
18
48
1
60
0
100
AcDbLine
10
33.780546
20
-48.100311
30
0
11
33.780546
21
2.991238
31
0
39
0
210
0
220
0
230
1
0
LINE
5
9B
100
AcDbEntity
8
1
62
256
6
ByLayer
370
18
48
1
60
0
100
AcDbLine
10
33.780546
20
8.404026
30
0
11
33.780546
21
48.100311
31
0
39
0
210
0
220
0
230
1
0
LINE
5
9C
100
AcDbEntity
8
1
62
256
6
ByLayer
370
18
48
1
60
0
100
AcDbLine
10
86.974068
20
66.431815
30
0
11
46.966445
21
66.431815
31
0
39
0
210
0
220
0
230
1
0
LINE
5
9D
100
AcDbEntity
8
1
62
256
6
ByLayer
370
18
48
1
60
0
100
AcDbLine
10
18.211325
20
-47.699112
30
0
11
13.788675
21
-47.699112
31
0
39
0
210
0
220
0
230
1
0
LINE
5
9E
100
AcDbEntity
8
1
62
256
6
ByLayer
370
18
48
1
60
0
100
AcDbLine
10
13.788675
20
47.699112
30
0
11
13.788675
21
14.993155
31
0
39
0
210
0
220
0
230
1
0
LINE
5
9F
100
AcDbEntity
8
1
62
256
6
ByLayer
370
18
48
1
60
0
100
AcDbLine
10
78.188424
20
57.14141
30
0
11
78.668359
21
56.661474
31
0
39
0
210
0
220
0
230
1
0
LINE
5
A0
100
AcDbEntity
8
1
62
256
6
ByLayer
370
18
48
1
60
0
100
AcDbLine
10
0
20
-49.7
30
0
11
0
21
49.7
31
0
39
0
210
0
220
0
230
1
0
LINE
5
A1
100
AcDbEntity
8
1
62
256
6
ByLayer
370
18
48
1
60
0
100
AcDbLine
10
0.3
20
-50
30
0
11
0.3
21
50
31
0
39
0
210
0
220
0
230
1
0
LINE
5
A2
100
AcDbEntity
8
1
62
256
6
ByLayer
370
18
48
1
60
0
100
AcDbLine
10
37.765325
20
-49.142878
30
0
11
38
21
-49.142878
31
0
39
0
210
0
220
0
230
1
0
LINE
5
A3
100
AcDbEntity
8
1
62
256
6
ByLayer
370
18
48
1
60
0
100
AcDbLine
10
38.776561
20
49.712513
30
0
11
39.113477
21
15.26052
31
0
39
0
210
0
220
0
230
1
0
LINE
5
A4
100
AcDbEntity
8
1
62
256
6
ByLayer
370
18
48
1
60
0
100
AcDbLine
10
43.363703
20
52.791821
30
0
11
43.363703
21
53.114724
31
0
39
0
210
0
220
0
230
1
0
LINE
5
A5
100
AcDbEntity
8
1
62
256
6
ByLayer
370
18
48
1
60
0
100
AcDbLine
10
39.113477
20
15.26052
30
0
11
55.529596
21
-1.1556
31
0
39
0
210
0
220
0
230
1
0
LINE
5
A6
100
AcDbEntity
8
1
62
256
6
ByLayer
370
18
48
1
60
0
100
AcDbLine
10
38
20
-49.142878
30
0
11
38
21
-22.910174
31
0
39
0
210
0
220
0
230
1
0
LINE
5
A7
100
AcDbEntity
8
1
62
256
6
ByLayer
370
18
48
1
60
0
100
AcDbLine
10
37.765325
20
18.962866
30
0
11
37.765325
21
-49.142878
31
0
39
0
210
0
220
0
230
1
0
LINE
5
A8
100
AcDbEntity
8
1
62
256
6
ByLayer
370
18
48
1
60
0
100
AcDbLine
10
87.721414
20
65.684468
30
0
11
86.974068
21
66.431815
31
0
39
0
210
0
220
0
230
1
0
LINE
5
A9
100
AcDbEntity
8
1
62
256
6
ByLayer
370
18
48
1
60
0
100
AcDbLine
10
78.668359
20
56.661474
30
0
11
77.620034
21
55.787612
31
0
39
0
210
0
220
0
230
1
0
LINE
5
AA
100
AcDbEntity
8
1
62
256
6
ByLayer
370
18
48
1
60
0
100
AcDbLine
10
77.331586
20
55.294591
30
0
11
76.836596
21
55.789581
31
0
39
0
210
0
220
0
230
1
0
LINE
5
AB
100
AcDbEntity
8
1
62
256
6
ByLayer
370
18
48
1
60
0
100
AcDbLine
10
39.5
20
49.722145
30
0
11
39.5
21
50.15
31
0
39
0
210
0
220
0
230
1
0
LINE
5
AC
100
AcDbEntity
8
1
62
256
6
ByLayer
370
18
48
1
60
0
100
AcDbLine
10
18.211325
20
-14.993155
30
0
11
18.211325
21
-47.699112
31
0
39
0
210
0
220
0
230
1
0
LINE
5
AD
100
AcDbEntity
8
1
62
256
6
ByLayer
370
18
48
1
60
0
100
AcDbLine
10
40.987511
20
-15.697685
30
0
11
55.529596
21
-1.1556
31
0
39
0
210
0
220
0
230
1
0
LINE
5
AE
100
AcDbEntity
8
1
62
256
6
ByLayer
370
18
48
1
60
0
100
AcDbLine
10
13.355662
20
-15.513346
30
0
11
13.355662
21
-47.532474
31
0
39
0
210
0
220
0
230
1
0
LINE
5
AF
100
AcDbEntity
8
1
62
256
6
ByLayer
370
18
48
1
60
0
100
AcDbLine
10
79.904425
20
44.217229
30
0
11
83.224755
21
40.896898
31
0
39
0
210
0
220
0
230
1
0
LINE
5
B0
100
AcDbEntity
8
1
62
256
6
ByLayer
370
18
48
1
60
0
100
AcDbLine
10
76.956556
20
55.909542
30
0
11
77.45152
21
55.414577
31
0
39
0
210
0
220
0
230
1
0
LINE
5
B1
100
AcDbEntity
8
1
62
256
6
ByLayer
370
18
48
1
60
0
100
AcDbLine
10
18.211325
20
47.699112
30
0
11
18.211325
21
14.993155
31
0
39
0
210
0
220
0
230
1
0
LINE
5
B2
100
AcDbEntity
8
1
62
256
6
ByLayer
370
18
48
1
60
0
100
AcDbLine
10
86.974068
20
66.431815
30
0
11
88.46871
21
66.431815
31
0
39
0
210
0
220
0
230
1
0
LINE
5
B3
100
AcDbEntity
8
1
62
256
6
ByLayer
370
18
48
1
60
0
100
AcDbLine
10
76.956556
20
55.909542
30
0
11
78.188424
21
57.14141
31
0
39
0
210
0
220
0
230
1
0
LINE
5
B4
100
AcDbEntity
8
1
62
256
6
ByLayer
370
18
48
1
60
0
100
AcDbLine
10
36.186138
20
-48.922346
30
0
11
36.186138
21
-50
31
0
39
0
210
0
220
0
230
1
0
LINE
5
B5
100
AcDbEntity
8
1
62
256
6
ByLayer
370
18
48
1
60
0
100
AcDbLine
10
36.186138
20
50
30
0
11
36.186138
21
49.360248
31
0
39
0
210
0
220
0
230
1
0
LINE
5
B6
100
AcDbEntity
8
1
62
256
6
ByLayer
370
18
48
1
60
0
100
AcDbLine
10
13.788675
20
-14.993155
30
0
11
13.788675
21
-47.699112
31
0
39
0
210
0
220
0
230
1
0
LINE
5
B7
100
AcDbEntity
8
1
62
256
6
ByLayer
370
18
48
1
60
0
100
AcDbLine
10
18.644338
20
-15.513346
30
0
11
18.644338
21
-47.532474
31
0
39
0
210
0
220
0
230
1
0
LINE
5
B8
100
AcDbEntity
8
1
62
256
6
ByLayer
370
18
48
1
60
0
100
AcDbLine
10
87.554324
20
48.318605
30
0
11
87.597977
21
48.362258
31
0
39
0
210
0
220
0
230
1
0
LINE
5
B9
100
AcDbEntity
8
1
62
256
6
ByLayer
370
18
48
1
60
0
100
AcDbLine
10
86.736691
20
50.372376
30
0
11
86.651235
21
50.286921
31
0
39
0
210
0
220
0
230
1
0
LINE
5
BA
100
AcDbEntity
8
1
62
256
6
ByLayer
370
18
48
1
60
0
100
AcDbLine
10
74.916558
20
49.511998
30
0
11
74.86814
21
49.46358
31
0
39
0
210
0
220
0
230
1
0
LINE
5
BB
100
AcDbEntity
8
1
62
256
6
ByLayer
370
18
48
1
60
0
100
AcDbLine
10
89.461056
20
34.870664
30
0
11
89.509474
21
34.919082
31
0
39
0
210
0
220
0
230
1
0
LINE
5
BC
100
AcDbEntity
8
1
62
256
6
ByLayer
370
18
48
1
60
0
100
AcDbLine
10
68.530169
20
44.079454
30
0
11
68.886303
21
44.229193
31
0
39
0
210
0
220
0
230
1
0
LINE
5
BD
100
AcDbEntity
8
1
62
256
6
ByLayer
370
18
48
1
60
0
100
AcDbLine
10
72.779641
20
41.287155
30
0
11
72.708447
21
40.683643
31
0
39
0
210
0
220
0
230
1
0
LINE
5
BE
100
AcDbEntity
8
80
62
256
6
ByLayer
370
18
48
1
60
0
100
AcDbLine
10
0
20
0
30
0
11
-5
21
0
31
0
39
0
210
0
220
0
230
1
0
LINE
5
BF
100
AcDbEntity
8
4
62
256
6
ByLayer
370
18
48
0.05
60
0
100
AcDbLine
10
0
20
0
30
0
11
92
21
0
31
0
39
0
210
0
220
0
230
1
0
LINE
5
C1
100
AcDbEntity
8
81
62
256
6
ByLayer
370
18
48
1
60
0
100
AcDbLine
10
92
20
68
30
0
11
102
21
68
31
0
39
0
210
0
220
0
230
1
0
LINE
5
C2
100
AcDbEntity
8
SK4
62
256
6
ByLayer
370
18
48
0.05
60
0
100
AcDbLine
10
-65
20
0
30
0
11
92
21
0
31
0
39
0
210
0
220
0
230
1
0
LINE
5
C4
100
AcDbEntity
8
1
62
256
6
ByLayer
370
18
48
1
60
0
100
AcDbLine
10
71.980061
20
44.952811
30
0
11
71.440281
21
44.41303
31
0
39
0
210
0
220
0
230
1
0
LINE
5
C5
100
AcDbEntity
8
1
62
256
6
ByLayer
370
18
48
1
60
0
100
AcDbLine
10
73.437896
20
42.831257
30
0
11
72.898116
21
42.291477
31
0
39
0
210
0
220
0
230
1
0
LINE
5
C6
100
AcDbEntity
8
1
62
256
6
ByLayer
370
18
48
1
60
0
100
AcDbLine
10
73.008585
20
43.227926
30
0
11
72.898116
21
42.291477
31
0
39
0
210
0
220
0
230
1
0
LINE
5
C7
100
AcDbEntity
8
1
62
256
6
ByLayer
370
18
48
1
60
0
100
AcDbLine
10
71.242636
20
45.543944
30
0
11
70.683552
21
44.98486
31
0
39
0
210
0
220
0
230
1
0
LINE
5
C8
100
AcDbEntity
8
1
62
256
6
ByLayer
370
18
48
1
60
0
100
AcDbLine
10
72.779641
20
41.287155
30
0
11
73.319421
21
41.826936
31
0
39
0
210
0
220
0
230
1
0
LINE
5
C9
100
AcDbEntity
8
1
62
256
6
ByLayer
370
18
48
1
60
0
100
AcDbLine
10
70.683552
20
44.98486
30
0
11
71.440281
21
44.41303
31
0
39
0
210
0
220
0
230
1
0
LINE
5
CA
100
AcDbEntity
8
1
62
256
6
ByLayer
370
18
48
1
60
0
100
AcDbLine
10
69.816353
20
44.62024
30
0
11
70.356134
21
45.16002
31
0
39
0
210
0
220
0
230
1
0
LINE
5
CB
100
AcDbEntity
8
1
62
256
6
ByLayer
370
18
48
1
60
0
100
AcDbLine
10
72.251856
20
43.799756
30
0
11
73.008585
21
43.227926
31
0
39
0
210
0
220
0
230
1
0
LINE
5
CC
100
AcDbEntity
8
1
62
256
6
ByLayer
370
18
48
1
60
0
100
AcDbLine
10
69.426083
20
44.768973
30
0
11
68.886303
21
44.229193
31
0
39
0
210
0
220
0
230
1
0
LINE
5
CD
100
AcDbEntity
8
1
62
256
6
ByLayer
370
18
48
1
60
0
100
AcDbLine
10
72.251856
20
43.799756
30
0
11
72.791636
21
44.339536
31
0
39
0
210
0
220
0
230
1
0
LINE
5
CE
100
AcDbEntity
8
1
62
256
6
ByLayer
370
18
48
1
60
0
100
AcDbLine
10
73.567669
20
43.78701
30
0
11
73.008585
21
43.227926
31
0
39
0
210
0
220
0
230
1
0
LINE
5
CF
100
AcDbEntity
8
1
62
256
6
ByLayer
370
18
48
1
60
0
100
AcDbLine
10
69.816353
20
44.62024
30
0
11
70.683552
21
44.98486
31
0
39
0
210
0
220
0
230
1
0
LINE
5
D0
100
AcDbEntity
8
1
62
256
6
ByLayer
370
18
48
1
60
0
100
AcDbLine
10
92.70228
20
67.29772
30
0
11
107.295196
21
52.704804
31
0
39
0
210
0
220
0
230
1
0
LINE
5
D1
100
AcDbEntity
8
1
62
256
6
ByLayer
370
18
48
1
60
0
100
AcDbLine
10
89.509474
20
34.919082
30
0
11
74.916558
21
49.511998
31
0
39
0
210
0
220
0
230
1
0
LINE
5
D2
100
AcDbEntity
8
1
62
256
6
ByLayer
370
18
48
1
60
0
100
AcDbLine
10
74.900171
20
52.863208
30
0
11
89.35107
21
67.314107
31
0
39
0
210
0
220
0
230
1
0
LINE
5
D3
100
AcDbEntity
8
1
62
256
6
ByLayer
370
18
48
1
60
0
100
AcDbLine
10
92.860684
20
34.902696
30
0
11
92.079552
21
34.121564
31
0
39
0
210
0
220
0
230
1
0
LINE
5
D4
100
AcDbEntity
8
1
62
256
6
ByLayer
370
18
48
1
60
0
100
AcDbLine
10
107.311583
20
49.353595
30
0
11
92.860684
21
34.902696
31
0
39
0
210
0
220
0
230
1
0
LINE
5
D5
100
AcDbEntity
8
1
62
256
6
ByLayer
370
18
48
1
60
0
100
AcDbLine
10
74.11904
20
52.082077
30
0
11
74.900171
21
52.863208
31
0
39
0
210
0
220
0
230
1
0
MTEXT
5
15D
100
AcDbEntity
8
SK6
62
256
6
ByLayer
370
13
48
1
60
0
100
AcDbMText
10
-11.359793
20
-65.297905
30
0
210
0
220
0
230
1
1
\W0.7417;C10-PSSNR-68092-25
40
3.5
41
0
44
1.084337
50
0
71
7
72
5
7
iso_b_vert
0
DIMENSION
5
17E
100
AcDbEntity
8
SK2
62
256
6
ByLayer
370
13
48
1
60
0
100
AcDbDimension
2
DimnDraft3D2
10
-69.75
20
-50
30
0
11
-69.75
21
0
31
0
70
32
71
5
72
1
41
1
210
0
220
0
230
1
3
Standard
100
AcDbAlignedDimension
13
-1.5875
23
50
33
0
14
-1.5875
24
-50
34
0
50
90
100
AcDbRotatedDimension
1001
ACAD
1000
DSTYLE
1002
{
1070
    74
1070
     0
1070
   279
1070
     0
1070
   172
1070
     1
1070
   173
1070
     1
1070
   340
1005
15E
1070
   271
1070
     1
1070
   272
1070
     2
1070
    77
1070
     1
1070
    73
1070
     0
1070
   171
1070
     3
1070
   274
1070
     4
1070
   177
1070
   150
1070
   176
1070
     9
1070
   178
1070
    43
1070
    78
1070
     8
1070
    48
1040
-0.005
1070
    41
1041
3.175
1070
   147
1041
2.25
1070
    42
1041
1.5875
1070
    44
1041
3.175
1070
   140
1041
4.5
1070
   343
1005
17F
1070
   344
1005
17F
1002
}
0
DIMENSION
5
193
100
AcDbEntity
8
2
62
256
6
ByLayer
370
13
48
1
60
0
100
AcDbDimension
2
DimnDraft3D3
10
0
20
75.5
30
0
11
46
21
75.5
31
0
70
32
71
5
72
1
41
1
210
0
220
0
230
1
3
Standard
100
AcDbAlignedDimension
13
92
23
69.5875
33
0
14
0
24
51.5875
34
0
50
0
100
AcDbRotatedDimension
1001
ACAD
1000
DSTYLE
1002
{
1070
   279
1070
     0
1070
   172
1070
     1
1070
   173
1070
     1
1070
   340
1005
15E
1070
   271
1070
     1
1070
   272
1070
     2
1070
    77
1070
     1
1070
    73
1070
     0
1070
   171
1070
     3
1070
   274
1070
     4
1070
   177
1070
   150
1070
   176
1070
     9
1070
   178
1070
    43
1070
    78
1070
     8
1070
    48
1040
-0.005
1070
    41
1041
3.175
1070
   147
1041
2.25
1070
    42
1041
1.5875
1070
    44
1041
3.175
1070
   140
1041
4.5
1070
   343
1005
17F
1070
   344
1005
17F
1002
}
0
DIMENSION
5
1A1
100
AcDbEntity
8
2
62
256
6
ByLayer
370
13
48
1
60
0
100
AcDbDimension
2
DimnDraft3D4
10
92
20
68
30
0
11
119.586674
21
55.995437
31
0
70
34
71
5
72
1
41
1
210
0
220
0
230
1
3
Standard
100
AcDb2LineAngularDimension
13
91.302548
23
67.302548
33
0
14
108.980218
24
49.624878
34
0
15
87.2375
25
68
35
0
16
123.744132
26
54.273362
36
0
40
0
0
ENDSEC
0
SECTION
2
OBJECTS
0
DICTIONARY
5
20c
330
0
100
AcDbDictionary
280
0
281
1
3
ACAD_GROUP
350
20d
3
ACAD_MLINESTYLE
350
20e
0
DICTIONARY
5
20d
330
0
100
AcDbDictionary
280
0
281
1
0
DICTIONARY
5
20e
330
0
100
AcDbDictionary
280
0
281
1
3
Standard
350
18
0
MLINESTYLE
5
18
330
20e
100
AcDbMlineStyle
2
Standard
70
0
3

62
256
51
90
52
90
71
2
49
-0.5
62
256
6
ByLayer
49
0.5
62
256
6
ByLayer
0
RASTERVARIABLES
5
1fa
330

100
AcDbRasterVariables
90
0
70
1
71
1
72
1
0
ENDSEC
0
EOF
