0
SECTION
2
HEADER
9
$ACADVER
1
AC1015
9
$DWGCODEPAGE
3
ANSI_1252
9
$HANDSEED
5
28c
9
$ANGBASE
50
0
9
$ANGDIR
70
0
9
$ATTMODE
70
1
9
$AUNITS
70
0
9
$AUPREC
70
0
9
$CECOLOR
62
256
9
$CELTSCALE
40
1
9
$CELTYPE
6
ByLayer
9
$CELWEIGHT
370
18
9
$CLAYER
8
0
9
$CMLJUST
70
0
9
$CMLSCALE
40
1
9
$CMLSTYLE
2
Standard
9
$DIMSTYLE
2
Standard
9
$TEXTSIZE
40
0.2
9
$TEXTSTYLE
7
Standard
9
$LUNITS
70
2
9
$LUPREC
70
4
9
$EXTNAMES
290
1
9
$INSUNITS
70
4
9
$LTSCALE
40
1
9
$LWDISPLAY
290
1
9
$PDMODE
70
0
9
$PDSIZE
40
0
9
$PLINEGEN
70
0
0
ENDSEC
0
SECTION
2
CLASSES
0
CLASS
1
RASTERVARIABLES
2
AcDbRasterVariables
3
ISM
90
0
280
0
281
0
0
ENDSEC
0
SECTION
2
TABLES
0
TABLE
2
VPORT
5
282
100
AcDbSymbolTable
0
VPORT
5
1
100
AcDbSymbolTableRecord
100
AcDbViewportTableRecord
2
*Active
70
0
10
0
20
0
11
1
21
1
12
-1
22
1
13
0
23
0
14
0.5
24
0.5
15
10
25
10
16
0
26
0
36
1
17
0
27
0
37
0
0
ENDTAB
0
TABLE
2
LTYPE
5
283
100
AcDbSymbolTable
0
LTYPE
5
14
100
AcDbSymbolTableRecord
100
AcDbLinetypeTableRecord
70
0
2
ByBlock
3

72
65
73
0
40
0
0
LTYPE
5
15
100
AcDbSymbolTableRecord
100
AcDbLinetypeTableRecord
70
0
2
ByLayer
3

72
65
73
0
40
0
0
LTYPE
5
16
100
AcDbSymbolTableRecord
100
AcDbLinetypeTableRecord
70
0
2
CONTINUOUS
3
Solid line
72
65
73
0
40
0
0
LTYPE
5
6A
100
AcDbSymbolTableRecord
100
AcDbLinetypeTableRecord
70
0
2
CENTER
3
____ _ ____ _ ____ _ ____
72
65
73
4
40
47.5
49
22
74
0
49
-8.5
74
0
49
8.5
74
0
49
-8.5
74
0
0
LTYPE
5
6B
100
AcDbSymbolTableRecord
100
AcDbLinetypeTableRecord
70
0
2
DASHED
3
__ __ __ __ __ __ __ __ __
72
65
73
2
40
25.72
49
12.86
74
0
49
-12.86
74
0
0
ENDTAB
0
TABLE
2
LAYER
5
284
100
AcDbSymbolTable
0
LAYER
5
10
100
AcDbSymbolTableRecord
100
AcDbLayerTableRecord
2
0
70
0
62
7
6
CONTINUOUS
290
1
370
-3
390
0
0
LAYER
5
6D
100
AcDbSymbolTableRecord
100
AcDbLayerTableRecord
2
80
70
0
62
-6
6
CONTINUOUS
290
1
370
-3
390
0
0
LAYER
5
6F
100
AcDbSymbolTableRecord
100
AcDbLayerTableRecord
2
81
70
0
62
-3
6
CONTINUOUS
290
1
370
-3
390
0
0
LAYER
5
76
100
AcDbSymbolTableRecord
100
AcDbLayerTableRecord
2
1
70
0
62
4
6
CONTINUOUS
290
1
370
-3
390
0
0
LAYER
5
95
100
AcDbSymbolTableRecord
100
AcDbLayerTableRecord
2
4
70
0
62
-2
6
CENTER
290
1
370
-3
390
0
0
LAYER
5
1F6
100
AcDbSymbolTableRecord
100
AcDbLayerTableRecord
2
2
70
0
62
7
6
CONTINUOUS
290
1
370
-3
390
0
0
LAYER
5
26e
100
AcDbSymbolTableRecord
100
AcDbLayerTableRecord
2
SK2
70
0
62
7
6
CONTINUOUS
290
1
370
-3
390
0
0
LAYER
5
26f
100
AcDbSymbolTableRecord
100
AcDbLayerTableRecord
2
SK1
70
0
62
4
6
CONTINUOUS
290
1
370
-3
390
0
0
LAYER
5
270
100
AcDbSymbolTableRecord
100
AcDbLayerTableRecord
2
SK4
70
0
62
2
6
CENTER
290
1
370
-3
390
0
0
LAYER
5
271
100
AcDbSymbolTableRecord
100
AcDbLayerTableRecord
2
SK6
70
0
62
5
6
CONTINUOUS
290
1
370
-3
390
0
0
ENDTAB
0
TABLE
2
STYLE
5
285
100
AcDbSymbolTable
0
STYLE
5
11
100
AcDbSymbolTableRecord
100
AcDbTextStyleTableRecord
2
Standard
3
txt
70
0
71
0
40
0
41
1
42
0
50
0
0
STYLE
5
1DD
100
AcDbSymbolTableRecord
100
AcDbTextStyleTableRecord
2
iso_b_vert
3
simplex.shx
70
0
71
0
40
0
41
1
42
0
50
0
0
STYLE
5
1DE
100
AcDbSymbolTableRecord
100
AcDbTextStyleTableRecord
2
DWGDirectTextStyle
3
simplex
70
0
71
0
40
0
41
1
42
0
50
0
0
ENDTAB
0
TABLE
2
DIMSTYLE
5
286
100
AcDbSymbolTable
100
AcDbDimStyleTable
0
DIMSTYLE
105
27
100
AcDbSymbolTableRecord
100
AcDbDimStyleTableRecord
2
Standard
70
0
3
<>
41
0.18
42
0.0625
44
0.18
140
0.18
147
0.09
73
0
74
0
77
1
271
2
275
0
278
52
280
0
340
11
0
ENDTAB
0
TABLE
2
VIEW
5
287
100
AcDbSymbolTable
0
ENDTAB
0
TABLE
2
UCS
5
288
100
AcDbSymbolTable
0
ENDTAB
0
TABLE
2
APPID
5
289
100
AcDbSymbolTable
0
APPID
5
12
100
AcDbSymbolTableRecord
100
AcDbRegAppTableRecord
2
ACAD
70
0
0
ENDTAB
0
TABLE
2
BLOCK_RECORD
5
28a
100
AcDbSymbolTable
0
BLOCK_RECORD
5
1F
100
AcDbSymbolTableRecord
100
AcDbBlockTableRecord
2
*Model_Space
340
0
70
0
0
BLOCK_RECORD
5
1B
100
AcDbSymbolTableRecord
100
AcDbBlockTableRecord
2
*Paper_Space
340
0
70
0
0
BLOCK_RECORD
5
23
100
AcDbSymbolTableRecord
100
AcDbBlockTableRecord
2
*Paper_Space0
340
0
70
0
0
BLOCK_RECORD
5
1E0
100
AcDbSymbolTableRecord
100
AcDbBlockTableRecord
2
DimnDraft3D1
340
0
70
0
0
BLOCK_RECORD
5
1EA
100
AcDbSymbolTableRecord
100
AcDbBlockTableRecord
2
DimnDraft3D2
340
0
70
0
0
BLOCK_RECORD
5
1F4
100
AcDbSymbolTableRecord
100
AcDbBlockTableRecord
2
DimnDraft3D3
340
0
70
0
0
BLOCK_RECORD
5
1FF
100
AcDbSymbolTableRecord
100
AcDbBlockTableRecord
2
DimnDraft3D4
340
0
70
0
0
BLOCK_RECORD
5
20A
100
AcDbSymbolTableRecord
100
AcDbBlockTableRecord
2
DimnDraft3D5
340
0
70
0
0
ENDTAB
0
ENDSEC
0
SECTION
2
BLOCKS
0
BLOCK
5
20
100
AcDbEntity
8
0
100
AcDbBlockBegin
2
*Model_Space
70
0
10
0
20
0
30
0
3
*Model_Space
0
ENDBLK
5
21
100
AcDbEntity
8
0
100
AcDbBlockEnd
0
BLOCK
5
1C
100
AcDbEntity
8
0
100
AcDbBlockBegin
2
*Paper_Space
70
0
10
0
20
0
30
0
3
*Paper_Space
0
ENDBLK
5
1D
100
AcDbEntity
8
0
100
AcDbBlockEnd
0
BLOCK
5
24
100
AcDbEntity
8
0
100
AcDbBlockBegin
2
*Paper_Space0
70
0
10
0
20
0
30
0
3
*Paper_Space0
0
ENDBLK
5
25
100
AcDbEntity
8
0
100
AcDbBlockEnd
0
BLOCK
5
1E7
100
AcDbEntity
8
0
100
AcDbBlockBegin
2
DimnDraft3D1
70
0
10
0
20
0
30
0
3
DimnDraft3D1
0
MTEXT
5
1E1
100
AcDbEntity
8
SK2
62
256
6
ByLayer
370
18
48
1
60
0
100
AcDbMText
10
61.155234
20
57.475134
30
0
210
0
220
0
230
1
1
\W0.7208;28.1
40
3.5
41
0
44
1.084337
50
0
71
7
72
5
7
iso_b_vert
0
LINE
5
1E2
100
AcDbEntity
8
SK2
62
256
6
ByLayer
370
13
48
1
60
0
100
AcDbLine
10
49.9
20
-8.4125
30
0
11
49.9
21
58.6
31
0
39
0
210
0
220
0
230
1
0
LINE
5
1E3
100
AcDbEntity
8
SK2
62
256
6
ByLayer
370
13
48
1
60
0
100
AcDbLine
10
78
20
-8.4125
30
0
11
78
21
58.6
31
0
39
0
210
0
220
0
230
1
0
LINE
5
1E4
100
AcDbEntity
8
SK2
62
256
6
ByLayer
370
13
48
1
60
0
100
AcDbLine
10
49.9
20
56.6
30
0
11
78
21
56.6
31
0
39
0
210
0
220
0
230
1
0
SOLID
5
1E5
100
AcDbEntity
8
SK2
62
256
6
ByLayer
370
13
48
1
60
0
100
AcDbTrace
10
49.9
20
56.6
30
0
11
53.399998
21
57.060784
31
0
12
53.400002
22
56.139216
32
0
13
49.9
23
56.6
33
0
39
0
210
0
220
0
230
1
0
SOLID
5
1E6
100
AcDbEntity
8
SK2
62
256
6
ByLayer
370
13
48
1
60
0
100
AcDbTrace
10
78
20
56.6
30
0
11
74.500002
21
56.139216
31
0
12
74.499998
22
57.060784
32
0
13
78
23
56.6
33
0
39
0
210
0
220
0
230
1
0
ENDBLK
5
1E8
100
AcDbEntity
8
0
100
AcDbBlockEnd
0
BLOCK
5
1F1
100
AcDbEntity
8
0
100
AcDbBlockBegin
2
DimnDraft3D2
70
0
10
0
20
0
30
0
3
DimnDraft3D2
0
MTEXT
5
1EB
100
AcDbEntity
8
SK2
62
256
6
ByLayer
370
18
48
1
60
0
100
AcDbMText
10
98.013077
20
-18.232199
30
0
210
0
220
0
230
1
1
\W0.7346;30.0
40
3.5
41
0
44
1.084337
50
90
71
7
72
5
7
iso_b_vert
0
LINE
5
1EC
100
AcDbEntity
8
SK2
62
256
6
ByLayer
370
13
48
1
60
0
100
AcDbLine
10
79.5875
20
-30
30
0
11
100.888211
21
-30
31
0
39
0
210
0
220
0
230
1
0
LINE
5
1ED
100
AcDbEntity
8
SK2
62
256
6
ByLayer
370
13
48
1
60
0
100
AcDbLine
10
79.5875
20
0
30
0
11
100.888211
21
0
31
0
39
0
210
0
220
0
230
1
0
LINE
5
1EE
100
AcDbEntity
8
SK2
62
256
6
ByLayer
370
13
48
1
60
0
100
AcDbLine
10
98.888211
20
-30
30
0
11
98.888211
21
0
31
0
39
0
210
0
220
0
230
1
0
SOLID
5
1EF
100
AcDbEntity
8
SK2
62
256
6
ByLayer
370
13
48
1
60
0
100
AcDbTrace
10
98.888211
20
-30
30
0
11
98.427427
21
-26.500002
31
0
12
99.348994
22
-26.499998
32
0
13
98.888211
23
-30
33
0
39
0
210
0
220
0
230
1
0
SOLID
5
1F0
100
AcDbEntity
8
SK2
62
256
6
ByLayer
370
13
48
1
60
0
100
AcDbTrace
10
98.888211
20
0
30
0
11
99.348994
21
-3.499998
31
0
12
98.427427
22
-3.500002
32
0
13
98.888211
23
0
33
0
39
0
210
0
220
0
230
1
0
ENDBLK
5
1F2
100
AcDbEntity
8
0
100
AcDbBlockEnd
0
BLOCK
5
1FC
100
AcDbEntity
8
0
100
AcDbBlockBegin
2
DimnDraft3D3
70
0
10
0
20
0
30
0
3
DimnDraft3D3
0
MTEXT
5
1F5
100
AcDbEntity
8
2
62
256
6
ByLayer
370
18
48
1
60
0
100
AcDbMText
10
35.767801
20
67.475134
30
0
210
0
220
0
230
1
1
\W0.7346;78.0
40
3.5
41
0
44
1.084337
50
0
71
7
72
5
7
iso_b_vert
0
LINE
5
1F7
100
AcDbEntity
8
2
62
256
6
ByLayer
370
13
48
1
60
0
100
AcDbLine
10
0
20
51.5875
30
0
11
0
21
68.6
31
0
39
0
210
0
220
0
230
1
0
LINE
5
1F8
100
AcDbEntity
8
2
62
256
6
ByLayer
370
13
48
1
60
0
100
AcDbLine
10
78
20
-8.4125
30
0
11
78
21
68.6
31
0
39
0
210
0
220
0
230
1
0
LINE
5
1F9
100
AcDbEntity
8
2
62
256
6
ByLayer
370
13
48
1
60
0
100
AcDbLine
10
0
20
66.6
30
0
11
78
21
66.6
31
0
39
0
210
0
220
0
230
1
0
SOLID
5
1FA
100
AcDbEntity
8
2
62
256
6
ByLayer
370
13
48
1
60
0
100
AcDbTrace
10
0
20
66.6
30
0
11
3.499998
21
67.060784
31
0
12
3.500002
22
66.139216
32
0
13
0
23
66.6
33
0
39
0
210
0
220
0
230
1
0
SOLID
5
1FB
100
AcDbEntity
8
2
62
256
6
ByLayer
370
13
48
1
60
0
100
AcDbTrace
10
78
20
66.6
30
0
11
74.500002
21
66.139216
31
0
12
74.499998
22
67.060784
32
0
13
78
23
66.6
33
0
39
0
210
0
220
0
230
1
0
ENDBLK
5
1FD
100
AcDbEntity
8
0
100
AcDbBlockEnd
0
BLOCK
5
207
100
AcDbEntity
8
0
100
AcDbBlockBegin
2
DimnDraft3D4
70
0
10
0
20
0
30
0
3
DimnDraft3D4
0
MTEXT
5
200
100
AcDbEntity
8
SK2
62
256
6
ByLayer
370
18
48
1
60
0
100
AcDbMText
10
-83.350134
20
2.289234
30
0
210
0
220
0
230
1
1
\W0.6217;100
40
3.5
41
0
44
1.084337
50
90
71
7
72
5
7
iso_b_vert
0
MTEXT
5
201
100
AcDbEntity
8
SK2
62
256
6
ByLayer
370
18
48
1
60
0
100
AcDbMText
10
-83.350134
20
-4.683422
30
0
210
0
220
0
230
1
1
%%c
40
3.5
41
0
44
1.084337
50
90
71
7
72
5
7
iso_b_vert
0
LINE
5
202
100
AcDbEntity
8
SK2
62
256
6
ByLayer
370
13
48
1
60
0
100
AcDbLine
10
-1.5875
20
50
30
0
11
-83.6
21
50
31
0
39
0
210
0
220
0
230
1
0
LINE
5
203
100
AcDbEntity
8
SK2
62
256
6
ByLayer
370
13
48
1
60
0
100
AcDbLine
10
-1.5875
20
-50
30
0
11
-83.6
21
-50
31
0
39
0
210
0
220
0
230
1
0
LINE
5
204
100
AcDbEntity
8
SK2
62
256
6
ByLayer
370
13
48
1
60
0
100
AcDbLine
10
-81.6
20
50
30
0
11
-81.6
21
-50
31
0
39
0
210
0
220
0
230
1
0
SOLID
5
205
100
AcDbEntity
8
SK2
62
256
6
ByLayer
370
13
48
1
60
0
100
AcDbTrace
10
-81.6
20
50
30
0
11
-81.139216
21
46.500002
31
0
12
-82.060784
22
46.499998
32
0
13
-81.6
23
50
33
0
39
0
210
0
220
0
230
1
0
SOLID
5
206
100
AcDbEntity
8
SK2
62
256
6
ByLayer
370
13
48
1
60
0
100
AcDbTrace
10
-81.6
20
-50
30
0
11
-82.060784
21
-46.500002
31
0
12
-81.139216
22
-46.499998
32
0
13
-81.6
23
-50
33
0
39
0
210
0
220
0
230
1
0
ENDBLK
5
208
100
AcDbEntity
8
0
100
AcDbBlockEnd
0
BLOCK
5
212
100
AcDbEntity
8
0
100
AcDbBlockBegin
2
DimnDraft3D5
70
0
10
0
20
0
30
0
3
DimnDraft3D5
0
MTEXT
5
20B
100
AcDbEntity
8
SK2
62
256
6
ByLayer
370
18
48
1
60
0
100
AcDbMText
10
107.138077
20
-27.024733
30
0
210
0
220
0
230
1
1
\W0.7361;40
40
3.5
41
0
44
1.084337
50
90
71
7
72
5
7
iso_b_vert
0
MTEXT
5
20C
100
AcDbEntity
8
SK2
62
256
6
ByLayer
370
18
48
1
60
0
100
AcDbMText
10
107.138077
20
-33.997389
30
0
210
0
220
0
230
1
1
%%c
40
3.5
41
0
44
1.084337
50
90
71
7
72
5
7
iso_b_vert
0
LINE
5
20D
100
AcDbEntity
8
SK2
62
256
6
ByLayer
370
13
48
1
60
0
100
AcDbLine
10
79.5875
20
-10
30
0
11
110.888211
21
-10
31
0
39
0
210
0
220
0
230
1
0
LINE
5
20E
100
AcDbEntity
8
SK2
62
256
6
ByLayer
370
13
48
1
60
0
100
AcDbLine
10
79.5875
20
-50
30
0
11
110.888211
21
-50
31
0
39
0
210
0
220
0
230
1
0
LINE
5
20F
100
AcDbEntity
8
SK2
62
256
6
ByLayer
370
13
48
1
60
0
100
AcDbLine
10
108.888211
20
-10
30
0
11
108.888211
21
-50
31
0
39
0
210
0
220
0
230
1
0
SOLID
5
210
100
AcDbEntity
8
SK2
62
256
6
ByLayer
370
13
48
1
60
0
100
AcDbTrace
10
108.888211
20
-10
30
0
11
109.348994
21
-13.499998
31
0
12
108.427427
22
-13.500002
32
0
13
108.888211
23
-10
33
0
39
0
210
0
220
0
230
1
0
SOLID
5
211
100
AcDbEntity
8
SK2
62
256
6
ByLayer
370
13
48
1
60
0
100
AcDbTrace
10
108.888211
20
-50
30
0
11
108.427427
21
-46.500002
31
0
12
109.348994
22
-46.499998
32
0
13
108.888211
23
-50
33
0
39
0
210
0
220
0
230
1
0
ENDBLK
5
213
100
AcDbEntity
8
0
100
AcDbBlockEnd
0
ENDSEC
0
SECTION
2
ENTITIES
0
ARC
5
11E
100
AcDbEntity
8
1
62
256
6
ByLayer
370
18
48
1
60
0
100
AcDbCircle
39
0
10
-49.9
20
-6
30
0
40
4
210
0
220
0
230
-1
100
AcDbArc
50
270
51
350.035306
0
ARC
5
11F
100
AcDbEntity
8
1
62
256
6
ByLayer
370
18
48
1
60
0
100
AcDbCircle
39
0
10
87.9255
20
-15.700505
30
0
40
0.6
210
0
220
0
230
1
100
AcDbArc
50
0
51
90
0
ARC
5
120
100
AcDbEntity
8
1
62
256
6
ByLayer
370
18
48
1
60
0
100
AcDbCircle
39
0
10
87.9255
20
-24.500505
30
0
40
0.6
210
0
220
0
230
1
100
AcDbArc
50
270
51
0
0
ARC
5
121
100
AcDbEntity
8
1
62
256
6
ByLayer
370
18
48
1
60
0
100
AcDbCircle
39
0
10
-82.4255
20
-16.850505
30
0
40
0.25
210
0
220
0
230
-1
100
AcDbArc
50
180
51
270
0
ARC
5
122
100
AcDbEntity
8
1
62
256
6
ByLayer
370
18
48
1
60
0
100
AcDbCircle
39
0
10
-82.4255
20
-23.350505
30
0
40
0.25
210
0
220
0
230
-1
100
AcDbArc
50
90
51
180
0
ARC
5
123
100
AcDbEntity
8
1
62
256
6
ByLayer
370
18
48
1
60
0
100
AcDbCircle
39
0
10
87.9255
20
-15.700505
30
0
40
0.6
210
0
220
0
230
1
100
AcDbArc
50
0
51
90
0
ARC
5
124
100
AcDbEntity
8
1
62
256
6
ByLayer
370
18
48
1
60
0
100
AcDbCircle
39
0
10
87.9255
20
-24.500505
30
0
40
0.6
210
0
220
0
230
1
100
AcDbArc
50
270
51
0
0
ARC
5
125
100
AcDbEntity
8
1
62
256
6
ByLayer
370
18
48
1
60
0
100
AcDbCircle
39
0
10
-82.4255
20
-16.850505
30
0
40
0.25
210
0
220
0
230
-1
100
AcDbArc
50
180
51
270
0
ARC
5
126
100
AcDbEntity
8
1
62
256
6
ByLayer
370
18
48
1
60
0
100
AcDbCircle
39
0
10
-82.4255
20
-23.350505
30
0
40
0.25
210
0
220
0
230
-1
100
AcDbArc
50
90
51
180
0
ARC
5
127
100
AcDbEntity
8
1
62
256
6
ByLayer
370
18
48
1
60
0
100
AcDbCircle
39
0
10
87.9255
20
-35.499495
30
0
40
0.6
210
0
220
0
230
1
100
AcDbArc
50
0
51
90
0
ARC
5
128
100
AcDbEntity
8
1
62
256
6
ByLayer
370
18
48
1
60
0
100
AcDbCircle
39
0
10
87.9255
20
-44.299495
30
0
40
0.6
210
0
220
0
230
1
100
AcDbArc
50
270
51
0
0
ARC
5
129
100
AcDbEntity
8
1
62
256
6
ByLayer
370
18
48
1
60
0
100
AcDbCircle
39
0
10
-82.4255
20
-36.649495
30
0
40
0.25
210
0
220
0
230
-1
100
AcDbArc
50
180
51
270
0
ARC
5
12A
100
AcDbEntity
8
1
62
256
6
ByLayer
370
18
48
1
60
0
100
AcDbCircle
39
0
10
-82.4255
20
-43.149495
30
0
40
0.25
210
0
220
0
230
-1
100
AcDbArc
50
90
51
180
0
ELLIPSE
5
12B
100
AcDbEntity
8
1
62
256
6
ByLayer
370
18
48
1
60
0
100
AcDbEllipse
10
39.094011
20
0
30
0
11
23.4185446994528
21
-49.3543728818723
31
0
210
0
220
0
230
-1
40
0.341999
41
2.04714540389041
42
2.98699413089088
0
ELLIPSE
5
12C
100
AcDbEntity
8
1
62
256
6
ByLayer
370
18
48
1
60
0
100
AcDbEllipse
10
39.094011
20
0
30
0
11
23.4185446994547
21
49.3543728818749
31
0
210
0
220
0
230
-1
40
0.341999
41
-2.98699413089089
42
-2.04714540389045
0
ELLIPSE
5
12D
100
AcDbEntity
8
1
62
256
6
ByLayer
370
18
48
1
60
0
100
AcDbEllipse
10
-7.094011
20
0
30
0
11
23.4185446994552
21
-49.3543728818759
31
0
210
0
220
0
230
-1
40
0.341999
41
-1.09444724969933
42
-0.154598522698909
0
ELLIPSE
5
12E
100
AcDbEntity
8
1
62
256
6
ByLayer
370
18
48
1
60
0
100
AcDbEllipse
10
-7.094011
20
0
30
0
11
23.4185446994553
21
49.3543728818759
31
0
210
0
220
0
230
-1
40
0.341999
41
0.15459852269891
42
1.09444724969933
0
POINT
5
6C
100
AcDbEntity
8
80
62
256
6
ByLayer
370
18
48
1
60
0
100
AcDbPoint
10
0
20
0
30
0
39
0
210
0
220
0
230
1
50
360
0
POINT
5
6E
100
AcDbEntity
8
81
62
256
6
ByLayer
370
18
48
1
60
0
100
AcDbPoint
10
78
20
-30
30
0
39
0
210
0
220
0
230
1
50
360
0
POINT
5
70
100
AcDbEntity
8
SK2
62
256
6
ByLayer
370
18
48
1
60
1
100
AcDbPoint
10
0
20
50
30
0
39
0
210
0
220
0
230
1
50
360
0
POINT
5
72
100
AcDbEntity
8
SK2
62
256
6
ByLayer
370
18
48
1
60
1
100
AcDbPoint
10
0
20
-50
30
0
39
0
210
0
220
0
230
1
50
360
0
POINT
5
73
100
AcDbEntity
8
SK2
62
256
6
ByLayer
370
18
48
1
60
1
100
AcDbPoint
10
78
20
-10
30
0
39
0
210
0
220
0
230
1
50
360
0
POINT
5
74
100
AcDbEntity
8
SK2
62
256
6
ByLayer
370
18
48
1
60
1
100
AcDbPoint
10
78
20
-50
30
0
39
0
210
0
220
0
230
1
50
360
0
SPLINE
5
12F
100
AcDbEntity
8
SK1
62
256
6
ByLayer
370
18
48
1
60
0
100
AcDbSpline
70
4
71
2
72
6
73
3
40
0
40
0
40
0
40
1
40
1
40
1
41
1
10
-58
20
-34.5978000890188
30
0
41
1
10
-30.1000000035744
20
-35.2981888603889
30
0
41
1
10
-2.19999999999999
20
-35.9985716822015
30
0
0
SPLINE
5
130
100
AcDbEntity
8
SK1
62
256
6
ByLayer
370
18
48
1
60
0
100
AcDbSpline
70
4
71
2
72
6
73
3
40
0
40
0
40
0
40
1
40
1
40
1
41
1
10
-2.19999999999999
20
35.9985719120492
30
0
41
1
10
-30.1000000035746
20
35.2981890859066
30
0
41
1
10
-58
20
34.5978003100418
30
0
0
SPLINE
5
131
100
AcDbEntity
8
SK1
62
256
6
ByLayer
370
18
48
1
60
0
100
AcDbSpline
70
4
71
3
72
13
73
9
40
0
40
0
40
0
40
0
40
0.239442047574166
40
0.368341069074216
40
0.499978783818762
40
0.631620026675271
40
0.760528776867192
40
1
40
1
40
1
40
1
41
1
10
-2.19999999999999
20
-36.0200815409836
30
0
41
1
10
-2.19909176705153
20
-35.994027105375
30
0
41
1
10
-2.19103262237829
20
-35.9566590334751
30
0
41
1
10
-2.16563563317712
20
-35.9104460340019
30
0
41
1
10
-2.13886340404622
20
-35.8791685632416
30
0
41
1
10
-2.1062767168018
20
-35.8540045476929
30
0
41
1
10
-2.05884008476849
20
-35.830963811793
30
0
41
1
10
-2.02111001631118
20
-35.8247923357231
30
0
41
1
10
-1.99503997793928
20
-35.8251941047083
30
0
0
SPLINE
5
132
100
AcDbEntity
8
SK1
62
256
6
ByLayer
370
18
48
1
60
0
100
AcDbSpline
70
4
71
3
72
13
73
9
40
0
40
0
40
0
40
0
40
0.239471222996063
40
0.368379973143904
40
0.500021215984582
40
0.631658930744997
40
0.760557952289182
40
1
40
1
40
1
40
1
41
1
10
-1.99503997793928
20
35.8251939258772
30
0
41
1
10
-2.02111001631439
20
35.8247921568938
30
0
41
1
10
-2.05884008477477
20
35.8309636329736
30
0
41
1
10
-2.10627671680578
20
35.8540043689097
30
0
41
1
10
-2.13886340404983
20
35.8791683844979
30
0
41
1
10
-2.16563563317985
20
35.9104458553064
30
0
41
1
10
-2.19103262238045
20
35.9566588548524
30
0
41
1
10
-2.19909176705366
20
35.9940269268063
30
0
41
1
10
-2.19999999999999
20
36.0200813624515
30
0
0
SPLINE
5
133
100
AcDbEntity
8
SK1
62
256
6
ByLayer
370
18
48
1
60
0
100
AcDbSpline
70
4
71
2
72
6
73
3
40
0
40
0
40
0
40
1
40
1
40
1
41
1
10
-1.99503997793928
20
-35.8251915453108
30
0
41
1
10
-1.19497688887574
20
-35.8452891960195
30
0
41
1
10
-0.394913799811292
20
-35.8653868467265
30
0
0
SPLINE
5
134
100
AcDbEntity
8
SK1
62
256
6
ByLayer
370
18
48
1
60
0
100
AcDbSpline
70
4
71
2
72
6
73
3
40
0
40
0
40
0
40
1
40
1
40
1
41
1
10
-0.394913799811292
20
35.8653866684133
30
0
41
1
10
-1.19497688887574
20
35.8452890176752
30
0
41
1
10
-1.99503997793928
20
35.8251913669355
30
0
0
SPLINE
5
135
100
AcDbEntity
8
SK1
62
256
6
ByLayer
370
18
48
1
60
0
100
AcDbSpline
70
4
71
3
72
11
73
7
40
0
40
0
40
0
40
0
40
0.242618740355351
40
0.502586276343736
40
0.761116027975699
40
1
40
1
40
1
40
1
41
1
10
-0.200000000000017
20
36.0602763611415
30
0
41
1
10
-0.200957283226416
20
36.0346186374454
30
0
41
1
10
-0.211247742588995
20
35.9855818696474
30
0
41
1
10
-0.255176576718071
20
35.9195936662875
30
0
41
1
10
-0.321111495387612
20
35.876367499297
30
0
41
1
10
-0.369683195762349
20
35.8663172889458
30
0
41
1
10
-0.394913799811292
20
35.8653889326188
30
0
0
SPLINE
5
136
100
AcDbEntity
8
SK1
62
256
6
ByLayer
370
18
48
1
60
0
100
AcDbSpline
70
4
71
3
72
11
73
7
40
0
40
0
40
0
40
0
40
0.238883972162181
40
0.497413723861381
40
0.757381259787409
40
1
40
1
40
1
40
1
41
1
10
-0.394913799811292
20
-35.8653891104157
30
0
41
1
10
-0.369683195765106
20
-35.8663174667371
30
0
41
1
10
-0.321111495398583
20
-35.8763676770704
30
0
41
1
10
-0.255176576733959
20
-35.9195938439796
30
0
41
1
10
-0.211247742591809
20
-35.9855820472413
30
0
41
1
10
-0.200957283229457
20
-36.0346188149732
30
0
41
1
10
-0.200000000000017
20
-36.060276538633
30
0
0
SPLINE
5
137
100
AcDbEntity
8
SK1
62
256
6
ByLayer
370
18
48
1
60
0
100
AcDbSpline
70
4
71
2
72
6
73
3
40
0
40
0
40
0
40
1
40
1
40
1
41
1
10
-60
20
-33.4633398616165
30
0
41
1
10
-59.0000000405226
20
-34.0405976383041
30
0
41
1
10
-58
20
-34.6178548917525
30
0
0
SPLINE
5
138
100
AcDbEntity
8
SK1
62
256
6
ByLayer
370
18
48
1
60
0
100
AcDbSpline
70
4
71
2
72
6
73
3
40
0
40
0
40
0
40
1
40
1
40
1
41
1
10
-58
20
34.6178547411696
30
0
41
1
10
-59.0000000405206
20
34.0405974862611
30
0
41
1
10
-60
20
33.4633397081336
30
0
0
SPLINE
5
139
100
AcDbEntity
8
SK1
62
256
6
ByLayer
370
18
48
1
60
0
100
AcDbSpline
70
4
71
3
72
26
73
22
40
0
40
0
40
0
40
0
40
0.25
40
0.25
40
0.5
40
0.5
40
0.625
40
0.625
40
0.75
40
0.75
40
0.8125
40
0.8125
40
0.875
40
0.875
40
0.90625
40
0.90625
40
0.9375
40
0.9375
40
0.96875
40
0.96875
40
1
40
1
40
1
40
1
41
1
10
-0.200000000000017
20
-6.815134787246
30
0
41
1
10
-0.200338559745831
20
-6.75019455649675
30
0
41
1
10
-0.202015290054618
20
-6.685218951172
30
0
41
1
10
-0.209116353167644
20
-6.55520143691572
30
0
41
1
10
-0.214449868635626
20
-6.49015784566893
30
0
41
1
10
-0.227462754000754
20
-6.39257019354176
30
0
41
1
10
-0.23263600663239
20
-6.36013139183518
30
0
41
1
10
-0.245708263211867
20
-6.2956747450385
30
0
41
1
10
-0.253549579350818
20
-6.26353449505493
30
0
41
1
10
-0.26928915316779
20
-6.21693652516308
30
0
41
1
10
-0.275203088231336
20
-6.20164812034517
30
0
41
1
10
-0.289565996838519
20
-6.17200164305234
30
0
41
1
10
-0.298045454985299
20
-6.15732323818574
30
0
41
1
10
-0.314768934999904
20
-6.13864094702632
30
0
41
1
10
-0.320966316493383
20
-6.13307709934358
30
0
41
1
10
-0.335156146595807
20
-6.12467439765445
30
0
41
1
10
-0.34326242448978
20
-6.12199994379495
30
0
41
1
10
-0.359516072458092
20
-6.1214573653744
30
0
41
1
10
-0.367567836272912
20
-6.12351128551305
30
0
41
1
10
-0.382111502581211
20
-6.13034987101852
30
0
41
1
10
-0.388797444116932
20
-6.13511490508358
30
0
41
1
10
-0.394913799811292
20
-6.14048954798685
30
0
0
SPLINE
5
13A
100
AcDbEntity
8
SK1
62
256
6
ByLayer
370
18
48
1
60
0
100
AcDbSpline
70
4
71
3
72
34
73
30
40
0
40
0
40
0
40
0
40
0.249999999999998
40
0.249999999999998
40
0.374999999999998
40
0.374999999999998
40
0.499999999999997
40
0.499999999999997
40
0.624999999999997
40
0.624999999999997
40
0.687499999999997
40
0.687499999999997
40
0.749999999999998
40
0.749999999999998
40
0.812499999999998
40
0.812499999999998
40
0.843749999999998
40
0.843749999999998
40
0.874999999999997
40
0.874999999999997
40
0.890624999999997
40
0.890624999999997
40
0.906249999999997
40
0.906249999999997
40
0.921874999999997
40
0.921874999999997
40
0.937499999999997
40
0.937499999999997
40
1
40
1
40
1
40
1
41
1
10
-1.30710678118655
20
4.60592664169556
30
0
41
1
10
-1.2784110406474
20
4.77386765272163
30
0
41
1
10
-1.24565968633783
20
4.94039220492419
30
0
41
1
10
-1.18704256259042
20
5.18749743012876
30
0
41
1
10
-1.1658797949612
20
5.26949759346368
30
0
41
1
10
-1.11931731285441
20
5.4320127698675
30
0
41
1
10
-1.0939842879213
20
5.51239595526593
30
0
41
1
10
-1.03731891267785
20
5.67077419550435
30
0
41
1
10
-1.00608025483686
20
5.74880165024058
30
0
41
1
10
-0.951618923970926
20
5.86299160032436
30
0
41
1
10
-0.932180037806233
20
5.90057354452279
30
0
41
1
10
-0.889477322953951
20
5.97434297773927
30
0
41
1
10
-0.866149356063488
20
6.01063711906031
30
0
41
1
10
-0.814561990626544
20
6.07905247063832
30
0
41
1
10
-0.786341122308812
20
6.11145814296336
30
0
41
1
10
-0.736698508924121
20
6.15469849290994
30
0
41
1
10
-0.719029001881268
20
6.1680387257795
30
0
41
1
10
-0.681199986618907
20
6.19102830801566
30
0
41
1
10
-0.660790456207138
20
6.20074998205229
30
0
41
1
10
-0.629034059003487
20
6.21076917512414
30
0
41
1
10
-0.618206929166291
20
6.21338279886075
30
0
41
1
10
-0.595996670809512
20
6.21693999101043
30
0
41
1
10
-0.584601475362035
20
6.21785638945309
30
0
41
1
10
-0.562237263618499
20
6.21784658527829
30
0
41
1
10
-0.551143184455299
20
6.21694745395436
30
0
41
1
10
-0.529123888329934
20
6.21343336489912
30
0
41
1
10
-0.518101951885484
20
6.21078160435096
30
0
41
1
10
-0.464948973526958
20
6.19393579571601
30
0
41
1
10
-0.427711748790443
20
6.16930994956931
30
0
41
1
10
-0.394913799811292
20
6.14048931519883
30
0
0
SPLINE
5
13B
100
AcDbEntity
8
SK1
62
256
6
ByLayer
370
18
48
1
60
0
100
AcDbSpline
70
4
71
3
72
10
73
6
40
0
40
0
40
0
40
0
40
0.5
40
0.5
40
1
40
1
40
1
40
1
41
1
10
-0.200000000000017
20
6.86398964694752
30
0
41
1
10
-0.156380959583174
20
6.77687096177513
30
0
41
1
10
-0.119991510050795
20
6.68728274061567
30
0
41
1
10
-0.0547461812498682
20
6.50531016923406
30
0
41
1
10
-0.0260744014004217
20
6.41286812879684
30
0
41
1
10
1.705E-13
20
6.31938185186564
30
0
0
SPLINE
5
13C
100
AcDbEntity
8
SK1
62
256
6
ByLayer
370
18
48
1
60
0
100
AcDbSpline
70
4
71
3
72
53
73
49
40
0
40
0
40
0
40
0
40
0.0212615345238809
40
0.0494226177471174
40
0.0775837009703539
40
0.10574478419359
40
0.133905867416827
40
0.162066950640063
40
0.1902280338633
40
0.218389117086536
40
0.246550200309773
40
0.274711283533009
40
0.302872366756246
40
0.331033449979482
40
0.359194533202719
40
0.387355616425955
40
0.401436158037573
40
0.415516699649192
40
0.42959724126081
40
0.443677782872428
40
0.457758324484046
40
0.471838866095665
40
0.485919407707283
40
0.492959678513092
40
0.499999949318901
40
0.50704022012471
40
0.514080490930519
40
0.528161032542138
40
0.542241574153756
40
0.556322115765374
40
0.570402657376992
40
0.584483198988611
40
0.598563740600229
40
0.612644282211847
40
0.640805365435084
40
0.66896644865832
40
0.697127531881557
40
0.725288615104793
40
0.75344969832803
40
0.781610781551266
40
0.809771864774502
40
0.837932947997739
40
0.866094031220975
40
0.894255114444212
40
0.922416197667448
40
0.950577280890685
40
0.978738364113921
40
1
40
1
40
1
40
1
41
1
10
-2.19999999999999
20
35.9984143274392
30
0
41
1
10
-2.19999999999999
20
35.9681993468346
30
0
41
1
10
-2.19999999999999
20
35.825801856741
30
0
41
1
10
-2.19999999999999
20
35.3682881013699
30
0
41
1
10
-2.19999999999999
20
34.6115343329044
30
0
41
1
10
-2.19999999999999
20
33.619101338222
30
0
41
1
10
-2.19999999999999
20
32.4080741929617
30
0
41
1
10
-2.19999999999999
20
30.9915199760065
30
0
41
1
10
-2.19999999999999
20
29.3795915759283
30
0
41
1
10
-2.19999999999999
20
27.5802648002379
30
0
41
1
10
-2.19999999999999
20
25.5997272652694
30
0
41
1
10
-2.19999999999999
20
23.4426614592353
30
0
41
1
10
-2.19999999999999
20
21.1124192921533
30
0
41
1
10
-2.19999999999999
20
18.6111604207771
30
0
41
1
10
-2.19999999999999
20
15.9398101657229
30
0
41
1
10
-2.19999999999999
20
13.5716364167828
30
0
41
1
10
-2.19999999999999
20
11.5912225613334
30
0
41
1
10
-2.19999999999999
20
10.0625587489355
30
0
41
1
10
-2.19999999999999
20
8.49027928497594
30
0
41
1
10
-2.19999999999999
20
6.8741257988703
30
0
41
1
10
-2.19999999999999
20
5.21416685618902
30
0
41
1
10
-2.19999999999999
20
3.51137573607466
30
0
41
1
10
-2.19999999999999
20
2.05962586413813
30
0
41
1
10
-2.19999999999999
20
0.884857742655612
30
0
41
1
10
-2.19999999999999
20
2.16042508E-08
30
0
41
1
10
-2.19999999999999
20
-0.884857708103112
30
0
41
1
10
-2.19999999999999
20
-2.05962580026372
30
0
41
1
10
-2.19999999999999
20
-3.51137565749653
30
0
41
1
10
-2.19999999999999
20
-5.21416680688054
30
0
41
1
10
-2.19999999999999
20
-6.87412587722247
30
0
41
1
10
-2.19999999999999
20
-8.49027898646241
30
0
41
1
10
-2.19999999999999
20
-10.0625588764648
30
0
41
1
10
-2.19999999999999
20
-11.5912222916891
30
0
41
1
10
-2.19999999999999
20
-13.5716365551608
30
0
41
1
10
-2.19999999999999
20
-15.939810300815
30
0
41
1
10
-2.19999999999999
20
-18.6111602249391
30
0
41
1
10
-2.19999999999999
20
-21.1124192028393
30
0
41
1
10
-2.19999999999999
20
-23.4426615948154
30
0
41
1
10
-2.19999999999999
20
-25.5997270679033
30
0
41
1
10
-2.19999999999999
20
-27.5802649658272
30
0
41
1
10
-2.19999999999999
20
-29.37959149207
30
0
41
1
10
-2.19999999999999
20
-30.9915201496861
30
0
41
1
10
-2.19999999999999
20
-32.4080742253461
30
0
41
1
10
-2.19999999999999
20
-33.61910127367
30
0
41
1
10
-2.19999999999999
20
-34.6115349274624
30
0
41
1
10
-2.19999999999999
20
-35.3682882084331
30
0
41
1
10
-2.19999999999999
20
-35.8258021906083
30
0
41
1
10
-2.19999999999999
20
-35.9681997126037
30
0
41
1
10
-2.19999999999999
20
-35.9984146729817
30
0
0
SPLINE
5
13D
100
AcDbEntity
8
SK1
62
256
6
ByLayer
370
13
48
1
60
0
100
AcDbSpline
70
4
71
3
72
27
73
23
40
0
40
0
40
0
40
0
40
0.0070297579528916
40
0.0683087286483669
40
0.129587699343842
40
0.190866670039318
40
0.252145640734793
40
0.313424611430268
40
0.374703582125743
40
0.435982552821219
40
0.497261523516694
40
0.558540494212169
40
0.619819464907645
40
0.68109843560312
40
0.742377406298595
40
0.80365637699407
40
0.864935347689546
40
0.895574833037283
40
0.926214318385021
40
0.956853803732758
40
0.987493289080496
40
1
40
1
40
1
40
1
41
1
10
-0.394913799811292
20
35.8653887199515
30
0
41
1
10
-0.394913799811263
20
35.8654170899715
30
0
41
1
10
-0.394913799811292
20
35.8583363677461
30
0
41
1
10
-0.394913799811292
20
35.7124176199326
30
0
41
1
10
-0.394913799811292
20
35.2159257001025
30
0
41
1
10
-0.394913799811292
20
34.4615405790489
30
0
41
1
10
-0.394913799811292
20
33.4720136264138
30
0
41
1
10
-0.394913799811292
20
32.2643688967804
30
0
41
1
10
-0.394913799811292
20
30.8516497262062
30
0
41
1
10
-0.394913799811292
20
29.2440107893823
30
0
41
1
10
-0.394913799811292
20
27.4494515900979
30
0
41
1
10
-0.394913799811292
20
25.4742065689819
30
0
41
1
10
-0.394913799811292
20
23.3230321121426
30
0
41
1
10
-0.394913799811292
20
20.9993893665862
30
0
41
1
10
-0.394913799811292
20
18.5056013367279
30
0
41
1
10
-0.394913799811292
20
15.8428433477203
30
0
41
1
10
-0.394913799811292
20
13.4834574083321
30
0
41
1
10
-0.394913799811292
20
11.510286218877
30
0
41
1
10
-0.394913799811292
20
9.98816027318438
30
0
41
1
10
-0.394913799811292
20
8.423311046789
30
0
41
1
10
-0.394913799811292
20
7.13289939289209
30
0
41
1
10
-0.394913799811292
20
6.36440284602153
30
0
41
1
10
-0.394913799811292
20
6.14048931519883
30
0
0
SPLINE
5
13E
100
AcDbEntity
8
SK1
62
256
6
ByLayer
370
18
48
1
60
0
100
AcDbSpline
70
4
71
3
72
27
73
23
40
0
40
0
40
0
40
0
40
0.0069200692089911
40
0.0689619405117707
40
0.13100381181455
40
0.19304568311733
40
0.255087554420109
40
0.317129425722889
40
0.379171297025668
40
0.441213168328448
40
0.503255039631228
40
0.565296910934007
40
0.627338782236787
40
0.689380653539566
40
0.751422524842346
40
0.813464396145125
40
0.875506267447905
40
0.906527203099295
40
0.937548138750685
40
0.968569074402074
40
0.999590010053464
40
1
40
1
40
1
40
1
41
1
10
-0.200000000000017
20
36.0703216470252
30
0
41
1
10
-0.200000000000017
20
36.0703087027919
30
0
41
1
10
-0.200000000000017
20
36.0630112173943
30
0
41
1
10
-0.200000000000017
20
35.9165272056885
30
0
41
1
10
-0.200000000000017
20
35.417771626974
30
0
41
1
10
-0.200000000000017
20
34.6602485806298
30
0
41
1
10
-0.200000000000017
20
33.6668717756316
30
0
41
1
10
-0.200000000000017
20
32.4547461057425
30
0
41
1
10
-0.200000000000017
20
31.0369463609262
30
0
41
1
10
-0.200000000000017
20
29.4236248496669
30
0
41
1
10
-0.200000000000017
20
27.6227496835127
30
0
41
1
10
-0.200000000000017
20
25.6404932714292
30
0
41
1
10
-0.200000000000017
20
23.4815141014267
30
0
41
1
10
-0.200000000000017
20
21.1491286060609
30
0
41
1
10
-0.200000000000017
20
18.6454433908199
30
0
41
1
10
-0.200000000000017
20
15.9713025810529
30
0
41
1
10
-0.200000000000017
20
13.6002747697237
30
0
41
1
10
-0.200000000000017
20
11.6175086761552
30
0
41
1
10
-0.200000000000017
20
10.0867215269511
30
0
41
1
10
-0.200000000000017
20
8.51202890628289
30
0
41
1
10
-0.200000000000017
20
7.42559363897448
30
0
41
1
10
-0.200000000000017
20
6.87122224551217
30
0
41
1
10
-0.200000000000017
20
6.86398964694752
30
0
0
SPLINE
5
13F
100
AcDbEntity
8
SK1
62
256
6
ByLayer
370
18
48
1
60
0
100
AcDbSpline
70
4
71
3
72
26
73
22
40
0
40
0
40
0
40
0
40
0.125
40
0.125
40
0.25
40
0.25
40
0.3125
40
0.3125
40
0.375
40
0.375
40
0.5
40
0.5
40
0.625
40
0.625
40
0.75
40
0.75
40
0.8125
40
0.8125
40
0.875
40
0.875
40
1
40
1
40
1
40
1
41
1
10
-1.30710678118655
20
-4.60592606074874
30
0
41
1
10
-1.37081125400846
20
-4.23309718755542
30
0
41
1
10
-1.42988244415665
20
-3.85762223498028
30
0
41
1
10
-1.53601697125634
20
-3.10046674502007
30
0
41
1
10
-1.58309608481946
20
-2.71879180004021
30
0
41
1
10
-1.6418538836833
20
-2.14065366130038
30
0
41
1
10
-1.65945940647146
20
-1.94700181642943
30
0
41
1
10
-1.69017813508927
20
-1.55763501705073
30
0
41
1
10
-1.7032985942752
20
-1.36163345214337
30
0
41
1
10
-1.73495061568829
20
-0.775288794588647
30
0
41
1
10
-1.74576419541853
20
-0.385233065375218
30
0
41
1
10
-1.74561737258446
20
0.393133285396345
30
0
41
1
10
-1.73466515643025
20
0.781444423560998
30
0
41
1
10
-1.69273604411049
20
1.55642983746571
30
0
41
1
10
-1.66186877360204
20
1.94311068769235
30
0
41
1
10
-1.60312154383428
20
2.52205712412322
30
0
41
1
10
-1.58146433049603
20
2.71486950406719
30
0
41
1
10
-1.53474666353029
20
3.09792851320461
30
0
41
1
10
-1.50965797271615
20
3.28847396604806
30
0
41
1
10
-1.42991858386861
20
3.85743979515036
30
0
41
1
10
-1.37079534340225
20
4.23319113014102
30
0
41
1
10
-1.30710678118655
20
4.60592664169556
30
0
0
SPLINE
5
140
100
AcDbEntity
8
SK1
62
256
6
ByLayer
370
13
48
1
60
0
100
AcDbSpline
70
4
71
3
72
55
73
51
40
0
40
0
40
0
40
0
40
0.0033368831243372
40
0.0309292038210724
40
0.0585215245178076
40
0.0861138452145428
40
0.113706165911278
40
0.141298486608013
40
0.168890807304748
40
0.196483128001484
40
0.224075448698219
40
0.251667769394954
40
0.279260090091689
40
0.306852410788425
40
0.33444473148516
40
0.362037052181895
40
0.38962937287863
40
0.403425533226998
40
0.417221693575365
40
0.431017853923733
40
0.4448140142721
40
0.458610174620468
40
0.472406334968836
40
0.486202495317203
40
0.493100575491387
40
0.499998655665571
40
0.506896735839755
40
0.513794816013939
40
0.527590976362306
40
0.541387136710674
40
0.555183297059041
40
0.568979457407409
40
0.582775617755776
40
0.596571778104144
40
0.610367938452512
40
0.637960259149247
40
0.665552579845982
40
0.693144900542717
40
0.720737221239453
40
0.748329541936188
40
0.775921862632923
40
0.803514183329658
40
0.831106504026393
40
0.858698824723129
40
0.886291145419864
40
0.913883466116599
40
0.941475786813334
40
0.969068107510069
40
0.996660428206805
40
1
40
1
40
1
40
1
41
1
10
-1.99503997793928
20
35.8251821570257
30
0
41
1
10
-1.99503997793928
20
35.8252984346683
30
0
41
1
10
-1.99503997793926
20
35.8185769038612
30
0
41
1
10
-1.99503997793928
20
35.6723836848468
30
0
41
1
10
-1.99503997793928
20
35.1763357577499
30
0
41
1
10
-1.99503997793928
20
34.4225661075322
30
0
41
1
10
-1.99503997793928
20
33.4337942626939
30
0
41
1
10
-1.99503997793928
20
32.2270284220684
30
0
41
1
10
-1.99503997793928
20
30.8153057523624
30
0
41
1
10
-1.99503997793928
20
29.2087813923734
30
0
41
1
10
-1.99503997793928
20
27.4154610031465
30
0
41
1
10
-1.99503997793928
20
25.4415911921648
30
0
41
1
10
-1.99503997793928
20
23.2919475472126
30
0
41
1
10
-1.99503997793928
20
20.9700195995039
30
0
41
1
10
-1.99503997793928
20
18.4781727978132
30
0
41
1
10
-1.99503997793928
20
15.8176474286293
30
0
41
1
10
-1.99503997793928
20
13.4605449192125
30
0
41
1
10
-1.99503997793928
20
11.4892556686532
30
0
41
1
10
-1.99503997793928
20
9.96882852636489
30
0
41
1
10
-1.99503997793928
20
8.40590997758017
30
0
41
1
10
-1.99503997793928
20
6.80062156131365
30
0
41
1
10
-1.99503997793928
20
5.15362303649022
30
0
41
1
10
-1.99503997793928
20
3.46682572646458
30
0
41
1
10
-1.99503997793928
20
2.03246205572793
30
0
41
1
10
-1.99503997793928
20
0.872327198701271
30
0
41
1
10
-1.99503997793928
20
1.87857836E-08
30
0
41
1
10
-1.99503997793928
20
-0.872327145714564
30
0
41
1
10
-1.99503997793928
20
-2.03246197307195
30
0
41
1
10
-1.99503997793928
20
-3.46682565849335
30
0
41
1
10
-1.99503997793928
20
-5.15362300763582
30
0
41
1
10
-1.99503997793928
20
-6.80062160559314
30
0
41
1
10
-1.99503997793928
20
-8.40590968396617
30
0
41
1
10
-1.99503997793928
20
-9.96882866001374
30
0
41
1
10
-1.99503997793928
20
-11.489255389582
30
0
41
1
10
-1.99503997793928
20
-13.4605450811039
30
0
41
1
10
-1.99503997793928
20
-15.8176475504658
30
0
41
1
10
-1.99503997793928
20
-18.478172595854
30
0
41
1
10
-1.99503997793928
20
-20.9700195189176
30
0
41
1
10
-1.99503997793928
20
-23.2919476800301
30
0
41
1
10
-1.99503997793928
20
-25.4415909958108
30
0
41
1
10
-1.99503997793928
20
-27.4154611704439
30
0
41
1
10
-1.99503997793928
20
-29.2087813089343
30
0
41
1
10
-1.99503997793928
20
-30.8153059272806
30
0
41
1
10
-1.99503997793928
20
-32.2270284519256
30
0
41
1
10
-1.99503997793928
20
-33.4337942038213
30
0
41
1
10
-1.99503997793928
20
-34.4225667021769
30
0
41
1
10
-1.99503997793928
20
-35.1763358604717
30
0
41
1
10
-1.99503997793928
20
-35.672383387921
30
0
41
1
10
-1.99503997793928
20
-35.8185834277633
30
0
41
1
10
-1.99503997793928
20
-35.825299753206
30
0
41
1
10
-1.99503997793928
20
-35.8251820608805
30
0
0
SPLINE
5
141
100
AcDbEntity
8
SK1
62
256
6
ByLayer
370
18
48
1
60
0
100
AcDbSpline
70
4
71
3
72
26
73
22
40
0
40
0
40
0
40
0
40
0.0312500000000022
40
0.0312500000000022
40
0.0625000000000043
40
0.0625000000000043
40
0.0937500000000065
40
0.0937500000000065
40
0.125000000000009
40
0.125000000000009
40
0.187500000000008
40
0.187500000000008
40
0.250000000000008
40
0.250000000000008
40
0.375000000000008
40
0.375000000000008
40
0.500000000000007
40
0.500000000000007
40
0.750000000000004
40
0.750000000000004
40
1
40
1
40
1
40
1
41
1
10
-0.394913799811292
20
6.14048931519883
30
0
41
1
10
-0.388804550583274
20
6.13512091736425
30
0
41
1
10
-0.382188696421934
20
6.13039057920699
30
0
41
1
10
-0.367551793894876
20
6.1234988873781
30
0
41
1
10
-0.359516744437258
20
6.12146404817136
30
0
41
1
10
-0.343337938299498
20
6.12199028817506
30
0
41
1
10
-0.335279324985123
20
6.12460991649641
30
0
41
1
10
-0.320936929416803
20
6.13308563425855
30
0
41
1
10
-0.314749234501562
20
6.1386582826849
30
0
41
1
10
-0.29800572117685
20
6.15737630422066
30
0
41
1
10
-0.289624942072891
20
6.17187126651538
30
0
41
1
10
-0.27508832351819
20
6.20189327718197
30
0
41
1
10
-0.269151523758921
20
6.21729962361044
30
0
41
1
10
-0.253381753109437
20
6.26412125843703
30
0
41
1
10
-0.245592193568655
20
6.29615592951251
30
0
41
1
10
-0.232501591303276
20
6.36088659443794
30
0
41
1
10
-0.227355749960765
20
6.39329057484403
30
0
41
1
10
-0.214419513015883
20
6.49055134298573
30
0
41
1
10
-0.209099320677126
20
6.55545582111961
30
0
41
1
10
-0.202014906793835
20
6.68528329279198
30
0
41
1
10
-0.200338479334334
20
6.75020990600575
30
0
41
1
10
-0.200000000000017
20
6.81513476249549
30
0
0
SPLINE
5
142
100
AcDbEntity
8
SK1
62
256
6
ByLayer
370
18
48
1
60
0
100
AcDbSpline
70
4
71
3
72
9
73
5
40
0
40
0
40
0
40
0
40
0.815043029389162
40
1
40
1
40
1
40
1
41
0.980125716641472
10
-0.200000000000019
20
6.81513476252021
30
0
41
0.980125716641472
10
-0.200000000000019
20
6.83740638033552
30
0
41
0.980125716641472
10
-0.200000000000019
20
6.86471711428102
30
0
41
0.980125716641472
10
-0.200000000000019
20
6.89200947802263
30
0
41
0.980125716641472
10
-0.200000000000019
20
6.89705676252027
30
0
0
SPLINE
5
143
100
AcDbEntity
8
SK1
62
256
6
ByLayer
370
18
48
1
60
0
100
AcDbSpline
70
4
71
3
72
36
73
32
40
0
40
0
40
0
40
0
40
0.0312499999999997
40
0.0312499999999997
40
0.0624999999999994
40
0.0624999999999994
40
0.0937499999999991
40
0.0937499999999991
40
0.109374999999999
40
0.109374999999999
40
0.124999999999999
40
0.124999999999999
40
0.156249999999999
40
0.156249999999999
40
0.187499999999999
40
0.187499999999999
40
0.250000000000001
40
0.250000000000001
40
0.312500000000002
40
0.312500000000002
40
0.375000000000004
40
0.375000000000004
40
0.437500000000005
40
0.437500000000005
40
0.500000000000007
40
0.500000000000007
40
0.625000000000006
40
0.625000000000006
40
0.750000000000005
40
0.750000000000005
40
1
40
1
40
1
40
1
41
1
10
-0.394913799811292
20
-6.14048954798818
30
0
41
1
10
-0.411320296904194
20
-6.15490647656034
30
0
41
1
10
-0.428692575635267
20
-6.16812049444127
30
0
41
1
10
-0.466232970393491
20
-6.19107761476451
30
0
41
1
10
-0.486402096349224
20
-6.20073526659388
30
0
41
1
10
-0.528542254119998
20
-6.21409060740618
30
0
41
1
10
-0.551235239872966
20
-6.21785744043811
30
0
41
1
10
-0.584729595986261
20
-6.21784888265847
30
0
41
1
10
-0.595845611378735
20
-6.21695442895049
30
0
41
1
10
-0.617982640268394
20
-6.21342877796667
30
0
41
1
10
-0.629092493063638
20
-6.21075953330543
30
0
41
1
10
-0.661178894789003
20
-6.20061034113314
30
0
41
1
10
-0.681215510343321
20
-6.19103427162486
30
0
41
1
10
-0.719340518859099
20
-6.1678343505242
30
0
41
1
10
-0.736840009746572
20
-6.15457756836207
30
0
41
1
10
-0.786134049942945
20
-6.11163454914492
30
0
41
1
10
-0.815005811370781
20
-6.0785258425357
30
0
41
1
10
-0.866591379680131
20
-6.00998831052675
30
0
41
1
10
-0.889552422423549
20
-5.97421011732266
30
0
41
1
10
-0.932052450880178
20
-5.90079746755282
30
0
41
1
10
-0.951550604545702
20
-5.86314173587624
30
0
41
1
10
-0.98810650999846
20
-5.78648090037498
30
0
41
1
10
-1.0051668225465
20
-5.74742099458149
30
0
41
1
10
-1.03715984705508
20
-5.66894819794624
30
0
41
1
10
-1.05213441443925
20
-5.62944051498994
30
0
41
1
10
-1.09469182958469
20
-5.51026258495509
30
0
41
1
10
-1.11994311520166
20
-5.42994544157909
30
0
41
1
10
-1.16626222399646
20
-5.26804317370369
30
0
41
1
10
-1.18730158957436
20
-5.18645153904416
30
0
41
1
10
-1.24570286449543
20
-4.9401166392696
30
0
41
1
10
-1.27841760463917
20
-4.77382876665632
30
0
41
1
10
-1.30710678119212
20
-4.60592606071614
30
0
0
SPLINE
5
144
100
AcDbEntity
8
SK1
62
256
6
ByLayer
370
13
48
1
60
0
100
AcDbSpline
70
4
71
3
72
27
73
23
40
0
40
0
40
0
40
0
40
0.0125066502465566
40
0.0431459974574199
40
0.0737853446682832
40
0.104424691879147
40
0.13506403909001
40
0.196342733511736
40
0.257621427933463
40
0.31890012235519
40
0.380178816776916
40
0.441457511198643
40
0.502736205620369
40
0.564014900042096
40
0.625293594463823
40
0.686572288885549
40
0.747850983307276
40
0.809129677729002
40
0.870408372150729
40
0.931687066572456
40
0.992965760994182
40
1
40
1
40
1
40
1
41
1
10
-0.394913799811292
20
-6.14048954798818
30
0
41
1
10
-0.394913799811292
20
-6.36440300196207
30
0
41
1
10
-0.394913799811292
20
-7.13289945093032
30
0
41
1
10
-0.394913799811292
20
-8.42331075216447
30
0
41
1
10
-0.394913799811292
20
-9.98816040557108
30
0
41
1
10
-0.394913799811292
20
-11.5102859417501
30
0
41
1
10
-0.394913799811292
20
-13.4834575653738
30
0
41
1
10
-0.394913799811292
20
-15.8428434722907
30
0
41
1
10
-0.394913799811292
20
-18.5056011360313
30
0
41
1
10
-0.394913799811292
20
-20.9993892841999
30
0
41
1
10
-0.394913799811292
20
-23.3230322455299
30
0
41
1
10
-0.394913799811292
20
-25.4742063724191
30
0
41
1
10
-0.394913799811292
20
-27.449451757043
30
0
41
1
10
-0.394913799811292
20
-29.2440107058567
30
0
41
1
10
-0.394913799811292
20
-30.8516499008689
30
0
41
1
10
-0.394913799811292
20
-32.2643689271589
30
0
41
1
10
-0.394913799811292
20
-33.4720135663698
30
0
41
1
10
-0.394913799811292
20
-34.4615411736756
30
0
41
1
10
-0.394913799811292
20
-35.2159258037197
30
0
41
1
10
-0.394913799811292
20
-35.7124173230212
30
0
41
1
10
-0.394913799811292
20
-35.8583412559068
30
0
41
1
10
-0.394913799811292
20
-35.8654181718075
30
0
41
1
10
-0.394913799811292
20
-35.8653888452954
30
0
0
SPLINE
5
145
100
AcDbEntity
8
SK1
62
256
6
ByLayer
370
18
48
1
60
0
100
AcDbSpline
70
4
71
3
72
53
73
49
40
0
40
0
40
0
40
0
40
0.0239475445268588
40
0.0519506366310259
40
0.0799537287351928
40
0.10795682083936
40
0.135959912943527
40
0.163963005047694
40
0.191966097151861
40
0.219969189256028
40
0.247972281360195
40
0.275975373464362
40
0.303978465568529
40
0.331981557672696
40
0.359984649776863
40
0.38798774188103
40
0.401989287933114
40
0.415990833985197
40
0.429992380037281
40
0.443993926089364
40
0.457995472141448
40
0.471997018193531
40
0.485998564245615
40
0.492999337271657
40
0.500000110297698
40
0.50700088332374
40
0.514001656349782
40
0.528003202401865
40
0.542004748453949
40
0.556006294506032
40
0.570007840558116
40
0.5840093866102
40
0.598010932662283
40
0.612012478714367
40
0.640015570818534
40
0.668018662922701
40
0.696021755026868
40
0.724024847131035
40
0.752027939235202
40
0.780031031339369
40
0.808034123443536
40
0.836037215547703
40
0.86404030765187
40
0.892043399756037
40
0.920046491860204
40
0.948049583964371
40
0.976052676068538
40
1
40
1
40
1
40
1
41
1
10
-58
20
34.6075013409006
30
0
41
1
10
-58
20
34.5835774678285
30
0
41
1
10
-58
20
34.4471121519509
30
0
41
1
10
-58
20
33.9876977370145
30
0
41
1
10
-58
20
33.2524068213662
30
0
41
1
10
-58
20
32.2863061344949
30
0
41
1
10
-58
20
31.1059278263754
30
0
41
1
10
-58
20
29.7241238367488
30
0
41
1
10
-58
20
28.1510632386215
30
0
41
1
10
-58
20
26.3949365568696
30
0
41
1
10
-58
20
24.4623556934104
30
0
41
1
10
-58
20
22.3586727420945
30
0
41
1
10
-58
20
20.0882294341327
30
0
41
1
10
-58
20
17.6546655565835
30
0
41
1
10
-58
20
15.0611717780168
30
0
41
1
10
-58
20
12.7726263697313
30
0
41
1
10
-58
20
10.8578399578042
30
0
41
1
10
-58
20
9.38841724230164
30
0
41
1
10
-58
20
7.88346485051136
30
0
41
1
10
-58
20
6.34545685846473
30
0
41
1
10
-58
20
4.77871390718573
30
0
41
1
10
-58
20
3.19095602751733
30
0
41
1
10
-58
20
1.86425397420413
30
0
41
1
10
-58
20
0.794733559135722
30
0
41
1
10
-58
20
1.3328929E-09
30
0
41
1
10
-58
20
-0.794733391997738
30
0
41
1
10
-58
20
-1.86425377524574
30
0
41
1
10
-58
20
-3.19095602522796
30
0
41
1
10
-58
20
-4.77871400499032
30
0
41
1
10
-58
20
-6.34545669175367
30
0
41
1
10
-58
20
-7.88346458723692
30
0
41
1
10
-58
20
-9.38841741384542
30
0
41
1
10
-58
20
-10.8578396203577
30
0
41
1
10
-58
20
-12.7726266772264
30
0
41
1
10
-58
20
-15.0611718177698
30
0
41
1
10
-58
20
-17.6546653167195
30
0
41
1
10
-58
20
-20.0882294075917
30
0
41
1
10
-58
20
-22.3586728578048
30
0
41
1
10
-58
20
-24.4623555033233
30
0
41
1
10
-58
20
-26.3949367347441
30
0
41
1
10
-58
20
-28.1510631577777
30
0
41
1
10
-58
20
-29.7241240193373
30
0
41
1
10
-58
20
-31.1059278405838
30
0
41
1
10
-58
20
-32.2863061107908
30
0
41
1
10
-58
20
-33.2524074165481
30
0
41
1
10
-58
20
-33.9876978128525
30
0
41
1
10
-58
20
-34.4471106050661
30
0
41
1
10
-58
20
-34.5835761056562
30
0
41
1
10
-58
20
-34.6075006580501
30
0
0
SPLINE
5
146
100
AcDbEntity
8
SK1
62
256
6
ByLayer
370
18
48
1
60
0
100
AcDbSpline
70
4
71
3
72
53
73
49
40
0
40
0
40
0
40
0
40
0.0273634041057966
40
0.0551655889950406
40
0.0829677738842846
40
0.110769958773529
40
0.138572143662773
40
0.166374328552017
40
0.194176513441261
40
0.221978698330504
40
0.249780883219749
40
0.277583068108993
40
0.305385252998236
40
0.33318743788748
40
0.360989622776724
40
0.388791807665968
40
0.40269290011059
40
0.416593992555212
40
0.430495084999834
40
0.444396177444456
40
0.458297269889078
40
0.4721983623337
40
0.486099454778322
40
0.493050001000633
40
0.500000547222944
40
0.506951093445255
40
0.513901639667566
40
0.527802732112188
40
0.54170382455681
40
0.555604917001432
40
0.569506009446054
40
0.583407101890676
40
0.597308194335298
40
0.61120928677992
40
0.639011471669164
40
0.666813656558408
40
0.694615841447652
40
0.722418026336896
40
0.75022021122614
40
0.778022396115384
40
0.805824581004628
40
0.833626765893872
40
0.861428950783116
40
0.88923113567236
40
0.917033320561604
40
0.944835505450848
40
0.972637690340092
40
1
40
1
40
1
40
1
41
1
10
-60
20
-33.4611913437672
30
0
41
1
10
-60
20
-33.4477480908433
30
0
41
1
10
-60
20
-33.3180333182536
30
0
41
1
10
-60
20
-32.8505413890958
30
0
41
1
10
-60
20
-32.1329294130157
30
0
41
1
10
-60
20
-31.1885173778897
30
0
41
1
10
-60
20
-30.0333837095772
30
0
41
1
10
-60
20
-28.6802027696429
30
0
41
1
10
-60
20
-27.1391563014214
30
0
41
1
10
-60
20
-25.4186126805198
30
0
41
1
10
-60
20
-23.525532108781
30
0
41
1
10
-60
20
-21.4658195107749
30
0
41
1
10
-60
20
-19.2446308945641
30
0
41
1
10
-60
20
-16.8668253225733
30
0
41
1
10
-60
20
-14.3374601373518
30
0
41
1
10
-60
20
-12.1145030090865
30
0
41
1
10
-60
20
-10.2537713764774
30
0
41
1
10
-60
20
-8.83314461375039
30
0
41
1
10
-60
20
-7.38364733925647
30
0
41
1
10
-60
20
-5.91000562515018
30
0
41
1
10
-60
20
-4.42004285060779
30
0
41
1
10
-60
20
-2.92703470265587
30
0
41
1
10
-60
20
-1.70333091645813
30
0
41
1
10
-60
20
-0.720500335383747
30
0
41
1
10
-60
20
-1.53641224E-08
30
0
41
1
10
-60
20
0.720500611728937
30
0
41
1
10
-60
20
1.70333122668168
30
0
41
1
10
-60
20
2.9270346421082
30
0
41
1
10
-60
20
4.42004263163
30
0
41
1
10
-60
20
5.91000599371347
30
0
41
1
10
-60
20
7.38364757350541
30
0
41
1
10
-60
20
8.83314440595299
30
0
41
1
10
-60
20
10.2537717697709
30
0
41
1
10
-60
20
12.1145025622941
30
0
41
1
10
-60
20
14.3374601761269
30
0
41
1
10
-60
20
16.8668255987004
30
0
41
1
10
-60
20
19.2446308694007
30
0
41
1
10
-60
20
21.4658194114309
30
0
41
1
10
-60
20
23.5255322928726
30
0
41
1
10
-60
20
25.4186124925263
30
0
41
1
10
-60
20
27.1391563797822
30
0
41
1
10
-60
20
28.6802025797165
30
0
41
1
10
-60
20
30.0333837103399
30
0
41
1
10
-60
20
31.1885173679484
30
0
41
1
10
-60
20
32.1329288173199
30
0
41
1
10
-60
20
32.8505413389773
30
0
41
1
10
-60
20
33.3180274474067
30
0
41
1
10
-60
20
33.4477431264327
30
0
41
1
10
-60
20
33.4611896558751
30
0
0
SPLINE
5
147
100
AcDbEntity
8
SK1
62
256
6
ByLayer
370
18
48
1
60
0
100
AcDbSpline
70
4
71
3
72
10
73
6
40
0
40
0
40
0
40
0
40
0.5
40
0.5
40
1
40
1
40
1
40
1
41
1
10
0
20
-6.31938208698955
30
0
41
1
10
-0.0260743929527791
20
-6.4128683284998
30
0
41
1
10
-0.0547461663424258
20
-6.50531033141212
30
0
41
1
10
-0.119991492168481
20
-6.68728282080352
30
0
41
1
10
-0.156380944814316
20
-6.77687099762639
30
0
41
1
10
-0.19999999999564
20
-6.86398963237633
30
0
0
SPLINE
5
148
100
AcDbEntity
8
SK1
62
256
6
ByLayer
370
18
48
1
60
0
100
AcDbSpline
70
4
71
3
72
8
73
4
40
0
40
0
40
0
40
0
40
1
40
1
40
1
40
1
41
0.980125716641465
10
-0.20000000000005
20
-6.83293678738602
30
0
41
0.980125716641465
10
-0.20000000000005
20
-6.82700365338786
30
0
41
0.980125716641465
10
-0.20000000000005
20
-6.82106965328604
30
0
41
0.980125716641465
10
-0.200000000000021
20
-6.81513478724633
30
0
0
SPLINE
5
149
100
AcDbEntity
8
SK1
62
256
6
ByLayer
370
18
48
1
60
0
100
AcDbSpline
70
4
71
3
72
27
73
23
40
0
40
0
40
0
40
0
40
0.0004099161091694
40
0.0314252433328693
40
0.0624405705565692
40
0.0934558977802691
40
0.124471225003969
40
0.186501879451369
40
0.248532533898769
40
0.310563188346168
40
0.372593842793568
40
0.434624497240968
40
0.496655151688368
40
0.558685806135768
40
0.620716460583167
40
0.682747115030567
40
0.744777769477967
40
0.806808423925367
40
0.868839078372766
40
0.930869732820166
40
0.992900387267566
40
1
40
1
40
1
40
1
41
1
10
-0.200000000000017
20
-6.86398963237528
30
0
41
1
10
-0.200000000000017
20
-6.87122223549136
30
0
41
1
10
-0.200000000000017
20
-7.42559359385501
30
0
41
1
10
-0.200000000000017
20
-8.51202860650633
30
0
41
1
10
-0.200000000000017
20
-10.0867216529027
30
0
41
1
10
-0.200000000000017
20
-11.6175084089412
30
0
41
1
10
-0.200000000000017
20
-13.6002749020402
30
0
41
1
10
-0.200000000000017
20
-15.9713027195621
30
0
41
1
10
-0.200000000000017
20
-18.6454431965599
30
0
41
1
10
-0.200000000000017
20
-21.1491285144969
30
0
41
1
10
-0.200000000000017
20
-23.481514237719
30
0
41
1
10
-0.200000000000017
20
-25.6404930738022
30
0
41
1
10
-0.200000000000017
20
-27.6227498486617
30
0
41
1
10
-0.200000000000017
20
-29.4236247657006
30
0
41
1
10
-0.200000000000017
20
-31.0369465342864
30
0
41
1
10
-0.200000000000017
20
-32.4547461387784
30
0
41
1
10
-0.200000000000017
20
-33.6668717096155
30
0
41
1
10
-0.200000000000017
20
-34.6602491751654
30
0
41
1
10
-0.200000000000017
20
-35.4177717351565
30
0
41
1
10
-0.200000000000017
20
-35.9165269088509
30
0
41
1
10
-0.199999999999989
20
-36.0632132173878
30
0
41
1
10
-0.200000000000046
20
-36.0703466386846
30
0
41
1
10
-0.200000000000046
20
-36.0703213682708
30
0
0
SPLINE
5
14A
100
AcDbEntity
8
1
62
256
6
ByLayer
370
18
48
1
60
0
100
AcDbSpline
70
4
71
3
72
24
73
20
40
0
40
0
40
0
40
0
40
0.25000000000001
40
0.25000000000001
40
0.500000000000021
40
0.500000000000021
40
0.625000000000016
40
0.625000000000016
40
0.687500000000013
40
0.687500000000013
40
0.75000000000001
40
0.75000000000001
40
0.812500000000008
40
0.812500000000008
40
0.875000000000005
40
0.875000000000005
40
0.937500000000003
40
0.937500000000003
40
1
40
1
40
1
40
1
41
1
10
77.6055
20
-42.6253933182574
30
0
41
1
10
77.5871052913815
20
-42.6668646329223
30
0
41
1
10
77.5710912961356
20
-42.7081105915473
30
0
41
1
10
77.5440852439905
20
-42.7901074712467
30
0
41
1
10
77.5329517483909
20
-42.8312335257821
30
0
41
1
10
77.5230384094655
20
-42.8895338130816
30
0
41
1
10
77.5208319714489
20
-42.9086042462075
30
0
41
1
10
77.5203839976251
20
-42.935547051479
30
0
41
1
10
77.5207198225128
20
-42.944158775789
30
0
41
1
10
77.5227347251933
20
-42.9603661394203
30
0
41
1
10
77.5244381152917
20
-42.9680544303653
30
0
41
1
10
77.529778126137
20
-42.9813298323849
30
0
41
1
10
77.5334545596745
20
-42.987003316287
30
0
41
1
10
77.5434049494314
20
-42.9947235523583
30
0
41
1
10
77.5497502602555
20
-42.9966617979703
30
0
41
1
10
77.5642590289375
20
-42.9956830047328
30
0
41
1
10
77.5724545920519
20
-42.9927821279149
30
0
41
1
10
77.588892883095
20
-42.9837225694705
30
0
41
1
10
77.59733722664
20
-42.9775187338987
30
0
41
1
10
77.6055000000002
20
-42.97050560153
30
0
0
SPLINE
5
14B
100
AcDbEntity
8
1
62
256
6
ByLayer
370
18
48
1
60
0
100
AcDbSpline
70
4
71
3
72
16
73
12
40
0
40
0
40
0
40
0
40
0.250000000000013
40
0.250000000000013
40
0.500000000000025
40
0.500000000000025
40
0.625000000000026
40
0.625000000000026
40
0.750000000000026
40
0.750000000000026
40
1
40
1
40
1
40
1
41
1
10
78.3245000000022
20
-42.4517920695658
30
0
41
1
10
78.3245000000023
20
-42.4403673839731
30
0
41
1
10
78.3235743306348
20
-42.429625754431
30
0
41
1
10
78.3185093869108
20
-42.4105343684029
30
0
41
1
10
78.3143452477188
20
-42.4023667097377
30
0
41
1
10
78.3043830436249
20
-42.3952686195637
30
0
41
1
10
78.3004139948646
20
-42.3938031093933
30
0
41
1
10
78.2915112087763
20
-42.3931584348768
30
0
41
1
10
78.2865270212046
20
-42.3939796046377
30
0
41
1
10
78.2710236762014
20
-42.3994427929495
30
0
41
1
10
78.2600273798581
20
-42.4069276847059
30
0
41
1
10
78.2494999999999
20
-42.4160122997158
30
0
0
SPLINE
5
14C
100
AcDbEntity
8
1
62
256
6
ByLayer
370
18
48
1
60
0
100
AcDbSpline
70
4
71
3
72
14
73
10
40
0
40
0
40
0
40
0
40
0.25
40
0.25
40
0.5
40
0.5
40
0.75
40
0.75
40
1
40
1
40
1
40
1
41
1
10
78.3245
20
-11.011085479505
30
0
41
1
10
78.3245
20
-11.0105752544968
30
0
41
1
10
78.322179475846
20
-11.0077611841277
30
0
41
1
10
78.3139404238711
20
-10.9986509395153
30
0
41
1
10
78.3079761818693
20
-10.9922978716113
30
0
41
1
10
78.2940034076216
20
-10.9776636724243
30
0
41
1
10
78.2858210468891
20
-10.9691989352947
30
0
41
1
10
78.2684517336469
20
-10.9513608132964
30
0
41
1
10
78.2592082059552
20
-10.9419272888389
30
0
41
1
10
78.2495
20
-10.9320629152846
30
0
0
SPLINE
5
14D
100
AcDbEntity
8
1
62
256
6
ByLayer
370
18
48
1
60
0
100
AcDbSpline
70
4
71
3
72
14
73
10
40
0
40
0
40
0
40
0
40
0.25
40
0.25
40
0.5
40
0.5
40
0.75
40
0.75
40
1
40
1
40
1
40
1
41
1
10
78.2495
20
-45.5703702247132
30
0
41
1
10
78.2596892182419
20
-45.5537244060085
30
0
41
1
10
78.2691410712168
20
-45.5371479955474
30
0
41
1
10
78.286488561992
20
-45.5041362228495
30
0
41
1
10
78.2943464228541
20
-45.4877581462692
30
0
41
1
10
78.3078272140934
20
-45.4560122948547
30
0
41
1
10
78.3135248842869
20
-45.4405314920262
30
0
41
1
10
78.3219195342536
20
-45.4107737469565
30
0
41
1
10
78.3245
20
-45.397025683911
30
0
41
1
10
78.3245
20
-45.3850933995447
30
0
0
SPLINE
5
14E
100
AcDbEntity
8
1
62
256
6
ByLayer
370
18
48
1
60
0
100
AcDbSpline
70
4
71
3
72
12
73
8
40
0
40
0
40
0
40
0
40
0.499999999999988
40
0.499999999999988
40
0.749999999999994
40
0.749999999999994
40
1
40
1
40
1
40
1
41
1
10
78.2495
20
-34.5717458978615
30
0
41
1
10
78.2734498749667
20
-34.4158065123885
30
0
41
1
10
78.2910679373763
20
-34.2597896270776
30
0
41
1
10
78.310080956516
20
-34.0255811011772
30
0
41
1
10
78.3151331006439
20
-33.9474823744192
30
0
41
1
10
78.3223201941462
20
-33.7912324466203
30
0
41
1
10
78.3245
20
-33.7132381575281
30
0
41
1
10
78.3245
20
-33.6355155582362
30
0
0
SPLINE
5
14F
100
AcDbEntity
8
1
62
256
6
ByLayer
370
18
48
1
60
0
100
AcDbSpline
70
4
71
3
72
12
73
8
40
0
40
0
40
0
40
0
40
0.499999999999966
40
0.499999999999966
40
0.749999999999983
40
0.749999999999983
40
1
40
1
40
1
40
1
41
1
10
78.2495
20
-48.7475864397169
30
0
41
1
10
78.2690960393408
20
-48.7255245029813
30
0
41
1
10
78.2870555714388
20
-48.7041980616753
30
0
41
1
10
78.3077712526587
20
-48.6769230565226
30
0
41
1
10
78.313708424421
20
-48.6685026888432
30
0
41
1
10
78.3220552838793
20
-48.6547549787377
30
0
41
1
10
78.3245000000001
20
-48.6493424979473
30
0
41
1
10
78.3245000000001
20
-48.6463193271822
30
0
0
SPLINE
5
150
100
AcDbEntity
8
1
62
256
6
ByLayer
370
18
48
1
60
0
100
AcDbSpline
70
4
71
3
72
8
73
4
40
0
40
0
40
0
40
0
40
1
40
1
40
1
40
1
41
1
10
78.2495
20
-12.9140728456811
30
0
41
1
10
78.0348686848346
20
-12.7359640938535
30
0
41
1
10
77.8202009468254
20
-12.5579138520919
30
0
41
1
10
77.6055
20
-12.3799170338054
30
0
0
SPLINE
5
151
100
AcDbEntity
8
1
62
256
6
ByLayer
370
18
48
1
60
0
100
AcDbSpline
70
4
71
3
72
8
73
4
40
0
40
0
40
0
40
0
40
1
40
1
40
1
40
1
41
1
10
77.6055
20
-38.3736110174262
30
0
41
1
10
77.8225293003015
20
-38.1296763983234
30
0
41
1
10
78.0373665452931
20
-37.8831983032508
30
0
41
1
10
78.2495
20
-37.6335829581344
30
0
0
SPLINE
5
152
100
AcDbEntity
8
1
62
256
6
ByLayer
370
18
48
1
60
0
100
AcDbSpline
70
4
71
3
72
8
73
4
40
0
40
0
40
0
40
0
40
1
40
1
40
1
40
1
41
1
10
77.6055
20
-44.5100772776499
30
0
41
1
10
77.8202039791954
20
-44.3323700434185
30
0
41
1
10
78.0348720691877
20
-44.1546049768551
30
0
41
1
10
78.2495
20
-43.9767752987127
30
0
0
SPLINE
5
153
100
AcDbEntity
8
1
62
256
6
ByLayer
370
18
48
1
60
0
100
AcDbSpline
70
4
71
3
72
8
73
4
40
0
40
0
40
0
40
0
40
1
40
1
40
1
40
1
41
1
10
78.2495
20
-48.4028498781752
30
0
41
1
10
78.036011628907
20
-48.6577519784764
30
0
41
1
10
77.8213104962892
20
-48.9112851613349
30
0
41
1
10
77.6055
20
-49.1635661381751
30
0
0
SPLINE
5
154
100
AcDbEntity
8
1
62
256
6
ByLayer
370
18
48
1
60
0
100
AcDbSpline
70
4
71
3
72
28
73
24
40
0
40
0
40
0
40
0
40
0.250000000000027
40
0.250000000000027
40
0.500000000000053
40
0.500000000000053
40
0.625000000000065
40
0.625000000000065
40
0.750000000000076
40
0.750000000000076
40
0.812500000000077
40
0.812500000000077
40
0.843750000000064
40
0.843750000000064
40
0.875000000000052
40
0.875000000000052
40
0.906250000000039
40
0.906250000000039
40
0.937500000000026
40
0.937500000000026
40
0.968750000000013
40
0.968750000000013
40
1
40
1
40
1
40
1
41
1
10
77.6054999999997
20
-37.7147398224982
30
0
41
1
10
77.5885769852419
20
-37.7809782860479
30
0
41
1
10
77.5737786406264
20
-37.8469679361494
30
0
41
1
10
77.5484174930481
20
-37.9784405235403
30
0
41
1
10
77.537797636014
20
-38.0439284447331
30
0
41
1
10
77.5265743250118
20
-38.1416448640677
30
0
41
1
10
77.5236218884951
20
-38.1741963552597
30
0
41
1
10
77.520256070083
20
-38.2387663711833
30
0
41
1
10
77.5197737989799
20
-38.2704500628859
30
0
41
1
10
77.5228330742295
20
-38.3161490613549
30
0
41
1
10
77.5244932097765
20
-38.3311487893484
30
0
41
1
10
77.5288006947063
20
-38.3525397666481
30
0
41
1
10
77.5305311270297
20
-38.3594094946837
30
0
41
1
10
77.53487591584
20
-38.3723716083383
30
0
41
1
10
77.5375175995501
20
-38.3785400595507
30
0
41
1
10
77.5441354070324
20
-38.3891873548664
30
0
41
1
10
77.5481602808463
20
-38.3937178346546
30
0
41
1
10
77.5579708320389
20
-38.3993434501821
30
0
41
1
10
77.5637965862585
20
-38.4002822552637
30
0
41
1
10
77.5760487214158
20
-38.397708888386
30
0
41
1
10
77.5824296550994
20
-38.3942878530467
30
0
41
1
10
77.5944898049967
20
-38.3851889123082
30
0
41
1
10
77.6001094477988
20
-38.379669841263
30
0
41
1
10
77.6055
20
-38.3736110174262
30
0
0
SPLINE
5
155
100
AcDbEntity
8
1
62
256
6
ByLayer
370
18
48
1
60
0
100
AcDbSpline
70
4
71
3
72
12
73
8
40
0
40
0
40
0
40
0
40
0.25
40
0.25
40
0.5
40
0.5
40
1
40
1
40
1
40
1
41
1
10
78.3245
20
-21.8199145186688
30
0
41
1
10
78.3245
20
-21.7850608491586
30
0
41
1
10
78.3219169517557
20
-21.7494540828889
30
0
41
1
10
78.3139525544051
20
-21.6774613391595
30
0
41
1
10
78.3084632666112
20
-21.6409409667422
30
0
41
1
10
78.288693751875
20
-21.5315205474898
30
0
41
1
10
78.2712510870854
20
-21.4585688884198
30
0
41
1
10
78.2495000000002
20
-21.3855949578269
30
0
0
SPLINE
5
156
100
AcDbEntity
8
1
62
256
6
ByLayer
370
18
48
1
60
0
100
AcDbSpline
70
4
71
3
72
22
73
18
40
0
40
0
40
0
40
0
40
0.249999999999999
40
0.249999999999999
40
0.375
40
0.375
40
0.500000000000001
40
0.500000000000001
40
0.625000000000003
40
0.625000000000003
40
0.750000000000004
40
0.750000000000004
40
0.812500000000001
40
0.812500000000001
40
0.874999999999998
40
0.874999999999998
40
1
40
1
40
1
40
1
41
1
10
13.3556624327026
20
47.5324740593459
30
0
41
1
10
13.3713369564231
20
47.5510763302182
30
0
41
1
10
13.390077598984
20
47.5691972862268
30
0
41
1
10
13.4243626893196
20
47.5954849905103
30
0
41
1
10
13.4368304265989
20
47.6040973909195
30
0
41
1
10
13.4643647610191
20
47.6209630227401
30
0
41
1
10
13.4795039101531
20
47.6292547015453
30
0
41
1
10
13.5128381301467
20
47.64517153341
30
0
41
1
10
13.5309752406441
20
47.6527863810657
30
0
41
1
10
13.5713129451647
20
47.6670929420703
30
0
41
1
10
13.5933776739338
20
47.6737248158948
30
0
41
1
10
13.6296411811592
20
47.6823452689502
30
0
41
1
10
13.6422911889143
20
47.6850063201913
30
0
41
1
10
13.6689911442514
20
47.6898031435895
30
0
41
1
10
13.6830575395868
20
47.6919316413795
30
0
41
1
10
13.7262200642961
20
47.6971341405705
30
0
41
1
10
13.7572518777783
20
47.6991123363142
30
0
41
1
10
13.7886751345948
20
47.6991123363142
30
0
0
SPLINE
5
157
100
AcDbEntity
8
1
62
256
6
ByLayer
370
18
48
1
60
0
100
AcDbSpline
70
4
71
3
72
24
73
20
40
0
40
0
40
0
40
0
40
0.0625000000000165
40
0.0625000000000165
40
0.0937500000000074
40
0.0937500000000074
40
0.124999999999998
40
0.124999999999998
40
0.18749999999999
40
0.18749999999999
40
0.249999999999981
40
0.249999999999981
40
0.374999999999984
40
0.374999999999984
40
0.499999999999986
40
0.499999999999986
40
0.749999999999993
40
0.749999999999993
40
1
40
1
40
1
40
1
41
1
10
77.6055000000005
20
-18.9806675104493
30
0
41
1
10
77.5963514999414
20
-18.9721347134558
30
0
41
1
10
77.5866876697863
20
-18.9648000933008
30
0
41
1
10
77.5723330899367
20
-18.9581799937619
30
0
41
1
10
77.567554778791
20
-18.9567276831696
30
0
41
1
10
77.5586414963532
20
-18.9557491466181
30
0
41
1
10
77.5543655001453
20
-18.9562245453812
30
0
41
1
10
77.5430939816221
20
-18.9602895123133
30
0
41
1
10
77.5373469222962
20
-18.9664886065913
30
0
41
1
10
77.5289338815004
20
-18.9820655238699
30
0
41
1
10
77.5261574723945
20
-18.9914175685207
30
0
41
1
10
77.5204500881333
20
-19.0211152199466
30
0
41
1
10
77.5199364302341
20
-19.0436331547926
30
0
41
1
10
77.5218901242229
20
-19.0894085002887
30
0
41
1
10
77.5244417108911
20
-19.1130506743403
30
0
41
1
10
77.5351213490498
20
-19.1854538826959
30
0
41
1
10
77.5459598179366
20
-19.2341366525266
30
0
41
1
10
77.5721839896752
20
-19.3320367036505
30
0
41
1
10
77.5876647221102
20
-19.3812637048492
30
0
41
1
10
77.6054999999999
20
-19.4307576674215
30
0
0
SPLINE
5
158
100
AcDbEntity
8
1
62
256
6
ByLayer
370
18
48
1
60
0
100
AcDbSpline
70
4
71
3
72
14
73
10
40
0
40
0
40
0
40
0
40
0.25
40
0.25
40
0.5
40
0.5
40
0.75
40
0.75
40
1
40
1
40
1
40
1
41
1
10
78.2495
20
-46.5300799335829
30
0
41
1
10
78.2595755187232
20
-46.515103372745
30
0
41
1
10
78.2689399471698
20
-46.500282137731
30
0
41
1
10
78.2861613172573
20
-46.4709631921383
30
0
41
1
10
78.2940783650029
20
-46.4563504489578
30
0
41
1
10
78.3077457705477
20
-46.4280858342372
30
0
41
1
10
78.3134679634117
20
-46.414541490867
30
0
41
1
10
78.3218707399949
20
-46.3890624272171
30
0
41
1
10
78.3245000000085
20
-46.3772185365104
30
0
41
1
10
78.3245000000091
20
-46.3675876053921
30
0
0
SPLINE
5
159
100
AcDbEntity
8
1
62
256
6
ByLayer
370
18
48
1
60
0
100
AcDbSpline
70
4
71
3
72
12
73
8
40
0
40
0
40
0
40
0
40
0.567291002798235
40
0.567291002798235
40
0.850936504197354
40
0.850936504197354
40
1
40
1
40
1
40
1
41
1
10
77.6055
20
-10.32745672375
30
0
41
1
10
77.5829955316989
20
-10.3057925676212
30
0
41
1
10
77.561880388332
20
-10.2859325790562
30
0
41
1
10
77.5377038374728
20
-10.2645006574021
30
0
41
1
10
77.5310440689488
20
-10.2588999175629
30
0
41
1
10
77.5243283600776
20
-10.253956468839
30
0
41
1
10
77.522644752756
20
-10.2529170009417
30
0
41
1
10
77.5216320442196
20
-10.2525622927932
30
0
0
SPLINE
5
15A
100
AcDbEntity
8
1
62
256
6
ByLayer
370
18
48
1
60
0
100
AcDbSpline
70
4
71
3
72
16
73
12
40
0
40
0
40
0
40
0
40
0.0197386845858554
40
0.0197386845858554
40
0.264804013439392
40
0.264804013439392
40
0.509869342292928
40
0.509869342292928
40
0.754934671146464
40
0.754934671146464
40
1
40
1
40
1
40
1
41
1
10
77.5205028758574
20
-10.2529278524037
30
0
41
1
10
77.5205053482064
20
-10.2530326563691
30
0
41
1
10
77.520524302163
20
-10.2531539197068
30
0
41
1
10
77.5210016685143
20
-10.2550025635633
30
0
41
1
10
77.5239889034552
20
-10.2592805706484
30
0
41
1
10
77.5336948862717
20
-10.2713634125905
30
0
41
1
10
77.5404694325865
20
-10.2792545353852
30
0
41
1
10
77.5561288184669
20
-10.296896840093
30
0
41
1
10
77.5652095623422
20
-10.3068711031348
30
0
41
1
10
77.5844816839385
20
-10.3276853138777
30
0
41
1
10
77.5947308174894
20
-10.3385926260742
30
0
41
1
10
77.6055
20
-10.3499207878424
30
0
0
SPLINE
5
15B
100
AcDbEntity
8
1
62
256
6
ByLayer
370
18
48
1
60
0
100
AcDbSpline
70
4
71
3
72
12
73
8
40
0
40
0
40
0
40
0
40
0.500000000000015
40
0.500000000000015
40
0.750000000000008
40
0.750000000000008
40
1
40
1
40
1
40
1
41
1
10
78.2495
20
-42.9353083296312
30
0
41
1
10
78.2704007391945
20
-42.8914091058621
30
0
41
1
10
78.2879822475923
20
-42.8472681461818
30
0
41
1
10
78.3079572516775
20
-42.782864662175
30
0
41
1
10
78.3135713793242
20
-42.7616176300328
30
0
41
1
10
78.3218661041996
20
-42.7197509393174
30
0
41
1
10
78.3245
20
-42.6996254052808
30
0
41
1
10
78.3245
20
-42.6809876861899
30
0
0
SPLINE
5
15C
100
AcDbEntity
8
1
62
256
6
ByLayer
370
18
48
1
60
0
100
AcDbSpline
70
4
71
3
72
8
73
4
40
0
40
0
40
0
40
0
40
1
40
1
40
1
40
1
41
1
10
77.6055
20
-46.7826993267326
30
0
41
1
10
77.8201732371937
20
-46.6069229874504
30
0
41
1
10
78.0348401170211
20
-46.4311362953957
30
0
41
1
10
78.2495
20
-46.255338212375
30
0
0
SPLINE
5
15D
100
AcDbEntity
8
1
62
256
6
ByLayer
370
18
48
1
60
0
100
AcDbSpline
70
4
71
3
72
29
73
25
40
0
40
0
40
0
40
0
40
0.250000000000085
40
0.250000000000085
40
0.50000000000017
40
0.625000000000197
40
0.625000000000197
40
0.750000000000224
40
0.750000000000224
40
0.812500000000218
40
0.812500000000218
40
0.843750000000206
40
0.843750000000206
40
0.859375000000191
40
0.859375000000191
40
0.875000000000175
40
0.875000000000175
40
0.89062500000016
40
0.89062500000016
40
0.906250000000145
40
0.906250000000145
40
0.937500000000096
40
0.937500000000096
40
1
40
1
40
1
40
1
41
1
10
78.3245000000001
20
-32.3743632971518
30
0
41
1
10
78.3245000000001
20
-32.3194064105514
30
0
41
1
10
78.3240323999323
20
-32.2644963145765
30
0
41
1
10
78.321844723872
20
-32.1548254136161
30
0
41
1
10
78.319316428687
20
-32.0726751218279
30
0
41
1
10
78.3143104212239
20
-31.9908802734126
30
0
41
1
10
78.3099789692881
20
-31.9365071281192
30
0
41
1
10
78.3074068235437
20
-31.9093996053931
30
0
41
1
10
78.3015807534019
20
-31.8694840950614
30
0
41
1
10
78.2993630930082
20
-31.856255515202
30
0
41
1
10
78.294437082563
20
-31.8370685365971
30
0
41
1
10
78.2925937216098
20
-31.830824934589
30
0
41
1
10
78.288543171497
20
-31.8224385863292
30
0
41
1
10
78.2869632734356
20
-31.8197740482076
30
0
41
1
10
78.2828407766149
20
-31.8162227658119
30
0
41
1
10
78.2801531501684
20
-31.8157990354522
30
0
41
1
10
78.2754571598492
20
-31.8184796529835
30
0
41
1
10
78.2734636569784
20
-31.8210448559295
30
0
41
1
10
78.2700739002268
20
-31.8264303864629
30
0
41
1
10
78.2686013610436
20
-31.8294023405485
30
0
41
1
10
78.2645355434312
20
-31.8385750160023
30
0
41
1
10
78.2622853935206
20
-31.8450450665835
30
0
41
1
10
78.2560686746893
20
-31.8646952642621
30
0
41
1
10
78.2526604819254
20
-31.8781861599649
30
0
41
1
10
78.2495000000001
20
-31.8917458747709
30
0
0
SPLINE
5
15E
100
AcDbEntity
8
1
62
256
6
ByLayer
370
18
48
1
60
0
100
AcDbSpline
70
4
71
3
72
24
73
20
40
0
40
0
40
0
40
0
40
0.015625
40
0.015625
40
0.03125
40
0.0625000000000001
40
0.125
40
0.125
40
0.25
40
0.25
40
0.5
40
0.5
40
0.625
40
0.625
40
0.75
40
0.75
40
0.875
40
0.875
40
1
40
1
40
1
40
1
41
1
10
49.9
20
-50
30
0
41
1
10
49.8726376543589
20
-50
30
0
41
1
10
49.8451559212209
20
-49.9998120585481
30
0
41
1
10
49.7903001515845
20
-49.9990596855842
30
0
41
1
10
49.7080435312249
20
-49.9973668403999
30
0
41
1
10
49.5163947374159
20
-49.9894695108435
30
0
41
1
10
49.3529319152369
20
-49.975939967359
30
0
41
1
10
49.0279407587038
20
-49.9398565740816
30
0
41
1
10
48.813856276982
20
-49.9037789605993
30
0
41
1
10
48.1862475804629
20
-49.759023082249
30
0
41
1
10
47.7871843301592
20
-49.6140106748924
30
0
41
1
10
47.2471659948679
20
-49.3187403107459
30
0
41
1
10
47.0777896890758
20
-49.2077462873695
30
0
41
1
10
46.7656517876273
20
-48.9602107168708
30
0
41
1
10
46.6228443909788
20
-48.8236549041001
30
0
41
1
10
46.3696011530218
20
-48.5241729942823
30
0
41
1
10
46.2591347861623
20
-48.3612503043329
30
0
41
1
10
46.0777186850628
20
-48.0078824403602
30
0
41
1
10
46.0067065959022
20
-47.8174444870626
30
0
41
1
10
45.9603417199835
20
-47.6124139335575
30
0
0
SPLINE
5
15F
100
AcDbEntity
8
1
62
256
6
ByLayer
370
18
48
1
60
0
100
AcDbSpline
70
4
71
3
72
14
73
10
40
0
40
0
40
0
40
0
40
0.25
40
0.25
40
0.5
40
0.5
40
0.75
40
0.75
40
1
40
1
40
1
40
1
41
1
10
78.2495
20
-11.0870295294823
30
0
41
1
10
78.2592181581408
20
-11.096094934158
30
0
41
1
10
78.2686645692863
20
-11.104716427341
30
0
41
1
10
78.2861495352743
20
-11.1202015381556
30
0
41
1
10
78.2943752214035
20
-11.1272294962812
30
0
41
1
10
78.3084746373257
20
-11.1385609426371
30
0
41
1
10
78.3143816471265
20
-11.1428801532941
30
0
41
1
10
78.3223777513261
20
-11.1474968287359
30
0
41
1
10
78.3245
20
-11.1477950739959
30
0
41
1
10
78.3245
20
-11.1460209801198
30
0
0
SPLINE
5
160
100
AcDbEntity
8
1
62
256
6
ByLayer
370
18
48
1
60
0
100
AcDbSpline
70
4
71
3
72
8
73
4
40
0
40
0
40
0
40
0
40
1
40
1
40
1
40
1
41
1
10
77.6055
20
-15.7665102874724
30
0
41
1
10
77.8265103487022
20
-16.1950414669068
30
0
41
1
10
78.0414057264598
20
-16.6276173164824
30
0
41
1
10
78.2495
20
-17.0646916703688
30
0
0
SPLINE
5
161
100
AcDbEntity
8
1
62
256
6
ByLayer
370
18
48
1
60
0
100
AcDbSpline
70
4
71
3
72
8
73
4
40
0
40
0
40
0
40
0
40
1
40
1
40
1
40
1
41
1
10
78.2495
20
-11.0870295294823
30
0
41
1
10
78.0351378607354
20
-10.8870657594507
30
0
41
1
10
77.8204626786589
20
-10.68755105065
30
0
41
1
10
77.6055
20
-10.4884487569066
30
0
0
SPLINE
5
162
100
AcDbEntity
8
1
62
256
6
ByLayer
370
18
48
1
60
0
100
AcDbSpline
70
4
71
3
72
18
73
14
40
0
40
0
40
0
40
0
40
0.250000000000013
40
0.250000000000013
40
0.500000000000027
40
0.500000000000027
40
0.62500000000002
40
0.62500000000002
40
0.750000000000013
40
0.750000000000013
40
0.875000000000007
40
0.875000000000007
40
1
40
1
40
1
40
1
41
1
10
78.3245
20
-37.7421428531871
30
0
41
1
10
78.3245
20
-37.7245176993836
30
0
41
1
10
78.3239122919799
20
-37.707171748502
30
0
41
1
10
78.3207529083203
20
-37.6734413846414
30
0
41
1
10
78.3182332122497
20
-37.6567428508802
30
0
41
1
10
78.3111398930036
20
-37.6345466094669
30
0
41
1
10
78.3081771461697
20
-37.6275421986267
30
0
41
1
10
78.3002308808571
20
-37.6160961548195
30
0
41
1
10
78.2951355455778
20
-37.6116545852139
30
0
41
1
10
78.2824510330992
20
-37.6091667968877
30
0
41
1
10
78.2752644858578
20
-37.6114358989539
30
0
41
1
10
78.2616724654686
20
-37.6203894104481
30
0
41
1
10
78.2553626711961
20
-37.6266844107274
30
0
41
1
10
78.2495
20
-37.6335829581344
30
0
0
SPLINE
5
163
100
AcDbEntity
8
1
62
256
6
ByLayer
370
18
48
1
60
0
100
AcDbSpline
70
4
71
3
72
8
73
4
40
0
40
0
40
0
40
0
40
1
40
1
40
1
40
1
41
1
10
78.2495
20
-38.6144050421731
30
0
41
1
10
78.0529095032927
20
-39.2739574225089
30
0
41
1
10
77.8375575235841
20
-39.9252688291729
30
0
41
1
10
77.6055
20
-40.5692423325785
30
0
0
SPLINE
5
164
100
AcDbEntity
8
1
62
256
6
ByLayer
370
18
48
1
60
0
100
AcDbSpline
70
4
71
3
72
8
73
4
40
0
40
0
40
0
40
0
40
1
40
1
40
1
40
1
41
1
10
78.2495
20
-48.7475864397169
30
0
41
1
10
78.0357525342202
20
-48.9882311427327
30
0
41
1
10
77.8210594377484
20
-49.2277459581948
30
0
41
1
10
77.6055
20
-49.4662256251216
30
0
0
SPLINE
5
165
100
AcDbEntity
8
1
62
256
6
ByLayer
370
18
48
1
60
0
100
AcDbSpline
70
4
71
3
72
12
73
8
40
0
40
0
40
0
40
0
40
0.249999999999984
40
0.249999999999984
40
0.499999999999967
40
0.499999999999967
40
1
40
1
40
1
40
1
41
1
10
78.3245000000089
20
-13.6324123946078
30
0
41
1
10
78.3245000000083
20
-13.6227778423618
30
0
41
1
10
78.3218736994013
20
-13.6109416840521
30
0
41
1
10
78.3134493924229
20
-13.5854070691574
30
0
41
1
10
78.307670540604
20
-13.5717383786368
30
0
41
1
10
78.287041271642
20
-13.5291375693461
30
0
41
1
10
78.2696463919063
20
-13.4998662828191
30
0
41
1
10
78.2495
20
-13.4699200664171
30
0
0
SPLINE
5
166
100
AcDbEntity
8
1
62
256
6
ByLayer
370
18
48
1
60
0
100
AcDbSpline
70
4
71
3
72
8
73
4
40
0
40
0
40
0
40
0
40
1
40
1
40
1
40
1
41
1
10
78.2495
20
-49.0679370847154
30
0
41
1
10
78.0353821421022
20
-49.2854992733109
30
0
41
1
10
77.8207000524708
20
-49.5023166855204
30
0
41
1
10
77.6055
20
-49.7184503955052
30
0
0
SPLINE
5
167
100
AcDbEntity
8
1
62
256
6
ByLayer
370
18
48
1
60
0
100
AcDbSpline
70
4
71
3
72
14
73
10
40
0
40
0
40
0
40
0
40
0.25
40
0.25
40
0.5
40
0.5
40
0.75
40
0.75
40
1
40
1
40
1
40
1
41
1
10
78.2495
20
-11.7294039678317
30
0
41
1
10
78.2592295119835
20
-11.7378767091183
30
0
41
1
10
78.2688025775435
20
-11.7457734552667
30
0
41
1
10
78.2866018633678
20
-11.7593031759554
30
0
41
1
10
78.2949542474703
20
-11.7650274862524
30
0
41
1
10
78.309141149508
20
-11.7730029642843
30
0
41
1
10
78.3149572318673
20
-11.7752055588039
30
0
41
1
10
78.3226030338568
20
-11.7752237955256
30
0
41
1
10
78.3245
20
-11.7730348396501
30
0
41
1
10
78.3245
20
-11.7690873761763
30
0
0
SPLINE
5
168
100
AcDbEntity
8
1
62
256
6
ByLayer
370
18
48
1
60
0
100
AcDbSpline
70
4
71
3
72
14
73
10
40
0
40
0
40
0
40
0
40
0.25
40
0.25
40
0.5
40
0.5
40
0.75
40
0.75
40
1
40
1
40
1
40
1
41
1
10
78.3245
20
-48.9809298975149
30
0
41
1
10
78.3245
20
-48.9802749397073
30
0
41
1
10
78.3222686570517
20
-48.9818256856907
30
0
41
1
10
78.3141089561459
20
-48.9887118861319
30
0
41
1
10
78.3081416192179
20
-48.9940733211361
30
0
41
1
10
78.2940927457414
20
-49.0070547541498
30
0
41
1
10
78.2858401844453
20
-49.0148307852947
30
0
41
1
10
78.2684278710244
20
-49.0314404543229
30
0
41
1
10
78.2591841270818
20
-49.040350490592
30
0
41
1
10
78.2495
20
-49.0497595350354
30
0
0
SPLINE
5
169
100
AcDbEntity
8
1
62
256
6
ByLayer
370
18
48
1
60
0
100
AcDbSpline
70
4
71
3
72
8
73
4
40
0
40
0
40
0
40
0
40
1
40
1
40
1
40
1
41
1
10
77.6055
20
-42.9705056015292
30
0
41
1
10
77.8203319606478
20
-42.7859304687195
30
0
41
1
10
78.0350057378338
20
-42.6011103791873
30
0
41
1
10
78.2495
20
-42.4160122997165
30
0
0
SPLINE
5
16A
100
AcDbEntity
8
1
62
256
6
ByLayer
370
18
48
1
60
0
100
AcDbSpline
70
4
71
3
72
12
73
8
40
0
40
0
40
0
40
0
40
0.250000000000011
40
0.250000000000011
40
0.500000000000021
40
0.500000000000021
40
1
40
1
40
1
40
1
41
1
10
78.3245000000014
20
-12.8362373260382
30
0
41
1
10
78.3245000000014
20
-12.8284626041142
30
0
41
1
10
78.3219119832026
20
-12.8186011032982
30
0
41
1
10
78.3134329614606
20
-12.7964368926684
30
0
41
1
10
78.3076482942255
20
-12.7844366353825
30
0
41
1
10
78.2869260374197
20
-12.7464330532691
30
0
41
1
10
78.2694532524701
20
-12.7197966544485
30
0
41
1
10
78.2495
20
-12.6924682208397
30
0
0
SPLINE
5
16B
100
AcDbEntity
8
1
62
256
6
ByLayer
370
18
48
1
60
0
100
AcDbSpline
70
4
71
3
72
8
73
4
40
0
40
0
40
0
40
0
40
1
40
1
40
1
40
1
41
1
10
77.6055
20
-49.232584456276
30
0
41
1
10
77.8203746839424
20
-49.0403524947096
30
0
41
1
10
78.0350473703234
20
-48.8478202535533
30
0
41
1
10
78.2495
20
-48.654960886978
30
0
0
SPLINE
5
16C
100
AcDbEntity
8
1
62
256
6
ByLayer
370
18
48
1
60
0
100
AcDbSpline
70
4
71
3
72
14
73
10
40
0
40
0
40
0
40
0
40
0.25
40
0.25
40
0.5
40
0.5
40
0.75
40
0.75
40
1
40
1
40
1
40
1
41
1
10
78.3245
20
-47.7218227111436
30
0
41
1
10
78.3245
20
-47.7167636827918
30
0
41
1
10
78.3227493810509
20
-47.7133264469951
30
0
41
1
10
78.3152458304778
20
-47.7108983856196
30
0
41
1
10
78.3096041240067
20
-47.7119307814348
30
0
41
1
10
78.2953158700718
20
-47.7181361744954
30
0
41
1
10
78.2869391226995
20
-47.7231633913709
30
0
41
1
10
78.2687589075684
20
-47.7359097762675
30
0
41
1
10
78.2592455734683
20
-47.7434107750192
30
0
41
1
10
78.2495
20
-47.7516701480928
30
0
0
SPLINE
5
16D
100
AcDbEntity
8
1
62
256
6
ByLayer
370
18
48
1
60
0
100
AcDbSpline
70
4
71
3
72
14
73
10
40
0
40
0
40
0
40
0
40
0.25
40
0.25
40
0.5
40
0.5
40
0.75
40
0.75
40
1
40
1
40
1
40
1
41
1
10
78.2495
20
-48.9678441313361
30
0
41
1
10
78.2592496041162
20
-48.9574402745057
30
0
41
1
10
78.268519251578
20
-48.9473921852377
30
0
41
1
10
78.2859116916071
20
-48.9281390396628
30
0
41
1
10
78.2939838635032
20
-48.918985371031
30
0
41
1
10
78.3078579262551
20
-48.9026525202925
30
0
41
1
10
78.313812257457
20
-48.8952874257051
30
0
41
1
10
78.3221165962266
20
-48.883899953024
30
0
41
1
10
78.3245
20
-48.8798131548509
30
0
41
1
10
78.3245
20
-48.8780838423543
30
0
0
SPLINE
5
16E
100
AcDbEntity
8
1
62
256
6
ByLayer
370
18
48
1
60
0
100
AcDbSpline
70
4
71
3
72
12
73
8
40
0
40
0
40
0
40
0
40
0.249999999999987
40
0.249999999999987
40
0.499999999999975
40
0.499999999999975
40
1
40
1
40
1
40
1
41
1
10
78.3245000000034
20
-14.6149066004579
30
0
41
1
10
78.3245000000031
20
-14.6029212735128
30
0
41
1
10
78.3218148236824
20
-14.5887808242704
30
0
41
1
10
78.3134329178871
20
-14.559218516125
30
0
41
1
10
78.307644159211
20
-14.5435033805217
30
0
41
1
10
78.2872039700729
20
-14.4955316916386
30
0
41
1
10
78.2698428653545
20
-14.4628633012144
30
0
41
1
10
78.2495
20
-14.4296297752868
30
0
0
SPLINE
5
16F
100
AcDbEntity
8
1
62
256
6
ByLayer
370
18
48
1
60
0
100
AcDbSpline
70
4
71
3
72
26
73
22
40
0
40
0
40
0
40
0
40
0.24999999999995
40
0.24999999999995
40
0.4999999999999
40
0.4999999999999
40
0.62499999999989
40
0.62499999999989
40
0.687499999999894
40
0.687499999999894
40
0.749999999999899
40
0.749999999999899
40
0.812499999999903
40
0.812499999999903
40
0.843749999999905
40
0.843749999999905
40
0.874999999999907
40
0.874999999999907
40
0.937499999999954
40
0.937499999999954
40
1
40
1
40
1
40
1
41
1
10
77.6055
20
-40.5692423325785
30
0
41
1
10
77.5876431568551
20
-40.6187961400232
30
0
41
1
10
77.5720151535184
20
-40.6685126312754
30
0
41
1
10
77.5457683658979
20
-40.7666601579881
30
0
41
1
10
77.5349848127961
20
-40.8153022796541
30
0
41
1
10
77.5244066800093
20
-40.8872728105716
30
0
41
1
10
77.5218528593706
20
-40.911043650543
30
0
41
1
10
77.5204188041758
20
-40.9452806611476
30
0
41
1
10
77.5203401032587
20
-40.9564850710971
30
0
41
1
10
77.521316572032
20
-40.9783092712763
30
0
41
1
10
77.522379144929
20
-40.9889959860532
30
0
41
1
10
77.5262116700882
20
-41.00878926678
30
0
41
1
10
77.5289871161339
20
-41.0180751916216
30
0
41
1
10
77.5353102988491
20
-41.02971899791
30
0
41
1
10
77.5377554775792
20
-41.0331628737239
30
0
41
1
10
77.5435578935233
20
-41.0388720525554
30
0
41
1
10
77.5469352756757
20
-41.0411137199878
30
0
41
1
10
77.5582572753071
20
-41.0451424463261
30
0
41
1
10
77.567713171199
20
-41.0439723663318
30
0
41
1
10
77.5867407936386
20
-41.0351534278306
30
0
41
1
10
77.5963755984043
20
-41.0278428099313
30
0
41
1
10
77.6055000000005
20
-41.0193324895505
30
0
0
SPLINE
5
170
100
AcDbEntity
8
1
62
256
6
ByLayer
370
18
48
1
60
0
100
AcDbSpline
70
4
71
3
72
14
73
10
40
0
40
0
40
0
40
0
40
0.25
40
0.25
40
0.5
40
0.5
40
0.75
40
0.75
40
1
40
1
40
1
40
1
41
1
10
78.2495
20
-17.5839877002837
30
0
41
1
10
78.260085369069
20
-17.5931223571523
30
0
41
1
10
78.2711217278699
20
-17.6006349348428
30
0
41
1
10
78.2919675533707
20
-17.6078936222742
30
0
41
1
10
78.3011759360961
20
-17.6070625694073
30
0
41
1
10
78.3144074916597
20
-17.5975422065002
30
0
41
1
10
78.318609915423
20
-17.5891981129423
30
0
41
1
10
78.3235869454225
20
-17.5702127399341
30
0
41
1
10
78.3245
20
-17.5595472821296
30
0
41
1
10
78.3245
20
-17.5482079304326
30
0
0
SPLINE
5
171
100
AcDbEntity
8
1
62
256
6
ByLayer
370
18
48
1
60
0
100
AcDbSpline
70
4
71
3
72
22
73
18
40
0
40
0
40
0
40
0
40
0.125000000000007
40
0.125000000000007
40
0.250000000000014
40
0.250000000000014
40
0.312500000000014
40
0.312500000000014
40
0.375000000000015
40
0.375000000000015
40
0.500000000000023
40
0.500000000000023
40
0.62500000000003
40
0.62500000000003
40
0.750000000000038
40
0.750000000000038
40
1
40
1
40
1
40
1
41
1
10
77.6055
20
-11.7031245623836
30
0
41
1
10
77.5929935000491
20
-11.6925476749615
30
0
41
1
10
77.5807062764317
20
-11.6830115337943
30
0
41
1
10
77.5581387309791
20
-11.6679047784144
30
0
41
1
10
77.5477275950539
20
-11.6622830831968
30
0
41
1
10
77.5354434931644
20
-11.6586314301316
30
0
41
1
10
77.5319682827651
20
-11.6582229219182
30
0
41
1
10
77.5263821989246
20
-11.6590182633035
30
0
41
1
10
77.5242299754903
20
-11.6602483275518
30
0
41
1
10
77.5199462725363
20
-11.6661209765678
30
0
41
1
10
77.5198997335546
20
-11.6729864766915
30
0
41
1
10
77.5238716179545
20
-11.6899750978604
30
0
41
1
10
77.5278862228095
20
-11.700238710695
30
0
41
1
10
77.5384305992329
20
-11.722309578484
30
0
41
1
10
77.5449915632616
20
-11.7342185023663
30
0
41
1
10
77.5674181822309
20
-11.771498444245
30
0
41
1
10
77.5853406471265
20
-11.7974536256765
30
0
41
1
10
77.6055
20
-11.8242215786957
30
0
0
SPLINE
5
172
100
AcDbEntity
8
1
62
256
6
ByLayer
370
18
48
1
60
0
100
AcDbSpline
70
4
71
3
72
8
73
4
40
0
40
0
40
0
40
0
40
1
40
1
40
1
40
1
41
1
10
78.2495
20
-41.0912167009135
30
0
41
1
10
78.0449435898546
20
-41.6082675252431
30
0
41
1
10
77.829910422179
20
-42.1194546037457
30
0
41
1
10
77.6055
20
-42.6253933182574
30
0
0
SPLINE
5
173
100
AcDbEntity
8
1
62
256
6
ByLayer
370
18
48
1
60
0
100
AcDbSpline
70
4
71
3
72
22
73
18
40
0
40
0
40
0
40
0
40
0.124999999999954
40
0.124999999999954
40
0.249999999999907
40
0.249999999999907
40
0.31249999999991
40
0.31249999999991
40
0.374999999999912
40
0.374999999999912
40
0.499999999999931
40
0.499999999999931
40
0.624999999999949
40
0.624999999999949
40
0.749999999999967
40
0.749999999999967
40
1
40
1
40
1
40
1
41
1
10
77.6055
20
-11.1695996371899
30
0
41
1
10
77.5933808080385
20
-11.1590833251975
30
0
41
1
10
77.5815029684042
20
-11.149400648681
30
0
41
1
10
77.5596939458029
20
-11.1333210646717
30
0
41
1
10
77.5495221623781
20
-11.1267711333054
30
0
41
1
10
77.5372715379926
20
-11.1209541334193
30
0
41
1
10
77.5336365800474
20
-11.1196621528815
30
0
41
1
10
77.5277224198726
20
-11.1185958168323
30
0
41
1
10
77.5253901081671
20
-11.1187894517452
30
0
41
1
10
77.5203187268388
20
-11.1216149688546
30
0
41
1
10
77.5197486324504
20
-11.1264390003036
30
0
41
1
10
77.5230392710006
20
-11.1400865510157
30
0
41
1
10
77.5268401757407
20
-11.1488242725022
30
0
41
1
10
77.5373010855982
20
-11.1684625878483
30
0
41
1
10
77.5438699092401
20
-11.1792237616322
30
0
41
1
10
77.5666469913103
20
-11.2136635643215
30
0
41
1
10
77.5850228332095
20
-11.2382258180271
30
0
41
1
10
77.6055
20
-11.2636557947854
30
0
0
SPLINE
5
174
100
AcDbEntity
8
1
62
256
6
ByLayer
370
18
48
1
60
0
100
AcDbSpline
70
4
71
3
72
8
73
4
40
0
40
0
40
0
40
0
40
1
40
1
40
1
40
1
41
1
10
77.6055
20
-17.3746066817426
30
0
41
1
10
77.829910422179
20
-17.8805453962543
30
0
41
1
10
78.0449435898546
20
-18.3917324747569
30
0
41
1
10
78.2495
20
-18.9087832990865
30
0
0
SPLINE
5
175
100
AcDbEntity
8
1
62
256
6
ByLayer
370
18
48
1
60
0
100
AcDbSpline
70
4
71
3
72
8
73
4
40
0
40
0
40
0
40
0
40
1
40
1
40
1
40
1
41
1
10
78.2495000000003
20
-34.5717458978615
30
0
41
1
10
78.0864300612877
20
-35.6335061812587
30
0
41
1
10
77.8697062205963
20
-36.6806088261539
30
0
41
1
10
77.6055000000001
20
-37.7147398224982
30
0
0
SPLINE
5
176
100
AcDbEntity
8
1
62
256
6
ByLayer
370
18
48
1
60
0
100
AcDbSpline
70
4
71
3
72
14
73
10
40
0
40
0
40
0
40
0
40
0.25
40
0.25
40
0.5
40
0.5
40
0.75
40
0.75
40
1
40
1
40
1
40
1
41
1
10
78.2495
20
-11.345039113022
30
0
41
1
10
78.2592159985016
20
-11.353776806374
30
0
41
1
10
78.2687261650705
20
-11.3620176788683
30
0
41
1
10
78.2863466387967
20
-11.3764917567906
30
0
41
1
10
78.2946257999411
20
-11.3828621027204
30
0
41
1
10
78.3087737819881
20
-11.3925416693087
30
0
41
1
10
78.3146448825017
20
-11.3958293505912
30
0
41
1
10
78.3224850003474
20
-11.3981817156607
30
0
41
1
10
78.3245
20
-11.3972407703807
30
0
41
1
10
78.3245
20
-11.3943731632125
30
0
0
SPLINE
5
177
100
AcDbEntity
8
1
62
256
6
ByLayer
370
18
48
1
60
0
100
AcDbSpline
70
4
71
3
72
22
73
18
40
0
40
0
40
0
40
0
40
0.125
40
0.125
40
0.25
40
0.25
40
0.375
40
0.375
40
0.5
40
0.5
40
0.625
40
0.625
40
0.75
40
0.75
40
0.875
40
0.875
40
1
40
1
40
1
40
1
41
1
10
77.6055
20
-10.767415543724
30
0
41
1
10
77.5937391002439
20
-10.7568939653396
30
0
41
1
10
77.5822425516907
20
-10.7470362965226
30
0
41
1
10
77.561004489412
20
-10.7299789831457
30
0
41
1
10
77.551171313917
20
-10.7227101090012
30
0
41
1
10
77.5348594546792
20
-10.7124917839751
30
0
41
1
10
77.5284482392082
20
-10.7096347492937
30
0
41
1
10
77.5209227239677
20
-10.7096102106349
30
0
41
1
10
77.5197485987882
20
-10.7124456163766
30
0
41
1
10
77.5222241743892
20
-10.722630840565
30
0
41
1
10
77.5257825078704
20
-10.7299164681103
30
0
41
1
10
77.5360083026821
20
-10.7470234564403
30
0
41
1
10
77.542700715944
20
-10.7568996245614
30
0
41
1
10
77.5579277503396
20
-10.7778600462839
30
0
41
1
10
77.566628668
20
-10.7891714697423
30
0
41
1
10
77.5851924552514
20
-10.8123476178587
30
0
41
1
10
77.595079721552
20
-10.8242526284234
30
0
41
1
10
77.6055
20
-10.836433861825
30
0
0
SPLINE
5
178
100
AcDbEntity
8
1
62
256
6
ByLayer
370
18
48
1
60
0
100
AcDbSpline
70
4
71
3
72
8
73
4
40
0
40
0
40
0
40
0
40
1
40
1
40
1
40
1
41
1
10
78.2495
20
-17.5839877002835
30
0
41
1
10
78.0350057378338
20
-17.3988896208127
30
0
41
1
10
77.8203319606478
20
-17.2140695312805
30
0
41
1
10
77.6055
20
-17.0294943984708
30
0
0
SPLINE
5
179
100
AcDbEntity
8
1
62
256
6
ByLayer
370
18
48
1
60
0
100
AcDbSpline
70
4
71
3
72
22
73
18
40
0
40
0
40
0
40
0
40
0.24999999999999
40
0.24999999999999
40
0.374999999999985
40
0.374999999999985
40
0.49999999999998
40
0.49999999999998
40
0.624999999999975
40
0.624999999999975
40
0.74999999999997
40
0.74999999999997
40
0.812499999999973
40
0.812499999999973
40
0.874999999999976
40
0.874999999999976
40
1
40
1
40
1
40
1
41
1
10
18.6443375672973
20
15.5133461831291
30
0
41
1
10
18.6286630435768
20
15.4563493271806
30
0
41
1
10
18.6099224010159
20
15.400478236028
30
0
41
1
10
18.5756373106803
20
15.3189628763402
30
0
41
1
10
18.563169573401
20
15.2921769035834
30
0
41
1
10
18.5356352389809
20
15.2395749166917
30
0
41
1
10
18.5204960898468
20
15.2136380572667
30
0
41
1
10
18.4871618698533
20
15.1637170876448
30
0
41
1
10
18.4690247593558
20
15.1397658465102
30
0
41
1
10
18.4286870548353
20
15.0946616463794
30
0
41
1
10
18.4066223260662
20
15.0736965092104
30
0
41
1
10
18.3703588188408
20
15.0463962702364
30
0
41
1
10
18.3577088110857
20
15.0379598317318
30
0
41
1
10
18.3310088557486
20
15.0227407547074
30
0
41
1
10
18.3169424604131
20
15.0159811428425
30
0
41
1
10
18.2737799357039
20
14.9994509315929
30
0
41
1
10
18.2427481222217
20
14.9931545155677
30
0
41
1
10
18.2113248654052
20
14.9931545155677
30
0
0
SPLINE
5
17A
100
AcDbEntity
8
1
62
256
6
ByLayer
370
18
48
1
60
0
100
AcDbSpline
70
4
71
3
72
8
73
4
40
0
40
0
40
0
40
0
40
1
40
1
40
1
40
1
41
1
10
78.2495
20
-48.9678441313361
30
0
41
1
10
78.0355472223686
20
-49.1961543314658
30
0
41
1
10
77.8208603034311
20
-49.4235405354009
30
0
41
1
10
77.6055
20
-49.6500792121576
30
0
0
SPLINE
5
17B
100
AcDbEntity
8
1
62
256
6
ByLayer
370
18
48
1
60
0
100
AcDbSpline
70
4
71
3
72
8
73
4
40
0
40
0
40
0
40
0
40
1
40
1
40
1
40
1
41
1
10
77.6055000000001
20
-22.2852601775018
30
0
41
1
10
77.8697062205963
20
-23.3193911738461
30
0
41
1
10
78.0864300612877
20
-24.3664938187413
30
0
41
1
10
78.2495000000003
20
-25.4282541021385
30
0
0
SPLINE
5
17C
100
AcDbEntity
8
1
62
256
6
ByLayer
370
18
48
1
60
0
100
AcDbSpline
70
4
71
3
72
8
73
4
40
0
40
0
40
0
40
0
40
1
40
1
40
1
40
1
41
1
10
77.6055
20
-19.4307576674215
30
0
41
1
10
77.8375575235841
20
-20.0747311708271
30
0
41
1
10
78.0529095032927
20
-20.7260425774911
30
0
41
1
10
78.2495
20
-21.3855949578269
30
0
0
SPLINE
5
17D
100
AcDbEntity
8
1
62
256
6
ByLayer
370
18
48
1
60
0
100
AcDbSpline
70
4
71
3
72
22
73
18
40
0
40
0
40
0
40
0
40
0.0624999999999903
40
0.0624999999999903
40
0.124999999999981
40
0.124999999999981
40
0.187499999999971
40
0.187499999999971
40
0.249999999999961
40
0.249999999999961
40
0.374999999999966
40
0.374999999999966
40
0.499999999999971
40
0.499999999999971
40
0.749999999999981
40
0.749999999999981
40
1
40
1
40
1
40
1
41
1
10
77.6055000000001
20
-15.4899227223496
30
0
41
1
10
77.5979531350988
20
-15.4836762964857
30
0
41
1
10
77.5903309748307
20
-15.4780717543364
30
0
41
1
10
77.5752150014688
20
-15.4689241579629
30
0
41
1
10
77.5678082632911
20
-15.465458629051
30
0
41
1
10
77.5541074431752
20
-15.4616818843329
30
0
41
1
10
77.5479040735976
20
-15.4614074976418
30
0
41
1
10
77.5373699622982
20
-15.4642095092406
30
0
41
1
10
77.5332138313417
20
-15.467174792234
30
0
41
1
10
77.5234244585301
20
-15.47985805878
30
0
41
1
10
77.5208914796619
20
-15.4927921627736
30
0
41
1
10
77.5201926535017
20
-15.5210842573217
30
0
41
1
10
77.5219655798816
20
-15.5366833762007
30
0
41
1
10
77.5312522763401
20
-15.5862215159508
30
0
41
1
10
77.5425200942078
20
-15.6218633723835
30
0
41
1
10
77.5702156333428
20
-15.6937751123768
30
0
41
1
10
77.5866797204592
20
-15.7300184370399
30
0
41
1
10
77.6055
20
-15.7665102874724
30
0
0
SPLINE
5
17E
100
AcDbEntity
8
1
62
256
6
ByLayer
370
18
48
1
60
0
100
AcDbSpline
70
4
71
3
72
8
73
4
40
0
40
0
40
0
40
0
40
1
40
1
40
1
40
1
41
1
10
77.6055
20
-49.5115512430934
30
0
41
1
10
77.8204626786589
20
-49.31244894935
30
0
41
1
10
78.0351378607354
20
-49.1129342405493
30
0
41
1
10
78.2495
20
-48.9129704705177
30
0
0
SPLINE
5
17F
100
AcDbEntity
8
1
62
256
6
ByLayer
370
18
48
1
60
0
100
AcDbSpline
70
4
71
3
72
34
73
30
40
0
40
0
40
0
40
0
40
0.249999999999994
40
0.249999999999994
40
0.499999999999988
40
0.499999999999988
40
0.624999999999989
40
0.624999999999989
40
0.749999999999991
40
0.749999999999991
40
0.812499999999991
40
0.812499999999991
40
0.874999999999992
40
0.874999999999992
40
0.906249999999996
40
0.906249999999996
40
0.937499999999999
40
0.937499999999999
40
0.953125000000002
40
0.953125000000002
40
0.9609375
40
0.9609375
40
0.968749999999999
40
0.968749999999999
40
0.976562499999997
40
0.976562499999997
40
0.984374999999995
40
0.984374999999995
40
1
40
1
40
1
40
1
41
1
10
77.6055
20
-31.6809335420859
30
0
41
1
10
77.5953465332925
20
-31.868561623832
30
0
41
1
10
77.5843708072372
20
-32.0560262287
30
0
41
1
10
77.5624814887404
20
-32.4306099884015
30
0
41
1
10
77.5515138517231
20
-32.6177298429043
30
0
41
1
10
77.5372027368807
20
-32.898125432941
30
0
41
1
10
77.5327968300852
20
-32.9915431542795
30
0
41
1
10
77.5254831497148
20
-33.1782739904487
30
0
41
1
10
77.5225351679381
20
-33.2715458172696
30
0
41
1
10
77.520533676288
20
-33.4107891039483
30
0
41
1
10
77.5202747525549
20
-33.4571062118805
30
0
41
1
10
77.5211546580903
20
-33.5494477281146
30
0
41
1
10
77.522240748443
20
-33.5954810364494
30
0
41
1
10
77.5260817286805
20
-33.6641151207611
30
0
41
1
10
77.5277367440043
20
-33.6869313967425
30
0
41
1
10
77.532408665708
20
-33.7318553676978
30
0
41
1
10
77.5353138606984
20
-33.7540525787311
30
0
41
1
10
77.5423699927684
20
-33.786137482919
30
0
41
1
10
77.5451783656224
20
-33.7967125716025
30
0
41
1
10
77.5510156756257
20
-33.8110070008823
30
0
41
1
10
77.5532733288921
20
-33.8155950558174
30
0
41
1
10
77.5588492493796
20
-33.8233213778423
30
0
41
1
10
77.5622569994082
20
-33.8265123816619
30
0
41
1
10
77.5703820707258
20
-33.8285817210436
30
0
41
1
10
77.5748176023891
20
-33.8271291906221
30
0
41
1
10
77.5827092358347
20
-33.8212455239892
30
0
41
1
10
77.5861296946894
20
-33.8171872080593
30
0
41
1
10
77.5956575801557
20
-33.8037159283194
30
0
41
1
10
77.6008116156138
20
-33.7933200998167
30
0
41
1
10
77.6055
20
-33.7827284368681
30
0
0
SPLINE
5
180
100
AcDbEntity
8
1
62
256
6
ByLayer
370
18
48
1
60
0
100
AcDbSpline
70
4
71
3
72
18
73
14
40
0
40
0
40
0
40
0
40
0.125000000000002
40
0.125000000000002
40
0.250000000000005
40
0.250000000000005
40
0.375000000000007
40
0.375000000000007
40
0.500000000000009
40
0.500000000000009
40
0.750000000000005
40
0.750000000000005
40
1
40
1
40
1
40
1
41
1
10
78.2494999999998
20
-19.5853720612449
30
0
41
1
10
78.2550049788101
20
-19.5905777357355
30
0
41
1
10
78.2607471989824
20
-19.5952897159492
30
0
41
1
10
78.2722719837174
20
-19.6026636082224
30
0
41
1
10
78.2782056647285
20
-19.6053782274139
30
0
41
1
10
78.2893124647998
20
-19.6076011746231
30
0
41
1
10
78.2945557627869
20
-19.607087402598
30
0
41
1
10
78.3034343281571
20
-19.603086920534
30
0
41
1
10
78.3071286351407
20
-19.5996595558214
30
0
41
1
10
78.3160954547509
20
-19.5870240778816
30
0
41
1
10
78.3195542386962
20
-19.5754048910235
30
0
41
1
10
78.3237421835355
20
-19.5508197453541
30
0
41
1
10
78.3245
20
-19.5377033427366
30
0
41
1
10
78.3245
20
-19.5241252942082
30
0
0
SPLINE
5
181
100
AcDbEntity
8
1
62
256
6
ByLayer
370
18
48
1
60
0
100
AcDbSpline
70
4
71
3
72
12
73
8
40
0
40
0
40
0
40
0
40
0.250000000000004
40
0.250000000000004
40
0.500000000000008
40
0.500000000000008
40
1
40
1
40
1
40
1
41
1
10
78.3245000000068
20
-15.8224023965669
30
0
41
1
10
78.3245000000063
20
-15.8075621489336
30
0
41
1
10
78.3218101058425
20
-15.7907340466263
30
0
41
1
10
78.3135026485538
20
-15.7561118484279
30
0
41
1
10
78.3078290051662
20
-15.7381152982748
30
0
41
1
10
78.2874766500648
20
-15.6828580397534
30
0
41
1
10
78.2700729926385
20
-15.6456114212802
30
0
41
1
10
78.2495
20
-15.6080121158114
30
0
0
SPLINE
5
182
100
AcDbEntity
8
1
62
256
6
ByLayer
370
18
48
1
60
0
100
AcDbSpline
70
4
71
3
72
12
73
8
40
0
40
0
40
0
40
0
40
0.250000000000006
40
0.250000000000006
40
0.500000000000011
40
0.500000000000011
40
1
40
1
40
1
40
1
41
1
10
78.3245
20
-17.3190123138101
30
0
41
1
10
78.3245
20
-17.3002928547293
30
0
41
1
10
78.3218553248734
20
-17.280205085254
30
0
41
1
10
78.3135999420662
20
-17.2385161276275
30
0
41
1
10
78.30788129739
20
-17.21685256266
30
0
41
1
10
78.2877834430177
20
-17.1521676349738
30
0
41
1
10
78.2704170019078
20
-17.1086250518046
30
0
41
1
10
78.2495000000001
20
-17.0646916703688
30
0
0
SPLINE
5
183
100
AcDbEntity
8
1
62
256
6
ByLayer
370
18
48
1
60
0
100
AcDbSpline
70
4
71
3
72
12
73
8
40
0
40
0
40
0
40
0
40
0.499999999999968
40
0.499999999999968
40
0.749999999999984
40
0.749999999999984
40
1
40
1
40
1
40
1
41
1
10
78.2495
20
-44.3919878841886
30
0
41
1
10
78.2701003209502
20
-44.354338633359
30
0
41
1
10
78.2877787394772
20
-44.3163913811337
30
0
41
1
10
78.3078803980417
20
-44.2617098394659
30
0
41
1
10
78.3135259625515
20
-44.2438253173232
30
0
41
1
10
78.321860478618
20
-44.2090213858311
30
0
41
1
10
78.3245
20
-44.1924069066608
30
0
41
1
10
78.3245
20
-44.1775976034379
30
0
0
SPLINE
5
184
100
AcDbEntity
8
1
62
256
6
ByLayer
370
18
48
1
60
0
100
AcDbSpline
70
4
71
3
72
22
73
18
40
0
40
0
40
0
40
0
40
0.250000000000053
40
0.250000000000053
40
0.375000000000041
40
0.375000000000041
40
0.50000000000003
40
0.50000000000003
40
0.625000000000019
40
0.625000000000019
40
0.750000000000008
40
0.750000000000008
40
0.812500000000005
40
0.812500000000005
40
0.875000000000002
40
0.875000000000002
40
1
40
1
40
1
40
1
41
1
10
77.6055
20
-48.1757784213043
30
0
41
1
10
77.5852735552583
20
-48.2026354601184
30
0
41
1
10
77.5669564518919
20
-48.2292229400243
30
0
41
1
10
77.5448335316356
20
-48.2660678844065
30
0
41
1
10
77.5382665741826
20
-48.2779981266209
30
0
41
1
10
77.527742828944
20
-48.3000981082553
30
0
41
1
10
77.5238239716692
20
-48.3101313539303
30
0
41
1
10
77.5198638916737
20
-48.3272662268364
30
0
41
1
10
77.5199842070071
20
-48.3340533284695
30
0
41
1
10
77.5257809812265
20
-48.3417522150087
30
0
41
1
10
77.5316010084182
20
-48.3425395578433
30
0
41
1
10
77.5437264553199
20
-48.3388915542783
30
0
41
1
10
77.548412658276
20
-48.3368666430987
30
0
41
1
10
77.5584723291246
20
-48.3315512620657
30
0
41
1
10
77.5638465541737
20
-48.3282779831857
30
0
41
1
10
77.5808532195466
20
-48.3168828358453
30
0
41
1
10
77.593068792019
20
-48.3073886497742
30
0
41
1
10
77.6055
20
-48.2968754376165
30
0
0
SPLINE
5
185
100
AcDbEntity
8
1
62
256
6
ByLayer
370
18
48
1
60
0
100
AcDbSpline
70
4
71
3
72
8
73
4
40
0
40
0
40
0
40
0
40
1
40
1
40
1
40
1
41
1
10
77.6055
20
-28.3190664579142
30
0
41
1
10
77.6661423182086
20
-29.4396888193047
30
0
41
1
10
77.6661423182086
20
-30.5603111806953
30
0
41
1
10
77.6055
20
-31.6809335420859
30
0
0
SPLINE
5
186
100
AcDbEntity
8
1
62
256
6
ByLayer
370
18
48
1
60
0
100
AcDbSpline
70
4
71
3
72
12
73
8
40
0
40
0
40
0
40
0
40
0.499999999999973
40
0.499999999999973
40
0.749999999999987
40
0.749999999999987
40
1
40
1
40
1
40
1
41
1
10
78.2495000000002
20
-41.0912167009134
30
0
41
1
10
78.2707493762863
20
-41.0375053187211
30
0
41
1
10
78.288114006892
20
-40.984092352797
30
0
41
1
10
78.308033340519
20
-40.9044186364489
30
0
41
1
10
78.3136471049518
20
-40.8778062422475
30
0
41
1
10
78.3218575668025
20
-40.8254042330729
30
0
41
1
10
78.3245
20
-40.7998432734029
30
0
41
1
10
78.3245
20
-40.7754639616859
30
0
0
SPLINE
5
187
100
AcDbEntity
8
1
62
256
6
ByLayer
370
18
48
1
60
0
100
AcDbSpline
70
4
71
3
72
10
73
6
40
0
40
0
40
0
40
0
40
0.5
40
0.5
40
1
40
1
40
1
40
1
41
1
10
77.6055000000008
20
-33.7827284368685
30
0
41
1
10
77.7396225398739
20
-33.4797283798928
30
0
41
1
10
77.8621250055222
20
-33.171452200392
30
0
41
1
10
78.0787110718596
20
-32.5419961877092
30
0
41
1
10
78.172800078506
20
-32.2208188091151
30
0
41
1
10
78.2495000000006
20
-31.8917458747712
30
0
0
SPLINE
5
188
100
AcDbEntity
8
1
62
256
6
ByLayer
370
18
48
1
60
0
100
AcDbSpline
70
4
71
3
72
14
73
10
40
0
40
0
40
0
40
0
40
0.25
40
0.25
40
0.5
40
0.5
40
0.75
40
0.75
40
1
40
1
40
1
40
1
41
1
10
78.2495
20
-12.2483298519072
30
0
41
1
10
78.2592472411427
20
-12.2565906383349
30
0
41
1
10
78.2687842391549
20
-12.2641088819301
30
0
41
1
10
78.2869426760122
20
-12.2768382005801
30
0
41
1
10
78.2954011977379
20
-12.2819061593323
30
0
41
1
10
78.3096003699559
20
-12.2880622817989
30
0
41
1
10
78.3153326448495
20
-12.2890908384714
30
0
41
1
10
78.3227326686985
20
-12.2866614801573
30
0
41
1
10
78.3245
20
-12.2832039307189
30
0
41
1
10
78.3245
20
-12.2781772888564
30
0
0
SPLINE
5
189
100
AcDbEntity
8
1
62
256
6
ByLayer
370
18
48
1
60
0
100
AcDbSpline
70
4
71
3
72
8
73
4
40
0
40
0
40
0
40
0
40
1
40
1
40
1
40
1
41
1
10
78.2495
20
-42.9353083296312
30
0
41
1
10
78.0414057264598
20
-43.3723826835176
30
0
41
1
10
77.8265103487022
20
-43.8049585330932
30
0
41
1
10
77.6055
20
-44.2334897125276
30
0
0
SPLINE
5
18A
100
AcDbEntity
8
1
62
256
6
ByLayer
370
18
48
1
60
0
100
AcDbSpline
70
4
71
3
72
18
73
14
40
0
40
0
40
0
40
0
40
0.125000000000007
40
0.125000000000007
40
0.250000000000013
40
0.250000000000013
40
0.37500000000002
40
0.37500000000002
40
0.500000000000027
40
0.500000000000027
40
0.750000000000013
40
0.750000000000013
40
1
40
1
40
1
40
1
41
1
10
78.2494999999984
20
-22.3664170418684
30
0
41
1
10
78.2554139583019
20
-22.3733759383096
30
0
41
1
10
78.2617704585627
20
-22.3796902762718
30
0
41
1
10
78.2753056805867
20
-22.3885759455224
30
0
41
1
10
78.2825539823758
20
-22.3908227117573
30
0
41
1
10
78.2950877586339
20
-22.3883450444848
30
0
41
1
10
78.300230069096
20
-22.383900522934
30
0
41
1
10
78.3081590515472
20
-22.3724883462638
30
0
41
1
10
78.3111279719403
20
-22.3654829204077
30
0
41
1
10
78.3182224099557
20
-22.3433064410314
30
0
41
1
10
78.3207451881801
20
-22.3266219733115
30
0
41
1
10
78.3239121953916
20
-22.2928482998616
30
0
41
1
10
78.3245
20
-22.2754893040698
30
0
41
1
10
78.3245
20
-22.2578571468129
30
0
0
SPLINE
5
18B
100
AcDbEntity
8
1
62
256
6
ByLayer
370
18
48
1
60
0
100
AcDbSpline
70
4
71
3
72
8
73
4
40
0
40
0
40
0
40
0
40
1
40
1
40
1
40
1
41
1
10
78.2495
20
-13.744661787625
30
0
41
1
10
78.0348401170212
20
-13.5688637046043
30
0
41
1
10
77.8201732371937
20
-13.3930770125496
30
0
41
1
10
77.6055
20
-13.2173006732674
30
0
0
SPLINE
5
18C
100
AcDbEntity
8
1
62
256
6
ByLayer
370
18
48
1
60
0
100
AcDbSpline
70
4
71
3
72
14
73
10
40
0
40
0
40
0
40
0
40
0.25
40
0.25
40
0.5
40
0.5
40
0.75
40
0.75
40
1
40
1
40
1
40
1
41
1
10
78.3245
20
-11.1219161576457
30
0
41
1
10
78.3245
20
-11.1201826044654
30
0
41
1
10
78.3221013638942
20
-11.1160776303091
30
0
41
1
10
78.3138032295433
20
-11.1047017281456
30
0
41
1
10
78.3078502165317
20
-11.0973377261545
30
0
41
1
10
78.2939510937763
20
-11.0809767312028
30
0
41
1
10
78.2858335791893
20
-11.071773636392
30
0
41
1
10
78.2684939445531
20
-11.0525806601964
30
0
41
1
10
78.2592424533952
20
-11.0425520949201
30
0
41
1
10
78.2495
20
-11.0321558686639
30
0
0
SPLINE
5
18D
100
AcDbEntity
8
1
62
256
6
ByLayer
370
18
48
1
60
0
100
AcDbSpline
70
4
71
3
72
14
73
10
40
0
40
0
40
0
40
0
40
0.25
40
0.25
40
0.5
40
0.5
40
0.75
40
0.75
40
1
40
1
40
1
40
1
41
1
10
78.3245
20
-48.2309126238238
30
0
41
1
10
78.3245
20
-48.2269178971008
30
0
41
1
10
78.3226261329832
20
-48.2247594643014
30
0
41
1
10
78.314843542028
20
-48.2248115931792
30
0
41
1
10
78.3091628945776
20
-48.226981040974
30
0
41
1
10
78.2948542225229
20
-48.2350325359301
30
0
41
1
10
78.2865896124374
20
-48.2407014516844
30
0
41
1
10
78.2686127181097
20
-48.254375599661
30
0
41
1
10
78.259209704467
20
-48.2621405398416
30
0
41
1
10
78.2495
20
-48.2705960321683
30
0
0
SPLINE
5
18E
100
AcDbEntity
8
1
62
256
6
ByLayer
370
18
48
1
60
0
100
AcDbSpline
70
4
71
3
72
24
73
20
40
0
40
0
40
0
40
0
40
0.0624999999999956
40
0.0624999999999956
40
0.124999999999991
40
0.124999999999991
40
0.187499999999987
40
0.187499999999987
40
0.249999999999982
40
0.249999999999982
40
0.374999999999982
40
0.374999999999982
40
0.499999999999983
40
0.499999999999983
40
0.624999999999983
40
0.624999999999983
40
0.749999999999983
40
0.749999999999983
40
1
40
1
40
1
40
1
41
1
10
77.6055
20
-17.0294943984708
30
0
41
1
10
77.5972284375665
20
-17.0223877988284
30
0
41
1
10
77.5889144198408
20
-17.0162719109842
30
0
41
1
10
77.5721570837898
20
-17.0070715853606
30
0
41
1
10
77.563911018039
20
-17.0042156554368
30
0
41
1
10
77.549332527511
20
-17.0033920731269
30
0
41
1
10
77.5430585144056
20
-17.0054301712965
30
0
41
1
10
77.5331756087365
20
-17.0133356668113
30
0
41
1
10
77.529511798149
20
-17.0191422398316
30
0
41
1
10
77.5216186437243
20
-17.0393604131235
30
0
41
1
10
77.520184061725
20
-17.0566050378507
30
0
41
1
10
77.5209199022983
20
-17.0922651521361
30
0
41
1
10
77.5231238534934
20
-17.1111262221467
30
0
41
1
10
77.5298133073727
20
-17.1501457144761
30
0
41
1
10
77.5343587101987
20
-17.170369393193
30
0
41
1
10
77.5449466014965
20
-17.210706135251
30
0
41
1
10
77.5510225071257
20
-17.2309839148792
30
0
41
1
10
77.5711758684454
20
-17.2920888535027
30
0
41
1
10
77.5871256147204
20
-17.3331811865359
30
0
41
1
10
77.6055
20
-17.3746066817426
30
0
0
SPLINE
5
18F
100
AcDbEntity
8
1
62
256
6
ByLayer
370
18
48
1
60
0
100
AcDbSpline
70
4
71
3
72
8
73
4
40
0
40
0
40
0
40
0
40
1
40
1
40
1
40
1
41
1
10
78.2495
20
-10.9502404649646
30
0
41
1
10
78.0352478964824
20
-10.742074303259
30
0
41
1
10
77.8205696375729
20
-10.5344957057249
30
0
41
1
10
77.6055
20
-10.32745672375
30
0
0
SPLINE
5
190
100
AcDbEntity
8
1
62
256
6
ByLayer
370
18
48
1
60
0
100
AcDbSpline
70
4
71
3
72
8
73
4
40
0
40
0
40
0
40
0
40
1
40
1
40
1
40
1
41
1
10
78.2495
20
-11.345039113022
30
0
41
1
10
78.0350473703234
20
-11.1521797464467
30
0
41
1
10
77.8203746839424
20
-10.9596475052904
30
0
41
1
10
77.6055
20
-10.767415543724
30
0
0
SPLINE
5
191
100
AcDbEntity
8
1
62
256
6
ByLayer
370
18
48
1
60
0
100
AcDbSpline
70
4
71
3
72
8
73
4
40
0
40
0
40
0
40
0
40
1
40
1
40
1
40
1
41
1
10
78.2495
20
-44.3919878841886
30
0
41
1
10
78.0394393316015
20
-44.7758958248991
30
0
41
1
10
77.8246182466614
20
-45.1562223165521
30
0
41
1
10
77.6055
20
-45.5333158840139
30
0
0
SPLINE
5
192
100
AcDbEntity
8
1
62
256
6
ByLayer
370
18
48
1
60
0
100
AcDbSpline
70
4
71
3
72
22
73
18
40
0
40
0
40
0
40
0
40
0.250000000000002
40
0.250000000000002
40
0.375000000000004
40
0.375000000000004
40
0.500000000000007
40
0.500000000000007
40
0.625000000000009
40
0.625000000000009
40
0.750000000000012
40
0.750000000000012
40
0.81250000000001
40
0.81250000000001
40
0.875000000000009
40
0.875000000000009
40
1
40
1
40
1
40
1
41
1
10
13.3556624327026
20
-15.5133461831291
30
0
41
1
10
13.3713369564231
20
-15.4563493271806
30
0
41
1
10
13.390077598984
20
-15.400478236028
30
0
41
1
10
13.4243626893197
20
-15.3189628763402
30
0
41
1
10
13.4368304265989
20
-15.2921769035833
30
0
41
1
10
13.4643647610191
20
-15.2395749166917
30
0
41
1
10
13.4795039101531
20
-15.2136380572667
30
0
41
1
10
13.5128381301467
20
-15.1637170876447
30
0
41
1
10
13.5309752406441
20
-15.1397658465101
30
0
41
1
10
13.5713129451647
20
-15.0946616463793
30
0
41
1
10
13.5933776739338
20
-15.0736965092103
30
0
41
1
10
13.6296411811592
20
-15.0463962702363
30
0
41
1
10
13.6422911889142
20
-15.0379598317317
30
0
41
1
10
13.6689911442514
20
-15.0227407547073
30
0
41
1
10
13.6830575395868
20
-15.0159811428424
30
0
41
1
10
13.7262200642961
20
-14.9994509315928
30
0
41
1
10
13.7572518777783
20
-14.9931545155676
30
0
41
1
10
13.7886751345949
20
-14.9931545155676
30
0
0
SPLINE
5
193
100
AcDbEntity
8
1
62
256
6
ByLayer
370
18
48
1
60
0
100
AcDbSpline
70
4
71
3
72
14
73
10
40
0
40
0
40
0
40
0
40
0.25
40
0.25
40
0.5
40
0.5
40
0.75
40
0.75
40
1
40
1
40
1
40
1
41
1
10
78.3245
20
-48.6056268367876
30
0
41
1
10
78.3245
20
-48.6027236160964
30
0
41
1
10
78.3225179945146
20
-48.6018009379686
30
0
41
1
10
78.3145530102954
20
-48.6042057169859
30
0
41
1
10
78.3087143087579
20
-48.6074938193305
30
0
41
1
10
78.2945271501969
20
-48.6172106493221
30
0
41
1
10
78.2862785502885
20
-48.6235597234353
30
0
41
1
10
78.2685178816954
20
-48.6381579323393
30
0
41
1
10
78.2591829382417
20
-48.646252925044
30
0
41
1
10
78.2495
20
-48.654960886978
30
0
0
SPLINE
5
194
100
AcDbEntity
8
1
62
256
6
ByLayer
370
18
48
1
60
0
100
AcDbSpline
70
4
71
3
72
24
73
20
40
0
40
0
40
0
40
0
40
0.249999999999986
40
0.249999999999986
40
0.374999999999981
40
0.374999999999981
40
0.499999999999976
40
0.499999999999976
40
0.624999999999971
40
0.624999999999971
40
0.687499999999975
40
0.687499999999975
40
0.74999999999998
40
0.74999999999998
40
0.812499999999984
40
0.812499999999984
40
0.874999999999988
40
0.874999999999988
40
1
40
1
40
1
40
1
41
1
10
77.6055
20
-48.7363442052146
30
0
41
1
10
77.584933659893
20
-48.7618849236291
30
0
41
1
10
77.5662642298246
20
-48.7868862910127
30
0
41
1
10
77.5437667697861
20
-48.8209469214415
30
0
41
1
10
77.5370921639869
20
-48.8318990550104
30
0
41
1
10
77.5267461011529
20
-48.8513838063828
30
0
41
1
10
77.5229510871462
20
-48.8601468439844
30
0
41
1
10
77.5197443444474
20
-48.8737149412441
30
0
41
1
10
77.5203964193229
20
-48.8785001258787
30
0
41
1
10
77.5254777593788
20
-48.8812221123845
30
0
41
1
10
77.5278883759314
20
-48.8813989058139
30
0
41
1
10
77.5338383866355
20
-48.8802752371658
30
0
41
1
10
77.5373848683436
20
-48.8789999511004
30
0
41
1
10
77.545559270928
20
-48.8751024509132
30
0
41
1
10
77.5501882859263
20
-48.8724678743436
30
0
41
1
10
77.559992242756
20
-48.866232942027
30
0
41
1
10
77.565218656667
20
-48.8626093330226
30
0
41
1
10
77.5817540202294
20
-48.8504066896326
30
0
41
1
10
77.5934479686377
20
-48.8408583968401
30
0
41
1
10
77.6055
20
-48.8304003628102
30
0
0
SPLINE
5
195
100
AcDbEntity
8
1
62
256
6
ByLayer
370
18
48
1
60
0
100
AcDbSpline
70
4
71
3
72
8
73
4
40
0
40
0
40
0
40
0
40
1
40
1
40
1
40
1
41
1
10
78.2495
20
-47.9264544727241
30
0
41
1
10
78.036344592726
20
-48.1980199940686
30
0
41
1
10
77.8216327980189
20
-48.46793539229
30
0
41
1
10
77.6055
20
-48.7363442052146
30
0
0
SPLINE
5
196
100
AcDbEntity
8
1
62
256
6
ByLayer
370
18
48
1
60
0
100
AcDbSpline
70
4
71
3
72
20
73
16
40
0
40
0
40
0
40
0
40
0.0624999999999984
40
0.0624999999999984
40
0.124999999999997
40
0.124999999999997
40
0.249999999999993
40
0.249999999999993
40
0.37499999999999
40
0.37499999999999
40
0.499999999999987
40
0.499999999999987
40
0.749999999999993
40
0.749999999999993
40
1
40
1
40
1
40
1
41
1
10
18.2113248654052
20
-14.9931545155677
30
0
41
1
10
18.2270595596557
20
-14.9931545155677
30
0
41
1
10
18.2425066022337
20
-14.9946812225928
30
0
41
1
10
18.2728766057232
20
-15.000515943556
30
0
41
1
10
18.287919556458
20
-15.004874270465
30
0
41
1
10
18.3314372006435
20
-15.0215159830932
30
0
41
1
10
18.3578281265269
20
-15.0369693753061
30
0
41
1
10
18.4069581904134
20
-15.0739427918914
30
0
41
1
10
18.4288334491966
20
-15.0948242086537
30
0
41
1
10
18.4688968105682
20
-15.1396239099504
30
0
41
1
10
18.4871717979809
20
-15.163731773153
30
0
41
1
10
18.537147530955
20
-15.2385754420443
30
0
41
1
10
18.5639668420203
20
-15.2912821270175
30
0
41
1
10
18.6097706080255
20
-15.4000512474234
30
0
41
1
10
18.6286574316481
20
-15.4563289206725
30
0
41
1
10
18.6443375672973
20
-15.513346183129
30
0
0
SPLINE
5
197
100
AcDbEntity
8
1
62
256
6
ByLayer
370
18
48
1
60
0
100
AcDbSpline
70
4
71
3
72
8
73
4
40
0
40
0
40
0
40
0
40
1
40
1
40
1
40
1
41
1
10
77.6055
20
-41.019332489549
30
0
41
1
10
77.8207399691693
20
-40.8185783823277
30
0
41
1
10
78.035436607666
20
-40.6170527580397
30
0
41
1
10
78.2495
20
-40.4146279387559
30
0
0
SPLINE
5
198
100
AcDbEntity
8
1
62
256
6
ByLayer
370
18
48
1
60
0
100
AcDbSpline
70
4
71
3
72
28
73
24
40
0
40
0
40
0
40
0
40
0.0312500000000058
40
0.0312500000000058
40
0.0625000000000115
40
0.0625000000000115
40
0.0937500000000173
40
0.0937500000000173
40
0.125000000000023
40
0.125000000000023
40
0.156250000000029
40
0.156250000000029
40
0.187500000000035
40
0.187500000000035
40
0.250000000000036
40
0.250000000000036
40
0.37500000000003
40
0.37500000000003
40
0.500000000000025
40
0.500000000000025
40
0.750000000000012
40
0.750000000000012
40
1
40
1
40
1
40
1
41
1
10
77.6055000000003
20
-21.6263889825734
30
0
41
1
10
77.6000047373562
20
-21.6202124672452
30
0
41
1
10
77.5942117994271
20
-21.6145599958008
30
0
41
1
10
77.5821363315484
20
-21.6055341940094
30
0
41
1
10
77.5757647756299
20
-21.6021487506622
30
0
41
1
10
77.5633172962781
20
-21.5997050240736
30
0
41
1
10
77.5575147722731
20
-21.6008035164607
30
0
41
1
10
77.547823371798
20
-21.6065996511628
30
0
41
1
10
77.5438090778881
20
-21.6112237386539
30
0
41
1
10
77.5372371666876
20
-21.6220360446773
30
0
41
1
10
77.5346132394581
20
-21.6282887228811
30
0
41
1
10
77.5303085729235
20
-21.6413924526943
30
0
41
1
10
77.5286038692419
20
-21.6483044981494
30
0
41
1
10
77.5243703523158
20
-21.6697534445502
30
0
41
1
10
77.5227222129098
20
-21.6849923179451
30
0
41
1
10
77.5197634773029
20
-21.7307954450406
30
0
41
1
10
77.5202942584136
20
-21.7621364789292
30
0
41
1
10
77.5236192209956
20
-21.8255803937684
30
0
41
1
10
77.5265141599264
20
-21.8577144462019
30
0
41
1
10
77.5376441464779
20
-21.9549646568479
30
0
41
1
10
77.5483373226414
20
-22.0211219470013
30
0
41
1
10
77.5737839041931
20
-22.1530812106464
30
0
41
1
10
77.5886061523185
20
-22.2191358769628
30
0
41
1
10
77.6055
20
-22.2852601775018
30
0
0
SPLINE
5
199
100
AcDbEntity
8
1
62
256
6
ByLayer
370
18
48
1
60
0
100
AcDbSpline
70
4
71
3
72
8
73
4
40
0
40
0
40
0
40
0
40
1
40
1
40
1
40
1
41
1
10
77.6055
20
-11.2636557947854
30
0
41
1
10
77.8216327980189
20
-11.53206460771
30
0
41
1
10
78.036344592726
20
-11.8019800059314
30
0
41
1
10
78.2495
20
-12.0735455272759
30
0
0
SPLINE
5
19A
100
AcDbEntity
8
1
62
256
6
ByLayer
370
18
48
1
60
0
100
AcDbSpline
70
4
71
3
72
12
73
8
40
0
40
0
40
0
40
0
40
0.500000000000007
40
0.500000000000007
40
0.750000000000004
40
0.750000000000004
40
1
40
1
40
1
40
1
41
1
10
78.2495
20
-47.3075317791603
30
0
41
1
10
78.269569104578
20
-47.2800446718393
30
0
41
1
10
78.2870379816785
20
-47.253389227797
30
0
41
1
10
78.3077415968535
20
-47.2153783121061
30
0
41
1
10
78.3134913399264
20
-47.2034216639815
30
0
41
1
10
78.321898093649
20
-47.1814239866425
30
0
41
1
10
78.3245000000031
20
-47.1714323312695
30
0
41
1
10
78.3245000000033
20
-47.1637626739603
30
0
0
SPLINE
5
19B
100
AcDbEntity
8
1
62
256
6
ByLayer
370
18
48
1
60
0
100
AcDbSpline
70
4
71
3
72
8
73
4
40
0
40
0
40
0
40
0
40
1
40
1
40
1
40
1
41
1
10
78.2495
20
-19.5853720612441
30
0
41
1
10
78.035436607666
20
-19.3829472419603
30
0
41
1
10
77.8207399691693
20
-19.1814216176723
30
0
41
1
10
77.6055
20
-18.980667510451
30
0
0
SPLINE
5
19C
100
AcDbEntity
8
1
62
256
6
ByLayer
370
18
48
1
60
0
100
AcDbSpline
70
4
71
3
72
14
73
10
40
0
40
0
40
0
40
0
40
0.25
40
0.25
40
0.5
40
0.5
40
0.75
40
0.75
40
1
40
1
40
1
40
1
41
1
10
78.3245
20
-48.8539790198802
30
0
41
1
10
78.3245
20
-48.852185749926
30
0
41
1
10
78.3223878094291
20
-48.8524939229067
30
0
41
1
10
78.3143250205302
20
-48.8571560020603
30
0
41
1
10
78.3084139015723
20
-48.8614855289318
30
0
41
1
10
78.2943158035337
20
-48.8728206174963
30
0
41
1
10
78.2860834716846
20
-48.879854510313
30
0
41
1
10
78.2684766460953
20
-48.8954524968059
30
0
41
1
10
78.2591819648806
20
-48.9039388280576
30
0
41
1
10
78.2495
20
-48.9129704705177
30
0
0
SPLINE
5
19D
100
AcDbEntity
8
1
62
256
6
ByLayer
370
18
48
1
60
0
100
AcDbSpline
70
4
71
3
72
8
73
4
40
0
40
0
40
0
40
0
40
1
40
1
40
1
40
1
41
1
10
78.2495
20
-45.5703702247132
30
0
41
1
10
78.0382071317381
20
-45.9155530145199
30
0
41
1
10
77.8234311235556
20
-46.2578238253877
30
0
41
1
10
77.6055
20
-46.5974568928041
30
0
0
SPLINE
5
19E
100
AcDbEntity
8
1
62
256
6
ByLayer
370
18
48
1
60
0
100
AcDbSpline
70
4
71
3
72
22
73
18
40
0
40
0
40
0
40
0
40
0.250000000000014
40
0.250000000000014
40
0.500000000000027
40
0.500000000000027
40
0.625000000000034
40
0.625000000000034
40
0.687500000000038
40
0.687500000000038
40
0.750000000000042
40
0.750000000000042
40
0.875000000000008
40
0.875000000000008
40
0.937500000000004
40
0.937500000000004
40
1
40
1
40
1
40
1
41
1
10
77.6055
20
-47.4690368442115
30
0
41
1
10
77.5855915537273
20
-47.4975280653221
30
0
41
1
10
77.5676956760301
20
-47.5258635508601
30
0
41
1
10
77.5386672707895
20
-47.5791828628332
30
0
41
1
10
77.5270549522047
20
-47.6049237622155
30
0
41
1
10
77.5201581473621
20
-47.6357460390406
30
0
41
1
10
77.5196999481555
20
-47.6445659272814
30
0
41
1
10
77.5232122879929
20
-47.6538000958583
30
0
41
1
10
77.5250723321223
20
-47.6561404219928
30
0
41
1
10
77.5302755446604
20
-47.6590961389691
30
0
41
1
10
77.5336738502519
20
-47.6596962012999
30
0
41
1
10
77.5456268441332
20
-47.6587096977065
30
0
41
1
10
77.5563272950884
20
-47.654265132238
30
0
41
1
10
77.5739236789625
20
-47.6437607679609
30
0
41
1
10
77.5801432038352
20
-47.6395811173997
30
0
41
1
10
77.5926860165345
20
-47.630425455486
30
0
41
1
10
77.5990533120789
20
-47.6254275627389
30
0
41
1
10
77.6055
20
-47.6200829661947
30
0
0
SPLINE
5
19F
100
AcDbEntity
8
1
62
256
6
ByLayer
370
18
48
1
60
0
100
AcDbSpline
70
4
71
3
72
30
73
26
40
0
40
0
40
0
40
0
40
0.0624999999999113
40
0.0624999999999113
40
0.0937499999998743
40
0.0937499999998743
40
0.10937499999986
40
0.10937499999986
40
0.124999999999847
40
0.124999999999847
40
0.140624999999833
40
0.140624999999833
40
0.156249999999819
40
0.156249999999819
40
0.187499999999817
40
0.187499999999817
40
0.249999999999822
40
0.249999999999822
40
0.374999999999851
40
0.374999999999851
40
0.49999999999988
40
0.49999999999988
40
0.74999999999994
40
0.74999999999994
40
1
40
1
40
1
40
1
41
1
10
78.2495
20
-28.1082541252261
30
0
41
1
10
78.2525852516023
20
-28.1214910722552
30
0
41
1
10
78.2558995972791
20
-28.1346182257026
30
0
41
1
10
78.2619053807287
20
-28.1538213010457
30
0
41
1
10
78.2640836821846
20
-28.1601808999315
30
0
41
1
10
78.2679839014834
20
-28.1692840260994
30
0
41
1
10
78.2693797552488
20
-28.1722238214335
30
0
41
1
10
78.2725811609239
20
-28.1776997586861
30
0
41
1
10
78.2743975026897
20
-28.1803170350199
30
0
41
1
10
78.2788481387301
20
-28.1838021896583
30
0
41
1
10
78.281541189178
20
-28.1841882859119
30
0
41
1
10
78.2859464023778
20
-28.1815140432865
30
0
41
1
10
78.2876661329156
20
-28.1789999362856
30
0
41
1
10
78.2919637677122
20
-28.170987311344
30
0
41
1
10
78.293902185556
20
-28.1647090817133
30
0
41
1
10
78.2989931063469
20
-28.145683248254
30
0
41
1
10
78.3012688288375
20
-28.1323851258872
30
0
41
1
10
78.3072342190547
20
-28.0922682042206
30
0
41
1
10
78.3098351252204
20
-28.0650470224747
30
0
41
1
10
78.3142149381814
20
-28.0105564627222
30
0
41
1
10
78.3159006901463
20
-27.9832123559603
30
0
41
1
10
78.3201218686793
20
-27.901029450456
30
0
41
1
10
78.3218227272853
20
-27.84602940069
30
0
41
1
10
78.3240293491824
20
-27.7359017215396
30
0
41
1
10
78.3245000000045
20
-27.6807849115827
30
0
41
1
10
78.3245000000045
20
-27.6256367028835
30
0
0
SPLINE
5
1A0
100
AcDbEntity
8
1
62
256
6
ByLayer
370
18
48
1
60
0
100
AcDbSpline
70
4
71
3
72
20
73
16
40
0
40
0
40
0
40
0
40
0.249999999999984
40
0.249999999999984
40
0.499999999999969
40
0.499999999999969
40
0.624999999999963
40
0.624999999999963
40
0.749999999999958
40
0.749999999999958
40
0.812499999999956
40
0.812499999999956
40
0.874999999999953
40
0.874999999999953
40
1
40
1
40
1
40
1
41
1
10
77.6055
20
-44.2334897125276
30
0
41
1
10
77.5866517826199
20
-44.2700357334336
30
0
41
1
10
77.5700039298075
20
-44.3067132975129
30
0
41
1
10
77.5423540195795
20
-44.3786299644915
30
0
41
1
10
77.531260620271
20
-44.4137052273499
30
0
41
1
10
77.5219459700353
20
-44.463435638372
30
0
41
1
10
77.520163421698
20
-44.4791290996216
30
0
41
1
10
77.520937540741
20
-44.5076437025055
30
0
41
1
10
77.5235318896775
20
-44.520413368311
30
0
41
1
10
77.5333610563208
20
-44.5329477804308
30
0
41
1
10
77.53766255767
20
-44.5359341976593
30
0
41
1
10
77.548184540343
20
-44.538597526839
30
0
41
1
10
77.5543955213244
20
-44.5382783252421
30
0
41
1
10
77.5749730316655
20
-44.5324844686063
30
0
41
1
10
77.5904547654825
20
-44.5225299905646
30
0
41
1
10
77.6055
20
-44.5100772776503
30
0
0
SPLINE
5
1A1
100
AcDbEntity
8
1
62
256
6
ByLayer
370
18
48
1
60
0
100
AcDbSpline
70
4
71
3
72
20
73
16
40
0
40
0
40
0
40
0
40
0.0624999999999927
40
0.0624999999999927
40
0.124999999999985
40
0.124999999999985
40
0.249999999999984
40
0.249999999999984
40
0.374999999999982
40
0.374999999999982
40
0.499999999999981
40
0.499999999999981
40
0.74999999999999
40
0.74999999999999
40
1
40
1
40
1
40
1
41
1
10
18.2113248654052
20
47.6991123363141
30
0
41
1
10
18.2270595596557
20
47.6991123363141
30
0
41
1
10
18.2425066022337
20
47.6986325211244
30
0
41
1
10
18.2728766057232
20
47.6967979090794
30
0
41
1
10
18.287919556458
20
47.6954272645439
30
0
41
1
10
18.3314372006435
20
47.6901896918971
30
0
41
1
10
18.3578281265269
20
47.685321932856
30
0
41
1
10
18.4069581904135
20
47.6736470656567
30
0
41
1
10
18.4288334491966
20
47.6670413844209
30
0
41
1
10
18.4688968105682
20
47.6528313964607
30
0
41
1
10
18.4871717979809
20
47.6451668522797
30
0
41
1
10
18.537147530955
20
47.6213036484293
30
0
41
1
10
18.5639668420203
20
47.6044110998707
30
0
41
1
10
18.6097706080255
20
47.5693355727224
30
0
41
1
10
18.6286574316482
20
47.5510829903643
30
0
41
1
10
18.6443375672973
20
47.5324740593459
30
0
0
SPLINE
5
1A2
100
AcDbEntity
8
1
62
256
6
ByLayer
370
18
48
1
60
0
100
AcDbSpline
70
4
71
3
72
14
73
10
40
0
40
0
40
0
40
0
40
0.25
40
0.25
40
0.5
40
0.5
40
0.75
40
0.75
40
1
40
1
40
1
40
1
41
1
10
78.3245
20
-12.2013603262542
30
0
41
1
10
78.3245
20
-12.1953322397301
30
0
41
1
10
78.3219585951293
20
-12.1870961587975
30
0
41
1
10
78.3134505048299
20
-12.1679080101475
30
0
41
1
10
78.3076457024703
20
-12.1573024905909
30
0
41
1
10
78.2938160716918
20
-12.1346413200585
30
0
41
1
10
78.2858454453667
20
-12.1227081731906
30
0
41
1
10
78.2686722258868
20
-12.0985198400734
30
0
41
1
10
78.2593984893985
20
-12.0861564596863
30
0
41
1
10
78.2495
20
-12.0735455272759
30
0
0
SPLINE
5
1A3
100
AcDbEntity
8
1
62
256
6
ByLayer
370
18
48
1
60
0
100
AcDbSpline
70
4
71
3
72
8
73
4
40
0
40
0
40
0
40
0
40
1
40
1
40
1
40
1
41
1
10
77.6055
20
-10.5337743748784
30
0
41
1
10
77.8210594377484
20
-10.7722540418052
30
0
41
1
10
78.0357525342202
20
-11.0117688572673
30
0
41
1
10
78.2495
20
-11.2524135602831
30
0
0
SPLINE
5
1A4
100
AcDbEntity
8
1
62
256
6
ByLayer
370
18
48
1
60
0
100
AcDbSpline
70
4
71
3
72
14
73
10
40
0
40
0
40
0
40
0
40
0.25
40
0.25
40
0.5
40
0.5
40
0.75
40
0.75
40
1
40
1
40
1
40
1
41
1
10
78.2495
20
-49.0679370847154
30
0
41
1
10
78.2592112781079
20
-49.0580695895894
30
0
41
1
10
78.2684631746828
20
-49.0486275483861
30
0
41
1
10
78.2858574791356
20
-49.0307635373025
30
0
41
1
10
78.2940253176557
20
-49.0223134800282
30
0
41
1
10
78.3079744336769
20
-49.0077038595556
30
0
41
1
10
78.3139402091291
20
-49.0013494349122
30
0
41
1
10
78.3221868277214
20
-48.9922305495165
30
0
41
1
10
78.3245
20
-48.9894242585628
30
0
41
1
10
78.3245
20
-48.988914520495
30
0
0
SPLINE
5
1A5
100
AcDbEntity
8
1
62
256
6
ByLayer
370
18
48
1
60
0
100
AcDbSpline
70
4
71
3
72
8
73
4
40
0
40
0
40
0
40
0
40
1
40
1
40
1
40
1
41
1
10
77.6055
20
-48.2968754376164
30
0
41
1
10
77.8202447540081
20
-48.11526338816
30
0
41
1
10
78.0349138148107
20
-47.9335319303368
30
0
41
1
10
78.2495
20
-47.7516701480928
30
0
0
SPLINE
5
1A6
100
AcDbEntity
8
1
62
256
6
ByLayer
370
18
48
1
60
0
100
AcDbSpline
70
4
71
3
72
8
73
4
40
0
40
0
40
0
40
0
40
1
40
1
40
1
40
1
41
1
10
77.6055
20
-14.4666841159861
30
0
41
1
10
77.8246182466614
20
-14.8437776834479
30
0
41
1
10
78.0394393316015
20
-15.2241041751009
30
0
41
1
10
78.2495
20
-15.6080121158114
30
0
0
SPLINE
5
1A7
100
AcDbEntity
8
1
62
256
6
ByLayer
370
18
48
1
60
0
100
AcDbSpline
70
4
71
3
72
18
73
14
40
0
40
0
40
0
40
0
40
0.249968095797898
40
0.249968095797898
40
0.499936191595796
40
0.499936191595796
40
0.749904287393694
40
0.749904287393694
40
0.874888335292643
40
0.874888335292643
40
0.999872383191593
40
0.999872383191593
40
1
40
1
40
1
40
1
41
1
10
77.6055
20
-49.7184503955052
30
0
41
1
10
77.5944736150805
20
-49.729524619015
30
0
41
1
10
77.5838033692869
20
-49.7402505448279
30
0
41
1
10
77.5640834313706
20
-49.760087248044
30
0
41
1
10
77.5550149215231
20
-49.769216810136
30
0
41
1
10
77.5389994683375
20
-49.7853486325378
30
0
41
1
10
77.5323266018195
20
-49.7920748098037
30
0
41
1
10
77.5253343264305
20
-49.7991246202076
30
0
41
1
10
77.5235363040347
20
-49.8009378239267
30
0
41
1
10
77.5211007379348
20
-49.8033940774065
30
0
41
1
10
77.5204830212339
20
-49.8040171245136
30
0
41
1
10
77.5204996970215
20
-49.8040003055793
30
0
41
1
10
77.5205004011702
20
-49.803999595386
30
0
41
1
10
77.5205011053155
20
-49.8039988851892
30
0
0
SPLINE
5
1A8
100
AcDbEntity
8
1
62
256
6
ByLayer
370
18
48
1
60
0
100
AcDbSpline
70
4
71
3
72
34
73
30
40
0
40
0
40
0
40
0
40
0.0156249999999972
40
0.0156249999999972
40
0.0234374999999983
40
0.0234374999999983
40
0.0312499999999996
40
0.0312499999999996
40
0.0390625000000008
40
0.0390625000000008
40
0.046875000000002
40
0.046875000000002
40
0.0625000000000007
40
0.0625000000000007
40
0.0937500000000033
40
0.0937500000000033
40
0.125000000000006
40
0.125000000000006
40
0.187500000000007
40
0.187500000000007
40
0.250000000000008
40
0.250000000000008
40
0.375000000000008
40
0.375000000000008
40
0.500000000000009
40
0.500000000000009
40
0.750000000000004
40
0.750000000000004
40
1
40
1
40
1
40
1
41
1
10
77.6055
20
-26.2172715631318
30
0
41
1
10
77.6007705655568
20
-26.2065871628281
30
0
41
1
10
77.5955490543377
20
-26.1960610500279
30
0
41
1
10
77.5859003902771
20
-26.182524928492
30
0
41
1
10
77.5823183437861
20
-26.1783447337083
30
0
41
1
10
77.5743140468774
20
-26.1726276704239
30
0
41
1
10
77.5697160151604
20
-26.1713777210139
30
0
41
1
10
77.561718660099
20
-26.1738690460983
30
0
41
1
10
77.558300967182
20
-26.1772671912261
30
0
41
1
10
77.552786193003
20
-26.1852864462018
30
0
41
1
10
77.5506031074559
20
-26.1898810173064
30
0
41
1
10
77.5448209116843
20
-26.2044489589588
30
0
41
1
10
77.5420279700429
20
-26.2151900689566
30
0
41
1
10
77.5349886696623
20
-26.2479339123722
30
0
41
1
10
77.532125846609
20
-26.2704042107768
30
0
41
1
10
77.5275463608367
20
-26.3154089989462
30
0
41
1
10
77.5259366758227
20
-26.338072276509
30
0
41
1
10
77.5221879375995
20
-26.4063294679924
30
0
41
1
10
77.5211237145157
20
-26.4521895103413
30
0
41
1
10
77.5202775475736
20
-26.5442641224426
30
0
41
1
10
77.5205447726049
20
-26.5904897220065
30
0
41
1
10
77.5225656456907
20
-26.7295405936359
30
0
41
1
10
77.5255202243384
20
-26.8228069402559
30
0
41
1
10
77.5328352228856
20
-27.0093013332648
30
0
41
1
10
77.5372388978757
20
-27.1026177608747
30
0
41
1
10
77.5515416895533
20
-27.3827458203287
30
0
41
1
10
77.5625016305453
20
-27.5697353900864
30
0
41
1
10
77.5843793089832
20
-27.9441185583183
30
0
41
1
10
77.5953521388834
20
-28.1315419630809
30
0
41
1
10
77.6055
20
-28.3190664579142
30
0
0
SPLINE
5
1A9
100
AcDbEntity
8
1
62
256
6
ByLayer
370
18
48
1
60
0
100
AcDbSpline
70
4
71
3
72
14
73
10
40
0
40
0
40
0
40
0
40
0.25
40
0.25
40
0.5
40
0.5
40
0.75
40
0.75
40
1
40
1
40
1
40
1
41
1
10
78.3245
20
-45.2365834598287
30
0
41
1
10
78.3245
20
-45.2280574715485
30
0
41
1
10
78.3232265794518
20
-45.2206332405457
30
0
41
1
10
78.31687672309
20
-45.2094874469187
30
0
41
1
10
78.3116771773874
20
-45.2060071462588
30
0
41
1
10
78.2976317133279
20
-45.2051536604223
30
0
41
1
10
78.2887191089604
20
-45.2077937103421
30
0
41
1
10
78.2697156290151
20
-45.217628287636
30
0
41
1
10
78.2595363211322
20
-45.2247616701736
30
0
41
1
10
78.2495
20
-45.2329620912906
30
0
0
SPLINE
5
1AA
100
AcDbEntity
8
1
62
256
6
ByLayer
370
18
48
1
60
0
100
AcDbSpline
70
4
71
3
72
8
73
4
40
0
40
0
40
0
40
0
40
1
40
1
40
1
40
1
41
1
10
77.6055
20
-10.3499207878424
30
0
41
1
10
77.8208603034311
20
-10.5764594645991
30
0
41
1
10
78.0355472223686
20
-10.8038456685342
30
0
41
1
10
78.2495
20
-11.0321558686639
30
0
0
SPLINE
5
1AB
100
AcDbEntity
8
1
62
256
6
ByLayer
370
18
48
1
60
0
100
AcDbSpline
70
4
71
3
72
8
73
4
40
0
40
0
40
0
40
0
40
1
40
1
40
1
40
1
41
1
10
78.2495
20
-16.0232247012873
30
0
41
1
10
78.0348720691877
20
-15.8453950231448
30
0
41
1
10
77.8202039791954
20
-15.6676299565815
30
0
41
1
10
77.6055
20
-15.4899227223501
30
0
0
SPLINE
5
1AC
100
AcDbEntity
8
1
62
256
6
ByLayer
370
18
48
1
60
0
100
AcDbSpline
70
4
71
3
72
22
73
18
40
0
40
0
40
0
40
0
40
0.125000000000004
40
0.125000000000004
40
0.250000000000008
40
0.250000000000008
40
0.312500000000015
40
0.312500000000015
40
0.375000000000022
40
0.375000000000022
40
0.500000000000021
40
0.500000000000021
40
0.62500000000002
40
0.62500000000002
40
0.750000000000018
40
0.750000000000018
40
1
40
1
40
1
40
1
41
1
10
77.6055
20
-12.3799170338054
30
0
41
1
10
77.5925334988623
20
-12.3691672165319
30
0
41
1
10
77.5797531930942
20
-12.3597135532684
30
0
41
1
10
77.5562544517051
20
-12.345697083847
30
0
41
1
10
77.5454908274749
20
-12.3412312565384
30
0
41
1
10
77.5334892269528
20
-12.3403132325797
30
0
41
1
10
77.530205563054
20
-12.3409233451046
30
0
41
1
10
77.5250177333854
20
-12.3439113541651
30
0
41
1
10
77.5231561197148
20
-12.346302548087
30
0
41
1
10
77.519717166478
20
-12.3554807411439
30
0
41
1
10
77.5201814178571
20
-12.3644166555543
30
0
41
1
10
77.5247925885223
20
-12.3849061180631
30
0
41
1
10
77.528964218601
20
-12.3966847266311
30
0
41
1
10
77.5395772269019
20
-12.4213753571691
30
0
41
1
10
77.546127538049
20
-12.4345487294795
30
0
41
1
10
77.5681084752691
20
-12.4748358672891
30
0
41
1
10
77.5856544550338
20
-12.5025619535075
30
0
41
1
10
77.6055
20
-12.5309631557885
30
0
0
SPLINE
5
1AD
100
AcDbEntity
8
1
62
256
6
ByLayer
370
18
48
1
60
0
100
AcDbSpline
70
4
71
3
72
8
73
4
40
0
40
0
40
0
40
0
40
1
40
1
40
1
40
1
41
1
10
77.6055
20
-48.8304003628101
30
0
41
1
10
77.8203025465448
20
-48.6440075237985
30
0
41
1
10
78.0349733553288
20
-48.4574120577276
30
0
41
1
10
78.2495
20
-48.2705960321683
30
0
0
SPLINE
5
1AE
100
AcDbEntity
8
1
62
256
6
ByLayer
370
18
48
1
60
0
100
AcDbSpline
70
4
71
3
72
20
73
16
40
0
40
0
40
0
40
0
40
0.0625
40
0.0625
40
0.125
40
0.125
40
0.25
40
0.25
40
0.375
40
0.375
40
0.5
40
0.5
40
0.75
40
0.75
40
1
40
1
40
1
40
1
41
1
10
13.7886751345949
20
14.9931545155676
30
0
41
1
10
13.7729404403443
20
14.9931545155676
30
0
41
1
10
13.7574933977663
20
14.9946812225928
30
0
41
1
10
13.7271233942768
20
15.000515943556
30
0
41
1
10
13.712080443542
20
15.0048742704649
30
0
41
1
10
13.6685627993565
20
15.0215159830932
30
0
41
1
10
13.642171873473
20
15.0369693753061
30
0
41
1
10
13.5930418095865
20
15.0739427918914
30
0
41
1
10
13.5711665508033
20
15.0948242086537
30
0
41
1
10
13.5311031894318
20
15.1396239099503
30
0
41
1
10
13.512828202019
20
15.163731773153
30
0
41
1
10
13.4628524690449
20
15.2385754420443
30
0
41
1
10
13.4360331579796
20
15.2912821270175
30
0
41
1
10
13.3902293919744
20
15.4000512474235
30
0
41
1
10
13.3713425683518
20
15.4563289206726
30
0
41
1
10
13.3556624327026
20
15.5133461831291
30
0
0
SPLINE
5
1AF
100
AcDbEntity
8
1
62
256
6
ByLayer
370
18
48
1
60
0
100
AcDbSpline
70
4
71
3
72
8
73
4
40
0
40
0
40
0
40
0
40
1
40
1
40
1
40
1
41
1
10
77.6055
20
-10.8364338618249
30
0
41
1
10
77.8213104962892
20
-11.0887148386651
30
0
41
1
10
78.036011628907
20
-11.3422480215236
30
0
41
1
10
78.2495
20
-11.5971501218248
30
0
0
SPLINE
5
1B0
100
AcDbEntity
8
1
62
256
6
ByLayer
370
18
48
1
60
0
100
AcDbSpline
70
4
71
3
72
14
73
10
40
0
40
0
40
0
40
0
40
0.25
40
0.25
40
0.5
40
0.5
40
0.75
40
0.75
40
1
40
1
40
1
40
1
41
1
10
78.3245000000001
20
-46.2467427634162
30
0
41
1
10
78.3245000000001
20
-46.2394710002288
30
0
41
1
10
78.3230505526095
20
-46.2333911075695
30
0
41
1
10
78.3162559492657
20
-46.2254590605736
30
0
41
1
10
78.3108018796897
20
-46.2237332697389
30
0
41
1
10
78.2967025470418
20
-46.225613605279
30
0
41
1
10
78.2879424393728
20
-46.2292077635721
30
0
41
1
10
78.2693274731261
20
-46.2400317807445
30
0
41
1
10
78.2594058159219
20
-46.2472257349727
30
0
41
1
10
78.2495
20
-46.2553382123749
30
0
0
SPLINE
5
1B1
100
AcDbEntity
8
1
62
256
6
ByLayer
370
18
48
1
60
0
100
AcDbSpline
70
4
71
3
72
20
73
16
40
0
40
0
40
0
40
0
40
0.250000000000021
40
0.250000000000021
40
0.375000000000017
40
0.375000000000017
40
0.500000000000014
40
0.500000000000014
40
0.62500000000001
40
0.62500000000001
40
0.750000000000007
40
0.750000000000007
40
0.875000000000003
40
0.875000000000003
40
1
40
1
40
1
40
1
41
1
10
78.3245000000103
20
-40.4758747057858
30
0
41
1
10
78.3245000000108
20
-40.4622480685126
30
0
41
1
10
78.3237200066662
20
-40.4489518311855
30
0
41
1
10
78.3205608214897
20
-40.4305545407479
30
0
41
1
10
78.3191774382012
20
-40.4247046537611
30
0
41
1
10
78.3154601805354
20
-40.4138219207665
30
0
41
1
10
78.3130942942823
20
-40.4087403605803
30
0
41
1
10
78.3071073011926
20
-40.4003169334066
30
0
41
1
10
78.3033938502503
20
-40.39688473922
30
0
41
1
10
78.294518318095
20
-40.3929059165864
30
0
41
1
10
78.2892737818143
20
-40.3923980908058
30
0
41
1
10
78.2781480202123
20
-40.3946418601521
30
0
41
1
10
78.2722402591585
20
-40.3973541368364
30
0
41
1
10
78.2607361074498
20
-40.4047199434934
30
0
41
1
10
78.2549952414778
20
-40.4094314721799
30
0
41
1
10
78.2494999999997
20
-40.4146279387546
30
0
0
SPLINE
5
1B2
100
AcDbEntity
8
1
62
256
6
ByLayer
370
18
48
1
60
0
100
AcDbSpline
70
4
71
3
72
8
73
4
40
0
40
0
40
0
40
0
40
1
40
1
40
1
40
1
41
1
10
77.6055
20
-49.67254327625
30
0
41
1
10
77.8205696375729
20
-49.4655042942751
30
0
41
1
10
78.0352478964824
20
-49.257925696741
30
0
41
1
10
78.2495
20
-49.0497595350354
30
0
0
SPLINE
5
1B3
100
AcDbEntity
8
1
62
256
6
ByLayer
370
18
48
1
60
0
100
AcDbSpline
70
4
71
3
72
8
73
4
40
0
40
0
40
0
40
0
40
1
40
1
40
1
40
1
41
1
10
77.6055
20
-13.4025431071959
30
0
41
1
10
77.8234311235556
20
-13.7421761746124
30
0
41
1
10
78.0382071317381
20
-14.0844469854801
30
0
41
1
10
78.2495
20
-14.4296297752868
30
0
0
SPLINE
5
1B4
100
AcDbEntity
8
1
62
256
6
ByLayer
370
18
48
1
60
0
100
AcDbSpline
70
4
71
3
72
22
73
18
40
0
40
0
40
0
40
0
40
0.249999999999964
40
0.249999999999964
40
0.374999999999947
40
0.374999999999947
40
0.499999999999931
40
0.499999999999931
40
0.624999999999915
40
0.624999999999915
40
0.687499999999915
40
0.687499999999915
40
0.749999999999915
40
0.749999999999915
40
0.874999999999957
40
0.874999999999957
40
1
40
1
40
1
40
1
41
1
10
77.6055
20
-49.1635661381751
30
0
41
1
10
77.5846180024195
20
-49.1879770488517
30
0
41
1
10
77.5655071796185
20
-49.2117045234637
30
0
41
1
10
77.5426899901217
20
-49.2431162129388
30
0
41
1
10
77.5359677807996
20
-49.2530413976178
30
0
41
1
10
77.5257886985559
20
-49.2700761212655
30
0
41
1
10
77.5222094422121
20
-49.2774045374631
30
0
41
1
10
77.5197505065652
20
-49.2875719003495
30
0
41
1
10
77.520917187491
20
-49.290403795087
30
0
41
1
10
77.5266132401732
20
-49.2903641595357
30
0
41
1
10
77.5291885835889
20
-49.2896418406777
30
0
41
1
10
77.5353678257384
20
-49.2869190401382
30
0
41
1
10
77.5389962843699
20
-49.2849212703509
30
0
41
1
10
77.5513547524627
20
-49.2771657902722
30
0
41
1
10
77.561088840106
20
-49.2699596696235
30
0
41
1
10
77.5824853917302
20
-49.2527621693601
30
0
41
1
10
77.593773139625
20
-49.2430755822269
30
0
41
1
10
77.6055
20
-49.232584456276
30
0
0
SPLINE
5
1B5
100
AcDbEntity
8
1
62
256
6
ByLayer
370
18
48
1
60
0
100
AcDbSpline
70
4
71
3
72
26
73
22
40
0
40
0
40
0
40
0
40
0.124999999999994
40
0.124999999999994
40
0.249999999999988
40
0.249999999999988
40
0.374999999999981
40
0.374999999999981
40
0.499999999999975
40
0.499999999999975
40
0.624999999999969
40
0.624999999999969
40
0.687499999999963
40
0.687499999999963
40
0.749999999999958
40
0.749999999999958
40
0.812499999999953
40
0.812499999999953
40
0.874999999999947
40
0.874999999999947
40
1
40
1
40
1
40
1
41
1
10
77.6055
20
-45.5333158840139
30
0
41
1
10
77.5958918484873
20
-45.5498511209733
30
0
41
1
10
77.5868679239032
20
-45.5663315893323
30
0
41
1
10
77.5700189601487
20
-45.5991763737715
30
0
41
1
10
77.5621623485242
20
-45.6156164989991
30
0
41
1
10
77.5480821720497
20
-45.6477765695351
30
0
41
1
10
77.5418265485992
20
-45.663540203776
30
0
41
1
10
77.5312482185149
20
-45.694288246005
30
0
41
1
10
77.526880540947
20
-45.7094347697568
30
0
41
1
10
77.5211849625344
20
-45.7376553641792
30
0
41
1
10
77.5197883614776
20
-45.7508866646789
30
0
41
1
10
77.5213761954244
20
-45.7677676580937
30
0
41
1
10
77.5225190456038
20
-45.7728014149721
30
0
41
1
10
77.5264023723427
20
-45.7813297714474
30
0
41
1
10
77.5291736513424
20
-45.7847936570812
30
0
41
1
10
77.5364537580243
20
-45.789331006793
30
0
41
1
10
77.541055609124
20
-45.7904205302319
30
0
41
1
10
77.5515714596233
20
-45.7899479027122
30
0
41
1
10
77.557659690864
20
-45.7883850305746
30
0
41
1
10
77.5769898352368
20
-45.7803707613262
30
0
41
1
10
77.5913559887425
20
-45.770701760591
30
0
41
1
10
77.6055
20
-45.7591455874819
30
0
0
SPLINE
5
1B6
100
AcDbEntity
8
1
62
256
6
ByLayer
370
18
48
1
60
0
100
AcDbSpline
70
4
71
3
72
12
73
8
40
0
40
0
40
0
40
0
40
0.25
40
0.25
40
0.500000000000001
40
0.500000000000001
40
1
40
1
40
1
40
1
41
1
10
78.3245
20
-26.3644844417638
30
0
41
1
10
78.3245
20
-26.2867467550408
30
0
41
1
10
78.322321213052
20
-26.2088663958686
30
0
41
1
10
78.3151576284525
20
-26.0529744504625
30
0
41
1
10
78.3101186540553
20
-25.9749574446007
30
0
41
1
10
78.2911229373505
20
-25.7407402906232
30
0
41
1
10
78.2734535414259
20
-25.5842173601945
30
0
41
1
10
78.2495000000001
20
-25.4282541021385
30
0
0
SPLINE
5
1B7
100
AcDbEntity
8
1
62
256
6
ByLayer
370
18
48
1
60
0
100
AcDbSpline
70
4
71
3
72
8
73
4
40
0
40
0
40
0
40
0
40
1
40
1
40
1
40
1
41
1
10
78.2495
20
-12.2483298519072
30
0
41
1
10
78.0349138148107
20
-12.0664680696632
30
0
41
1
10
77.8202447540081
20
-11.88473661184
30
0
41
1
10
77.6055
20
-11.7031245623836
30
0
0
SPLINE
5
1B8
100
AcDbEntity
8
1
62
256
6
ByLayer
370
18
48
1
60
0
100
AcDbSpline
70
4
71
3
72
12
73
8
40
0
40
0
40
0
40
0
40
0.25
40
0.25
40
0.5
40
0.5
40
1
40
1
40
1
40
1
41
1
10
78.3245
20
-19.2245360383141
30
0
41
1
10
78.3245
20
-19.2000908801441
30
0
41
1
10
78.3218179813059
20
-19.1742490541158
30
0
41
1
10
78.3135624753292
20
-19.1217491157686
30
0
41
1
10
78.3079815642766
20
-19.0953578037066
30
0
41
1
10
78.2881010272376
20
-19.0158888047449
30
0
41
1
10
78.2707624125431
20
-18.9625276326161
30
0
41
1
10
78.2495000000004
20
-18.9087832990866
30
0
0
SPLINE
5
1B9
100
AcDbEntity
8
1
62
256
6
ByLayer
370
18
48
1
60
0
100
AcDbSpline
70
4
71
3
72
14
73
10
40
0
40
0
40
0
40
0
40
0.25
40
0.25
40
0.5
40
0.5
40
0.75
40
0.75
40
1
40
1
40
1
40
1
41
1
10
78.2495000000009
20
-10.9502404649653
30
0
41
1
10
78.2592507620438
20
-10.9597142515693
30
0
41
1
10
78.2685315644711
20
-10.9686592484064
30
0
41
1
10
78.2859568314169
20
-10.9852796854633
30
0
41
1
10
78.2941812361887
20
-10.9930278816421
30
0
41
1
10
78.308177764175
20
-11.0059592008485
30
0
41
1
10
78.3141301132091
20
-11.0113066626555
30
0
41
1
10
78.3222743165323
20
-11.0181783944685
30
0
41
1
10
78.3245
20
-11.0197244328572
30
0
41
1
10
78.3245
20
-11.0190701024851
30
0
0
SPLINE
5
1BA
100
AcDbEntity
8
1
62
256
6
ByLayer
370
18
48
1
60
0
100
AcDbSpline
70
4
71
3
72
16
73
12
40
0
40
0
40
0
40
0
40
0.249999999999984
40
0.249999999999984
40
0.499999999999968
40
0.499999999999968
40
0.625000000000008
40
0.625000000000008
40
0.750000000000047
40
0.750000000000047
40
1
40
1
40
1
40
1
41
1
10
78.3245000000002
20
-43.9946525728947
30
0
41
1
10
78.3245000000002
20
-43.984793931125
30
0
41
1
10
78.3233647003519
20
-43.9757224015114
30
0
41
1
10
78.3176184398475
20
-43.9610733983107
30
0
41
1
10
78.3128322576153
20
-43.9554349467433
30
0
41
1
10
78.3023862346089
20
-43.9521189582845
30
0
41
1
10
78.2984597623733
20
-43.9518627336725
30
0
41
1
10
78.2897035298767
20
-43.9530805456519
30
0
41
1
10
78.2849092874381
20
-43.9545789497624
30
0
41
1
10
78.2702584567929
20
-43.9611060017641
30
0
41
1
10
78.2597292289702
20
-43.9682998850581
30
0
41
1
10
78.2495
20
-43.9767752987124
30
0
0
SPLINE
5
1BB
100
AcDbEntity
8
1
62
256
6
ByLayer
370
18
48
1
60
0
100
AcDbSpline
70
4
71
3
72
16
73
12
40
0
40
0
40
0
40
0
40
0.244870256098586
40
0.244870256098586
40
0.489740512197172
40
0.489740512197172
40
0.734610768295758
40
0.734610768295758
40
0.979481024394344
40
0.979481024394344
40
1
40
1
40
1
40
1
41
1
10
77.6055
20
-49.6500792121576
30
0
41
1
10
77.5946454997647
20
-49.6614971201053
30
0
41
1
10
77.5843093311552
20
-49.6724989869337
30
0
41
1
10
77.5650555070299
20
-49.6932971537009
30
0
41
1
10
77.5559904860575
20
-49.7032556166844
30
0
41
1
10
77.5402922665504
20
-49.7209485260459
30
0
41
1
10
77.5335960738649
20
-49.7287511946129
30
0
41
1
10
77.5238589844054
20
-49.740889765792
30
0
41
1
10
77.5209274233516
20
-49.7451121254574
30
0
41
1
10
77.5205123631195
20
-49.7469103574364
30
0
41
1
10
77.5204985695313
20
-49.7470311500933
30
0
41
1
10
77.5205028397931
20
-49.7471338530942
30
0
0
SPLINE
5
1BC
100
AcDbEntity
8
1
62
256
6
ByLayer
370
18
48
1
60
0
100
AcDbSpline
70
4
71
3
72
14
73
10
40
0
40
0
40
0
40
0
40
0.13756376378998
40
0.13756376378998
40
0.42504250919332
40
0.42504250919332
40
0.71252125459666
40
0.71252125459666
40
1
40
1
40
1
40
1
41
1
10
77.5220149595531
20
-49.7472840728834
30
0
41
1
10
77.5230805660173
20
-49.7468148993604
30
0
41
1
10
77.524695456824
20
-49.7457814913058
30
0
41
1
10
77.5312478930886
20
-49.7409318597074
30
0
41
1
10
77.5379815917346
20
-49.7352591146847
30
0
41
1
10
77.5540464393891
20
-49.721005839838
30
0
41
1
10
77.5635576945821
20
-49.7122726293566
30
0
41
1
10
77.5836466284833
20
-49.6934639928731
30
0
41
1
10
77.5943179210633
20
-49.6833078186817
30
0
41
1
10
77.6055
20
-49.67254327625
30
0
0
SPLINE
5
1BD
100
AcDbEntity
8
1
62
256
6
ByLayer
370
18
48
1
60
0
100
AcDbSpline
70
4
71
3
72
22
73
18
40
0
40
0
40
0
40
0
40
0.25000000000011
40
0.25000000000011
40
0.31250000000011
40
0.31250000000011
40
0.375000000000111
40
0.375000000000111
40
0.500000000000089
40
0.500000000000089
40
0.625000000000067
40
0.625000000000067
40
0.750000000000044
40
0.750000000000044
40
0.875000000000022
40
0.875000000000022
40
1
40
1
40
1
40
1
41
1
10
77.6055
20
-10.4884487569066
30
0
41
1
10
77.582537997433
20
-10.4671809377271
30
0
41
1
10
77.5607535476664
20
-10.4480345879925
30
0
41
1
10
77.5404048884699
20
-10.4325443294121
30
0
41
1
10
77.5367592237662
20
-10.4299330945807
30
0
41
1
10
77.5304144574532
20
-10.425799590963
30
0
41
1
10
77.5277190447527
20
-10.4242876639171
30
0
41
1
10
77.521544858164
20
-10.4217431918902
30
0
41
1
10
77.5198761092045
20
-10.4226991889066
30
0
41
1
10
77.521565633523
20
-10.4294980753424
30
0
41
1
10
77.5248695785995
20
-10.4353240861628
30
0
41
1
10
77.5348644937965
20
-10.4499477313857
30
0
41
1
10
77.5416097334609
20
-10.4588451478429
30
0
41
1
10
77.5570551246182
20
-10.478130603773
30
0
41
1
10
77.5659412283818
20
-10.4887527167451
30
0
41
1
10
77.5848489615513
20
-10.5106896828474
30
0
41
1
10
77.5949114395793
20
-10.5220599429391
30
0
41
1
10
77.6055
20
-10.5337743748784
30
0
0
SPLINE
5
1BE
100
AcDbEntity
8
1
62
256
6
ByLayer
370
18
48
1
60
0
100
AcDbSpline
70
4
71
3
72
14
73
10
40
0
40
0
40
0
40
0
40
0.25
40
0.25
40
0.5
40
0.5
40
0.75
40
0.75
40
1
40
1
40
1
40
1
41
1
10
78.2495
20
-13.7446617876252
30
0
41
1
10
78.2593988680458
20
-13.7527685749874
30
0
41
1
10
78.2692232297387
20
-13.7599038896518
30
0
41
1
10
78.2879744187915
20
-13.7708145325144
30
0
41
1
10
78.2967314342812
20
-13.7743989352547
30
0
41
1
10
78.3108522464072
20
-13.7762647104302
30
0
41
1
10
78.3162924651551
20
-13.7745008894557
30
0
41
1
10
78.3230201101131
20
-13.7666418499696
30
0
41
1
10
78.3245000000003
20
-13.7605194007575
30
0
41
1
10
78.3245000000004
20
-13.7532572365841
30
0
0
SPLINE
5
1BF
100
AcDbEntity
8
1
62
256
6
ByLayer
370
18
48
1
60
0
100
AcDbSpline
70
4
71
3
72
20
73
16
40
0
40
0
40
0
40
0
40
0.249999999999985
40
0.249999999999985
40
0.374999999999988
40
0.374999999999988
40
0.49999999999999
40
0.49999999999999
40
0.624999999999993
40
0.624999999999993
40
0.749999999999995
40
0.749999999999995
40
0.874999999999998
40
0.874999999999998
40
1
40
1
40
1
40
1
41
1
10
77.6055
20
-49.4662256251216
30
0
41
1
10
77.5842527177492
20
-49.4897321106051
30
0
41
1
10
77.5647591784121
20
-49.512245602338
30
0
41
1
10
77.541538810157
20
-49.5412455910611
30
0
41
1
10
77.5348191531313
20
-49.5501143780702
30
0
41
1
10
77.5248488902685
20
-49.5647104400402
30
0
41
1
10
77.52154227505
20
-49.5705386140865
30
0
41
1
10
77.5198797900557
20
-49.5773439817586
30
0
41
1
10
77.5215268512072
20
-49.5782810305198
30
0
41
1
10
77.5299273542161
20
-49.5747851907473
30
0
41
1
10
77.5364749055013
20
-49.5704541370686
30
0
41
1
10
77.5527289309235
20
-49.5580671841505
30
0
41
1
10
77.5623212415122
20
-49.5501066098877
30
0
41
1
10
77.5830767110618
20
-49.5320647148509
30
0
41
1
10
77.5940553495815
20
-49.5221514838591
30
0
41
1
10
77.6055
20
-49.5115512430934
30
0
0
SPLINE
5
1C0
100
AcDbEntity
8
1
62
256
6
ByLayer
370
18
48
1
60
0
100
AcDbSpline
70
4
71
3
72
8
73
4
40
0
40
0
40
0
40
0
40
1
40
1
40
1
40
1
41
1
10
77.6055
20
-47.6200829661946
30
0
41
1
10
77.8202009468254
20
-47.4420861479081
30
0
41
1
10
78.0348686848346
20
-47.2640359061465
30
0
41
1
10
78.2495
20
-47.0859271543189
30
0
0
SPLINE
5
1C1
100
AcDbEntity
8
1
62
256
6
ByLayer
370
18
48
1
60
0
100
AcDbSpline
70
4
71
3
72
22
73
18
40
0
40
0
40
0
40
0
40
0.124999999999949
40
0.124999999999949
40
0.187499999999951
40
0.187499999999951
40
0.249999999999952
40
0.249999999999952
40
0.312499999999954
40
0.312499999999954
40
0.374999999999955
40
0.374999999999955
40
0.499999999999961
40
0.499999999999961
40
0.74999999999998
40
0.74999999999998
40
1
40
1
40
1
40
1
41
1
10
77.6055
20
-13.2173006732674
30
0
41
1
10
77.5919745228994
20
-13.20622589337
30
0
41
1
10
77.5785728919488
20
-13.1967648108494
30
0
41
1
10
77.5600728324478
20
-13.1872600968489
30
0
41
1
10
77.5542464597728
20
-13.1849293908652
30
0
41
1
10
77.5437822549354
20
-13.1823447978221
30
0
41
1
10
77.5390803570253
20
-13.1821014005036
30
0
41
1
10
77.5314043088806
20
-13.1837435019825
30
0
41
1
10
77.5283069146797
20
-13.185623074293
30
0
41
1
10
77.5236849638678
20
-13.1912101524412
30
0
41
1
10
77.5221857379061
20
-13.1948345170598
30
0
41
1
10
77.5196474365467
20
-13.207719035371
30
0
41
1
10
77.5206044294397
20
-13.2186986943916
30
0
41
1
10
77.5284300061337
20
-13.2551152128611
30
0
41
1
10
77.5400814481017
20
-13.2838525658726
30
0
41
1
10
77.5688013884063
20
-13.3422372925631
30
0
41
1
10
77.5859730146255
20
-13.3721114284529
30
0
41
1
10
77.6055
20
-13.4025431071959
30
0
0
SPLINE
5
1C2
100
AcDbEntity
8
1
62
256
6
ByLayer
370
18
48
1
60
0
100
AcDbSpline
70
4
71
3
72
8
73
4
40
0
40
0
40
0
40
0
40
1
40
1
40
1
40
1
41
1
10
77.6055
20
-12.5309631557885
30
0
41
1
10
77.8226281001308
20
-12.8416978372098
30
0
41
1
10
78.0373746492063
20
-13.154610422449
30
0
41
1
10
78.2495
20
-13.4699200664171
30
0
0
SPLINE
5
1C3
100
AcDbEntity
8
1
62
256
6
ByLayer
370
18
48
1
60
0
100
AcDbSpline
70
4
71
3
72
12
73
8
40
0
40
0
40
0
40
0
40
0.499999999999955
40
0.499999999999955
40
0.749999999999977
40
0.749999999999977
40
1
40
1
40
1
40
1
41
1
10
78.2495
20
-48.4028498781752
30
0
41
1
10
78.2692137713122
20
-48.3793119136173
30
0
41
1
10
78.2870761228951
20
-48.3563670284796
30
0
41
1
10
78.3077117374033
20
-48.3260475722174
30
0
41
1
10
78.3136263405846
20
-48.3165008078665
30
0
41
1
10
78.3220024813361
20
-48.3002470594535
30
0
41
1
10
78.3245000000003
20
-48.293440494456
30
0
41
1
10
78.3245000000003
20
-48.2890240128755
30
0
0
SPLINE
5
1C4
100
AcDbEntity
8
1
62
256
6
ByLayer
370
18
48
1
60
0
100
AcDbSpline
70
4
71
3
72
14
73
10
40
0
40
0
40
0
40
0
40
0.25
40
0.25
40
0.5
40
0.5
40
0.75
40
0.75
40
1
40
1
40
1
40
1
41
1
10
78.3245
20
-11.7109759871243
30
0
41
1
10
78.3245
20
-11.7065081264787
30
0
41
1
10
78.3219923463416
20
-11.699718895235
30
0
41
1
10
78.313542185526
20
-11.6833504309367
30
0
41
1
10
78.3076717384724
20
-11.673886482343
30
0
41
1
10
78.2938197835888
20
-11.6535485515586
30
0
41
1
10
78.285784157645
20
-11.6426092194204
30
0
41
1
10
78.2685852242045
20
-11.6203433392446
30
0
41
1
10
78.2593328298394
20
-11.6088903817984
30
0
41
1
10
78.2495
20
-11.5971501218248
30
0
0
SPLINE
5
1C5
100
AcDbEntity
8
1
62
256
6
ByLayer
370
18
48
1
60
0
100
AcDbSpline
70
4
71
3
72
8
73
4
40
0
40
0
40
0
40
0
40
1
40
1
40
1
40
1
41
1
10
77.6055
20
-10.2815496044948
30
0
41
1
10
77.8207000524708
20
-10.4976833144796
30
0
41
1
10
78.0353821421022
20
-10.7145007266891
30
0
41
1
10
78.2495
20
-10.9320629152846
30
0
0
SPLINE
5
1C6
100
AcDbEntity
8
1
62
256
6
ByLayer
370
18
48
1
60
0
100
AcDbSpline
70
4
71
3
72
20
73
16
40
0
40
0
40
0
40
0
40
0.124999999999975
40
0.124999999999975
40
0.187499999999962
40
0.187499999999962
40
0.249999999999948
40
0.249999999999948
40
0.374999999999951
40
0.374999999999951
40
0.499999999999955
40
0.499999999999955
40
0.749999999999978
40
0.749999999999978
40
1
40
1
40
1
40
1
41
1
10
77.6055
20
-14.2408544125184
30
0
41
1
10
77.5912412099917
20
-14.2292044609833
30
0
41
1
10
77.5768820097358
20
-14.2195468270417
30
0
41
1
10
77.5574184338992
20
-14.211534229743
30
0
41
1
10
77.55141786387
20
-14.2100080323283
30
0
41
1
10
77.540736957698
20
-14.2096039864884
30
0
41
1
10
77.536294750605
20
-14.210721596723
30
0
41
1
10
77.5253975583987
20
-14.2176557605932
30
0
41
1
10
77.521806464736
20
-14.2270247386299
30
0
41
1
10
77.5198177849194
20
-14.2494556789879
30
0
41
1
10
77.5212007233628
20
-14.2624959491224
30
0
41
1
10
77.529841545333
20
-14.3050881849808
30
0
41
1
10
77.5413348811657
20
-14.3368960363949
30
0
41
1
10
77.5695088592519
20
-14.401077747024
30
0
41
1
10
77.5863155531056
20
-14.4336684651701
30
0
41
1
10
77.6055
20
-14.4666841159861
30
0
0
SPLINE
5
1C7
100
AcDbEntity
8
1
62
256
6
ByLayer
370
18
48
1
60
0
100
AcDbSpline
70
4
71
3
72
14
73
10
40
0
40
0
40
0
40
0
40
0.25
40
0.25
40
0.5
40
0.5
40
0.75
40
0.75
40
1
40
1
40
1
40
1
41
1
10
78.2495
20
-47.9264544727241
30
0
41
1
10
78.2594452716602
20
-47.9137839384981
30
0
41
1
10
78.2688578737818
20
-47.9012296925005
30
0
41
1
10
78.2860631262544
20
-47.8769739480124
30
0
41
1
10
78.2939188644348
20
-47.865200408821
30
0
41
1
10
78.3077301342475
20
-47.8425488566719
30
0
41
1
10
78.313549981919
20
-47.831883452387
30
0
41
1
10
78.3219388885768
20
-47.8129323227158
30
0
41
1
10
78.324500000001
20
-47.8045938255255
30
0
41
1
10
78.324500000001
20
-47.7986396737449
30
0
0
SPLINE
5
1C8
100
AcDbEntity
8
1
62
256
6
ByLayer
370
18
48
1
60
0
100
AcDbSpline
70
4
71
3
72
8
73
4
40
0
40
0
40
0
40
0
40
1
40
1
40
1
40
1
41
1
10
78.2495
20
-14.7670379087092
30
0
41
1
10
78.0348350239476
20
-14.5916406511373
30
0
41
1
10
77.8201683008329
20
-14.4162462444602
30
0
41
1
10
77.6055
20
-14.2408544125184
30
0
0
SPLINE
5
1C9
100
AcDbEntity
8
1
62
256
6
ByLayer
370
18
48
1
60
0
100
AcDbSpline
70
4
71
3
72
8
73
4
40
0
40
0
40
0
40
0
40
1
40
1
40
1
40
1
41
1
10
78.2495
20
-46.5300799335829
30
0
41
1
10
78.0373746492063
20
-46.845389577551
30
0
41
1
10
77.8226281001308
20
-47.1583021627902
30
0
41
1
10
77.6055
20
-47.4690368442115
30
0
0
SPLINE
5
1CA
100
AcDbEntity
8
1
62
256
6
ByLayer
370
18
48
1
60
0
100
AcDbSpline
70
4
71
3
72
10
73
6
40
0
40
0
40
0
40
0
40
0.5
40
0.5
40
1
40
1
40
1
40
1
41
1
10
78.2495
20
-28.1082541252261
30
0
41
1
10
78.1728000785054
20
-27.7791811908827
30
0
41
1
10
78.078711071859
20
-27.458003812289
30
0
41
1
10
77.8621250055218
20
-26.8285477996072
30
0
41
1
10
77.7396225398738
20
-26.5202716201068
30
0
41
1
10
77.6055000000008
20
-26.2172715631315
30
0
0
SPLINE
5
1CB
100
AcDbEntity
8
1
62
256
6
ByLayer
370
18
48
1
60
0
100
AcDbSpline
70
4
71
3
72
8
73
4
40
0
40
0
40
0
40
0
40
1
40
1
40
1
40
1
41
1
10
77.6055
20
-45.7591455874816
30
0
41
1
10
77.8201683008329
20
-45.5837537555398
30
0
41
1
10
78.0348350239476
20
-45.4083593488628
30
0
41
1
10
78.2495
20
-45.2329620912908
30
0
0
SPLINE
5
1CC
100
AcDbEntity
8
1
62
256
6
ByLayer
370
18
48
1
60
0
100
AcDbSpline
70
4
71
3
72
8
73
4
40
0
40
0
40
0
40
0
40
1
40
1
40
1
40
1
41
1
10
78.2495
20
-11.7294039678317
30
0
41
1
10
78.0349733553288
20
-11.5425879422724
30
0
41
1
10
77.8203025465448
20
-11.3559924762015
30
0
41
1
10
77.6055
20
-11.1695996371899
30
0
0
SPLINE
5
1CD
100
AcDbEntity
8
1
62
256
6
ByLayer
370
18
48
1
60
0
100
AcDbSpline
70
4
71
3
72
20
73
16
40
0
40
0
40
0
40
0
40
0.0625
40
0.0625
40
0.125
40
0.125
40
0.25
40
0.25
40
0.375
40
0.375
40
0.5
40
0.5
40
0.75
40
0.75
40
1
40
1
40
1
40
1
41
1
10
13.7886751345949
20
-47.6991123363141
30
0
41
1
10
13.7729404403443
20
-47.6991123363141
30
0
41
1
10
13.7574933977662
20
-47.6986325211244
30
0
41
1
10
13.7271233942768
20
-47.6967979090795
30
0
41
1
10
13.712080443542
20
-47.695427264544
30
0
41
1
10
13.6685627993565
20
-47.6901896918971
30
0
41
1
10
13.642171873473
20
-47.6853219328561
30
0
41
1
10
13.5930418095865
20
-47.6736470656568
30
0
41
1
10
13.5711665508033
20
-47.6670413844209
30
0
41
1
10
13.5311031894318
20
-47.6528313964607
30
0
41
1
10
13.512828202019
20
-47.6451668522797
30
0
41
1
10
13.4628524690449
20
-47.6213036484294
30
0
41
1
10
13.4360331579796
20
-47.6044110998707
30
0
41
1
10
13.3902293919744
20
-47.5693355727224
30
0
41
1
10
13.3713425683518
20
-47.5510829903643
30
0
41
1
10
13.3556624327026
20
-47.5324740593459
30
0
0
SPLINE
5
1CE
100
AcDbEntity
8
1
62
256
6
ByLayer
370
18
48
1
60
0
100
AcDbSpline
70
4
71
3
72
22
73
18
40
0
40
0
40
0
40
0
40
0.249999999999988
40
0.249999999999988
40
0.374999999999986
40
0.374999999999986
40
0.499999999999984
40
0.499999999999984
40
0.624999999999982
40
0.624999999999982
40
0.74999999999998
40
0.74999999999998
40
0.812499999999981
40
0.812499999999981
40
0.874999999999982
40
0.874999999999982
40
1
40
1
40
1
40
1
41
1
10
18.6443375672973
20
-47.532474059346
30
0
41
1
10
18.6286630435768
20
-47.5510763302182
30
0
41
1
10
18.6099224010159
20
-47.5691972862268
30
0
41
1
10
18.5756373106803
20
-47.5954849905103
30
0
41
1
10
18.563169573401
20
-47.6040973909195
30
0
41
1
10
18.5356352389809
20
-47.6209630227401
30
0
41
1
10
18.5204960898468
20
-47.6292547015453
30
0
41
1
10
18.4871618698533
20
-47.64517153341
30
0
41
1
10
18.4690247593558
20
-47.6527863810658
30
0
41
1
10
18.4286870548353
20
-47.6670929420702
30
0
41
1
10
18.4066223260662
20
-47.6737248158948
30
0
41
1
10
18.3703588188408
20
-47.6823452689502
30
0
41
1
10
18.3577088110857
20
-47.6850063201913
30
0
41
1
10
18.3310088557485
20
-47.6898031435895
30
0
41
1
10
18.3169424604131
20
-47.6919316413794
30
0
41
1
10
18.2737799357039
20
-47.6971341405705
30
0
41
1
10
18.2427481222217
20
-47.6991123363141
30
0
41
1
10
18.2113248654052
20
-47.6991123363141
30
0
0
SPLINE
5
1CF
100
AcDbEntity
8
1
62
256
6
ByLayer
370
18
48
1
60
0
100
AcDbSpline
70
4
71
3
72
8
73
4
40
0
40
0
40
0
40
0
40
1
40
1
40
1
40
1
41
1
10
78.2495
20
-22.3664170418656
30
0
41
1
10
78.0373665452931
20
-22.1168016967492
30
0
41
1
10
77.8225293003015
20
-21.8703236016766
30
0
41
1
10
77.6055
20
-21.6263889825738
30
0
0
SPLINE
5
1D0
100
AcDbEntity
8
1
62
256
6
ByLayer
370
18
48
1
60
0
100
AcDbSpline
70
4
71
3
72
14
73
10
40
0
40
0
40
0
40
0
40
0.249137035624518
40
0.249137035624518
40
0.499424690416345
40
0.499424690416345
40
0.749712345208173
40
0.749712345208173
40
1
40
1
40
1
40
1
41
1
10
77.5205010070974
20
-10.1960010157655
30
0
41
1
10
77.5205591996554
20
-10.1960597111716
30
0
41
1
10
77.5231782053204
20
-10.198701555533
30
0
41
1
10
77.5325099783761
20
-10.2081100358479
30
0
41
1
10
77.5392844828075
20
-10.2149385346611
30
0
41
1
10
77.5551493578736
20
-10.2309185190481
30
0
41
1
10
77.5644347870153
20
-10.2402663427367
30
0
41
1
10
77.5840916007173
20
-10.2600392334595
30
0
41
1
10
77.5945385189196
20
-10.270540566413
30
0
41
1
10
77.6055
20
-10.2815496044948
30
0
0
SPLINE
5
1D1
100
AcDbEntity
8
1
62
256
6
ByLayer
370
18
48
1
60
0
100
AcDbSpline
70
4
71
3
72
14
73
10
40
0
40
0
40
0
40
0
40
0.25
40
0.25
40
0.5
40
0.5
40
0.75
40
0.75
40
1
40
1
40
1
40
1
41
1
10
78.2495
20
-14.7670379087092
30
0
41
1
10
78.2595754747045
20
-14.775270321208
30
0
41
1
10
78.2696634917799
20
-14.7823423064437
30
0
41
1
10
78.2887340686952
20
-14.7922164509598
30
0
41
1
10
78.2976723684017
20
-14.7948639761652
30
0
41
1
10
78.3117771625899
20
-14.7939664696877
30
0
41
1
10
78.3169055323747
20
-14.7904626403018
30
0
41
1
10
78.3231989538685
20
-14.7794145943806
30
0
41
1
10
78.3245000000012
20
-14.771872191614
30
0
41
1
10
78.3245000000012
20
-14.7634165401722
30
0
0
SPLINE
5
1D2
100
AcDbEntity
8
1
62
256
6
ByLayer
370
18
48
1
60
0
100
AcDbSpline
70
4
71
3
72
14
73
10
40
0
40
0
40
0
40
0
40
0.25
40
0.25
40
0.5
40
0.5
40
0.75
40
0.75
40
1
40
1
40
1
40
1
41
1
10
78.3245000000001
20
-47.0663360248446
30
0
41
1
10
78.3245000000001
20
-47.0602063448816
30
0
41
1
10
78.3228790884289
20
-47.0554417118856
30
0
41
1
10
78.3157237685987
20
-47.050394459048
30
0
41
1
10
78.3101243352504
20
-47.0501458087765
30
0
41
1
10
78.2959401497
20
-47.0543147310199
30
0
41
1
10
78.2873637090464
20
-47.0586844662361
30
0
41
1
10
78.2690111551928
20
-47.0704653043413
30
0
41
1
10
78.259309512901
20
-47.0777868692096
30
0
41
1
10
78.2495
20
-47.0859271543189
30
0
0
SPLINE
5
1D3
100
AcDbEntity
8
1
62
256
6
ByLayer
370
18
48
1
60
0
100
AcDbSpline
70
4
71
3
72
14
73
10
40
0
40
0
40
0
40
0
40
0.25
40
0.25
40
0.5
40
0.5
40
0.75
40
0.75
40
1
40
1
40
1
40
1
41
1
10
78.2495
20
-16.0232247012876
30
0
41
1
10
78.259733022903
20
-16.0317032583999
30
0
41
1
10
78.2702346636054
20
-16.0388960300176
30
0
41
1
10
78.289965723692
20
-16.0476610019396
30
0
41
1
10
78.2990953847832
20
-16.0489747866461
30
0
41
1
10
78.3129021788601
20
-16.0444928250892
30
0
41
1
10
78.3176394355068
20
-16.0388985528491
30
0
41
1
10
78.3233787738377
20
-16.0242160891811
30
0
41
1
10
78.3245000000044
20
-16.0151363554393
30
0
41
1
10
78.3245000000043
20
-16.0053474271084
30
0
0
SPLINE
5
1D4
100
AcDbEntity
8
1
62
256
6
ByLayer
370
18
48
1
60
0
100
AcDbSpline
70
4
71
3
72
8
73
4
40
0
40
0
40
0
40
0
40
1
40
1
40
1
40
1
41
1
10
78.2495
20
-47.3075317791603
30
0
41
1
10
78.0367823196005
20
-47.5988748078191
30
0
41
1
10
77.8220560392467
20
-47.8882313992869
30
0
41
1
10
77.6055
20
-48.1757784213043
30
0
0
SPLINE
5
1D5
100
AcDbEntity
8
1
62
256
6
ByLayer
370
18
48
1
60
0
100
AcDbSpline
70
4
71
3
72
14
73
10
40
0
40
0
40
0
40
0
40
0.25
40
0.25
40
0.5
40
0.5
40
0.75
40
0.75
40
1
40
1
40
1
40
1
41
1
10
78.3245
20
-11.3536806728177
30
0
41
1
10
78.3245
20
-11.3506463235317
30
0
41
1
10
78.3220340114651
20
-11.3452061846968
30
0
41
1
10
78.3136941357516
20
-11.3314775930223
30
0
41
1
10
78.3077590882458
20
-11.3230597456578
30
0
41
1
10
78.2939317352527
20
-11.3048565262345
30
0
41
1
10
78.2858752775872
20
-11.2948484318885
30
0
41
1
10
78.2685537467018
20
-11.2741416453384
30
0
41
1
10
78.2592867142817
20
-11.2634318006314
30
0
41
1
10
78.2495
20
-11.2524135602831
30
0
0
SPLINE
5
1D6
100
AcDbEntity
8
1
62
256
6
ByLayer
370
18
48
1
60
0
100
AcDbSpline
70
4
71
3
72
14
73
10
40
0
40
0
40
0
40
0
40
0.25
40
0.25
40
0.5
40
0.5
40
0.75
40
0.75
40
1
40
1
40
1
40
1
41
1
10
78.2495
20
-12.9140728456811
30
0
41
1
10
78.259305222304
20
-12.9222095702993
30
0
41
1
10
78.2689416505081
20
-12.9294876433629
30
0
41
1
10
78.2873727965176
20
-12.9413237951783
30
0
41
1
10
78.2959647459641
20
-12.9456969908125
30
0
41
1
10
78.3101526926038
20
-12.9498580163745
30
0
41
1
10
78.3157692403823
20
-12.9495856651467
30
0
41
1
10
78.3228710110818
20
-12.94455172211
30
0
41
1
10
78.3245000000001
20
-12.9397892830819
30
0
41
1
10
78.3245000000001
20
-12.9336639751554
30
0
0
SPLINE
5
1D7
100
AcDbEntity
8
1
62
256
6
ByLayer
370
18
48
1
60
0
100
AcDbSpline
70
4
71
3
72
24
73
20
40
0
40
0
40
0
40
0
40
0.249999999999996
40
0.249999999999996
40
0.374999999999995
40
0.374999999999995
40
0.499999999999993
40
0.499999999999993
40
0.624999999999992
40
0.624999999999992
40
0.74999999999999
40
0.74999999999999
40
0.812499999999993
40
0.812499999999993
40
0.874999999999995
40
0.874999999999995
40
0.937499999999998
40
0.937499999999998
40
1
40
1
40
1
40
1
41
1
10
77.6055
20
-46.5974568928041
30
0
41
1
10
77.5859306350477
20
-46.627954617671
30
0
41
1
10
77.5684043776613
20
-46.6584924379041
30
0
41
1
10
77.546981041172
20
-46.7021612457542
30
0
41
1
10
77.5406367983317
20
-46.7163852039587
30
0
41
1
10
77.5300049616654
20
-46.7439749121277
30
0
41
1
10
77.5257550687406
20
-46.7572748958537
30
0
41
1
10
77.5206023010412
20
-46.7813697613153
30
0
41
1
10
77.5196580046164
20
-46.7924512939753
30
0
41
1
10
77.5230585867862
20
-46.8094781184495
30
0
41
1
10
77.5275718217048
20
-46.8154965617001
30
0
41
1
10
77.5392932037595
20
-46.8179133314042
30
0
41
1
10
77.5438737154884
20
-46.817642095108
30
0
41
1
10
77.5543259951702
20
-46.8150413247482
30
0
41
1
10
77.5602042505498
20
-46.8126777169457
30
0
41
1
10
77.5724281931627
20
-46.8063867311992
30
0
41
1
10
77.5789268310879
20
-46.8023930464153
30
0
41
1
10
77.5921113198276
20
-46.7932881819859
30
0
41
1
10
77.5987765869105
20
-46.7882045166475
30
0
41
1
10
77.6055
20
-46.7826993267327
30
0
0
SPLINE
5
1D8
100
AcDbEntity
8
1
62
256
6
ByLayer
370
18
48
1
60
0
100
AcDbSpline
70
4
71
3
72
12
73
8
40
0
40
0
40
0
40
0
40
0.5
40
0.5
40
0.75
40
0.75
40
1
40
1
40
1
40
1
41
1
10
78.2495000000001
20
-38.6144050421731
30
0
41
1
10
78.2712546187303
20
-38.5414192630682
30
0
41
1
10
78.2887186806718
20
-38.4683926299573
30
0
41
1
10
78.3085114899594
20
-38.3587664318822
30
0
41
1
10
78.3139715238253
20
-38.3223883770075
30
0
41
1
10
78.321917021225
20
-38.250524051501
30
0
41
1
10
78.3245
20
-38.2149528282923
30
0
41
1
10
78.3245
20
-38.1800854813312
30
0
0
SPLINE
5
1D9
100
AcDbEntity
8
1
62
256
6
ByLayer
370
18
48
1
60
0
100
AcDbSpline
70
4
71
3
72
8
73
4
40
0
40
0
40
0
40
0
40
1
40
1
40
1
40
1
41
1
10
77.6055
20
-11.8242215786957
30
0
41
1
10
77.8220560392467
20
-12.1117686007131
30
0
41
1
10
78.0367823196005
20
-12.4011251921809
30
0
41
1
10
78.2495
20
-12.6924682208397
30
0
0
SPLINE
5
1DA
100
AcDbEntity
8
1
62
256
6
ByLayer
370
18
48
1
60
0
100
AcDbSpline
70
4
71
3
72
107
73
103
40
0
40
0
40
0
40
0
40
0.0312500793789187
40
0.0312500793789187
40
0.0468751190683781
40
0.0468751190683781
40
0.0507813789907429
40
0.0507813789907429
40
0.0546876389131078
40
0.0546876389131078
40
0.0625001587578376
40
0.0625001587578376
40
0.0937502381367564
40
0.0937502381367564
40
0.125000317515675
40
0.125000317515675
40
0.156250396894594
40
0.156250396894594
40
0.164062916739324
40
0.167969176661689
40
0.167969176661689
40
0.171875436584053
40
0.171875436584053
40
0.187500476273513
40
0.187500476273513
40
0.218750555652431
40
0.218750555652431
40
0.25000063503135
40
0.25000063503135
40
0.281250714410268
40
0.281250714410268
40
0.289063234254998
40
0.289063234254998
40
0.296875754099727
40
0.296875754099727
40
0.312500793789187
40
0.312500793789187
40
0.343750873168105
40
0.343750873168105
40
0.375000952547023
40
0.375000952547023
40
0.406251031925942
40
0.406251031925942
40
0.414063551770671
40
0.414063551770671
40
0.421876071615401
40
0.421876071615401
40
0.43750111130486
40
0.43750111130486
40
0.468751190683779
40
0.468751190683779
40
0.500001270062697
40
0.500001270062697
40
0.515626309752156
40
0.515626309752156
40
0.523438829596886
40
0.52734508951925
40
0.52734508951925
40
0.531251349441615
40
0.531251349441615
40
0.562501428820533
40
0.562501428820533
40
0.593751508199451
40
0.593751508199451
40
0.62500158757837
40
0.62500158757837
40
0.640626627267829
40
0.640626627267829
40
0.648439147112558
40
0.648439147112558
40
0.656251666957288
40
0.656251666957288
40
0.687501746336206
40
0.687501746336206
40
0.718751825715124
40
0.718751825715124
40
0.750001905094042
40
0.750001905094042
40
0.765626944783501
40
0.765626944783501
40
0.769533204705866
40
0.769533204705866
40
0.773439464628231
40
0.78125198447296
40
0.78125198447296
40
0.812502063851878
40
0.812502063851878
40
0.843752143230796
40
0.843752143230796
40
0.875002222609713
40
0.875002222609713
40
0.882814742454442
40
0.882814742454442
40
0.890627262299172
40
0.890627262299172
40
0.906252301988631
40
0.906252301988631
40
0.937502381367548
40
0.937502381367548
40
0.968752460746466
40
0.968752460746466
40
1
40
1
40
1
40
1
41
1
10
45.960341719984
20
-47.61241393356
30
0
41
1
10
45.858913979265
20
-47.1638893681835
30
0
41
1
10
45.7473303777006
20
-46.6537027381348
30
0
41
1
10
45.5676512209329
20
-45.7945683927391
30
0
41
1
10
45.5056983755671
20
-45.4925246285986
30
0
41
1
10
45.425918813244
20
-45.0950634361791
30
0
41
1
10
45.4098457972721
20
-45.0145753730207
30
0
41
1
10
45.3774707563342
20
-44.8515974510293
30
0
41
1
10
45.3611638950239
20
-44.7690824488416
30
0
41
1
10
45.3120281560239
20
-44.5191369162857
30
0
41
1
10
45.2789471001631
20
-44.3491200608252
30
0
41
1
10
45.112052675091
20
-43.4822736656358
30
0
41
1
10
44.9738195408206
20
-42.7352608243601
30
0
41
1
10
44.6904304844364
20
-41.1368188902106
30
0
41
1
10
44.5452626094286
20
-40.2853835243483
30
0
41
1
10
44.2494911529402
20
-38.4782414566812
30
0
41
1
10
44.0988800219155
20
-37.5225384403786
30
0
41
1
10
43.9077094678188
20
-36.2613056286178
30
0
41
1
10
43.8501381261222
20
-35.8779311276596
30
0
41
1
10
43.7922443734509
20
-35.486980230739
30
0
41
1
10
43.7535775304615
20
-35.2246536648233
30
0
41
1
10
43.7342086016594
20
-35.092643020135
30
0
41
1
10
43.6374284211464
20
-34.4299917356213
30
0
41
1
10
43.5600197765095
20
-33.8902649407289
30
0
41
1
10
43.3279073703975
20
-32.242794790969
30
0
41
1
10
43.1733250857895
20
-31.10681577825
30
0
41
1
10
42.8645969317713
20
-28.7609591397938
30
0
41
1
10
42.7104482975789
20
-27.5510793260403
30
0
41
1
10
42.4024738934111
20
-25.0571336236694
30
0
41
1
10
42.2486469602987
20
-23.7730722436078
30
0
41
1
10
42.0563909825709
20
-22.1203642466228
30
0
41
1
10
42.0179401577063
20
-21.7874309743172
30
0
41
1
10
41.9410373146993
20
-21.1167642480245
30
0
41
1
10
41.902728952578
20
-20.7802837943914
30
0
41
1
10
41.7882193058737
20
-19.7674377355659
30
0
41
1
10
41.7124333746426
20
-19.0876691725364
30
0
41
1
10
41.4866303336008
20
-17.0349772852169
30
0
41
1
10
41.3381668017825
20
-15.6486931563089
30
0
41
1
10
41.0448450719537
20
-12.8410498360689
30
0
41
1
10
40.8999873000896
20
-11.4196901425748
30
0
41
1
10
40.6133717648877
20
-8.54165422596026
30
0
41
1
10
40.4716145688931
20
-7.08498070010415
30
0
41
1
10
40.2960507047321
20
-5.24139186446385
30
0
41
1
10
40.2610096004215
20
-4.87142278903951
30
0
41
1
10
40.1914325332578
20
-4.13291204918784
30
0
41
1
10
40.1568526889832
20
-3.76391170614699
30
0
41
1
10
40.0537192636187
20
-2.65766984121419
30
0
41
1
10
39.9857714440107
20
-1.92118710274869
30
0
41
1
10
39.7842050571574
20
0.285258761343272
30
0
41
1
10
39.6528591640487
20
1.75222524829258
30
0
41
1
10
39.3955712329545
20
4.67819813810442
30
0
41
1
10
39.2696302768214
20
6.13720465759838
30
0
41
1
10
39.0843751724611
20
8.31963173388846
30
0
41
1
10
39.0232337603076
20
9.04609219266689
30
0
41
1
10
38.9323946833094
20
10.1342321797429
30
0
41
1
10
38.8871934762132
20
10.6779143488778
30
0
41
1
10
38.8423124338045
20
11.2210081550132
30
0
41
1
10
38.8124621124159
20
11.5829391068376
30
0
41
1
10
38.7975662590927
20
11.7639107329312
30
0
41
1
10
38.664141696473
20
13.388097519654
30
0
41
1
10
38.5495535364731
20
14.8056970099165
30
0
41
1
10
38.3275881545234
20
17.5901939896765
30
0
41
1
10
38.2202127091138
20
18.9570877786512
30
0
41
1
10
38.0120828172657
20
21.6404886384842
30
0
41
1
10
37.9113293503498
20
22.9569966847213
30
0
41
1
10
37.7648544848768
20
24.8933276786009
30
0
41
1
10
37.7168067096173
20
25.5323569124912
30
0
41
1
10
37.6458730181664
20
26.4811108012068
30
0
41
1
10
37.6224181917484
20
26.795729799478
30
0
41
1
10
37.5758842824426
20
27.4216671678205
30
0
41
1
10
37.5528780242128
20
27.7320063748541
30
0
41
1
10
37.4392361478739
20
29.2690949379852
30
0
41
1
10
37.3526338829215
20
30.4537809488811
30
0
41
1
10
37.187368753244
20
32.7355392032502
30
0
41
1
10
37.1087073863992
20
33.8326063355345
30
0
41
1
10
36.9588843726397
20
35.9393766183117
30
0
41
1
10
36.8877233116395
20
36.9490827537414
30
0
41
1
10
36.7864325305607
20
38.3967700320233
30
0
41
1
10
36.7535789792832
20
38.8681708278201
30
0
41
1
10
36.7136432607803
20
39.4431983969744
30
0
41
1
10
36.7057077836195
20
39.5575634822371
30
0
41
1
10
36.6899819526805
20
39.784400954886
30
0
41
1
10
36.6666075490083
20
40.1218658484179
30
0
41
1
10
36.6438696259071
20
40.4510023281716
30
0
41
1
10
36.5694646741018
20
41.5297901169751
30
0
41
1
10
36.5143721556719
20
42.3342632210133
30
0
41
1
10
36.4125541732496
20
43.8287087616797
30
0
41
1
10
36.3658297366777
20
44.5186763386268
30
0
41
1
10
36.2805035527492
20
45.783988779436
30
0
41
1
10
36.2419018542496
20
46.3593394416946
30
0
41
1
10
36.1987183698456
20
47.0051132751817
30
0
41
1
10
36.1903356802374
20
47.1305903016234
30
0
41
1
10
36.1740804563527
20
47.3741153573907
30
0
41
1
10
36.1662000101869
20
47.4922822722763
30
0
41
1
10
36.1434309770258
20
47.8339731456244
30
0
41
1
10
36.1293864165719
20
48.0451081135388
30
0
41
1
10
36.0905666057279
20
48.6294377259649
30
0
41
1
10
36.0690972591891
20
48.953652802527
30
0
41
1
10
36.0347021606363
20
49.4737775086088
30
0
41
1
10
36.0217768737583
20
49.6696838408761
30
0
41
1
10
36.0044450668821
20
49.9325024338589
30
0
41
1
10
36.0000372923442
20
49.9994339680571
30
0
41
1
10
36.0000002350552
20
49.9999964323086
30
0
0
SPLINE
5
1DB
100
AcDbEntity
8
1
62
256
6
ByLayer
370
18
48
1
60
0
100
AcDbSpline
70
4
71
3
72
66
73
62
40
0
40
0
40
0
40
0
40
0.0625008987836636
40
0.0625008987836636
40
0.0937513481754956
40
0.0937513481754956
40
0.125001797567327
40
0.125001797567327
40
0.187502696350991
40
0.187502696350991
40
0.203127921046907
40
0.203127921046907
40
0.218753145742823
40
0.218753145742823
40
0.250003595134654
40
0.250003595134654
40
0.312504493918316
40
0.312504493918316
40
0.328129718614232
40
0.328129718614232
40
0.343754943310147
40
0.343754943310147
40
0.375005392701979
40
0.40625584209381
40
0.40625584209381
40
0.421881066789725
40
0.421881066789725
40
0.437506291485641
40
0.437506291485641
40
0.500007190269304
40
0.500007190269304
40
0.531257639661135
40
0.531257639661135
40
0.546882864357051
40
0.546882864357051
40
0.562508089052967
40
0.562508089052967
40
0.625008987836629
40
0.625008987836629
40
0.640634212532544
40
0.640634212532544
40
0.65625943722846
40
0.65625943722846
40
0.687509886620292
40
0.687509886620292
40
0.750010785403955
40
0.750010785403955
40
0.781261234795786
40
0.781261234795786
40
0.812511684187618
40
0.843762133579449
40
0.843762133579449
40
0.875012582971281
40
0.875012582971281
40
0.937513481754944
40
0.937513481754944
40
0.953138706450859
40
0.953138706450859
40
0.968763931146775
40
0.968763931146775
40
1
40
1
40
1
40
1
41
1
10
19.5000015587684
20
-50.0000001101626
30
0
41
1
10
19.4999951366372
20
-49.9999996563715
30
0
41
1
10
19.4772966604745
20
-49.9983962109919
30
0
41
1
10
19.4105893524579
20
-49.9938158938953
30
0
41
1
10
19.3828710067206
20
-49.9919264546736
30
0
41
1
10
19.3162201332191
20
-49.9874605313508
30
0
41
1
10
19.2771042079006
20
-49.9848726179286
30
0
41
1
10
19.1453282940365
20
-49.9763484524598
30
0
41
1
10
19.0378197182632
20
-49.9696135287402
30
0
41
1
10
18.8790787275881
20
-49.9603651887457
30
0
41
1
10
18.8461017587414
20
-49.9584740314086
30
0
41
1
10
18.7776507448745
20
-49.9546211674787
30
0
41
1
10
18.742075556845
20
-49.9526540248687
30
0
41
1
10
18.6323330752421
20
-49.9467100067078
30
0
41
1
10
18.5553413651545
20
-49.9426998892458
30
0
41
1
10
18.3132270753128
20
-49.9307022826754
30
0
41
1
10
18.1370714281717
20
-49.9227457362967
30
0
41
1
10
17.8979714332062
20
-49.9134251708283
30
0
41
1
10
17.8490620062885
20
-49.9115877513461
30
0
41
1
10
17.7502365575919
20
-49.9080243003542
30
0
41
1
10
17.7002746735266
20
-49.9062960595168
30
0
41
1
10
17.5487710313904
20
-49.9012874433172
30
0
41
1
10
17.3424591912675
20
-49.8950797719676
30
0
41
1
10
17.1276543006443
20
-49.889975009951
30
0
41
1
10
16.9633188633532
20
-49.8866212906871
30
0
41
1
10
16.9080008021987
20
-49.8855825382416
30
0
41
1
10
16.7962656182911
20
-49.8836738688902
30
0
41
1
10
16.7397382738544
20
-49.8828028848111
30
0
41
1
10
16.4573525737607
20
-49.8789348951486
30
0
41
1
10
16.230216748261
20
-49.8773582343237
30
0
41
1
10
15.8877193593188
20
-49.877345289352
30
0
41
1
10
15.773252481798
20
-49.8777329200481
30
0
41
1
10
15.6010866468271
20
-49.8789117620363
30
0
41
1
10
15.5436091639855
20
-49.8794051066891
30
0
41
1
10
15.4297822600398
20
-49.8805764749464
30
0
41
1
10
15.3732703046071
20
-49.8812554129043
30
0
41
1
10
15.0926845857761
20
-49.885096417285
30
0
41
1
10
14.874476828957
20
-49.8895973820144
30
0
41
1
10
14.6095837627634
20
-49.8966978125402
30
0
41
1
10
14.5570020049018
20
-49.8981915825607
30
0
41
1
10
14.4526478352154
20
-49.9013184066107
30
0
41
1
10
14.40101686495
20
-49.9029476257021
30
0
41
1
10
14.24898644132
20
-49.9079731821704
30
0
41
1
10
14.1509453146227
20
-49.9115219991027
30
0
41
1
10
13.8665207187128
20
-49.9225984299021
30
0
41
1
10
13.6897409086392
20
-49.9305582801438
30
0
41
1
10
13.4445817673789
20
-49.9427021757736
30
0
41
1
10
13.3674301900268
20
-49.9467234510062
30
0
41
1
10
13.2224370872664
20
-49.9545756779026
30
0
41
1
10
13.0865884517175
20
-49.9622455970724
30
0
41
1
10
12.968893420757
20
-49.9693373942314
30
0
41
1
10
12.8604742720423
20
-49.9760311981685
30
0
41
1
10
12.8107857920371
20
-49.9791873101397
30
0
41
1
10
12.6789507969922
20
-49.9877152456462
30
0
41
1
10
12.6127063082695
20
-49.9922169825276
30
0
41
1
10
12.5566762582355
20
-49.9960633791074
30
0
41
1
10
12.5468211123093
20
-49.9967436220738
30
0
41
1
10
12.5298547934156
20
-49.9979183180237
30
0
41
1
10
12.5227316232403
20
-49.9984136062086
30
0
41
1
10
12.5056648678045
20
-49.9996024907064
30
0
41
1
10
12.5000465594991
20
-49.9999967399433
30
0
41
1
10
12.500000287616
20
-49.9999999798663
30
0
0
LINE
5
75
100
AcDbEntity
8
1
62
256
6
ByLayer
370
18
48
1
60
0
100
AcDbLine
10
82.4255
20
-17.100505
30
0
11
78.324484
21
-17.100505
31
0
39
0
210
0
220
0
230
1
0
LINE
5
77
100
AcDbEntity
8
1
62
256
6
ByLayer
370
18
48
1
60
0
100
AcDbLine
10
45.960342
20
-6.692165
30
0
11
36
21
50
31
0
39
0
210
0
220
0
230
1
0
LINE
5
78
100
AcDbEntity
8
1
62
256
6
ByLayer
370
18
48
1
60
0
100
AcDbLine
10
19.5
20
-50
30
0
11
49.9
21
-50
31
0
39
0
210
0
220
0
230
1
0
LINE
5
79
100
AcDbEntity
8
1
62
256
6
ByLayer
370
18
48
1
60
0
100
AcDbLine
10
0.3
20
-50
30
0
11
12.510996
21
-50
31
0
39
0
210
0
220
0
230
1
0
LINE
5
7A
100
AcDbEntity
8
1
62
256
6
ByLayer
370
18
48
1
60
0
100
AcDbLine
10
82.6755
20
-25.100505
30
0
11
87.9255
21
-25.100505
31
0
39
0
210
0
220
0
230
1
0
LINE
5
7B
100
AcDbEntity
8
1
62
256
6
ByLayer
370
18
48
1
60
0
100
AcDbLine
10
87.9255
20
-15.100505
30
0
11
82.6755
21
-15.100505
31
0
39
0
210
0
220
0
230
1
0
LINE
5
7C
100
AcDbEntity
8
1
62
256
6
ByLayer
370
18
48
1
60
0
100
AcDbLine
10
77.521897
20
-10.197397
30
0
11
77.3245
21
-10
31
0
39
0
210
0
220
0
230
1
0
LINE
5
7D
100
AcDbEntity
8
1
62
256
6
ByLayer
370
18
48
1
60
0
100
AcDbLine
10
77.3245
20
-50
30
0
11
77.521897
21
-49.802603
31
0
39
0
210
0
220
0
230
1
0
LINE
5
7E
100
AcDbEntity
8
1
62
256
6
ByLayer
370
18
48
1
60
0
100
AcDbLine
10
77.3245
20
-10
30
0
11
49.9
21
-10
31
0
39
0
210
0
220
0
230
1
0
LINE
5
7F
100
AcDbEntity
8
1
62
256
6
ByLayer
370
18
48
1
60
0
100
AcDbLine
10
49.9
20
-50
30
0
11
77.3245
21
-50
31
0
39
0
210
0
220
0
230
1
0
LINE
5
80
100
AcDbEntity
8
SK1
62
256
6
ByLayer
370
18
48
1
60
0
100
AcDbLine
10
-0.2
20
-36.070322
30
0
11
0
21
-36.070322
31
0
39
0
210
0
220
0
230
1
0
LINE
5
82
100
AcDbEntity
8
1
62
256
6
ByLayer
370
18
48
1
60
0
100
AcDbLine
10
0
20
-49.7
30
0
11
0.3
21
-50
31
0
39
0
210
0
220
0
230
1
0
LINE
5
83
100
AcDbEntity
8
1
62
256
6
ByLayer
370
18
48
1
60
0
100
AcDbLine
10
0.3
20
50
30
0
11
0
21
49.7
31
0
39
0
210
0
220
0
230
1
0
LINE
5
84
100
AcDbEntity
8
1
62
256
6
ByLayer
370
18
48
1
60
0
100
AcDbLine
10
36.000712
20
50
30
0
11
0.3
21
50
31
0
39
0
210
0
220
0
230
1
0
LINE
5
85
100
AcDbEntity
8
1
62
256
6
ByLayer
370
18
48
1
60
0
100
AcDbLine
10
78.324484
20
-23.100505
30
0
11
82.4255
21
-23.100505
31
0
39
0
210
0
220
0
230
1
0
LINE
5
86
100
AcDbEntity
8
1
62
256
6
ByLayer
370
18
48
1
60
0
100
AcDbLine
10
87.9255
20
-15.100505
30
0
11
82.6755
21
-15.100505
31
0
39
0
210
0
220
0
230
1
0
LINE
5
87
100
AcDbEntity
8
1
62
256
6
ByLayer
370
18
48
1
60
0
100
AcDbLine
10
82.6755
20
-25.100505
30
0
11
87.9255
21
-25.100505
31
0
39
0
210
0
220
0
230
1
0
LINE
5
88
100
AcDbEntity
8
1
62
256
6
ByLayer
370
18
48
1
60
0
100
AcDbLine
10
87.9255
20
-34.899495
30
0
11
82.6755
21
-34.899495
31
0
39
0
210
0
220
0
230
1
0
LINE
5
89
100
AcDbEntity
8
1
62
256
6
ByLayer
370
18
48
1
60
0
100
AcDbLine
10
82.6755
20
-44.899495
30
0
11
87.9255
21
-44.899495
31
0
39
0
210
0
220
0
230
1
0
LINE
5
8A
100
AcDbEntity
8
1
62
256
6
ByLayer
370
18
48
1
60
0
100
AcDbLine
10
82.4255
20
-36.899495
30
0
11
78.324484
21
-36.899495
31
0
39
0
210
0
220
0
230
1
0
LINE
5
8B
100
AcDbEntity
8
1
62
256
6
ByLayer
370
18
48
1
60
0
100
AcDbLine
10
78.324484
20
-42.899495
30
0
11
82.4255
21
-42.899495
31
0
39
0
210
0
220
0
230
1
0
LINE
5
8C
100
AcDbEntity
8
SK1
62
256
6
ByLayer
370
18
48
1
60
0
100
AcDbLine
10
0
20
36.070322
30
0
11
-0.2
21
36.070322
31
0
39
0
210
0
220
0
230
1
0
LINE
5
8D
100
AcDbEntity
8
1
62
256
6
ByLayer
370
18
48
1
60
0
100
AcDbLine
10
82.4255
20
-17.100505
30
0
11
78.324484
21
-17.100505
31
0
39
0
210
0
220
0
230
1
0
LINE
5
8E
100
AcDbEntity
8
1
62
256
6
ByLayer
370
18
48
1
60
0
100
AcDbLine
10
78.324484
20
-23.100505
30
0
11
82.4255
21
-23.100505
31
0
39
0
210
0
220
0
230
1
0
LINE
5
8F
100
AcDbEntity
8
1
62
256
6
ByLayer
370
13
48
1
60
0
100
AcDbLine
10
78.324383
20
-17.714005
30
0
11
82.4255
21
-17.714005
31
0
39
0
210
0
220
0
230
1
0
LINE
5
90
100
AcDbEntity
8
1
62
256
6
ByLayer
370
13
48
1
60
0
100
AcDbLine
10
78.324383
20
-22.487005
30
0
11
82.4255
21
-22.487005
31
0
39
0
210
0
220
0
230
1
0
LINE
5
91
100
AcDbEntity
8
1
62
256
6
ByLayer
370
18
48
1
60
0
100
AcDbLine
10
82.4255
20
-18.464099
30
0
11
82.4255
21
-23.100505
31
0
39
0
210
0
220
0
230
1
0
LINE
5
92
100
AcDbEntity
8
80
62
256
6
ByLayer
370
18
48
1
60
0
100
AcDbLine
10
0
20
0
30
0
11
-5
21
0
31
0
39
0
210
0
220
0
230
1
0
LINE
5
93
100
AcDbEntity
8
81
62
256
6
ByLayer
370
18
48
1
60
0
100
AcDbLine
10
78
20
-30
30
0
11
83
21
-30
31
0
39
0
210
0
220
0
230
1
0
LINE
5
94
100
AcDbEntity
8
4
62
256
6
ByLayer
370
18
48
0.05
60
0
100
AcDbLine
10
0
20
0
30
0
11
78
21
0
31
0
39
0
210
0
220
0
230
1
0
LINE
5
96
100
AcDbEntity
8
SK4
62
256
6
ByLayer
370
18
48
0.05
60
0
100
AcDbLine
10
-65
20
0
30
0
11
83
21
0
31
0
39
0
210
0
220
0
230
1
0
LINE
5
98
100
AcDbEntity
8
SK1
62
256
6
ByLayer
370
13
48
1
60
0
100
AcDbLine
10
-1.307107
20
4.605927
30
0
11
-1.307107
21
-4.605926
31
0
39
0
210
0
220
0
230
1
0
LINE
5
99
100
AcDbEntity
8
SK1
62
256
6
ByLayer
370
18
48
1
60
0
100
AcDbLine
10
-0.2
20
6.86399
30
0
11
-0.2
21
6.815135
31
0
39
0
210
0
220
0
230
1
0
LINE
5
9A
100
AcDbEntity
8
SK1
62
256
6
ByLayer
370
18
48
1
60
0
100
AcDbLine
10
-0.2
20
-6.815135
30
0
11
-0.2
21
-6.86399
31
0
39
0
210
0
220
0
230
1
0
LINE
5
9B
100
AcDbEntity
8
1
62
256
6
ByLayer
370
18
48
1
60
0
100
AcDbLine
10
78.3245
20
-48.646315
30
0
11
78.3245
21
-48.853979
31
0
39
0
210
0
220
0
230
1
0
LINE
5
9C
100
AcDbEntity
8
1
62
256
6
ByLayer
370
13
48
1
60
0
100
AcDbLine
10
78.2495
20
-46.255338
30
0
11
78.2495
21
-45.570347
31
0
39
0
210
0
220
0
230
1
0
LINE
5
9D
100
AcDbEntity
8
1
62
256
6
ByLayer
370
13
48
1
60
0
100
AcDbLine
10
78.2495
20
-17.064689
30
0
11
78.2495
21
-16.023225
31
0
39
0
210
0
220
0
230
1
0
LINE
5
9E
100
AcDbEntity
8
1
62
256
6
ByLayer
370
18
48
1
60
0
100
AcDbLine
10
78.3245
20
-44.177621
30
0
11
78.3245
21
-45.236583
31
0
39
0
210
0
220
0
230
1
0
LINE
5
9F
100
AcDbEntity
8
1
62
256
6
ByLayer
370
18
48
1
60
0
100
AcDbLine
10
78.3245
20
-14.763417
30
0
11
78.3245
21
-15.822379
31
0
39
0
210
0
220
0
230
1
0
LINE
5
A0
100
AcDbEntity
8
1
62
256
6
ByLayer
370
18
48
1
60
0
100
AcDbLine
10
13.788675
20
47.699112
30
0
11
18.211325
21
47.699112
31
0
39
0
210
0
220
0
230
1
0
LINE
5
A1
100
AcDbEntity
8
1
62
256
6
ByLayer
370
13
48
1
60
0
100
AcDbLine
10
77.6055
20
-15.489923
30
0
11
77.6055
21
-15.766521
31
0
39
0
210
0
220
0
230
1
0
LINE
5
A2
100
AcDbEntity
8
1
62
256
6
ByLayer
370
13
48
1
60
0
100
AcDbLine
10
77.6055
20
-44.233479
30
0
11
77.6055
21
-44.510077
31
0
39
0
210
0
220
0
230
1
0
LINE
5
A3
100
AcDbEntity
8
1
62
256
6
ByLayer
370
18
48
1
60
0
100
AcDbLine
10
78.3245
20
-47.066336
30
0
11
78.3245
21
-47.163763
31
0
39
0
210
0
220
0
230
1
0
LINE
5
A4
100
AcDbEntity
8
1
62
256
6
ByLayer
370
13
48
1
60
0
100
AcDbLine
10
18.644338
20
47.532474
30
0
11
18.644338
21
15.513346
31
0
39
0
210
0
220
0
230
1
0
LINE
5
A5
100
AcDbEntity
8
1
62
256
6
ByLayer
370
13
48
1
60
0
100
AcDbLine
10
78.2495
20
-48.654961
30
0
11
78.2495
21
-48.402698
31
0
39
0
210
0
220
0
230
1
0
LINE
5
A6
100
AcDbEntity
8
1
62
256
6
ByLayer
370
18
48
1
60
0
100
AcDbLine
10
78.3245
20
-40.475875
30
0
11
78.3245
21
-40.775464
31
0
39
0
210
0
220
0
230
1
0
LINE
5
A7
100
AcDbEntity
8
1
62
256
6
ByLayer
370
18
48
1
60
0
100
AcDbLine
10
78.3245
20
-26.364484
30
0
11
78.3245
21
-27.625637
31
0
39
0
210
0
220
0
230
1
0
LINE
5
A8
100
AcDbEntity
8
1
62
256
6
ByLayer
370
18
48
1
60
0
100
AcDbLine
10
78.3245
20
-13.632412
30
0
11
78.3245
21
-13.753257
31
0
39
0
210
0
220
0
230
1
0
LINE
5
A9
100
AcDbEntity
8
1
62
256
6
ByLayer
370
18
48
1
60
0
100
AcDbLine
10
78.3245
20
-48.98093
30
0
11
78.3245
21
-48.988915
31
0
39
0
210
0
220
0
230
1
0
LINE
5
AA
100
AcDbEntity
8
1
62
256
6
ByLayer
370
18
48
1
60
0
100
AcDbLine
10
78.3245
20
-45.236583
30
0
11
78.3245
21
-45.385093
31
0
39
0
210
0
220
0
230
1
0
LINE
5
AB
100
AcDbEntity
8
1
62
256
6
ByLayer
370
18
48
1
60
0
100
AcDbLine
10
0.3
20
-50
30
0
11
0.3
21
50
31
0
39
0
210
0
220
0
230
1
0
LINE
5
AC
100
AcDbEntity
8
1
62
256
6
ByLayer
370
18
48
1
60
0
100
AcDbLine
10
78.3245
20
-22.257857
30
0
11
78.3245
21
-26.36458
31
0
39
0
210
0
220
0
230
1
0
LINE
5
AD
100
AcDbEntity
8
1
62
256
6
ByLayer
370
18
48
1
60
0
100
AcDbLine
10
78.3245
20
-33.63542
30
0
11
78.3245
21
-37.742143
31
0
39
0
210
0
220
0
230
1
0
LINE
5
AE
100
AcDbEntity
8
1
62
256
6
ByLayer
370
18
48
1
60
0
100
AcDbLine
10
78.3245
20
-37.742143
30
0
11
78.3245
21
-38.180085
31
0
39
0
210
0
220
0
230
1
0
LINE
5
AF
100
AcDbEntity
8
1
62
256
6
ByLayer
370
13
48
1
60
0
100
AcDbLine
10
13.788675
20
-14.993155
30
0
11
13.788675
21
-47.699112
31
0
39
0
210
0
220
0
230
1
0
LINE
5
B0
100
AcDbEntity
8
1
62
256
6
ByLayer
370
13
48
1
60
0
100
AcDbLine
10
78.2495
20
-43.976775
30
0
11
78.2495
21
-42.935311
31
0
39
0
210
0
220
0
230
1
0
LINE
5
B1
100
AcDbEntity
8
1
62
256
6
ByLayer
370
18
48
1
60
0
100
AcDbLine
10
78.3245
20
-46.367557
30
0
11
78.3245
21
-47.066336
31
0
39
0
210
0
220
0
230
1
0
LINE
5
B2
100
AcDbEntity
8
1
62
256
6
ByLayer
370
18
48
1
60
0
100
AcDbLine
10
78.3245
20
-47.798581
30
0
11
78.3245
21
-48.230913
31
0
39
0
210
0
220
0
230
1
0
LINE
5
B3
100
AcDbEntity
8
1
62
256
6
ByLayer
370
18
48
1
60
0
100
AcDbLine
10
18.211325
20
-47.699112
30
0
11
13.788675
21
-47.699112
31
0
39
0
210
0
220
0
230
1
0
LINE
5
B4
100
AcDbEntity
8
1
62
256
6
ByLayer
370
13
48
1
60
0
100
AcDbLine
10
78.2495
20
-12.69254
30
0
11
78.2495
21
-12.24833
31
0
39
0
210
0
220
0
230
1
0
LINE
5
B5
100
AcDbEntity
8
1
62
256
6
ByLayer
370
18
48
1
60
0
100
AcDbLine
10
78.3245
20
-48.230913
30
0
11
78.3245
21
-48.289024
31
0
39
0
210
0
220
0
230
1
0
LINE
5
B6
100
AcDbEntity
8
1
62
256
6
ByLayer
370
13
48
1
60
0
100
AcDbLine
10
78.2495
20
-49.04976
30
0
11
78.2495
21
-48.967827
31
0
39
0
210
0
220
0
230
1
0
LINE
5
B7
100
AcDbEntity
8
1
62
256
6
ByLayer
370
18
48
1
60
0
100
AcDbLine
10
78.3245
20
-47.163684
30
0
11
78.3245
21
-47.721823
31
0
39
0
210
0
220
0
230
1
0
LINE
5
B8
100
AcDbEntity
8
1
62
256
6
ByLayer
370
18
48
1
60
0
100
AcDbLine
10
78.3245
20
-12.278177
30
0
11
78.3245
21
-12.836316
31
0
39
0
210
0
220
0
230
1
0
LINE
5
B9
100
AcDbEntity
8
1
62
256
6
ByLayer
370
18
48
1
60
0
100
AcDbLine
10
78.3245
20
-11.394373
30
0
11
78.3245
21
-11.710985
31
0
39
0
210
0
220
0
230
1
0
LINE
5
BA
100
AcDbEntity
8
1
62
256
6
ByLayer
370
13
48
1
60
0
100
AcDbLine
10
77.6055
20
-47.468992
30
0
11
77.6055
21
-47.620083
31
0
39
0
210
0
220
0
230
1
0
LINE
5
BB
100
AcDbEntity
8
1
62
256
6
ByLayer
370
18
48
1
60
0
100
AcDbLine
10
78.3245
20
-48.853979
30
0
11
78.3245
21
-48.878084
31
0
39
0
210
0
220
0
230
1
0
LINE
5
BC
100
AcDbEntity
8
1
62
256
6
ByLayer
370
13
48
1
60
0
100
AcDbLine
10
78.2495
20
-11.597302
30
0
11
78.2495
21
-11.345039
31
0
39
0
210
0
220
0
230
1
0
LINE
5
BD
100
AcDbEntity
8
1
62
256
6
ByLayer
370
13
48
1
60
0
100
AcDbLine
10
78.2495
20
-31.891746
30
0
11
78.2495
21
-28.108254
31
0
39
0
210
0
220
0
230
1
0
LINE
5
BE
100
AcDbEntity
8
1
62
256
6
ByLayer
370
18
48
1
60
0
100
AcDbLine
10
78.3245
20
-17.319012
30
0
11
78.3245
21
-17.548208
31
0
39
0
210
0
220
0
230
1
0
LINE
5
BF
100
AcDbEntity
8
1
62
256
6
ByLayer
370
13
48
1
60
0
100
AcDbLine
10
18.211325
20
47.699112
30
0
11
18.211325
21
14.993155
31
0
39
0
210
0
220
0
230
1
0
LINE
5
C0
100
AcDbEntity
8
1
62
256
6
ByLayer
370
18
48
1
60
0
100
AcDbLine
10
78.3245
20
-42.681014
30
0
11
78.3245
21
-43.994653
31
0
39
0
210
0
220
0
230
1
0
LINE
5
C1
100
AcDbEntity
8
1
62
256
6
ByLayer
370
18
48
1
60
0
100
AcDbLine
10
78.3245
20
-48.289015
30
0
11
78.3245
21
-48.605627
31
0
39
0
210
0
220
0
230
1
0
LINE
5
C2
100
AcDbEntity
8
1
62
256
6
ByLayer
370
18
48
1
60
0
100
AcDbLine
10
78.3245
20
-45.385072
30
0
11
78.3245
21
-46.246743
31
0
39
0
210
0
220
0
230
1
0
LINE
5
C3
100
AcDbEntity
8
1
62
256
6
ByLayer
370
13
48
1
60
0
100
AcDbLine
10
78.2495
20
-40.414628
30
0
11
78.2495
21
-38.614199
31
0
39
0
210
0
220
0
230
1
0
LINE
5
C4
100
AcDbEntity
8
1
62
256
6
ByLayer
370
13
48
1
60
0
100
AcDbLine
10
78.2495
20
-21.385801
30
0
11
78.2495
21
-19.585372
31
0
39
0
210
0
220
0
230
1
0
LINE
5
C5
100
AcDbEntity
8
1
62
256
6
ByLayer
370
18
48
1
60
0
100
AcDbLine
10
13.788675
20
-14.993155
30
0
11
18.211325
21
-14.993155
31
0
39
0
210
0
220
0
230
1
0
LINE
5
C6
100
AcDbEntity
8
1
62
256
6
ByLayer
370
18
48
1
60
0
100
AcDbLine
10
77.3245
20
-10
30
0
11
77.3245
21
-50
31
0
39
0
210
0
220
0
230
1
0
LINE
5
C7
100
AcDbEntity
8
1
62
256
6
ByLayer
370
18
48
1
60
0
100
AcDbLine
10
78.3245
20
-21.819915
30
0
11
78.3245
21
-22.257857
31
0
39
0
210
0
220
0
230
1
0
LINE
5
C8
100
AcDbEntity
8
1
62
256
6
ByLayer
370
13
48
1
60
0
100
AcDbLine
10
18.644338
20
-15.513346
30
0
11
18.644338
21
-47.532474
31
0
39
0
210
0
220
0
230
1
0
LINE
5
C9
100
AcDbEntity
8
1
62
256
6
ByLayer
370
18
48
1
60
0
100
AcDbLine
10
78.3245
20
-17.548208
30
0
11
78.3245
21
-19.22492
31
0
39
0
210
0
220
0
230
1
0
LINE
5
CA
100
AcDbEntity
8
1
62
256
6
ByLayer
370
18
48
1
60
0
100
AcDbLine
10
78.3245
20
-40.77508
30
0
11
78.3245
21
-42.451792
31
0
39
0
210
0
220
0
230
1
0
LINE
5
CB
100
AcDbEntity
8
1
62
256
6
ByLayer
370
18
48
1
60
0
100
AcDbLine
10
78.3245
20
-15.822402
30
0
11
78.3245
21
-16.005347
31
0
39
0
210
0
220
0
230
1
0
LINE
5
CC
100
AcDbEntity
8
1
62
256
6
ByLayer
370
13
48
1
60
0
100
AcDbLine
10
78.2495
20
-11.032173
30
0
11
78.2495
21
-10.95024
31
0
39
0
210
0
220
0
230
1
0
LINE
5
CD
100
AcDbEntity
8
1
62
256
6
ByLayer
370
13
48
1
60
0
100
AcDbLine
10
77.6055
20
-12.379917
30
0
11
77.6055
21
-12.531008
31
0
39
0
210
0
220
0
230
1
0
LINE
5
CE
100
AcDbEntity
8
1
62
256
6
ByLayer
370
13
48
1
60
0
100
AcDbLine
10
77.6055
20
-48.736267
30
0
11
77.6055
21
-48.8304
31
0
39
0
210
0
220
0
230
1
0
LINE
5
CF
100
AcDbEntity
8
1
62
256
6
ByLayer
370
13
48
1
60
0
100
AcDbLine
10
77.6055
20
-49.649908
30
0
11
77.6055
21
-49.672543
31
0
39
0
210
0
220
0
230
1
0
LINE
5
D0
100
AcDbEntity
8
1
62
256
6
ByLayer
370
13
48
1
60
0
100
AcDbLine
10
77.6055
20
-26.217272
30
0
11
77.6055
21
-28.319168
31
0
39
0
210
0
220
0
230
1
0
LINE
5
D1
100
AcDbEntity
8
1
62
256
6
ByLayer
370
13
48
1
60
0
100
AcDbLine
10
77.6055
20
-31.680832
30
0
11
77.6055
21
-33.782728
31
0
39
0
210
0
220
0
230
1
0
LINE
5
D2
100
AcDbEntity
8
1
62
256
6
ByLayer
370
13
48
1
60
0
100
AcDbLine
10
49.9
20
-10
30
0
11
49.9
21
-50
31
0
39
0
210
0
220
0
230
1
0
LINE
5
D3
100
AcDbEntity
8
1
62
256
6
ByLayer
370
18
48
1
60
0
100
AcDbLine
10
78.3245
20
-12.20136
30
0
11
78.3245
21
-12.278177
31
0
39
0
210
0
220
0
230
1
0
LINE
5
D4
100
AcDbEntity
8
1
62
256
6
ByLayer
370
13
48
1
60
0
100
AcDbLine
10
77.6055
20
-45.533307
30
0
11
77.6055
21
-45.759146
31
0
39
0
210
0
220
0
230
1
0
LINE
5
D5
100
AcDbEntity
8
1
62
256
6
ByLayer
370
18
48
1
60
0
100
AcDbLine
10
78.3245
20
-11.769087
30
0
11
78.3245
21
-12.201419
31
0
39
0
210
0
220
0
230
1
0
LINE
5
D6
100
AcDbEntity
8
1
62
256
6
ByLayer
370
18
48
1
60
0
100
AcDbLine
10
78.3245
20
-11.146021
30
0
11
78.3245
21
-11.353685
31
0
39
0
210
0
220
0
230
1
0
LINE
5
D7
100
AcDbEntity
8
1
62
256
6
ByLayer
370
18
48
1
60
0
100
AcDbLine
10
78.3245
20
-43.994653
30
0
11
78.3245
21
-44.177598
31
0
39
0
210
0
220
0
230
1
0
LINE
5
D8
100
AcDbEntity
8
1
62
256
6
ByLayer
370
13
48
1
60
0
100
AcDbLine
10
77.6055
20
-21.626389
30
0
11
77.6055
21
-22.285287
31
0
39
0
210
0
220
0
230
1
0
LINE
5
D9
100
AcDbEntity
8
1
62
256
6
ByLayer
370
13
48
1
60
0
100
AcDbLine
10
77.6055
20
-37.714713
30
0
11
77.6055
21
-38.373611
31
0
39
0
210
0
220
0
230
1
0
LINE
5
DA
100
AcDbEntity
8
1
62
256
6
ByLayer
370
13
48
1
60
0
100
AcDbLine
10
77.6055
20
-46.597446
30
0
11
77.6055
21
-46.782699
31
0
39
0
210
0
220
0
230
1
0
LINE
5
DB
100
AcDbEntity
8
1
62
256
6
ByLayer
370
18
48
1
60
0
100
AcDbLine
10
0
20
-49.7
30
0
11
0
21
49.7
31
0
39
0
210
0
220
0
230
1
0
LINE
5
DC
100
AcDbEntity
8
1
62
256
6
ByLayer
370
18
48
1
60
0
100
AcDbLine
10
78.3245
20
-19.224536
30
0
11
78.3245
21
-19.524125
31
0
39
0
210
0
220
0
230
1
0
LINE
5
DD
100
AcDbEntity
8
1
62
256
6
ByLayer
370
18
48
1
60
0
100
AcDbLine
10
78.3245
20
-16.005347
30
0
11
78.3245
21
-17.318986
31
0
39
0
210
0
220
0
230
1
0
LINE
5
DE
100
AcDbEntity
8
1
62
256
6
ByLayer
370
13
48
1
60
0
100
AcDbLine
10
77.6055
20
-10.327457
30
0
11
77.6055
21
-10.350092
31
0
39
0
210
0
220
0
230
1
0
LINE
5
DF
100
AcDbEntity
8
1
62
256
6
ByLayer
370
13
48
1
60
0
100
AcDbLine
10
13.355662
20
47.532474
30
0
11
13.355662
21
15.513346
31
0
39
0
210
0
220
0
230
1
0
LINE
5
E0
100
AcDbEntity
8
1
62
256
6
ByLayer
370
13
48
1
60
0
100
AcDbLine
10
77.6055
20
-14.240854
30
0
11
77.6055
21
-14.466693
31
0
39
0
210
0
220
0
230
1
0
LINE
5
E1
100
AcDbEntity
8
1
62
256
6
ByLayer
370
13
48
1
60
0
100
AcDbLine
10
13.788675
20
47.699112
30
0
11
13.788675
21
14.993155
31
0
39
0
210
0
220
0
230
1
0
LINE
5
E2
100
AcDbEntity
8
1
62
256
6
ByLayer
370
18
48
1
60
0
100
AcDbLine
10
78.3245
20
-47.721823
30
0
11
78.3245
21
-47.79864
31
0
39
0
210
0
220
0
230
1
0
LINE
5
E3
100
AcDbEntity
8
1
62
256
6
ByLayer
370
18
48
1
60
0
100
AcDbLine
10
78.3245
20
-13.753257
30
0
11
78.3245
21
-14.614928
31
0
39
0
210
0
220
0
230
1
0
LINE
5
E4
100
AcDbEntity
8
1
62
256
6
ByLayer
370
13
48
1
60
0
100
AcDbLine
10
78.2495
20
-15.608026
30
0
11
78.2495
21
-14.767038
31
0
39
0
210
0
220
0
230
1
0
LINE
5
E5
100
AcDbEntity
8
1
62
256
6
ByLayer
370
13
48
1
60
0
100
AcDbLine
10
78.2495
20
-47.75167
30
0
11
78.2495
21
-47.30746
31
0
39
0
210
0
220
0
230
1
0
LINE
5
E6
100
AcDbEntity
8
1
62
256
6
ByLayer
370
18
48
1
60
0
100
AcDbLine
10
78.3245
20
-11.710976
30
0
11
78.3245
21
-11.769087
31
0
39
0
210
0
220
0
230
1
0
LINE
5
E7
100
AcDbEntity
8
1
62
256
6
ByLayer
370
13
48
1
60
0
100
AcDbLine
10
77.6055
20
-49.163428
30
0
11
77.6055
21
-49.232584
31
0
39
0
210
0
220
0
230
1
0
LINE
5
E8
100
AcDbEntity
8
1
62
256
6
ByLayer
370
13
48
1
60
0
100
AcDbLine
10
78.2495
20
-37.633583
30
0
11
78.2495
21
-34.571562
31
0
39
0
210
0
220
0
230
1
0
LINE
5
E9
100
AcDbEntity
8
1
62
256
6
ByLayer
370
13
48
1
60
0
100
AcDbLine
10
78.2495
20
-25.428438
30
0
11
78.2495
21
-22.366417
31
0
39
0
210
0
220
0
230
1
0
LINE
5
EA
100
AcDbEntity
8
1
62
256
6
ByLayer
370
13
48
1
60
0
100
AcDbLine
10
13.355662
20
-15.513346
30
0
11
13.355662
21
-47.532474
31
0
39
0
210
0
220
0
230
1
0
LINE
5
EB
100
AcDbEntity
8
1
62
256
6
ByLayer
370
13
48
1
60
0
100
AcDbLine
10
77.6055
20
-11.1696
30
0
11
77.6055
21
-11.263733
31
0
39
0
210
0
220
0
230
1
0
LINE
5
EC
100
AcDbEntity
8
1
62
256
6
ByLayer
370
13
48
1
60
0
100
AcDbLine
10
77.6055
20
-49.466108
30
0
11
77.6055
21
-49.511551
31
0
39
0
210
0
220
0
230
1
0
LINE
5
ED
100
AcDbEntity
8
1
62
256
6
ByLayer
370
13
48
1
60
0
100
AcDbLine
10
78.2495
20
-14.429653
30
0
11
78.2495
21
-13.744662
31
0
39
0
210
0
220
0
230
1
0
LINE
5
EE
100
AcDbEntity
8
1
62
256
6
ByLayer
370
13
48
1
60
0
100
AcDbLine
10
77.6055
20
-10.488449
30
0
11
77.6055
21
-10.533892
31
0
39
0
210
0
220
0
230
1
0
LINE
5
EF
100
AcDbEntity
8
1
62
256
6
ByLayer
370
18
48
1
60
0
100
AcDbLine
10
78.3245
20
-48.605627
30
0
11
78.3245
21
-48.646319
31
0
39
0
210
0
220
0
230
1
0
LINE
5
F0
100
AcDbEntity
8
1
62
256
6
ByLayer
370
18
48
1
60
0
100
AcDbLine
10
78.3245
20
-11.353681
30
0
11
78.3245
21
-11.394373
31
0
39
0
210
0
220
0
230
1
0
LINE
5
F1
100
AcDbEntity
8
1
62
256
6
ByLayer
370
18
48
1
60
0
100
AcDbLine
10
78.3245
20
-46.246743
30
0
11
78.3245
21
-46.367588
31
0
39
0
210
0
220
0
230
1
0
LINE
5
F2
100
AcDbEntity
8
1
62
256
6
ByLayer
370
13
48
1
60
0
100
AcDbLine
10
78.2495
20
-48.91297
30
0
11
78.2495
21
-48.747456
31
0
39
0
210
0
220
0
230
1
0
LINE
5
F3
100
AcDbEntity
8
1
62
256
6
ByLayer
370
13
48
1
60
0
100
AcDbLine
10
78.2495
20
-45.232962
30
0
11
78.2495
21
-44.391974
31
0
39
0
210
0
220
0
230
1
0
LINE
5
F4
100
AcDbEntity
8
1
62
256
6
ByLayer
370
18
48
1
60
0
100
AcDbLine
10
18.211325
20
14.993155
30
0
11
13.788675
21
14.993155
31
0
39
0
210
0
220
0
230
1
0
LINE
5
F5
100
AcDbEntity
8
1
62
256
6
ByLayer
370
13
48
1
60
0
100
AcDbLine
10
77.6055
20
-17.029494
30
0
11
77.6055
21
-17.374834
31
0
39
0
210
0
220
0
230
1
0
LINE
5
F6
100
AcDbEntity
8
1
62
256
6
ByLayer
370
13
48
1
60
0
100
AcDbLine
10
77.6055
20
-42.625166
30
0
11
77.6055
21
-42.970506
31
0
39
0
210
0
220
0
230
1
0
LINE
5
F7
100
AcDbEntity
8
1
62
256
6
ByLayer
370
13
48
1
60
0
100
AcDbLine
10
18.211325
20
-14.993155
30
0
11
18.211325
21
-47.699112
31
0
39
0
210
0
220
0
230
1
0
LINE
5
F8
100
AcDbEntity
8
1
62
256
6
ByLayer
370
18
48
1
60
0
100
AcDbLine
10
78.3245
20
-19.524125
30
0
11
78.3245
21
-21.819979
31
0
39
0
210
0
220
0
230
1
0
LINE
5
F9
100
AcDbEntity
8
1
62
256
6
ByLayer
370
18
48
1
60
0
100
AcDbLine
10
78.3245
20
-38.180021
30
0
11
78.3245
21
-40.475875
31
0
39
0
210
0
220
0
230
1
0
LINE
5
FA
100
AcDbEntity
8
1
62
256
6
ByLayer
370
13
48
1
60
0
100
AcDbLine
10
78.2495
20
-47.085927
30
0
11
78.2495
21
-46.530049
31
0
39
0
210
0
220
0
230
1
0
LINE
5
FB
100
AcDbEntity
8
1
62
256
6
ByLayer
370
18
48
1
60
0
100
AcDbLine
10
78.3245
20
-14.614907
30
0
11
78.3245
21
-14.763417
31
0
39
0
210
0
220
0
230
1
0
LINE
5
FC
100
AcDbEntity
8
1
62
256
6
ByLayer
370
18
48
1
60
0
100
AcDbLine
10
78.3245
20
-12.933664
30
0
11
78.3245
21
-13.632443
31
0
39
0
210
0
220
0
230
1
0
LINE
5
FD
100
AcDbEntity
8
1
62
256
6
ByLayer
370
13
48
1
60
0
100
AcDbLine
10
77.6055
20
-13.217301
30
0
11
77.6055
21
-13.402554
31
0
39
0
210
0
220
0
230
1
0
LINE
5
FE
100
AcDbEntity
8
1
62
256
6
ByLayer
370
13
48
1
60
0
100
AcDbLine
10
77.6055
20
-11.703125
30
0
11
77.6055
21
-11.824315
31
0
39
0
210
0
220
0
230
1
0
LINE
5
FF
100
AcDbEntity
8
1
62
256
6
ByLayer
370
18
48
1
60
0
100
AcDbLine
10
78.3245
20
-12.836237
30
0
11
78.3245
21
-12.933664
31
0
39
0
210
0
220
0
230
1
0
LINE
5
100
100
AcDbEntity
8
1
62
256
6
ByLayer
370
18
48
1
60
0
100
AcDbLine
10
78.3245
20
-48.877899
30
0
11
78.3245
21
-48.98093
31
0
39
0
210
0
220
0
230
1
0
LINE
5
101
100
AcDbEntity
8
1
62
256
6
ByLayer
370
13
48
1
60
0
100
AcDbLine
10
78.2495
20
-11.252544
30
0
11
78.2495
21
-11.08703
31
0
39
0
210
0
220
0
230
1
0
LINE
5
102
100
AcDbEntity
8
1
62
256
6
ByLayer
370
18
48
1
60
0
100
AcDbLine
10
78.3245
20
-32.374363
30
0
11
78.3245
21
-33.635516
31
0
39
0
210
0
220
0
230
1
0
LINE
5
103
100
AcDbEntity
8
1
62
256
6
ByLayer
370
13
48
1
60
0
100
AcDbLine
10
45.960342
20
-6.692165
30
0
11
45.960342
21
-47.612414
31
0
39
0
210
0
220
0
230
1
0
LINE
5
104
100
AcDbEntity
8
1
62
256
6
ByLayer
370
13
48
1
60
0
100
AcDbLine
10
77.6055
20
-10.767416
30
0
11
77.6055
21
-10.836572
31
0
39
0
210
0
220
0
230
1
0
LINE
5
105
100
AcDbEntity
8
1
62
256
6
ByLayer
370
13
48
1
60
0
100
AcDbLine
10
78.2495
20
-48.270596
30
0
11
78.2495
21
-47.926445
31
0
39
0
210
0
220
0
230
1
0
LINE
5
106
100
AcDbEntity
8
1
62
256
6
ByLayer
370
18
48
1
60
0
100
AcDbLine
10
78.3245
20
-11.011085
30
0
11
78.3245
21
-11.01907
31
0
39
0
210
0
220
0
230
1
0
LINE
5
107
100
AcDbEntity
8
1
62
256
6
ByLayer
370
13
48
1
60
0
100
AcDbLine
10
78.2495
20
-12.073555
30
0
11
78.2495
21
-11.729404
31
0
39
0
210
0
220
0
230
1
0
LINE
5
108
100
AcDbEntity
8
1
62
256
6
ByLayer
370
18
48
1
60
0
100
AcDbLine
10
78.3245
20
-11.121916
30
0
11
78.3245
21
-11.146021
31
0
39
0
210
0
220
0
230
1
0
LINE
5
109
100
AcDbEntity
8
1
62
256
6
ByLayer
370
13
48
1
60
0
100
AcDbLine
10
78.2495
20
-42.416012
30
0
11
78.2495
21
-41.090991
31
0
39
0
210
0
220
0
230
1
0
LINE
5
10A
100
AcDbEntity
8
1
62
256
6
ByLayer
370
13
48
1
60
0
100
AcDbLine
10
78.2495
20
-18.909009
30
0
11
78.2495
21
-17.583988
31
0
39
0
210
0
220
0
230
1
0
LINE
5
10B
100
AcDbEntity
8
1
62
256
6
ByLayer
370
13
48
1
60
0
100
AcDbLine
10
77.6055
20
-48.175685
30
0
11
77.6055
21
-48.296875
31
0
39
0
210
0
220
0
230
1
0
LINE
5
10C
100
AcDbEntity
8
1
62
256
6
ByLayer
370
18
48
1
60
0
100
AcDbLine
10
78.3245
20
-11.01907
30
0
11
78.3245
21
-11.122101
31
0
39
0
210
0
220
0
230
1
0
LINE
5
10D
100
AcDbEntity
8
1
62
256
6
ByLayer
370
18
48
1
60
0
100
AcDbLine
10
78.3245
20
-27.625637
30
0
11
78.3245
21
-32.374363
31
0
39
0
210
0
220
0
230
1
0
LINE
5
10E
100
AcDbEntity
8
1
62
256
6
ByLayer
370
13
48
1
60
0
100
AcDbLine
10
77.6055
20
-18.980668
30
0
11
77.6055
21
-19.431083
31
0
39
0
210
0
220
0
230
1
0
LINE
5
10F
100
AcDbEntity
8
1
62
256
6
ByLayer
370
13
48
1
60
0
100
AcDbLine
10
77.6055
20
-40.568917
30
0
11
77.6055
21
-41.019332
31
0
39
0
210
0
220
0
230
1
0
LINE
5
110
100
AcDbEntity
8
1
62
256
6
ByLayer
370
13
48
1
60
0
100
AcDbLine
10
78.2495
20
-13.469951
30
0
11
78.2495
21
-12.914073
31
0
39
0
210
0
220
0
230
1
0
LINE
5
111
100
AcDbEntity
8
1
62
256
6
ByLayer
370
18
48
1
60
0
100
AcDbLine
10
78.3245
20
-42.451792
30
0
11
78.3245
21
-42.680988
31
0
39
0
210
0
220
0
230
1
0
LINE
5
112
100
AcDbEntity
8
1
62
256
6
ByLayer
370
18
48
1
60
0
100
AcDbLine
10
88.5255
20
-15.700505
30
0
11
88.5255
21
-24.500505
31
0
39
0
210
0
220
0
230
1
0
LINE
5
113
100
AcDbEntity
8
1
62
256
6
ByLayer
370
18
48
1
60
0
100
AcDbLine
10
82.6755
20
-15.100505
30
0
11
82.6755
21
-25.100505
31
0
39
0
210
0
220
0
230
1
0
LINE
5
114
100
AcDbEntity
8
1
62
256
6
ByLayer
370
18
48
1
60
0
100
AcDbLine
10
88.5255
20
-44.299495
30
0
11
88.5255
21
-35.499495
31
0
39
0
210
0
220
0
230
1
0
LINE
5
115
100
AcDbEntity
8
1
62
256
6
ByLayer
370
18
48
1
60
0
100
AcDbLine
10
88.5255
20
-15.700505
30
0
11
88.5255
21
-24.500505
31
0
39
0
210
0
220
0
230
1
0
LINE
5
116
100
AcDbEntity
8
1
62
256
6
ByLayer
370
13
48
1
60
0
100
AcDbLine
10
87.9255
20
-15.100505
30
0
11
87.9255
21
-25.100505
31
0
39
0
210
0
220
0
230
1
0
LINE
5
117
100
AcDbEntity
8
1
62
256
6
ByLayer
370
18
48
1
60
0
100
AcDbLine
10
82.6755
20
-15.100505
30
0
11
82.6755
21
-25.100505
31
0
39
0
210
0
220
0
230
1
0
LINE
5
118
100
AcDbEntity
8
1
62
256
6
ByLayer
370
13
48
1
60
0
100
AcDbLine
10
82.4255
20
-17.100505
30
0
11
82.4255
21
-23.100505
31
0
39
0
210
0
220
0
230
1
0
LINE
5
119
100
AcDbEntity
8
1
62
256
6
ByLayer
370
13
48
1
60
0
100
AcDbLine
10
87.9255
20
-15.100505
30
0
11
87.9255
21
-25.100505
31
0
39
0
210
0
220
0
230
1
0
LINE
5
11A
100
AcDbEntity
8
1
62
256
6
ByLayer
370
13
48
1
60
0
100
AcDbLine
10
82.4255
20
-17.100505
30
0
11
82.4255
21
-23.100505
31
0
39
0
210
0
220
0
230
1
0
LINE
5
11B
100
AcDbEntity
8
1
62
256
6
ByLayer
370
18
48
1
60
0
100
AcDbLine
10
82.6755
20
-44.899495
30
0
11
82.6755
21
-34.899495
31
0
39
0
210
0
220
0
230
1
0
LINE
5
11C
100
AcDbEntity
8
1
62
256
6
ByLayer
370
13
48
1
60
0
100
AcDbLine
10
87.9255
20
-34.899495
30
0
11
87.9255
21
-44.899495
31
0
39
0
210
0
220
0
230
1
0
LINE
5
11D
100
AcDbEntity
8
1
62
256
6
ByLayer
370
13
48
1
60
0
100
AcDbLine
10
82.4255
20
-36.899495
30
0
11
82.4255
21
-42.899495
31
0
39
0
210
0
220
0
230
1
0
MTEXT
5
1DC
100
AcDbEntity
8
SK6
62
256
6
ByLayer
370
18
48
1
60
0
100
AcDbMText
10
0.875
20
-60.874866
30
0
210
0
220
0
230
1
1
\W0.7185;C10-570-40-LG
40
3.5
41
0
44
1.084337
50
0
71
7
72
5
7
iso_b_vert
0
DIMENSION
5
1E9
100
AcDbEntity
8
SK2
62
256
6
ByLayer
370
13
48
1
60
0
100
AcDbDimension
2
DimnDraft3D1
10
78
20
56.6
30
0
11
60.280234
21
56.6
31
0
70
32
71
5
72
1
41
1
210
0
220
0
230
1
3
Standard
100
AcDbAlignedDimension
13
49.9
23
-8.4125
33
0
14
78
24
-8.4125
34
0
50
0
100
AcDbRotatedDimension
1001
ACAD
1000
DSTYLE
1002
{
1070
   279
1070
     0
1070
   172
1070
     1
1070
   173
1070
     1
1070
   340
1005
1DD
1070
   271
1070
     2
1070
   272
1070
     2
1070
    77
1070
     1
1070
    73
1070
     0
1070
   171
1070
     3
1070
   274
1070
     4
1070
   177
1070
     2
1070
   176
1070
     2
1070
   178
1070
     2
1070
    78
1070
     8
1070
    48
1040
-0.005
1070
    41
1041
3.5
1070
   147
1041
1.75
1070
    42
1041
1.5875
1070
    44
1041
2.0
1070
   140
1041
3.5
1070
   343
1005
0
1070
   344
1005
0
1002
}
0
DIMENSION
5
1F3
100
AcDbEntity
8
SK2
62
256
6
ByLayer
370
13
48
1
60
0
100
AcDbDimension
2
DimnDraft3D2
10
98.888211
20
0
30
0
11
98.888211
21
-19.107199
31
0
70
32
71
5
72
1
41
1
210
0
220
0
230
1
3
Standard
100
AcDbAlignedDimension
13
79.5875
23
-30
33
0
14
79.5875
24
0
34
0
50
90
100
AcDbRotatedDimension
1001
ACAD
1000
DSTYLE
1002
{
1070
    74
1070
     0
1070
   279
1070
     0
1070
   172
1070
     1
1070
   173
1070
     1
1070
   340
1005
1DD
1070
   271
1070
     2
1070
   272
1070
     2
1070
    77
1070
     1
1070
    73
1070
     0
1070
   171
1070
     3
1070
   274
1070
     4
1070
   177
1070
     2
1070
   176
1070
     2
1070
   178
1070
     2
1070
    78
1070
     8
1070
    48
1040
-0.005
1070
    41
1041
3.5
1070
   147
1041
1.75
1070
    42
1041
1.5875
1070
    44
1041
2.0
1070
   140
1041
3.5
1070
   343
1005
0
1070
   344
1005
0
1002
}
0
DIMENSION
5
1FE
100
AcDbEntity
8
2
62
256
6
ByLayer
370
13
48
1
60
0
100
AcDbDimension
2
DimnDraft3D3
10
78
20
66.6
30
0
11
34.892801
21
66.6
31
0
70
32
71
5
72
1
41
1
210
0
220
0
230
1
3
Standard
100
AcDbAlignedDimension
13
0
23
51.5875
33
0
14
78
24
-8.4125
34
0
50
0
100
AcDbRotatedDimension
1001
ACAD
1000
DSTYLE
1002
{
1070
   279
1070
     0
1070
   172
1070
     1
1070
   173
1070
     1
1070
   340
1005
1DD
1070
   271
1070
     2
1070
   272
1070
     2
1070
    77
1070
     1
1070
    73
1070
     0
1070
   171
1070
     3
1070
   274
1070
     4
1070
   177
1070
     2
1070
   176
1070
     2
1070
   178
1070
     2
1070
    78
1070
     8
1070
    48
1040
-0.005
1070
    41
1041
3.5
1070
   147
1041
1.75
1070
    42
1041
1.5875
1070
    44
1041
2.0
1070
   140
1041
3.5
1070
   343
1005
0
1070
   344
1005
0
1002
}
0
DIMENSION
5
209
100
AcDbEntity
8
SK2
62
256
6
ByLayer
370
13
48
1
60
0
100
AcDbDimension
2
DimnDraft3D4
10
-83.6
20
-50
30
0
11
-84.225
21
1.414234
31
0
70
33
71
5
72
1
41
1
210
0
220
0
230
1
3
Standard
100
AcDbAlignedDimension
13
-1.5875
23
50
33
0
14
-1.5875
24
-50
34
0
1001
ACAD
1000
DSTYLE
1002
{
1070
   279
1070
     0
1070
    74
1070
     0
1070
   173
1070
     1
1070
   340
1005
1DD
1070
   271
1070
     2
1070
   272
1070
     2
1070
    77
1070
     1
1070
    73
1070
     0
1070
   171
1070
     3
1070
   274
1070
     4
1070
   177
1070
     2
1070
   176
1070
     2
1070
   178
1070
     2
1070
    78
1070
     8
1070
    48
1040
-0.005
1070
    41
1041
3.5
1070
   147
1041
1.75
1070
    42
1041
1.5875
1070
    44
1041
2.0
1070
   140
1041
3.5
1070
   343
1005
0
1070
   344
1005
0
1002
}
0
DIMENSION
5
214
100
AcDbEntity
8
SK2
62
256
6
ByLayer
370
13
48
1
60
0
100
AcDbDimension
2
DimnDraft3D5
10
110.888211
20
-50
30
0
11
106.263211
21
-27.899733
31
0
70
33
71
5
72
1
41
1
210
0
220
0
230
1
3
Standard
100
AcDbAlignedDimension
13
79.5875
23
-10
33
0
14
79.5875
24
-50
34
0
1001
ACAD
1000
DSTYLE
1002
{
1070
   279
1070
     0
1070
    74
1070
     0
1070
   173
1070
     1
1070
   340
1005
1DD
1070
   271
1070
     2
1070
   272
1070
     2
1070
    77
1070
     1
1070
    73
1070
     0
1070
   171
1070
     3
1070
   274
1070
     4
1070
   177
1070
     2
1070
   176
1070
     2
1070
   178
1070
     2
1070
    78
1070
     8
1070
    48
1040
-0.005
1070
    41
1041
3.5
1070
   147
1041
1.75
1070
    42
1041
1.5875
1070
    44
1041
2.0
1070
   140
1041
3.5
1070
   343
1005
0
1070
   344
1005
0
1002
}
0
ENDSEC
0
SECTION
2
OBJECTS
0
DICTIONARY
5
27f
330
0
100
AcDbDictionary
280
0
281
1
3
ACAD_GROUP
350
280
3
ACAD_MLINESTYLE
350
281
0
DICTIONARY
5
280
330
0
100
AcDbDictionary
280
0
281
1
0
DICTIONARY
5
281
330
0
100
AcDbDictionary
280
0
281
1
3
Standard
350
18
0
MLINESTYLE
5
18
330
281
100
AcDbMlineStyle
2
Standard
70
0
3

62
256
51
90
52
90
71
2
49
-0.5
62
256
6
ByLayer
49
0.5
62
256
6
ByLayer
0
RASTERVARIABLES
5
26d
330

100
AcDbRasterVariables
90
0
70
1
71
1
72
1
0
ENDSEC
0
EOF
