0
SECTION
2
HEADER
9
$ACADVER
1
AC1015
9
$DWGCODEPAGE
3
ANSI_1252
9
$HANDSEED
5
1e4
9
$ANGBASE
50
0
9
$ANGDIR
70
0
9
$ATTMODE
70
1
9
$AUNITS
70
0
9
$AUPREC
70
0
9
$CECOLOR
62
256
9
$CELTSCALE
40
1
9
$CELTYPE
6
ByLayer
9
$CELWEIGHT
370
18
9
$CLAYER
8
0
9
$CMLJUST
70
0
9
$CMLSCALE
40
1
9
$CMLSTYLE
2
Standard
9
$DIMSTYLE
2
Standard
9
$TEXTSIZE
40
0.2
9
$TEXTSTYLE
7
Standard
9
$LUNITS
70
2
9
$LUPREC
70
4
9
$EXTNAMES
290
1
9
$INSUNITS
70
4
9
$LTSCALE
40
1
9
$LWDISPLAY
290
1
9
$PDMODE
70
0
9
$PDSIZE
40
0
9
$PLINEGEN
70
0
0
ENDSEC
0
SECTION
2
CLASSES
0
CLASS
1
RASTERVARIABLES
2
AcDbRasterVariables
3
ISM
90
0
280
0
281
0
0
ENDSEC
0
SECTION
2
TABLES
0
TABLE
2
VPORT
5
1da
100
AcDbSymbolTable
0
VPORT
5
1
100
AcDbSymbolTableRecord
100
AcDbViewportTableRecord
2
*Active
70
0
10
0
20
0
11
1
21
1
12
-1
22
1
13
0
23
0
14
0.5
24
0.5
15
10
25
10
16
0
26
0
36
1
17
0
27
0
37
0
0
ENDTAB
0
TABLE
2
LTYPE
5
1db
100
AcDbSymbolTable
0
LTYPE
5
14
100
AcDbSymbolTableRecord
100
AcDbLinetypeTableRecord
70
0
2
ByBlock
3

72
65
73
0
40
0
0
LTYPE
5
15
100
AcDbSymbolTableRecord
100
AcDbLinetypeTableRecord
70
0
2
ByLayer
3

72
65
73
0
40
0
0
LTYPE
5
16
100
AcDbSymbolTableRecord
100
AcDbLinetypeTableRecord
70
0
2
Continuous
3
Solid line
72
65
73
0
40
0
0
LTYPE
5
6E
100
AcDbSymbolTableRecord
100
AcDbLinetypeTableRecord
70
0
2
CENTER
3
____ _ ____ _ ____ _ ____
72
65
73
4
40
47.5
49
22
74
0
49
-8.5
74
0
49
8.5
74
0
49
-8.5
74
0
0
LTYPE
5
6F
100
AcDbSymbolTableRecord
100
AcDbLinetypeTableRecord
70
0
2
DASHED
3
__ __ __ __ __ __ __ __ __
72
65
73
2
40
25.72
49
12.86
74
0
49
-12.86
74
0
0
ENDTAB
0
TABLE
2
LAYER
5
1dc
100
AcDbSymbolTable
0
LAYER
5
10
100
AcDbSymbolTableRecord
100
AcDbLayerTableRecord
2
0
70
0
62
7
6
Continuous
290
1
370
-3
390
0
0
LAYER
5
71
100
AcDbSymbolTableRecord
100
AcDbLayerTableRecord
2
1
70
0
62
4
6
Continuous
290
1
370
-3
390
0
0
LAYER
5
73
100
AcDbSymbolTableRecord
100
AcDbLayerTableRecord
2
80
70
0
62
-6
6
Continuous
290
1
370
-3
390
0
0
LAYER
5
75
100
AcDbSymbolTableRecord
100
AcDbLayerTableRecord
2
81
70
0
62
-3
6
Continuous
290
1
370
-3
390
0
0
LAYER
5
A8
100
AcDbSymbolTableRecord
100
AcDbLayerTableRecord
2
4
70
0
62
-2
6
CENTER
290
1
370
-3
390
0
0
LAYER
5
107
100
AcDbSymbolTableRecord
100
AcDbLayerTableRecord
2
Defpoints
70
0
62
7
6
Continuous
290
0
370
-3
390
0
0
LAYER
5
145
100
AcDbSymbolTableRecord
100
AcDbLayerTableRecord
2
2
70
0
62
7
6
Continuous
290
1
370
-3
390
0
0
LAYER
5
1c6
100
AcDbSymbolTableRecord
100
AcDbLayerTableRecord
2
SK1
70
0
62
4
6
Continuous
290
1
370
-3
390
0
0
LAYER
5
1c7
100
AcDbSymbolTableRecord
100
AcDbLayerTableRecord
2
SK4
70
0
62
2
6
CENTER
290
1
370
-3
390
0
0
LAYER
5
1c8
100
AcDbSymbolTableRecord
100
AcDbLayerTableRecord
2
SK2
70
0
62
7
6
Continuous
290
1
370
-3
390
0
0
LAYER
5
1c9
100
AcDbSymbolTableRecord
100
AcDbLayerTableRecord
2
SK6
70
0
62
5
6
Continuous
290
1
370
-3
390
0
0
ENDTAB
0
TABLE
2
STYLE
5
1dd
100
AcDbSymbolTable
0
STYLE
5
11
100
AcDbSymbolTableRecord
100
AcDbTextStyleTableRecord
2
Standard
3
txt
70
0
71
0
40
0
41
1
42
0
50
0
0
STYLE
5
EC
100
AcDbSymbolTableRecord
100
AcDbTextStyleTableRecord
2
iso_b_vert
3
simplex.shx
70
0
71
0
40
0
41
1
42
0
50
0
0
STYLE
5
ED
100
AcDbSymbolTableRecord
100
AcDbTextStyleTableRecord
2
DWGDirectTextStyle
3
simplex
70
0
71
0
40
0
41
1
42
0
50
0
0
ENDTAB
0
TABLE
2
DIMSTYLE
5
1de
100
AcDbSymbolTable
100
AcDbDimStyleTable
0
DIMSTYLE
105
27
100
AcDbSymbolTableRecord
100
AcDbDimStyleTableRecord
2
Standard
70
0
3
<>
41
0.18
42
0.0625
44
0.18
140
0.18
147
0.09
73
0
74
0
77
1
271
2
275
0
278
52
280
0
340
11
0
ENDTAB
0
TABLE
2
VIEW
5
1df
100
AcDbSymbolTable
0
ENDTAB
0
TABLE
2
UCS
5
1e0
100
AcDbSymbolTable
0
ENDTAB
0
TABLE
2
APPID
5
1e1
100
AcDbSymbolTable
0
APPID
5
12
100
AcDbSymbolTableRecord
100
AcDbRegAppTableRecord
2
ACAD
70
0
0
APPID
5
103
100
AcDbSymbolTableRecord
100
AcDbRegAppTableRecord
2
ACAD_DSTYLE_DIMBREAK
70
0
0
APPID
5
185
100
AcDbSymbolTableRecord
100
AcDbRegAppTableRecord
2
ACAD_DSTYLE_DIM_LINETYPE
70
0
0
APPID
5
186
100
AcDbSymbolTableRecord
100
AcDbRegAppTableRecord
2
ACAD_DSTYLE_DIM_EXT1_LINETYPE
70
0
0
APPID
5
187
100
AcDbSymbolTableRecord
100
AcDbRegAppTableRecord
2
ACAD_DSTYLE_DIM_EXT2_LINETYPE
70
0
0
APPID
5
1C2
100
AcDbSymbolTableRecord
100
AcDbRegAppTableRecord
2
ACAD_MLEADERVER
70
0
0
ENDTAB
0
TABLE
2
BLOCK_RECORD
5
1e2
100
AcDbSymbolTable
0
BLOCK_RECORD
5
1F
100
AcDbSymbolTableRecord
100
AcDbBlockTableRecord
2
*Model_Space
340
0
70
0
0
BLOCK_RECORD
5
1B
100
AcDbSymbolTableRecord
100
AcDbBlockTableRecord
2
*Paper_Space
340
0
70
0
0
BLOCK_RECORD
5
23
100
AcDbSymbolTableRecord
100
AcDbBlockTableRecord
2
*Paper_Space0
340
0
70
0
0
BLOCK_RECORD
5
108
100
AcDbSymbolTableRecord
100
AcDbBlockTableRecord
2
*D1
340
0
70
0
0
BLOCK_RECORD
5
114
100
AcDbSymbolTableRecord
100
AcDbBlockTableRecord
2
_U0
340
0
70
0
0
BLOCK_RECORD
5
120
100
AcDbSymbolTableRecord
100
AcDbBlockTableRecord
2
*D3
340
0
70
0
0
BLOCK_RECORD
5
12D
100
AcDbSymbolTableRecord
100
AcDbBlockTableRecord
2
_U1
340
0
70
0
0
BLOCK_RECORD
5
139
100
AcDbSymbolTableRecord
100
AcDbBlockTableRecord
2
*D5
340
0
70
0
0
BLOCK_RECORD
5
146
100
AcDbSymbolTableRecord
100
AcDbBlockTableRecord
2
_U2
340
0
70
0
0
BLOCK_RECORD
5
152
100
AcDbSymbolTableRecord
100
AcDbBlockTableRecord
2
*D7
340
0
70
0
0
BLOCK_RECORD
5
15E
100
AcDbSymbolTableRecord
100
AcDbBlockTableRecord
2
_U3
340
0
70
0
0
ENDTAB
0
ENDSEC
0
SECTION
2
BLOCKS
0
BLOCK
5
20
100
AcDbEntity
8
0
100
AcDbBlockBegin
2
*Model_Space
70
0
10
0
20
0
30
0
3
*Model_Space
0
ENDBLK
5
21
100
AcDbEntity
8
0
100
AcDbBlockEnd
0
BLOCK
5
1C
100
AcDbEntity
8
0
100
AcDbBlockBegin
2
*Paper_Space
70
0
10
0
20
0
30
0
3
*Paper_Space
0
ENDBLK
5
1D
100
AcDbEntity
8
0
100
AcDbBlockEnd
0
BLOCK
5
24
100
AcDbEntity
8
0
100
AcDbBlockBegin
2
*Paper_Space0
70
0
10
0
20
0
30
0
3
*Paper_Space0
0
ENDBLK
5
25
100
AcDbEntity
8
0
100
AcDbBlockEnd
0
BLOCK
5
109
100
AcDbEntity
8
0
100
AcDbBlockBegin
2
*D1
70
1
10
0
20
0
30
0
3
*D1
0
LINE
5
10B
100
AcDbEntity
8
0
62
256
6
ByLayer
370
-2
48
1
60
0
100
AcDbLine
10
0
20
51.5875
30
0
11
0
21
68.6
31
0
39
0
210
0
220
0
230
1
0
LINE
5
10C
100
AcDbEntity
8
0
62
256
6
ByLayer
370
-2
48
1
60
0
100
AcDbLine
10
36
20
51.5875
30
0
11
36
21
68.6
31
0
39
0
210
0
220
0
230
1
0
LINE
5
10D
100
AcDbEntity
8
0
62
256
6
ByLayer
370
-2
48
1
60
0
100
AcDbLine
10
3.5
20
66.6
30
0
11
32.5
21
66.6
31
0
39
0
210
0
220
0
230
1
0
SOLID
5
10E
100
AcDbEntity
8
0
62
256
6
ByLayer
370
-1
48
1
60
0
100
AcDbTrace
10
3.5
20
67.183333
30
0
11
3.5
21
66.016667
31
0
12
0
22
66.6
32
0
13
0
23
66.6
33
0
39
0
210
0
220
0
230
1
0
SOLID
5
10F
100
AcDbEntity
8
0
62
256
6
ByLayer
370
-1
48
1
60
0
100
AcDbTrace
10
32.5
20
66.016667
30
0
11
32.5
21
67.183333
31
0
12
36
22
66.6
32
0
13
36
23
66.6
33
0
39
0
210
0
220
0
230
1
0
MTEXT
5
110
100
AcDbEntity
8
0
62
256
6
ByLayer
370
18
48
1
60
0
100
AcDbMText
10
18
20
73.6
30
0
210
0
220
0
230
1
1
\A1;36
40
3.5
41
0
44
1
50
0
71
5
72
5
7
iso_b_vert
0
POINT
5
111
100
AcDbEntity
8
Defpoints
62
0
6
ByLayer
370
-1
48
1
60
0
100
AcDbPoint
10
0
20
50
30
0
39
0
210
0
220
0
230
1
50
360
0
POINT
5
112
100
AcDbEntity
8
Defpoints
62
0
6
ByLayer
370
-1
48
1
60
0
100
AcDbPoint
10
36
20
50
30
0
39
0
210
0
220
0
230
1
50
360
0
POINT
5
113
100
AcDbEntity
8
Defpoints
62
0
6
ByLayer
370
-1
48
1
60
0
100
AcDbPoint
10
36
20
66.6
30
0
39
0
210
0
220
0
230
1
50
360
0
ENDBLK
5
10A
100
AcDbEntity
8
0
100
AcDbBlockEnd
0
BLOCK
5
11B
100
AcDbEntity
8
0
100
AcDbBlockBegin
2
_U0
70
0
10
0
20
0
30
0
3
_U0
0
MTEXT
5
115
100
AcDbEntity
8
SK2
62
256
6
ByLayer
370
18
48
1
60
0
100
AcDbMText
10
16.095034
20
67.632634
30
0
210
0
220
0
230
1
1
\W0.6740;36
40
3.5
41
0
44
1.084337
50
0
71
7
72
5
7
iso_b_vert
0
LINE
5
116
100
AcDbEntity
8
SK2
62
256
6
ByLayer
370
13
48
1
60
0
100
AcDbLine
10
0
20
51.5875
30
0
11
0
21
68.6
31
0
39
0
210
0
220
0
230
1
0
LINE
5
117
100
AcDbEntity
8
SK2
62
256
6
ByLayer
370
13
48
1
60
0
100
AcDbLine
10
36
20
51.5875
30
0
11
36
21
68.6
31
0
39
0
210
0
220
0
230
1
0
LINE
5
118
100
AcDbEntity
8
SK2
62
256
6
ByLayer
370
13
48
1
60
0
100
AcDbLine
10
0
20
66.6
30
0
11
36
21
66.6
31
0
39
0
210
0
220
0
230
1
0
SOLID
5
119
100
AcDbEntity
8
SK2
62
256
6
ByLayer
370
18
48
1
60
0
100
AcDbTrace
10
0
20
66.6
30
0
11
3.499998
21
67.060784
31
0
12
3.500002
22
66.139216
32
0
13
3.500002
23
66.139216
33
0
39
0
210
0
220
0
230
1
0
SOLID
5
11A
100
AcDbEntity
8
SK2
62
256
6
ByLayer
370
18
48
1
60
0
100
AcDbTrace
10
36
20
66.6
30
0
11
32.500002
21
66.139216
31
0
12
32.499998
22
67.060784
32
0
13
32.499998
23
67.060784
33
0
39
0
210
0
220
0
230
1
0
ENDBLK
5
11C
100
AcDbEntity
8
0
100
AcDbBlockEnd
0
BLOCK
5
121
100
AcDbEntity
8
0
100
AcDbBlockBegin
2
*D3
70
1
10
0
20
0
30
0
3
*D3
0
LINE
5
123
100
AcDbEntity
8
0
62
256
6
ByLayer
370
-2
48
1
60
0
100
AcDbLine
10
65
20
41.5875
30
0
11
65
21
68.6
31
0
39
0
210
0
220
0
230
1
0
LINE
5
124
100
AcDbEntity
8
0
62
256
6
ByLayer
370
-2
48
1
60
0
100
AcDbLine
10
60
20
41.5875
30
0
11
60
21
68.6
31
0
39
0
210
0
220
0
230
1
0
LINE
5
125
100
AcDbEntity
8
0
62
256
6
ByLayer
370
-2
48
1
60
0
100
AcDbLine
10
68.5
20
66.6
30
0
11
72
21
66.6
31
0
39
0
210
0
220
0
230
1
0
LINE
5
126
100
AcDbEntity
8
0
62
256
6
ByLayer
370
-2
48
1
60
0
100
AcDbLine
10
56.5
20
66.6
30
0
11
53
21
66.6
31
0
39
0
210
0
220
0
230
1
0
SOLID
5
127
100
AcDbEntity
8
0
62
256
6
ByLayer
370
-1
48
1
60
0
100
AcDbTrace
10
68.5
20
67.183333
30
0
11
68.5
21
66.016667
31
0
12
65
22
66.6
32
0
13
65
23
66.6
33
0
39
0
210
0
220
0
230
1
0
SOLID
5
128
100
AcDbEntity
8
0
62
256
6
ByLayer
370
-1
48
1
60
0
100
AcDbTrace
10
56.5
20
66.016667
30
0
11
56.5
21
67.183333
31
0
12
60
22
66.6
32
0
13
60
23
66.6
33
0
39
0
210
0
220
0
230
1
0
MTEXT
5
129
100
AcDbEntity
8
0
62
256
6
ByLayer
370
18
48
1
60
0
100
AcDbMText
10
62.5
20
73.6
30
0
210
0
220
0
230
1
1
\A1;5
40
3.5
41
0
44
1
50
0
71
5
72
5
7
iso_b_vert
0
POINT
5
12A
100
AcDbEntity
8
Defpoints
62
0
6
ByLayer
370
-1
48
1
60
0
100
AcDbPoint
10
65
20
40
30
0
39
0
210
0
220
0
230
1
50
360
0
POINT
5
12B
100
AcDbEntity
8
Defpoints
62
0
6
ByLayer
370
-1
48
1
60
0
100
AcDbPoint
10
60
20
40
30
0
39
0
210
0
220
0
230
1
50
360
0
POINT
5
12C
100
AcDbEntity
8
Defpoints
62
0
6
ByLayer
370
-1
48
1
60
0
100
AcDbPoint
10
60
20
66.6
30
0
39
0
210
0
220
0
230
1
50
360
0
ENDBLK
5
122
100
AcDbEntity
8
0
100
AcDbBlockEnd
0
BLOCK
5
134
100
AcDbEntity
8
0
100
AcDbBlockBegin
2
_U1
70
0
10
0
20
0
30
0
3
_U1
0
MTEXT
5
12E
100
AcDbEntity
8
SK2
62
256
6
ByLayer
370
18
48
1
60
0
100
AcDbMText
10
61.902767
20
67.632634
30
0
210
0
220
0
230
1
1
\W0.5404;5
40
3.5
41
0
44
1.084337
50
0
71
7
72
5
7
iso_b_vert
0
LINE
5
12F
100
AcDbEntity
8
SK2
62
256
6
ByLayer
370
13
48
1
60
0
100
AcDbLine
10
65
20
41.5875
30
0
11
65
21
68.6
31
0
39
0
210
0
220
0
230
1
0
LINE
5
130
100
AcDbEntity
8
SK2
62
256
6
ByLayer
370
13
48
1
60
0
100
AcDbLine
10
60
20
41.5875
30
0
11
60
21
68.6
31
0
39
0
210
0
220
0
230
1
0
LINE
5
131
100
AcDbEntity
8
SK2
62
256
6
ByLayer
370
13
48
1
60
0
100
AcDbLine
10
73.75
20
66.6
30
0
11
51.25
21
66.6
31
0
39
0
210
0
220
0
230
1
0
SOLID
5
132
100
AcDbEntity
8
SK2
62
256
6
ByLayer
370
18
48
1
60
0
100
AcDbTrace
10
65
20
66.6
30
0
11
68.499998
21
67.060784
31
0
12
68.500002
22
66.139216
32
0
13
68.500002
23
66.139216
33
0
39
0
210
0
220
0
230
1
0
SOLID
5
133
100
AcDbEntity
8
SK2
62
256
6
ByLayer
370
18
48
1
60
0
100
AcDbTrace
10
60
20
66.6
30
0
11
56.500002
21
66.139216
31
0
12
56.499998
22
67.060784
32
0
13
56.499998
23
67.060784
33
0
39
0
210
0
220
0
230
1
0
ENDBLK
5
135
100
AcDbEntity
8
0
100
AcDbBlockEnd
0
BLOCK
5
13A
100
AcDbEntity
8
0
100
AcDbBlockBegin
2
*D5
70
1
10
0
20
0
30
0
3
*D5
0
LINE
5
13C
100
AcDbEntity
8
0
62
256
6
ByLayer
370
-2
48
1
60
0
100
AcDbLine
10
65
20
41.5875
30
0
11
65
21
78.6
31
0
39
0
210
0
220
0
230
1
0
LINE
5
13D
100
AcDbEntity
8
0
62
256
6
ByLayer
370
-2
48
1
60
0
100
AcDbLine
10
0
20
51.5875
30
0
11
0
21
78.6
31
0
39
0
210
0
220
0
230
1
0
LINE
5
13E
100
AcDbEntity
8
0
62
256
6
ByLayer
370
-2
48
1
60
0
100
AcDbLine
10
61.5
20
76.6
30
0
11
3.5
21
76.6
31
0
39
0
210
0
220
0
230
1
0
SOLID
5
13F
100
AcDbEntity
8
0
62
256
6
ByLayer
370
-1
48
1
60
0
100
AcDbTrace
10
61.5
20
76.016667
30
0
11
61.5
21
77.183333
31
0
12
65
22
76.6
32
0
13
65
23
76.6
33
0
39
0
210
0
220
0
230
1
0
SOLID
5
140
100
AcDbEntity
8
0
62
256
6
ByLayer
370
-1
48
1
60
0
100
AcDbTrace
10
3.5
20
77.183333
30
0
11
3.5
21
76.016667
31
0
12
0
22
76.6
32
0
13
0
23
76.6
33
0
39
0
210
0
220
0
230
1
0
MTEXT
5
141
100
AcDbEntity
8
0
62
256
6
ByLayer
370
18
48
1
60
0
100
AcDbMText
10
32.5
20
83.6
30
0
210
0
220
0
230
1
1
\A1;65
40
3.5
41
0
44
1
50
0
71
5
72
5
7
iso_b_vert
0
POINT
5
142
100
AcDbEntity
8
Defpoints
62
0
6
ByLayer
370
-1
48
1
60
0
100
AcDbPoint
10
65
20
40
30
0
39
0
210
0
220
0
230
1
50
360
0
POINT
5
143
100
AcDbEntity
8
Defpoints
62
0
6
ByLayer
370
-1
48
1
60
0
100
AcDbPoint
10
0
20
50
30
0
39
0
210
0
220
0
230
1
50
360
0
POINT
5
144
100
AcDbEntity
8
Defpoints
62
0
6
ByLayer
370
-1
48
1
60
0
100
AcDbPoint
10
0
20
76.6
30
0
39
0
210
0
220
0
230
1
50
360
0
ENDBLK
5
13B
100
AcDbEntity
8
0
100
AcDbBlockEnd
0
BLOCK
5
14D
100
AcDbEntity
8
0
100
AcDbBlockBegin
2
_U2
70
0
10
0
20
0
30
0
3
_U2
0
MTEXT
5
147
100
AcDbEntity
8
2
62
256
6
ByLayer
370
18
48
1
60
0
100
AcDbMText
10
30.595034
20
77.632634
30
0
210
0
220
0
230
1
1
\W0.6740;65
40
3.5
41
0
44
1.084337
50
0
71
7
72
5
7
iso_b_vert
0
LINE
5
148
100
AcDbEntity
8
2
62
256
6
ByLayer
370
13
48
1
60
0
100
AcDbLine
10
65
20
41.5875
30
0
11
65
21
78.6
31
0
39
0
210
0
220
0
230
1
0
LINE
5
149
100
AcDbEntity
8
2
62
256
6
ByLayer
370
13
48
1
60
0
100
AcDbLine
10
0
20
51.5875
30
0
11
0
21
78.6
31
0
39
0
210
0
220
0
230
1
0
LINE
5
14A
100
AcDbEntity
8
2
62
256
6
ByLayer
370
13
48
1
60
0
100
AcDbLine
10
65
20
76.6
30
0
11
0
21
76.6
31
0
39
0
210
0
220
0
230
1
0
SOLID
5
14B
100
AcDbEntity
8
2
62
256
6
ByLayer
370
18
48
1
60
0
100
AcDbTrace
10
65
20
76.6
30
0
11
61.500002
21
76.139216
31
0
12
61.499998
22
77.060784
32
0
13
61.499998
23
77.060784
33
0
39
0
210
0
220
0
230
1
0
SOLID
5
14C
100
AcDbEntity
8
2
62
256
6
ByLayer
370
18
48
1
60
0
100
AcDbTrace
10
0
20
76.6
30
0
11
3.499998
21
77.060784
31
0
12
3.500002
22
76.139216
32
0
13
3.500002
23
76.139216
33
0
39
0
210
0
220
0
230
1
0
ENDBLK
5
14E
100
AcDbEntity
8
0
100
AcDbBlockEnd
0
BLOCK
5
153
100
AcDbEntity
8
0
100
AcDbBlockBegin
2
*D7
70
1
10
0
20
0
30
0
3
*D7
0
LINE
5
155
100
AcDbEntity
8
0
62
256
6
ByLayer
370
-2
48
1
60
0
100
AcDbLine
10
-60
20
37.5875
30
0
11
-60
21
78.6
31
0
39
0
210
0
220
0
230
1
0
LINE
5
156
100
AcDbEntity
8
0
62
256
6
ByLayer
370
-2
48
1
60
0
100
AcDbLine
10
0
20
51.5875
30
0
11
0
21
78.6
31
0
39
0
210
0
220
0
230
1
0
LINE
5
157
100
AcDbEntity
8
0
62
256
6
ByLayer
370
-2
48
1
60
0
100
AcDbLine
10
-56.5
20
76.6
30
0
11
-3.5
21
76.6
31
0
39
0
210
0
220
0
230
1
0
SOLID
5
158
100
AcDbEntity
8
0
62
256
6
ByLayer
370
-1
48
1
60
0
100
AcDbTrace
10
-56.5
20
77.183333
30
0
11
-56.5
21
76.016667
31
0
12
-60
22
76.6
32
0
13
-60
23
76.6
33
0
39
0
210
0
220
0
230
1
0
SOLID
5
159
100
AcDbEntity
8
0
62
256
6
ByLayer
370
-1
48
1
60
0
100
AcDbTrace
10
-3.5
20
76.016667
30
0
11
-3.5
21
77.183333
31
0
12
0
22
76.6
32
0
13
0
23
76.6
33
0
39
0
210
0
220
0
230
1
0
MTEXT
5
15A
100
AcDbEntity
8
0
62
256
6
ByLayer
370
18
48
1
60
0
100
AcDbMText
10
-30
20
83.6
30
0
210
0
220
0
230
1
1
\A1;60
40
3.5
41
0
44
1
50
0
71
5
72
5
7
iso_b_vert
0
POINT
5
15B
100
AcDbEntity
8
Defpoints
62
0
6
ByLayer
370
-1
48
1
60
0
100
AcDbPoint
10
-60
20
36
30
0
39
0
210
0
220
0
230
1
50
360
0
POINT
5
15C
100
AcDbEntity
8
Defpoints
62
0
6
ByLayer
370
-1
48
1
60
0
100
AcDbPoint
10
0
20
50
30
0
39
0
210
0
220
0
230
1
50
360
0
POINT
5
15D
100
AcDbEntity
8
Defpoints
62
0
6
ByLayer
370
-1
48
1
60
0
100
AcDbPoint
10
0
20
76.6
30
0
39
0
210
0
220
0
230
1
50
360
0
ENDBLK
5
154
100
AcDbEntity
8
0
100
AcDbBlockEnd
0
BLOCK
5
165
100
AcDbEntity
8
0
100
AcDbBlockBegin
2
_U3
70
0
10
0
20
0
30
0
3
_U3
0
MTEXT
5
15F
100
AcDbEntity
8
SK2
62
256
6
ByLayer
370
18
48
1
60
0
100
AcDbMText
10
-31.904966
20
77.632634
30
0
210
0
220
0
230
1
1
\W0.6740;60
40
3.5
41
0
44
1.084337
50
0
71
7
72
5
7
iso_b_vert
0
LINE
5
160
100
AcDbEntity
8
SK2
62
256
6
ByLayer
370
13
48
1
60
0
100
AcDbLine
10
-60
20
37.5875
30
0
11
-60
21
78.6
31
0
39
0
210
0
220
0
230
1
0
LINE
5
161
100
AcDbEntity
8
SK2
62
256
6
ByLayer
370
13
48
1
60
0
100
AcDbLine
10
0
20
51.5875
30
0
11
0
21
78.6
31
0
39
0
210
0
220
0
230
1
0
LINE
5
162
100
AcDbEntity
8
SK2
62
256
6
ByLayer
370
13
48
1
60
0
100
AcDbLine
10
-60
20
76.6
30
0
11
0
21
76.6
31
0
39
0
210
0
220
0
230
1
0
SOLID
5
163
100
AcDbEntity
8
SK2
62
256
6
ByLayer
370
18
48
1
60
0
100
AcDbTrace
10
-60
20
76.6
30
0
11
-56.500002
21
77.060784
31
0
12
-56.499998
22
76.139216
32
0
13
-56.499998
23
76.139216
33
0
39
0
210
0
220
0
230
1
0
SOLID
5
164
100
AcDbEntity
8
SK2
62
256
6
ByLayer
370
18
48
1
60
0
100
AcDbTrace
10
0
20
76.6
30
0
11
-3.499998
21
76.139216
31
0
12
-3.500002
22
77.060784
32
0
13
-3.500002
23
77.060784
33
0
39
0
210
0
220
0
230
1
0
ENDBLK
5
166
100
AcDbEntity
8
0
100
AcDbBlockEnd
0
ENDSEC
0
SECTION
2
ENTITIES
0
ARC
5
BF
100
AcDbEntity
8
SK1
62
256
6
ByLayer
370
18
48
1
60
0
100
AcDbCircle
39
0
10
-0.6
20
38.9
30
0
40
1
210
0
220
0
230
1
100
AcDbArc
50
293.578178
51
306.869898
0
ARC
5
C0
100
AcDbEntity
8
SK1
62
256
6
ByLayer
370
18
48
1
60
0
100
AcDbCircle
39
0
10
-0.6
20
-38.9
30
0
40
1
210
0
220
0
230
1
100
AcDbArc
50
53.130102
51
66.421822
0
ARC
5
C1
100
AcDbEntity
8
1
62
256
6
ByLayer
370
18
48
1
60
0
100
AcDbCircle
39
0
10
60
20
47.148217
30
0
40
7.14821668713105
210
0
220
0
230
1
100
AcDbArc
50
245.185292
51
270
0
ARC
5
C2
100
AcDbEntity
8
1
62
256
6
ByLayer
370
18
48
1
60
0
100
AcDbCircle
39
0
10
60
20
-47.148217
30
0
40
7.14821668713105
210
0
220
0
230
1
100
AcDbArc
50
90
51
114.814708
0
ARC
5
C3
100
AcDbEntity
8
1
62
256
6
ByLayer
370
18
48
1
60
0
100
AcDbCircle
39
0
10
36.624001
20
49.2
30
0
40
0.8
210
0
220
0
230
1
100
AcDbArc
50
65.185292
51
90
0
ARC
5
C4
100
AcDbEntity
8
1
62
256
6
ByLayer
370
18
48
1
60
0
100
AcDbCircle
39
0
10
36.624001
20
-49.2
30
0
40
0.8
210
0
220
0
230
1
100
AcDbArc
50
270
51
294.814708
0
ELLIPSE
5
C5
100
AcDbEntity
8
1
62
256
6
ByLayer
370
18
48
1
60
0
100
AcDbEllipse
10
-7.094011
20
0
30
0
11
23.4185446994516
21
-49.3543728818712
31
0
210
0
220
0
230
1
40
0.341999
41
0.154598522698917
42
1.0944472496994
0
ELLIPSE
5
C6
100
AcDbEntity
8
1
62
256
6
ByLayer
370
18
48
1
60
0
100
AcDbEllipse
10
-7.094011
20
0
30
0
11
23.418544699452
21
49.3543728818716
31
0
210
0
220
0
230
1
40
0.341999
41
-1.09444724969939
42
-0.154598522698919
0
ELLIPSE
5
C7
100
AcDbEntity
8
1
62
256
6
ByLayer
370
18
48
1
60
0
100
AcDbEllipse
10
39.094011
20
0
30
0
11
23.4185446994527
21
49.3543728818725
31
0
210
0
220
0
230
1
40
0.341999
41
2.04714540389041
42
2.98699413089088
0
ELLIPSE
5
C8
100
AcDbEntity
8
1
62
256
6
ByLayer
370
18
48
1
60
0
100
AcDbEllipse
10
39.094011
20
0
30
0
11
23.4185446994524
21
-49.354372881872
31
0
210
0
220
0
230
1
40
0.341999
41
-2.98699413089088
42
-2.04714540389041
0
POINT
5
70
100
AcDbEntity
8
1
62
256
6
ByLayer
370
18
48
1
60
0
100
AcDbPoint
10
0
20
0
30
0
39
0
210
0
220
0
230
1
50
360
0
POINT
5
72
100
AcDbEntity
8
80
62
256
6
ByLayer
370
18
48
1
60
0
100
AcDbPoint
10
0
20
0
30
0
39
0
210
0
220
0
230
1
50
360
0
POINT
5
74
100
AcDbEntity
8
81
62
256
6
ByLayer
370
18
48
1
60
0
100
AcDbPoint
10
65
20
0
30
0
39
0
210
0
220
0
230
1
50
360
0
POINT
5
76
100
AcDbEntity
8
1
62
256
6
ByLayer
370
18
48
1
60
1
100
AcDbPoint
10
0
20
50
30
0
39
0
210
0
220
0
230
1
50
360
0
POINT
5
77
100
AcDbEntity
8
1
62
256
6
ByLayer
370
18
48
1
60
1
100
AcDbPoint
10
36
20
50
30
0
39
0
210
0
220
0
230
1
50
360
0
POINT
5
78
100
AcDbEntity
8
1
62
256
6
ByLayer
370
18
48
1
60
1
100
AcDbPoint
10
65
20
40
30
0
39
0
210
0
220
0
230
1
50
360
0
POINT
5
79
100
AcDbEntity
8
1
62
256
6
ByLayer
370
18
48
1
60
1
100
AcDbPoint
10
60
20
40
30
0
39
0
210
0
220
0
230
1
50
360
0
POINT
5
7A
100
AcDbEntity
8
1
62
256
6
ByLayer
370
18
48
1
60
1
100
AcDbPoint
10
65
20
40
30
0
39
0
210
0
220
0
230
1
50
360
0
POINT
5
7B
100
AcDbEntity
8
1
62
256
6
ByLayer
370
18
48
1
60
1
100
AcDbPoint
10
0
20
50
30
0
39
0
210
0
220
0
230
1
50
360
0
POINT
5
7C
100
AcDbEntity
8
1
62
256
6
ByLayer
370
18
48
1
60
1
100
AcDbPoint
10
-60
20
36
30
0
39
0
210
0
220
0
230
1
50
360
0
POINT
5
7D
100
AcDbEntity
8
1
62
256
6
ByLayer
370
18
48
1
60
1
100
AcDbPoint
10
0
20
50
30
0
39
0
210
0
220
0
230
1
50
360
0
SPLINE
5
C9
100
AcDbEntity
8
1
62
256
6
ByLayer
370
18
48
1
60
0
100
AcDbSpline
70
4
71
3
72
16
73
12
40
0
40
0
40
0
40
0
40
0.249999999999998
40
0.249999999999998
40
0.499999999999995
40
0.499999999999995
40
0.749999999999993
40
0.749999999999993
40
0.874999999999996
40
0.874999999999996
40
1
40
1
40
1
40
1
41
1
10
13.3556624327026
20
47.5324740593459
30
8E-16
41
1
10
13.3713369564231
20
47.5510763302182
30
8E-16
41
1
10
13.390077598984
20
47.5691972862268
30
8E-16
41
1
10
13.4357910527648
20
47.6042475586048
30
8E-16
41
1
10
13.4628368001564
20
47.6212962856129
30
8E-16
41
1
10
13.5295052401434
20
47.6531299493423
30
8E-16
41
1
10
13.5692020024501
20
47.6679778471913
30
8E-16
41
1
10
13.641729016901
20
47.685218753302
30
8E-16
41
1
10
13.6686700313504
20
47.6901974749824
30
8E-16
41
1
10
13.726220064296
20
47.6971341405705
30
8E-16
41
1
10
13.7572518777782
20
47.6991123363142
30
8E-16
41
1
10
13.7886751345948
20
47.6991123363141
30
8E-16
0
SPLINE
5
CA
100
AcDbEntity
8
1
62
256
6
ByLayer
370
18
48
1
60
0
100
AcDbSpline
70
4
71
3
72
16
73
12
40
0
40
0
40
0
40
0
40
0.249999999999999
40
0.249999999999999
40
0.499999999999998
40
0.499999999999998
40
0.749999999999997
40
0.749999999999997
40
0.874999999999998
40
0.874999999999998
40
1
40
1
40
1
40
1
41
1
10
18.6443375672974
20
-47.5324740593459
30
-6E-16
41
1
10
18.628663043577
20
-47.5510763302182
30
-6E-16
41
1
10
18.609922401016
20
-47.5691972862268
30
-6E-16
41
1
10
18.5642089472352
20
-47.6042475586049
30
-6E-16
41
1
10
18.5371631998437
20
-47.6212962856129
30
-6E-16
41
1
10
18.4704947598566
20
-47.6531299493423
30
-6E-16
41
1
10
18.4307979975499
20
-47.6679778471913
30
-6E-16
41
1
10
18.358270983099
20
-47.685218753302
30
-7E-16
41
1
10
18.3313299686496
20
-47.6901974749824
30
-7E-16
41
1
10
18.273779935704
20
-47.6971341405705
30
-7E-16
41
1
10
18.2427481222218
20
-47.6991123363142
30
-7E-16
41
1
10
18.2113248654052
20
-47.6991123363141
30
-7E-16
0
SPLINE
5
CB
100
AcDbEntity
8
1
62
256
6
ByLayer
370
18
48
1
60
0
100
AcDbSpline
70
4
71
3
72
16
73
12
40
0
40
0
40
0
40
0
40
0.124999999999994
40
0.124999999999994
40
0.249999999999989
40
0.249999999999989
40
0.499999999999993
40
0.499999999999993
40
0.749999999999996
40
0.749999999999996
40
1
40
1
40
1
40
1
41
1
10
18.2113248654052
20
47.6991123363141
30
-7E-16
41
1
10
18.2427942539063
20
47.6991123363141
30
-7E-16
41
1
10
18.2734136750628
20
47.6971731220929
30
-7E-16
41
1
10
18.3314372006436
20
47.6901896918971
30
-7E-16
41
1
10
18.357828126527
20
47.6853219328561
30
-7E-16
41
1
10
18.4315232223568
20
47.6678096320571
30
-6E-16
41
1
10
18.470513220323
20
47.6531212535631
30
-6E-16
41
1
10
18.5371475309551
20
47.6213036484293
30
-6E-16
41
1
10
18.5639668420204
20
47.6044110998707
30
-6E-16
41
1
10
18.6097706080257
20
47.5693355727224
30
-6E-16
41
1
10
18.6286574316482
20
47.5510829903643
30
-6E-16
41
1
10
18.6443375672974
20
47.5324740593459
30
-6E-16
0
SPLINE
5
CC
100
AcDbEntity
8
1
62
256
6
ByLayer
370
18
48
1
60
0
100
AcDbSpline
70
4
71
3
72
16
73
12
40
0
40
0
40
0
40
0
40
0.125000000000002
40
0.125000000000002
40
0.250000000000004
40
0.250000000000004
40
0.500000000000003
40
0.500000000000003
40
0.750000000000001
40
0.750000000000001
40
1
40
1
40
1
40
1
41
1
10
13.7886751345948
20
-47.6991123363141
30
8E-16
41
1
10
13.7572057460937
20
-47.6991123363141
30
8E-16
41
1
10
13.7265863249372
20
-47.6971731220929
30
8E-16
41
1
10
13.6685627993564
20
-47.6901896918971
30
8E-16
41
1
10
13.642171873473
20
-47.6853219328561
30
8E-16
41
1
10
13.5684767776432
20
-47.6678096320571
30
8E-16
41
1
10
13.529486779677
20
-47.6531212535631
30
8E-16
41
1
10
13.4628524690449
20
-47.6213036484293
30
8E-16
41
1
10
13.4360331579796
20
-47.6044110998707
30
8E-16
41
1
10
13.3902293919744
20
-47.5693355727224
30
8E-16
41
1
10
13.3713425683518
20
-47.5510829903643
30
8E-16
41
1
10
13.3556624327026
20
-47.5324740593459
30
8E-16
0
SPLINE
5
CD
100
AcDbEntity
8
1
62
256
6
ByLayer
370
18
48
1
60
0
100
AcDbSpline
70
4
71
3
72
16
73
12
40
0
40
0
40
0
40
0
40
0.25
40
0.25
40
0.5
40
0.5
40
0.75
40
0.75
40
0.875
40
0.875
40
1
40
1
40
1
40
1
41
1
10
18.6443375672974
20
15.5133461831291
30
1.1E-15
41
1
10
18.628663043577
20
15.4563493271806
30
1.1E-15
41
1
10
18.609922401016
20
15.400478236028
30
1.1E-15
41
1
10
18.5642089472352
20
15.2917910897776
30
1.1E-15
41
1
10
18.5371631998437
20
15.2385985420777
30
1.1E-15
41
1
10
18.4704947598566
20
15.1387566028337
30
1.1E-15
41
1
10
18.4307979975499
20
15.0918966685263
30
1.1E-15
41
1
10
18.3582709830991
20
15.0372961905784
30
1.1E-15
41
1
10
18.3313299686496
20
15.021491213259
30
1.1E-15
41
1
10
18.273779935704
20
14.9994509315928
30
1.1E-15
41
1
10
18.2427481222218
20
14.9931545155676
30
1.1E-15
41
1
10
18.2113248654052
20
14.9931545155676
30
1.1E-15
0
SPLINE
5
CE
100
AcDbEntity
8
1
62
256
6
ByLayer
370
18
48
1
60
0
100
AcDbSpline
70
4
71
3
72
16
73
12
40
0
40
0
40
0
40
0
40
0.125000000000004
40
0.125000000000004
40
0.250000000000008
40
0.250000000000008
40
0.500000000000005
40
0.500000000000005
40
0.750000000000003
40
0.750000000000003
40
1
40
1
40
1
40
1
41
1
10
18.2113248654052
20
-14.9931545155676
30
1.1E-15
41
1
10
18.2427942539063
20
-14.9931545155676
30
1.1E-15
41
1
10
18.2734136750628
20
-14.9993270329222
30
1.1E-15
41
1
10
18.3314372006436
20
-15.0215159830932
30
1.1E-15
41
1
10
18.357828126527
20
-15.0369693753061
30
1.1E-15
41
1
10
18.4315232223568
20
-15.092429500184
30
1.1E-15
41
1
10
18.470513220323
20
-15.1387838835225
30
1.1E-15
41
1
10
18.5371475309551
20
-15.2385754420444
30
1.1E-15
41
1
10
18.5639668420204
20
-15.2912821270175
30
1.1E-15
41
1
10
18.6097706080257
20
-15.4000512474235
30
1.1E-15
41
1
10
18.6286574316482
20
-15.4563289206725
30
1.1E-15
41
1
10
18.6443375672974
20
-15.5133461831291
30
1.1E-15
0
SPLINE
5
CF
100
AcDbEntity
8
1
62
256
6
ByLayer
370
18
48
1
60
0
100
AcDbSpline
70
4
71
3
72
16
73
12
40
0
40
0
40
0
40
0
40
0.124999999999996
40
0.124999999999996
40
0.249999999999993
40
0.249999999999993
40
0.499999999999995
40
0.499999999999995
40
0.749999999999998
40
0.749999999999998
40
1
40
1
40
1
40
1
41
1
10
13.7886751345948
20
14.9931545155677
30
8E-16
41
1
10
13.7572057460937
20
14.9931545155677
30
8E-16
41
1
10
13.7265863249372
20
14.9993270329222
30
8E-16
41
1
10
13.6685627993564
20
15.0215159830932
30
8E-16
41
1
10
13.642171873473
20
15.0369693753061
30
8E-16
41
1
10
13.5684767776432
20
15.092429500184
30
8E-16
41
1
10
13.529486779677
20
15.1387838835225
30
8E-16
41
1
10
13.4628524690449
20
15.2385754420444
30
8E-16
41
1
10
13.4360331579796
20
15.2912821270175
30
8E-16
41
1
10
13.3902293919744
20
15.4000512474235
30
8E-16
41
1
10
13.3713425683518
20
15.4563289206726
30
8E-16
41
1
10
13.3556624327026
20
15.5133461831291
30
8E-16
0
SPLINE
5
D0
100
AcDbEntity
8
1
62
256
6
ByLayer
370
18
48
1
60
0
100
AcDbSpline
70
4
71
3
72
16
73
12
40
0
40
0
40
0
40
0
40
0.250000000000003
40
0.250000000000003
40
0.500000000000005
40
0.500000000000005
40
0.750000000000008
40
0.750000000000008
40
0.875000000000004
40
0.875000000000004
40
1
40
1
40
1
40
1
41
1
10
13.3556624327026
20
-15.5133461831291
30
8E-16
41
1
10
13.3713369564231
20
-15.4563493271806
30
8E-16
41
1
10
13.390077598984
20
-15.4004782360281
30
8E-16
41
1
10
13.4357910527648
20
-15.2917910897776
30
8E-16
41
1
10
13.4628368001563
20
-15.2385985420777
30
8E-16
41
1
10
13.5295052401434
20
-15.1387566028337
30
8E-16
41
1
10
13.5692020024501
20
-15.0918966685263
30
8E-16
41
1
10
13.641729016901
20
-15.0372961905784
30
8E-16
41
1
10
13.6686700313504
20
-15.021491213259
30
8E-16
41
1
10
13.726220064296
20
-14.9994509315928
30
8E-16
41
1
10
13.7572518777782
20
-14.9931545155676
30
8E-16
41
1
10
13.7886751345948
20
-14.9931545155676
30
8E-16
0
SPLINE
5
D1
100
AcDbEntity
8
SK1
62
256
6
ByLayer
370
18
48
1
60
0
100
AcDbSpline
70
4
71
3
72
22
73
18
40
0
40
0
40
0
40
0
40
0.245257267778937
40
0.245257267778937
40
0.433942950834203
40
0.433942950834203
40
0.622628633889468
40
0.622628633889468
40
0.716971475417101
40
0.716971475417101
40
0.811314316944734
40
0.811314316944734
40
0.858485737708551
40
0.858485737708551
40
0.905657158472367
40
0.905657158472367
40
1
40
1
40
1
40
1
41
1
10
-0.208882797434626
20
35.6798285024333
30
0
41
1
10
-0.211981654900342
20
35.6634931148931
30
0
41
1
10
-0.216082241813666
20
35.6467276552669
30
0
41
1
10
-0.225863648827044
20
35.6161145448383
30
0
41
1
10
-0.230960514215639
20
35.602522431321
30
0
41
1
10
-0.243909555635497
20
35.5745706733971
30
0
41
1
10
-0.251695294090325
20
35.5601957054628
30
0
41
1
10
-0.267365014534107
20
35.5381024431317
30
0
41
1
10
-0.273258751590078
20
35.5306388063925
30
0
41
1
10
-0.287574896861628
20
35.5154087724188
30
0
41
1
10
-0.296025217598554
20
35.5075032524913
30
0
41
1
10
-0.312744846046172
20
35.4959387739215
30
0
41
1
10
-0.318964047572507
20
35.4921743471965
30
0
41
1
10
-0.333306356179435
20
35.4852786897171
30
0
41
1
10
-0.341563767890278
20
35.4821798260203
30
0
41
1
10
-0.366640249432692
20
35.4758809411679
30
0
41
1
10
-0.382359760725563
20
35.4758754263808
30
0
41
1
10
-0.394976888875504
20
35.4775230333215
30
0
0
SPLINE
5
D2
100
AcDbEntity
8
SK1
62
256
6
ByLayer
370
18
48
1
60
0
100
AcDbSpline
70
4
71
3
72
321
73
317
40
0
40
0
40
0
40
0
40
0.0022721672393857
40
0.0057229983196585
40
0.0091738293999314
40
0.0126246604802042
40
0.016075491560477
40
0.0195263226407499
40
0.0229771537210227
40
0.0264279848012955
40
0.0298788158815683
40
0.0333296469618412
40
0.036780478042114
40
0.0402313091223868
40
0.0436821402026596
40
0.0471329712829325
40
0.0505838023632053
40
0.057485464523751
40
0.0609362956040238
40
0.0643871266842966
40
0.0678379577645694
40
0.0712887888448423
40
0.0747396199251151
40
0.0781904510053879
40
0.0816412820856607
40
0.0850921131659335
40
0.0885429442462064
40
0.0919937753264792
40
0.0988954374870249
40
0.102346268567298
40
0.104071684107434
40
0.105797099647571
40
0.109247930727843
40
0.112698761808116
40
0.119600423968662
40
0.123051255048935
40
0.126502086129207
40
0.133403748289753
40
0.140305410450299
40
0.143756241530572
40
0.147207072610845
40
0.150657903691117
40
0.15410873477139
40
0.161010396931936
40
0.167912059092481
40
0.171362890172754
40
0.174813721253027
40
0.181715383413573
40
0.188617045574118
40
0.195518707734664
40
0.198969538814937
40
0.20242036989521
40
0.205871200975483
40
0.209322032055755
40
0.216223694216301
40
0.223125356376847
40
0.226576187457119
40
0.230027018537392
40
0.233477849617665
40
0.236928680697938
40
0.243830342858484
40
0.250732005019029
40
0.257633667179575
40
0.261084498259848
40
0.264535329340121
40
0.271436991500666
40
0.278338653661212
40
0.281789484741485
40
0.285240315821758
40
0.28869114690203
40
0.292141977982303
40
0.299043640142849
40
0.302494471223122
40
0.305945302303395
40
0.309396133383667
40
0.31284696446394
40
0.319748626624486
40
0.323199457704759
40
0.326650288785031
40
0.330101119865304
40
0.333551950945577
40
0.340453613106123
40
0.343904444186395
40
0.347355275266668
40
0.350806106346941
40
0.354256937427214
40
0.35598235296735
40
0.357707768507487
40
0.36115859958776
40
0.364609430668032
40
0.368060261748305
40
0.371511092828578
40
0.374961923908851
40
0.378412754989124
40
0.381863586069397
40
0.383589001609533
40
0.385314417149669
40
0.388765248229942
40
0.392216079310215
40
0.395666910390488
40
0.399117741470761
40
0.402568572551034
40
0.406019403631307
40
0.409470234711579
40
0.412921065791852
40
0.416371896872125
40
0.419822727952398
40
0.423273559032671
40
0.426724390112943
40
0.430175221193216
40
0.433626052273489
40
0.437076883353762
40
0.438802298893898
40
0.440527714434035
40
0.443978545514307
40
0.44742937659458
40
0.449154792134717
40
0.450880207674853
40
0.454331038755126
40
0.457781869835399
40
0.459507285375535
40
0.461232700915672
40
0.462958116455808
40
0.464683531995944
40
0.466408947536081
40
0.468134363076217
40
0.468997070846286
40
0.469859778616354
40
0.47158519415649
40
0.472447901926558
40
0.473310609696627
40
0.475036025236763
40
0.476761440776899
40
0.477624148546968
40
0.478486856317036
40
0.479349564087104
40
0.480212271857172
40
0.481937687397309
40
0.482800395167377
40
0.483663102937445
40
0.484525810707513
40
0.485388518477582
40
0.48625122624765
40
0.487113934017718
40
0.488839349557854
40
0.489702057327922
40
0.490564765097991
40
0.492290180638127
40
0.493152888408195
40
0.494015596178264
40
0.494878303948332
40
0.4957410117184
40
0.497466427258536
40
0.499191842798673
40
0.500054550568741
40
0.500917258338809
40
0.501779966108877
40
0.502642673878946
40
0.504368089419082
40
0.50523079718915
40
0.506093504959218
40
0.506956212729287
40
0.507818920499355
40
0.509544336039491
40
0.510407043809559
40
0.511269751579628
40
0.512132459349696
40
0.512995167119764
40
0.5147205826599
40
0.516445998200037
40
0.517308705970105
40
0.518171413740173
40
0.519034121510241
40
0.51989682928031
40
0.521622244820446
40
0.523347660360583
40
0.525073075900719
40
0.526798491440855
40
0.528523906980992
40
0.52938661475106
40
0.530249322521128
40
0.531112030291196
40
0.531974738061265
40
0.532837445831333
40
0.533700153601401
40
0.534562861371469
40
0.535425569141537
40
0.537150984681674
40
0.53887640022181
40
0.539739107991879
40
0.540601815761947
40
0.542327231302083
40
0.543189939072151
40
0.54405264684222
40
0.545778062382356
40
0.547503477922492
40
0.549228893462629
40
0.550954309002765
40
0.552679724542901
40
0.554405140083038
40
0.557855971163311
40
0.561306802243584
40
0.56303221778372
40
0.564757633323856
40
0.568208464404129
40
0.571659295484402
40
0.573384711024539
40
0.575110126564675
40
0.578560957644948
40
0.580286373185084
40
0.582011788725221
40
0.585462619805493
40
0.588913450885766
40
0.592364281966039
40
0.595815113046312
40
0.599265944126585
40
0.600991359666721
40
0.602716775206858
40
0.60616760628713
40
0.609618437367403
40
0.613069268447676
40
0.616520099527949
40
0.619970930608222
40
0.623421761688495
40
0.626872592768767
40
0.63032342384904
40
0.633774254929313
40
0.637225086009586
40
0.640675917089859
40
0.644126748170132
40
0.651028410330677
40
0.65447924141095
40
0.656204656951086
40
0.657930072491223
40
0.661380903571495
40
0.664831734651768
40
0.668282565732041
40
0.671733396812314
40
0.67863505897286
40
0.682085890053133
40
0.685536721133405
40
0.688987552213678
40
0.692438383293951
40
0.699340045454497
40
0.702790876534769
40
0.706241707615042
40
0.709692538695315
40
0.713143369775588
40
0.720045031936134
40
0.723495863016407
40
0.726946694096679
40
0.730397525176952
40
0.733848356257225
40
0.740750018417771
40
0.747651680578316
40
0.751102511658589
40
0.754553342738862
40
0.761455004899408
40
0.768356667059953
40
0.775258329220499
40
0.778709160300772
40
0.782159991381045
40
0.785610822461317
40
0.78906165354159
40
0.795963315702136
40
0.802864977862681
40
0.806315808942954
40
0.809766640023227
40
0.8132174711035
40
0.816668302183773
40
0.823569964344318
40
0.830471626504864
40
0.83737328866541
40
0.840824119745683
40
0.844274950825955
40
0.851176612986501
40
0.858078275147047
40
0.86152910622732
40
0.864979937307592
40
0.868430768387865
40
0.871881599468138
40
0.878783261628684
40
0.885684923789229
40
0.889135754869502
40
0.892586585949775
40
0.899488248110321
40
0.902939079190593
40
0.906389910270866
40
0.908115325811003
40
0.909840741351139
40
0.913291572431412
40
0.920193234591958
40
0.92364406567223
40
0.927094896752503
40
0.930545727832776
40
0.933996558913049
40
0.937447389993322
40
0.940898221073595
40
0.944349052153867
40
0.94779988323414
40
0.951250714314413
40
0.954701545394686
40
0.958152376474959
40
0.961603207555232
40
0.965054038635505
40
0.968504869715777
40
0.97195570079605
40
0.975406531876323
40
0.978857362956596
40
0.982308194036868
40
0.985759025117141
40
0.989209856197414
40
0.992660687277687
40
0.99611151835796
40
0.999562349438233
40
1
40
1
40
1
40
1
41
1
10
-60
20
33.4556558849938
30
-1E-16
41
1
10
-60
20
33.4576332346869
30
-1E-16
41
1
10
-60
20
33.4616638239676
30
-1E-16
41
1
10
-60
20
33.4643410509434
30
-1E-16
41
1
10
-60
20
33.4623133815696
30
-1E-16
41
1
10
-60
20
33.4553334593645
30
-1E-16
41
1
10
-60
20
33.4434921454555
30
-1E-16
41
1
10
-60
20
33.4268774268509
30
-1E-16
41
1
10
-60
20
33.4055717280174
30
-1E-16
41
1
10
-60
20
33.3796553140389
30
-1E-16
41
1
10
-60
20
33.3492037178841
30
-1E-16
41
1
10
-60
20
33.3142895381611
30
-1E-16
41
1
10
-60
20
33.2749830705361
30
-1E-16
41
1
10
-60
20
33.2313495484921
30
-1E-16
41
1
10
-60
20
33.1834545182116
30
-1E-16
41
1
10
-60
20
33.1313576224893
30
-1E-16
41
1
10
-60
20
33.0560855188702
30
-1E-16
41
1
10
-60
20
32.9735372025895
30
-1E-16
41
1
10
-60
20
32.8821013415762
30
1E-16
41
1
10
-60
20
32.8098349743486
30
1E-16
41
1
10
-60
20
32.733688775323
30
1E-16
41
1
10
-60
20
32.6537081477481
30
0
41
1
10
-60
20
32.5699376540554
30
0
41
1
10
-60
20
32.4824210440017
30
0
41
1
10
-60
20
32.3912001164081
30
0
41
1
10
-60
20
32.2963152268368
30
1E-16
41
1
10
-60
20
32.1978052794717
30
1E-16
41
1
10
-60
20
32.0612248425865
30
1E-16
41
1
10
-60
20
31.9189181156055
30
-1E-16
41
1
10
-60
20
31.7872672789306
30
-1E-16
41
1
10
-60
20
31.7102043249634
30
-1E-16
41
1
10
-60
20
31.6319918777348
30
-1E-16
41
1
10
-60
20
31.5326481176695
30
-1E-16
41
1
10
-60
20
31.3682719173465
30
-1E-16
41
1
10
-60
20
31.1987551463809
30
-1E-16
41
1
10
-60
20
31.0210528170066
30
-1E-16
41
1
10
-60
20
30.8389711768625
30
-1E-16
41
1
10
-60
20
30.6045149696702
30
-1E-16
41
1
10
-60
20
30.3594550872206
30
-1E-16
41
1
10
-60
20
30.1560458164262
30
-1E-16
41
1
10
-60
20
30.0008163011261
30
-1E-16
41
1
10
-60
20
29.8424884168047
30
-1E-16
41
1
10
-60
20
29.6266492024767
30
-1E-16
41
1
10
-60
20
29.3506439800406
30
-1E-16
41
1
10
-60
20
29.0646239872063
30
-1E-16
41
1
10
-60
20
28.8286459848585
30
-1E-16
41
1
10
-60
20
28.588711970395
30
-1E-16
41
1
10
-60
20
28.2830119047979
30
-1E-16
41
1
10
-60
20
27.9037227355801
30
-1E-16
41
1
10
-60
20
27.5788289346229
30
-1E-16
41
1
10
-60
20
27.3118865150179
30
-1E-16
41
1
10
-60
20
27.1094249342747
30
-1E-16
41
1
10
-60
20
26.9041562227329
30
-1E-16
41
1
10
-60
20
26.6259536097734
30
-1E-16
41
1
10
-60
20
26.2730451104148
30
-1E-16
41
1
10
-60
20
25.9109897890729
30
-1E-16
41
1
10
-60
20
25.6143967365825
30
-1E-16
41
1
10
-60
20
25.3898727883459
30
-1E-16
41
1
10
-60
20
25.1626504323296
30
-1E-16
41
1
10
-60
20
24.8552336369894
30
-1E-16
41
1
10
-60
20
24.4662671647181
30
-1E-16
41
1
10
-60
20
23.9878313987672
30
-1E-16
41
1
10
-60
20
23.581309600239
30
-1E-16
41
1
10
-60
20
23.249168845647
30
-1E-16
41
1
10
-60
20
22.9135633071667
30
-1E-16
41
1
10
-60
20
22.4898084449714
30
-1E-16
41
1
10
-60
20
22.0575119779296
30
-1E-16
41
1
10
-60
20
21.7047294419233
30
-1E-16
41
1
10
-60
20
21.4383936907813
30
-1E-16
41
1
10
-60
20
21.1695327729883
30
-1E-16
41
1
10
-60
20
20.8066187564656
30
-1E-16
41
1
10
-60
20
20.4419941243112
30
-1E-16
41
1
10
-60
20
20.0690271785162
30
-1E-16
41
1
10
-60
20
19.787682750911
30
-1E-16
41
1
10
-60
20
19.5038694602985
30
-1E-16
41
1
10
-60
20
19.1209962837445
30
-1E-16
41
1
10
-60
20
18.7368339912086
30
-1E-16
41
1
10
-60
20
18.3441159235589
30
-1E-16
41
1
10
-60
20
18.0480997672743
30
-1E-16
41
1
10
-60
20
17.7496716294468
30
-1E-16
41
1
10
-60
20
17.3472727105996
30
-1E-16
41
1
10
-60
20
16.9440675389051
30
-1E-16
41
1
10
-60
20
16.532035620606
30
-1E-16
41
1
10
-60
20
16.2216969743561
30
-1E-16
41
1
10
-60
20
15.9090090330769
30
-1E-16
41
1
10
-60
20
15.6472013716544
30
-1E-16
41
1
10
-60
20
15.4352759364928
30
-1E-16
41
1
10
-60
20
15.2225823733162
30
-1E-16
41
1
10
-60
20
14.9569585815733
30
-1E-16
41
1
10
-60
20
14.6349879089581
30
-1E-16
41
1
10
-60
20
14.3107292402958
30
-1E-16
41
1
10
-60
20
13.9841958759155
30
-1E-16
41
1
10
-60
20
13.6554023236347
30
-1E-16
41
1
10
-60
20
13.3243664763056
30
-1E-16
41
1
10
-60
20
13.0474865550707
30
-1E-16
41
1
10
-60
20
12.8233283675937
30
-1E-16
41
1
10
-60
20
12.5984437652583
30
-1E-16
41
1
10
-60
20
12.3179771615538
30
-1E-16
41
1
10
-60
20
11.9781527958057
30
-1E-16
41
1
10
-60
20
11.6361816637219
30
-1E-16
41
1
10
-60
20
11.292092379822
30
3.4E-15
41
1
10
-60
20
10.945908859449
30
3.4E-15
41
1
10
-60
20
10.5976625981365
30
3.4E-15
41
1
10
-60
20
10.2473847821601
30
3.4E-15
41
1
10
-60
20
9.89511131375596
30
3.4E-15
41
1
10
-60
20
9.54088172151239
30
3.4E-15
41
1
10
-60
20
9.18473899017405
30
3.4E-15
41
1
10
-60
20
8.82673234426119
30
3.4E-15
41
1
10
-60
20
8.46691508480725
30
3.4E-15
41
1
10
-60
20
8.10534831886906
30
3.4E-15
41
1
10
-60
20
7.74209991377398
30
3.4E-15
41
1
10
-60
20
7.43933366074933
30
3.4E-15
41
1
10
-60
20
7.19392383197427
30
3.4E-15
41
1
10
-60
20
6.94806390056186
30
3.4E-15
41
1
10
-60
20
6.64308245049978
30
3.4E-15
41
1
10
-60
20
6.33692354274459
30
3.4E-15
41
1
10
-60
20
6.08866434779782
30
3.4E-15
41
1
10
-60
20
5.84008609772042
30
3.4E-15
41
1
10
-60
20
5.53238372840596
30
3.4E-15
41
1
10
-60
20
5.22383853567212
30
3.4E-15
41
1
10
-60
20
4.97352607912163
30
3.4E-15
41
1
10
-60
20
4.78702154756596
30
3.4E-15
41
1
10
-60
20
4.60040605057171
30
3.4E-15
41
1
10
-60
20
4.4136971739961
30
3.4E-15
41
1
10
-60
20
4.22693988185341
30
3.4E-15
41
1
10
-60
20
4.07226259629712
30
3.4E-15
41
1
10
-60
20
3.94669383078133
30
3.4E-15
41
1
10
-60
20
3.82116954124064
30
3.4E-15
41
1
10
-60
20
3.69883107629954
30
3.4E-15
41
1
10
-60
20
3.57328747913138
30
3.4E-15
41
1
10
-60
20
3.44781059563368
30
3.4E-15
41
1
10
-60
20
3.2935863807572
30
3.4E-15
41
1
10
-60
20
3.13944522665
30
3.4E-15
41
1
10
-60
20
3.01413837924019
30
3.4E-15
41
1
10
-60
20
2.92113732640235
30
3.4E-15
41
1
10
-60
20
2.828199854958
30
3.4E-15
41
1
10
-60
20
2.70315242408563
30
3.4E-15
41
1
10
-60
20
2.58203066540028
30
3.4E-15
41
1
10
-60
20
2.45723012695294
30
3.4E-15
41
1
10
-60
20
2.36470328144031
30
3.4E-15
41
1
10
-60
20
2.27228576896138
30
3.4E-15
41
1
10
-60
20
2.17998802306417
30
3.4E-15
41
1
10
-60
20
2.08778698627512
30
3.4E-15
41
1
10
-60
20
1.96363390475221
30
3.4E-15
41
1
10
-60
20
1.84396791149473
30
3.4E-15
41
1
10
-60
20
1.72020377819322
30
3.4E-15
41
1
10
-60
20
1.59663706390086
30
3.4E-15
41
1
10
-60
20
1.47780824879951
30
3.4E-15
41
1
10
-60
20
1.35466991435547
30
3.4E-15
41
1
10
-60
20
1.26362007097097
30
3.4E-15
41
1
10
-60
20
1.17270141325398
30
3.4E-15
41
1
10
-60
20
1.05008260157575
30
3.4E-15
41
1
10
-60
20
0.900734180171582
30
3.4E-15
41
1
10
-60
20
0.751709618123783
30
3.4E-15
41
1
10
-60
20
0.629727249897627
30
3.4E-15
41
1
10
-60
20
0.539591484049964
30
3.4E-15
41
1
10
-60
20
0.44953312334124
30
3.4E-15
41
1
10
-60
20
0.327862446496681
30
3.4E-15
41
1
10
-60
20
0.211387195797528
30
3.4E-15
41
1
10
-60
20
0.0898518914115414
30
3.4E-15
41
1
10
-60
20
2.33088997E-08
30
3.4E-15
41
1
10
-60
20
-0.0898518818022183
30
3.4E-15
41
1
10
-60
20
-0.211387173079913
30
3.4E-15
41
1
10
-60
20
-0.32786241019906
30
3.4E-15
41
1
10
-60
20
-0.44953315485472
30
3.4E-15
41
1
10
-60
20
-0.539591448084252
30
3.4E-15
41
1
10
-60
20
-0.62972719061122
30
3.4E-15
41
1
10
-60
20
-0.751709598313113
30
3.4E-15
41
1
10
-60
20
-0.900734187142177
30
3.4E-15
41
1
10
-60
20
-1.0500826028476
30
3.4E-15
41
1
10
-60
20
-1.17270128769019
30
3.4E-15
41
1
10
-60
20
-1.26362007709338
30
3.4E-15
41
1
10
-60
20
-1.35466986733158
30
3.4E-15
41
1
10
-60
20
-1.47780889967763
30
3.4E-15
41
1
10
-60
20
-1.62866356892965
30
3.4E-15
41
1
10
-60
20
-1.81195714590723
30
3.4E-15
41
1
10
-60
20
-1.99575931518561
30
3.4E-15
41
1
10
-60
20
-2.18003829088596
30
3.4E-15
41
1
10
-60
20
-2.33258035694229
30
3.4E-15
41
1
10
-60
20
-2.45723438857442
30
3.4E-15
41
1
10
-60
20
-2.54984007971646
30
3.4E-15
41
1
10
-60
20
-2.64253286485462
30
3.4E-15
41
1
10
-60
20
-2.7353239097923
30
3.4E-15
41
1
10
-60
20
-2.82819892922643
30
3.4E-15
41
1
10
-60
20
-2.92113717428768
30
3.4E-15
41
1
10
-60
20
-3.01413856990277
30
3.4E-15
41
1
10
-60
20
-3.13944522556258
30
3.4E-15
41
1
10
-60
20
-3.2935859845241
30
3.4E-15
41
1
10
-60
20
-3.44781022267125
30
3.4E-15
41
1
10
-60
20
-3.57328748848443
30
3.4E-15
41
1
10
-60
20
-3.6988314347083
30
3.4E-15
41
1
10
-60
20
-3.82116995532766
30
3.4E-15
41
1
10
-60
20
-3.94669401081842
30
3.4E-15
41
1
10
-60
20
-4.0722623942265
30
3.4E-15
41
1
10
-60
20
-4.22693940902752
30
3.4E-15
41
1
10
-60
20
-4.41369698550011
30
3.4E-15
41
1
10
-60
20
-4.60040635681671
30
3.4E-15
41
1
10
-60
20
-4.7870219387934
30
3.4E-15
41
1
10
-60
20
-4.97352604952792
30
3.4E-15
41
1
10
-60
20
-5.22383810629833
30
3.4E-15
41
1
10
-60
20
-5.53238377279544
30
3.4E-15
41
1
10
-60
20
-5.8400864784706
30
3.4E-15
41
1
10
-60
20
-6.08866423546834
30
3.4E-15
41
1
10
-60
20
-6.33692316417088
30
3.4E-15
41
1
10
-60
20
-6.64308259789806
30
3.4E-15
41
1
10
-60
20
-6.94806448980088
30
3.4E-15
41
1
10
-60
20
-7.19392396234312
30
3.4E-15
41
1
10
-60
20
-7.43933366870848
30
3.4E-15
41
1
10
-60
20
-7.67989586792564
30
3.4E-15
41
1
10
-60
20
-7.92361107948267
30
3.4E-15
41
1
10
-60
20
-8.16680647555478
30
3.4E-15
41
1
10
-60
20
-8.46691182410564
30
3.4E-15
41
1
10
-60
20
-8.82673137604746
30
3.4E-15
41
1
10
-60
20
-9.18474212579679
30
3.4E-15
41
1
10
-60
20
-9.54088275359163
30
3.4E-15
41
1
10
-60
20
-9.83493450522627
30
3.4E-15
41
1
10
-60
20
-10.0711726122456
30
3.4E-15
41
1
10
-60
20
-10.3067727719092
30
3.4E-15
41
1
10
-60
20
-10.5976628395392
30
3.4E-15
41
1
10
-60
20
-10.9459088896872
30
3.4E-15
41
1
10
-60
20
-11.2920923090958
30
3.4E-15
41
1
10
-60
20
-11.6361817696307
30
-1E-16
41
1
10
-60
20
-11.9781526643528
30
-1E-16
41
1
10
-60
20
-12.3179774972949
30
-1E-16
41
1
10
-60
20
-12.6556361459602
30
-1E-16
41
1
10
-60
20
-12.991105740016
30
-1E-16
41
1
10
-60
20
-13.3243668024954
30
-1E-16
41
1
10
-60
20
-13.6554036731857
30
-1E-16
41
1
10
-60
20
-13.9841945283397
30
-1E-16
41
1
10
-60
20
-14.421206512195
30
-1E-16
41
1
10
-60
20
-14.8489195414718
30
-1E-16
41
1
10
-60
20
-15.2225823214827
30
-1E-16
41
1
10
-60
20
-15.4352759723945
30
-1E-16
41
1
10
-60
20
-15.647201356186
30
-1E-16
41
1
10
-60
20
-15.9090090125604
30
-1E-16
41
1
10
-60
20
-16.2216969814831
30
-1E-16
41
1
10
-60
20
-16.5320355896629
30
-1E-16
41
1
10
-60
20
-16.9440675257307
30
-1E-16
41
1
10
-60
20
-17.3472727170548
30
-1E-16
41
1
10
-60
20
-17.7496716428444
30
-1E-16
41
1
10
-60
20
-18.0480997821431
30
-1E-16
41
1
10
-60
20
-18.3441158768435
30
-1E-16
41
1
10
-60
20
-18.7368339915895
30
-1E-16
41
1
10
-60
20
-19.120996273923
30
-1E-16
41
1
10
-60
20
-19.5038694802314
30
-1E-16
41
1
10
-60
20
-19.7876827545796
30
-1E-16
41
1
10
-60
20
-20.0690271428399
30
-1E-16
41
1
10
-60
20
-20.441994127766
30
-1E-16
41
1
10
-60
20
-20.8066187451665
30
-1E-16
41
1
10
-60
20
-21.1695327858038
30
-1E-16
41
1
10
-60
20
-21.4383937008238
30
-1E-16
41
1
10
-60
20
-21.7047294118794
30
-1E-16
41
1
10
-60
20
-22.0575119733736
30
-1E-16
41
1
10
-60
20
-22.4898084525806
30
-1E-16
41
1
10
-60
20
-22.9135633086718
30
-1E-16
41
1
10
-60
20
-23.2491688314427
30
-1E-16
41
1
10
-60
20
-23.5813095953077
30
-1E-16
41
1
10
-60
20
-23.9878314099488
30
-1E-16
41
1
10
-60
20
-24.4662671557057
30
-1E-16
41
1
10
-60
20
-24.8552336352659
30
-1E-16
41
1
10
-60
20
-25.1626504358649
30
-1E-16
41
1
10
-60
20
-25.3898727930232
30
-1E-16
41
1
10
-60
20
-25.6143967303269
30
-1E-16
41
1
10
-60
20
-25.9109897889273
30
-1E-16
41
1
10
-60
20
-26.2730451134659
30
-1E-16
41
1
10
-60
20
-26.6259536079636
30
-1E-16
41
1
10
-60
20
-26.9041562278049
30
-1E-16
41
1
10
-60
20
-27.1094249332373
30
-1E-16
41
1
10
-60
20
-27.3118865130227
30
-1E-16
41
1
10
-60
20
-27.5788289362021
30
-1E-16
41
1
10
-60
20
-27.903722739304
30
-1E-16
41
1
10
-60
20
-28.2830119086102
30
-1E-16
41
1
10
-60
20
-28.5887119662347
30
-1E-16
41
1
10
-60
20
-28.8286459978862
30
-1E-16
41
1
10
-60
20
-29.0646239922872
30
-1E-16
41
1
10
-60
20
-29.3506439793956
30
-1E-16
41
1
10
-60
20
-29.626649201014
30
-1E-16
41
1
10
-60
20
-29.8424884317765
30
-1E-16
41
1
10
-60
20
-30.000816311555
30
-1E-16
41
1
10
-60
20
-30.1560458056576
30
-1E-16
41
1
10
-60
20
-30.3594550888042
30
-1E-16
41
1
10
-60
20
-30.6045149784548
30
-1E-16
41
1
10
-60
20
-30.8389711933591
30
-1E-16
41
1
10
-60
20
-31.0210528094401
30
-1E-16
41
1
10
-60
20
-31.1987551464293
30
-1E-16
41
1
10
-60
20
-31.3682719258243
30
-1E-16
41
1
10
-60
20
-31.5326481340748
30
-1E-16
41
1
10
-60
20
-31.6319918952804
30
-1E-16
41
1
10
-60
20
-31.7102043239203
30
-1E-16
41
1
10
-60
20
-31.7872672700223
30
-1E-16
41
1
10
-60
20
-31.9189181186464
30
-1E-16
41
1
10
-60
20
-32.061224849943
30
1E-16
41
1
10
-60
20
-32.1978052933397
30
1E-16
41
1
10
-60
20
-32.2963152464944
30
1E-16
41
1
10
-60
20
-32.3912001013677
30
0
41
1
10
-60
20
-32.4824210694835
30
0
41
1
10
-60
20
-32.5699376718859
30
0
41
1
10
-60
20
-32.6537080260487
30
0
41
1
10
-60
20
-32.7336889066932
30
1E-16
41
1
10
-60
20
-32.8098354129061
30
1E-16
41
1
10
-60
20
-32.8821009542705
30
1E-16
41
1
10
-60
20
-32.9504372229349
30
-1E-16
41
1
10
-60
20
-33.0147937722119
30
-1E-16
41
1
10
-60
20
-33.0751182914419
30
-1E-16
41
1
10
-60
20
-33.1313576691056
30
-1E-16
41
1
10
-60
20
-33.1834545172445
30
-1E-16
41
1
10
-60
20
-33.2313494864308
30
-1E-16
41
1
10
-60
20
-33.2749830986899
30
-1E-16
41
1
10
-60
20
-33.3142894793407
30
-1E-16
41
1
10
-60
20
-33.3492037179871
30
-1E-16
41
1
10
-60
20
-33.3796552925038
30
-1E-16
41
1
10
-60
20
-33.4055716886024
30
-1E-16
41
1
10
-60
20
-33.4268774387512
30
-1E-16
41
1
10
-60
20
-33.443492082087
30
-1E-16
41
1
10
-60
20
-33.4518577921364
30
-1E-16
41
1
10
-60
20
-33.4552832051091
30
-1E-16
41
1
10
-60
20
-33.4556558297303
30
-1E-16
0
SPLINE
5
D3
100
AcDbEntity
8
SK1
62
256
6
ByLayer
370
13
48
1
60
0
100
AcDbSpline
70
4
71
3
72
322
73
318
40
0
40
0
40
0
40
0
40
0.0016669481013242
40
0.0033912712849674
40
0.0051155944686107
40
0.0068399176522539
40
0.0102885640195404
40
0.0137372103868269
40
0.0171858567541134
40
0.0206345031213999
40
0.0240831494886863
40
0.0275317958559728
40
0.0309804422232593
40
0.0344290885905458
40
0.0378777349578323
40
0.0413263813251187
40
0.0447750276924052
40
0.0482236740596917
40
0.0516723204269782
40
0.0551209667942647
40
0.0585696131615511
40
0.0620182595288376
40
0.0654669058961241
40
0.0689155522634106
40
0.0723641986306971
40
0.0758128449979836
40
0.07926149136527
40
0.0827101377325565
40
0.086158784099843
40
0.093056076834416
40
0.0965047232017025
40
0.0982290463853457
40
0.0999533695689889
40
0.103402015936275
40
0.106850662303562
40
0.113747955038135
40
0.117196601405421
40
0.120645247772708
40
0.127542540507281
40
0.134439833241854
40
0.13788847960914
40
0.141337125976427
40
0.144785772343713
40
0.148234418711
40
0.155131711445573
40
0.162029004180146
40
0.165477650547432
40
0.168926296914719
40
0.175823589649292
40
0.182720882383864
40
0.189618175118438
40
0.193066821485724
40
0.19651546785301
40
0.199964114220297
40
0.203412760587583
40
0.210310053322156
40
0.217207346056729
40
0.220655992424016
40
0.224104638791302
40
0.227553285158589
40
0.231001931525875
40
0.237899224260448
40
0.244796516995021
40
0.251693809729594
40
0.255142456096881
40
0.258591102464167
40
0.26548839519874
40
0.272385687933313
40
0.2758343343006
40
0.279282980667886
40
0.282731627035173
40
0.286180273402459
40
0.293077566137032
40
0.296526212504318
40
0.299974858871605
40
0.303423505238891
40
0.306872151606178
40
0.313769444340751
40
0.317218090708037
40
0.320666737075324
40
0.32411538344261
40
0.327564029809897
40
0.33446132254447
40
0.337909968911756
40
0.341358615279043
40
0.344807261646329
40
0.348255908013616
40
0.349980231197259
40
0.351704554380902
40
0.355153200748189
40
0.362050493482762
40
0.365499139850048
40
0.368947786217334
40
0.372396432584621
40
0.375845078951908
40
0.379293725319194
40
0.382742371686481
40
0.386191018053767
40
0.389639664421054
40
0.39308831078834
40
0.396536957155626
40
0.399985603522913
40
0.403434249890199
40
0.405158573073843
40
0.406882896257486
40
0.410331542624772
40
0.413780188992059
40
0.417228835359345
40
0.420677481726632
40
0.424126128093918
40
0.425850451277561
40
0.427574774461205
40
0.431023420828491
40
0.432747744012134
40
0.434472067195778
40
0.437920713563064
40
0.441369359930351
40
0.443093683113994
40
0.444818006297637
40
0.448266652664924
40
0.45171529903221
40
0.453439622215853
40
0.455163945399497
40
0.45688826858314
40
0.458612591766783
40
0.460336914950426
40
0.46206123813407
40
0.462923399725891
40
0.463785561317713
40
0.465509884501356
40
0.466372046093178
40
0.467234207684999
40
0.468958530868642
40
0.470682854052286
40
0.471545015644107
40
0.472407177235929
40
0.473269338827751
40
0.474131500419572
40
0.474993662011394
40
0.475855823603215
40
0.476717985195037
40
0.477580146786859
40
0.479304469970502
40
0.481028793154145
40
0.482753116337788
40
0.484477439521432
40
0.486201762705075
40
0.487063924296896
40
0.487926085888718
40
0.48878824748054
40
0.489650409072361
40
0.491374732256005
40
0.493099055439648
40
0.49396121703147
40
0.494823378623291
40
0.495685540215113
40
0.496547701806934
40
0.498272024990578
40
0.499134186582399
40
0.499996348174221
40
0.500858509766043
40
0.501720671357864
40
0.503444994541507
40
0.504307156133329
40
0.505169317725151
40
0.506031479316972
40
0.506893640908794
40
0.508617964092437
40
0.51034228727608
40
0.511204448867902
40
0.512066610459724
40
0.512928772051545
40
0.513790933643367
40
0.51551525682701
40
0.516377418418832
40
0.517239580010653
40
0.518963903194297
40
0.519826064786118
40
0.52068822637794
40
0.521550387969761
40
0.522412549561583
40
0.523274711153405
40
0.524136872745226
40
0.525861195928869
40
0.526723357520691
40
0.527585519112513
40
0.528447680704334
40
0.529309842296156
40
0.531034165479799
40
0.532758488663442
40
0.533620650255264
40
0.534482811847086
40
0.536207135030729
40
0.537069296622551
40
0.537931458214372
40
0.539655781398015
40
0.541380104581659
40
0.543104427765302
40
0.544828750948945
40
0.546553074132588
40
0.548277397316232
40
0.551726043683518
40
0.555174690050805
40
0.556899013234448
40
0.558623336418091
40
0.562071982785378
40
0.565520629152664
40
0.567244952336307
40
0.56896927551995
40
0.572417921887237
40
0.575866568254523
40
0.57931521462181
40
0.582763860989096
40
0.586212507356383
40
0.589661153723669
40
0.593109800090956
40
0.596558446458242
40
0.600007092825529
40
0.603455739192815
40
0.606904385560102
40
0.610353031927388
40
0.613801678294675
40
0.617250324661961
40
0.620698971029248
40
0.622423294212891
40
0.624147617396534
40
0.627596263763821
40
0.631044910131107
40
0.634493556498394
40
0.63794220286568
40
0.641390849232967
40
0.644839495600253
40
0.64828814196754
40
0.650012465151183
40
0.651736788334826
40
0.655185434702113
40
0.658634081069399
40
0.662082727436686
40
0.665531373803972
40
0.672428666538545
40
0.675877312905831
40
0.679325959273118
40
0.682774605640404
40
0.686223252007691
40
0.693120544742264
40
0.69656919110955
40
0.700017837476837
40
0.703466483844123
40
0.70691513021141
40
0.713812422945983
40
0.717261069313269
40
0.720709715680556
40
0.724158362047842
40
0.727607008415129
40
0.734504301149702
40
0.741401593884275
40
0.744850240251561
40
0.748298886618848
40
0.755196179353421
40
0.762093472087994
40
0.768990764822566
40
0.772439411189853
40
0.775888057557139
40
0.779336703924426
40
0.782785350291712
40
0.789682643026285
40
0.796579935760858
40
0.800028582128145
40
0.803477228495431
40
0.806925874862718
40
0.810374521230004
40
0.817271813964577
40
0.82416910669915
40
0.831066399433723
40
0.83451504580101
40
0.837963692168296
40
0.844860984902869
40
0.851758277637442
40
0.855206924004728
40
0.858655570372015
40
0.862104216739301
40
0.865552863106588
40
0.872450155841161
40
0.879347448575734
40
0.88279609494302
40
0.886244741310307
40
0.89314203404488
40
0.896590680412166
40
0.900039326779453
40
0.901763649963096
40
0.903487973146739
40
0.906936619514026
40
0.913833912248599
40
0.917282558615885
40
0.920731204983172
40
0.924179851350458
40
0.927628497717745
40
0.931077144085031
40
0.934525790452318
40
0.937974436819604
40
0.941423083186891
40
0.944871729554177
40
0.948320375921464
40
0.955217668656036
40
0.958666315023323
40
0.962114961390609
40
0.965563607757896
40
0.969012254125182
40
0.972460900492469
40
0.975909546859755
40
0.979358193227042
40
0.982806839594328
40
0.986255485961615
40
0.989704132328901
40
0.993152778696188
40
0.996601425063474
40
1
40
1
40
1
40
1
41
1
10
-1.99503997793928
20
-35.825167073173
30
-1E-16
41
1
10
-1.99503997793928
20
-35.8252386670165
30
-1E-16
41
1
10
-1.99503997793931
20
-35.8249562099606
30
-1E-16
41
1
10
-1.99503997793928
20
-35.8232300538525
30
-1E-16
41
1
10
-1.99503997793928
20
-35.8201626633944
30
-1E-16
41
1
10
-1.99503997793928
20
-35.8143275520899
30
-1E-16
41
1
10
-1.99503997793928
20
-35.8038035395423
30
-1E-16
41
1
10
-1.99503997793928
20
-35.786103718398
30
-1E-16
41
1
10
-1.99503997793928
20
-35.763434753032
30
-1E-16
41
1
10
-1.99503997793928
20
-35.7358925640298
30
-1E-16
41
1
10
-1.99503997793928
20
-35.7035662791796
30
-1E-16
41
1
10
-1.99503997793928
20
-35.6665412784639
30
-1E-16
41
1
10
-1.99503997793928
20
-35.6248991978807
30
-1E-16
41
1
10
-1.99503997793928
20
-35.5787156149852
30
-1E-16
41
1
10
-1.99503997793928
20
-35.5280658411496
30
-1E-16
41
1
10
-1.99503997793928
20
-35.4730177383402
30
-1E-16
41
1
10
-1.99503997793928
20
-35.4136393963591
30
-1E-16
41
1
10
-1.99503997793928
20
-35.3499946094464
30
-1E-16
41
1
10
-1.99503997793928
20
-35.2821433047987
30
1E-16
41
1
10
-1.99503997793931
20
-35.2101443481799
30
1E-16
41
1
10
-1.99503997793931
20
-35.1340535550079
30
1E-16
41
1
10
-1.99503997793931
20
-35.0539244294382
30
0
41
1
10
-1.99503997793931
20
-34.9698083210839
30
0
41
1
10
-1.99503997793931
20
-34.8817544969816
30
0
41
1
10
-1.99503997793931
20
-34.7898102805557
30
0
41
1
10
-1.99503997793931
20
-34.6940212809506
30
1E-16
41
1
10
-1.99503997793931
20
-34.5944312751917
30
1E-16
41
1
10
-1.99503997793931
20
-34.4910822904624
30
-1E-16
41
1
10
-1.99503997793931
20
-34.3482948986979
30
-1E-16
41
1
10
-1.99503997793931
20
-34.1982444859641
30
-1E-16
41
1
10
-1.99503997793931
20
-34.0605701934049
30
-1E-16
41
1
10
-1.99503997793931
20
-33.98010670812
30
-1E-16
41
1
10
-1.99503997793931
20
-33.8984584677328
30
-1E-16
41
1
10
-1.99503997793931
20
-33.7942266244678
30
-1E-16
41
1
10
-1.99503997793931
20
-33.6227215100013
30
-1E-16
41
1
10
-1.99503997793931
20
-33.4443819493482
30
-1E-16
41
1
10
-1.99503997793931
20
-33.2591101879707
30
-1E-16
41
1
10
-1.99503997793931
20
-33.0693268620525
30
-1E-16
41
1
10
-1.99503997793931
20
-32.8237966604288
30
-1E-16
41
1
10
-1.99503997793931
20
-32.567262400264
30
-1E-16
41
1
10
-1.99503997793931
20
-32.3554556995001
30
-1E-16
41
1
10
-1.99503997793931
20
-32.1934025758849
30
-1E-16
41
1
10
-1.99503997793931
20
-32.0281430685794
30
-1E-16
41
1
10
-1.99503997793931
20
-31.803508135832
30
-1E-16
41
1
10
-1.99503997793931
20
-31.5149070210429
30
-1E-16
41
1
10
-1.99503997793931
20
-31.2159040588431
30
-1E-16
41
1
10
-1.99503997793931
20
-30.9704527178571
30
-1E-16
41
1
10
-1.99503997793931
20
-30.7209148294369
30
-1E-16
41
1
10
-1.99503997793931
20
-30.4014843150581
30
-1E-16
41
1
10
-1.99503997793931
20
-30.0060620312649
30
-1E-16
41
1
10
-1.99503997793931
20
-29.6666623731204
30
-1E-16
41
1
10
-1.99503997793931
20
-29.3891503890766
30
-1E-16
41
1
10
-1.99503997793931
20
-29.1781205774538
30
-1E-16
41
1
10
-1.99503997793931
20
-28.964169578493
30
-1E-16
41
1
10
-1.99503997793931
20
-28.6749709038125
30
-1E-16
41
1
10
-1.99503997793931
20
-28.3063605307707
30
-1E-16
41
1
10
-1.99503997793931
20
-27.9281887523049
30
-1E-16
41
1
10
-1.99503997793931
20
-27.6198572645245
30
-1E-16
41
1
10
-1.99503997793931
20
-27.3858182086698
30
-1E-16
41
1
10
-1.99503997793931
20
-27.1489558193583
30
-1E-16
41
1
10
-1.99503997793931
20
-26.8293292051835
30
-1E-16
41
1
10
-1.99503997793931
20
-26.4229269800761
30
-1E-16
41
1
10
-1.99503997793931
20
-25.9240385075183
30
-1E-16
41
1
10
-1.99503997793931
20
-25.4991460740629
30
-1E-16
41
1
10
-1.99503997793931
20
-25.1536176922536
30
-1E-16
41
1
10
-1.99503997793931
20
-24.8044353771775
30
-1E-16
41
1
10
-1.99503997793931
20
-24.3612782589387
30
-1E-16
41
1
10
-1.99503997793931
20
-23.9090605721076
30
-1E-16
41
1
10
-1.99503997793931
20
-23.5417479137996
30
-1E-16
41
1
10
-1.99503997793931
20
-23.2636185109001
30
-1E-16
41
1
10
-1.99503997793931
20
-22.9827956359495
30
-1E-16
41
1
10
-1.99503997793931
20
-22.6047071741367
30
-1E-16
41
1
10
-1.99503997793931
20
-22.2214812917415
30
-1E-16
41
1
10
-1.99503997793931
20
-21.8326778029793
30
-1E-16
41
1
10
-1.99503997793931
20
-21.538466032195
30
-1E-16
41
1
10
-1.99503997793931
20
-21.2415899298926
30
-1E-16
41
1
10
-1.99503997793931
20
-20.8421270565358
30
-1E-16
41
1
10
-1.99503997793931
20
-20.4375997068478
30
-1E-16
41
1
10
-1.99503997793931
20
-20.0275173382951
30
-1E-16
41
1
10
-1.99503997793931
20
-19.7173732272647
30
-1E-16
41
1
10
-1.99503997793931
20
-19.4045841229999
30
-1E-16
41
1
10
-1.99503997793931
20
-18.9839194912414
30
-1E-16
41
1
10
-1.99503997793931
20
-18.5582479543883
30
-1E-16
41
1
10
-1.99503997793931
20
-18.1270203682571
30
-1E-16
41
1
10
-1.99503997793931
20
-17.8010357300387
30
-1E-16
41
1
10
-1.99503997793931
20
-17.4724160404973
30
-1E-16
41
1
10
-1.99503997793931
20
-17.1964201976603
30
-1E-16
41
1
10
-1.99503997793931
20
-16.9742159130046
30
-1E-16
41
1
10
-1.99503997793931
20
-16.7511340488146
30
-1E-16
41
1
10
-1.99503997793931
20
-16.3584761888621
30
-1E-16
41
1
10
-1.99503997793931
20
-15.9047277931739
30
-1E-16
41
1
10
-1.99503997793931
20
-15.4453839893882
30
-1E-16
41
1
10
-1.99503997793931
20
-15.0983254904573
30
-1E-16
41
1
10
-1.99503997793931
20
-14.7486306960068
30
-1E-16
41
1
10
-1.99503997793931
20
-14.3962994527456
30
-1E-16
41
1
10
-1.99503997793931
20
-14.0413293344855
30
-1E-16
41
1
10
-1.99503997793931
20
-13.683719865638
30
-1E-16
41
1
10
-1.99503997793931
20
-13.3234688690064
30
-1E-16
41
1
10
-1.99503997793931
20
-12.960574817857
30
-1E-16
41
1
10
-1.99503997793931
20
-12.595036086484
30
-1E-16
41
1
10
-1.99503997793931
20
-12.2268504032845
30
-1E-16
41
1
10
-1.99503997793931
20
-11.8560164651631
30
-1E-16
41
1
10
-1.99503997793931
20
-11.5448487178991
30
-1E-16
41
1
10
-1.99503997793931
20
-11.2944582734028
30
-1E-16
41
1
10
-1.99503997793931
20
-11.0431853255423
30
-1E-16
41
1
10
-1.99503997793931
20
-10.7276055574807
30
-1E-16
41
1
10
-1.99503997793931
20
-10.3461604572555
30
-1E-16
41
1
10
-1.99503997793931
20
-9.96205939515545
30
-1E-16
41
1
10
-1.99503997793931
20
-9.57530319982877
30
-1E-16
41
1
10
-1.99503997793931
20
-9.25087630484828
30
-1E-16
41
1
10
-1.99503997793931
20
-8.98985104945214
30
-1E-16
41
1
10
-1.99503997793931
20
-8.72794364001862
30
-1E-16
41
1
10
-1.99503997793931
20
-8.46498324233687
30
-1E-16
41
1
10
-1.99503997793931
20
-8.20041755954972
30
-1E-16
41
1
10
-1.99503997793931
20
-7.93497342164284
30
-1E-16
41
1
10
-1.99503997793931
20
-7.60174006365557
30
-1E-16
41
1
10
-1.99503997793931
20
-7.26630760435378
30
-1E-16
41
1
10
-1.99503997793931
20
-6.99646231552359
30
-1E-16
41
1
10
-1.99503997793931
20
-6.7257499364033
30
-1E-16
41
1
10
-1.99503997793931
20
-6.38598399194689
30
-1E-16
41
1
10
-1.99503997793931
20
-6.0440571882672
30
-1E-16
41
1
10
-1.99503997793931
20
-5.76902086988602
30
-1E-16
41
1
10
-1.99503997793931
20
-5.56220360150749
30
-1E-16
41
1
10
-1.99503997793931
20
-5.35475597589533
30
-1E-16
41
1
10
-1.99503997793931
20
-5.14668271481384
30
-1E-16
41
1
10
-1.99503997793931
20
-4.93799065000763
30
-1E-16
41
1
10
-1.99503997793931
20
-4.76363710905446
30
-1E-16
41
1
10
-1.99503997793931
20
-4.62372539696355
30
-1E-16
41
1
10
-1.99503997793931
20
-4.48361577983206
30
-1E-16
41
1
10
-1.99503997793931
20
-4.34342549686542
30
-1E-16
41
1
10
-1.99503997793931
20
-4.20271764804272
30
-1E-16
41
1
10
-1.99503997793931
20
-4.06181812904794
30
-1E-16
41
1
10
-1.99503997793931
20
-3.8855085074218
30
-1E-16
41
1
10
-1.99503997793931
20
-3.7087243230406
30
-1E-16
41
1
10
-1.99503997793931
20
-3.56687681977306
30
-1E-16
41
1
10
-1.99503997793931
20
-3.46041866707625
30
-1E-16
41
1
10
-1.99503997793931
20
-3.35382635526125
30
-1E-16
41
1
10
-1.99503997793931
20
-3.24710174058401
30
-1E-16
41
1
10
-1.99503997793931
20
-3.14024803839368
30
-1E-16
41
1
10
-1.99503997793931
20
-3.03326805859808
30
-1E-16
41
1
10
-1.99503997793931
20
-2.92616291868399
30
-1E-16
41
1
10
-1.99503997793931
20
-2.78310305721487
30
-1E-16
41
1
10
-1.99503997793931
20
-2.60418785734106
30
-1E-16
41
1
10
-1.99503997793931
20
-2.38891915598521
30
-1E-16
41
1
10
-1.99503997793931
20
-2.17322083473795
30
-1E-16
41
1
10
-1.99503997793931
20
-1.95712119571593
30
-1E-16
41
1
10
-1.99503997793931
20
-1.77682922491971
30
-1E-16
41
1
10
-1.99503997793931
20
-1.63223932075869
30
-1E-16
41
1
10
-1.99503997793931
20
-1.52379768483641
30
-1E-16
41
1
10
-1.99503997793931
20
-1.41528063419042
30
-1E-16
41
1
10
-1.99503997793931
20
-1.27038903897372
30
-1E-16
41
1
10
-1.99503997793931
20
-1.08935866678002
30
-1E-16
41
1
10
-1.99503997793931
20
-0.908138052921174
30
-1E-16
41
1
10
-1.99503997793931
20
-0.762866902191803
30
-1E-16
41
1
10
-1.99503997793931
20
-0.653960641303343
30
-1E-16
41
1
10
-1.99503997793931
20
-0.545019960941005
30
-1E-16
41
1
10
-1.99503997793931
20
-0.399611433921848
30
-1E-16
41
1
10
-1.99503997793931
20
-0.254507243772451
30
-1E-16
41
1
10
-1.99503997793931
20
-0.109027220249999
30
-1E-16
41
1
10
-1.99503997793931
20
9.1374659E-09
30
-1E-16
41
1
10
-1.99503997793931
20
0.109027235983348
30
-1E-16
41
1
10
-1.99503997793931
20
0.254507260377665
30
-1E-16
41
1
10
-1.99503997793931
20
0.399611451538959
30
-1E-16
41
1
10
-1.99503997793931
20
0.545019973860889
30
-1E-16
41
1
10
-1.99503997793931
20
0.653960658723463
30
-1E-16
41
1
10
-1.99503997793931
20
0.76286692146644
30
-1E-16
41
1
10
-1.99503997793931
20
0.908138069364895
30
-1E-16
41
1
10
-1.99503997793931
20
1.08935868161845
30
-1E-16
41
1
10
-1.99503997793931
20
1.27038905366359
30
-1E-16
41
1
10
-1.99503997793931
20
1.41528065788859
30
-1E-16
41
1
10
-1.99503997793931
20
1.52379770019974
30
-1E-16
41
1
10
-1.99503997793931
20
1.63223933880323
30
-1E-16
41
1
10
-1.99503997793931
20
1.77682919806017
30
-1E-16
41
1
10
-1.99503997793931
20
1.92093491483612
30
-1E-16
41
1
10
-1.99503997793931
20
2.06516367446019
30
-1E-16
41
1
10
-1.99503997793931
20
2.20926559475362
30
-1E-16
41
1
10
-1.99503997793931
20
2.35286670982623
30
-1E-16
41
1
10
-1.99503997793931
20
2.49654581237678
30
-1E-16
41
1
10
-1.99503997793931
20
2.60412375528313
30
-1E-16
41
1
10
-1.99503997793931
20
2.71158686216666
30
-1E-16
41
1
10
-1.99503997793931
20
2.81893418131361
30
-1E-16
41
1
10
-1.99503997793931
20
2.92616259642287
30
-1E-16
41
1
10
-1.99503997793931
20
3.06906085087897
30
-1E-16
41
1
10
-1.99503997793931
20
3.21144324089971
30
-1E-16
41
1
10
-1.99503997793931
20
3.35382641814789
30
-1E-16
41
1
10
-1.99503997793931
20
3.4604186809762
30
-1E-16
41
1
10
-1.99503997793931
20
3.56687680853713
30
-1E-16
41
1
10
-1.99503997793931
20
3.70872432201037
30
-1E-16
41
1
10
-1.99503997793931
20
3.88550853751431
30
-1E-16
41
1
10
-1.99503997793931
20
4.06181816740792
30
-1E-16
41
1
10
-1.99503997793931
20
4.20271766259083
30
-1E-16
41
1
10
-1.99503997793931
20
4.34342548405567
30
-1E-16
41
1
10
-1.99503997793931
20
4.48361575507573
30
-1E-16
41
1
10
-1.99503997793931
20
4.62372538326241
30
-1E-16
41
1
10
-1.99503997793931
20
4.76363712095312
30
-1E-16
41
1
10
-1.99503997793931
20
4.93799069007395
30
-1E-16
41
1
10
-1.99503997793931
20
5.14668274769548
30
-1E-16
41
1
10
-1.99503997793931
20
5.35475597096192
30
-1E-16
41
1
10
-1.99503997793931
20
5.56220357677805
30
-1E-16
41
1
10
-1.99503997793931
20
5.76902086592727
30
-1E-16
41
1
10
-1.99503997793931
20
6.04405722561486
30
-1E-16
41
1
10
-1.99503997793931
20
6.38598402190891
30
-1E-16
41
1
10
-1.99503997793931
20
6.72574990920415
30
-1E-16
41
1
10
-1.99503997793931
20
6.99646231662956
30
-1E-16
41
1
10
-1.99503997793931
20
7.26630764015115
30
-1E-16
41
1
10
-1.99503997793931
20
7.60174008666431
30
-1E-16
41
1
10
-1.99503997793931
20
7.93497336561654
30
-1E-16
41
1
10
-1.99503997793931
20
8.20041752296069
30
-1E-16
41
1
10
-1.99503997793931
20
8.46498321367619
30
-1E-16
41
1
10
-1.99503997793931
20
8.79382593589912
30
-1E-16
41
1
10
-1.99503997793931
20
9.18589158918718
30
-1E-16
41
1
10
-1.99503997793931
20
9.57530335790582
30
-1E-16
41
1
10
-1.99503997793931
20
9.96205972428268
30
-1E-16
41
1
10
-1.99503997793931
20
10.3461602965628
30
-1E-16
41
1
10
-1.99503997793931
20
10.7276051607687
30
-1E-16
41
1
10
-1.99503997793931
20
11.1063953922263
30
-1E-16
41
1
10
-1.99503997793931
20
11.4825318141738
30
-1E-16
41
1
10
-1.99503997793931
20
11.85601645061
30
-1E-16
41
1
10
-1.99503997793931
20
12.2268503778689
30
-1E-16
41
1
10
-1.99503997793931
20
12.5950360925706
30
-1E-16
41
1
10
-1.99503997793931
20
12.9605748020561
30
-1E-16
41
1
10
-1.99503997793931
20
13.3234688579879
30
-1E-16
41
1
10
-1.99503997793931
20
13.6837198698814
30
-1E-16
41
1
10
-1.99503997793931
20
13.9816645441138
30
-1E-16
41
1
10
-1.99503997793931
20
14.2188112194045
30
-1E-16
41
1
10
-1.99503997793931
20
14.455079118457
30
-1E-16
41
1
10
-1.99503997793931
20
14.7486309197531
30
-1E-16
41
1
10
-1.99503997793931
20
15.0983253104253
30
-1E-16
41
1
10
-1.99503997793931
20
15.4453840138399
30
-1E-16
41
1
10
-1.99503997793931
20
15.7898077032214
30
-1E-16
41
1
10
-1.99503997793931
20
16.1315968939283
30
-1E-16
41
1
10
-1.99503997793931
20
16.4707522036702
30
-1E-16
41
1
10
-1.99503997793931
20
16.7511340559088
30
-1E-16
41
1
10
-1.99503997793931
20
16.9742159134664
30
-1E-16
41
1
10
-1.99503997793931
20
17.1964202003686
30
-1E-16
41
1
10
-1.99503997793931
20
17.4724160483816
30
-1E-16
41
1
10
-1.99503997793931
20
17.8010357340039
30
-1E-16
41
1
10
-1.99503997793931
20
18.1270203733511
30
-1E-16
41
1
10
-1.99503997793931
20
18.5582479712653
30
-1E-16
41
1
10
-1.99503997793931
20
18.983919492224
30
-1E-16
41
1
10
-1.99503997793931
20
19.4045841348166
30
-1E-16
41
1
10
-1.99503997793931
20
19.7173732218513
30
-1E-16
41
1
10
-1.99503997793931
20
20.0275173509219
30
-1E-16
41
1
10
-1.99503997793931
20
20.4375997139134
30
-1E-16
41
1
10
-1.99503997793931
20
20.8421270630884
30
-1E-16
41
1
10
-1.99503997793931
20
21.2415899372622
30
-1E-16
41
1
10
-1.99503997793931
20
21.5384660281962
30
-1E-16
41
1
10
-1.99503997793931
20
21.8326778142531
30
-1E-16
41
1
10
-1.99503997793931
20
22.2214812963055
30
-1E-16
41
1
10
-1.99503997793931
20
22.6047071794768
30
-1E-16
41
1
10
-1.99503997793931
20
22.9827956431365
30
-1E-16
41
1
10
-1.99503997793931
20
23.2636185073191
30
-1E-16
41
1
10
-1.99503997793931
20
23.5417479211438
30
-1E-16
41
1
10
-1.99503997793931
20
23.9090605798748
30
-1E-16
41
1
10
-1.99503997793931
20
24.3612782608926
30
-1E-16
41
1
10
-1.99503997793931
20
24.8044353773024
30
-1E-16
41
1
10
-1.99503997793931
20
25.1536176941803
30
-1E-16
41
1
10
-1.99503997793931
20
25.4991460823892
30
-1E-16
41
1
10
-1.99503997793931
20
25.9240385032945
30
-1E-16
41
1
10
-1.99503997793931
20
26.4229269838674
30
-1E-16
41
1
10
-1.99503997793931
20
26.8293292074653
30
-1E-16
41
1
10
-1.99503997793931
20
27.1489558217171
30
-1E-16
41
1
10
-1.99503997793931
20
27.3858182074443
30
-1E-16
41
1
10
-1.99503997793931
20
27.6198572656328
30
-1E-16
41
1
10
-1.99503997793931
20
27.9281887547298
30
-1E-16
41
1
10
-1.99503997793931
20
28.306360528673
30
-1E-16
41
1
10
-1.99503997793931
20
28.6749709053452
30
-1E-16
41
1
10
-1.99503997793931
20
28.9641695771706
30
-1E-16
41
1
10
-1.99503997793931
20
29.1781205760016
30
-1E-16
41
1
10
-1.99503997793931
20
29.3891503898005
30
-1E-16
41
1
10
-1.99503997793931
20
29.6666623719011
30
-1E-16
41
1
10
-1.99503997793931
20
30.0060620316198
30
-1E-16
41
1
10
-1.99503997793931
20
30.4014843078869
30
-1E-16
41
1
10
-1.99503997793931
20
30.720914832824
30
-1E-16
41
1
10
-1.99503997793931
20
30.9704527129577
30
-1E-16
41
1
10
-1.99503997793931
20
31.2159040534273
30
-1E-16
41
1
10
-1.99503997793931
20
31.5149070177094
30
-1E-16
41
1
10
-1.99503997793931
20
31.8035081361274
30
-1E-16
41
1
10
-1.99503997793931
20
32.0281430662551
30
-1E-16
41
1
10
-1.99503997793931
20
32.1934025642943
30
-1E-16
41
1
10
-1.99503997793931
20
32.3554556997831
30
-1E-16
41
1
10
-1.99503997793931
20
32.5672623983938
30
-1E-16
41
1
10
-1.99503997793931
20
32.8237966601455
30
-1E-16
41
1
10
-1.99503997793931
20
33.0693268459332
30
-1E-16
41
1
10
-1.99503997793931
20
33.2591101848391
30
-1E-16
41
1
10
-1.99503997793931
20
33.4443819491762
30
-1E-16
41
1
10
-1.99503997793931
20
33.622721506097
30
-1E-16
41
1
10
-1.99503997793931
20
33.7942266163982
30
-1E-16
41
1
10
-1.99503997793931
20
33.8984584538254
30
-1E-16
41
1
10
-1.99503997793931
20
33.9801066971493
30
-1E-16
41
1
10
-1.99503997793931
20
34.0605701909876
30
-1E-16
41
1
10
-1.99503997793931
20
34.1982444851696
30
-1E-16
41
1
10
-1.99503997793931
20
34.348294891195
30
-1E-16
41
1
10
-1.99503997793931
20
34.4910822889059
30
-1E-16
41
1
10
-1.99503997793931
20
34.5944312514431
30
1E-16
41
1
10
-1.99503997793931
20
34.6940212865371
30
1E-16
41
1
10
-1.99503997793931
20
34.7898102716018
30
0
41
1
10
-1.99503997793931
20
34.8817544739769
30
0
41
1
10
-1.99503997793931
20
34.9698083299964
30
0
41
1
10
-1.99503997793931
20
35.0539245925552
30
0
41
1
10
-1.99503997793931
20
35.1340530052702
30
1E-16
41
1
10
-1.99503997793931
20
35.2101447225725
30
1E-16
41
1
10
-1.99503997793928
20
35.3061643717786
30
-1E-16
41
1
10
-1.99503997793928
20
35.393827084185
30
-1E-16
41
1
10
-1.99503997793928
20
35.473017757568
30
-1E-16
41
1
10
-1.99503997793928
20
35.5280658263188
30
-1E-16
41
1
10
-1.99503997793928
20
35.5787156824351
30
-1E-16
41
1
10
-1.99503997793928
20
35.6248991716382
30
-1E-16
41
1
10
-1.99503997793928
20
35.6665413308515
30
-1E-16
41
1
10
-1.99503997793928
20
35.7035662864511
30
-1E-16
41
1
10
-1.99503997793928
20
35.7358925782286
30
-1E-16
41
1
10
-1.99503997793928
20
35.7634347985348
30
-1E-16
41
1
10
-1.99503997793928
20
35.7861037017736
30
-1E-16
41
1
10
-1.99503997793928
20
35.8038036057849
30
-1E-16
41
1
10
-1.99503997793928
20
35.8164351684488
30
-1E-16
41
1
10
-1.99503997793928
20
35.8238554509099
30
-1E-16
41
1
10
-1.99503997793928
20
35.8253166110008
30
-1E-16
41
1
10
-1.99503997793928
20
35.8251669356227
30
-1E-16
0
SPLINE
5
D4
100
AcDbEntity
8
SK1
62
256
6
ByLayer
370
18
48
1
60
0
100
AcDbSpline
70
4
71
3
72
43
73
39
40
0
40
0
40
0
40
0
40
0.0129757956873546
40
0.0273537637466853
40
0.041731731806016
40
0.0561096998653465
40
0.0848656359840079
40
0.113621572102669
40
0.14237750822133
40
0.171133444339992
40
0.199889380458653
40
0.228645316577314
40
0.257401252695976
40
0.286157188814637
40
0.314913124933298
40
0.343669061051959
40
0.372424997170621
40
0.401180933289282
40
0.429936869407943
40
0.458692805526605
40
0.487448741645266
40
0.516204677763927
40
0.544960613882588
40
0.57371655000125
40
0.602472486119911
40
0.631228422238572
40
0.659984358357234
40
0.688740294475895
40
0.717496230594556
40
0.775008102831879
40
0.80376403895054
40
0.818142007009871
40
0.832519975069201
40
0.861275911187863
40
0.890031847306524
40
0.947543719543847
40
0.976299655662508
40
1
40
1
40
1
40
1
41
1
10
-0.394976888875306
20
-35.8653776107921
30
0
41
1
10
-0.394976888875277
20
-35.8654184060119
30
0
41
1
10
-0.394976888875277
20
-35.865117622641
30
0
41
1
10
-0.394976888875277
20
-35.8634269812556
30
0
41
1
10
-0.394976888875277
20
-35.8603562366916
30
0
41
1
10
-0.394976888875277
20
-35.854515215742
30
0
41
1
10
-0.394976888875277
20
-35.8439794508304
30
0
41
1
10
-0.394976888875277
20
-35.8262611583918
30
0
41
1
10
-0.394976888875277
20
-35.8035689891332
30
0
41
1
10
-0.394976888875277
20
-35.7759991267868
30
0
41
1
10
-0.394976888875277
20
-35.7436409316581
30
0
41
1
10
-0.394976888875277
20
-35.7065800027222
30
0
41
1
10
-0.394976888875277
20
-35.6648981651514
30
0
41
1
10
-0.394976888875277
20
-35.6186711780713
30
0
41
1
10
-0.394976888875277
20
-35.5679745134804
30
0
41
1
10
-0.394976888875277
20
-35.5128761760524
30
0
41
1
10
-0.394976888875277
20
-35.4534444043633
30
0
41
1
10
-0.394976888875277
20
-35.3897431016973
30
0
41
1
10
-0.394976888875277
20
-35.3218323112639
30
0
41
1
10
-0.394976888875277
20
-35.2497710104041
30
0
41
1
10
-0.394976888875277
20
-35.1736151059194
30
0
41
1
10
-0.394976888875277
20
-35.093418190414
30
0
41
1
10
-0.394976888875277
20
-35.0092316945093
30
0
41
1
10
-0.394976888875277
20
-34.9211049595596
30
0
41
1
10
-0.394976888875277
20
-34.829085378746
30
0
41
1
10
-0.394976888875277
20
-34.7332186246447
30
0
41
1
10
-0.394976888875277
20
-34.6335485304196
30
0
41
1
10
-0.394976888875277
20
-34.5301171783813
30
0
41
1
10
-0.394976888875277
20
-34.3872241353875
30
0
41
1
10
-0.394976888875277
20
-34.2370419140071
30
0
41
1
10
-0.394976888875277
20
-34.0992650937292
30
0
41
1
10
-0.394976888875277
20
-34.0187437263543
30
0
41
1
10
-0.394976888875277
20
-33.9370370034868
30
0
41
1
10
-0.394976888875277
20
-33.8327219580027
30
0
41
1
10
-0.394976888875277
20
-33.6610954992522
30
0
41
1
10
-0.394976888875277
20
-33.4826057621145
30
0
41
1
10
-0.394976888875277
20
-33.3053539954106
30
0
41
1
10
-0.394976888875277
20
-33.2189249705472
30
0
41
1
10
-0.394976888875249
20
-33.1794972215976
30
0
0
SPLINE
5
D5
100
AcDbEntity
8
SK1
62
256
6
ByLayer
370
13
48
1
60
0
100
AcDbSpline
70
4
71
3
72
91
73
87
40
0
40
0
40
0
40
0
40
0.001835016659573
40
0.0227099702209999
40
0.0435849237824269
40
0.0540224005631404
40
0.0644598773438539
40
0.0748973541245674
40
0.0853348309052809
40
0.106209784466708
40
0.127084738028135
40
0.137522214808848
40
0.147959691589562
40
0.168834645150989
40
0.189709598712416
40
0.210584552273843
40
0.221022029054556
40
0.23145950583527
40
0.241896982615983
40
0.252334459396697
40
0.273209412958124
40
0.294084366519551
40
0.304521843300264
40
0.314959320080977
40
0.325396796861691
40
0.335834273642404
40
0.356709227203832
40
0.377584180765259
40
0.398459134326685
40
0.408896611107399
40
0.419334087888112
40
0.440209041449539
40
0.461083995010966
40
0.47152147179168
40
0.481958948572393
40
0.492396425353107
40
0.50283390213382
40
0.523708855695247
40
0.534146332475961
40
0.544583809256674
40
0.555021286037388
40
0.565458762818101
40
0.586333716379528
40
0.596771193160242
40
0.607208669940955
40
0.617646146721669
40
0.628083623502382
40
0.648958577063809
40
0.659396053844522
40
0.669833530625236
40
0.68027100740595
40
0.690708484186663
40
0.69592722257702
40
0.701145960967376
40
0.71158343774809
40
0.732458391309517
40
0.74289586809023
40
0.753333344870944
40
0.763770821651657
40
0.774208298432371
40
0.784645775213084
40
0.795083251993798
40
0.805520728774511
40
0.815958205555225
40
0.826395682335938
40
0.836833159116652
40
0.847270635897365
40
0.857708112678079
40
0.862926851068436
40
0.868145589458792
40
0.878583066239506
40
0.889020543020219
40
0.899458019800933
40
0.909895496581646
40
0.92033297336236
40
0.925551711752717
40
0.930770450143073
40
0.941207926923787
40
0.946426665314143
40
0.9516454037045
40
0.962082880485214
40
0.972520357265927
40
0.977739095656284
40
0.982957834046641
40
0.993395310827354
40
1
40
1
40
1
40
1
41
1
10
-0.394976888875277
20
-33.1794972216027
30
0
41
1
10
-0.394976888875277
20
-33.1710867698075
30
0
41
1
10
-0.394976888875277
20
-33.0667869777002
30
0
41
1
10
-0.394976888875277
20
-32.8615720411721
30
0
41
1
10
-0.394976888875277
20
-32.6048424706425
30
0
41
1
10
-0.394976888875277
20
-32.3928928336977
30
0
41
1
10
-0.394976888875277
20
-32.2307235620492
30
0
41
1
10
-0.394976888875277
20
-32.0653460684281
30
0
41
1
10
-0.394976888875277
20
-31.8405614201245
30
0
41
1
10
-0.394976888875277
20
-31.5517459050345
30
0
41
1
10
-0.394976888875277
20
-31.2525219538402
30
0
41
1
10
-0.394976888875277
20
-31.0069093628079
30
0
41
1
10
-0.394976888875277
20
-30.7572080028694
30
0
41
1
10
-0.394976888875277
20
-30.4375437762782
30
0
41
1
10
-0.394976888875277
20
-30.0418468835666
30
0
41
1
10
-0.394976888875277
20
-29.7022003148107
30
0
41
1
10
-0.394976888875277
20
-29.4245084215695
30
0
41
1
10
-0.394976888875277
20
-29.2133327662611
30
0
41
1
10
-0.394976888875277
20
-28.9992339821199
30
0
41
1
10
-0.394976888875277
20
-28.7098481386985
30
0
41
1
10
-0.394976888875277
20
-28.340970496997
30
0
41
1
10
-0.394976888875277
20
-27.9625243931996
30
0
41
1
10
-0.394976888875277
20
-27.6539931003944
30
0
41
1
10
-0.394976888875277
20
-27.4197920834741
30
0
41
1
10
-0.394976888875277
20
-27.1827656068871
30
0
41
1
10
-0.394976888875277
20
-26.8629311640439
30
0
41
1
10
-0.394976888875277
20
-26.4562321573553
30
0
41
1
10
-0.394976888875277
20
-25.9569955498363
30
0
41
1
10
-0.394976888875277
20
-25.5317904219061
30
0
41
1
10
-0.394976888875277
20
-25.1860341634964
30
0
41
1
10
-0.394976888875277
20
-24.8366207517989
30
0
41
1
10
-0.394976888875277
20
-24.3931333790251
30
0
41
1
10
-0.394976888875277
20
-23.9405766044571
30
0
41
1
10
-0.394976888875277
20
-23.5730166229076
30
0
41
1
10
-0.394976888875277
20
-23.294686474333
30
0
41
1
10
-0.394976888875277
20
-23.0136599895412
30
0
41
1
10
-0.394976888875277
20
-22.6353132371553
30
0
41
1
10
-0.394976888875277
20
-22.2517707343539
30
0
41
1
10
-0.394976888875277
20
-21.8626976854152
30
0
41
1
10
-0.394976888875277
20
-21.5682668931889
30
0
41
1
10
-0.394976888875277
20
-21.271168442681
30
0
41
1
10
-0.394976888875277
20
-20.8714231892215
30
0
41
1
10
-0.394976888875277
20
-20.4665491966628
30
0
41
1
10
-0.394976888875277
20
-20.0561712634217
30
0
41
1
10
-0.394976888875277
20
-19.7457866731406
30
0
41
1
10
-0.394976888875277
20
-19.4327531245027
30
0
41
1
10
-0.394976888875277
20
-19.0117775840375
30
0
41
1
10
-0.394976888875277
20
-18.5857236375232
30
0
41
1
10
-0.394976888875277
20
-18.1541693136931
30
0
41
1
10
-0.394976888875277
20
-17.8279183574374
30
0
41
1
10
-0.394976888875277
20
-17.4990274869922
30
0
41
1
10
-0.394976888875277
20
-17.2227901407219
30
0
41
1
10
-0.394976888875277
20
-17.0004108943221
30
0
41
1
10
-0.394976888875277
20
-16.7771522077328
30
0
41
1
10
-0.394976888875277
20
-16.3841710240747
30
0
41
1
10
-0.394976888875277
20
-15.9299794688331
30
0
41
1
10
-0.394976888875277
20
-15.4702555452062
30
0
41
1
10
-0.394976888875277
20
-15.1228861045844
30
0
41
1
10
-0.394976888875277
20
-14.7728737253136
30
0
41
1
10
-0.394976888875277
20
-14.4202178800222
30
0
41
1
10
-0.394976888875277
20
-14.0649158346649
30
0
41
1
10
-0.394976888875277
20
-13.706966774032
30
0
41
1
10
-0.394976888875277
20
-13.3463680945818
30
0
41
1
10
-0.394976888875277
20
-12.9831179010793
30
0
41
1
10
-0.394976888875277
20
-12.6172140721258
30
0
41
1
10
-0.394976888875277
20
-12.2486538786068
30
0
41
1
10
-0.394976888875277
20
-11.877435461996
30
0
41
1
10
-0.394976888875277
20
-11.5659225593266
30
0
41
1
10
-0.394976888875277
20
-11.3152803628128
30
0
41
1
10
-0.394976888875277
20
-11.0637515002381
30
0
41
1
10
-0.394976888875277
20
-10.7478052942324
30
0
41
1
10
-0.394976888875277
20
-10.3659294753254
30
0
41
1
10
-0.394976888875277
20
-9.98138431841267
30
0
41
1
10
-0.394976888875277
20
-9.59416962249634
30
0
41
1
10
-0.394976888875277
20
-9.26932873965478
30
0
41
1
10
-0.394976888875277
20
-9.00799999429159
30
0
41
1
10
-0.394976888875277
20
-8.7457829273653
30
0
41
1
10
-0.394976888875277
20
-8.48244127998379
30
0
41
1
10
-0.394976888875277
20
-8.21754953480053
30
0
41
1
10
-0.394976888875277
20
-7.95177203759235
30
0
41
1
10
-0.394976888875277
20
-7.61805779883338
30
0
41
1
10
-0.394976888875277
20
-7.28212707034135
30
0
41
1
10
-0.394976888875277
20
-7.01191435047286
30
0
41
1
10
-0.394976888875277
20
-6.74082520810296
30
0
41
1
10
-0.394976888875277
20
-6.45050039040561
30
0
41
1
10
-0.394976888875277
20
-6.22707378727884
30
0
41
1
10
-0.394976888875277
20
-6.14029722152793
30
0
0
SPLINE
5
D6
100
AcDbEntity
8
SK1
62
256
6
ByLayer
370
18
48
1
60
0
100
AcDbSpline
70
4
71
3
72
26
73
22
40
0
40
0
40
0
40
0
40
0.0312499999999997
40
0.0312499999999997
40
0.0624999999999994
40
0.0624999999999994
40
0.0937499999999991
40
0.0937499999999991
40
0.124999999999999
40
0.124999999999999
40
0.187499999999999
40
0.187499999999999
40
0.249999999999999
40
0.249999999999999
40
0.374999999999999
40
0.374999999999999
40
0.499999999999999
40
0.499999999999999
40
0.749999999999999
40
0.749999999999999
40
1
40
1
40
1
40
1
41
1
10
-0.394976888875306
20
-6.14029722153327
30
0
41
1
10
-0.411386827853335
20
-6.15471389261219
30
0
41
1
10
-0.428762929070302
20
-6.16792682850331
30
0
41
1
10
-0.466312490804484
20
-6.19087886287881
30
0
41
1
10
-0.48648634095531
20
-6.20053205424256
30
0
41
1
10
-0.528636087579116
20
-6.21387385760758
30
0
41
1
10
-0.551333806654185
20
-6.21763094422388
30
0
41
1
10
-0.595996896779212
20
-6.21759710275111
30
0
41
1
10
-0.618501718611839
20
-6.21388050874924
30
0
41
1
10
-0.682666367362799
20
-6.19354801200384
30
0
41
1
10
-0.720497492514255
20
-6.16857769971648
30
0
41
1
10
-0.786209064871798
20
-6.11129360410717
30
0
41
1
10
-0.815074852177133
20
-6.07817489743735
30
0
41
1
10
-0.892438429618096
20
-5.97534441057223
30
-1E-16
41
1
10
-0.933322586559768
20
-5.90108526750925
30
-1E-16
41
1
10
-1.00643010561566
20
-5.74774420897123
30
-1E-16
41
1
10
-1.03799495343554
20
-5.6687517075986
30
-1E-16
41
1
10
-1.12311078163748
20
-5.4303704240005
30
-1E-16
41
1
10
-1.16788167463841
20
-5.26810674825339
30
-1E-16
41
1
10
-1.24572901926439
20
-4.93961739422357
30
-1E-16
41
1
10
-1.27842602392926
20
-4.77330384397376
30
-1E-16
41
1
10
-1.30710678118652
20
-4.60538003006579
30
-1E-16
0
SPLINE
5
D7
100
AcDbEntity
8
SK1
62
256
6
ByLayer
370
18
48
1
60
0
100
AcDbSpline
70
4
71
3
72
24
73
20
40
0
40
0
40
0
40
0
40
0.250000000000001
40
0.250000000000001
40
0.500000000000002
40
0.500000000000002
40
0.625000000000003
40
0.625000000000003
40
0.750000000000004
40
0.750000000000004
40
0.812500000000004
40
0.812500000000004
40
0.875000000000004
40
0.875000000000004
40
0.906250000000003
40
0.906250000000003
40
0.937500000000002
40
0.937500000000002
40
1
40
1
40
1
40
1
41
1
10
-0.199999999999989
20
-6.83961978441093
30
0
41
1
10
-0.199999999999989
20
-6.77266365744609
30
0
41
1
10
-0.201382572617064
20
-6.70565659874339
30
0
41
1
10
-0.207977972208369
20
-6.57153390296489
30
0
41
1
10
-0.213104017709668
20
-6.50438623378699
30
0
41
1
10
-0.225863327175887
20
-6.4036859915077
30
0
41
1
10
-0.230960199961459
20
-6.37022262622861
30
0
41
1
10
-0.24390932293133
20
-6.30365027444543
30
0
41
1
10
-0.251695140323164
20
-6.27046679752749
30
0
41
1
10
-0.267365003959185
20
-6.2222404342111
30
0
41
1
10
-0.27325879257495
20
-6.20639762175588
30
0
41
1
10
-0.287575041852421
20
-6.17559244970374
30
0
41
1
10
-0.29602542398473
20
-6.16029740280578
30
0
41
1
10
-0.312745147160797
20
-6.14053723214818
30
0
41
1
10
-0.318964396070271
20
-6.13456921276199
30
0
41
1
10
-0.333306743992608
20
-6.12532418760159
30
0
41
1
10
-0.341564173962269
20
-6.12220353729671
30
0
41
1
10
-0.366640590815791
20
-6.12048722824949
30
0
41
1
10
-0.382359877230272
20
-6.12921276185227
30
0
41
1
10
-0.394976888875504
20
-6.1402972215283
30
0
0
SPLINE
5
D8
100
AcDbEntity
8
SK1
62
256
6
ByLayer
370
18
48
1
60
0
100
AcDbSpline
70
4
71
3
72
316
73
312
40
0
40
0
40
0
40
0
40
0.0001407919977513
40
0.0036609273172421
40
0.0071810626367329
40
0.0107011979562237
40
0.0142213332757145
40
0.0177414685952052
40
0.021261603914696
40
0.0247817392341868
40
0.0283018745536776
40
0.0318220098731684
40
0.0353421451926592
40
0.03886228051215
40
0.0423824158316408
40
0.0459025511511316
40
0.0494226864706223
40
0.0529428217901131
40
0.0564629571096039
40
0.0599830924290947
40
0.0635032277485855
40
0.0670233630680763
40
0.0705434983875671
40
0.0740636337070579
40
0.0775837690265487
40
0.0846240396655302
40
0.088144174985021
40
0.0899042426447664
40
0.0916643103045118
40
0.0951844456240026
40
0.0987045809434934
40
0.105744851582475
40
0.109264986901966
40
0.112785122221456
40
0.119825392860438
40
0.12686566349942
40
0.13038579881891
40
0.133905934138401
40
0.137426069457892
40
0.140946204777383
40
0.147986475416364
40
0.155026746055346
40
0.158546881374837
40
0.162067016694328
40
0.169107287333309
40
0.176147557972291
40
0.183187828611272
40
0.186707963930763
40
0.190228099250254
40
0.193748234569745
40
0.197268369889235
40
0.204308640528217
40
0.211348911167199
40
0.214869046486689
40
0.21838918180618
40
0.221909317125671
40
0.225429452445162
40
0.232469723084143
40
0.239509993723125
40
0.246550264362107
40
0.250070399681597
40
0.253590535001088
40
0.26063080564007
40
0.267671076279051
40
0.271191211598542
40
0.274711346918033
40
0.278231482237524
40
0.281751617557014
40
0.288791888195996
40
0.292312023515487
40
0.295832158834978
40
0.299352294154468
40
0.302872429473959
40
0.309912700112941
40
0.313432835432432
40
0.316952970751922
40
0.320473106071413
40
0.323993241390904
40
0.331033512029886
40
0.334553647349376
40
0.338073782668867
40
0.341593917988358
40
0.345114053307849
40
0.346874120967594
40
0.348634188627339
40
0.35215432394683
40
0.359194594585812
40
0.362714729905303
40
0.366234865224793
40
0.369755000544284
40
0.373275135863775
40
0.376795271183266
40
0.380315406502757
40
0.383835541822247
40
0.387355677141738
40
0.390875812461229
40
0.39439594778072
40
0.39791608310021
40
0.401436218419701
40
0.403196286079447
40
0.404956353739192
40
0.408476489058683
40
0.411996624378174
40
0.415516759697664
40
0.419036895017155
40
0.422557030336646
40
0.424317097996391
40
0.426077165656137
40
0.429597300975627
40
0.431357368635373
40
0.433117436295118
40
0.436637571614609
40
0.4401577069341
40
0.441917774593845
40
0.443677842253591
40
0.447197977573082
40
0.450718112892572
40
0.452478180552318
40
0.454238248212063
40
0.455998315871808
40
0.457758383531554
40
0.459518451191299
40
0.461278518851045
40
0.462158552680917
40
0.46303858651079
40
0.464798654170536
40
0.465678688000408
40
0.466558721830281
40
0.468318789490026
40
0.470078857149772
40
0.470958890979644
40
0.471838924809517
40
0.47271895863939
40
0.473598992469263
40
0.474479026299135
40
0.475359060129008
40
0.47623909395888
40
0.477119127788753
40
0.478879195448499
40
0.480639263108244
40
0.482399330767989
40
0.484159398427735
40
0.48591946608748
40
0.486799499917353
40
0.487679533747226
40
0.488559567577098
40
0.489439601406971
40
0.491199669066716
40
0.492959736726462
40
0.493839770556334
40
0.494719804386207
40
0.49559983821608
40
0.496479872045953
40
0.498239939705698
40
0.499119973535571
40
0.500000007365443
40
0.500880041195316
40
0.501760075025189
40
0.503520142684934
40
0.504400176514807
40
0.50528021034468
40
0.506160244174552
40
0.507040278004425
40
0.50880034566417
40
0.510560413323916
40
0.511440447153788
40
0.512320480983661
40
0.513200514813534
40
0.514080548643406
40
0.515840616303152
40
0.516720650133025
40
0.517600683962897
40
0.519360751622643
40
0.520240785452515
40
0.521120819282388
40
0.522000853112261
40
0.522880886942133
40
0.523760920772006
40
0.524640954601879
40
0.526401022261624
40
0.527281056091497
40
0.52816108992137
40
0.529041123751242
40
0.529921157581115
40
0.53168122524086
40
0.533441292900606
40
0.534321326730479
40
0.535201360560351
40
0.536961428220097
40
0.537841462049969
40
0.538721495879842
40
0.540481563539587
40
0.542241631199333
40
0.544001698859078
40
0.545761766518824
40
0.547521834178569
40
0.549281901838314
40
0.552802037157805
40
0.556322172477296
40
0.558082240137041
40
0.559842307796787
40
0.563362443116278
40
0.566882578435768
40
0.568642646095514
40
0.570402713755259
40
0.57392284907475
40
0.577442984394241
40
0.580963119713731
40
0.584483255033222
40
0.588003390352713
40
0.591523525672204
40
0.595043660991695
40
0.598563796311185
40
0.602083931630676
40
0.605604066950167
40
0.609124202269658
40
0.612644337589148
40
0.616164472908639
40
0.61968460822813
40
0.623204743547621
40
0.624964811207366
40
0.626724878867112
40
0.630245014186603
40
0.633765149506093
40
0.637285284825584
40
0.640805420145075
40
0.644325555464566
40
0.647845690784057
40
0.651365826103547
40
0.653125893763293
40
0.654885961423038
40
0.658406096742529
40
0.66192623206202
40
0.66544636738151
40
0.668966502701001
40
0.676006773339983
40
0.679526908659474
40
0.683047043978964
40
0.686567179298455
40
0.690087314617946
40
0.697127585256927
40
0.700647720576418
40
0.704167855895909
40
0.7076879912154
40
0.711208126534891
40
0.718248397173872
40
0.721768532493363
40
0.725288667812854
40
0.728808803132345
40
0.732328938451835
40
0.739369209090817
40
0.746409479729799
40
0.749929615049289
40
0.75344975036878
40
0.760490021007762
40
0.767530291646743
40
0.774570562285725
40
0.778090697605216
40
0.781610832924706
40
0.785130968244197
40
0.788651103563688
40
0.79569137420267
40
0.802731644841651
40
0.806251780161142
40
0.809771915480633
40
0.813292050800124
40
0.816812186119614
40
0.823852456758596
40
0.830892727397577
40
0.837932998036559
40
0.84145313335605
40
0.844973268675541
40
0.852013539314522
40
0.859053809953504
40
0.862573945272995
40
0.866094080592485
40
0.869614215911976
40
0.873134351231467
40
0.880174621870449
40
0.88721489250943
40
0.890735027828921
40
0.894255163148412
40
0.901295433787393
40
0.904815569106884
40
0.908335704426375
40
0.91009577208612
40
0.911855839745866
40
0.915375975065356
40
0.922416245704338
40
0.925936381023829
40
0.92945651634332
40
0.93297665166281
40
0.936496786982301
40
0.940016922301792
40
0.943537057621283
40
0.947057192940774
40
0.950577328260264
40
0.954097463579755
40
0.957617598899246
40
0.964657869538227
40
0.968178004857718
40
0.971698140177209
40
0.9752182754967
40
0.978738410816191
40
0.982258546135681
40
0.985778681455172
40
0.989298816774663
40
0.992818952094154
40
0.996339087413645
40
0.999859222733135
40
1
40
1
40
1
40
1
41
1
10
-2.19999999999999
20
-35.9983615430243
30
-1E-16
41
1
10
-2.19999999999999
20
-35.9981610350188
30
-1E-16
41
1
10
-2.19999999999996
20
-35.9929120164454
30
-1E-16
41
1
10
-2.19999999999999
20
-35.9808152586154
30
-1E-16
41
1
10
-2.19999999999999
20
-35.9580337844422
30
-1E-16
41
1
10
-2.19999999999999
20
-35.9303574155849
30
-1E-16
41
1
10
-2.19999999999999
20
-35.8978764072393
30
-1E-16
41
1
10
-2.19999999999999
20
-35.8606772012186
30
-1E-16
41
1
10
-2.19999999999999
20
-35.8188423507704
30
-1E-16
41
1
10
-2.19999999999999
20
-35.7724483138314
30
-1E-16
41
1
10
-2.19999999999999
20
-35.7215711806023
30
-1E-16
41
1
10
-2.19999999999999
20
-35.6662795049963
30
-1E-16
41
1
10
-2.19999999999999
20
-35.606642098176
30
-1E-16
41
1
10
-2.19999999999999
20
-35.5427232831041
30
-1E-16
41
1
10
-2.19999999999999
20
-35.4745835494885
30
1E-16
41
1
10
-2.19999999999999
20
-35.4022823040986
30
1E-16
41
1
10
-2.19999999999999
20
-35.3258758054439
30
0
41
1
10
-2.19999999999999
20
-35.2454179865413
30
0
41
1
10
-2.19999999999999
20
-35.1609605897894
30
0
41
1
10
-2.19999999999999
20
-35.0725532425695
30
0
41
1
10
-2.19999999999999
20
-34.9802436065342
30
0
41
1
10
-2.19999999999999
20
-34.8840775983924
30
1E-16
41
1
10
-2.19999999999999
20
-34.7840992673662
30
1E-16
41
1
10
-2.19999999999999
20
-34.6803509079355
30
-1E-16
41
1
10
-2.19999999999999
20
-34.5370512446321
30
-1E-16
41
1
10
-2.19999999999999
20
-34.3863617307859
30
-1E-16
41
1
10
-2.19999999999999
20
-34.2481903116661
30
-1E-16
41
1
10
-2.19999999999999
20
-34.1674461732589
30
-1E-16
41
1
10
-2.19999999999999
20
-34.0855143686357
30
-1E-16
41
1
10
-2.19999999999999
20
-33.9808791024373
30
-1E-16
41
1
10
-2.19999999999999
20
-33.8087856254549
30
-1E-16
41
1
10
-2.19999999999999
20
-33.6297179034793
30
-1E-16
41
1
10
-2.19999999999999
20
-33.4438214227632
30
-1E-16
41
1
10
-2.19999999999999
20
-33.2534024597305
30
-1E-16
41
1
10
-2.19999999999999
20
-33.0069583004128
30
-1E-16
41
1
10
-2.19999999999999
20
-32.7494770380993
30
-1E-16
41
1
10
-2.19999999999999
20
-32.5369772821028
30
-1E-16
41
1
10
-2.19999999999999
20
-32.3743609910527
30
-1E-16
41
1
10
-2.19999999999999
20
-32.2085294030258
30
-1E-16
41
1
10
-2.19999999999999
20
-31.9831685438612
30
-1E-16
41
1
10
-2.19999999999999
20
-31.6935278654741
30
-1E-16
41
1
10
-2.19999999999999
20
-31.3934533930513
30
-1E-16
41
1
10
-2.19999999999999
20
-31.1472201983193
30
-1E-16
41
1
10
-2.19999999999999
20
-30.8968896848933
30
-1E-16
41
1
10
-2.19999999999999
20
-30.5763259691741
30
-1E-16
41
1
10
-2.19999999999999
20
-30.1795721880178
30
-1E-16
41
1
10
-2.19999999999999
20
-29.8389753334018
30
-1E-16
41
1
10
-2.19999999999999
20
-29.5605910229122
30
-1E-16
41
1
10
-2.19999999999999
20
-29.3488540584265
30
-1E-16
41
1
10
-2.19999999999999
20
-29.1341864928692
30
-1E-16
41
1
10
-2.19999999999999
20
-28.8440802923644
30
-1E-16
41
1
10
-2.19999999999999
20
-28.4741740127019
30
-1E-16
41
1
10
-2.19999999999999
20
-28.0946721119014
30
-1E-16
41
1
10
-2.19999999999999
20
-27.7853718286964
30
-1E-16
41
1
10
-2.19999999999999
20
-27.5505474715739
30
-1E-16
41
1
10
-2.19999999999999
20
-27.3128894716318
30
-1E-16
41
1
10
-2.19999999999999
20
-26.9922551577599
30
-1E-16
41
1
10
-2.19999999999999
20
-26.5844139266108
30
-1E-16
41
1
10
-2.19999999999999
20
-26.0838374506717
30
-1E-16
41
1
10
-2.19999999999999
20
-25.6574288542629
30
-1E-16
41
1
10
-2.19999999999999
20
-25.310795566268
30
-1E-16
41
1
10
-2.19999999999999
20
-24.9604927320777
30
-1E-16
41
1
10
-2.19999999999999
20
-24.5157343073517
30
-1E-16
41
1
10
-2.19999999999999
20
-24.0618724844523
30
-1E-16
41
1
10
-2.19999999999999
20
-23.6933606289522
30
-1E-16
41
1
10
-2.19999999999999
20
-23.4142578696928
30
-1E-16
41
1
10
-2.19999999999999
20
-23.1324477508894
30
-1E-16
41
1
10
-2.19999999999999
20
-22.7531069145398
30
-1E-16
41
1
10
-2.19999999999999
20
-22.3683458335126
30
-1E-16
41
1
10
-2.19999999999999
20
-21.9782353272421
30
-1E-16
41
1
10
-2.19999999999999
20
-21.6829615863146
30
-1E-16
41
1
10
-2.19999999999999
20
-21.3850073833771
30
-1E-16
41
1
10
-2.19999999999999
20
-20.984175332485
30
-1E-16
41
1
10
-2.19999999999999
20
-20.5779672141207
30
-1E-16
41
1
10
-2.19999999999999
20
-20.1664517398788
30
-1E-16
41
1
10
-2.19999999999999
20
-19.8551416161418
30
-1E-16
41
1
10
-2.19999999999999
20
-19.5411672734658
30
-1E-16
41
1
10
-2.19999999999999
20
-19.1189951374152
30
-1E-16
41
1
10
-2.19999999999999
20
-18.6914694093052
30
-1E-16
41
1
10
-2.19999999999999
20
-18.2586575687844
30
-1E-16
41
1
10
-2.19999999999999
20
-17.9313816332312
30
-1E-16
41
1
10
-2.19999999999999
20
-17.601447067755
30
-1E-16
41
1
10
-2.19999999999999
20
-17.3242802462531
30
-1E-16
41
1
10
-2.19999999999999
20
-17.1012276238876
30
-1E-16
41
1
10
-2.19999999999999
20
-16.8772884002214
30
-1E-16
41
1
10
-2.19999999999999
20
-16.4830628393222
30
-1E-16
41
1
10
-2.19999999999999
20
-16.0271656941318
30
-1E-16
41
1
10
-2.19999999999999
20
-15.5659788017487
30
-1E-16
41
1
10
-2.19999999999999
20
-15.2174126385948
30
-1E-16
41
1
10
-2.19999999999999
20
-14.8661779693539
30
-1E-16
41
1
10
-2.19999999999999
20
-14.5122728269276
30
-1E-16
41
1
10
-2.19999999999999
20
-14.1556932924212
30
-1E-16
41
1
10
-2.19999999999999
20
-13.7964372435234
30
-1E-16
41
1
10
-2.19999999999999
20
-13.434500435816
30
-1E-16
41
1
10
-2.19999999999999
20
-13.0698795558119
30
-1E-16
41
1
10
-2.19999999999999
20
-12.7025705743373
30
-1E-16
41
1
10
-2.19999999999999
20
-12.3325690014507
30
-1E-16
41
1
10
-2.19999999999999
20
-11.9598708409374
30
-1E-16
41
1
10
-2.19999999999999
20
-11.6470295372759
30
-1E-16
41
1
10
-2.19999999999999
20
-11.3954184217635
30
-1E-16
41
1
10
-2.19999999999999
20
-11.1429046192031
30
-1E-16
41
1
10
-2.19999999999999
20
-10.8255481020131
30
-1E-16
41
1
10
-2.19999999999999
20
-10.4420145743896
30
-1E-16
41
1
10
-2.19999999999999
20
-10.0557602279918
30
-1E-16
41
1
10
-2.19999999999999
20
-9.66678089901876
30
-1E-16
41
1
10
-2.19999999999999
20
-9.34034669943736
30
-1E-16
41
1
10
-2.19999999999999
20
-9.07784991102176
30
-1E-16
41
1
10
-2.19999999999999
20
-8.81444106406229
30
-1E-16
41
1
10
-2.19999999999999
20
-8.5496320994335
30
-1E-16
41
1
10
-2.19999999999999
20
-8.28348543659976
30
-1E-16
41
1
10
-2.19999999999999
20
-8.01642493811286
30
-1E-16
41
1
10
-2.19999999999999
20
-7.68085993160076
30
-1E-16
41
1
10
-2.19999999999999
20
-7.34301151247959
30
-1E-16
41
1
10
-2.19999999999999
20
-7.07138465930166
30
-1E-16
41
1
10
-2.19999999999999
20
-6.79884546670323
30
-1E-16
41
1
10
-2.19999999999999
20
-6.45643328069661
30
-1E-16
41
1
10
-2.19999999999999
20
-6.11175146674466
30
-1E-16
41
1
10
-2.19999999999999
20
-5.83467460689425
30
-1E-16
41
1
10
-2.19999999999999
20
-5.6261808540489
30
-1E-16
41
1
10
-2.19999999999999
20
-5.41701391929837
30
-1E-16
41
1
10
-2.19999999999999
20
-5.20717745478146
30
-1E-16
41
1
10
-2.19999999999999
20
-4.99667509392856
30
-1E-16
41
1
10
-2.19999999999999
20
-4.82069761094564
30
-1E-16
41
1
10
-2.19999999999999
20
-4.67960211600024
30
-1E-16
41
1
10
-2.19999999999999
20
-4.53828872405643
30
-1E-16
41
1
10
-2.19999999999999
20
-4.39662510037118
30
-1E-16
41
1
10
-2.19999999999999
20
-4.25466574513038
30
-1E-16
41
1
10
-2.19999999999999
20
-4.11249339754067
30
-1E-16
41
1
10
-2.19999999999999
20
-3.93436102619759
30
-1E-16
41
1
10
-2.19999999999999
20
-3.75570803581107
30
-1E-16
41
1
10
-2.19999999999999
20
-3.61249538417181
30
-1E-16
41
1
10
-2.19999999999999
20
-3.50492661910167
30
-1E-16
41
1
10
-2.19999999999999
20
-3.39720741056175
30
-1E-16
41
1
10
-2.19999999999999
20
-3.2893397618125
30
-1E-16
41
1
10
-2.19999999999999
20
-3.18132544112754
30
-1E-16
41
1
10
-2.19999999999999
20
-3.0731663113279
30
-1E-16
41
1
10
-2.19999999999999
20
-2.96486450366427
30
-1E-16
41
1
10
-2.19999999999999
20
-2.8202855732074
30
-1E-16
41
1
10
-2.19999999999999
20
-2.6391937472294
30
-1E-16
41
1
10
-2.19999999999999
20
-2.42136740345265
30
-1E-16
41
1
10
-2.19999999999999
20
-2.2030366306553
30
-1E-16
41
1
10
-2.19999999999999
20
-1.98422944343233
30
-1E-16
41
1
10
-2.19999999999999
20
-1.80150795480097
30
-1E-16
41
1
10
-2.19999999999999
20
-1.65514766840653
30
-1E-16
41
1
10
-2.19999999999999
20
-1.54527064958367
30
-1E-16
41
1
10
-2.19999999999999
20
-1.435301180159
30
-1E-16
41
1
10
-2.19999999999999
20
-1.28857135826542
30
-1E-16
41
1
10
-2.19999999999999
20
-1.10492621249185
30
-1E-16
41
1
10
-2.19999999999999
20
-0.921048397975113
30
-1E-16
41
1
10
-2.19999999999999
20
-0.773855181921306
30
-1E-16
41
1
10
-2.19999999999999
20
-0.663399753590795
30
-1E-16
41
1
10
-2.19999999999999
20
-0.552900673038835
30
-1E-16
41
1
10
-2.19999999999999
20
-0.405533020604196
30
-1E-16
41
1
10
-2.19999999999999
20
-0.258066027197003
30
-1E-16
41
1
10
-2.19999999999999
20
-0.110609798282297
30
-1E-16
41
1
10
-2.19999999999999
20
7.9678557E-09
30
-1E-16
41
1
10
-2.19999999999999
20
0.110609814521041
30
-1E-16
41
1
10
-2.19999999999999
20
0.258066043297788
30
-1E-16
41
1
10
-2.19999999999999
20
0.405533036679572
30
-1E-16
41
1
10
-2.19999999999999
20
0.552900689625886
30
-1E-16
41
1
10
-2.19999999999999
20
0.663399769480321
30
-1E-16
41
1
10
-2.19999999999999
20
0.77385519789371
30
-1E-16
41
1
10
-2.19999999999999
20
0.921048414140955
30
-1E-16
41
1
10
-2.19999999999999
20
1.10492622913023
30
-1E-16
41
1
10
-2.19999999999999
20
1.28857137427266
30
-1E-16
41
1
10
-2.19999999999999
20
1.43530119545
30
-1E-16
41
1
10
-2.19999999999999
20
1.54527066672026
30
-1E-16
41
1
10
-2.19999999999999
20
1.65514768405933
30
-1E-16
41
1
10
-2.19999999999999
20
1.8015079794429
30
-1E-16
41
1
10
-2.19999999999999
20
1.94769984814903
30
-1E-16
41
1
10
-2.19999999999999
20
2.09363388662035
30
-1E-16
41
1
10
-2.19999999999999
20
2.23941432408864
30
-1E-16
41
1
10
-2.19999999999999
20
2.38499085138608
30
-1E-16
41
1
10
-2.19999999999999
20
2.53028147448529
30
-1E-16
41
1
10
-2.19999999999999
20
2.639128503405
30
-1E-16
41
1
10
-2.19999999999999
20
2.74784323707018
30
-1E-16
41
1
10
-2.19999999999999
20
2.8564227422421
30
-1E-16
41
1
10
-2.19999999999999
20
2.96486450652625
30
-1E-16
41
1
10
-2.19999999999999
20
3.10925640073572
30
-1E-16
41
1
10
-2.19999999999999
20
3.25339347207256
30
-1E-16
41
1
10
-2.19999999999999
20
3.39720740223609
30
-1E-16
41
1
10
-2.19999999999999
20
3.50492662159448
30
-1E-16
41
1
10
-2.19999999999999
20
3.6124953877443
30
-1E-16
41
1
10
-2.19999999999999
20
3.75570803460607
30
-1E-16
41
1
10
-2.19999999999999
20
3.93436102607177
30
-1E-16
41
1
10
-2.19999999999999
20
4.11249340828527
30
-1E-16
41
1
10
-2.19999999999999
20
4.2546657616511
30
-1E-16
41
1
10
-2.19999999999999
20
4.39662511608441
30
-1E-16
41
1
10
-2.19999999999999
20
4.53828873143234
30
-1E-16
41
1
10
-2.19999999999999
20
4.67960211602713
30
-1E-16
41
1
10
-2.19999999999999
20
4.82069760714901
30
-1E-16
41
1
10
-2.19999999999999
20
4.99667509827836
30
-1E-16
41
1
10
-2.19999999999999
20
5.20717747481996
30
-1E-16
41
1
10
-2.19999999999999
20
5.41701393923276
30
-1E-16
41
1
10
-2.19999999999999
20
5.62618085956726
30
-1E-16
41
1
10
-2.19999999999999
20
5.83467460016638
30
-1E-16
41
1
10
-2.19999999999999
20
6.11175147173768
30
-1E-16
41
1
10
-2.19999999999999
20
6.45643331679503
30
-1E-16
41
1
10
-2.19999999999999
20
6.79884546868334
30
-1E-16
41
1
10
-2.19999999999999
20
7.07138465122813
30
-1E-16
41
1
10
-2.19999999999999
20
7.34301151998699
30
-1E-16
41
1
10
-2.19999999999999
20
7.68085996867353
30
-1E-16
41
1
10
-2.19999999999999
20
8.01642492609369
30
-1E-16
41
1
10
-2.19999999999999
20
8.28348540775059
30
-1E-16
41
1
10
-2.19999999999999
20
8.54963206906427
30
-1E-16
41
1
10
-2.19999999999999
20
8.88062693308251
30
-1E-16
41
1
10
-2.19999999999999
20
9.27507092999488
30
-1E-16
41
1
10
-2.19999999999999
20
9.6667808010302
30
-1E-16
41
1
10
-2.19999999999999
20
10.055760504374
30
-1E-16
41
1
10
-2.19999999999999
20
10.4420146592237
30
-1E-16
41
1
10
-2.19999999999999
20
10.8255477577392
30
-1E-16
41
1
10
-2.19999999999999
20
11.2063650265909
30
-1E-16
41
1
10
-2.19999999999999
20
11.5844709045752
30
-1E-16
41
1
10
-2.19999999999999
20
11.9598708451068
30
-1E-16
41
1
10
-2.19999999999999
20
12.332568976433
30
-1E-16
41
1
10
-2.19999999999999
20
12.7025705750891
30
-1E-16
41
1
10
-2.19999999999999
20
13.0698795474479
30
-1E-16
41
1
10
-2.19999999999999
20
13.434500413039
30
-1E-16
41
1
10
-2.19999999999999
20
13.7964372758264
30
-1E-16
41
1
10
-2.19999999999999
20
14.0958244492637
30
-1E-16
41
1
10
-2.19999999999999
20
14.3339831373198
30
-1E-16
41
1
10
-2.19999999999999
20
14.5712504744562
30
-1E-16
41
1
10
-2.19999999999999
20
14.8661782384876
30
-1E-16
41
1
10
-2.19999999999999
20
15.2174125550855
30
-1E-16
41
1
10
-2.19999999999999
20
15.5659787170004
30
-1E-16
41
1
10
-2.19999999999999
20
15.9118789297515
30
-1E-16
41
1
10
-2.19999999999999
20
16.2551149485891
30
-1E-16
41
1
10
-2.19999999999999
20
16.5956885399058
30
-1E-16
41
1
10
-2.19999999999999
20
16.8772884036232
30
-1E-16
41
1
10
-2.19999999999999
20
17.1012276273506
30
-1E-16
41
1
10
-2.19999999999999
20
17.3242802479083
30
-1E-16
41
1
10
-2.19999999999999
20
17.6014470745968
30
-1E-16
41
1
10
-2.19999999999999
20
17.9313816381119
30
-1E-16
41
1
10
-2.19999999999999
20
18.2586575717451
30
-1E-16
41
1
10
-2.19999999999999
20
18.6914694264878
30
-1E-16
41
1
10
-2.19999999999999
20
19.1189951390116
30
-1E-16
41
1
10
-2.19999999999999
20
19.5411672873635
30
-1E-16
41
1
10
-2.19999999999999
20
19.8551416115088
30
-1E-16
41
1
10
-2.19999999999999
20
20.1664517496922
30
-1E-16
41
1
10
-2.19999999999999
20
20.5779672218009
30
-1E-16
41
1
10
-2.19999999999999
20
20.9841753387679
30
-1E-16
41
1
10
-2.19999999999999
20
21.385007393
30
-1E-16
41
1
10
-2.19999999999999
20
21.6829615822886
30
-1E-16
41
1
10
-2.19999999999999
20
21.9782353365019
30
-1E-16
41
1
10
-2.19999999999999
20
22.3683458387384
30
-1E-16
41
1
10
-2.19999999999999
20
22.7531069193882
30
-1E-16
41
1
10
-2.19999999999999
20
23.1324477597271
30
-1E-16
41
1
10
-2.19999999999999
20
23.4142578666451
30
-1E-16
41
1
10
-2.19999999999999
20
23.6933606344229
30
-1E-16
41
1
10
-2.19999999999999
20
24.0618724924846
30
-1E-16
41
1
10
-2.19999999999999
20
24.5157343100948
30
-1E-16
41
1
10
-2.19999999999999
20
24.9604927323371
30
-1E-16
41
1
10
-2.19999999999999
20
25.3107955671813
30
-1E-16
41
1
10
-2.19999999999999
20
25.6574288628695
30
-1E-16
41
1
10
-2.19999999999999
20
26.0838374470223
30
-1E-16
41
1
10
-2.19999999999999
20
26.5844139299712
30
-1E-16
41
1
10
-2.19999999999999
20
26.9922551600878
30
-1E-16
41
1
10
-2.19999999999999
20
27.312889474477
30
-1E-16
41
1
10
-2.19999999999999
20
27.5505474706334
30
-1E-16
41
1
10
-2.19999999999999
20
27.7853718293799
30
-1E-16
41
1
10
-2.19999999999999
20
28.0946721145145
30
-1E-16
41
1
10
-2.19999999999999
20
28.4741740106829
30
-1E-16
41
1
10
-2.19999999999999
20
28.8440802938742
30
-1E-16
41
1
10
-2.19999999999999
20
29.1341864918563
30
-1E-16
41
1
10
-2.19999999999999
20
29.3488540567688
30
-1E-16
41
1
10
-2.19999999999999
20
29.5605910235312
30
-1E-16
41
1
10
-2.19999999999999
20
29.8389753322122
30
-1E-16
41
1
10
-2.19999999999999
20
30.1795721887094
30
-1E-16
41
1
10
-2.19999999999999
20
30.5763259617257
30
-1E-16
41
1
10
-2.19999999999999
20
30.8968896882167
30
-1E-16
41
1
10
-2.19999999999999
20
31.1472201940908
30
-1E-16
41
1
10
-2.19999999999999
20
31.393453387608
30
-1E-16
41
1
10
-2.19999999999999
20
31.6935278618122
30
-1E-16
41
1
10
-2.19999999999999
20
31.9831685440602
30
-1E-16
41
1
10
-2.19999999999999
20
32.2085294017453
30
-1E-16
41
1
10
-2.19999999999999
20
32.3743609793662
30
-1E-16
41
1
10
-2.19999999999999
20
32.5369772815204
30
-1E-16
41
1
10
-2.19999999999999
20
32.7494770362055
30
-1E-16
41
1
10
-2.19999999999999
20
33.0069583008311
30
-1E-16
41
1
10
-2.19999999999999
20
33.2534024436425
30
-1E-16
41
1
10
-2.19999999999999
20
33.4438214187487
30
-1E-16
41
1
10
-2.19999999999999
20
33.6297179032972
30
-1E-16
41
1
10
-2.19999999999999
20
33.8087856219281
30
-1E-16
41
1
10
-2.19999999999999
20
33.9808790950557
30
-1E-16
41
1
10
-2.19999999999999
20
34.0855143550287
30
-1E-16
41
1
10
-2.19999999999999
20
34.1674461612967
30
-1E-16
41
1
10
-2.19999999999999
20
34.2481903083142
30
-1E-16
41
1
10
-2.19999999999999
20
34.3863617301769
30
-1E-16
41
1
10
-2.19999999999999
20
34.5370512371172
30
-1E-16
41
1
10
-2.19999999999999
20
34.680350907395
30
-1E-16
41
1
10
-2.19999999999999
20
34.7840992432799
30
1E-16
41
1
10
-2.19999999999999
20
34.8840776031987
30
1E-16
41
1
10
-2.19999999999999
20
34.9802435989443
30
0
41
1
10
-2.19999999999999
20
35.0725532191378
30
0
41
1
10
-2.19999999999999
20
35.1609605893935
30
0
41
1
10
-2.19999999999999
20
35.2454181739629
30
0
41
1
10
-2.19999999999999
20
35.3258752465304
30
0
41
1
10
-2.19999999999999
20
35.4022826774254
30
1E-16
41
1
10
-2.19999999999999
20
35.4986806355994
30
1E-16
41
1
10
-2.19999999999999
20
35.5867654490801
30
-1E-16
41
1
10
-2.19999999999999
20
35.6662795296584
30
-1E-16
41
1
10
-2.19999999999999
20
35.7215711644677
30
-1E-16
41
1
10
-2.19999999999999
20
35.7724483817261
30
-1E-16
41
1
10
-2.19999999999999
20
35.8188423246858
30
-1E-16
41
1
10
-2.19999999999999
20
35.8606772530753
30
-1E-16
41
1
10
-2.19999999999999
20
35.8978764151194
30
-1E-16
41
1
10
-2.19999999999999
20
35.9303574291782
30
-1E-16
41
1
10
-2.19999999999999
20
35.9580338304474
30
-1E-16
41
1
10
-2.19999999999999
20
35.9808152416011
30
-1E-16
41
1
10
-2.19999999999999
20
35.9929120313922
30
-1E-16
41
1
10
-2.19999999999999
20
35.9981609721438
30
-1E-16
41
1
10
-2.19999999999999
20
35.9983614570159
30
-1E-16
0
SPLINE
5
D9
100
AcDbEntity
8
SK1
62
256
6
ByLayer
370
18
48
1
60
0
100
AcDbSpline
70
4
71
3
72
24
73
20
40
0
40
0
40
0
40
0
40
0.0459384608873594
40
0.0459384608873594
40
0.0918769217747188
40
0.0918769217747188
40
0.137815382662078
40
0.137815382662078
40
0.183753843549438
40
0.183753843549438
40
0.275630765324156
40
0.275630765324156
40
0.367507687098875
40
0.367507687098875
40
0.551261530648313
40
0.551261530648313
40
0.73501537419775
40
0.73501537419775
40
1
40
1
40
1
40
1
41
1
10
-0.394976888875249
20
-35.4775231381726
30
0
41
1
10
-0.388671475101035
20
-35.4766997478129
30
0
41
1
10
-0.381811534709129
20
-35.4762709949138
30
0
41
1
10
-0.366640616938724
20
-35.4768792325637
30
0
41
1
10
-0.358277609119625
20
-35.4779823276479
30
0
41
1
10
-0.341585771346899
20
-35.4821737215532
30
0
41
1
10
-0.333329482090988
20
-35.4852675491438
30
0
41
1
10
-0.318937365840299
20
-35.4921874163469
30
0
41
1
10
-0.31269107961748
20
-35.4959734507351
30
0
41
1
10
-0.296014776342645
20
-35.5075158416864
30
0
41
1
10
-0.287611873903273
20
-35.5153652851925
30
0
41
1
10
-0.273149668289278
20
-35.5307592099809
30
0
41
1
10
-0.267232007765358
20
-35.5382733023978
30
0
41
1
10
-0.251522836038049
20
-35.5604731484618
30
0
41
1
10
-0.243762874651196
20
-35.5748469170966
30
0
41
1
10
-0.230811617006225
20
-35.6028852486121
30
0
41
1
10
-0.22574228792115
20
-35.6164587953359
30
0
41
1
10
-0.215423866976892
20
-35.648840510975
30
0
41
1
10
-0.211069038298774
20
-35.6673144607445
30
0
41
1
10
-0.207880832939821
20
-35.6852897623601
30
0
0
SPLINE
5
DA
100
AcDbEntity
8
SK1
62
256
6
ByLayer
370
18
48
1
60
0
100
AcDbSpline
70
4
71
3
72
316
73
312
40
0
40
0
40
0
40
0
40
0.0029467191120297
40
0.0064470947364445
40
0.0099474703608594
40
0.0134478459852742
40
0.0169482216096892
40
0.020448597234104
40
0.0239489728585189
40
0.0274493484829337
40
0.0309497241073486
40
0.0344500997317634
40
0.0379504753561783
40
0.0414508509805932
40
0.044951226605008
40
0.0484516022294229
40
0.0519519778538378
40
0.0554523534782526
40
0.0589527291026675
40
0.0624531047270824
40
0.0659534803514972
40
0.0694538559759121
40
0.0729542316003269
40
0.0764546072247418
40
0.0799549828491568
40
0.0869557340979864
40
0.0904561097224013
40
0.0922062975346087
40
0.0939564853468162
40
0.097456860971231
40
0.100957236595646
40
0.107957987844476
40
0.111458363468891
40
0.114958739093305
40
0.121959490342135
40
0.128960241590965
40
0.13246061721538
40
0.135960992839794
40
0.139461368464209
40
0.142961744088624
40
0.149962495337454
40
0.156963246586284
40
0.160463622210698
40
0.163963997835114
40
0.170964749083943
40
0.177965500332773
40
0.184966251581603
40
0.188466627206018
40
0.191967002830432
40
0.195467378454847
40
0.198967754079262
40
0.205968505328092
40
0.212969256576922
40
0.216469632201336
40
0.219970007825751
40
0.223470383450166
40
0.226970759074581
40
0.233971510323411
40
0.24097226157224
40
0.24797301282107
40
0.251473388445485
40
0.2549737640699
40
0.26197451531873
40
0.268975266567559
40
0.272475642191974
40
0.275976017816389
40
0.279476393440804
40
0.282976769065219
40
0.289977520314049
40
0.293477895938463
40
0.296978271562878
40
0.300478647187293
40
0.303979022811708
40
0.310979774060538
40
0.314480149684953
40
0.317980525309367
40
0.321480900933782
40
0.324981276558197
40
0.331982027807027
40
0.335482403431442
40
0.338982779055857
40
0.342483154680272
40
0.345983530304686
40
0.347733718116894
40
0.349483905929101
40
0.352984281553516
40
0.359985032802346
40
0.363485408426761
40
0.366985784051175
40
0.370486159675591
40
0.373986535300005
40
0.37748691092442
40
0.380987286548835
40
0.38448766217325
40
0.387988037797665
40
0.39148841342208
40
0.394988789046494
40
0.398489164670909
40
0.401989540295324
40
0.403739728107532
40
0.405489915919739
40
0.408990291544154
40
0.412490667168569
40
0.415991042792984
40
0.419491418417399
40
0.422991794041813
40
0.424741981854021
40
0.426492169666228
40
0.429992545290643
40
0.431742733102851
40
0.433492920915058
40
0.436993296539473
40
0.440493672163888
40
0.442243859976095
40
0.443994047788303
40
0.447494423412718
40
0.450994799037132
40
0.45274498684934
40
0.454495174661547
40
0.456245362473755
40
0.457995550285962
40
0.459745738098169
40
0.461495925910377
40
0.462371019816481
40
0.463246113722585
40
0.464996301534792
40
0.465871395440896
40
0.466746489346999
40
0.468496677159207
40
0.470246864971414
40
0.471121958877518
40
0.471997052783621
40
0.472872146689725
40
0.473747240595829
40
0.474622334501933
40
0.475497428408036
40
0.47637252231414
40
0.477247616220244
40
0.478997804032451
40
0.480747991844659
40
0.482498179656866
40
0.484248367469074
40
0.485998555281281
40
0.486873649187385
40
0.487748743093488
40
0.488623836999592
40
0.489498930905696
40
0.491249118717903
40
0.492999306530111
40
0.493874400436215
40
0.494749494342318
40
0.495624588248422
40
0.496499682154526
40
0.498249869966733
40
0.499124963872837
40
0.500000057778941
40
0.500875151685044
40
0.501750245591148
40
0.503500433403355
40
0.504375527309459
40
0.505250621215563
40
0.506125715121666
40
0.50700080902777
40
0.508750996839978
40
0.510501184652185
40
0.511376278558289
40
0.512251372464392
40
0.513126466370496
40
0.5140015602766
40
0.515751748088807
40
0.516626841994911
40
0.517501935901015
40
0.519252123713222
40
0.520127217619326
40
0.52100231152543
40
0.521877405431533
40
0.522752499337637
40
0.523627593243741
40
0.524502687149844
40
0.526252874962052
40
0.527127968868156
40
0.52800306277426
40
0.528878156680363
40
0.529753250586467
40
0.531503438398674
40
0.533253626210882
40
0.534128720116985
40
0.535003814023089
40
0.536754001835296
40
0.5376290957414
40
0.538504189647504
40
0.540254377459712
40
0.542004565271919
40
0.543754753084126
40
0.545504940896334
40
0.547255128708541
40
0.549005316520748
40
0.552505692145163
40
0.556006067769578
40
0.557756255581786
40
0.559506443393993
40
0.563006819018408
40
0.566507194642823
40
0.56825738245503
40
0.570007570267238
40
0.573507945891653
40
0.577008321516067
40
0.580508697140482
40
0.584009072764897
40
0.587509448389312
40
0.591009824013727
40
0.594510199638142
40
0.598010575262557
40
0.601510950886971
40
0.605011326511386
40
0.608511702135801
40
0.612012077760216
40
0.615512453384631
40
0.619012829009046
40
0.622513204633461
40
0.624263392445668
40
0.626013580257876
40
0.62951395588229
40
0.633014331506705
40
0.63651470713112
40
0.640015082755535
40
0.64351545837995
40
0.647015834004365
40
0.65051620962878
40
0.652266397440987
40
0.654016585253194
40
0.657516960877609
40
0.661017336502024
40
0.664517712126439
40
0.668018087750854
40
0.675018838999684
40
0.678519214624099
40
0.682019590248513
40
0.685519965872928
40
0.689020341497343
40
0.696021092746173
40
0.699521468370588
40
0.703021843995003
40
0.706522219619418
40
0.710022595243832
40
0.717023346492662
40
0.720523722117077
40
0.724024097741492
40
0.727524473365907
40
0.731024848990322
40
0.738025600239151
40
0.745026351487981
40
0.748526727112396
40
0.752027102736811
40
0.75902785398564
40
0.76602860523447
40
0.7730293564833
40
0.776529732107715
40
0.78003010773213
40
0.783530483356545
40
0.787030858980959
40
0.794031610229789
40
0.801032361478619
40
0.804532737103034
40
0.808033112727448
40
0.811533488351863
40
0.815033863976278
40
0.822034615225108
40
0.829035366473938
40
0.836036117722768
40
0.839536493347182
40
0.843036868971597
40
0.850037620220427
40
0.857038371469257
40
0.860538747093671
40
0.864039122718086
40
0.867539498342501
40
0.871039873966916
40
0.878040625215746
40
0.885041376464575
40
0.888541752088991
40
0.892042127713405
40
0.899042878962235
40
0.90254325458665
40
0.906043630211065
40
0.907793818023272
40
0.90954400583548
40
0.913044381459894
40
0.920045132708724
40
0.923545508333139
40
0.927045883957554
40
0.930546259581969
40
0.934046635206384
40
0.937547010830798
40
0.941047386455213
40
0.944547762079628
40
0.948048137704043
40
0.951548513328458
40
0.955048888952873
40
0.962049640201703
40
0.965550015826117
40
0.969050391450532
40
0.972550767074947
40
0.976051142699362
40
0.979551518323777
40
0.983051893948192
40
0.986552269572607
40
0.990052645197022
40
0.993553020821436
40
0.997053396445851
40
1
40
1
40
1
40
1
41
1
10
-58
20
-34.6073035428884
30
0
41
1
10
-58
20
-34.6043542811167
30
0
41
1
10
-58
20
-34.5966210242458
30
0
41
1
10
-58
20
-34.5803797589321
30
0
41
1
10
-58
20
-34.5584074886069
30
0
41
1
10
-58
20
-34.5316961895766
30
0
41
1
10
-58
20
-34.5003280083155
30
0
41
1
10
-58
20
-34.4643817495677
30
0
41
1
10
-58
20
-34.4239333693917
30
0
41
1
10
-58
20
-34.3790529937039
30
0
41
1
10
-58
20
-34.3298111110901
30
0
41
1
10
-58
20
-34.2762712987306
30
0
41
1
10
-58
20
-34.2184971795059
30
0
41
1
10
-58
20
-34.1565492736136
30
0
41
1
10
-58
20
-34.090484024979
30
0
41
1
10
-58
20
-34.0203569492649
30
0
41
1
10
-58
20
-33.9462211181053
30
0
41
1
10
-58
20
-33.8681273799935
30
0
41
1
10
-58
20
-33.7861246522719
30
0
41
1
10
-58
20
-33.7002599705932
30
0
41
1
10
-58
20
-33.6105785639527
30
0
41
1
10
-58
20
-33.517124136941
30
0
41
1
10
-58
20
-33.4199387810475
30
0
41
1
10
-58
20
-33.3190628682572
30
0
41
1
10
-58
20
-33.1794476462955
30
0
41
1
10
-58
20
-33.0333547777464
30
0
41
1
10
-58
20
-32.8987588718319
30
0
41
1
10
-58
20
-32.8200332917252
30
0
41
1
10
-58
20
-32.7401409831787
30
0
41
1
10
-58
20
-32.6384072799631
30
0
41
1
10
-58
20
-32.4705455180243
30
0
41
1
10
-58
20
-32.2967149944414
30
0
41
1
10
-58
20
-32.1153117201281
30
0
41
1
10
-58
20
-31.9294644880725
30
0
41
1
10
-58
20
-31.6895938415452
30
0
41
1
10
-58
20
-31.4389237596357
30
0
41
1
10
-58
20
-31.2314087063946
30
0
41
1
10
-58
20
-31.0728429182949
30
0
41
1
10
-58
20
-30.9111259407838
30
0
41
1
10
-58
20
-30.6909862057692
30
0
41
1
10
-58
20
-30.4088224430552
30
0
41
1
10
-58
20
-30.1164546579335
30
0
41
1
10
-58
20
-29.8758448368358
30
0
41
1
10
-58
20
-29.6312151678218
30
0
41
1
10
-58
20
-29.3188018441321
30
0
41
1
10
-58
20
-28.9316246713931
30
0
41
1
10
-58
20
-28.5996384848297
30
0
41
1
10
-58
20
-28.3275282602038
30
0
41
1
10
-58
20
-28.1208773937063
30
0
41
1
10
-58
20
-27.911363633098
30
0
41
1
10
-58
20
-27.6277846850599
30
0
41
1
10
-58
20
-27.2671990323819
30
0
41
1
10
-58
20
-26.8972638502991
30
0
41
1
10
-58
20
-26.5949314925857
30
0
41
1
10
-58
20
-26.365755304915
30
0
41
1
10
-58
20
-26.1338196230742
30
0
41
1
10
-58
20
-25.8204330482275
30
0
41
1
10
-58
20
-25.4229416666195
30
0
41
1
10
-58
20
-24.9345059187337
30
0
41
1
10
-58
20
-24.5190021121539
30
0
41
1
10
-58
20
-24.1803157072481
30
0
41
1
10
-58
20
-23.8380720499499
30
0
41
1
10
-58
20
-23.4048307980022
30
0
41
1
10
-58
20
-22.9627941936476
30
0
41
1
10
-58
20
-22.6029073961028
30
0
41
1
10
-58
20
-22.3308053662237
30
0
41
1
10
-58
20
-22.0560958606497
30
0
41
1
10
-58
20
-21.6857625528635
30
0
41
1
10
-58
20
-21.3120431731187
30
0
41
1
10
-58
20
-20.9313332073365
30
0
41
1
10
-58
20
-20.6436975380219
30
0
41
1
10
-58
20
-20.3534974230034
30
0
41
1
10
-58
20
-19.962512989893
30
0
41
1
10
-58
20
-19.5683935649799
30
0
41
1
10
-58
20
-19.1671855028189
30
0
41
1
10
-58
20
-18.8642617622701
30
0
41
1
10
-58
20
-18.558812080972
30
0
41
1
10
-58
20
-18.1474824585398
30
0
41
1
10
-58
20
-17.7332927415188
30
0
41
1
10
-58
20
-17.31187542895
30
0
41
1
10
-58
20
-16.9938869687374
30
0
41
1
10
-58
20
-16.6734094643824
30
0
41
1
10
-58
20
-16.4046647430283
30
0
41
1
10
-58
20
-16.1877136709007
30
0
41
1
10
-58
20
-15.9699408852648
30
0
41
1
10
-58
20
-15.586990793997
30
0
41
1
10
-58
20
-15.1465482288459
30
0
41
1
10
-58
20
-14.6986174932262
30
0
41
1
10
-58
20
-14.3608949939723
30
0
41
1
10
-58
20
-14.0207356586278
30
0
41
1
10
-58
20
-13.6781505656526
30
0
41
1
10
-58
20
-13.3331465322306
30
-3.6E-15
41
1
10
-58
20
-12.9857332798767
30
-3.6E-15
41
1
10
-58
20
-12.6359214323733
30
-3.6E-15
41
1
10
-58
20
-12.2837205272056
30
-3.6E-15
41
1
10
-58
20
-11.9291438218093
30
-3.6E-15
41
1
10
-58
20
-11.5722027813319
30
-3.6E-15
41
1
10
-58
20
-11.21291277944
30
-3.6E-15
41
1
10
-58
20
-10.912108295924
30
-3.6E-15
41
1
10
-58
20
-10.6692766858404
30
-3.6E-15
41
1
10
-58
20
-10.4256875570292
30
-3.6E-15
41
1
10
-58
20
-10.1211100592584
30
-3.6E-15
41
1
10
-58
20
-9.75259725338498
30
-3.6E-15
41
1
10
-58
20
-9.38183010290783
30
-3.6E-15
41
1
10
-58
20
-9.00884035151952
30
-3.6E-15
41
1
10
-58
20
-8.69684340932247
30
-3.6E-15
41
1
10
-58
20
-8.44493041618213
30
-3.6E-15
41
1
10
-58
20
-8.19232044847527
30
-3.6E-15
41
1
10
-58
20
-7.94080704287336
30
-3.6E-15
41
1
10
-58
20
-7.68603135773836
30
-3.6E-15
41
1
10
-58
20
-7.43059630648503
30
-3.6E-15
41
1
10
-58
20
-7.11180135563231
30
-3.6E-15
41
1
10
-58
20
-6.79132938935564
30
-3.6E-15
41
1
10
-58
20
-6.53251618838755
30
-3.6E-15
41
1
10
-58
20
-6.27311609603564
30
-3.6E-15
41
1
10
-58
20
-5.94973663199025
30
-3.6E-15
41
1
10
-58
20
-5.62486984380905
30
-3.6E-15
41
1
10
-58
20
-5.36246929286631
30
-3.6E-15
41
1
10
-58
20
-5.16603341989486
30
-3.6E-15
41
1
10
-58
20
-4.96923237547443
30
-3.6E-15
41
1
10
-58
20
-4.77207750487506
30
-3.6E-15
41
1
10
-58
20
-4.57459544495507
30
-3.6E-15
41
1
10
-58
20
-4.41029793772165
30
-3.6E-15
41
1
10
-58
20
-4.2777166352657
30
-3.6E-15
41
1
10
-58
20
-4.14506122516991
30
-3.6E-15
41
1
10
-58
20
-4.01399439838315
30
-3.6E-15
41
1
10
-58
20
-3.881036327884
30
-3.6E-15
41
1
10
-58
20
-3.74801862180834
30
-3.6E-15
41
1
10
-58
20
-3.5829961226784
30
-3.6E-15
41
1
10
-58
20
-3.4177842579125
30
-3.6E-15
41
1
10
-58
20
-3.28439024486019
30
-3.6E-15
41
1
10
-58
20
-3.18480940383549
30
-3.6E-15
41
1
10
-58
20
-3.08519524226031
30
-3.6E-15
41
1
10
-58
20
-2.98554870608601
30
-3.6E-15
41
1
10
-58
20
-2.88588197147465
30
-3.6E-15
41
1
10
-58
20
-2.78620371303603
30
-3.6E-15
41
1
10
-58
20
-2.68650877066605
30
-3.6E-15
41
1
10
-58
20
-2.55285553128309
30
-3.6E-15
41
1
10
-58
20
-2.38741878390206
30
-3.6E-15
41
1
10
-58
20
-2.18798792525015
30
-3.6E-15
41
1
10
-58
20
-1.98859069176859
30
-3.6E-15
41
1
10
-58
20
-1.78925716601174
30
-3.6E-15
41
1
10
-58
20
-1.62400964435551
30
-3.6E-15
41
1
10
-58
20
-1.49038258437855
30
-3.6E-15
41
1
10
-58
20
-1.39082935616076
30
-3.6E-15
41
1
10
-58
20
-1.29130620551007
30
-3.6E-15
41
1
10
-58
20
-1.15779757169759
30
-3.6E-15
41
1
10
-58
20
-0.99295881891328
30
-3.6E-15
41
1
10
-58
20
-0.828192548206204
30
-3.6E-15
41
1
10
-58
20
-0.694823517971315
30
-3.6E-15
41
1
10
-58
20
-0.595510259634267
30
-3.6E-15
41
1
10
-58
20
-0.496219754320578
30
-3.6E-15
41
1
10
-58
20
-0.362942837222505
30
-3.6E-15
41
1
10
-58
20
-0.232469975530563
30
-3.6E-15
41
1
10
-58
20
-0.0992273272949262
30
-3.6E-15
41
1
10
-58
20
1.6380028E-08
30
-3.6E-15
41
1
10
-58
20
0.0992273398984764
30
-3.6E-15
41
1
10
-58
20
0.232469995259635
30
-3.6E-15
41
1
10
-58
20
0.362942864386611
30
-3.6E-15
41
1
10
-58
20
0.496219744532027
30
-3.6E-15
41
1
10
-58
20
0.595510286532459
30
-3.6E-15
41
1
10
-58
20
0.694823557694662
30
-3.6E-15
41
1
10
-58
20
0.82819256637066
30
-3.6E-15
41
1
10
-58
20
0.992958822605829
30
-3.6E-15
41
1
10
-58
20
1.15779757822997
30
-3.6E-15
41
1
10
-58
20
1.29130628126842
30
-3.6E-15
41
1
10
-58
20
1.39082936054342
30
-3.6E-15
41
1
10
-58
20
1.49038261723351
30
-3.6E-15
41
1
10
-58
20
1.62400929858035
30
-3.6E-15
41
1
10
-58
20
1.75519681152264
30
-3.6E-15
41
1
10
-58
20
1.88886587056908
30
-3.6E-15
41
1
10
-58
20
2.02257380819529
30
-3.6E-15
41
1
10
-58
20
2.15394245955969
30
-3.6E-15
41
1
10
-58
20
2.28764244667346
30
-3.6E-15
41
1
10
-58
20
2.38736175207308
30
-3.6E-15
41
1
10
-58
20
2.48707433529853
30
-3.6E-15
41
1
10
-58
20
2.58679151495224
30
-3.6E-15
41
1
10
-58
20
2.68650643512575
30
-3.6E-15
41
1
10
-58
20
2.82015553447045
30
-3.6E-15
41
1
10
-58
20
2.95167230604008
30
-3.6E-15
41
1
10
-58
20
3.08519574611898
30
-3.6E-15
41
1
10
-58
20
3.18480948837248
30
-3.6E-15
41
1
10
-58
20
3.28439014192511
30
-3.6E-15
41
1
10
-58
20
3.41778425796454
30
-3.6E-15
41
1
10
-58
20
3.58299633989347
30
-3.6E-15
41
1
10
-58
20
3.74801883117277
30
-3.6E-15
41
1
10
-58
20
3.88103633021703
30
-3.6E-15
41
1
10
-58
20
4.01399420894896
30
-3.6E-15
41
1
10
-58
20
4.1450610014393
30
-3.6E-15
41
1
10
-58
20
4.27771653655566
30
-3.6E-15
41
1
10
-58
20
4.41029804681102
30
-3.6E-15
41
1
10
-58
20
4.57459570619073
30
-3.6E-15
41
1
10
-58
20
4.77207761728616
30
-3.6E-15
41
1
10
-58
20
4.96923221655044
30
-3.6E-15
41
1
10
-58
20
5.16603320786018
30
-3.6E-15
41
1
10
-58
20
5.36246930605512
30
-3.6E-15
41
1
10
-58
20
5.62487008150856
30
-3.6E-15
41
1
10
-58
20
5.94973662395361
30
-3.6E-15
41
1
10
-58
20
6.27311588814803
30
-3.6E-15
41
1
10
-58
20
6.53251624633623
30
-3.6E-15
41
1
10
-58
20
6.79132960033488
30
-3.6E-15
41
1
10
-58
20
7.11180129155153
30
-3.6E-15
41
1
10
-58
20
7.43059597795101
30
-3.6E-15
41
1
10
-58
20
7.68603127322152
30
-3.6E-15
41
1
10
-58
20
7.94080702479252
30
-3.6E-15
41
1
10
-58
20
8.25632291017837
30
-3.6E-15
41
1
10
-58
20
8.63366100346428
30
-3.6E-15
41
1
10
-58
20
9.00884209524727
30
-3.6E-15
41
1
10
-58
20
9.3818307586514
30
-3.6E-15
41
1
10
-58
20
9.75259557230214
30
-3.6E-15
41
1
10
-58
20
10.1211093378308
30
-3.6E-15
41
1
10
-58
20
10.487347423945
30
-3.6E-15
41
1
10
-58
20
10.851288265045
30
-3.6E-15
41
1
10
-58
20
11.2129126489515
30
-3.6E-15
41
1
10
-58
20
11.5722027534516
30
-3.6E-15
41
1
10
-58
20
11.9291438609312
30
-3.6E-15
41
1
10
-58
20
12.2837204653535
30
-3.6E-15
41
1
10
-58
20
12.6359214941673
30
-3.6E-15
41
1
10
-58
20
12.9857331103651
30
-3.6E-15
41
1
10
-58
20
13.2747453101746
30
-3.6E-15
41
1
10
-58
20
13.5056252380649
30
0
41
1
10
-58
20
13.7357042566719
30
0
41
1
10
-58
20
14.0207356013197
30
0
41
1
10
-58
20
14.3608942162371
30
0
41
1
10
-58
20
14.6986181938836
30
0
41
1
10
-58
20
15.0338987189648
30
0
41
1
10
-58
20
15.3667286289814
30
0
41
1
10
-58
20
15.6971014285855
30
0
41
1
10
-58
20
15.9699409152238
30
0
41
1
10
-58
20
16.1877136527783
30
0
41
1
10
-58
20
16.4046647522578
30
0
41
1
10
-58
20
16.6734094787226
30
0
41
1
10
-58
20
16.9938869670337
30
0
41
1
10
-58
20
17.3118754472546
30
0
41
1
10
-58
20
17.7332927565035
30
0
41
1
10
-58
20
18.1474824557211
30
0
41
1
10
-58
20
18.5588120799026
30
0
41
1
10
-58
20
18.8642617520243
30
0
41
1
10
-58
20
19.1671855328673
30
0
41
1
10
-58
20
19.5683935682399
30
0
41
1
10
-58
20
19.9625129981163
30
0
41
1
10
-58
20
20.3534974164196
30
0
41
1
10
-58
20
20.6436975341919
30
0
41
1
10
-58
20
20.9313332310817
30
0
41
1
10
-58
20
21.3120431735846
30
0
41
1
10
-58
20
21.6857625612491
30
0
41
1
10
-58
20
22.056095857614
30
0
41
1
10
-58
20
22.3308053593404
30
0
41
1
10
-58
20
22.6029074150482
30
0
41
1
10
-58
20
22.9627941997737
30
0
41
1
10
-58
20
23.4048307950687
30
0
41
1
10
-58
20
23.8380720492418
30
0
41
1
10
-58
20
24.1803157154495
30
0
41
1
10
-58
20
24.5190021187452
30
0
41
1
10
-58
20
24.934505910954
30
0
41
1
10
-58
20
25.4229416730791
30
0
41
1
10
-58
20
25.820433050224
30
0
41
1
10
-58
20
26.1338196224207
30
0
41
1
10
-58
20
26.3657553019254
30
0
41
1
10
-58
20
26.5949314963246
30
0
41
1
10
-58
20
26.8972638515592
30
0
41
1
10
-58
20
27.267199029797
30
0
41
1
10
-58
20
27.6277846867342
30
0
41
1
10
-58
20
27.9113636298593
30
0
41
1
10
-58
20
28.1208773935264
30
0
41
1
10
-58
20
28.3275282615774
30
0
41
1
10
-58
20
28.5996384834264
30
0
41
1
10
-58
20
28.9316246696634
30
0
41
1
10
-58
20
29.3188018386775
30
0
41
1
10
-58
20
29.631215171604
30
0
41
1
10
-58
20
29.8758448277823
30
0
41
1
10
-58
20
30.1164546526889
30
0
41
1
10
-58
20
30.4088224417549
30
0
41
1
10
-58
20
30.6909862066612
30
0
41
1
10
-58
20
30.9111259319957
30
0
41
1
10
-58
20
31.0728429072979
30
0
41
1
10
-58
20
31.2314087120365
30
0
41
1
10
-58
20
31.438923757912
30
0
41
1
10
-58
20
31.6895938369171
30
0
41
1
10
-58
20
31.9294644717604
30
0
41
1
10
-58
20
32.115311722464
30
0
41
1
10
-58
20
32.2967149943326
30
0
41
1
10
-58
20
32.4705455117827
30
0
41
1
10
-58
20
32.6384072676334
30
0
41
1
10
-58
20
32.7401409674119
30
0
41
1
10
-58
20
32.8200332868944
30
0
41
1
10
-58
20
32.8987588752027
30
0
41
1
10
-58
20
33.0333547758038
30
0
41
1
10
-58
20
33.1794476388675
30
0
41
1
10
-58
20
33.3190628604087
30
0
41
1
10
-58
20
33.4199387593897
30
0
41
1
10
-58
20
33.5171241473591
30
0
41
1
10
-58
20
33.6105785465519
30
0
41
1
10
-58
20
33.7002599502329
30
0
41
1
10
-58
20
33.7861247188262
30
0
41
1
10
-58
20
33.8681273926076
30
0
41
1
10
-58
20
33.9462206251882
30
0
41
1
10
-58
20
34.020357330257
30
0
41
1
10
-58
20
34.11403435413
30
0
41
1
10
-58
20
34.1990832647149
30
0
41
1
10
-58
20
34.2762712843076
30
0
41
1
10
-58
20
34.3298111043331
30
0
41
1
10
-58
20
34.3790530583999
30
0
41
1
10
-58
20
34.4239333421725
30
0
41
1
10
-58
20
34.4643818052429
30
0
41
1
10
-58
20
34.5003280118182
30
0
41
1
10
-58
20
34.5316962075247
30
0
41
1
10
-58
20
34.5584075309985
30
0
41
1
10
-58
20
34.580379744722
30
0
41
1
10
-58
20
34.5966208961827
30
0
41
1
10
-58
20
34.6043666838031
30
0
41
1
10
-58
20
34.6073164585668
30
0
0
SPLINE
5
DB
100
AcDbEntity
8
SK1
62
256
6
ByLayer
370
18
48
1
60
0
100
AcDbSpline
70
4
71
3
72
26
73
22
40
0
40
0
40
0
40
0
40
0.249999999999998
40
0.249999999999998
40
0.499999999999996
40
0.499999999999996
40
0.624999999999997
40
0.624999999999997
40
0.687499999999997
40
0.687499999999997
40
0.749999999999998
40
0.749999999999998
40
0.812499999999998
40
0.812499999999998
40
0.874999999999999
40
0.874999999999999
40
0.906249999999999
40
0.906249999999999
40
0.937499999999999
40
0.937499999999999
40
1
40
1
40
1
40
1
41
1
10
-1.30710678118655
20
4.60538005832731
30
-1E-16
41
1
10
-1.27841932930971
20
4.77334296698425
30
-1E-16
41
1
10
-1.24568573836765
20
4.93989365706818
30
-1E-16
41
1
10
-1.16755021864051
20
5.26941198485821
30
-1E-16
41
1
10
-1.12236330163583
20
5.43277058328297
30
-1E-16
41
1
10
-1.03736348465083
20
5.67036427900962
30
-1E-16
41
1
10
-1.00612384847767
20
5.74840054491568
30
-1E-16
41
1
10
-0.951664768597567
20
5.86260604873689
30
-1E-16
41
1
10
-0.932227264069695
20
5.90019356697601
30
-1E-16
41
1
10
-0.889529369037177
20
5.97397527026544
30
-1E-16
41
1
10
-0.866205195590794
20
6.01027560258419
30
-1E-16
41
1
10
-0.814627264862651
20
6.07870671929967
30
0
41
1
10
-0.786411999023898
20
6.11112172686992
30
0
41
1
10
-0.720237073541085
20
6.16880021462495
30
0
41
1
10
-0.682055653726934
20
6.19377677065566
30
0
41
1
10
-0.618548195707518
20
6.21384852858478
30
0
41
1
10
-0.595883870694564
20
6.21761323445151
30
0
41
1
10
-0.551151188429856
20
6.21761557504368
30
0
41
1
10
-0.528825837373546
20
6.21393440359401
30
0
41
1
10
-0.465027161701187
20
6.19373948168712
30
0
41
1
10
-0.42778137096397
20
6.16911732468006
30
0
41
1
10
-0.394976888875277
20
6.14029748393361
30
0
0
SPLINE
5
DC
100
AcDbEntity
8
SK1
62
256
6
ByLayer
370
18
48
1
60
0
100
AcDbSpline
70
4
71
3
72
24
73
20
40
0
40
0
40
0
40
0
40
0.249999999999999
40
0.249999999999999
40
0.312499999999999
40
0.312499999999999
40
0.375
40
0.375
40
0.499999999999999
40
0.499999999999999
40
0.624999999999999
40
0.624999999999999
40
0.75
40
0.75
40
0.8125
40
0.8125
40
0.874999999999999
40
0.874999999999999
40
1
40
1
40
1
40
1
41
1
10
-1.30710678118655
20
4.60538005832731
30
-1E-16
41
1
10
-1.43445095565701
20
3.85978933676717
30
-1E-16
41
1
10
-1.54387892248161
20
3.1038334878013
30
-1E-16
41
1
10
-1.6418227748612
20
2.14038734740535
30
-1E-16
41
1
10
-1.65943153712078
20
1.94675919611066
30
-1E-16
41
1
10
-1.69016128102572
20
1.55744142286901
30
-1E-16
41
1
10
-1.70329012775193
20
1.36146410626893
30
-1E-16
41
1
10
-1.73493134584373
20
0.775190730927164
30
-1E-16
41
1
10
-1.7457367363736
20
0.385182075791306
30
-1E-16
41
1
10
-1.74559091779474
20
-0.393092212237775
30
-1E-16
41
1
10
-1.73464574767846
20
-0.781358231864317
30
-1E-16
41
1
10
-1.69272967974095
20
-1.55625432464265
30
-1E-16
41
1
10
-1.66183533058265
20
-1.94288898079094
30
-1E-16
41
1
10
-1.60308307844801
20
-2.52176892060331
30
-1E-16
41
1
10
-1.58142702957946
20
-2.71455586541953
30
-1E-16
41
1
10
-1.53472161640744
20
-3.09756881527227
30
-1E-16
41
1
10
-1.5096411313821
20
-3.28809225111158
30
-1E-16
41
1
10
-1.42989928264944
20
-3.85698267981994
30
-1E-16
41
1
10
-1.37076249597743
20
-4.23268030289688
30
-1E-16
41
1
10
-1.30710678119235
20
-4.60538003003171
30
-1E-16
0
SPLINE
5
DD
100
AcDbEntity
8
SK1
62
256
6
ByLayer
370
13
48
1
60
0
100
AcDbSpline
70
4
71
3
72
91
73
87
40
0
40
0
40
0
40
0
40
0.0065862360910681
40
0.0169945606232811
40
0.0221987228893876
40
0.0274028851554941
40
0.037811209687707
40
0.04821953421992
40
0.0534236964860265
40
0.058627858752133
40
0.0690361832843459
40
0.0794445078165589
40
0.0898528323487719
40
0.100261156880985
40
0.110669481413198
40
0.121077805945411
40
0.131486130477624
40
0.141894455009837
40
0.15230277954205
40
0.162711104074263
40
0.173119428606476
40
0.183527753138689
40
0.193936077670902
40
0.204344402203115
40
0.214752726735327
40
0.219956889001434
40
0.22516105126754
40
0.235569375799753
40
0.245977700331966
40
0.256386024864179
40
0.266794349396392
40
0.277202673928605
40
0.287610998460818
40
0.298019322993031
40
0.303223485259138
40
0.308427647525244
40
0.318835972057457
40
0.32924429658967
40
0.339652621121883
40
0.350060945654096
40
0.370877594718522
40
0.381285919250735
40
0.391694243782948
40
0.402102568315161
40
0.412510892847374
40
0.4333275419118
40
0.443735866444013
40
0.454144190976226
40
0.464552515508439
40
0.474960840040652
40
0.495777489105078
40
0.506185813637291
40
0.516594138169504
40
0.527002462701716
40
0.537410787233929
40
0.558227436298355
40
0.579044085362781
40
0.589452409894994
40
0.599860734427207
40
0.620677383491633
40
0.641494032556059
40
0.662310681620485
40
0.672719006152698
40
0.683127330684911
40
0.693535655217124
40
0.703943979749337
40
0.724760628813763
40
0.745577277878189
40
0.755985602410402
40
0.766393926942615
40
0.776802251474828
40
0.787210576007041
40
0.808027225071467
40
0.828843874135892
40
0.849660523200319
40
0.860068847732532
40
0.870477172264745
40
0.89129382132917
40
0.912110470393596
40
0.922518794925809
40
0.932927119458022
40
0.943335443990235
40
0.953743768522448
40
0.974560417586874
40
0.9953770666513
40
1
40
1
40
1
40
1
41
1
10
-0.394976888875277
20
6.14029748393355
30
0
41
1
10
-0.394976888875277
20
6.22707397316498
30
0
41
1
10
-0.394976888875277
20
6.4505004917111
30
0
41
1
10
-0.394976888875277
20
6.74082518692177
30
0
41
1
10
-0.394976888875277
20
7.01191434968567
30
0
41
1
10
-0.394976888875277
20
7.28212710030419
30
0
41
1
10
-0.394976888875277
20
7.61805782474269
30
0
41
1
10
-0.394976888875277
20
7.95177199064213
30
0
41
1
10
-0.394976888875277
20
8.21754949980777
30
0
41
1
10
-0.394976888875277
20
8.48244125097074
30
0
41
1
10
-0.394976888875277
20
8.81172783237585
30
0
41
1
10
-0.394976888875277
20
9.2042839968646
30
0
41
1
10
-0.394976888875277
20
9.59416972776228
30
0
41
1
10
-0.394976888875277
20
9.98138463666177
30
0
41
1
10
-0.394976888875277
20
10.3659293652704
30
0
41
1
10
-0.394976888875277
20
10.7478049083352
30
0
41
1
10
-0.394976888875277
20
11.1270131973585
30
0
41
1
10
-0.394976888875277
20
11.5035558012536
30
0
41
1
10
-0.394976888875277
20
11.8774354513043
30
0
41
1
10
-0.394976888875277
20
12.2486538532732
30
0
41
1
10
-0.394976888875277
20
12.6172140771122
30
0
41
1
10
-0.394976888875277
20
12.9831178868123
30
0
41
1
10
-0.394976888875277
20
13.3463680811382
30
0
41
1
10
-0.394976888875277
20
13.7069667840625
30
0
41
1
10
-0.394976888875277
20
14.0052089603083
30
0
41
1
10
-0.394976888875277
20
14.2425643537976
30
0
41
1
10
-0.394976888875277
20
14.4790383776377
30
0
41
1
10
-0.394976888875277
20
14.7728739584207
30
0
41
1
10
-0.394976888875277
20
15.1228859444593
30
0
41
1
10
-0.394976888875277
20
15.4702555471364
30
0
41
1
10
-0.394976888875277
20
15.8149837556983
30
0
41
1
10
-0.394976888875277
20
16.1570713412192
30
0
41
1
10
-0.394976888875277
20
16.4965191583142
30
0
41
1
10
-0.394976888875277
20
16.7771522140655
30
0
41
1
10
-0.394976888875277
20
17.0004108954029
30
0
41
1
10
-0.394976888875277
20
17.2227901432131
30
0
41
1
10
-0.394976888875277
20
17.4990274946616
30
0
41
1
10
-0.394976888875277
20
17.8279183615915
30
0
41
1
10
-0.394976888875277
20
18.1541693183472
30
0
41
1
10
-0.394976888875277
20
18.5857236544633
30
0
41
1
10
-0.394976888875277
20
19.0117775851467
30
0
41
1
10
-0.394976888875277
20
19.4327531367487
30
0
41
1
10
-0.394976888875277
20
19.7457866678881
30
0
41
1
10
-0.394976888875277
20
20.0561712754683
30
0
41
1
10
-0.394976888875277
20
20.4665492038552
30
0
41
1
10
-0.394976888875277
20
20.8714231957186
30
0
41
1
10
-0.394976888875277
20
21.2711684505154
30
0
41
1
10
-0.394976888875277
20
21.5682668891846
30
0
41
1
10
-0.394976888875277
20
21.8626976962737
30
0
41
1
10
-0.394976888875277
20
22.2517707390545
30
0
41
1
10
-0.394976888875277
20
22.635313242394
30
0
41
1
10
-0.394976888875277
20
23.0136599970687
30
0
41
1
10
-0.394976888875277
20
23.294686470862
30
0
41
1
10
-0.394976888875277
20
23.5730166298655
30
0
41
1
10
-0.394976888875277
20
23.9405766122791
30
0
41
1
10
-0.394976888875277
20
24.3931333811418
30
0
41
1
10
-0.394976888875277
20
24.8366207519515
30
0
41
1
10
-0.394976888875277
20
25.1860341652141
30
0
41
1
10
-0.394976888875277
20
25.5317904302903
30
0
41
1
10
-0.394976888875277
20
25.9569955457311
30
0
41
1
10
-0.394976888875277
20
26.4562321610578
30
0
41
1
10
-0.394976888875277
20
26.8629311663352
30
0
41
1
10
-0.394976888875277
20
27.1827656093462
30
0
41
1
10
-0.394976888875277
20
27.4197920823074
30
0
41
1
10
-0.394976888875277
20
27.6539931014151
30
0
41
1
10
-0.394976888875277
20
27.9625243956634
30
0
41
1
10
-0.394976888875277
20
28.3409704949157
30
0
41
1
10
-0.394976888875277
20
28.7098481402265
30
0
41
1
10
-0.394976888875277
20
28.9992339808614
30
0
41
1
10
-0.394976888875277
20
29.2133327647666
30
0
41
1
10
-0.394976888875277
20
29.4245084222719
30
0
41
1
10
-0.394976888875277
20
29.7022003135975
30
0
41
1
10
-0.394976888875277
20
30.041846883991
30
0
41
1
10
-0.394976888875277
20
30.4375437690499
30
0
41
1
10
-0.394976888875277
20
30.7572080062434
30
0
41
1
10
-0.394976888875277
20
31.0069093580469
30
0
41
1
10
-0.394976888875277
20
31.2525219484188
30
0
41
1
10
-0.394976888875277
20
31.5517459016333
30
0
41
1
10
-0.394976888875277
20
31.8405614204
30
0
41
1
10
-0.394976888875277
20
32.0653460663191
30
0
41
1
10
-0.394976888875277
20
32.2307235504388
30
0
41
1
10
-0.394976888875277
20
32.3928928338024
30
0
41
1
10
-0.394976888875277
20
32.6048424687674
30
0
41
1
10
-0.394976888875277
20
32.8615720410336
30
0
41
1
10
-0.394976888875277
20
33.0799745350576
30
0
41
1
10
-0.394976888875249
20
33.1967737847145
30
0
41
1
10
-0.394976888875277
20
33.217888483806
30
0
0
SPLINE
5
DE
100
AcDbEntity
8
SK1
62
256
6
ByLayer
370
18
48
1
60
0
100
AcDbSpline
70
4
71
3
72
40
73
36
40
0
40
0
40
0
40
0
40
0.0161554162467845
40
0.045219997022976
40
0.103349158575359
40
0.13241373935155
40
0.161478320127741
40
0.176010610515837
40
0.190542900903933
40
0.219607481680124
40
0.277736643232507
40
0.306801224008699
40
0.335865804784889
40
0.364930385561081
40
0.393994966337273
40
0.423059547113464
40
0.452124127889655
40
0.481188708665847
40
0.510253289442038
40
0.53931787021823
40
0.568382450994421
40
0.626511612546804
40
0.655576193322995
40
0.684640774099187
40
0.713705354875378
40
0.742769935651569
40
0.771834516427761
40
0.800899097203952
40
0.829963677980143
40
0.859028258756335
40
0.888092839532526
40
0.917157420308718
40
0.946222001084909
40
0.975286581861101
40
1
40
1
40
1
40
1
41
1
10
-0.394976888875277
20
33.2178880850288
30
0
41
1
10
-0.394976888875277
20
33.2443123069015
30
0
41
1
10
-0.394976888875277
20
33.3177917836637
30
0
41
1
10
-0.394976888875277
20
33.4826057619405
30
0
41
1
10
-0.394976888875277
20
33.6610954954258
30
0
41
1
10
-0.394976888875277
20
33.8327219500751
30
0
41
1
10
-0.394976888875277
20
33.9370369896415
30
0
41
1
10
-0.394976888875277
20
34.0187437151791
30
0
41
1
10
-0.394976888875277
20
34.0992650911192
30
0
41
1
10
-0.394976888875277
20
34.237041913251
30
0
41
1
10
-0.394976888875277
20
34.3872241278821
30
0
41
1
10
-0.394976888875277
20
34.5301171770343
30
0
41
1
10
-0.394976888875277
20
34.6335485066014
30
0
41
1
10
-0.394976888875277
20
34.7332186300704
30
0
41
1
10
-0.394976888875277
20
34.8290853700734
30
0
41
1
10
-0.394976888875277
20
34.9211049364669
30
0
41
1
10
-0.394976888875277
20
35.0092317015021
30
0
41
1
10
-0.394976888875277
20
35.0934183585436
30
0
41
1
10
-0.394976888875277
20
35.1736145542893
30
0
41
1
10
-0.394976888875277
20
35.2497713845769
30
0
41
1
10
-0.394976888875277
20
35.3458690564808
30
0
41
1
10
-0.394976888875277
20
35.4336188232989
30
0
41
1
10
-0.394976888875277
20
35.512876196401
30
0
41
1
10
-0.394976888875277
20
35.5679744983808
30
0
41
1
10
-0.394976888875277
20
35.6186712456131
30
0
41
1
10
-0.394976888875277
20
35.6648981389415
30
0
41
1
10
-0.394976888875277
20
35.7065800550004
30
0
41
1
10
-0.394976888875277
20
35.7436409390551
30
0
41
1
10
-0.394976888875277
20
35.7759991408607
30
0
41
1
10
-0.394976888875277
20
35.8035690347397
30
0
41
1
10
-0.394976888875277
20
35.826261141687
30
0
41
1
10
-0.394976888875277
20
35.8439795171219
30
0
41
1
10
-0.394976888875277
20
35.8566245309614
30
0
41
1
10
-0.394976888875306
20
35.8637165157781
30
0
41
1
10
-0.394976888875306
20
35.8653003504558
30
0
41
1
10
-0.39497688887522
20
35.8653780849841
30
0
0
SPLINE
5
DF
100
AcDbEntity
8
SK1
62
256
6
ByLayer
370
18
48
1
60
0
100
AcDbSpline
70
4
71
3
72
26
73
22
40
0
40
0
40
0
40
0
40
0.0312499999999995
40
0.0312499999999995
40
0.0624999999999989
40
0.0624999999999989
40
0.0937499999999984
40
0.0937499999999984
40
0.124999999999998
40
0.124999999999998
40
0.187499999999999
40
0.187499999999999
40
0.25
40
0.25
40
0.375
40
0.375
40
0.5
40
0.5
40
0.75
40
0.75
40
1
40
1
40
1
40
1
41
1
10
-0.394976888875277
20
6.14029748393355
30
0
41
1
10
-0.388671542343843
20
6.13475802495364
30
0
41
1
10
-0.381811688236297
20
6.12988869329274
30
0
41
1
10
-0.366640931323616
20
6.12297362066241
30
0
41
1
10
-0.358278007450139
20
6.12106156290508
30
0
41
1
10
-0.341586244188108
20
6.12220054473724
30
0
41
1
10
-0.333329946064225
20
6.12530915500167
30
0
41
1
10
-0.318937761825026
20
6.13458695676894
30
0
41
1
10
-0.312691447115554
20
6.14059423910948
30
0
41
1
10
-0.296015040763876
20
6.16032344698215
30
0
41
1
10
-0.287612080656601
20
6.1755018230395
30
0
41
1
10
-0.273149761403687
20
6.20664379931787
30
0
41
1
10
-0.26723204792242
20
6.22260462544898
30
0
41
1
10
-0.251522730310057
20
6.27109030505332
30
0
41
1
10
-0.243762688270437
20
6.30429135194802
30
0
41
1
10
-0.230811347956944
20
6.37110400420511
30
0
41
1
10
-0.225742010448243
20
6.40454205690727
30
0
41
1
10
-0.213066187746818
20
6.50489212673318
30
0
41
1
10
-0.207959301007747
20
6.57183900384013
30
0
41
1
10
-0.201382597553931
20
6.7057314109822
30
0
41
1
10
-0.200000000000358
20
6.77268016381234
30
0
41
1
10
-0.200000000000358
20
6.83961987074213
30
0
0
SPLINE
5
E0
100
AcDbEntity
8
SK1
62
256
6
ByLayer
370
18
48
1
60
0
100
AcDbSpline
70
4
71
3
72
18
73
14
40
0
40
0
40
0
40
0
40
0.206493092752282
40
0.206493092752282
40
0.538701063801511
40
0.538701063801511
40
0.704805049326125
40
0.704805049326125
40
0.87090903485074
40
0.87090903485074
40
0.953961027613047
40
0.953961027613047
40
1
40
1
40
1
40
1
41
1
10
-0.200622837580596
20
-28.9869232648533
30
0
41
1
10
-0.201320667024419
20
-29.0140028466812
30
0
41
1
10
-0.202630537935988
20
-29.0408006032024
30
0
41
1
10
-0.207978089312064
20
-29.1098671795166
30
0
41
1
10
-0.213104238159474
20
-29.1516632971215
30
0
41
1
10
-0.225863680076287
20
-29.2124307085261
30
0
41
1
10
-0.230960581830203
20
-29.2323021122845
30
0
41
1
10
-0.243909693549455
20
-29.2709230268991
30
0
41
1
10
-0.251695468058557
20
-29.2897316982489
30
0
41
1
10
-0.267365194374605
20
-29.3158651092754
30
0
41
1
10
-0.27325892533733
20
-29.3242443982201
30
0
41
1
10
-0.284384967822206
20
-29.3363491201685
30
0
41
1
10
-0.288750053686499
20
-29.3405438339523
30
0
41
1
10
-0.293751375739049
20
-29.3443560080447
30
0
0
SPLINE
5
E1
100
AcDbEntity
8
SK1
62
256
6
ByLayer
370
18
48
1
60
0
100
AcDbSpline
70
4
71
3
72
13
73
9
40
0
40
0
40
0
40
0
40
0.239456597696627
40
0.368360333414396
40
0.499999646097735
40
0.631639017852403
40
0.760542916289389
40
1
40
1
40
1
40
1
41
1
10
-2.19999999999999
20
-36.020098714425
30
-1E-16
41
1
10
-2.19909199362428
20
-35.994041143702
30
-1E-16
41
1
10
-2.19103284825079
20
-35.956668418702
30
-1E-16
41
1
10
-2.16563593150639
20
-35.9104490513902
30
-1E-16
41
1
10
-2.13886379933891
20
-35.8791673697464
30
-1E-16
41
1
10
-2.1062771409558
20
-35.8539998944634
30
-1E-16
41
1
10
-2.05884066056879
20
-35.8309559959591
30
-1E-16
41
1
10
-2.02111031829247
20
-35.8247837166445
30
-1E-16
41
1
10
-1.99503997793928
20
-35.8251853523287
30
-1E-16
0
SPLINE
5
E2
100
AcDbEntity
8
SK1
62
256
6
ByLayer
370
18
48
1
60
0
100
AcDbSpline
70
4
71
2
72
6
73
3
40
0
40
0
40
0
40
1
40
1
40
1
41
1
10
-0.394976888875277
20
35.8653726648781
30
0
41
1
10
-1.19500843340728
20
35.845273220757
30
-1E-16
41
1
10
-1.99503997793928
20
35.8251737766339
30
-1E-16
0
SPLINE
5
E3
100
AcDbEntity
8
SK1
62
256
6
ByLayer
370
18
48
1
60
0
100
AcDbSpline
70
4
71
2
72
6
73
3
40
0
40
0
40
0
40
1
40
1
40
1
41
1
10
-58
20
34.6180277609945
30
0
41
1
10
-58.9999999990911
20
34.0406853811666
30
-1E-16
41
1
10
-60
20
33.4633429309407
30
-1E-16
0
SPLINE
5
E4
100
AcDbEntity
8
SK1
62
256
6
ByLayer
370
18
48
1
60
0
100
AcDbSpline
70
4
71
2
72
6
73
3
40
0
40
0
40
0
40
1
40
1
40
1
41
1
10
-1.99503997793928
20
-35.8251729954496
30
-1E-16
41
1
10
-1.19500843340728
20
-35.8452725233881
30
-1E-16
41
1
10
-0.394976888875277
20
-35.8653720513261
30
0
0
SPLINE
5
E5
100
AcDbEntity
8
SK1
62
256
6
ByLayer
370
18
48
1
60
0
100
AcDbSpline
70
4
71
3
72
23
73
19
40
0
40
0
40
0
40
0
40
0.0049638621125226
40
0.0174460750251031
40
0.0441617979461624
40
0.0788088640217229
40
0.120970208439529
40
0.170224107791224
40
0.226152687930945
40
0.288335787570742
40
0.356357117073128
40
0.429792577863023
40
0.508231151954896
40
0.591247511565
40
0.700822676498444
40
0.81608359832943
40
0.936213813665235
40
1
40
1
40
1
40
1
41
1
10
-0.217097767984541
20
19.5793139899916
30
0
41
1
10
-0.217516666923075
20
19.6094601681976
30
0
41
1
10
-0.218920998389336
20
19.7153917306773
30
0
41
1
10
-0.221535093180364
20
19.9838198460182
30
0
41
1
10
-0.225401435833049
20
20.4295395740187
30
0
41
1
10
-0.230078561894231
20
21.0460411945918
30
0
41
1
10
-0.235394187577839
20
21.7827240152889
30
0
41
1
10
-0.241298235478922
20
22.6236204700301
30
0
41
1
10
-0.247809219901313
20
23.5518904047833
30
0
41
1
10
-0.254916060760195
20
24.5501868434389
30
0
41
1
10
-0.262605989459047
20
25.6007484821703
30
0
41
1
10
-0.270857652245411
20
26.685639363604
30
0
41
1
10
-0.279637069490491
20
27.7868949800886
30
0
41
1
10
-0.289739923987838
20
28.9852464100741
30
0
41
1
10
-0.301180381944562
20
30.2480825576066
30
0
41
1
10
-0.313933941290287
20
31.5225500139797
30
0
41
1
10
-0.324933041734283
20
32.5194502358854
30
0
41
1
10
-0.331613173014659
20
33.034627936367
30
0
41
1
10
-0.333922653375396
20
33.2037227079102
30
0
0
SPLINE
5
E6
100
AcDbEntity
8
SK1
62
256
6
ByLayer
370
18
48
1
60
0
100
AcDbSpline
70
4
71
3
72
13
73
9
40
0
40
0
40
0
40
0
40
0.239457532542188
40
0.368361585145814
40
0.500001016451015
40
0.631640278503792
40
0.760543864568942
40
1
40
1
40
1
40
1
41
1
10
-1.99503997793928
20
35.8251861518663
30
-1E-16
41
1
10
-2.02111030872339
20
35.8247845119233
30
-1E-16
41
1
10
-2.05884064232765
20
35.8309567669304
30
-1E-16
41
1
10
-2.10627712748939
20
35.85400056933
30
-1E-16
41
1
10
-2.13886378678399
20
35.8791679394554
30
-1E-16
41
1
10
-2.16563592202684
20
35.9104494932211
30
-1E-16
41
1
10
-2.19103284106407
20
35.9566686669141
30
-1E-16
41
1
10
-2.19909198641739
20
35.9940412511455
30
-1E-16
41
1
10
-2.19999999999999
20
36.0200987271899
30
-1E-16
0
SPLINE
5
E7
100
AcDbEntity
8
SK1
62
256
6
ByLayer
370
18
48
1
60
0
100
AcDbSpline
70
4
71
3
72
27
73
23
40
0
40
0
40
0
40
0
40
0.0682139071758487
40
0.186260452587321
40
0.299525739743117
40
0.40720685814601
40
0.488790680437755
40
0.565876457234291
40
0.638051598491349
40
0.7049045983293
40
0.766027307924468
40
0.821004537521647
40
0.869428349458844
40
0.910883712363592
40
0.944961328147861
40
0.971247439607999
40
0.983536427136077
40
0.992520039757937
40
0.998098324529437
40
0.999579845570989
40
0.999989009095923
40
1
40
1
40
1
40
1
41
1
10
-0.334282611244021
20
-33.1647040701788
30
0
41
1
10
-0.331759641778064
20
-32.975347807436
30
0
41
1
10
-0.324848159145745
20
-32.4270762234139
30
0
41
1
10
-0.313603452139944
20
-31.3807304351469
30
0
41
1
10
-0.300809341354551
20
-30.0648841673629
30
0
41
1
10
-0.289339167328421
20
-28.7618539698521
30
0
41
1
10
-0.279216166635336
20
-27.52521934883
30
0
41
1
10
-0.270423758389597
20
-26.3887753638319
30
0
41
1
10
-0.26216654311807
20
-25.2691603275092
30
0
41
1
10
-0.254475785499181
20
-24.1848679143311
30
0
41
1
10
-0.247375039497854
20
-23.154410724684
30
0
41
1
10
-0.24087525143014
20
-22.1960663214509
30
0
41
1
10
-0.234985418088371
20
-21.3277653946255
30
0
41
1
10
-0.229695063262085
20
-20.5668604485983
30
0
41
1
10
-0.225024365872713
20
-19.929855214235
30
0
41
1
10
-0.221220336093495
20
-19.4690952062593
30
0
41
1
10
-0.218316187147053
20
-19.1652823553445
30
0
41
1
10
-0.216128887471541
20
-18.9939530398026
30
0
41
1
10
-0.214690018891957
20
-18.8913780611484
30
0
41
1
10
-0.213189351679006
20
-18.8452807879357
30
0
41
1
10
-0.212709264915759
20
-18.8336965281274
30
0
41
1
10
-0.212458571559694
20
-18.831461129345
30
0
41
1
10
-0.212451961857738
20
-18.8314027679541
30
0
0
SPLINE
5
E8
100
AcDbEntity
8
SK1
62
256
6
ByLayer
370
18
48
1
60
0
100
AcDbSpline
70
4
71
2
72
6
73
3
40
0
40
0
40
0
40
1
40
1
40
1
41
1
10
-60
20
-33.4633340188486
30
-1E-16
41
1
10
-59.0000000015328
20
-34.0406784545941
30
-1E-16
41
1
10
-58
20
-34.6180228183431
30
0
0
SPLINE
5
E9
100
AcDbEntity
8
SK1
62
256
6
ByLayer
370
18
48
1
60
0
100
AcDbSpline
70
4
71
2
72
6
73
3
40
0
40
0
40
0
40
1
40
1
40
1
41
1
10
-2.19999999999999
20
35.9985021134432
30
-1E-16
41
1
10
-30.1000000000001
20
35.2979624159373
30
-1E-16
41
1
10
-58
20
34.5974227787246
30
0
0
SPLINE
5
EA
100
AcDbEntity
8
SK1
62
256
6
ByLayer
370
18
48
1
60
0
100
AcDbSpline
70
4
71
2
72
6
73
3
40
0
40
0
40
0
40
1
40
1
40
1
41
1
10
-58
20
-34.5974182144316
30
0
41
1
10
-30.1000000000006
20
-35.2979600359712
30
-1E-16
41
1
10
-2.19999999999999
20
-35.9985019194103
30
-1E-16
0
LINE
5
7E
100
AcDbEntity
8
1
62
256
6
ByLayer
370
13
48
1
60
0
100
AcDbLine
10
18.644338
20
-15.513346
30
0
11
18.644338
21
-47.532474
31
0
39
0
210
0
220
0
230
1
0
LINE
5
7F
100
AcDbEntity
8
1
62
256
6
ByLayer
370
13
48
1
60
0
100
AcDbLine
10
13.355662
20
-15.513346
30
0
11
13.355662
21
-47.532474
31
0
39
0
210
0
220
0
230
1
0
LINE
5
80
100
AcDbEntity
8
1
62
256
6
ByLayer
370
13
48
1
60
0
100
AcDbLine
10
13.788675
20
47.699112
30
0
11
13.788675
21
14.993155
31
0
39
0
210
0
220
0
230
1
0
LINE
5
81
100
AcDbEntity
8
1
62
256
6
ByLayer
370
18
48
1
60
0
100
AcDbLine
10
18.211325
20
14.993155
30
0
11
13.788675
21
14.993155
31
0
39
0
210
0
220
0
230
1
0
LINE
5
82
100
AcDbEntity
8
1
62
256
6
ByLayer
370
18
48
1
60
0
100
AcDbLine
10
0.5
20
0
30
0
11
0.5
21
50
31
0
39
0
210
0
220
0
230
1
0
LINE
5
83
100
AcDbEntity
8
1
62
256
6
ByLayer
370
18
48
1
60
0
100
AcDbLine
10
0.5
20
-50
30
0
11
0.5
21
0
31
0
39
0
210
0
220
0
230
1
0
LINE
5
84
100
AcDbEntity
8
1
62
256
6
ByLayer
370
18
48
1
60
0
100
AcDbLine
10
18.211325
20
-47.699112
30
0
11
13.788675
21
-47.699112
31
0
39
0
210
0
220
0
230
1
0
LINE
5
85
100
AcDbEntity
8
1
62
256
6
ByLayer
370
13
48
1
60
0
100
AcDbLine
10
36.624001
20
0
30
0
11
36.624001
21
50
31
0
39
0
210
0
220
0
230
1
0
LINE
5
86
100
AcDbEntity
8
1
62
256
6
ByLayer
370
13
48
1
60
0
100
AcDbLine
10
36.624001
20
-50
30
0
11
36.624001
21
0
31
0
39
0
210
0
220
0
230
1
0
LINE
5
87
100
AcDbEntity
8
1
62
256
6
ByLayer
370
13
48
1
60
0
100
AcDbLine
10
36.959749
20
49.926136
30
0
11
36.959749
21
-49.926136
31
0
39
0
210
0
220
0
230
1
0
LINE
5
88
100
AcDbEntity
8
1
62
256
6
ByLayer
370
18
48
1
60
0
100
AcDbLine
10
64.7
20
0
30
0
11
64.7
21
40
31
0
39
0
210
0
220
0
230
1
0
LINE
5
89
100
AcDbEntity
8
1
62
256
6
ByLayer
370
18
48
1
60
0
100
AcDbLine
10
64.7
20
-40
30
0
11
64.7
21
0
31
0
39
0
210
0
220
0
230
1
0
LINE
5
8A
100
AcDbEntity
8
1
62
256
6
ByLayer
370
13
48
1
60
0
100
AcDbLine
10
57
20
0
30
0
11
57
21
40.659996
31
0
39
0
210
0
220
0
230
1
0
LINE
5
8B
100
AcDbEntity
8
1
62
256
6
ByLayer
370
13
48
1
60
0
100
AcDbLine
10
57
20
-40.659996
30
0
11
57
21
0
31
0
39
0
210
0
220
0
230
1
0
LINE
5
8C
100
AcDbEntity
8
1
62
256
6
ByLayer
370
18
48
1
60
0
100
AcDbLine
10
65
20
0
30
0
11
65
21
39.7
31
0
39
0
210
0
220
0
230
1
0
LINE
5
8D
100
AcDbEntity
8
1
62
256
6
ByLayer
370
18
48
1
60
0
100
AcDbLine
10
65
20
-39.7
30
0
11
65
21
0
31
0
39
0
210
0
220
0
230
1
0
LINE
5
8E
100
AcDbEntity
8
1
62
256
6
ByLayer
370
13
48
1
60
0
100
AcDbLine
10
60
20
-40
30
0
11
60
21
40
31
0
39
0
210
0
220
0
230
1
0
LINE
5
8F
100
AcDbEntity
8
1
62
256
6
ByLayer
370
18
48
1
60
0
100
AcDbLine
10
13.788675
20
-14.993155
30
0
11
18.211325
21
-14.993155
31
0
39
0
210
0
220
0
230
1
0
LINE
5
90
100
AcDbEntity
8
1
62
256
6
ByLayer
370
18
48
1
60
0
100
AcDbLine
10
0
20
0
30
0
11
0
21
49.5
31
0
39
0
210
0
220
0
230
1
0
LINE
5
91
100
AcDbEntity
8
1
62
256
6
ByLayer
370
18
48
1
60
0
100
AcDbLine
10
0
20
-49.5
30
0
11
0
21
0
31
0
39
0
210
0
220
0
230
1
0
LINE
5
92
100
AcDbEntity
8
1
62
256
6
ByLayer
370
13
48
1
60
0
100
AcDbLine
10
13.355662
20
47.532474
30
0
11
13.355662
21
15.513346
31
0
39
0
210
0
220
0
230
1
0
LINE
5
93
100
AcDbEntity
8
1
62
256
6
ByLayer
370
13
48
1
60
0
100
AcDbLine
10
18.211325
20
-14.993155
30
0
11
18.211325
21
-47.699112
31
0
39
0
210
0
220
0
230
1
0
LINE
5
94
100
AcDbEntity
8
1
62
256
6
ByLayer
370
13
48
1
60
0
100
AcDbLine
10
18.644338
20
47.532474
30
0
11
18.644338
21
15.513346
31
0
39
0
210
0
220
0
230
1
0
LINE
5
95
100
AcDbEntity
8
1
62
256
6
ByLayer
370
13
48
1
60
0
100
AcDbLine
10
13.788675
20
-14.993155
30
0
11
13.788675
21
-47.699112
31
0
39
0
210
0
220
0
230
1
0
LINE
5
96
100
AcDbEntity
8
1
62
256
6
ByLayer
370
13
48
1
60
0
100
AcDbLine
10
18.211325
20
47.699112
30
0
11
18.211325
21
14.993155
31
0
39
0
210
0
220
0
230
1
0
LINE
5
97
100
AcDbEntity
8
1
62
256
6
ByLayer
370
18
48
1
60
0
100
AcDbLine
10
13.788675
20
47.699112
30
0
11
18.211325
21
47.699112
31
0
39
0
210
0
220
0
230
1
0
LINE
5
98
100
AcDbEntity
8
SK1
62
256
6
ByLayer
370
13
48
1
60
0
100
AcDbLine
10
-1.307107
20
-4.60538
30
0
11
-1.307107
21
4.60538
31
0
39
0
210
0
220
0
230
1
0
LINE
5
9A
100
AcDbEntity
8
SK1
62
256
6
ByLayer
370
18
48
1
60
0
100
AcDbLine
10
-0.2
20
-37.983485
30
0
11
-0.2
21
-6.83962
31
0
39
0
210
0
220
0
230
1
0
LINE
5
9B
100
AcDbEntity
8
SK1
62
256
6
ByLayer
370
18
48
1
60
0
100
AcDbLine
10
-0.2
20
6.83962
30
0
11
-0.2
21
37.983485
31
0
39
0
210
0
220
0
230
1
0
LINE
5
9C
100
AcDbEntity
8
SK4
62
256
6
ByLayer
370
18
48
0.05
60
0
100
AcDbLine
10
-65
20
0
30
0
11
70
21
0
31
0
39
0
210
0
220
0
230
1
0
LINE
5
9E
100
AcDbEntity
8
1
62
256
6
ByLayer
370
18
48
1
60
0
100
AcDbLine
10
65
20
39.7
30
0
11
64.7
21
40
31
0
39
0
210
0
220
0
230
1
0
LINE
5
9F
100
AcDbEntity
8
1
62
256
6
ByLayer
370
18
48
1
60
0
100
AcDbLine
10
64.7
20
-40
30
0
11
65
21
-39.7
31
0
39
0
210
0
220
0
230
1
0
LINE
5
A0
100
AcDbEntity
8
1
62
256
6
ByLayer
370
18
48
1
60
0
100
AcDbLine
10
64.7
20
40
30
0
11
60
21
40
31
0
39
0
210
0
220
0
230
1
0
LINE
5
A1
100
AcDbEntity
8
1
62
256
6
ByLayer
370
18
48
1
60
0
100
AcDbLine
10
60
20
-40
30
0
11
64.7
21
-40
31
0
39
0
210
0
220
0
230
1
0
LINE
5
A2
100
AcDbEntity
8
1
62
256
6
ByLayer
370
18
48
1
60
0
100
AcDbLine
10
57
20
40.659996
30
0
11
36.959749
21
49.926136
31
0
39
0
210
0
220
0
230
1
0
LINE
5
A3
100
AcDbEntity
8
1
62
256
6
ByLayer
370
18
48
1
60
0
100
AcDbLine
10
36.959749
20
-49.926136
30
0
11
57
21
-40.659996
31
0
39
0
210
0
220
0
230
1
0
LINE
5
A4
100
AcDbEntity
8
1
62
256
6
ByLayer
370
18
48
1
60
0
100
AcDbLine
10
0
20
-49.5
30
0
11
0.5
21
-50
31
0
39
0
210
0
220
0
230
1
0
LINE
5
A5
100
AcDbEntity
8
1
62
256
6
ByLayer
370
18
48
1
60
0
100
AcDbLine
10
0.5
20
50
30
0
11
0
21
49.5
31
0
39
0
210
0
220
0
230
1
0
LINE
5
A6
100
AcDbEntity
8
1
62
256
6
ByLayer
370
18
48
1
60
0
100
AcDbLine
10
36.624001
20
50
30
0
11
0.5
21
50
31
0
39
0
210
0
220
0
230
1
0
LINE
5
A7
100
AcDbEntity
8
4
62
256
6
ByLayer
370
18
48
0.05
60
0
100
AcDbLine
10
0
20
0
30
0
11
65
21
0
31
0
39
0
210
0
220
0
230
1
0
LINE
5
A9
100
AcDbEntity
8
80
62
256
6
ByLayer
370
18
48
1
60
0
100
AcDbLine
10
0
20
0
30
0
11
-6.08897
21
0
31
0
39
0
210
0
220
0
230
1
0
LINE
5
AA
100
AcDbEntity
8
1
62
256
6
ByLayer
370
18
48
1
60
0
100
AcDbLine
10
0.5
20
-50
30
0
11
36.624001
21
-50
31
0
39
0
210
0
220
0
230
1
0
LINE
5
AB
100
AcDbEntity
8
81
62
256
6
ByLayer
370
18
48
1
60
0
100
AcDbLine
10
65
20
0
30
0
11
67.367097
21
0
31
0
39
0
210
0
220
0
230
1
0
LINE
5
AC
100
AcDbEntity
8
SK2
62
256
6
ByLayer
370
13
48
1
60
0
100
AcDbLine
10
-81.6
20
50
30
0
11
-81.6
21
-50
31
0
39
0
210
0
220
0
230
1
0
LINE
5
AE
100
AcDbEntity
8
SK2
62
256
6
ByLayer
370
13
48
1
60
0
100
AcDbLine
10
-1.5875
20
-50
30
0
11
-83.6
21
-50
31
0
39
0
210
0
220
0
230
1
0
LINE
5
AF
100
AcDbEntity
8
SK2
62
256
6
ByLayer
370
13
48
1
60
0
100
AcDbLine
10
-1.5875
20
50
30
0
11
-83.6
21
50
31
0
39
0
210
0
220
0
230
1
0
LINE
5
B0
100
AcDbEntity
8
1
62
256
6
ByLayer
370
18
48
1
60
1
100
AcDbLine
10
-81.6
20
-50
30
0
11
-82.060784
21
-46.500002
31
0
39
0
210
0
220
0
230
1
0
LINE
5
B1
100
AcDbEntity
8
1
62
256
6
ByLayer
370
18
48
1
60
1
100
AcDbLine
10
-82.060784
20
-46.500002
30
0
11
-81.139216
21
-46.499998
31
0
39
0
210
0
220
0
230
1
0
LINE
5
B2
100
AcDbEntity
8
1
62
256
6
ByLayer
370
18
48
1
60
1
100
AcDbLine
10
-81.139216
20
-46.499998
30
0
11
-81.6
21
-50
31
0
39
0
210
0
220
0
230
1
0
LINE
5
B3
100
AcDbEntity
8
1
62
256
6
ByLayer
370
18
48
1
60
1
100
AcDbLine
10
-81.6
20
50
30
0
11
-81.139216
21
46.500002
31
0
39
0
210
0
220
0
230
1
0
LINE
5
B4
100
AcDbEntity
8
1
62
256
6
ByLayer
370
18
48
1
60
1
100
AcDbLine
10
-81.139216
20
46.500002
30
0
11
-82.060784
21
46.499998
31
0
39
0
210
0
220
0
230
1
0
LINE
5
B5
100
AcDbEntity
8
1
62
256
6
ByLayer
370
18
48
1
60
1
100
AcDbLine
10
-82.060784
20
46.499998
30
0
11
-81.6
21
50
31
0
39
0
210
0
220
0
230
1
0
LINE
5
B6
100
AcDbEntity
8
SK2
62
256
6
ByLayer
370
13
48
1
60
0
100
AcDbLine
10
90.1
20
40
30
0
11
90.1
21
-40
31
0
39
0
210
0
220
0
230
1
0
LINE
5
B7
100
AcDbEntity
8
SK2
62
256
6
ByLayer
370
13
48
1
60
0
100
AcDbLine
10
66.5875
20
-40
30
0
11
92.1
21
-40
31
0
39
0
210
0
220
0
230
1
0
LINE
5
B8
100
AcDbEntity
8
SK2
62
256
6
ByLayer
370
13
48
1
60
0
100
AcDbLine
10
66.5875
20
40
30
0
11
92.1
21
40
31
0
39
0
210
0
220
0
230
1
0
LINE
5
B9
100
AcDbEntity
8
1
62
256
6
ByLayer
370
18
48
1
60
1
100
AcDbLine
10
90.1
20
-40
30
0
11
89.639216
21
-36.500002
31
0
39
0
210
0
220
0
230
1
0
LINE
5
BA
100
AcDbEntity
8
1
62
256
6
ByLayer
370
18
48
1
60
1
100
AcDbLine
10
89.639216
20
-36.500002
30
0
11
90.560784
21
-36.499998
31
0
39
0
210
0
220
0
230
1
0
LINE
5
BB
100
AcDbEntity
8
1
62
256
6
ByLayer
370
18
48
1
60
1
100
AcDbLine
10
90.560784
20
-36.499998
30
0
11
90.1
21
-40
31
0
39
0
210
0
220
0
230
1
0
LINE
5
BC
100
AcDbEntity
8
1
62
256
6
ByLayer
370
18
48
1
60
1
100
AcDbLine
10
90.1
20
40
30
0
11
90.560784
21
36.500002
31
0
39
0
210
0
220
0
230
1
0
LINE
5
BD
100
AcDbEntity
8
1
62
256
6
ByLayer
370
18
48
1
60
1
100
AcDbLine
10
90.560784
20
36.500002
30
0
11
89.639216
21
36.499998
31
0
39
0
210
0
220
0
230
1
0
LINE
5
BE
100
AcDbEntity
8
1
62
256
6
ByLayer
370
18
48
1
60
1
100
AcDbLine
10
89.639216
20
36.499998
30
0
11
90.1
21
40
31
0
39
0
210
0
220
0
230
1
0
LINE
5
EF
100
AcDbEntity
8
1
62
256
6
ByLayer
370
18
48
1
60
1
100
AcDbLine
10
-81.6
20
-50
30
0
11
-82.060784
21
-46.500002
31
0
39
0
210
0
220
0
230
1
0
LINE
5
F0
100
AcDbEntity
8
1
62
256
6
ByLayer
370
18
48
1
60
1
100
AcDbLine
10
-82.060784
20
-46.500002
30
0
11
-81.139216
21
-46.499998
31
0
39
0
210
0
220
0
230
1
0
LINE
5
F1
100
AcDbEntity
8
1
62
256
6
ByLayer
370
18
48
1
60
1
100
AcDbLine
10
-81.139216
20
-46.499998
30
0
11
-81.6
21
-50
31
0
39
0
210
0
220
0
230
1
0
LINE
5
F3
100
AcDbEntity
8
1
62
256
6
ByLayer
370
18
48
1
60
1
100
AcDbLine
10
-81.6
20
50
30
0
11
-81.139216
21
46.500002
31
0
39
0
210
0
220
0
230
1
0
LINE
5
F4
100
AcDbEntity
8
1
62
256
6
ByLayer
370
18
48
1
60
1
100
AcDbLine
10
-81.139216
20
46.500002
30
0
11
-82.060784
21
46.499998
31
0
39
0
210
0
220
0
230
1
0
LINE
5
F5
100
AcDbEntity
8
1
62
256
6
ByLayer
370
18
48
1
60
1
100
AcDbLine
10
-82.060784
20
46.499998
30
0
11
-81.6
21
50
31
0
39
0
210
0
220
0
230
1
0
LINE
5
F9
100
AcDbEntity
8
1
62
256
6
ByLayer
370
18
48
1
60
1
100
AcDbLine
10
90.1
20
-40
30
0
11
89.639216
21
-36.500002
31
0
39
0
210
0
220
0
230
1
0
LINE
5
FA
100
AcDbEntity
8
1
62
256
6
ByLayer
370
18
48
1
60
1
100
AcDbLine
10
89.639216
20
-36.500002
30
0
11
90.560784
21
-36.499998
31
0
39
0
210
0
220
0
230
1
0
LINE
5
FB
100
AcDbEntity
8
1
62
256
6
ByLayer
370
18
48
1
60
1
100
AcDbLine
10
90.560784
20
-36.499998
30
0
11
90.1
21
-40
31
0
39
0
210
0
220
0
230
1
0
LINE
5
FD
100
AcDbEntity
8
1
62
256
6
ByLayer
370
18
48
1
60
1
100
AcDbLine
10
90.1
20
40
30
0
11
90.560784
21
36.500002
31
0
39
0
210
0
220
0
230
1
0
LINE
5
FE
100
AcDbEntity
8
1
62
256
6
ByLayer
370
18
48
1
60
1
100
AcDbLine
10
90.560784
20
36.500002
30
0
11
89.639216
21
36.499998
31
0
39
0
210
0
220
0
230
1
0
LINE
5
FF
100
AcDbEntity
8
1
62
256
6
ByLayer
370
18
48
1
60
1
100
AcDbLine
10
89.639216
20
36.499998
30
0
11
90.1
21
40
31
0
39
0
210
0
220
0
230
1
0
MTEXT
5
EB
100
AcDbEntity
8
SK2
62
256
6
ByLayer
370
18
48
1
60
0
100
AcDbMText
10
-83.164634
20
-4.525121
30
0
210
0
220
0
230
1
1
%%c
40
3.5
41
0
44
1.084337
50
90
71
7
72
5
7
iso_b_vert
0
MTEXT
5
EE
100
AcDbEntity
8
SK2
62
256
6
ByLayer
370
18
48
1
60
0
100
AcDbMText
10
-83.164634
20
0.697535
30
0
210
0
220
0
230
1
1
\W0.6217;100
40
3.5
41
0
44
1.084337
50
90
71
7
72
5
7
iso_b_vert
0
MTEXT
5
F7
100
AcDbEntity
8
SK2
62
256
6
ByLayer
370
18
48
1
60
0
100
AcDbMText
10
88.535366
20
-3.655088
30
0
210
0
220
0
230
1
1
%%c
40
3.5
41
0
44
1.084337
50
90
71
7
72
5
7
iso_b_vert
0
MTEXT
5
F8
100
AcDbEntity
8
SK2
62
256
6
ByLayer
370
18
48
1
60
0
100
AcDbMText
10
88.535366
20
1.567568
30
0
210
0
220
0
230
1
1
\W0.6740;80
40
3.5
41
0
44
1.084337
50
90
71
7
72
5
7
iso_b_vert
0
MTEXT
5
101
100
AcDbEntity
8
SK6
62
256
6
ByLayer
370
18
48
1
60
0
100
AcDbMText
10
0.1855
20
-65.717366
30
0
210
0
220
0
230
1
1
\W0.7096;C10-391.02-80065
40
3.5
41
0
44
1.084337
50
0
71
7
72
5
7
iso_b_vert
0
HATCH
5
F2
100
AcDbEntity
8
SK2
62
256
6
ByLayer
370
13
48
1
60
0
100
AcDbHatch
10
0
20
0
30
0
210
0
220
0
230
1
2
ANSI31
70
0
71
0
91
1
92
5
93
3
72
1
10
-81.6
20
-50
11
-82.0607837415528
21
-46.5000016925532
72
1
10
-82.0607837415528
20
-46.5000016925532
11
-81.1392162584472
21
-46.4999983074468
72
1
10
-81.1392162584472
20
-46.4999983074468
11
-81.6
21
-50
97
0
75
0
76
1
52
0
41
0.0062
77
0
78
1
53
45
43
0
44
0
45
-0.0139193969876572
46
0.0139193969876572
79
0
47
0
98
1
10
0
20
0
0
HATCH
5
F6
100
AcDbEntity
8
SK2
62
256
6
ByLayer
370
13
48
1
60
0
100
AcDbHatch
10
0
20
0
30
0
210
0
220
0
230
1
2
ANSI31
70
0
71
0
91
1
92
5
93
3
72
1
10
-81.6
20
50
11
-81.1392162584472
21
46.5000016925532
72
1
10
-81.1392162584472
20
46.5000016925532
11
-82.0607837415528
21
46.4999983074468
72
1
10
-82.0607837415528
20
46.4999983074468
11
-81.6
21
50
97
0
75
0
76
1
52
0
41
0.0062
77
0
78
1
53
45
43
0
44
0
45
-0.0139193969876572
46
0.0139193969876572
79
0
47
0
98
1
10
0
20
0
0
HATCH
5
FC
100
AcDbEntity
8
SK2
62
256
6
ByLayer
370
13
48
1
60
0
100
AcDbHatch
10
0
20
0
30
0
210
0
220
0
230
1
2
ANSI31
70
0
71
0
91
1
92
5
93
3
72
1
10
90.1
20
-40
11
89.6392162584472
21
-36.5000016925532
72
1
10
89.6392162584472
20
-36.5000016925532
11
90.5607837415528
21
-36.4999983074468
72
1
10
90.5607837415528
20
-36.4999983074468
11
90.1
21
-40
97
0
75
0
76
1
52
0
41
0.0062
77
0
78
1
53
45
43
0
44
0
45
-0.0139193969876572
46
0.0139193969876572
79
0
47
0
98
1
10
0
20
0
0
HATCH
5
100
100
AcDbEntity
8
SK2
62
256
6
ByLayer
370
13
48
1
60
0
100
AcDbHatch
10
0
20
0
30
0
210
0
220
0
230
1
2
ANSI31
70
0
71
0
91
1
92
5
93
3
72
1
10
90.1
20
40
11
90.5607837415528
21
36.5000016925532
72
1
10
90.5607837415528
20
36.5000016925532
11
89.6392162584472
21
36.4999983074468
72
1
10
89.6392162584472
20
36.4999983074468
11
90.1
21
40
97
0
75
0
76
1
52
0
41
0.0062
77
0
78
1
53
45
43
0
44
0
45
-0.0139193969876572
46
0.0139193969876572
79
0
47
0
98
1
10
0
20
0
0
DIMENSION
5
104
100
AcDbEntity
8
SK2
62
256
6
ByLayer
370
18
48
1
60
0
100
AcDbDimension
2
_U0
10
36
20
66.6
30
0
11
18
21
66.6
31
0
70
32
71
1
72
1
41
1
210
0
220
0
230
1
3
Standard
100
AcDbAlignedDimension
13
0
23
50
33
0
14
36
24
50
34
0
50
0
100
AcDbRotatedDimension
1001
ACAD
1000
DSTYLE
1002
{
1070
   371
1070
    13
1070
   372
1070
    13
1070
   170
1070
     0
1070
   144
1040
1.0
1070
   277
1070
     2
1070
   284
1070
     8
1070
   278
1070
    44
1070
   146
1040
1.0
1070
   345
1005
16
1070
   347
1005
16
1070
   346
1005
16
1070
   344
1005
0
1070
   343
1005
0
1070
   172
1070
     1
1070
    76
1070
     0
1070
    75
1070
     0
1070
   282
1070
     0
1070
   281
1070
     0
1070
    71
1070
     0
1070
    74
1070
     0
1070
   279
1070
     0
1070
   173
1070
     1
1070
   340
1005
EC
1070
   271
1070
     1
1070
   272
1070
     2
1070
    77
1070
     1
1070
    73
1070
     1
1070
   171
1070
     3
1070
   274
1070
     4
1070
   177
1070
     2
1070
   176
1070
     2
1070
   178
1070
     2
1070
    78
1070
     8
1070
    48
1040
-0.1
1070
    41
1040
3.5
1070
   147
1040
1.75
1070
    42
1040
1.5875
1070
    44
1040
2.0
1070
   140
1040
3.5
1002
}
1001
ACAD_DSTYLE_DIM_LINETYPE
1070
   380
1005
16
1001
ACAD_DSTYLE_DIM_EXT1_LINETYPE
1070
   381
1005
16
1001
ACAD_DSTYLE_DIM_EXT2_LINETYPE
1070
   382
1005
16
0
DIMENSION
5
11D
100
AcDbEntity
8
SK2
62
256
6
ByLayer
370
18
48
1
60
0
100
AcDbDimension
2
_U1
10
60
20
66.6
30
0
11
62.5
21
66.6
31
0
70
32
71
1
72
1
41
1
210
0
220
0
230
1
3
Standard
100
AcDbAlignedDimension
13
65
23
40
33
0
14
60
24
40
34
0
50
0
100
AcDbRotatedDimension
1001
ACAD
1000
DSTYLE
1002
{
1070
   371
1070
    13
1070
   372
1070
    13
1070
   170
1070
     0
1070
   144
1040
1.0
1070
   277
1070
     2
1070
   284
1070
     8
1070
   278
1070
    44
1070
   146
1040
1.0
1070
   345
1005
16
1070
   347
1005
16
1070
   346
1005
16
1070
   344
1005
0
1070
   343
1005
0
1070
   172
1070
     1
1070
    76
1070
     0
1070
    75
1070
     0
1070
   282
1070
     0
1070
   281
1070
     0
1070
    71
1070
     0
1070
    74
1070
     0
1070
   279
1070
     0
1070
   173
1070
     1
1070
   340
1005
EC
1070
   271
1070
     1
1070
   272
1070
     2
1070
    77
1070
     1
1070
    73
1070
     1
1070
   171
1070
     3
1070
   274
1070
     4
1070
   177
1070
     2
1070
   176
1070
     2
1070
   178
1070
     2
1070
    78
1070
     8
1070
    48
1040
-0.1
1070
    41
1040
3.5
1070
   147
1040
1.75
1070
    42
1040
1.5875
1070
    44
1040
2.0
1070
   140
1040
3.5
1002
}
1001
ACAD_DSTYLE_DIM_LINETYPE
1070
   380
1005
16
1001
ACAD_DSTYLE_DIM_EXT1_LINETYPE
1070
   381
1005
16
1001
ACAD_DSTYLE_DIM_EXT2_LINETYPE
1070
   382
1005
16
0
DIMENSION
5
136
100
AcDbEntity
8
2
62
256
6
ByLayer
370
18
48
1
60
0
100
AcDbDimension
2
_U2
10
0
20
76.6
30
0
11
32.5
21
76.6
31
0
70
32
71
1
72
1
41
1
210
0
220
0
230
1
3
Standard
100
AcDbAlignedDimension
13
65
23
40
33
0
14
0
24
50
34
0
50
0
100
AcDbRotatedDimension
1001
ACAD
1000
DSTYLE
1002
{
1070
   371
1070
    13
1070
   372
1070
    13
1070
   170
1070
     0
1070
   144
1040
1.0
1070
   277
1070
     2
1070
   284
1070
     8
1070
   278
1070
    44
1070
   146
1040
1.0
1070
   345
1005
16
1070
   347
1005
16
1070
   346
1005
16
1070
   344
1005
0
1070
   343
1005
0
1070
   172
1070
     1
1070
    76
1070
     0
1070
    75
1070
     0
1070
   282
1070
     0
1070
   281
1070
     0
1070
    71
1070
     0
1070
    74
1070
     0
1070
   279
1070
     0
1070
   173
1070
     1
1070
   340
1005
EC
1070
   271
1070
     1
1070
   272
1070
     2
1070
    77
1070
     1
1070
    73
1070
     1
1070
   171
1070
     3
1070
   274
1070
     4
1070
   177
1070
     2
1070
   176
1070
     2
1070
   178
1070
     2
1070
    78
1070
     8
1070
    48
1040
-0.1
1070
    41
1040
3.5
1070
   147
1040
1.75
1070
    42
1040
1.5875
1070
    44
1040
2.0
1070
   140
1040
3.5
1002
}
1001
ACAD_DSTYLE_DIM_LINETYPE
1070
   380
1005
16
1001
ACAD_DSTYLE_DIM_EXT1_LINETYPE
1070
   381
1005
16
1001
ACAD_DSTYLE_DIM_EXT2_LINETYPE
1070
   382
1005
16
0
DIMENSION
5
14F
100
AcDbEntity
8
SK2
62
256
6
ByLayer
370
18
48
1
60
0
100
AcDbDimension
2
_U3
10
0
20
76.6
30
0
11
-30
21
76.6
31
0
70
32
71
1
72
1
41
1
210
0
220
0
230
1
3
Standard
100
AcDbAlignedDimension
13
-60
23
36
33
0
14
0
24
50
34
0
50
0
100
AcDbRotatedDimension
1001
ACAD
1000
DSTYLE
1002
{
1070
   371
1070
    13
1070
   372
1070
    13
1070
   170
1070
     0
1070
   144
1040
1.0
1070
   277
1070
     2
1070
   284
1070
     8
1070
   278
1070
    44
1070
   146
1040
1.0
1070
   345
1005
16
1070
   347
1005
16
1070
   346
1005
16
1070
   344
1005
0
1070
   343
1005
0
1070
   172
1070
     1
1070
    76
1070
     0
1070
    75
1070
     0
1070
   282
1070
     0
1070
   281
1070
     0
1070
    71
1070
     0
1070
    74
1070
     0
1070
   279
1070
     0
1070
   173
1070
     1
1070
   340
1005
EC
1070
   271
1070
     1
1070
   272
1070
     2
1070
    77
1070
     1
1070
    73
1070
     1
1070
   171
1070
     3
1070
   274
1070
     4
1070
   177
1070
     2
1070
   176
1070
     2
1070
   178
1070
     2
1070
    78
1070
     8
1070
    48
1040
-0.1
1070
    41
1040
3.5
1070
   147
1040
1.75
1070
    42
1040
1.5875
1070
    44
1040
2.0
1070
   140
1040
3.5
1002
}
1001
ACAD_DSTYLE_DIM_LINETYPE
1070
   380
1005
16
1001
ACAD_DSTYLE_DIM_EXT1_LINETYPE
1070
   381
1005
16
1001
ACAD_DSTYLE_DIM_EXT2_LINETYPE
1070
   382
1005
16
0
ENDSEC
0
SECTION
2
OBJECTS
0
DICTIONARY
5
1d7
330
0
100
AcDbDictionary
280
0
281
1
3
ACAD_GROUP
350
1d8
3
ACAD_MLINESTYLE
350
1d9
0
DICTIONARY
5
1d8
330
0
100
AcDbDictionary
280
0
281
1
0
DICTIONARY
5
1d9
330
0
100
AcDbDictionary
280
0
281
1
3
Standard
350
18
0
MLINESTYLE
5
18
330
1d9
100
AcDbMlineStyle
2
Standard
70
0
3

62
256
51
90
52
90
71
2
49
-0.5
62
256
6
ByLayer
49
0.5
62
256
6
ByLayer
0
RASTERVARIABLES
5
1c5
330

100
AcDbRasterVariables
90
0
70
1
71
1
72
1
0
ENDSEC
0
EOF
