0
SECTION
2
HEADER
9
$ACADVER
1
AC1015
9
$DWGCODEPAGE
3
ANSI_1252
9
$HANDSEED
5
1bb
9
$ANGBASE
50
0
9
$ANGDIR
70
0
9
$ATTMODE
70
1
9
$AUNITS
70
0
9
$AUPREC
70
0
9
$CECOLOR
62
256
9
$CELTSCALE
40
1
9
$CELTYPE
6
ByLayer
9
$CELWEIGHT
370
18
9
$CLAYER
8
0
9
$CMLJUST
70
0
9
$CMLSCALE
40
1
9
$CMLSTYLE
2
Standard
9
$DIMSTYLE
2
Standard
9
$TEXTSIZE
40
0.2
9
$TEXTSTYLE
7
Standard
9
$LUNITS
70
2
9
$LUPREC
70
4
9
$EXTNAMES
290
1
9
$INSUNITS
70
4
9
$LTSCALE
40
1
9
$LWDISPLAY
290
1
9
$PDMODE
70
0
9
$PDSIZE
40
0
9
$PLINEGEN
70
0
0
ENDSEC
0
SECTION
2
CLASSES
0
CLASS
1
RASTERVARIABLES
2
AcDbRasterVariables
3
ISM
90
0
280
0
281
0
0
ENDSEC
0
SECTION
2
TABLES
0
TABLE
2
VPORT
5
1b1
100
AcDbSymbolTable
0
VPORT
5
1
100
AcDbSymbolTableRecord
100
AcDbViewportTableRecord
2
*Active
70
0
10
0
20
0
11
1
21
1
12
-1
22
1
13
0
23
0
14
0.5
24
0.5
15
10
25
10
16
0
26
0
36
1
17
0
27
0
37
0
0
ENDTAB
0
TABLE
2
LTYPE
5
1b2
100
AcDbSymbolTable
0
LTYPE
5
14
100
AcDbSymbolTableRecord
100
AcDbLinetypeTableRecord
70
0
2
ByBlock
3

72
65
73
0
40
0
0
LTYPE
5
15
100
AcDbSymbolTableRecord
100
AcDbLinetypeTableRecord
70
0
2
ByLayer
3

72
65
73
0
40
0
0
LTYPE
5
16
100
AcDbSymbolTableRecord
100
AcDbLinetypeTableRecord
70
0
2
Continuous
3
Solid line
72
65
73
0
40
0
0
LTYPE
5
6E
100
AcDbSymbolTableRecord
100
AcDbLinetypeTableRecord
70
0
2
CENTER
3
____ _ ____ _ ____ _ ____
72
65
73
4
40
47.5
49
22
74
0
49
-8.5
74
0
49
8.5
74
0
49
-8.5
74
0
0
LTYPE
5
6F
100
AcDbSymbolTableRecord
100
AcDbLinetypeTableRecord
70
0
2
DASHED
3
__ __ __ __ __ __ __ __ __
72
65
73
2
40
25.72
49
12.86
74
0
49
-12.86
74
0
0
ENDTAB
0
TABLE
2
LAYER
5
1b3
100
AcDbSymbolTable
0
LAYER
5
10
100
AcDbSymbolTableRecord
100
AcDbLayerTableRecord
2
0
70
0
62
7
6
Continuous
290
1
370
-3
390
0
0
LAYER
5
71
100
AcDbSymbolTableRecord
100
AcDbLayerTableRecord
2
1
70
0
62
4
6
Continuous
290
1
370
-3
390
0
0
LAYER
5
73
100
AcDbSymbolTableRecord
100
AcDbLayerTableRecord
2
80
70
0
62
-6
6
Continuous
290
1
370
-3
390
0
0
LAYER
5
75
100
AcDbSymbolTableRecord
100
AcDbLayerTableRecord
2
81
70
0
62
-3
6
Continuous
290
1
370
-3
390
0
0
LAYER
5
B3
100
AcDbSymbolTableRecord
100
AcDbLayerTableRecord
2
4
70
0
62
-2
6
CENTER
290
1
370
-3
390
0
0
LAYER
5
F7
100
AcDbSymbolTableRecord
100
AcDbLayerTableRecord
2
Defpoints
70
0
62
7
6
Continuous
290
0
370
-3
390
0
0
LAYER
5
11C
100
AcDbSymbolTableRecord
100
AcDbLayerTableRecord
2
2
70
0
62
7
6
Continuous
290
1
370
-3
390
0
0
LAYER
5
19d
100
AcDbSymbolTableRecord
100
AcDbLayerTableRecord
2
SK1
70
0
62
4
6
Continuous
290
1
370
-3
390
0
0
LAYER
5
19e
100
AcDbSymbolTableRecord
100
AcDbLayerTableRecord
2
SK4
70
0
62
2
6
CENTER
290
1
370
-3
390
0
0
LAYER
5
19f
100
AcDbSymbolTableRecord
100
AcDbLayerTableRecord
2
SK2
70
0
62
7
6
Continuous
290
1
370
-3
390
0
0
LAYER
5
1a0
100
AcDbSymbolTableRecord
100
AcDbLayerTableRecord
2
SK6
70
0
62
5
6
Continuous
290
1
370
-3
390
0
0
ENDTAB
0
TABLE
2
STYLE
5
1b4
100
AcDbSymbolTable
0
STYLE
5
11
100
AcDbSymbolTableRecord
100
AcDbTextStyleTableRecord
2
Standard
3
txt
70
0
71
0
40
0
41
1
42
0
50
0
0
STYLE
5
DC
100
AcDbSymbolTableRecord
100
AcDbTextStyleTableRecord
2
iso_b_vert
3
simplex.shx
70
0
71
0
40
0
41
1
42
0
50
0
0
STYLE
5
DD
100
AcDbSymbolTableRecord
100
AcDbTextStyleTableRecord
2
DWGDirectTextStyle
3
simplex
70
0
71
0
40
0
41
1
42
0
50
0
0
ENDTAB
0
TABLE
2
DIMSTYLE
5
1b5
100
AcDbSymbolTable
100
AcDbDimStyleTable
0
DIMSTYLE
105
27
100
AcDbSymbolTableRecord
100
AcDbDimStyleTableRecord
2
Standard
70
0
3
<>
41
0.18
42
0.0625
44
0.18
140
0.18
147
0.09
73
0
74
0
77
1
271
2
275
0
278
52
280
0
340
11
0
ENDTAB
0
TABLE
2
VIEW
5
1b6
100
AcDbSymbolTable
0
ENDTAB
0
TABLE
2
UCS
5
1b7
100
AcDbSymbolTable
0
ENDTAB
0
TABLE
2
APPID
5
1b8
100
AcDbSymbolTable
0
APPID
5
12
100
AcDbSymbolTableRecord
100
AcDbRegAppTableRecord
2
ACAD
70
0
0
APPID
5
F3
100
AcDbSymbolTableRecord
100
AcDbRegAppTableRecord
2
ACAD_DSTYLE_DIMBREAK
70
0
0
APPID
5
15C
100
AcDbSymbolTableRecord
100
AcDbRegAppTableRecord
2
ACAD_DSTYLE_DIM_LINETYPE
70
0
0
APPID
5
15D
100
AcDbSymbolTableRecord
100
AcDbRegAppTableRecord
2
ACAD_DSTYLE_DIM_EXT1_LINETYPE
70
0
0
APPID
5
15E
100
AcDbSymbolTableRecord
100
AcDbRegAppTableRecord
2
ACAD_DSTYLE_DIM_EXT2_LINETYPE
70
0
0
APPID
5
199
100
AcDbSymbolTableRecord
100
AcDbRegAppTableRecord
2
ACAD_MLEADERVER
70
0
0
ENDTAB
0
TABLE
2
BLOCK_RECORD
5
1b9
100
AcDbSymbolTable
0
BLOCK_RECORD
5
1F
100
AcDbSymbolTableRecord
100
AcDbBlockTableRecord
2
*Model_Space
340
0
70
0
0
BLOCK_RECORD
5
1B
100
AcDbSymbolTableRecord
100
AcDbBlockTableRecord
2
*Paper_Space
340
0
70
0
0
BLOCK_RECORD
5
23
100
AcDbSymbolTableRecord
100
AcDbBlockTableRecord
2
*Paper_Space0
340
0
70
0
0
BLOCK_RECORD
5
F8
100
AcDbSymbolTableRecord
100
AcDbBlockTableRecord
2
*D1
340
0
70
0
0
BLOCK_RECORD
5
104
100
AcDbSymbolTableRecord
100
AcDbBlockTableRecord
2
_U0
340
0
70
0
0
BLOCK_RECORD
5
110
100
AcDbSymbolTableRecord
100
AcDbBlockTableRecord
2
*D3
340
0
70
0
0
BLOCK_RECORD
5
11D
100
AcDbSymbolTableRecord
100
AcDbBlockTableRecord
2
_U1
340
0
70
0
0
BLOCK_RECORD
5
129
100
AcDbSymbolTableRecord
100
AcDbBlockTableRecord
2
*D5
340
0
70
0
0
BLOCK_RECORD
5
135
100
AcDbSymbolTableRecord
100
AcDbBlockTableRecord
2
_U2
340
0
70
0
0
ENDTAB
0
ENDSEC
0
SECTION
2
BLOCKS
0
BLOCK
5
20
100
AcDbEntity
8
0
100
AcDbBlockBegin
2
*Model_Space
70
0
10
0
20
0
30
0
3
*Model_Space
0
ENDBLK
5
21
100
AcDbEntity
8
0
100
AcDbBlockEnd
0
BLOCK
5
1C
100
AcDbEntity
8
0
100
AcDbBlockBegin
2
*Paper_Space
70
0
10
0
20
0
30
0
3
*Paper_Space
0
ENDBLK
5
1D
100
AcDbEntity
8
0
100
AcDbBlockEnd
0
BLOCK
5
24
100
AcDbEntity
8
0
100
AcDbBlockBegin
2
*Paper_Space0
70
0
10
0
20
0
30
0
3
*Paper_Space0
0
ENDBLK
5
25
100
AcDbEntity
8
0
100
AcDbBlockEnd
0
BLOCK
5
F9
100
AcDbEntity
8
0
100
AcDbBlockBegin
2
*D1
70
1
10
0
20
0
30
0
3
*D1
0
LINE
5
FB
100
AcDbEntity
8
0
62
256
6
ByLayer
370
-2
48
1
60
0
100
AcDbLine
10
0
20
79.0875
30
0
11
0
21
96.08425
31
0
39
0
210
0
220
0
230
1
0
LINE
5
FC
100
AcDbEntity
8
0
62
256
6
ByLayer
370
-2
48
1
60
0
100
AcDbLine
10
48
20
79.0875
30
0
11
48
21
96.08425
31
0
39
0
210
0
220
0
230
1
0
LINE
5
FD
100
AcDbEntity
8
0
62
256
6
ByLayer
370
-2
48
1
60
0
100
AcDbLine
10
3.5
20
94.08425
30
0
11
44.5
21
94.08425
31
0
39
0
210
0
220
0
230
1
0
SOLID
5
FE
100
AcDbEntity
8
0
62
256
6
ByLayer
370
-1
48
1
60
0
100
AcDbTrace
10
3.5
20
94.667583
30
0
11
3.5
21
93.500917
31
0
12
0
22
94.08425
32
0
13
0
23
94.08425
33
0
39
0
210
0
220
0
230
1
0
SOLID
5
FF
100
AcDbEntity
8
0
62
256
6
ByLayer
370
-1
48
1
60
0
100
AcDbTrace
10
44.5
20
93.500917
30
0
11
44.5
21
94.667583
31
0
12
48
22
94.08425
32
0
13
48
23
94.08425
33
0
39
0
210
0
220
0
230
1
0
MTEXT
5
100
100
AcDbEntity
8
0
62
256
6
ByLayer
370
18
48
1
60
0
100
AcDbMText
10
24
20
101.08425
30
0
210
0
220
0
230
1
1
\A1;48
40
3.5
41
0
44
1
50
0
71
5
72
5
7
iso_b_vert
0
POINT
5
101
100
AcDbEntity
8
Defpoints
62
0
6
ByLayer
370
-1
48
1
60
0
100
AcDbPoint
10
0
20
77.5
30
0
39
0
210
0
220
0
230
1
50
360
0
POINT
5
102
100
AcDbEntity
8
Defpoints
62
0
6
ByLayer
370
-1
48
1
60
0
100
AcDbPoint
10
48
20
77.5
30
0
39
0
210
0
220
0
230
1
50
360
0
POINT
5
103
100
AcDbEntity
8
Defpoints
62
0
6
ByLayer
370
-1
48
1
60
0
100
AcDbPoint
10
48
20
94.08425
30
0
39
0
210
0
220
0
230
1
50
360
0
ENDBLK
5
FA
100
AcDbEntity
8
0
100
AcDbBlockEnd
0
BLOCK
5
10B
100
AcDbEntity
8
0
100
AcDbBlockBegin
2
_U0
70
0
10
0
20
0
30
0
3
_U0
0
MTEXT
5
105
100
AcDbEntity
8
SK2
62
256
6
ByLayer
370
18
48
1
60
0
100
AcDbMText
10
21.910767
20
95.116884
30
0
210
0
220
0
230
1
1
\W0.7361;48
40
3.5
41
0
44
1.084337
50
0
71
7
72
5
7
iso_b_vert
0
LINE
5
106
100
AcDbEntity
8
SK2
62
256
6
ByLayer
370
13
48
1
60
0
100
AcDbLine
10
0
20
79.0875
30
0
11
0
21
96.08425
31
0
39
0
210
0
220
0
230
1
0
LINE
5
107
100
AcDbEntity
8
SK2
62
256
6
ByLayer
370
13
48
1
60
0
100
AcDbLine
10
48
20
79.0875
30
0
11
48
21
96.08425
31
0
39
0
210
0
220
0
230
1
0
LINE
5
108
100
AcDbEntity
8
SK2
62
256
6
ByLayer
370
13
48
1
60
0
100
AcDbLine
10
0
20
94.08425
30
0
11
48
21
94.08425
31
0
39
0
210
0
220
0
230
1
0
SOLID
5
109
100
AcDbEntity
8
SK2
62
256
6
ByLayer
370
18
48
1
60
0
100
AcDbTrace
10
0
20
94.08425
30
0
11
3.499998
21
94.545034
31
0
12
3.500002
22
93.623466
32
0
13
3.500002
23
93.623466
33
0
39
0
210
0
220
0
230
1
0
SOLID
5
10A
100
AcDbEntity
8
SK2
62
256
6
ByLayer
370
18
48
1
60
0
100
AcDbTrace
10
48
20
94.08425
30
0
11
44.500002
21
93.623466
31
0
12
44.499998
22
94.545034
32
0
13
44.499998
23
94.545034
33
0
39
0
210
0
220
0
230
1
0
ENDBLK
5
10C
100
AcDbEntity
8
0
100
AcDbBlockEnd
0
BLOCK
5
111
100
AcDbEntity
8
0
100
AcDbBlockBegin
2
*D3
70
1
10
0
20
0
30
0
3
*D3
0
LINE
5
113
100
AcDbEntity
8
0
62
256
6
ByLayer
370
-2
48
1
60
0
100
AcDbLine
10
80
20
51.5875
30
0
11
80
21
106.08425
31
0
39
0
210
0
220
0
230
1
0
LINE
5
114
100
AcDbEntity
8
0
62
256
6
ByLayer
370
-2
48
1
60
0
100
AcDbLine
10
0
20
79.0875
30
0
11
0
21
106.08425
31
0
39
0
210
0
220
0
230
1
0
LINE
5
115
100
AcDbEntity
8
0
62
256
6
ByLayer
370
-2
48
1
60
0
100
AcDbLine
10
76.5
20
104.08425
30
0
11
3.5
21
104.08425
31
0
39
0
210
0
220
0
230
1
0
SOLID
5
116
100
AcDbEntity
8
0
62
256
6
ByLayer
370
-1
48
1
60
0
100
AcDbTrace
10
76.5
20
103.500917
30
0
11
76.5
21
104.667583
31
0
12
80
22
104.08425
32
0
13
80
23
104.08425
33
0
39
0
210
0
220
0
230
1
0
SOLID
5
117
100
AcDbEntity
8
0
62
256
6
ByLayer
370
-1
48
1
60
0
100
AcDbTrace
10
3.5
20
104.667583
30
0
11
3.5
21
103.500917
31
0
12
0
22
104.08425
32
0
13
0
23
104.08425
33
0
39
0
210
0
220
0
230
1
0
MTEXT
5
118
100
AcDbEntity
8
0
62
256
6
ByLayer
370
18
48
1
60
0
100
AcDbMText
10
40
20
111.08425
30
0
210
0
220
0
230
1
1
\A1;80
40
3.5
41
0
44
1
50
0
71
5
72
5
7
iso_b_vert
0
POINT
5
119
100
AcDbEntity
8
Defpoints
62
0
6
ByLayer
370
-1
48
1
60
0
100
AcDbPoint
10
80
20
50
30
0
39
0
210
0
220
0
230
1
50
360
0
POINT
5
11A
100
AcDbEntity
8
Defpoints
62
0
6
ByLayer
370
-1
48
1
60
0
100
AcDbPoint
10
0
20
77.5
30
0
39
0
210
0
220
0
230
1
50
360
0
POINT
5
11B
100
AcDbEntity
8
Defpoints
62
0
6
ByLayer
370
-1
48
1
60
0
100
AcDbPoint
10
0
20
104.08425
30
0
39
0
210
0
220
0
230
1
50
360
0
ENDBLK
5
112
100
AcDbEntity
8
0
100
AcDbBlockEnd
0
BLOCK
5
124
100
AcDbEntity
8
0
100
AcDbBlockBegin
2
_U1
70
0
10
0
20
0
30
0
3
_U1
0
MTEXT
5
11E
100
AcDbEntity
8
2
62
256
6
ByLayer
370
18
48
1
60
0
100
AcDbMText
10
38.095034
20
105.116884
30
0
210
0
220
0
230
1
1
\W0.6740;80
40
3.5
41
0
44
1.084337
50
0
71
7
72
5
7
iso_b_vert
0
LINE
5
11F
100
AcDbEntity
8
2
62
256
6
ByLayer
370
13
48
1
60
0
100
AcDbLine
10
80
20
51.5875
30
0
11
80
21
106.08425
31
0
39
0
210
0
220
0
230
1
0
LINE
5
120
100
AcDbEntity
8
2
62
256
6
ByLayer
370
13
48
1
60
0
100
AcDbLine
10
0
20
79.0875
30
0
11
0
21
106.08425
31
0
39
0
210
0
220
0
230
1
0
LINE
5
121
100
AcDbEntity
8
2
62
256
6
ByLayer
370
13
48
1
60
0
100
AcDbLine
10
80
20
104.08425
30
0
11
0
21
104.08425
31
0
39
0
210
0
220
0
230
1
0
SOLID
5
122
100
AcDbEntity
8
2
62
256
6
ByLayer
370
18
48
1
60
0
100
AcDbTrace
10
80
20
104.08425
30
0
11
76.500002
21
103.623466
31
0
12
76.499998
22
104.545034
32
0
13
76.499998
23
104.545034
33
0
39
0
210
0
220
0
230
1
0
SOLID
5
123
100
AcDbEntity
8
2
62
256
6
ByLayer
370
18
48
1
60
0
100
AcDbTrace
10
0
20
104.08425
30
0
11
3.499998
21
104.545034
31
0
12
3.500002
22
103.623466
32
0
13
3.500002
23
103.623466
33
0
39
0
210
0
220
0
230
1
0
ENDBLK
5
125
100
AcDbEntity
8
0
100
AcDbBlockEnd
0
BLOCK
5
12A
100
AcDbEntity
8
0
100
AcDbBlockBegin
2
*D5
70
1
10
0
20
0
30
0
3
*D5
0
LINE
5
12C
100
AcDbEntity
8
0
62
256
6
ByLayer
370
-2
48
1
60
0
100
AcDbLine
10
-161.8
20
14.0875
30
0
11
-161.8
21
106.08425
31
0
39
0
210
0
220
0
230
1
0
LINE
5
12D
100
AcDbEntity
8
0
62
256
6
ByLayer
370
-2
48
1
60
0
100
AcDbLine
10
0
20
79.0875
30
0
11
0
21
106.08425
31
0
39
0
210
0
220
0
230
1
0
LINE
5
12E
100
AcDbEntity
8
0
62
256
6
ByLayer
370
-2
48
1
60
0
100
AcDbLine
10
-158.3
20
104.08425
30
0
11
-3.5
21
104.08425
31
0
39
0
210
0
220
0
230
1
0
SOLID
5
12F
100
AcDbEntity
8
0
62
256
6
ByLayer
370
-1
48
1
60
0
100
AcDbTrace
10
-158.3
20
104.667583
30
0
11
-158.3
21
103.500917
31
0
12
-161.8
22
104.08425
32
0
13
-161.8
23
104.08425
33
0
39
0
210
0
220
0
230
1
0
SOLID
5
130
100
AcDbEntity
8
0
62
256
6
ByLayer
370
-1
48
1
60
0
100
AcDbTrace
10
-3.5
20
103.500917
30
0
11
-3.5
21
104.667583
31
0
12
0
22
104.08425
32
0
13
0
23
104.08425
33
0
39
0
210
0
220
0
230
1
0
MTEXT
5
131
100
AcDbEntity
8
0
62
256
6
ByLayer
370
18
48
1
60
0
100
AcDbMText
10
-80.9
20
111.08425
30
0
210
0
220
0
230
1
1
\A1;161.8
40
3.5
41
0
44
1
50
0
71
5
72
5
7
iso_b_vert
0
POINT
5
132
100
AcDbEntity
8
Defpoints
62
0
6
ByLayer
370
-1
48
1
60
0
100
AcDbPoint
10
-161.8
20
12.5
30
0
39
0
210
0
220
0
230
1
50
360
0
POINT
5
133
100
AcDbEntity
8
Defpoints
62
0
6
ByLayer
370
-1
48
1
60
0
100
AcDbPoint
10
0
20
77.5
30
0
39
0
210
0
220
0
230
1
50
360
0
POINT
5
134
100
AcDbEntity
8
Defpoints
62
0
6
ByLayer
370
-1
48
1
60
0
100
AcDbPoint
10
0
20
104.08425
30
0
39
0
210
0
220
0
230
1
50
360
0
ENDBLK
5
12B
100
AcDbEntity
8
0
100
AcDbBlockEnd
0
BLOCK
5
13C
100
AcDbEntity
8
0
100
AcDbBlockBegin
2
_U2
70
0
10
0
20
0
30
0
3
_U2
0
MTEXT
5
136
100
AcDbEntity
8
SK2
62
256
6
ByLayer
370
18
48
1
60
0
100
AcDbMText
10
-85.162432
20
105.116884
30
0
210
0
220
0
230
1
1
\W0.6110;161,8
40
3.5
41
0
44
1.084337
50
0
71
7
72
5
7
iso_b_vert
0
LINE
5
137
100
AcDbEntity
8
SK2
62
256
6
ByLayer
370
13
48
1
60
0
100
AcDbLine
10
-161.8
20
14.0875
30
0
11
-161.8
21
106.08425
31
0
39
0
210
0
220
0
230
1
0
LINE
5
138
100
AcDbEntity
8
SK2
62
256
6
ByLayer
370
13
48
1
60
0
100
AcDbLine
10
0
20
79.0875
30
0
11
0
21
106.08425
31
0
39
0
210
0
220
0
230
1
0
LINE
5
139
100
AcDbEntity
8
SK2
62
256
6
ByLayer
370
13
48
1
60
0
100
AcDbLine
10
-161.8
20
104.08425
30
0
11
0
21
104.08425
31
0
39
0
210
0
220
0
230
1
0
SOLID
5
13A
100
AcDbEntity
8
SK2
62
256
6
ByLayer
370
18
48
1
60
0
100
AcDbTrace
10
-161.8
20
104.08425
30
0
11
-158.300002
21
104.545034
31
0
12
-158.299998
22
103.623466
32
0
13
-158.299998
23
103.623466
33
0
39
0
210
0
220
0
230
1
0
SOLID
5
13B
100
AcDbEntity
8
SK2
62
256
6
ByLayer
370
18
48
1
60
0
100
AcDbTrace
10
0
20
104.08425
30
0
11
-3.499998
21
103.623466
31
0
12
-3.500002
22
104.545034
32
0
13
-3.500002
23
104.545034
33
0
39
0
210
0
220
0
230
1
0
ENDBLK
5
13D
100
AcDbEntity
8
0
100
AcDbBlockEnd
0
ENDSEC
0
SECTION
2
ENTITIES
0
ARC
5
CA
100
AcDbEntity
8
1
62
256
6
ByLayer
370
18
48
1
60
0
100
AcDbCircle
39
0
10
2.4
20
-54.35
30
0
40
0.6
210
0
220
0
230
1
100
AcDbArc
50
0
51
90
0
ARC
5
CB
100
AcDbEntity
8
1
62
256
6
ByLayer
370
18
48
1
60
0
100
AcDbCircle
39
0
10
49
20
51
30
0
40
1
210
0
220
0
230
1
100
AcDbArc
50
180
51
270
0
ARC
5
CC
100
AcDbEntity
8
1
62
256
6
ByLayer
370
18
48
1
60
0
100
AcDbCircle
39
0
10
49
20
-51
30
0
40
1
210
0
220
0
230
1
100
AcDbArc
50
90
51
180
0
ARC
5
CD
100
AcDbEntity
8
SK1
62
256
6
ByLayer
370
18
48
1
60
0
100
AcDbCircle
39
0
10
-160.8
20
-29.512607
30
0
40
1
210
0
220
0
230
1
100
AcDbArc
50
180
51
261.702222
0
ARC
5
CE
100
AcDbEntity
8
1
62
256
6
ByLayer
370
18
48
1
60
0
100
AcDbCircle
39
0
10
47
20
76.48425
30
0
40
1
210
0
220
0
230
1
100
AcDbArc
50
0
51
90
0
ARC
5
CF
100
AcDbEntity
8
1
62
256
6
ByLayer
370
18
48
1
60
0
100
AcDbCircle
39
0
10
2.4
20
54.35
30
0
40
0.6
210
0
220
0
230
1
100
AcDbArc
50
270
51
0
0
ARC
5
D0
100
AcDbEntity
8
SK1
62
256
6
ByLayer
370
18
48
1
60
0
100
AcDbCircle
39
0
10
-160.8
20
29.512607
30
0
40
1
210
0
220
0
230
1
100
AcDbArc
50
98.297778
51
180
0
ARC
5
D1
100
AcDbEntity
8
1
62
256
6
ByLayer
370
18
48
1
60
0
100
AcDbCircle
39
0
10
47
20
-76.48425
30
0
40
1
210
0
220
0
230
1
100
AcDbArc
50
270
51
0
0
POINT
5
70
100
AcDbEntity
8
1
62
256
6
ByLayer
370
18
48
1
60
0
100
AcDbPoint
10
0
20
0
30
0
39
0
210
0
220
0
230
1
50
360
0
POINT
5
72
100
AcDbEntity
8
80
62
256
6
ByLayer
370
18
48
1
60
0
100
AcDbPoint
10
0
20
0
30
0
39
0
210
0
220
0
230
1
50
360
0
POINT
5
74
100
AcDbEntity
8
81
62
256
6
ByLayer
370
18
48
1
60
0
100
AcDbPoint
10
80
20
0
30
0
39
0
210
0
220
0
230
1
50
360
0
POINT
5
76
100
AcDbEntity
8
1
62
256
6
ByLayer
370
18
48
1
60
1
100
AcDbPoint
10
0
20
77.5
30
0
39
0
210
0
220
0
230
1
50
360
0
POINT
5
77
100
AcDbEntity
8
1
62
256
6
ByLayer
370
18
48
1
60
1
100
AcDbPoint
10
48
20
77.5
30
0
39
0
210
0
220
0
230
1
50
360
0
POINT
5
78
100
AcDbEntity
8
1
62
256
6
ByLayer
370
18
48
1
60
1
100
AcDbPoint
10
80
20
50
30
0
39
0
210
0
220
0
230
1
50
360
0
POINT
5
79
100
AcDbEntity
8
1
62
256
6
ByLayer
370
18
48
1
60
1
100
AcDbPoint
10
0
20
77.5
30
0
39
0
210
0
220
0
230
1
50
360
0
POINT
5
7A
100
AcDbEntity
8
1
62
256
6
ByLayer
370
18
48
1
60
1
100
AcDbPoint
10
-161.8
20
12.5
30
0
39
0
210
0
220
0
230
1
50
360
0
POINT
5
7B
100
AcDbEntity
8
1
62
256
6
ByLayer
370
18
48
1
60
1
100
AcDbPoint
10
0
20
77.5
30
0
39
0
210
0
220
0
230
1
50
360
0
SPLINE
5
D2
100
AcDbEntity
8
1
62
256
6
ByLayer
370
18
48
1
60
0
100
AcDbSpline
70
4
71
3
72
22
73
18
40
0
40
0
40
0
40
0
40
0.249999999999999
40
0.249999999999999
40
0.374999999999998
40
0.374999999999998
40
0.437499999999998
40
0.437499999999998
40
0.499999999999998
40
0.499999999999998
40
0.749999999999999
40
0.749999999999999
40
0.812499999999999
40
0.812499999999999
40
0.875
40
0.875
40
1
40
1
40
1
40
1
41
1
10
33.7
20
-66.9468230805302
30
3E-16
41
1
10
33.0940507591052
20
-66.8598986282058
30
3E-16
41
1
10
32.4285090243468
20
-66.7724382189769
30
2E-16
41
1
10
31.3436605044551
20
-66.6487261986046
30
1E-16
41
1
10
30.967498808063
20
-66.6087292861998
30
1E-16
41
1
10
30.3806696615224
20
-66.5516550281482
30
1E-16
41
1
10
30.1809169242836
20
-66.5330899809848
30
1E-16
41
1
10
29.7784301875744
20
-66.4975262701384
30
0
41
1
10
29.5751882293023
20
-66.4804749892987
30
0
41
1
10
28.5491329569562
20
-66.3991653648168
30
0
41
1
10
27.6971021322653
20
-66.3467425800808
30
-1E-16
41
1
10
26.5921941208957
20
-66.3016232133334
30
-1E-16
41
1
10
26.368947387607
20
-66.2936129760906
30
-2E-16
41
1
10
25.9194084531642
20
-66.2797899137458
30
-2E-16
41
1
10
25.6941275605896
20
-66.2740057747936
30
-2E-16
41
1
10
25.0167609352798
20
-66.2600852295271
30
-2E-16
41
1
10
24.5631553734872
20
-66.255380866387
30
-3E-16
41
1
10
24.1075
20
-66.255380866387
30
-3E-16
0
SPLINE
5
D3
100
AcDbEntity
8
1
62
256
6
ByLayer
370
18
48
1
60
0
100
AcDbSpline
70
4
71
3
72
22
73
18
40
0
40
0
40
0
40
0
40
0.249999999999999
40
0.249999999999999
40
0.374999999999998
40
0.374999999999998
40
0.437499999999998
40
0.437499999999998
40
0.499999999999998
40
0.499999999999998
40
0.749999999999999
40
0.749999999999999
40
0.812499999999999
40
0.812499999999999
40
0.875
40
0.875
40
1
40
1
40
1
40
1
41
1
10
33.7
20
66.9468230805302
30
3E-16
41
1
10
33.0940507591052
20
66.8598986282058
30
3E-16
41
1
10
32.4285090243468
20
66.7724382189769
30
2E-16
41
1
10
31.3436605044551
20
66.6487261986047
30
1E-16
41
1
10
30.967498808063
20
66.6087292861998
30
1E-16
41
1
10
30.3806696615224
20
66.5516550281482
30
1E-16
41
1
10
30.1809169242836
20
66.5330899809848
30
1E-16
41
1
10
29.7784301875744
20
66.4975262701384
30
0
41
1
10
29.5751882293023
20
66.4804749892987
30
0
41
1
10
28.5491329569562
20
66.3991653648168
30
0
41
1
10
27.6971021322653
20
66.3467425800808
30
-1E-16
41
1
10
26.5921941208957
20
66.3016232133334
30
-1E-16
41
1
10
26.368947387607
20
66.2936129760906
30
-2E-16
41
1
10
25.9194084531642
20
66.2797899137457
30
-2E-16
41
1
10
25.6941275605896
20
66.2740057747936
30
-2E-16
41
1
10
25.0167609352798
20
66.260085229527
30
-2E-16
41
1
10
24.5631553734872
20
66.255380866387
30
-3E-16
41
1
10
24.1075
20
66.255380866387
30
-3E-16
0
SPLINE
5
D4
100
AcDbEntity
8
1
62
256
6
ByLayer
370
18
48
1
60
0
100
AcDbSpline
70
4
71
3
72
8
73
4
40
0
40
0
40
0
40
0
40
1
40
1
40
1
40
1
41
1
10
22.7
20
68.4328352770145
30
-4E-16
41
1
10
21.1997374794792
20
71.090523008998
30
-5E-16
41
1
10
19.6972168546033
20
73.7469511977254
30
-6E-16
41
1
10
18.1930757274351
20
76.4024508233376
30
-7E-16
0
SPLINE
5
D5
100
AcDbEntity
8
1
62
256
6
ByLayer
370
18
48
1
60
0
100
AcDbSpline
70
4
71
3
72
30
73
26
40
0
40
0
40
0
40
0
40
0.0625000000000006
40
0.0625000000000006
40
0.125000000000001
40
0.125000000000001
40
0.187500000000002
40
0.187500000000002
40
0.218750000000001
40
0.218750000000001
40
0.250000000000001
40
0.250000000000001
40
0.375
40
0.375
40
0.437499999999999
40
0.437499999999999
40
0.499999999999998
40
0.499999999999998
40
0.624999999999999
40
0.624999999999999
40
0.749999999999999
40
0.749999999999999
40
0.875
40
0.875
40
1
40
1
40
1
40
1
41
1
10
37
20
75.3832228074667
30
0
41
1
10
37
20
75.3831904490564
30
0
41
1
10
36.9930833229949
20
75.3699340760396
30
0
41
1
10
36.9651145775101
20
75.3164001320994
30
0
41
1
10
36.9443173615867
20
75.2766104806
30
0
41
1
10
36.8903066634504
20
75.1733097953428
30
0
41
1
10
36.8570792334157
20
75.109772110665
30
0
41
1
10
36.798569919158
20
74.9979188677768
30
0
41
1
10
36.77762037478
20
74.9578733727684
30
0
41
1
10
36.7329204836583
20
74.8724388884677
30
0
41
1
10
36.7091033142037
20
74.8269222253854
30
0
41
1
10
36.5843441947689
20
74.5885265370007
30
0
41
1
10
36.4663679986096
20
74.3631820472682
30
0
41
1
10
36.2683749496142
20
73.985242084055
30
-4E-16
41
1
10
36.1988352079552
20
73.852537054539
30
4E-16
41
1
10
36.0533697994214
20
73.5750322826375
30
4E-16
41
1
10
35.9772743882521
20
73.4299089414355
30
4E-16
41
1
10
35.7413745826286
20
72.9801795862063
30
4E-16
41
1
10
35.5755903418649
20
72.6643285574029
30
4E-16
41
1
10
35.2307239963738
20
72.0078234209167
30
4E-16
41
1
10
35.0516117244929
20
71.6671114703428
30
4E-16
41
1
10
34.6823506681108
20
70.9653198156239
30
3E-16
41
1
10
34.4921879765544
20
70.6042133978936
30
3E-16
41
1
10
34.1023359280545
20
69.8646338764859
30
3E-16
41
1
10
33.902588400941
20
69.4860521127554
30
3E-16
41
1
10
33.7000000000001
20
69.1024932319871
30
3E-16
0
SPLINE
5
D6
100
AcDbEntity
8
1
62
256
6
ByLayer
370
18
48
1
60
0
100
AcDbSpline
70
2053
71
3
72
90
73
86
40
0
40
0
40
0
40
0
40
0.0312499999999991
40
0.0312499999999991
40
0.0468749999999986
40
0.0468749999999986
40
0.0624999999999981
40
0.0624999999999981
40
0.0937499999999963
40
0.0937499999999963
40
0.124999999999995
40
0.124999999999995
40
0.156249999999993
40
0.156249999999993
40
0.171874999999992
40
0.171874999999992
40
0.187499999999991
40
0.203124999999991
40
0.203124999999991
40
0.21874999999999
40
0.21874999999999
40
0.249999999999989
40
0.249999999999989
40
0.281249999999988
40
0.281249999999988
40
0.312499999999986
40
0.312499999999986
40
0.328124999999986
40
0.328124999999986
40
0.343749999999985
40
0.343749999999985
40
0.374999999999984
40
0.374999999999984
40
0.406249999999984
40
0.406249999999984
40
0.421874999999984
40
0.421874999999984
40
0.437499999999984
40
0.437499999999984
40
0.468749999999985
40
0.468749999999985
40
0.499999999999986
40
0.499999999999986
40
0.531249999999986
40
0.531249999999986
40
0.546874999999987
40
0.546874999999987
40
0.562499999999988
40
0.578124999999989
40
0.578124999999989
40
0.59374999999999
40
0.59374999999999
40
0.624999999999991
40
0.624999999999991
40
0.640624999999992
40
0.640624999999992
40
0.656249999999992
40
0.656249999999992
40
0.687499999999992
40
0.687499999999992
40
0.703124999999993
40
0.703124999999993
40
0.718749999999993
40
0.718749999999993
40
0.749999999999994
40
0.749999999999994
40
0.781249999999995
40
0.781249999999995
40
0.796874999999996
40
0.796874999999996
40
0.812499999999996
40
0.812499999999996
40
0.843749999999997
40
0.843749999999997
40
0.874999999999998
40
0.874999999999998
40
0.906249999999999
40
0.906249999999999
40
0.921874999999999
40
0.921874999999999
40
0.9375
40
0.9375
40
0.96875
40
0.96875
40
1
40
1
40
1
40
1
41
1
10
28.2
20
1.75
30
1.7E-15
41
1
10
28.0843812991985
20
1.75
30
1.7E-15
41
1
10
27.9706956344421
20
1.73865461660625
30
1.7E-15
41
1
10
27.8029478869178
20
1.70531513553198
30
1.7E-15
41
1
10
27.7474988743256
20
1.69146150919352
30
1.7E-15
41
1
10
27.6375559045736
20
1.65814834841149
30
1.7E-15
41
1
10
27.5829137799814
20
1.63859510187385
30
1.7E-15
41
1
10
27.4239684930876
20
1.57271495941458
30
1.7E-15
41
1
10
27.3234549437136
20
1.51896251872168
30
1.7E-15
41
1
10
27.1332285820811
20
1.39196878948226
30
1.7E-15
41
1
10
27.0431659893176
20
1.31805433070622
30
1.7E-15
41
1
10
26.8817362084779
20
1.1565953151067
30
1.6E-15
41
1
10
26.8092968304343
20
1.06849637559131
30
1.6E-15
41
1
10
26.7133479035659
20
0.925027295160021
30
1.6E-15
41
1
10
26.683558928461
20
0.875321012688687
30
1.6E-15
41
1
10
26.6295696746606
20
0.774292527796234
30
1.6E-15
41
1
10
26.5807946776782
20
0.671118869146085
30
1.6E-15
41
1
10
26.5422913841956
20
0.56371906084965
30
1.6E-15
41
1
10
26.5089943211473
20
0.454177089432534
30
1.6E-15
41
1
10
26.4948943697029
20
0.398033140847076
30
1.6E-15
41
1
10
26.4611788451118
20
0.228611806445315
30
1.6E-15
41
1
10
26.4500609686556
20
0.115063716758471
30
1.6E-15
41
1
10
26.4499395266755
20
-0.113201643291688
30
1.6E-15
41
1
10
26.4612956011267
20
-0.229127212906747
30
1.6E-15
41
1
10
26.5059331478359
20
-0.45357443353268
30
1.6E-15
41
1
10
26.5389611231107
20
-0.562664279151733
30
1.6E-15
41
1
10
26.6046572515826
20
-0.72157246723043
30
1.6E-15
41
1
10
26.6294299089381
20
-0.774024148935297
30
1.6E-15
41
1
10
26.6836056441778
20
-0.875415302415831
30
1.6E-15
41
1
10
26.7130092697909
20
-0.924450861694339
30
1.6E-15
41
1
10
26.8080011904582
20
-1.06669706285083
30
1.6E-15
41
1
10
26.8803042716703
20
-1.15509470194809
30
1.6E-15
41
1
10
27.043564988599
20
-1.31852138786073
30
1.7E-15
41
1
10
27.1321225145176
20
-1.39109054930435
30
1.7E-15
41
1
10
27.2742419565044
20
-1.48617658943823
30
1.7E-15
41
1
10
27.3232109331643
20
-1.51559739752156
30
1.7E-15
41
1
10
27.4244083674435
20
-1.56979366752611
30
1.7E-15
41
1
10
27.4768670924524
20
-1.59463863022574
30
1.7E-15
41
1
10
27.6359130594194
20
-1.66056622132686
30
1.7E-15
41
1
10
27.7449959844947
20
-1.69367623182416
30
1.7E-15
41
1
10
27.9691931775406
20
-1.73847520634556
30
1.7E-15
41
1
10
28.0851729225026
20
-1.74995941231216
30
1.7E-15
41
1
10
28.3135865895897
20
-1.75004036785782
30
1.7E-15
41
1
10
28.4270938529369
20
-1.7390081794023
30
1.7E-15
41
1
10
28.5962838947937
20
-1.70550999447224
30
1.8E-15
41
1
10
28.6525527567408
20
-1.69144331242367
30
1.8E-15
41
1
10
28.7622497632693
20
-1.65820971193591
30
1.8E-15
41
1
10
28.8697444140124
20
-1.61977460309228
30
1.8E-15
41
1
10
28.972908089887
20
-1.57111000394374
30
1.8E-15
41
1
10
29.0738805051631
20
-1.51726939684446
30
1.8E-15
41
1
10
29.1234948637487
20
-1.48760808135091
30
1.8E-15
41
1
10
29.2672878086916
20
-1.39164614816448
30
1.8E-15
41
1
10
29.3554814178212
20
-1.31923462074138
30
1.8E-15
41
1
10
29.4766130265879
20
-1.19833780847443
30
1.8E-15
41
1
10
29.5151169454535
20
-1.15597744831786
30
1.8E-15
41
1
10
29.5882706130366
20
-1.06701506372556
30
1.8E-15
41
1
10
29.6227612068119
20
-1.0205520341506
30
1.8E-15
41
1
10
29.7182279534786
20
-0.877831137148519
30
1.8E-15
41
1
10
29.772045286438
20
-0.777366874279636
30
1.8E-15
41
1
10
29.8379939099364
20
-0.618673872869437
30
1.8E-15
41
1
10
29.8575820041776
20
-0.564119586246449
30
1.8E-15
41
1
10
29.8910500076602
20
-0.454047221941323
30
1.8E-15
41
1
10
29.9049639892643
20
-0.398560200037395
30
1.8E-15
41
1
10
29.9384619172483
20
-0.230781093776557
30
1.8E-15
41
1
10
29.949881760194
20
-0.117183737938348
30
1.8E-15
41
1
10
29.9501164307594
20
0.113625181553488
30
1.8E-15
41
1
10
29.9388480433833
20
0.227819156402944
30
1.8E-15
41
1
10
29.9056624898475
20
0.395555296042886
30
1.8E-15
41
1
10
29.8918670195138
20
0.450972755661269
30
1.8E-15
41
1
10
29.8587026681104
20
0.560799337437913
30
1.8E-15
41
1
10
29.8392068969663
20
0.615466350677565
30
1.8E-15
41
1
10
29.7733894803509
20
0.774685654078127
30
1.8E-15
41
1
10
29.7196961401047
20
0.87525975475512
30
1.8E-15
41
1
10
29.592982100978
20
1.06543740449544
30
1.8E-15
41
1
10
29.5191384783098
20
1.15560552858244
30
1.8E-15
41
1
10
29.3577096609176
20
1.3172922240968
30
1.8E-15
41
1
10
29.2696948617615
20
1.38976738539435
30
1.8E-15
41
1
10
29.1265314733774
20
1.48571179894938
30
1.8E-15
41
1
10
29.0767894399398
20
1.51559508625471
30
1.8E-15
41
1
10
28.9756913599863
20
1.56974236787826
30
1.8E-15
41
1
10
28.9240926578225
20
1.59418877027696
30
1.8E-15
41
1
10
28.7662049055285
20
1.65979036462849
30
1.8E-15
41
1
10
28.6564654184545
20
1.69336057586597
30
1.8E-15
41
1
10
28.4300334402643
20
1.73865331061202
30
1.7E-15
41
1
10
28.3156187008015
20
1.75
30
1.7E-15
41
1
10
28.2
20
1.75
30
1.7E-15
0
SPLINE
5
D7
100
AcDbEntity
8
1
62
256
6
ByLayer
370
18
48
1
60
0
100
AcDbSpline
70
4
71
3
72
20
73
16
40
0
40
0
40
0
40
0
40
0.249999999999995
40
0.249999999999995
40
0.374999999999996
40
0.374999999999996
40
0.499999999999996
40
0.499999999999996
40
0.624999999999997
40
0.624999999999997
40
0.749999999999998
40
0.749999999999998
40
0.874999999999999
40
0.874999999999999
40
1
40
1
40
1
40
1
41
1
10
4
20
-76.4024508233375
30
2E-16
41
1
10
3.88203458249012
20
-76.3825293576905
30
2E-16
41
1
10
3.76827505631121
20
-76.342507085504
30
2E-16
41
1
10
3.60374348600379
20
-76.2532836512413
30
2E-16
41
1
10
3.54956972220651
20
-76.2182745040128
30
2E-16
41
1
10
3.44557846102123
20
-76.1386182578756
30
2E-16
41
1
10
3.39587668047176
20
-76.0941727343261
30
2E-16
41
1
10
3.301529793182
20
-75.9951028666253
30
2E-16
41
1
10
3.25662871775279
20
-75.9401544256663
30
2E-16
41
1
10
3.17416426869278
20
-75.8192371716978
30
2E-16
41
1
10
3.13718445215761
20
-75.7542693213828
30
2E-16
41
1
10
3.07361354970675
20
-75.6133174843561
30
2E-16
41
1
10
3.04706814160534
20
-75.5368410422972
30
2E-16
41
1
10
3.0104325033758
20
-75.378133763382
30
2E-16
41
1
10
3
20
-75.2936619169633
30
2E-16
41
1
10
3
20
-75.2101122975661
30
2E-16
0
SPLINE
5
D8
100
AcDbEntity
8
1
62
256
6
ByLayer
370
18
48
1
60
0
100
AcDbSpline
70
4
71
3
72
20
73
16
40
0
40
0
40
0
40
0
40
0.25
40
0.25
40
0.375
40
0.375
40
0.5
40
0.5
40
0.625
40
0.625
40
0.75
40
0.75
40
0.875
40
0.875
40
1
40
1
40
1
40
1
41
1
10
4.0000000000025
20
76.4024508233379
30
2E-16
41
1
10
3.88203458249228
20
76.3825293576912
30
2E-16
41
1
10
3.76827505631314
20
76.3425070855048
30
2E-16
41
1
10
3.60374348600539
20
76.2532836512423
30
2E-16
41
1
10
3.54956972220799
20
76.2182745040138
30
2E-16
41
1
10
3.44557846102248
20
76.1386182578766
30
2E-16
41
1
10
3.39587668047289
20
76.0941727343272
30
2E-16
41
1
10
3.30152979318285
20
75.9951028666264
30
2E-16
41
1
10
3.25662871775353
20
75.9401544256673
30
2E-16
41
1
10
3.17416426869329
20
75.8192371716987
30
2E-16
41
1
10
3.13718445215801
20
75.7542693213836
30
2E-16
41
1
10
3.07361354970698
20
75.6133174843567
30
2E-16
41
1
10
3.04706814160551
20
75.5368410422977
30
2E-16
41
1
10
3.01043250337585
20
75.3781337633823
30
2E-16
41
1
10
3
20
75.2936619169635
30
2E-16
41
1
10
3
20
75.2101122975661
30
2E-16
0
SPLINE
5
D9
100
AcDbEntity
8
1
62
256
6
ByLayer
370
18
48
1
60
0
100
AcDbSpline
70
4
71
3
72
30
73
26
40
0
40
0
40
0
40
0
40
0.0625000000000005
40
0.0625000000000005
40
0.125000000000001
40
0.125000000000001
40
0.187500000000001
40
0.187500000000001
40
0.218750000000001
40
0.218750000000001
40
0.250000000000001
40
0.250000000000001
40
0.375
40
0.375
40
0.437499999999999
40
0.437499999999999
40
0.499999999999998
40
0.499999999999998
40
0.624999999999998
40
0.624999999999998
40
0.749999999999999
40
0.749999999999999
40
0.874999999999999
40
0.874999999999999
40
1
40
1
40
1
40
1
41
1
10
37
20
-75.3832228074667
30
0
41
1
10
37
20
-75.3831904490564
30
0
41
1
10
36.9930833229949
20
-75.3699340760395
30
0
41
1
10
36.9651145775101
20
-75.3164001320994
30
0
41
1
10
36.9443173615867
20
-75.2766104806
30
0
41
1
10
36.8903066634504
20
-75.1733097953428
30
0
41
1
10
36.8570792334157
20
-75.109772110665
30
0
41
1
10
36.798569919158
20
-74.9979188677768
30
0
41
1
10
36.77762037478
20
-74.9578733727684
30
0
41
1
10
36.7329204836583
20
-74.8724388884677
30
0
41
1
10
36.7091033142037
20
-74.8269222253854
30
0
41
1
10
36.5843441947689
20
-74.5885265370007
30
0
41
1
10
36.4663679986096
20
-74.3631820472682
30
0
41
1
10
36.2683749496142
20
-73.985242084055
30
-4E-16
41
1
10
36.1988352079552
20
-73.852537054539
30
4E-16
41
1
10
36.0533697994214
20
-73.5750322826375
30
4E-16
41
1
10
35.977274388252
20
-73.4299089414355
30
4E-16
41
1
10
35.7413745826286
20
-72.9801795862063
30
4E-16
41
1
10
35.5755903418649
20
-72.664328557403
30
4E-16
41
1
10
35.2307239963738
20
-72.0078234209167
30
4E-16
41
1
10
35.0516117244929
20
-71.6671114703428
30
4E-16
41
1
10
34.6823506681108
20
-70.9653198156238
30
3E-16
41
1
10
34.4921879765544
20
-70.6042133978936
30
3E-16
41
1
10
34.1023359280545
20
-69.8646338764859
30
3E-16
41
1
10
33.9025884009411
20
-69.4860521127554
30
3E-16
41
1
10
33.7000000000001
20
-69.102493231987
30
3E-16
0
SPLINE
5
DA
100
AcDbEntity
8
1
62
256
6
ByLayer
370
18
48
1
60
0
100
AcDbSpline
70
4
71
3
72
8
73
4
40
0
40
0
40
0
40
0
40
1
40
1
40
1
40
1
41
1
10
22.7
20
-68.4328352770145
30
-4E-16
41
1
10
21.199739204266
20
-71.0905199535695
30
-5E-16
41
1
10
19.6972194924488
20
-73.746946540717
30
-6E-16
41
1
10
18.1930757274352
20
-76.4024508233375
30
-7E-16
0
LINE
5
7C
100
AcDbEntity
8
SK1
62
256
6
ByLayer
370
13
48
1
60
0
100
AcDbLine
10
-160.944318
20
-30.502138
30
0
11
-160.944318
21
30.502138
31
0
39
0
210
0
220
0
230
1
0
LINE
5
7E
100
AcDbEntity
8
SK1
62
256
6
ByLayer
370
18
48
1
60
0
100
AcDbLine
10
-161.8
20
29.512607
30
0
11
-161.8
21
0
31
0
39
0
210
0
220
0
230
1
0
LINE
5
7F
100
AcDbEntity
8
SK1
62
256
6
ByLayer
370
18
48
1
60
0
100
AcDbLine
10
-161.8
20
0
30
0
11
-161.8
21
-29.512607
31
0
39
0
210
0
220
0
230
1
0
LINE
5
80
100
AcDbEntity
8
SK1
62
256
6
ByLayer
370
18
48
1
60
0
100
AcDbLine
10
0
20
53.975
30
0
11
0
21
0
31
0
39
0
210
0
220
0
230
1
0
LINE
5
81
100
AcDbEntity
8
SK1
62
256
6
ByLayer
370
18
48
1
60
0
100
AcDbLine
10
0
20
0
30
0
11
0
21
-53.975
31
0
39
0
210
0
220
0
230
1
0
LINE
5
82
100
AcDbEntity
8
1
62
256
6
ByLayer
370
18
48
1
60
0
100
AcDbLine
10
4
20
76.402451
30
0
11
18.193076
21
76.402451
31
0
39
0
210
0
220
0
230
1
0
LINE
5
83
100
AcDbEntity
8
1
62
256
6
ByLayer
370
18
48
1
60
0
100
AcDbLine
10
18.193076
20
-76.402451
30
0
11
18.193076
21
76.402451
31
0
39
0
210
0
220
0
230
1
0
LINE
5
84
100
AcDbEntity
8
1
62
256
6
ByLayer
370
18
48
1
60
0
100
AcDbLine
10
0.7
20
54.077091
30
0
11
0.7
21
-54.077091
31
0
39
0
210
0
220
0
230
1
0
LINE
5
85
100
AcDbEntity
8
1
62
256
6
ByLayer
370
18
48
1
60
0
100
AcDbLine
10
3
20
-75.210112
30
0
11
3
21
75.210112
31
0
39
0
210
0
220
0
230
1
0
LINE
5
86
100
AcDbEntity
8
1
62
256
6
ByLayer
370
18
48
1
60
0
100
AcDbLine
10
33.7
20
69.102493
30
0
11
33.7
21
-69.102493
31
0
39
0
210
0
220
0
230
1
0
LINE
5
87
100
AcDbEntity
8
1
62
256
6
ByLayer
370
13
48
1
60
0
100
AcDbLine
10
49
20
-50
30
0
11
49
21
50
31
0
39
0
210
0
220
0
230
1
0
LINE
5
88
100
AcDbEntity
8
1
62
256
6
ByLayer
370
18
48
1
60
0
100
AcDbLine
10
48
20
-76.48425
30
0
11
48
21
76.48425
31
0
39
0
210
0
220
0
230
1
0
LINE
5
89
100
AcDbEntity
8
1
62
256
6
ByLayer
370
18
48
1
60
0
100
AcDbLine
10
4
20
-76.402451
30
0
11
18.193076
21
-76.402451
31
0
39
0
210
0
220
0
230
1
0
LINE
5
8A
100
AcDbEntity
8
1
62
256
6
ByLayer
370
13
48
1
60
0
100
AcDbLine
10
47
20
0
30
0
11
47
21
77.48425
31
0
39
0
210
0
220
0
230
1
0
LINE
5
8B
100
AcDbEntity
8
1
62
256
6
ByLayer
370
13
48
1
60
0
100
AcDbLine
10
47
20
-77.48425
30
0
11
47
21
0
31
0
39
0
210
0
220
0
230
1
0
LINE
5
8C
100
AcDbEntity
8
1
62
256
6
ByLayer
370
18
48
1
60
0
100
AcDbLine
10
24.1075
20
-66.255381
30
0
11
22.7
21
-66.255381
31
0
39
0
210
0
220
0
230
1
0
LINE
5
8D
100
AcDbEntity
8
1
62
256
6
ByLayer
370
18
48
1
60
0
100
AcDbLine
10
1.266539
20
53.75
30
0
11
1.266539
21
-53.75
31
0
39
0
210
0
220
0
230
1
0
LINE
5
8E
100
AcDbEntity
8
1
62
256
6
ByLayer
370
18
48
1
60
0
100
AcDbLine
10
79.7
20
0
30
0
11
79.7
21
50
31
0
39
0
210
0
220
0
230
1
0
LINE
5
8F
100
AcDbEntity
8
1
62
256
6
ByLayer
370
18
48
1
60
0
100
AcDbLine
10
79.7
20
-50
30
0
11
79.7
21
0
31
0
39
0
210
0
220
0
230
1
0
LINE
5
90
100
AcDbEntity
8
1
62
256
6
ByLayer
370
18
48
1
60
0
100
AcDbLine
10
24.1075
20
66.255381
30
0
11
22.7
21
66.255381
31
0
39
0
210
0
220
0
230
1
0
LINE
5
91
100
AcDbEntity
8
1
62
256
6
ByLayer
370
18
48
1
60
0
100
AcDbLine
10
37
20
75.383223
30
0
11
37
21
75.383223
31
0
39
0
210
0
220
0
230
1
0
LINE
5
92
100
AcDbEntity
8
1
62
256
6
ByLayer
370
13
48
1
60
0
100
AcDbLine
10
2.4
20
53.75
30
0
11
2.4
21
0
31
0
39
0
210
0
220
0
230
1
0
LINE
5
93
100
AcDbEntity
8
1
62
256
6
ByLayer
370
13
48
1
60
0
100
AcDbLine
10
2.4
20
0
30
0
11
2.4
21
-53.75
31
0
39
0
210
0
220
0
230
1
0
LINE
5
94
100
AcDbEntity
8
1
62
256
6
ByLayer
370
18
48
1
60
0
100
AcDbLine
10
38.206924
20
77.48425
30
0
11
38.206924
21
-77.48425
31
0
39
0
210
0
220
0
230
1
0
LINE
5
95
100
AcDbEntity
8
1
62
256
6
ByLayer
370
13
48
1
60
0
100
AcDbLine
10
4
20
76.402451
30
0
11
4
21
-76.402451
31
0
39
0
210
0
220
0
230
1
0
LINE
5
96
100
AcDbEntity
8
1
62
256
6
ByLayer
370
18
48
1
60
0
100
AcDbLine
10
80
20
0
30
0
11
80
21
49.7
31
0
39
0
210
0
220
0
230
1
0
LINE
5
97
100
AcDbEntity
8
1
62
256
6
ByLayer
370
18
48
1
60
0
100
AcDbLine
10
80
20
-49.7
30
0
11
80
21
0
31
0
39
0
210
0
220
0
230
1
0
LINE
5
98
100
AcDbEntity
8
1
62
256
6
ByLayer
370
18
48
1
60
0
100
AcDbLine
10
0
20
53.975
30
0
11
0
21
0
31
0
39
0
210
0
220
0
230
1
0
LINE
5
99
100
AcDbEntity
8
1
62
256
6
ByLayer
370
18
48
1
60
0
100
AcDbLine
10
0
20
0
30
0
11
0
21
-53.975
31
0
39
0
210
0
220
0
230
1
0
LINE
5
9A
100
AcDbEntity
8
1
62
256
6
ByLayer
370
18
48
1
60
0
100
AcDbLine
10
22.7
20
68.432835
30
0
11
22.7
21
-68.432835
31
0
39
0
210
0
220
0
230
1
0
LINE
5
9B
100
AcDbEntity
8
SK1
62
256
6
ByLayer
370
70
48
1
60
0
100
AcDbLine
10
87.5
20
-10.5
30
0
11
87.5
21
10.5
31
0
39
0
210
0
220
0
230
1
0
LINE
5
9C
100
AcDbEntity
8
SK1
62
256
6
ByLayer
370
70
48
1
60
0
100
AcDbLine
10
86
20
-12
30
0
11
86
21
12
31
0
39
0
210
0
220
0
230
1
0
LINE
5
9D
100
AcDbEntity
8
SK4
62
256
6
ByLayer
370
18
48
0.05
60
0
100
AcDbLine
10
-166.8
20
0
30
0
11
85
21
0
31
0
39
0
210
0
220
0
230
1
0
LINE
5
9F
100
AcDbEntity
8
SK1
62
256
6
ByLayer
370
70
48
1
60
0
100
AcDbLine
10
87.5
20
10.5
30
0
11
86
21
12
31
0
39
0
210
0
220
0
230
1
0
LINE
5
A0
100
AcDbEntity
8
SK1
62
256
6
ByLayer
370
70
48
1
60
0
100
AcDbLine
10
86
20
-12
30
0
11
87.5
21
-10.5
31
0
39
0
210
0
220
0
230
1
0
LINE
5
A1
100
AcDbEntity
8
SK1
62
256
6
ByLayer
370
70
48
1
60
0
100
AcDbLine
10
80
20
-12
30
0
11
86
21
-12
31
0
39
0
210
0
220
0
230
1
0
LINE
5
A2
100
AcDbEntity
8
SK1
62
256
6
ByLayer
370
70
48
1
60
0
100
AcDbLine
10
86
20
12
30
0
11
80
21
12
31
0
39
0
210
0
220
0
230
1
0
LINE
5
A3
100
AcDbEntity
8
SK1
62
256
6
ByLayer
370
18
48
1
60
0
100
AcDbLine
10
-160.944318
20
-30.502138
30
0
11
0
21
-53.975
31
0
39
0
210
0
220
0
230
1
0
LINE
5
A4
100
AcDbEntity
8
SK1
62
256
6
ByLayer
370
18
48
1
60
0
100
AcDbLine
10
0
20
53.975
30
0
11
-160.944318
21
30.502138
31
0
39
0
210
0
220
0
230
1
0
LINE
5
A5
100
AcDbEntity
8
1
62
256
6
ByLayer
370
18
48
1
60
0
100
AcDbLine
10
0
20
-53.975
30
0
11
0.7
21
-54.077091
31
0
39
0
210
0
220
0
230
1
0
LINE
5
A6
100
AcDbEntity
8
1
62
256
6
ByLayer
370
18
48
1
60
0
100
AcDbLine
10
0.7
20
54.077091
30
0
11
0
21
53.975
31
0
39
0
210
0
220
0
230
1
0
LINE
5
A7
100
AcDbEntity
8
1
62
256
6
ByLayer
370
18
48
1
60
0
100
AcDbLine
10
80
20
49.7
30
0
11
79.7
21
50
31
0
39
0
210
0
220
0
230
1
0
LINE
5
A8
100
AcDbEntity
8
1
62
256
6
ByLayer
370
18
48
1
60
0
100
AcDbLine
10
79.7
20
-50
30
0
11
80
21
-49.7
31
0
39
0
210
0
220
0
230
1
0
LINE
5
A9
100
AcDbEntity
8
1
62
256
6
ByLayer
370
18
48
1
60
0
100
AcDbLine
10
79.7
20
50
30
0
11
49
21
50
31
0
39
0
210
0
220
0
230
1
0
LINE
5
AA
100
AcDbEntity
8
1
62
256
6
ByLayer
370
18
48
1
60
0
100
AcDbLine
10
49
20
-50
30
0
11
79.7
21
-50
31
0
39
0
210
0
220
0
230
1
0
LINE
5
AB
100
AcDbEntity
8
1
62
256
6
ByLayer
370
18
48
1
60
0
100
AcDbLine
10
1.266539
20
-53.75
30
0
11
2.4
21
-53.75
31
0
39
0
210
0
220
0
230
1
0
LINE
5
AC
100
AcDbEntity
8
1
62
256
6
ByLayer
370
18
48
1
60
0
100
AcDbLine
10
2.4
20
53.75
30
0
11
1.266539
21
53.75
31
0
39
0
210
0
220
0
230
1
0
LINE
5
AD
100
AcDbEntity
8
1
62
256
6
ByLayer
370
18
48
1
60
0
100
AcDbLine
10
1.266539
20
53.75
30
0
11
0.7
21
54.077091
31
0
39
0
210
0
220
0
230
1
0
LINE
5
AE
100
AcDbEntity
8
1
62
256
6
ByLayer
370
18
48
1
60
0
100
AcDbLine
10
0.7
20
-54.077091
30
0
11
1.266539
21
-53.75
31
0
39
0
210
0
220
0
230
1
0
LINE
5
AF
100
AcDbEntity
8
1
62
256
6
ByLayer
370
18
48
1
60
0
100
AcDbLine
10
37
20
-75.383223
30
0
11
38.206924
21
-77.48425
31
0
39
0
210
0
220
0
230
1
0
LINE
5
B0
100
AcDbEntity
8
1
62
256
6
ByLayer
370
18
48
1
60
0
100
AcDbLine
10
38.206924
20
77.48425
30
0
11
37
21
75.383223
31
0
39
0
210
0
220
0
230
1
0
LINE
5
B1
100
AcDbEntity
8
1
62
256
6
ByLayer
370
18
48
1
60
0
100
AcDbLine
10
38.206924
20
-77.48425
30
0
11
47
21
-77.48425
31
0
39
0
210
0
220
0
230
1
0
LINE
5
B2
100
AcDbEntity
8
4
62
256
6
ByLayer
370
18
48
0.05
60
0
100
AcDbLine
10
0
20
0
30
0
11
80
21
0
31
0
39
0
210
0
220
0
230
1
0
LINE
5
B4
100
AcDbEntity
8
80
62
256
6
ByLayer
370
18
48
1
60
0
100
AcDbLine
10
0
20
0
30
0
11
-6.08897
21
0
31
0
39
0
210
0
220
0
230
1
0
LINE
5
B5
100
AcDbEntity
8
1
62
256
6
ByLayer
370
18
48
1
60
0
100
AcDbLine
10
47
20
77.48425
30
0
11
38.206924
21
77.48425
31
0
39
0
210
0
220
0
230
1
0
LINE
5
B6
100
AcDbEntity
8
81
62
256
6
ByLayer
370
18
48
1
60
0
100
AcDbLine
10
80
20
0
30
0
11
82.367097
21
0
31
0
39
0
210
0
220
0
230
1
0
LINE
5
B7
100
AcDbEntity
8
SK2
62
256
6
ByLayer
370
13
48
1
60
0
100
AcDbLine
10
-183.4
20
77.5
30
0
11
-183.4
21
-77.5
31
0
39
0
210
0
220
0
230
1
0
LINE
5
B9
100
AcDbEntity
8
SK2
62
256
6
ByLayer
370
13
48
1
60
0
100
AcDbLine
10
-1.5875
20
-77.5
30
0
11
-185.4
21
-77.5
31
0
39
0
210
0
220
0
230
1
0
LINE
5
BA
100
AcDbEntity
8
SK2
62
256
6
ByLayer
370
13
48
1
60
0
100
AcDbLine
10
-1.5875
20
77.5
30
0
11
-185.4
21
77.5
31
0
39
0
210
0
220
0
230
1
0
LINE
5
BB
100
AcDbEntity
8
1
62
256
6
ByLayer
370
18
48
1
60
1
100
AcDbLine
10
-183.4
20
-77.5
30
0
11
-183.860784
21
-74.000002
31
0
39
0
210
0
220
0
230
1
0
LINE
5
BC
100
AcDbEntity
8
1
62
256
6
ByLayer
370
18
48
1
60
1
100
AcDbLine
10
-183.860784
20
-74.000002
30
0
11
-182.939216
21
-73.999998
31
0
39
0
210
0
220
0
230
1
0
LINE
5
BD
100
AcDbEntity
8
1
62
256
6
ByLayer
370
18
48
1
60
1
100
AcDbLine
10
-182.939216
20
-73.999998
30
0
11
-183.4
21
-77.5
31
0
39
0
210
0
220
0
230
1
0
LINE
5
BE
100
AcDbEntity
8
1
62
256
6
ByLayer
370
18
48
1
60
1
100
AcDbLine
10
-183.4
20
77.5
30
0
11
-182.939216
21
74.000002
31
0
39
0
210
0
220
0
230
1
0
LINE
5
BF
100
AcDbEntity
8
1
62
256
6
ByLayer
370
18
48
1
60
1
100
AcDbLine
10
-182.939216
20
74.000002
30
0
11
-183.860784
21
73.999998
31
0
39
0
210
0
220
0
230
1
0
LINE
5
C0
100
AcDbEntity
8
1
62
256
6
ByLayer
370
18
48
1
60
1
100
AcDbLine
10
-183.860784
20
73.999998
30
0
11
-183.4
21
77.5
31
0
39
0
210
0
220
0
230
1
0
LINE
5
C1
100
AcDbEntity
8
SK2
62
256
6
ByLayer
370
13
48
1
60
0
100
AcDbLine
10
107.6
20
50
30
0
11
107.6
21
-50
31
0
39
0
210
0
220
0
230
1
0
LINE
5
C2
100
AcDbEntity
8
SK2
62
256
6
ByLayer
370
13
48
1
60
0
100
AcDbLine
10
81.5875
20
-50
30
0
11
109.6
21
-50
31
0
39
0
210
0
220
0
230
1
0
LINE
5
C3
100
AcDbEntity
8
SK2
62
256
6
ByLayer
370
13
48
1
60
0
100
AcDbLine
10
81.5875
20
50
30
0
11
109.6
21
50
31
0
39
0
210
0
220
0
230
1
0
LINE
5
C4
100
AcDbEntity
8
1
62
256
6
ByLayer
370
18
48
1
60
1
100
AcDbLine
10
107.6
20
-50
30
0
11
107.139216
21
-46.500002
31
0
39
0
210
0
220
0
230
1
0
LINE
5
C5
100
AcDbEntity
8
1
62
256
6
ByLayer
370
18
48
1
60
1
100
AcDbLine
10
107.139216
20
-46.500002
30
0
11
108.060784
21
-46.499998
31
0
39
0
210
0
220
0
230
1
0
LINE
5
C6
100
AcDbEntity
8
1
62
256
6
ByLayer
370
18
48
1
60
1
100
AcDbLine
10
108.060784
20
-46.499998
30
0
11
107.6
21
-50
31
0
39
0
210
0
220
0
230
1
0
LINE
5
C7
100
AcDbEntity
8
1
62
256
6
ByLayer
370
18
48
1
60
1
100
AcDbLine
10
107.6
20
50
30
0
11
108.060784
21
46.500002
31
0
39
0
210
0
220
0
230
1
0
LINE
5
C8
100
AcDbEntity
8
1
62
256
6
ByLayer
370
18
48
1
60
1
100
AcDbLine
10
108.060784
20
46.500002
30
0
11
107.139216
21
46.499998
31
0
39
0
210
0
220
0
230
1
0
LINE
5
C9
100
AcDbEntity
8
1
62
256
6
ByLayer
370
18
48
1
60
1
100
AcDbLine
10
107.139216
20
46.499998
30
0
11
107.6
21
50
31
0
39
0
210
0
220
0
230
1
0
LINE
5
DF
100
AcDbEntity
8
1
62
256
6
ByLayer
370
18
48
1
60
1
100
AcDbLine
10
-183.4
20
-77.5
30
0
11
-183.860784
21
-74.000002
31
0
39
0
210
0
220
0
230
1
0
LINE
5
E0
100
AcDbEntity
8
1
62
256
6
ByLayer
370
18
48
1
60
1
100
AcDbLine
10
-183.860784
20
-74.000002
30
0
11
-182.939216
21
-73.999998
31
0
39
0
210
0
220
0
230
1
0
LINE
5
E1
100
AcDbEntity
8
1
62
256
6
ByLayer
370
18
48
1
60
1
100
AcDbLine
10
-182.939216
20
-73.999998
30
0
11
-183.4
21
-77.5
31
0
39
0
210
0
220
0
230
1
0
LINE
5
E3
100
AcDbEntity
8
1
62
256
6
ByLayer
370
18
48
1
60
1
100
AcDbLine
10
-183.4
20
77.5
30
0
11
-182.939216
21
74.000002
31
0
39
0
210
0
220
0
230
1
0
LINE
5
E4
100
AcDbEntity
8
1
62
256
6
ByLayer
370
18
48
1
60
1
100
AcDbLine
10
-182.939216
20
74.000002
30
0
11
-183.860784
21
73.999998
31
0
39
0
210
0
220
0
230
1
0
LINE
5
E5
100
AcDbEntity
8
1
62
256
6
ByLayer
370
18
48
1
60
1
100
AcDbLine
10
-183.860784
20
73.999998
30
0
11
-183.4
21
77.5
31
0
39
0
210
0
220
0
230
1
0
LINE
5
E9
100
AcDbEntity
8
1
62
256
6
ByLayer
370
18
48
1
60
1
100
AcDbLine
10
107.6
20
-50
30
0
11
107.139216
21
-46.500002
31
0
39
0
210
0
220
0
230
1
0
LINE
5
EA
100
AcDbEntity
8
1
62
256
6
ByLayer
370
18
48
1
60
1
100
AcDbLine
10
107.139216
20
-46.500002
30
0
11
108.060784
21
-46.499998
31
0
39
0
210
0
220
0
230
1
0
LINE
5
EB
100
AcDbEntity
8
1
62
256
6
ByLayer
370
18
48
1
60
1
100
AcDbLine
10
108.060784
20
-46.499998
30
0
11
107.6
21
-50
31
0
39
0
210
0
220
0
230
1
0
LINE
5
ED
100
AcDbEntity
8
1
62
256
6
ByLayer
370
18
48
1
60
1
100
AcDbLine
10
107.6
20
50
30
0
11
108.060784
21
46.500002
31
0
39
0
210
0
220
0
230
1
0
LINE
5
EE
100
AcDbEntity
8
1
62
256
6
ByLayer
370
18
48
1
60
1
100
AcDbLine
10
108.060784
20
46.500002
30
0
11
107.139216
21
46.499998
31
0
39
0
210
0
220
0
230
1
0
LINE
5
EF
100
AcDbEntity
8
1
62
256
6
ByLayer
370
18
48
1
60
1
100
AcDbLine
10
107.139216
20
46.499998
30
0
11
107.6
21
50
31
0
39
0
210
0
220
0
230
1
0
MTEXT
5
DB
100
AcDbEntity
8
SK2
62
256
6
ByLayer
370
18
48
1
60
0
100
AcDbMText
10
-184.964634
20
-4.525121
30
0
210
0
220
0
230
1
1
%%c
40
3.5
41
0
44
1.084337
50
90
71
7
72
5
7
iso_b_vert
0
MTEXT
5
DE
100
AcDbEntity
8
SK2
62
256
6
ByLayer
370
18
48
1
60
0
100
AcDbMText
10
-184.964634
20
0.697535
30
0
210
0
220
0
230
1
1
\W0.6217;155
40
3.5
41
0
44
1.084337
50
90
71
7
72
5
7
iso_b_vert
0
MTEXT
5
E7
100
AcDbEntity
8
SK2
62
256
6
ByLayer
370
18
48
1
60
0
100
AcDbMText
10
106.035366
20
-4.525121
30
0
210
0
220
0
230
1
1
%%c
40
3.5
41
0
44
1.084337
50
90
71
7
72
5
7
iso_b_vert
0
MTEXT
5
E8
100
AcDbEntity
8
SK2
62
256
6
ByLayer
370
18
48
1
60
0
100
AcDbMText
10
106.035366
20
0.697535
30
0
210
0
220
0
230
1
1
\W0.6217;100
40
3.5
41
0
44
1.084337
50
90
71
7
72
5
7
iso_b_vert
0
MTEXT
5
F1
100
AcDbEntity
8
SK6
62
256
6
ByLayer
370
18
48
1
60
0
100
AcDbMText
10
0.1855
20
-93.217366
30
0
210
0
220
0
230
1
1
\W0.7260;C10-390.58-60080
40
3.5
41
0
44
1.084337
50
0
71
7
72
5
7
iso_b_vert
0
HATCH
5
E2
100
AcDbEntity
8
SK2
62
256
6
ByLayer
370
13
48
1
60
0
100
AcDbHatch
10
0
20
0
30
0
210
0
220
0
230
1
2
ANSI31
70
0
71
0
91
1
92
5
93
3
72
1
10
-183.4
20
-77.5
11
-183.860783741553
21
-74.0000016925532
72
1
10
-183.860783741553
20
-74.0000016925532
11
-182.939216258447
21
-73.9999983074468
72
1
10
-182.939216258447
20
-73.9999983074468
11
-183.4
21
-77.5
97
0
75
0
76
1
52
0
41
0.0062
77
0
78
1
53
45
43
0
44
0
45
-0.0139193969876572
46
0.0139193969876572
79
0
47
0
98
1
10
0
20
0
0
HATCH
5
E6
100
AcDbEntity
8
SK2
62
256
6
ByLayer
370
13
48
1
60
0
100
AcDbHatch
10
0
20
0
30
0
210
0
220
0
230
1
2
ANSI31
70
0
71
0
91
1
92
5
93
3
72
1
10
-183.4
20
77.5
11
-182.939216258447
21
74.0000016925532
72
1
10
-182.939216258447
20
74.0000016925532
11
-183.860783741553
21
73.9999983074468
72
1
10
-183.860783741553
20
73.9999983074468
11
-183.4
21
77.5
97
0
75
0
76
1
52
0
41
0.0062
77
0
78
1
53
45
43
0
44
0
45
-0.0139193969876572
46
0.0139193969876572
79
0
47
0
98
1
10
0
20
0
0
HATCH
5
EC
100
AcDbEntity
8
SK2
62
256
6
ByLayer
370
13
48
1
60
0
100
AcDbHatch
10
0
20
0
30
0
210
0
220
0
230
1
2
ANSI31
70
0
71
0
91
1
92
5
93
3
72
1
10
107.6
20
-50
11
107.139216258447
21
-46.5000016925532
72
1
10
107.139216258447
20
-46.5000016925532
11
108.060783741553
21
-46.4999983074468
72
1
10
108.060783741553
20
-46.4999983074468
11
107.6
21
-50
97
0
75
0
76
1
52
0
41
0.0062
77
0
78
1
53
45
43
0
44
0
45
-0.0139193969876572
46
0.0139193969876572
79
0
47
0
98
1
10
0
20
0
0
HATCH
5
F0
100
AcDbEntity
8
SK2
62
256
6
ByLayer
370
13
48
1
60
0
100
AcDbHatch
10
0
20
0
30
0
210
0
220
0
230
1
2
ANSI31
70
0
71
0
91
1
92
5
93
3
72
1
10
107.6
20
50
11
108.060783741553
21
46.5000016925532
72
1
10
108.060783741553
20
46.5000016925532
11
107.139216258447
21
46.4999983074468
72
1
10
107.139216258447
20
46.4999983074468
11
107.6
21
50
97
0
75
0
76
1
52
0
41
0.0062
77
0
78
1
53
45
43
0
44
0
45
-0.0139193969876572
46
0.0139193969876572
79
0
47
0
98
1
10
0
20
0
0
DIMENSION
5
F4
100
AcDbEntity
8
SK2
62
256
6
ByLayer
370
18
48
1
60
0
100
AcDbDimension
2
_U0
10
48
20
94.08425
30
0
11
24
21
94.08425
31
0
70
32
71
1
72
1
41
1
210
0
220
0
230
1
3
Standard
100
AcDbAlignedDimension
13
0
23
77.5
33
0
14
48
24
77.5
34
0
50
0
100
AcDbRotatedDimension
1001
ACAD
1000
DSTYLE
1002
{
1070
   371
1070
    13
1070
   372
1070
    13
1070
   170
1070
     0
1070
   144
1040
1.0
1070
   277
1070
     2
1070
   284
1070
     8
1070
   278
1070
    44
1070
   146
1040
1.0
1070
   345
1005
16
1070
   347
1005
16
1070
   346
1005
16
1070
   344
1005
0
1070
   343
1005
0
1070
   172
1070
     1
1070
    76
1070
     0
1070
    75
1070
     0
1070
   282
1070
     0
1070
   281
1070
     0
1070
    71
1070
     0
1070
    74
1070
     0
1070
   279
1070
     0
1070
   173
1070
     1
1070
   340
1005
DC
1070
   271
1070
     1
1070
   272
1070
     2
1070
    77
1070
     1
1070
    73
1070
     1
1070
   171
1070
     3
1070
   274
1070
     4
1070
   177
1070
     2
1070
   176
1070
     2
1070
   178
1070
     2
1070
    78
1070
     8
1070
    48
1040
-0.1
1070
    41
1040
3.5
1070
   147
1040
1.75
1070
    42
1040
1.5875
1070
    44
1040
2.0
1070
   140
1040
3.5
1002
}
1001
ACAD_DSTYLE_DIM_LINETYPE
1070
   380
1005
16
1001
ACAD_DSTYLE_DIM_EXT1_LINETYPE
1070
   381
1005
16
1001
ACAD_DSTYLE_DIM_EXT2_LINETYPE
1070
   382
1005
16
0
DIMENSION
5
10D
100
AcDbEntity
8
2
62
256
6
ByLayer
370
18
48
1
60
0
100
AcDbDimension
2
_U1
10
0
20
104.08425
30
0
11
40
21
104.08425
31
0
70
32
71
1
72
1
41
1
210
0
220
0
230
1
3
Standard
100
AcDbAlignedDimension
13
80
23
50
33
0
14
0
24
77.5
34
0
50
0
100
AcDbRotatedDimension
1001
ACAD
1000
DSTYLE
1002
{
1070
   371
1070
    13
1070
   372
1070
    13
1070
   170
1070
     0
1070
   144
1040
1.0
1070
   277
1070
     2
1070
   284
1070
     8
1070
   278
1070
    44
1070
   146
1040
1.0
1070
   345
1005
16
1070
   347
1005
16
1070
   346
1005
16
1070
   344
1005
0
1070
   343
1005
0
1070
   172
1070
     1
1070
    76
1070
     0
1070
    75
1070
     0
1070
   282
1070
     0
1070
   281
1070
     0
1070
    71
1070
     0
1070
    74
1070
     0
1070
   279
1070
     0
1070
   173
1070
     1
1070
   340
1005
DC
1070
   271
1070
     1
1070
   272
1070
     2
1070
    77
1070
     1
1070
    73
1070
     1
1070
   171
1070
     3
1070
   274
1070
     4
1070
   177
1070
     2
1070
   176
1070
     2
1070
   178
1070
     2
1070
    78
1070
     8
1070
    48
1040
-0.1
1070
    41
1040
3.5
1070
   147
1040
1.75
1070
    42
1040
1.5875
1070
    44
1040
2.0
1070
   140
1040
3.5
1002
}
1001
ACAD_DSTYLE_DIM_LINETYPE
1070
   380
1005
16
1001
ACAD_DSTYLE_DIM_EXT1_LINETYPE
1070
   381
1005
16
1001
ACAD_DSTYLE_DIM_EXT2_LINETYPE
1070
   382
1005
16
0
DIMENSION
5
126
100
AcDbEntity
8
SK2
62
256
6
ByLayer
370
18
48
1
60
0
100
AcDbDimension
2
_U2
10
0
20
104.08425
30
0
11
-80.9
21
104.08425
31
0
70
32
71
1
72
1
41
1
210
0
220
0
230
1
3
Standard
100
AcDbAlignedDimension
13
-161.8
23
12.5
33
0
14
0
24
77.5
34
0
50
0
100
AcDbRotatedDimension
1001
ACAD
1000
DSTYLE
1002
{
1070
   371
1070
    13
1070
   372
1070
    13
1070
   170
1070
     0
1070
   144
1040
1.0
1070
   277
1070
     2
1070
   284
1070
     8
1070
   278
1070
    44
1070
   146
1040
1.0
1070
   345
1005
16
1070
   347
1005
16
1070
   346
1005
16
1070
   344
1005
0
1070
   343
1005
0
1070
   172
1070
     1
1070
    76
1070
     0
1070
    75
1070
     0
1070
   282
1070
     0
1070
   281
1070
     0
1070
    71
1070
     0
1070
    74
1070
     0
1070
   279
1070
     0
1070
   173
1070
     1
1070
   340
1005
DC
1070
   271
1070
     1
1070
   272
1070
     2
1070
    77
1070
     1
1070
    73
1070
     1
1070
   171
1070
     3
1070
   274
1070
     4
1070
   177
1070
     2
1070
   176
1070
     2
1070
   178
1070
     2
1070
    78
1070
     8
1070
    48
1040
-0.1
1070
    41
1040
3.5
1070
   147
1040
1.75
1070
    42
1040
1.5875
1070
    44
1040
2.0
1070
   140
1040
3.5
1002
}
1001
ACAD_DSTYLE_DIM_LINETYPE
1070
   380
1005
16
1001
ACAD_DSTYLE_DIM_EXT1_LINETYPE
1070
   381
1005
16
1001
ACAD_DSTYLE_DIM_EXT2_LINETYPE
1070
   382
1005
16
0
ENDSEC
0
SECTION
2
OBJECTS
0
DICTIONARY
5
1ae
330
0
100
AcDbDictionary
280
0
281
1
3
ACAD_GROUP
350
1af
3
ACAD_MLINESTYLE
350
1b0
0
DICTIONARY
5
1af
330
0
100
AcDbDictionary
280
0
281
1
0
DICTIONARY
5
1b0
330
0
100
AcDbDictionary
280
0
281
1
3
Standard
350
18
0
MLINESTYLE
5
18
330
1b0
100
AcDbMlineStyle
2
Standard
70
0
3

62
256
51
90
52
90
71
2
49
-0.5
62
256
6
ByLayer
49
0.5
62
256
6
ByLayer
0
RASTERVARIABLES
5
19c
330

100
AcDbRasterVariables
90
0
70
1
71
1
72
1
0
ENDSEC
0
EOF
