0
SECTION
2
HEADER
9
$ACADVER
1
AC1015
9
$DWGCODEPAGE
3
ANSI_1252
9
$HANDSEED
5
180
9
$ANGBASE
50
0
9
$ANGDIR
70
0
9
$ATTMODE
70
1
9
$AUNITS
70
0
9
$AUPREC
70
0
9
$CECOLOR
62
256
9
$CELTSCALE
40
1
9
$CELTYPE
6
ByLayer
9
$CELWEIGHT
370
-1
9
$CLAYER
8
0
9
$CMLJUST
70
0
9
$CMLSCALE
40
1
9
$CMLSTYLE
2
Standard
9
$DIMSTYLE
2
Standard
9
$TEXTSIZE
40
0.2
9
$TEXTSTYLE
7
Standard
9
$LUNITS
70
2
9
$LUPREC
70
4
9
$EXTNAMES
290
1
9
$INSUNITS
70
4
9
$LTSCALE
40
1
9
$LWDISPLAY
290
0
9
$PDMODE
70
0
9
$PDSIZE
40
0
9
$PLINEGEN
70
0
0
ENDSEC
0
SECTION
2
CLASSES
0
CLASS
1
RASTERVARIABLES
2
AcDbRasterVariables
3
ISM
90
0
280
0
281
0
0
ENDSEC
0
SECTION
2
TABLES
0
TABLE
2
VPORT
5
176
100
AcDbSymbolTable
0
VPORT
5
1
100
AcDbSymbolTableRecord
100
AcDbViewportTableRecord
2
*Active
70
0
10
0
20
0
11
1
21
1
12
-1
22
1
13
0
23
0
14
0.5
24
0.5
15
10
25
10
16
0
26
0
36
1
17
0
27
0
37
0
0
ENDTAB
0
TABLE
2
LTYPE
5
177
100
AcDbSymbolTable
0
LTYPE
5
14
100
AcDbSymbolTableRecord
100
AcDbLinetypeTableRecord
70
0
2
ByBlock
3

72
65
73
0
40
0
0
LTYPE
5
15
100
AcDbSymbolTableRecord
100
AcDbLinetypeTableRecord
70
0
2
ByLayer
3

72
65
73
0
40
0
0
LTYPE
5
16
100
AcDbSymbolTableRecord
100
AcDbLinetypeTableRecord
70
0
2
CONTINUOUS
3
Solid line
72
65
73
0
40
0
0
LTYPE
5
3B
100
AcDbSymbolTableRecord
100
AcDbLinetypeTableRecord
70
0
2
DASHED
3
__ __ __ __ __ __ __ __ __
72
65
73
2
40
25.72
49
12.86
74
0
49
-12.86
74
0
0
LTYPE
5
3C
100
AcDbSymbolTableRecord
100
AcDbLinetypeTableRecord
70
0
2
HIDDEN
3
_ _ _ _ _ _ _ _ _ _ _ _ _ _ _
72
65
73
2
40
0.5
49
0.25
74
0
49
-0.25
74
0
0
LTYPE
5
3D
100
AcDbSymbolTableRecord
100
AcDbLinetypeTableRecord
70
0
2
PHANTOM
3
____ _ _ ____ _ _ _____ _ _ ____
72
65
73
6
40
50.5
49
18
74
0
49
-6.5
74
0
49
6.5
74
0
49
-6.5
74
0
49
6.5
74
0
49
-6.5
74
0
0
LTYPE
5
3E
100
AcDbSymbolTableRecord
100
AcDbLinetypeTableRecord
70
0
2
CENTER
3
____ _ ____ _ ____ _ ____
72
65
73
4
40
47.5
49
22
74
0
49
-8.5
74
0
49
8.5
74
0
49
-8.5
74
0
0
LTYPE
5
3F
100
AcDbSymbolTableRecord
100
AcDbLinetypeTableRecord
70
0
2
DOT
3
.........................
72
65
73
2
40
10
49
0
74
0
49
-10
74
0
0
LTYPE
5
40
100
AcDbSymbolTableRecord
100
AcDbLinetypeTableRecord
70
0
2
DASHDOT
3
_._._._._._._._._._._._._._._._.
72
65
73
4
40
70
49
31
74
0
49
-13
74
0
49
13
74
0
49
-13
74
0
0
ENDTAB
0
TABLE
2
LAYER
5
178
100
AcDbSymbolTable
0
LAYER
5
10
100
AcDbSymbolTableRecord
100
AcDbLayerTableRecord
2
0
70
0
62
7
6
CONTINUOUS
290
1
370
-3
390
0
0
LAYER
5
42
100
AcDbSymbolTableRecord
100
AcDbLayerTableRecord
2
80
70
0
62
-6
6
CONTINUOUS
290
1
370
-3
390
0
0
LAYER
5
44
100
AcDbSymbolTableRecord
100
AcDbLayerTableRecord
2
81
70
0
62
-3
6
CONTINUOUS
290
1
370
-3
390
0
0
LAYER
5
46
100
AcDbSymbolTableRecord
100
AcDbLayerTableRecord
2
1
70
0
62
4
6
CONTINUOUS
290
1
370
-3
390
0
0
LAYER
5
48
100
AcDbSymbolTableRecord
100
AcDbLayerTableRecord
2
2
70
0
62
7
6
CONTINUOUS
290
1
370
-3
390
0
0
LAYER
5
4F
100
AcDbSymbolTableRecord
100
AcDbLayerTableRecord
2
4
70
0
62
-2
6
CENTER
290
1
370
-3
390
0
0
LAYER
5
162
100
AcDbSymbolTableRecord
100
AcDbLayerTableRecord
2
SK4
70
0
62
2
6
CENTER
290
1
370
-3
390
0
0
LAYER
5
163
100
AcDbSymbolTableRecord
100
AcDbLayerTableRecord
2
SK1
70
0
62
4
6
CONTINUOUS
290
1
370
-3
390
0
0
LAYER
5
164
100
AcDbSymbolTableRecord
100
AcDbLayerTableRecord
2
SK6
70
0
62
5
6
CONTINUOUS
290
1
370
-3
390
0
0
LAYER
5
165
100
AcDbSymbolTableRecord
100
AcDbLayerTableRecord
2
SK2
70
0
62
7
6
CONTINUOUS
290
1
370
-3
390
0
0
ENDTAB
0
TABLE
2
STYLE
5
179
100
AcDbSymbolTable
0
STYLE
5
11
100
AcDbSymbolTableRecord
100
AcDbTextStyleTableRecord
2
Standard
3
txt
70
0
71
0
40
0
41
1
42
0
50
0
0
STYLE
5
DE
100
AcDbSymbolTableRecord
100
AcDbTextStyleTableRecord
2
DEFAULT
3
simplex.shx
70
0
71
0
40
0
41
1
42
0
50
0
0
STYLE
5
101
100
AcDbSymbolTableRecord
100
AcDbTextStyleTableRecord
2
DWGDirectTextStyle
3
SIMPLEX
70
0
71
0
40
0
41
1
42
0
50
0
0
ENDTAB
0
TABLE
2
DIMSTYLE
5
17a
100
AcDbSymbolTable
100
AcDbDimStyleTable
0
DIMSTYLE
105
27
100
AcDbSymbolTableRecord
100
AcDbDimStyleTableRecord
2
Standard
70
0
3
<>
41
0.18
42
0.0625
44
0.18
140
0.18
147
0.09
73
0
74
0
77
1
271
2
275
0
278
52
280
0
340
11
0
ENDTAB
0
TABLE
2
VIEW
5
17b
100
AcDbSymbolTable
0
ENDTAB
0
TABLE
2
UCS
5
17c
100
AcDbSymbolTable
0
ENDTAB
0
TABLE
2
APPID
5
17d
100
AcDbSymbolTable
0
APPID
5
12
100
AcDbSymbolTableRecord
100
AcDbRegAppTableRecord
2
ACAD
70
0
0
ENDTAB
0
TABLE
2
BLOCK_RECORD
5
17e
100
AcDbSymbolTable
0
BLOCK_RECORD
5
1F
100
AcDbSymbolTableRecord
100
AcDbBlockTableRecord
2
*Model_Space
340
0
70
0
0
BLOCK_RECORD
5
1B
100
AcDbSymbolTableRecord
100
AcDbBlockTableRecord
2
*Paper_Space
340
0
70
0
0
BLOCK_RECORD
5
23
100
AcDbSymbolTableRecord
100
AcDbBlockTableRecord
2
*Paper_Space0
340
0
70
0
0
BLOCK_RECORD
5
103
100
AcDbSymbolTableRecord
100
AcDbBlockTableRecord
2
DimnDraft3D1
340
0
70
0
0
BLOCK_RECORD
5
111
100
AcDbSymbolTableRecord
100
AcDbBlockTableRecord
2
_CLOSED
340
0
70
0
0
BLOCK_RECORD
5
118
100
AcDbSymbolTableRecord
100
AcDbBlockTableRecord
2
DimnDraft3D2
340
0
70
0
0
BLOCK_RECORD
5
127
100
AcDbSymbolTableRecord
100
AcDbBlockTableRecord
2
DimnDraft3D3
340
0
70
0
0
BLOCK_RECORD
5
135
100
AcDbSymbolTableRecord
100
AcDbBlockTableRecord
2
DimnDraft3D4
340
0
70
0
0
ENDTAB
0
ENDSEC
0
SECTION
2
BLOCKS
0
BLOCK
5
20
100
AcDbEntity
8
0
100
AcDbBlockBegin
2
*Model_Space
70
0
10
0
20
0
30
0
3
*Model_Space
0
ENDBLK
5
21
100
AcDbEntity
8
0
100
AcDbBlockEnd
0
BLOCK
5
1C
100
AcDbEntity
8
0
100
AcDbBlockBegin
2
*Paper_Space
70
0
10
0
20
0
30
0
3
*Paper_Space
0
ENDBLK
5
1D
100
AcDbEntity
8
0
100
AcDbBlockEnd
0
BLOCK
5
24
100
AcDbEntity
8
0
100
AcDbBlockBegin
2
*Paper_Space0
70
0
10
0
20
0
30
0
3
*Paper_Space0
0
ENDBLK
5
25
100
AcDbEntity
8
0
100
AcDbBlockEnd
0
BLOCK
5
10E
100
AcDbEntity
8
0
100
AcDbBlockBegin
2
DimnDraft3D1
70
0
10
0
20
0
30
0
3
DimnDraft3D1
0
MTEXT
5
104
100
AcDbEntity
8
2
62
256
6
ByLayer
370
-1
48
1
60
0
100
AcDbMText
10
171.039
20
9.411842
30
0
210
0
220
0
230
1
1
\W01.000;\fsimplex.shx,bigfont.shx;27.0 
40
4.5
41
0
44
1.084337
50
90
71
7
72
5
7
DEFAULT
0
LINE
5
105
100
AcDbEntity
8
2
62
256
6
ByLayer
370
-1
48
1
60
0
100
AcDbLine
10
161.914
20
26.9
30
0
11
174.164
21
26.9
31
0
39
0
210
0
220
0
230
1
0
LINE
5
106
100
AcDbEntity
8
2
62
256
6
ByLayer
370
-1
48
1
60
0
100
AcDbLine
10
161.914
20
0
30
0
11
174.164
21
0
31
0
39
0
210
0
220
0
230
1
0
LINE
5
107
100
AcDbEntity
8
2
62
256
6
ByLayer
370
-1
48
1
60
0
100
AcDbLine
10
172.164
20
26.9
30
0
11
172.164
21
0
31
0
39
0
210
0
220
0
230
1
0
LINE
5
108
100
AcDbEntity
8
2
62
256
6
ByLayer
370
-1
48
1
60
0
100
AcDbLine
10
172.164
20
26.9
30
0
11
172.581997
21
23.725002
31
0
39
0
210
0
220
0
230
1
0
LINE
5
109
100
AcDbEntity
8
2
62
256
6
ByLayer
370
-1
48
1
60
0
100
AcDbLine
10
172.164
20
26.9
30
0
11
171.746003
21
23.724998
31
0
39
0
210
0
220
0
230
1
0
LINE
5
10A
100
AcDbEntity
8
2
62
256
6
ByLayer
370
-1
48
1
60
0
100
AcDbLine
10
172.581997
20
23.725002
30
0
11
171.746003
21
23.724998
31
0
39
0
210
0
220
0
230
1
0
LINE
5
10B
100
AcDbEntity
8
2
62
256
6
ByLayer
370
-1
48
1
60
0
100
AcDbLine
10
172.164
20
0
30
0
11
171.746003
21
3.174998
31
0
39
0
210
0
220
0
230
1
0
LINE
5
10C
100
AcDbEntity
8
2
62
256
6
ByLayer
370
-1
48
1
60
0
100
AcDbLine
10
172.164
20
0
30
0
11
172.581997
21
3.175002
31
0
39
0
210
0
220
0
230
1
0
LINE
5
10D
100
AcDbEntity
8
2
62
256
6
ByLayer
370
-1
48
1
60
0
100
AcDbLine
10
171.746003
20
3.174998
30
0
11
172.581997
21
3.175002
31
0
39
0
210
0
220
0
230
1
0
ENDBLK
5
10F
100
AcDbEntity
8
0
100
AcDbBlockEnd
0
BLOCK
5
112
100
AcDbEntity
8
0
100
AcDbBlockBegin
2
_CLOSED
70
0
10
0
20
0
30
0
3
_CLOSED
0
LINE
5
114
100
AcDbEntity
8
0
62
256
6
ByLayer
370
-2
48
1
60
0
100
AcDbLine
10
-1
20
0.166667
30
0
11
0
21
0
31
0
39
0
210
0
220
0
230
1
0
LINE
5
115
100
AcDbEntity
8
0
62
256
6
ByLayer
370
-2
48
1
60
0
100
AcDbLine
10
0
20
0
30
0
11
-1
21
-0.166667
31
0
39
0
210
0
220
0
230
1
0
LINE
5
116
100
AcDbEntity
8
0
62
256
6
ByLayer
370
-2
48
1
60
0
100
AcDbLine
10
-1
20
0.166667
30
0
11
-1
21
-0.166667
31
0
39
0
210
0
220
0
230
1
0
LINE
5
117
100
AcDbEntity
8
0
62
256
6
ByLayer
370
-2
48
1
60
0
100
AcDbLine
10
0
20
0
30
0
11
-1
21
0
31
0
39
0
210
0
220
0
230
1
0
ENDBLK
5
113
100
AcDbEntity
8
0
100
AcDbBlockEnd
0
BLOCK
5
124
100
AcDbEntity
8
0
100
AcDbBlockBegin
2
DimnDraft3D2
70
0
10
0
20
0
30
0
3
DimnDraft3D2
0
MTEXT
5
119
100
AcDbEntity
8
SK2
62
256
6
ByLayer
370
-1
48
1
60
0
100
AcDbMText
10
-152.211
20
-3.896053
30
0
210
0
220
0
230
1
1
\W01.000;\fsimplex.shx,bigfont.shx;%%c40 
40
4.5
41
0
44
1.084337
50
90
71
7
72
5
7
DEFAULT
0
LINE
5
11B
100
AcDbEntity
8
SK2
62
256
6
ByLayer
370
-1
48
1
60
0
100
AcDbLine
10
-143.336
20
-19.98925
30
0
11
-153.086
21
-19.98925
31
0
39
0
210
0
220
0
230
1
0
LINE
5
11C
100
AcDbEntity
8
SK2
62
256
6
ByLayer
370
-1
48
1
60
0
100
AcDbLine
10
-143.336
20
19.98925
30
0
11
-153.086
21
19.98925
31
0
39
0
210
0
220
0
230
1
0
LINE
5
11D
100
AcDbEntity
8
SK2
62
256
6
ByLayer
370
-1
48
1
60
0
100
AcDbLine
10
-151.086
20
-19.98925
30
0
11
-151.086
21
19.98925
31
0
39
0
210
0
220
0
230
1
0
LINE
5
11E
100
AcDbEntity
8
SK2
62
256
6
ByLayer
370
-1
48
1
60
0
100
AcDbLine
10
-151.086
20
-19.98925
30
0
11
-151.503997
21
-16.814252
31
0
39
0
210
0
220
0
230
1
0
LINE
5
11F
100
AcDbEntity
8
SK2
62
256
6
ByLayer
370
-1
48
1
60
0
100
AcDbLine
10
-151.086
20
-19.98925
30
0
11
-150.668003
21
-16.814248
31
0
39
0
210
0
220
0
230
1
0
LINE
5
120
100
AcDbEntity
8
SK2
62
256
6
ByLayer
370
-1
48
1
60
0
100
AcDbLine
10
-151.503997
20
-16.814252
30
0
11
-150.668003
21
-16.814248
31
0
39
0
210
0
220
0
230
1
0
LINE
5
121
100
AcDbEntity
8
SK2
62
256
6
ByLayer
370
-1
48
1
60
0
100
AcDbLine
10
-151.086
20
19.98925
30
0
11
-150.668003
21
16.814252
31
0
39
0
210
0
220
0
230
1
0
LINE
5
122
100
AcDbEntity
8
SK2
62
256
6
ByLayer
370
-1
48
1
60
0
100
AcDbLine
10
-151.086
20
19.98925
30
0
11
-151.503997
21
16.814248
31
0
39
0
210
0
220
0
230
1
0
LINE
5
123
100
AcDbEntity
8
SK2
62
256
6
ByLayer
370
-1
48
1
60
0
100
AcDbLine
10
-150.668003
20
16.814252
30
0
11
-151.503997
21
16.814248
31
0
39
0
210
0
220
0
230
1
0
ENDBLK
5
125
100
AcDbEntity
8
0
100
AcDbBlockEnd
0
BLOCK
5
132
100
AcDbEntity
8
0
100
AcDbBlockBegin
2
DimnDraft3D3
70
0
10
0
20
0
30
0
3
DimnDraft3D3
0
MTEXT
5
128
100
AcDbEntity
8
SK2
62
256
6
ByLayer
370
-1
48
1
60
0
100
AcDbMText
10
3.598868
20
40.775
30
0
210
0
220
0
230
1
1
\W01.000;\fsimplex.shx,bigfont.shx;300.0 
40
4.5
41
0
44
1.084337
50
0
71
7
72
5
7
DEFAULT
0
LINE
5
129
100
AcDbEntity
8
SK2
62
256
6
ByLayer
370
-1
48
1
60
0
100
AcDbLine
10
159.914
20
28.9
30
0
11
159.914
21
41.65
31
0
39
0
210
0
220
0
230
1
0
LINE
5
12A
100
AcDbEntity
8
SK2
62
256
6
ByLayer
370
-1
48
1
60
0
100
AcDbLine
10
-141.336
20
21.98925
30
0
11
-141.336
21
41.65
31
0
39
0
210
0
220
0
230
1
0
LINE
5
12B
100
AcDbEntity
8
SK2
62
256
6
ByLayer
370
-1
48
1
60
0
100
AcDbLine
10
159.914
20
39.65
30
0
11
-141.336
21
39.65
31
0
39
0
210
0
220
0
230
1
0
LINE
5
12C
100
AcDbEntity
8
SK2
62
256
6
ByLayer
370
-1
48
1
60
0
100
AcDbLine
10
159.914
20
39.65
30
0
11
156.739002
21
39.232003
31
0
39
0
210
0
220
0
230
1
0
LINE
5
12D
100
AcDbEntity
8
SK2
62
256
6
ByLayer
370
-1
48
1
60
0
100
AcDbLine
10
159.914
20
39.65
30
0
11
156.738998
21
40.067997
31
0
39
0
210
0
220
0
230
1
0
LINE
5
12E
100
AcDbEntity
8
SK2
62
256
6
ByLayer
370
-1
48
1
60
0
100
AcDbLine
10
156.739002
20
39.232003
30
0
11
156.738998
21
40.067997
31
0
39
0
210
0
220
0
230
1
0
LINE
5
12F
100
AcDbEntity
8
SK2
62
256
6
ByLayer
370
-1
48
1
60
0
100
AcDbLine
10
-141.336
20
39.65
30
0
11
-138.161002
21
40.067997
31
0
39
0
210
0
220
0
230
1
0
LINE
5
130
100
AcDbEntity
8
SK2
62
256
6
ByLayer
370
-1
48
1
60
0
100
AcDbLine
10
-141.336
20
39.65
30
0
11
-138.160998
21
39.232003
31
0
39
0
210
0
220
0
230
1
0
LINE
5
131
100
AcDbEntity
8
SK2
62
256
6
ByLayer
370
-1
48
1
60
0
100
AcDbLine
10
-138.161002
20
40.067997
30
0
11
-138.160998
21
39.232003
31
0
39
0
210
0
220
0
230
1
0
ENDBLK
5
133
100
AcDbEntity
8
0
100
AcDbBlockEnd
0
BLOCK
5
140
100
AcDbEntity
8
0
100
AcDbBlockBegin
2
DimnDraft3D4
70
0
10
0
20
0
30
0
3
DimnDraft3D4
0
MTEXT
5
136
100
AcDbEntity
8
2
62
256
6
ByLayer
370
-1
48
1
60
0
100
AcDbMText
10
186.226487
20
-36.834311
30
0
210
0
220
0
230
1
1
\W01.000;\fsimplex.shx,bigfont.shx;93%%d0' 
40
4.5
41
0
44
1.084337
50
43.5
71
7
72
5
7
DEFAULT
0
LINE
5
137
100
AcDbEntity
8
2
62
256
6
ByLayer
370
-1
48
1
60
0
100
AcDbLine
10
158.971953
20
8.924668
30
0
11
155.94362
21
-48.859355
31
0
39
0
210
0
220
0
230
1
0
LINE
5
138
100
AcDbEntity
8
2
62
256
6
ByLayer
370
-1
48
1
60
0
100
AcDbLine
10
161.914
20
0
30
0
11
207.430638
21
0
31
0
39
0
210
0
220
0
230
1
0
ARC
5
139
100
AcDbEntity
8
2
62
256
6
ByLayer
370
-1
48
1
60
0
100
AcDbCircle
39
0
10
158.504231
20
0
30
0
40
46.9264068782928
210
0
220
0
230
1
100
AcDbArc
50
267
51
0
0
LINE
5
13A
100
AcDbEntity
8
2
62
256
6
ByLayer
370
-1
48
1
60
0
100
AcDbLine
10
156.048292
20
-46.862096
30
0
11
159.236111
21
-46.556897
31
0
39
0
210
0
220
0
230
1
0
LINE
5
13B
100
AcDbEntity
8
2
62
256
6
ByLayer
370
-1
48
1
60
0
100
AcDbLine
10
156.048292
20
-46.862096
30
0
11
159.206483
21
-47.392365
31
0
39
0
210
0
220
0
230
1
0
LINE
5
13C
100
AcDbEntity
8
2
62
256
6
ByLayer
370
-1
48
1
60
0
100
AcDbLine
10
159.236111
20
-46.556897
30
0
11
159.206483
21
-47.392365
31
0
39
0
210
0
220
0
230
1
0
LINE
5
13D
100
AcDbEntity
8
2
62
256
6
ByLayer
370
-1
48
1
60
0
100
AcDbLine
10
205.430638
20
0
30
0
11
205.794893
21
-3.181612
31
0
39
0
210
0
220
0
230
1
0
LINE
5
13E
100
AcDbEntity
8
2
62
256
6
ByLayer
370
-1
48
1
60
0
100
AcDbLine
10
205.430638
20
0
30
0
11
204.959019
21
-3.16748
31
0
39
0
210
0
220
0
230
1
0
LINE
5
13F
100
AcDbEntity
8
2
62
256
6
ByLayer
370
-1
48
1
60
0
100
AcDbLine
10
205.794893
20
-3.181612
30
0
11
204.959019
21
-3.16748
31
0
39
0
210
0
220
0
230
1
0
ENDBLK
5
141
100
AcDbEntity
8
0
100
AcDbBlockEnd
0
ENDSEC
0
SECTION
2
ENTITIES
0
ELLIPSE
5
89
100
AcDbEntity
8
1
62
256
6
ByLayer
370
-1
48
1
60
0
100
AcDbEllipse
10
149.26847
20
-0.88833
30
0
11
-1.49794430213186
21
0.0785039343643803
31
0
210
0
220
0
230
1
40
0.99283
41
-2.13066616624784
42
-0.337183196571418
0
ELLIPSE
5
8A
100
AcDbEntity
8
1
62
256
6
ByLayer
370
-1
48
1
60
0
100
AcDbEllipse
10
148.665197
20
1.090065
30
0
11
-1.62277299397619
21
0.0850459288947458
31
0
210
0
220
0
230
1
40
0.99283
41
-0.610865238198039
42
-0.113143623003834
0
ELLIPSE
5
8B
100
AcDbEntity
8
1
62
256
6
ByLayer
370
-1
48
1
60
0
100
AcDbEllipse
10
148.684265
20
1.453906
30
0
11
-1.62277299397619
21
0.0850459288947458
31
0
210
0
220
0
230
1
40
0.99283
41
-0.610865238198073
42
0.577072197355151
0
ELLIPSE
5
8C
100
AcDbEntity
8
1
62
256
6
ByLayer
370
-1
48
1
60
0
100
AcDbEllipse
10
166.321663
20
13.506408
30
0
11
7.98903627803657
21
-0.41868764994354
31
0
210
0
220
0
230
1
40
0.99283
41
-2.81812717866553
42
-2.74354559670836
0
ELLIPSE
5
8D
100
AcDbEntity
8
1
62
256
6
ByLayer
370
-1
48
1
60
0
100
AcDbEllipse
10
145.948316
20
21.982574
30
0
11
-7.98903627803662
21
0.418687649943363
31
0
210
0
220
0
230
1
40
0.99283
41
1.11368772101527
42
1.98232187549902
0
ELLIPSE
5
8E
100
AcDbEntity
8
1
62
256
6
ByLayer
370
-1
48
1
60
0
100
AcDbEllipse
10
58.498155
20
332.503984
30
0
11
125.335452549603
21
-464.516357009273
31
-8.06240783900554E-14
210
-2.46519032881566E-32
220
1.73565639128712E-16
230
-1
40
0.113696
41
0.7805615343888
42
0.827215246209214
0
ELLIPSE
5
8F
100
AcDbEntity
8
1
62
256
6
ByLayer
370
-1
48
1
60
0
100
AcDbEllipse
10
149.315077
20
0.000979
30
0
11
-1.49794430213186
21
0.0785039343643803
31
0
210
0
220
0
230
1
40
0.99283
41
-0.104917041938736
42
-2.35827684290264
0
ELLIPSE
5
90
100
AcDbEntity
8
1
62
256
6
ByLayer
370
-1
48
1
60
0
100
AcDbEllipse
10
142.548325
20
20.999908
30
0
11
77.266130554507
21
-76.9904192911558
31
0
210
0
220
0
230
-1
40
0.044661
41
1.55547848332724
42
1.57029744816979
0
ELLIPSE
5
91
100
AcDbEntity
8
1
62
256
6
ByLayer
370
-1
48
1
60
0
100
AcDbEllipse
10
149.264404
20
-0.96592
30
0
11
1.49794430213186
21
-0.0785039343644138
31
0
210
0
220
0
230
1
40
0.99283
41
0.330992627388823
42
2.81059250742081
0
ELLIPSE
5
92
100
AcDbEntity
8
1
62
256
6
ByLayer
370
-1
48
1
60
0
100
AcDbEllipse
10
148.711804
20
1.979374
30
0
11
1.9623147490498
21
-0.102840558252056
31
0
210
0
220
0
230
1
40
0.99283
41
2.53072741539179
42
-1.98218070164043
0
ELLIPSE
5
93
100
AcDbEntity
8
1
62
256
6
ByLayer
370
-1
48
1
60
0
100
AcDbEllipse
10
154.502911
20
13.839741
30
0
11
3.04036173350948
21
-0.159338606670366
31
0
210
0
220
0
230
1
40
0.99283
41
0
42
6.28318530717959
0
ELLIPSE
5
94
100
AcDbEntity
8
1
62
256
6
ByLayer
370
-1
48
1
60
0
100
AcDbEllipse
10
154.495522
20
13.69874
30
0
11
2.94041639042779
21
-0.154100693189773
31
0
210
0
220
0
230
1
40
0.99283
41
-0.763619259879227
42
0
0
ELLIPSE
5
95
100
AcDbEntity
8
1
62
256
6
ByLayer
370
-1
48
1
60
0
100
AcDbEllipse
10
154.495522
20
13.69874
30
0
11
2.94041639042779
21
-0.154100693189773
31
0
210
0
220
0
230
1
40
0.99283
41
0
42
0.0527372538334858
0
ELLIPSE
5
96
100
AcDbEntity
8
1
62
256
6
ByLayer
370
-1
48
1
60
0
100
AcDbEllipse
10
154.495522
20
13.69874
30
0
11
2.94041639042779
21
-0.154100693189773
31
0
210
0
220
0
230
1
40
0.99283
41
-2.37790704372336
42
-1.51730711791
0
ELLIPSE
5
97
100
AcDbEntity
8
1
62
256
6
ByLayer
370
-1
48
1
60
0
100
AcDbEllipse
10
154.495522
20
13.69874
30
0
11
2.94041639042779
21
-0.154100693189773
31
0
210
0
220
0
230
1
40
0.99283
41
0.0527373460442451
42
-2.37790670282864
0
ELLIPSE
5
98
100
AcDbEntity
8
1
62
256
6
ByLayer
370
-1
48
1
60
0
100
AcDbEllipse
10
154.49653
20
13.717985
30
0
11
2.99588860426371
21
-0.157007868728827
31
0
210
0
220
0
230
1
40
0.99283
41
-0.352168783826095
42
0
0
ELLIPSE
5
99
100
AcDbEntity
8
1
62
256
6
ByLayer
370
-1
48
1
60
0
100
AcDbEllipse
10
154.49653
20
13.717985
30
0
11
2.99588860426371
21
-0.157007868728827
31
0
210
0
220
0
230
1
40
0.99283
41
0
42
0.0527374273938278
0
ELLIPSE
5
9A
100
AcDbEntity
8
1
62
256
6
ByLayer
370
-1
48
1
60
0
100
AcDbEllipse
10
154.49653
20
13.717985
30
0
11
2.99588860426371
21
-0.157007868728827
31
0
210
0
220
0
230
1
40
0.99283
41
-2.78945544823475
42
-1.517306652099
0
ELLIPSE
5
9B
100
AcDbEntity
8
1
62
256
6
ByLayer
370
-1
48
1
60
0
100
AcDbEllipse
10
154.49653
20
13.717985
30
0
11
2.99588860426371
21
-0.157007868728827
31
0
210
0
220
0
230
1
40
0.99283
41
0.0527373352341073
42
-2.78945544823476
0
ELLIPSE
5
9C
100
AcDbEntity
8
1
62
256
6
ByLayer
370
-1
48
1
60
0
100
AcDbEllipse
10
150.219362
20
15.431256
30
0
11
0.396222080573925
21
-0.0653876961665651
31
0
210
0
220
0
230
-1
40
0.989163
41
3.0315940135196
42
-2.6431252165979
0
ELLIPSE
5
9D
100
AcDbEntity
8
1
62
256
6
ByLayer
370
-1
48
1
60
0
100
AcDbEllipse
10
158.78646
20
12.248225
30
0
11
0.396222080608663
21
-0.0653876951352941
31
0
210
0
220
0
230
-1
40
0.989163
41
-0.109998637568491
42
0.498467439596856
0
ELLIPSE
5
9E
100
AcDbEntity
8
1
62
256
6
ByLayer
370
-1
48
1
60
0
100
AcDbEllipse
10
149.899707
20
0.962112
30
0
11
-0.429410699944467
21
0.0225044611844557
31
0
210
0
220
0
230
1
40
0.99283
41
0.673370654241329
42
2.22913480836461
0
ELLIPSE
5
9F
100
AcDbEntity
8
1
62
256
6
ByLayer
370
-1
48
1
60
0
100
AcDbEllipse
10
158.008544
20
11.236579
30
0
11
-0.409438109249376
21
0.0214577420595973
31
0
210
0
220
0
230
1
40
0.99283
41
2.5307274153915
42
2.86466972926034
0
ELLIPSE
5
A0
100
AcDbEntity
8
1
62
256
6
ByLayer
370
-1
48
1
60
0
100
AcDbEllipse
10
153.12738
20
13.403995
30
0
11
-0.291599824148336
21
0.0152820992229327
31
0
210
0
220
0
230
1
40
0.99283
41
-1.0966939540205
42
-0.36968233002093
0
ELLIPSE
5
A1
100
AcDbEntity
8
1
62
256
6
ByLayer
370
-1
48
1
60
0
100
AcDbEllipse
10
152.726709
20
14.29007
30
0
11
-0.685059860841639
21
0.0359024659826433
31
0
210
0
220
0
230
1
40
0.99283
41
2.04489869956959
42
2.71454599327343
0
ELLIPSE
5
A2
100
AcDbEntity
8
1
62
256
6
ByLayer
370
-1
48
1
60
0
100
AcDbEllipse
10
153.614086
20
14.697581
30
0
11
-0.291599824148336
21
0.0152820992229327
31
0
210
0
220
0
230
1
40
0.99283
41
-2.13801608775732
42
-0.275207646523506
0
ELLIPSE
5
A3
100
AcDbEntity
8
1
62
256
6
ByLayer
370
-1
48
1
60
0
100
AcDbEllipse
10
154.181695
20
15.487887
30
0
11
-0.685059860841639
21
0.0359024659826433
31
0
210
0
220
0
230
1
40
0.99283
41
1.00357656583259
42
1.7875672094534
0
ELLIPSE
5
A4
100
AcDbEntity
8
1
62
256
6
ByLayer
370
-1
48
1
60
0
100
AcDbEllipse
10
154.976503
20
14.921509
30
0
11
-0.291599824148336
21
0.0152820992229327
31
0
210
0
220
0
230
1
40
0.99283
41
-3.06682393761181
42
-0.570034800514992
0
ELLIPSE
5
A5
100
AcDbEntity
8
1
62
256
6
ByLayer
370
-1
48
1
60
0
100
AcDbEllipse
10
155.950274
20
14.830787
30
0
11
-0.685059860841639
21
0.0359024659826433
31
0
210
0
220
0
230
1
40
0.99283
41
1.12241626820517E-05
42
0.743160205938173
0
ELLIPSE
5
A6
100
AcDbEntity
8
1
62
256
6
ByLayer
370
-1
48
1
60
0
100
AcDbEllipse
10
155.856892
20
13.864286
30
0
11
-0.291599824148336
21
0.0152820992229327
31
0
210
0
220
0
230
1
40
0.99283
41
-2.86999301586797
42
-1.61444180403012
0
ELLIPSE
5
A7
100
AcDbEntity
8
1
62
256
6
ByLayer
370
-1
48
1
60
0
100
AcDbEllipse
10
154.492136
20
13.634141
30
0
11
-1.2048465336814
21
0.0631433312070836
31
0
210
0
220
0
230
1
40
0.99283
41
2.07774692708839
42
2.74175059260505
0
ELLIPSE
5
A8
100
AcDbEntity
8
1
62
256
6
ByLayer
370
-1
48
1
60
0
100
AcDbEllipse
10
154.499353
20
13.77185
30
0
11
1.2048465336814
21
-0.0631433312071106
31
0
210
0
220
0
230
1
40
0.99283
41
2.76712740107862
42
2.90519266790286
0
ELLIPSE
5
A9
100
AcDbEntity
8
1
62
256
6
ByLayer
370
-1
48
1
60
0
100
AcDbEllipse
10
154.501051
20
13.804241
30
0
11
1.67420241501606
21
-0.0877412306412941
31
0
210
0
220
0
230
1
40
0.99283
41
-1.87622894589386
42
-0.831821942378567
0
ELLIPSE
5
AA
100
AcDbEntity
8
1
62
256
6
ByLayer
370
-1
48
1
60
0
100
AcDbEllipse
10
156.257563
20
12.978211
30
0
11
-0.685059860841639
21
0.0359024659826433
31
0
210
0
220
0
230
1
40
0.99283
41
1.00853068881743E-05
42
0.485828715822197
0
ELLIPSE
5
AB
100
AcDbEntity
8
1
62
256
6
ByLayer
370
-1
48
1
60
0
100
AcDbEllipse
10
154.501051
20
13.804241
30
0
11
1.67420241501606
21
-0.0877412306412941
31
0
210
0
220
0
230
1
40
0.99283
41
-2.92063594940916
42
-1.87622894589386
0
ELLIPSE
5
AC
100
AcDbEntity
8
1
62
256
6
ByLayer
370
-1
48
1
60
0
100
AcDbEllipse
10
154.492136
20
13.634141
30
0
11
-1.2048465336814
21
0.0631433312070836
31
0
210
0
220
0
230
1
40
0.99283
41
0.887239537825208
42
1.52630218895277
0
ELLIPSE
5
AD
100
AcDbEntity
8
1
62
256
6
ByLayer
370
-1
48
1
60
0
100
AcDbEllipse
10
154.499353
20
13.77185
30
0
11
1.2048465336814
21
-0.0631433312071106
31
0
210
0
220
0
230
1
40
0.99283
41
-0.374465252510927
42
-0.236399985687134
0
ELLIPSE
5
AE
100
AcDbEntity
8
1
62
256
6
ByLayer
370
-1
48
1
60
0
100
AcDbEllipse
10
154.492136
20
13.634141
30
0
11
-1.2048465336814
21
0.0631433312070836
31
0
210
0
220
0
230
1
40
0.99283
41
-2.39843244765161
42
-1.35402544413639
0
ELLIPSE
5
AF
100
AcDbEntity
8
1
62
256
6
ByLayer
370
-1
48
1
60
0
100
AcDbEllipse
10
154.492136
20
13.634141
30
0
11
1.20484653368141
21
-0.0631433312071111
31
0
210
0
220
0
230
1
40
0.99283
41
-0.074405331969643
42
0.743160205938219
0
ELLIPSE
5
B0
100
AcDbEntity
8
1
62
256
6
ByLayer
370
-1
48
1
60
0
100
AcDbEllipse
10
154.501051
20
13.804241
30
0
11
1.67420241501606
21
-0.0877412306412941
31
0
210
0
220
0
230
1
40
0.99283
41
2.30977071121113
42
-2.92063594940916
0
ELLIPSE
5
B1
100
AcDbEntity
8
1
62
256
6
ByLayer
370
-1
48
1
60
0
100
AcDbEllipse
10
154.181695
20
15.487887
30
0
11
-0.685059860841639
21
0.0359024659826433
31
0
210
0
220
0
230
1
40
0.99283
41
1.7875672094534
42
2.57155785307413
0
ELLIPSE
5
B2
100
AcDbEntity
8
1
62
256
6
ByLayer
370
-1
48
1
60
0
100
AcDbEllipse
10
154.501051
20
13.804241
30
0
11
1.67420241501606
21
-0.0877412306412941
31
0
210
0
220
0
230
1
40
0.99283
41
-0.831821942378567
42
0.220956704180566
0
ELLIPSE
5
B3
100
AcDbEntity
8
1
62
256
6
ByLayer
370
-1
48
1
60
0
100
AcDbEllipse
10
154.492136
20
13.634141
30
0
11
1.20484653368141
21
-0.0631433312071111
31
0
210
0
220
0
230
1
40
0.99283
41
2.76712740107862
42
2.9051926679029
0
ELLIPSE
5
B4
100
AcDbEntity
8
1
62
256
6
ByLayer
370
-1
48
1
60
0
100
AcDbEllipse
10
154.501051
20
13.804241
30
0
11
1.67420241501606
21
-0.0877412306412941
31
0
210
0
220
0
230
1
40
0.99283
41
0.220956704180566
42
1.2653637076958
0
ELLIPSE
5
B5
100
AcDbEntity
8
1
62
256
6
ByLayer
370
-1
48
1
60
0
100
AcDbEllipse
10
152.726709
20
14.29007
30
0
11
-0.685059860841639
21
0.0359024659826433
31
0
210
0
220
0
230
1
40
0.99283
41
2.95777407570806
42
-3.14158325196827
0
ELLIPSE
5
B6
100
AcDbEntity
8
1
62
256
6
ByLayer
370
-1
48
1
60
0
100
AcDbEllipse
10
154.492136
20
13.634141
30
0
11
-1.2048465336814
21
0.0631433312070836
31
0
210
0
220
0
230
1
40
0.99283
41
-0.23639998568691
42
0.475204731117966
0
ELLIPSE
5
B7
100
AcDbEntity
8
1
62
256
6
ByLayer
370
-1
48
1
60
0
100
AcDbEllipse
10
154.501051
20
13.804241
30
0
11
1.67420241501606
21
-0.0877412306412941
31
0
210
0
220
0
230
1
40
0.99283
41
1.2653637076958
42
2.30977071121113
0
ELLIPSE
5
B8
100
AcDbEntity
8
1
62
256
6
ByLayer
370
-1
48
1
60
0
100
AcDbEllipse
10
154.492136
20
13.634141
30
0
11
-1.2048465336814
21
0.0631433312070836
31
0
210
0
220
0
230
1
40
0.99283
41
-1.35402544413639
42
-0.374465252511172
0
ELLIPSE
5
B9
100
AcDbEntity
8
1
62
256
6
ByLayer
370
-1
48
1
60
0
100
AcDbEllipse
10
155.950274
20
14.830787
30
0
11
-0.685059860841639
21
0.0359024659826433
31
0
210
0
220
0
230
1
40
0.99283
41
0.743160205938173
42
1.52715084955903
0
ELLIPSE
5
BA
100
AcDbEntity
8
1
62
256
6
ByLayer
370
-1
48
1
60
0
100
AcDbEllipse
10
154.499328
20
13.771362
30
0
11
2.62140252873075
21
-0.137381885137724
31
0
210
0
220
0
230
1
40
0.99283
41
0
42
6.28318530717959
0
ELLIPSE
5
BB
100
AcDbEntity
8
1
62
256
6
ByLayer
370
-1
48
1
60
0
100
AcDbEllipse
10
154.501051
20
13.804241
30
0
11
1.79753316255828
21
-0.0942047212372991
31
0
210
0
220
0
230
1
40
0.99283
41
0
42
6.28318530717959
0
ELLIPSE
5
BC
100
AcDbEntity
8
1
62
256
6
ByLayer
370
-1
48
1
60
0
100
AcDbEllipse
10
154.492292
20
13.637125
30
0
11
2.62140252873077
21
-0.137381885137725
31
0
210
0
220
0
230
1
40
0.99283
41
3.14157697159445
42
0
0
ELLIPSE
5
BD
100
AcDbEntity
8
1
62
256
6
ByLayer
370
-1
48
1
60
0
100
AcDbEllipse
10
159.126594
20
26.128746
30
0
11
0.77958350868092
21
0.153190908208822
31
0
210
0
220
0
230
-1
40
0.995388
41
-2.16061142840446
42
0.122674267949145
0
ELLIPSE
5
BE
100
AcDbEntity
8
1
62
256
6
ByLayer
370
-1
48
1
60
0
100
AcDbEllipse
10
150.193005
20
1.060873
30
0
11
0.553875755157818
21
0.603291614558592
31
0
210
0
220
0
230
-1
40
0.282222
41
1.42952121106899
42
2.20147851572027
0
ELLIPSE
5
BF
100
AcDbEntity
8
1
62
256
6
ByLayer
370
-1
48
1
60
0
100
AcDbEllipse
10
149.879228
20
1.550736
30
0
11
0.779583508677025
21
0.153190908229302
31
0
210
0
220
0
230
-1
40
0.995388
41
0.98098122521123
42
-3.01891838561533
0
ELLIPSE
5
C0
100
AcDbEntity
8
1
62
256
6
ByLayer
370
-1
48
1
60
0
100
AcDbEllipse
10
149.995144
20
1.36977
30
0
11
0.779583508977975
21
0.153190906590187
31
0
210
0
220
0
230
-1
40
0.995388
41
1.75293852778752
42
2.49230961479902
0
ELLIPSE
5
C1
100
AcDbEntity
8
1
62
256
6
ByLayer
370
-1
48
1
60
0
100
AcDbEllipse
10
150.193005
20
1.060873
30
0
11
1.0277516102779
21
-0.772237417873045
31
0
210
0
220
0
230
-1
40
0.543673
41
1.89648970176668
42
2.17169207219644
0
POINT
5
41
100
AcDbEntity
8
80
62
256
6
ByLayer
370
-1
48
1
60
0
100
AcDbPoint
10
0
20
0
30
0
39
0
210
0
220
0
230
1
50
360
0
POINT
5
43
100
AcDbEntity
8
81
62
256
6
ByLayer
370
-1
48
1
60
0
100
AcDbPoint
10
159.914
20
26.9
30
0
39
0
210
0
220
0
230
1
50
360
0
POINT
5
45
100
AcDbEntity
8
1
62
256
6
ByLayer
370
-1
48
1
60
0
100
AcDbPoint
10
-141.336
20
0
30
0
39
0
210
0
220
0
230
1
50
360
0
POINT
5
47
100
AcDbEntity
8
2
62
256
6
ByLayer
370
-1
48
1
60
0
100
AcDbPoint
10
159.914
20
26.9
30
0
39
0
210
0
220
0
230
1
50
360
0
POINT
5
49
100
AcDbEntity
8
2
62
256
6
ByLayer
370
-1
48
1
60
0
100
AcDbPoint
10
159.828774
20
24.703477
30
0
39
0
210
0
220
0
230
1
50
360
0
SPLINE
5
C2
100
AcDbEntity
8
1
62
256
6
ByLayer
370
-1
48
1
60
0
100
AcDbSpline
70
4
71
3
72
34
73
30
40
-0.124999999999987
40
-0.124999999999987
40
0
40
0
40
0.125000000000001
40
0.125000000000001
40
0.187500000000002
40
0.187500000000002
40
0.218750000000004
40
0.218750000000004
40
0.250000000000006
40
0.250000000000006
40
0.31250000000001
40
0.31250000000001
40
0.375000000000015
40
0.375000000000015
40
0.500000000000023
40
0.500000000000023
40
0.625000000000032
40
0.625000000000032
40
0.687500000000034
40
0.687500000000034
40
0.703125000000032
40
0.703125000000032
40
0.718750000000029
40
0.718750000000029
40
0.750000000000025
40
0.750000000000025
40
0.875000000000013
40
0.875000000000013
40
1
40
1
40
1.125
40
1.125
41
1
10
130.059974429702
20
10.3549011555693
30
0
41
1
10
127.332346526518
20
9.05881046449605
30
0
41
1
10
125.955672875327
20
8.51843156139878
30
0
41
1
10
123.739315029924
20
8.26084001635067
30
0
41
1
10
122.939924127636
20
8.24333136254924
30
0
41
1
10
121.922900363067
20
8.82388439784015
30
0
41
1
10
121.644392023103
20
9.1711072690172
30
0
41
1
10
121.524327538713
20
9.95862927418335
30
0
41
1
10
121.642247282649
20
10.3442396375123
30
0
41
1
10
122.14395454328
20
11.3421348204779
30
0
41
1
10
122.680743717361
20
11.8638159548379
30
0
41
1
10
123.824723070718
20
12.7778771918284
30
0
41
1
10
124.456820558614
20
13.1695009071401
30
0
41
1
10
126.412222571516
20
14.2127381101351
30
0
41
1
10
127.826090327716
20
14.7533822710995
30
0
41
1
10
130.748299915401
20
15.6609879859978
30
0
41
1
10
132.245628482335
20
16.0319638597364
30
0
41
1
10
134.561321115668
20
16.4029436240306
30
0
41
1
10
135.355205432933
20
16.5297038093319
30
0
41
1
10
136.348236003222
20
16.431538071693
30
0
41
1
10
136.551267843101
20
16.4012568712782
30
0
41
1
10
136.89706772758
20
16.1943649361572
30
0
41
1
10
136.957684397513
20
15.9696231525708
30
0
41
1
10
136.778207688453
20
15.4006408741687
30
0
41
1
10
136.494118572175
20
15.1104124321414
30
0
41
1
10
135.154734992513
20
13.7056560452603
30
0
41
1
10
133.879961894205
20
12.8072170091657
30
0
41
1
10
131.353074914545
20
11.1158600008291
30
0
41
1
10
130.059974429702
20
10.3549011555693
30
0
41
1
10
127.332346526518
20
9.05881046449605
30
0
0
SPLINE
5
C3
100
AcDbEntity
8
1
62
256
6
ByLayer
370
-1
48
1
60
0
100
AcDbSpline
70
4
71
3
72
10
73
6
40
0
40
0
40
0
40
0
40
0.679347771445117
40
0.679347771445117
40
1
40
1
40
1
40
1
41
1
10
147.899727727156
20
0.0416065638663952
30
0
41
1
10
147.876555689723
20
0.0894295915120722
30
0
41
1
10
147.858681764388
20
0.134407239925622
30
0
41
1
10
147.840934137237
20
0.196651382808454
30
0
41
1
10
147.836543621703
20
0.216012045998667
30
0
41
1
10
147.833531411471
20
0.234797784647895
30
0
0
SPLINE
5
C4
100
AcDbEntity
8
1
62
256
6
ByLayer
370
-1
48
1
60
0
100
AcDbSpline
70
4
71
3
72
10
73
6
40
0
40
0
40
0
40
0
40
0.5
40
0.5
40
1
40
1
40
1
40
1
41
1
10
104.467792928723
20
7.57100492421554
30
0
41
1
10
104.499585119074
20
9.96206733201672
30
0
41
1
10
105.139804719237
20
12.1665410875627
30
0
41
1
10
107.525362228648
20
15.5100994592348
30
0
41
1
10
109.233949641423
20
16.6858150646005
30
0
41
1
10
111.183987627697
20
17.5107500000001
30
0
0
SPLINE
5
C5
100
AcDbEntity
8
1
62
256
6
ByLayer
370
-1
48
1
60
0
100
AcDbSpline
70
4
71
3
72
12
73
8
40
0
40
0
40
0
40
0
40
0.5
40
0.5
40
0.75
40
0.75
40
1
40
1
40
1
40
1
41
1
10
139.807601814313
20
-18.9737584067359
30
0
41
1
10
134.11070363106
20
-18.6005175451546
30
0
41
1
10
128.71795873919
20
-17.920105101949
30
0
41
1
10
121.097465403991
20
-15.405209753368
30
0
41
1
10
118.694834136213
20
-14.3222136264548
30
0
41
1
10
114.230352881587
20
-11.47559927114
30
0
41
1
10
112.167669901022
20
-9.7011096666559
30
0
41
1
10
110.387474496883
20
-7.57100492421617
30
0
0
SPLINE
5
C6
100
AcDbEntity
8
1
62
256
6
ByLayer
370
-1
48
1
60
0
100
AcDbSpline
70
4
71
3
72
8
73
4
40
0
40
0
40
0
40
0
40
1
40
1
40
1
40
1
41
1
10
140.293796771125
20
16.3702821982305
30
0
41
1
10
140.817530394555
20
15.8491310236601
30
0
41
1
10
141.402668803645
20
15.4087817304963
30
0
41
1
10
142.049302860729
20
15.0499411610734
30
0
0
SPLINE
5
C7
100
AcDbEntity
8
1
62
256
6
ByLayer
370
-1
48
1
60
0
100
AcDbSpline
70
4
71
3
72
18
73
14
40
0
40
0
40
0
40
0
40
0.204886319103258
40
0.204886319103258
40
0.380361690747769
40
0.380361690747769
40
0.557607619405068
40
0.557607619405068
40
0.710856129090474
40
0.710856129090474
40
0.912381828334382
40
0.912381828334382
40
1
40
1
40
1
40
1
41
1
10
153.791789343637
20
15.0906373775215
30
0
41
1
10
153.847292347114
20
15.0469273426008
30
0
41
1
10
153.910607409284
20
15.0105813311594
30
0
41
1
10
154.037707357437
20
14.9636830380205
30
0
41
1
10
154.101629238794
20
14.9498203625533
30
0
41
1
10
154.232014294317
20
14.9427738592317
30
0
41
1
10
154.300464807603
20
14.9499324793388
30
0
41
1
10
154.420287497982
20
14.9825851717043
30
0
41
1
10
154.474169023366
20
15.0057575572435
30
0
41
1
10
154.586568852235
20
15.0721179380776
30
0
41
1
10
154.643255921002
20
15.1202032471849
30
0
41
1
10
154.711044969039
20
15.1972632210533
30
0
41
1
10
154.730102071295
20
15.222024971456
30
0
41
1
10
154.7474310734
20
15.2477076686269
30
0
0
SPLINE
5
C8
100
AcDbEntity
8
1
62
256
6
ByLayer
370
-1
48
1
60
0
100
AcDbSpline
70
4
71
3
72
16
73
12
40
0
40
0
40
0
40
0
40
0.100329177464939
40
0.100329177464939
40
0.322747303537631
40
0.322747303537631
40
0.550059537992125
40
0.550059537992125
40
0.793522422499197
40
0.793522422499197
40
1
40
1
40
1
40
1
41
1
10
156.153641980402
20
14.0829256416469
30
0
41
1
10
156.151391806738
20
14.096023164978
30
0
41
1
10
156.14821961445
20
14.1089515377013
30
0
41
1
10
156.135273191166
20
14.149191089365
30
0
41
1
10
156.121885906844
20
14.1754682990103
30
0
41
1
10
156.08832533858
20
14.2217678771991
30
0
41
1
10
156.06760472814
20
14.2422420144318
30
0
41
1
10
156.020620939963
20
14.2761173504659
30
0
41
1
10
155.993500873322
20
14.2893631371652
30
0
41
1
10
155.941993241198
20
14.3051318881311
30
0
41
1
10
155.917411931098
20
14.3091263747738
30
0
41
1
10
155.8930057256
20
14.30994863227
30
0
0
SPLINE
5
C9
100
AcDbEntity
8
1
62
256
6
ByLayer
370
-1
48
1
60
0
100
AcDbSpline
70
4
71
3
72
12
73
8
40
0
40
0
40
0
40
0
40
0.3128434265032
40
0.3128434265032
40
0.779441889525334
40
0.779441889525334
40
1
40
1
40
1
40
1
41
1
10
153.400929018707
20
14.2681603118519
30
0
41
1
10
153.412781318654
20
14.3176456177271
30
0
41
1
10
153.419068627643
20
14.368915138353
30
0
41
1
10
153.4213835835
20
14.4937935802771
30
0
41
1
10
153.411038734531
20
14.5680613533014
30
0
41
1
10
153.382184071264
20
14.6699183759778
30
0
41
1
10
153.370719229328
20
14.7019549772785
30
0
41
1
10
153.357365529258
20
14.7327992455411
30
0
0
SPLINE
5
CA
100
AcDbEntity
8
1
62
256
6
ByLayer
370
-1
48
1
60
0
100
AcDbSpline
70
4
71
3
72
18
73
14
40
0
40
0
40
0
40
0
40
0.203305312780786
40
0.203305312780786
40
0.379065510040123
40
0.379065510040123
40
0.556614699386268
40
0.556614699386268
40
0.709928847639097
40
0.709928847639097
40
0.911182233383507
40
0.911182233383507
40
1
40
1
40
1
40
1
41
1
10
155.27547320732
20
15.0515181878533
30
0
41
1
10
155.268959677504
20
14.9801928183268
30
0
41
1
10
155.272436317822
20
14.9060362797041
30
0
41
1
10
155.300223186539
20
14.7705387939539
30
0
41
1
10
155.322132235267
20
14.7073226751027
30
0
41
1
10
155.383723715269
20
14.5900617070437
30
0
41
1
10
155.424694797283
20
14.5344835062571
30
0
41
1
10
155.512309120095
20
14.4484144567354
30
0
41
1
10
155.558402478035
20
14.4144304855926
30
0
41
1
10
155.668851630604
20
14.3534873350593
30
0
41
1
10
155.736186117181
20
14.3307490218223
30
0
41
1
10
155.833009823176
20
14.3139938998105
30
0
41
1
10
155.863064968808
20
14.3109573516189
30
0
41
1
10
155.8930057256
20
14.3099486322701
30
0
0
SPLINE
5
CB
100
AcDbEntity
8
1
62
256
6
ByLayer
370
-1
48
1
60
0
100
AcDbSpline
70
4
71
3
72
14
73
10
40
0
40
0
40
0
40
0
40
0.24885658619095
40
0.24885658619095
40
0.539583548586008
40
0.539583548586008
40
0.802365386204966
40
0.802365386204966
40
1
40
1
40
1
40
1
41
1
10
153.725264977493
20
12.5309547600242
30
0
41
1
10
153.722636046454
20
12.5037177284323
30
0
41
1
10
153.724435168725
20
12.4752356738617
30
0
41
1
10
153.738675142269
20
12.4147342684555
30
0
41
1
10
153.753178400733
20
12.3819535011246
30
0
41
1
10
153.7925963629
20
12.3260609349081
30
0
41
1
10
153.817029833052
20
12.3015058760811
30
0
41
1
10
153.866212957286
20
12.2669684166784
30
0
41
1
10
153.889868100158
20
12.2545201681795
30
0
41
1
10
153.914527917789
20
12.2453580265504
30
0
0
SPLINE
5
CC
100
AcDbEntity
8
1
62
256
6
ByLayer
370
-1
48
1
60
0
100
AcDbSpline
70
4
71
3
72
16
73
12
40
0
40
0
40
0
40
0
40
0.191434196395345
40
0.191434196395345
40
0.414353700143757
40
0.414353700143757
40
0.647045742017809
40
0.647045742017809
40
0.899766552361177
40
0.899766552361177
40
1
40
1
40
1
40
1
41
1
10
152.848459276717
20
13.5255562751929
30
0
41
1
10
152.852735963862
20
13.5006630811364
30
0
41
1
10
152.860399776728
20
13.4758944129522
30
0
41
1
10
152.883164589004
20
13.4257580007145
30
0
41
1
10
152.899591702568
20
13.4003318798393
30
0
41
1
10
152.938628071411
20
13.3551214021734
30
0
41
1
10
152.961946209695
20
13.3350461275715
30
0
41
1
10
153.013612366175
20
13.3016570950436
30
0
41
1
10
153.042849798367
20
13.2886270559271
30
0
41
1
10
153.08401306604
20
13.2770050386318
30
0
41
1
10
153.095882584248
20
13.2744047584497
30
0
41
1
10
153.107732459213
20
13.2725243156085
30
0
0
SPLINE
5
CD
100
AcDbEntity
8
1
62
256
6
ByLayer
370
-1
48
1
60
0
100
AcDbSpline
70
4
71
3
72
18
73
14
40
0
40
0
40
0
40
0
40
0.211836540436655
40
0.211836540436655
40
0.386068103637781
40
0.386068103637781
40
0.561988670823325
40
0.561988670823325
40
0.714966026485492
40
0.714966026485492
40
0.917702501598291
40
0.917702501598291
40
1
40
1
40
1
40
1
41
1
10
155.208948841175
20
12.4918355703579
30
0
41
1
10
155.151099745038
20
12.5282718468036
30
0
41
1
10
155.084876930603
20
12.5573400363406
30
0
41
1
10
154.954497130208
20
12.5914238034475
30
0
41
1
10
154.890540565175
20
12.6000485990448
30
0
41
1
10
154.760610711361
20
12.6005515292608
30
0
41
1
10
154.692693588568
20
12.5921213447044
30
0
41
1
10
154.57387375505
20
12.5613597493164
30
0
41
1
10
154.520466415926
20
12.5406829080928
30
0
41
1
10
154.408811192791
20
12.4824693122772
30
0
41
1
10
154.352579685666
20
12.4407990831577
30
0
41
1
10
154.287013350026
20
12.37539278923
30
0
41
1
10
154.26939736776
20
12.3554412223588
30
0
41
1
10
154.253307111413
20
12.3347652792512
30
0
0
SPLINE
5
CE
100
AcDbEntity
8
1
62
256
6
ByLayer
370
-1
48
1
60
0
100
AcDbSpline
70
4
71
3
72
20
73
16
40
0
40
0
40
0
40
0
40
0.0831711499757104
40
0.0831711499757104
40
0.283772487336752
40
0.283772487336752
40
0.446005263396056
40
0.446005263396056
40
0.609073531248385
40
0.609073531248385
40
0.761434749393053
40
0.761434749393053
40
0.977525423648714
40
0.977525423648714
40
1
40
1
40
1
40
1
41
1
10
153.725264977493
20
12.5309547600241
30
0
41
1
10
153.727759515652
20
12.5567994146086
30
0
41
1
10
153.728584050523
20
12.5831058705976
30
0
41
1
10
153.725374672375
20
12.6735006779852
30
0
41
1
10
153.712671137536
20
12.7401125352635
30
0
41
1
10
153.668946678581
20
12.8581404208461
30
0
41
1
10
153.64125583549
20
12.9113048543914
30
0
41
1
10
153.572098763729
20
13.01009064317
30
0
41
1
10
153.529595878392
20
13.0569285613871
30
0
41
1
10
153.439932806018
20
13.1343497980175
30
0
41
1
10
153.392278871133
20
13.1667714504943
30
0
41
1
10
153.274783702966
20
13.2296185050981
30
0
41
1
10
153.201964179412
20
13.2548745748543
30
0
41
1
10
153.122809851171
20
13.2700097341361
30
0
41
1
10
153.115268799154
20
13.2713283826106
30
0
41
1
10
153.107732459213
20
13.2725243156085
30
0
0
SPLINE
5
CF
100
AcDbEntity
8
1
62
256
6
ByLayer
370
-1
48
1
60
0
100
AcDbSpline
70
4
71
3
72
12
73
8
40
0
40
0
40
0
40
0
40
0.320827239315337
40
0.320827239315337
40
0.789204208900015
40
0.789204208900015
40
1
40
1
40
1
40
1
41
1
10
155.597777131148
20
13.2755390992389
30
0
41
1
10
155.585676107538
20
13.22607531059
30
0
41
1
10
155.579515612901
20
13.1759973807459
30
0
41
1
10
155.578335210596
20
13.0580518872883
30
0
41
1
10
155.589549596577
20
12.9905662848869
30
0
41
1
10
155.619274014623
20
12.9015166911155
30
0
41
1
10
155.630455309709
20
12.8747982528088
30
0
41
1
10
155.643350895601
20
12.8492584976844
30
0
0
SPLINE
5
D0
100
AcDbEntity
8
1
62
256
6
ByLayer
370
-1
48
1
60
0
100
AcDbSpline
70
4
71
3
72
14
73
10
40
0
40
0
40
0
40
0
40
0.281777552868274
40
0.281777552868274
40
0.568375300414209
40
0.568375300414209
40
0.827761588091162
40
0.827761588091162
40
1
40
1
40
1
40
1
41
1
10
153.791789343637
20
15.0906373775214
30
0
41
1
10
153.764805342279
20
15.1118879688013
30
0
41
1
10
153.733590474721
20
15.128929950587
30
0
41
1
10
153.66657680427
20
15.1508576063972
30
0
41
1
10
153.629650221528
20
15.155807944876
30
0
41
1
10
153.560172194286
20
15.1510596696937
30
0
41
1
10
153.526494773349
20
15.1425738194591
30
0
41
1
10
153.475195778624
20
15.1186896123029
30
0
41
1
10
153.455561283608
20
15.1064081155101
30
0
41
1
10
153.437814581625
20
15.0919677862204
30
0
0
SPLINE
5
D1
100
AcDbEntity
8
1
62
256
6
ByLayer
370
-1
48
1
60
0
100
AcDbSpline
70
4
71
3
72
16
73
12
40
0
40
0
40
0
40
0
40
0.153488096215543
40
0.153488096215543
40
0.453867717686489
40
0.453867717686489
40
0.725400246506896
40
0.725400246506896
40
0.966010061298659
40
0.966010061298659
40
1
40
1
40
1
40
1
41
1
10
153.015974692325
20
13.8254373667691
30
0
41
1
10
152.999322329878
20
13.8191375260391
30
0
41
1
10
152.983164456882
20
13.8111370001148
30
0
41
1
10
152.938279575142
20
13.7828465063328
30
0
41
1
10
152.911437674496
20
13.7574227932267
30
0
41
1
10
152.872189248425
20
13.6998334699599
30
0
41
1
10
152.858097124145
20
13.6676125944
30
0
41
1
10
152.844066188764
20
13.6034220968495
30
0
41
1
10
152.842533624979
20
13.5709025286473
30
0
41
1
10
152.847012538201
20
13.534617429358
30
0
41
1
10
152.847682082352
20
13.5300800688378
30
0
41
1
10
152.848459276717
20
13.5255562751929
30
0
0
SPLINE
5
D2
100
AcDbEntity
8
1
62
256
6
ByLayer
370
-1
48
1
60
0
100
AcDbSpline
70
4
71
3
72
18
73
14
40
0
40
0
40
0
40
0
40
0.0444058700310532
40
0.0444058700310532
40
0.265538669958129
40
0.265538669958129
40
0.488411614017317
40
0.488411614017317
40
0.724770275215252
40
0.724770275215252
40
0.983870191669146
40
0.983870191669146
40
1
40
1
40
1
40
1
41
1
10
155.564286675493
20
12.5165141306195
30
0
41
1
10
155.568931794627
20
12.520293821626
30
0
41
1
10
155.573461304869
20
12.5242077763269
30
0
41
1
10
155.599573827252
20
12.5481600234168
30
0
41
1
10
155.618336407821
20
12.571420774613
30
0
41
1
10
155.647332250844
20
12.6208501066038
30
0
41
1
10
155.657886938594
20
12.6476601526465
30
0
41
1
10
155.670513877665
20
12.7026938137066
30
0
41
1
10
155.672223234601
20
12.7315884345715
30
0
41
1
10
155.666572911449
20
12.7891046282045
30
0
41
1
10
155.658289595588
20
12.8181589969917
30
0
41
1
10
155.644978159939
20
12.8459922921084
30
0
41
1
10
155.644172918989
20
12.8476304773527
30
0
41
1
10
155.643350895602
20
12.8492584976845
30
0
0
SPLINE
5
D3
100
AcDbEntity
8
1
62
256
6
ByLayer
370
-1
48
1
60
0
100
AcDbSpline
70
4
71
3
72
14
73
10
40
0
40
0
40
0
40
0
40
0.240457523365106
40
0.240457523365106
40
0.539144342665931
40
0.539144342665931
40
0.802265413733955
40
0.802265413733955
40
1
40
1
40
1
40
1
41
1
10
155.275473207323
20
15.0515181878532
30
0
41
1
10
155.278192811223
20
15.0812987766644
30
0
41
1
10
155.276790016539
20
15.1120764953882
30
0
41
1
10
155.263667095106
20
15.179314774706
30
0
41
1
10
155.249164133273
20
15.216476756648
30
0
41
1
10
155.209469916568
20
15.2781703240035
30
0
41
1
10
155.18509572674
20
15.3045791782853
30
0
41
1
10
155.135934561261
20
15.3410615127628
30
0
41
1
10
155.112268505333
20
15.3539486152789
30
0
41
1
10
155.087573339329
20
15.3631238902896
30
0
0
SPLINE
5
D4
100
AcDbEntity
8
1
62
256
6
ByLayer
370
-1
48
1
60
0
100
AcDbSpline
70
4
71
3
72
12
73
8
40
0
40
0
40
0
40
0
40
0.494250622933301
40
0.494250622933301
40
0.899392313103067
40
0.899392313103067
40
1
40
1
40
1
40
1
41
1
10
155.984741732533
20
13.7566203764611
30
0
41
1
10
155.919603813149
20
13.7232998040524
30
0
41
1
10
155.85692262952
20
13.6790726326992
30
0
41
1
10
155.755872653486
20
13.5812521688543
30
0
41
1
10
155.714126937344
20
13.5295855082811
30
0
41
1
10
155.671619251229
20
13.459313507738
30
0
41
1
10
155.663560181029
20
13.4449305463596
30
0
41
1
10
155.656007299352
20
13.4303055109507
30
0
0
SPLINE
5
D5
100
AcDbEntity
8
1
62
256
6
ByLayer
370
-1
48
1
60
0
100
AcDbSpline
70
4
71
3
72
14
73
10
40
0
40
0
40
0
40
0
40
0.258487552761688
40
0.258487552761688
40
0.548008474631587
40
0.548008474631587
40
0.809783084786082
40
0.809783084786082
40
1
40
1
40
1
40
1
41
1
10
155.208948841175
20
12.4918355703579
30
0
41
1
10
155.233907441365
20
12.4761153859997
30
0
41
1
10
155.262373809188
20
12.4637788029193
30
0
41
1
10
155.326556038806
20
12.4475500562815
30
0
41
1
10
155.363790369517
20
12.4446667576956
30
0
41
1
10
155.43415537161
20
12.4521988897749
30
0
41
1
10
155.468401071565
20
12.4615418110048
30
0
41
1
10
155.522757537974
20
12.4868766813687
30
0
41
1
10
155.544695255068
20
12.5005727707857
30
0
41
1
10
155.564286675493
20
12.5165141306195
30
0
0
SPLINE
5
D6
100
AcDbEntity
8
1
62
256
6
ByLayer
370
-1
48
1
60
0
100
AcDbSpline
70
4
71
3
72
16
73
12
40
0
40
0
40
0
40
0
40
0.0608852081988377
40
0.0608852081988377
40
0.281654449568971
40
0.281654449568971
40
0.505109599744004
40
0.505109599744004
40
0.742815590895528
40
0.742815590895528
40
1
40
1
40
1
40
1
41
1
10
153.437814581625
20
15.0919677862204
30
0
41
1
10
153.431455448476
20
15.0867934176674
30
0
41
1
10
153.425309316245
20
15.0813259592314
30
0
41
1
10
153.398191391187
20
15.0549872227119
30
0
41
1
10
153.379980727545
20
15.030600369343
30
0
41
1
10
153.352013085143
20
14.9781138619187
30
0
41
1
10
153.341984865993
20
14.9493163980574
30
0
41
1
10
153.330390368878
20
14.8895613713623
30
0
41
1
10
153.329228048089
20
14.857841856688
30
0
41
1
10
153.335935826187
20
14.7944850245589
30
0
41
1
10
153.344598853161
20
14.7622876105855
30
0
41
1
10
153.357365529258
20
14.7327992455411
30
0
0
SPLINE
5
D7
100
AcDbEntity
8
1
62
256
6
ByLayer
370
-1
48
1
60
0
100
AcDbSpline
70
4
71
3
72
16
73
12
40
0
40
0
40
0
40
0
40
0.0193018628932865
40
0.0193018628932865
40
0.332630061343766
40
0.332630061343766
40
0.618854736359872
40
0.618854736359872
40
0.870803500911831
40
0.870803500911831
40
1
40
1
40
1
40
1
41
1
10
155.984741732533
20
13.756620376461
30
0
41
1
10
155.98687025441
20
13.7577091979647
30
0
41
1
10
155.988989853802
20
13.7588237045091
30
0
41
1
10
156.024845090158
20
13.7781966611571
30
0
41
1
10
156.056678634005
20
13.8035127242983
30
0
41
1
10
156.106693805716
20
13.862148275112
30
0
41
1
10
156.126549629943
20
13.8955688051878
30
0
41
1
10
156.150980290543
20
13.9628370273903
30
0
41
1
10
156.157411549936
20
13.9971766683068
30
0
41
1
10
156.157957051712
20
14.0483744196773
30
0
41
1
10
156.156572673479
20
14.065867037872
30
0
41
1
10
156.153641980402
20
14.0829256416469
30
0
0
SPLINE
5
D8
100
AcDbEntity
8
1
62
256
6
ByLayer
370
-1
48
1
60
0
100
AcDbSpline
70
4
71
3
72
16
73
12
40
0
40
0
40
0
40
0
40
0.0379651332092717
40
0.0379651332092717
40
0.261228248810059
40
0.261228248810059
40
0.485851066939713
40
0.485851066939713
40
0.723758221382908
40
0.723758221382908
40
1
40
1
40
1
40
1
41
1
10
153.914527917789
20
12.2453580265504
30
0
41
1
10
153.919300941439
20
12.2435846509588
30
0
41
1
10
153.924122270812
20
12.2419270592512
30
0
41
1
10
153.957277433613
20
12.2314309685607
30
0
41
1
10
153.987280236655
20
12.2265277692236
30
0
41
1
10
154.045964140471
20
12.2252828476157
30
0
41
1
10
154.075385314952
20
12.2289559958653
30
0
41
1
10
154.131595925539
20
12.2440748289449
30
0
41
1
10
154.158840584503
20
12.2561279626917
30
0
41
1
10
154.210468846315
20
12.2886231884646
30
0
41
1
10
154.234441228187
20
12.3105226618675
30
0
41
1
10
154.253307111413
20
12.3347652792512
30
0
0
SPLINE
5
D9
100
AcDbEntity
8
1
62
256
6
ByLayer
370
-1
48
1
60
0
100
AcDbSpline
70
4
71
3
72
12
73
8
40
0
40
0
40
0
40
0
40
0.479945142107303
40
0.479945142107303
40
0.887583934692034
40
0.887583934692034
40
1
40
1
40
1
40
1
41
1
10
153.015974692326
20
13.8254373667646
30
0
41
1
10
153.078784684117
20
13.8491993372229
30
0
41
1
10
153.139269811662
20
13.8836706611927
30
0
41
1
10
153.239045457539
20
13.9668845608904
30
0
41
1
10
153.281187220061
20
14.0137918323645
30
0
41
1
10
153.325255933577
20
14.0821388635514
30
0
41
1
10
153.334289691851
20
14.0975396200471
30
0
41
1
10
153.342698850503
20
14.1133939001396
30
0
0
SPLINE
5
DA
100
AcDbEntity
8
1
62
256
6
ByLayer
370
-1
48
1
60
0
100
AcDbSpline
70
4
71
3
72
18
73
14
40
0
40
0
40
0
40
0
40
0.0377447206372737
40
0.0377447206372737
40
0.261122256024526
40
0.261122256024526
40
0.485845888099209
40
0.485845888099209
40
0.723849049176171
40
0.723849049176171
40
0.984560378782388
40
0.984560378782388
40
1
40
1
40
1
40
1
41
1
10
155.087573339329
20
15.3631238902896
30
0
41
1
10
155.082830200606
20
15.3648861623953
30
0
41
1
10
155.078038585769
20
15.3665190892741
30
0
41
1
10
155.044905582804
20
15.3768103248964
30
0
41
1
10
155.014865843502
20
15.3810156794744
30
0
41
1
10
154.956057316195
20
15.3799213233811
30
0
41
1
10
154.926546509844
20
15.3745731764623
30
0
41
1
10
154.870110223696
20
15.355246665188
30
0
41
1
10
154.842724063806
20
15.3405653163924
30
0
41
1
10
154.792287456801
20
15.3029348952732
30
0
41
1
10
154.769246082223
20
15.2788877941626
30
0
41
1
10
154.749604995112
20
15.2508980186449
30
0
41
1
10
154.7485104581
20
15.2493073862672
30
0
41
1
10
154.7474310734
20
15.247707668627
30
0
0
SPLINE
5
DB
100
AcDbEntity
8
SK1
62
256
6
ByLayer
370
-1
48
1
60
0
100
AcDbSpline
70
4
71
3
72
10
73
6
40
0
40
0
40
0
40
0
40
0.5
40
0.5
40
1
40
1
40
1
40
1
41
1
10
-138.836
20
7.57100492421586
30
0
41
1
10
-139.751720015059
20
5.15328673564841
30
0
41
1
10
-140.323815900012
20
2.61766499305557
30
0
41
1
10
-140.326678525705
20
-2.597354971751
30
0
41
1
10
-139.748549752422
20
-5.16165698148063
30
0
41
1
10
-138.836
20
-7.57100492421586
30
0
0
SPLINE
5
DC
100
AcDbEntity
8
SK1
62
256
6
ByLayer
370
-1
48
1
60
0
100
AcDbSpline
70
4
71
3
72
8
73
4
40
0
40
0
40
0
40
0
40
1
40
1
40
1
40
1
41
1
10
-141.314472909233
20
17.51075
30
0
41
1
10
-141.320375308792
20
17.51075
30
0
41
1
10
-140.302889179277
20
17.51075
30
0
41
1
10
-138.836
20
17.51075
30
0
0
LINE
5
4A
100
AcDbEntity
8
80
62
256
6
ByLayer
370
-1
48
1
60
0
100
AcDbLine
10
0
20
0
30
0
11
-10
21
0
31
0
39
0
210
0
220
0
230
1
0
LINE
5
4B
100
AcDbEntity
8
81
62
256
6
ByLayer
370
-1
48
1
60
0
100
AcDbLine
10
159.914
20
26.9
30
0
11
169.914
21
26.9
31
0
39
0
210
0
220
0
230
1
0
LINE
5
4C
100
AcDbEntity
8
SK4
62
256
6
ByLayer
370
-1
48
0.05
60
0
100
AcDbLine
10
-146.336
20
0
30
0
11
164.828774
21
0
31
0
39
0
210
0
220
0
230
1
0
LINE
5
4E
100
AcDbEntity
8
4
62
256
6
ByLayer
370
-1
48
0.05
60
0
100
AcDbLine
10
0
20
0
30
0
11
164.828774
21
0
31
0
39
0
210
0
220
0
230
1
0
LINE
5
50
100
AcDbEntity
8
1
62
256
6
ByLayer
370
-1
48
1
60
0
100
AcDbLine
10
0
20
-19.98925
30
0
11
138.805343
21
-19.98925
31
0
39
0
210
0
220
0
230
1
0
LINE
5
51
100
AcDbEntity
8
1
62
256
6
ByLayer
370
-1
48
1
60
0
100
AcDbLine
10
153.72559
20
12.526225
30
0
11
153.727204
21
12.557025
31
0
39
0
210
0
220
0
230
1
0
LINE
5
52
100
AcDbEntity
8
1
62
256
6
ByLayer
370
-1
48
1
60
0
100
AcDbLine
10
157.113695
20
13.499743
30
0
11
157.12073
21
13.63398
31
0
39
0
210
0
220
0
230
1
0
LINE
5
53
100
AcDbEntity
8
1
62
256
6
ByLayer
370
-1
48
1
60
0
100
AcDbLine
10
151.877925
20
13.908744
30
0
11
151.87089
21
13.774507
31
0
39
0
210
0
220
0
230
1
0
LINE
5
54
100
AcDbEntity
8
1
62
256
6
ByLayer
370
-1
48
1
60
0
100
AcDbLine
10
155.579881
20
13.154894
30
0
11
155.572503
21
13.014114
31
0
39
0
210
0
220
0
230
1
0
LINE
5
55
100
AcDbEntity
8
1
62
256
6
ByLayer
370
-1
48
1
60
0
100
AcDbLine
10
155.273368
20
15.022264
30
0
11
155.265214
21
14.866689
31
0
39
0
210
0
220
0
230
1
0
LINE
5
56
100
AcDbEntity
8
1
62
256
6
ByLayer
370
-1
48
1
60
0
100
AcDbLine
10
153.411769
20
14.254167
30
0
11
153.419145
21
14.394912
31
0
39
0
210
0
220
0
230
1
0
LINE
5
57
100
AcDbEntity
8
1
62
256
6
ByLayer
370
-1
48
1
60
0
100
AcDbLine
10
149.209282
20
1.124573
30
0
11
149.265638
21
1.036591
31
0
39
0
210
0
220
0
230
1
0
LINE
5
58
100
AcDbEntity
8
SK1
62
256
6
ByLayer
370
-1
48
1
60
0
100
AcDbLine
10
-138.836
20
-19.98925
30
0
11
0
21
-19.98925
31
0
39
0
210
0
220
0
230
1
0
LINE
5
5A
100
AcDbEntity
8
SK1
62
256
6
ByLayer
370
-1
48
1
60
0
100
AcDbLine
10
-141.3145
20
17.51075
30
0
11
-141.336
21
17.48925
31
0
39
0
210
0
220
0
230
1
0
LINE
5
5B
100
AcDbEntity
8
SK1
62
256
6
ByLayer
370
-1
48
1
60
0
100
AcDbLine
10
-141.336
20
-17.48925
30
0
11
-138.836
21
-19.98925
31
0
39
0
210
0
220
0
230
1
0
LINE
5
5C
100
AcDbEntity
8
1
62
256
6
ByLayer
370
-1
48
1
60
0
100
AcDbLine
10
150.149101
20
0.693964
30
0
11
150.153746
21
0.698985
31
0
39
0
210
0
220
0
230
1
0
LINE
5
5D
100
AcDbEntity
8
1
62
256
6
ByLayer
370
-1
48
1
60
0
100
AcDbLine
10
0
20
17.51075
30
0
11
111.183988
21
17.51075
31
0
39
0
210
0
220
0
230
1
0
LINE
5
5E
100
AcDbEntity
8
1
62
256
6
ByLayer
370
-1
48
1
60
0
100
AcDbLine
10
0
20
-19.98925
30
0
11
0
21
-7.571005
31
0
39
0
210
0
220
0
230
1
0
LINE
5
5F
100
AcDbEntity
8
1
62
256
6
ByLayer
370
-1
48
1
60
0
100
AcDbLine
10
147.38433
20
2.083841
30
0
11
147.403398
21
2.447683
31
0
39
0
210
0
220
0
230
1
0
LINE
5
60
100
AcDbEntity
8
1
62
256
6
ByLayer
370
-1
48
1
60
0
100
AcDbLine
10
148.763013
20
14.545547
30
0
11
149.7516
21
14.178246
31
0
39
0
210
0
220
0
230
1
0
LINE
5
61
100
AcDbEntity
8
1
62
256
6
ByLayer
370
-1
48
1
60
0
100
AcDbLine
10
0
20
17.51075
30
0
11
0
21
7.571005
31
0
39
0
210
0
220
0
230
1
0
LINE
5
62
100
AcDbEntity
8
1
62
256
6
ByLayer
370
-1
48
1
60
0
100
AcDbLine
10
159.095234
20
10.7067
30
0
11
158.53412
21
0
31
0
39
0
210
0
220
0
230
1
0
LINE
5
63
100
AcDbEntity
8
1
62
256
6
ByLayer
370
-1
48
1
60
0
100
AcDbLine
10
148.77738
20
-9.885555
30
0
11
158.53412
21
0
31
0
39
0
210
0
220
0
230
1
0
LINE
5
64
100
AcDbEntity
8
1
62
256
6
ByLayer
370
-1
48
1
60
0
100
AcDbLine
10
139.807602
20
-18.973758
30
0
11
148.77738
21
-9.885555
31
0
39
0
210
0
220
0
230
1
0
LINE
5
65
100
AcDbEntity
8
1
62
256
6
ByLayer
370
-1
48
1
60
0
100
AcDbLine
10
0
20
-7.571005
30
0
11
110.387474
21
-7.571005
31
0
39
0
210
0
220
0
230
1
0
LINE
5
66
100
AcDbEntity
8
1
62
256
6
ByLayer
370
-1
48
1
60
0
100
AcDbLine
10
147.403398
20
2.447683
30
0
11
149.260535
21
4.808196
31
0
39
0
210
0
220
0
230
1
0
LINE
5
67
100
AcDbEntity
8
1
62
256
6
ByLayer
370
-1
48
1
60
0
100
AcDbLine
10
104.467793
20
7.571005
30
0
11
0
21
7.571005
31
0
39
0
210
0
220
0
230
1
0
LINE
5
68
100
AcDbEntity
8
1
62
256
6
ByLayer
370
-1
48
1
60
0
100
AcDbLine
10
149.31889
20
5.921412
30
0
11
147.162933
21
3.181084
31
0
39
0
210
0
220
0
230
1
0
LINE
5
69
100
AcDbEntity
8
1
62
256
6
ByLayer
370
-1
48
1
60
0
100
AcDbLine
10
0
20
-7.571005
30
0
11
0
21
7.571005
31
0
39
0
210
0
220
0
230
1
0
LINE
5
6A
100
AcDbEntity
8
1
62
256
6
ByLayer
370
-1
48
1
60
0
100
AcDbLine
10
139.807602
20
-18.973758
30
0
11
138.805343
21
-19.98925
31
0
39
0
210
0
220
0
230
1
0
LINE
5
6B
100
AcDbEntity
8
1
62
256
6
ByLayer
370
-1
48
1
60
0
100
AcDbLine
10
147.899728
20
0.041607
30
0
11
147.88066
21
-0.322235
31
0
39
0
210
0
220
0
230
1
0
LINE
5
6C
100
AcDbEntity
8
1
62
256
6
ByLayer
370
-1
48
1
60
0
100
AcDbLine
10
147.38433
20
2.083841
30
0
11
149.241467
21
4.444355
31
0
39
0
210
0
220
0
230
1
0
LINE
5
6D
100
AcDbEntity
8
1
62
256
6
ByLayer
370
-1
48
1
60
0
100
AcDbLine
10
142.049303
20
15.049941
30
0
11
148.77738
21
-9.885555
31
0
39
0
210
0
220
0
230
1
0
LINE
5
6E
100
AcDbEntity
8
1
62
256
6
ByLayer
370
-1
48
1
60
0
100
AcDbLine
10
159.095234
20
10.7067
30
0
11
158.312231
21
10.997618
31
0
39
0
210
0
220
0
230
1
0
LINE
5
6F
100
AcDbEntity
8
1
62
256
6
ByLayer
370
-1
48
1
60
0
100
AcDbLine
10
150.130033
20
0.330123
30
0
11
150.149101
21
0.693964
31
0
39
0
210
0
220
0
230
1
0
LINE
5
70
100
AcDbEntity
8
1
62
256
6
ByLayer
370
-1
48
1
60
0
100
AcDbLine
10
150.149101
20
0.693964
30
0
11
150.151605
21
0.697146
31
0
39
0
210
0
220
0
230
1
0
LINE
5
71
100
AcDbEntity
8
1
62
256
6
ByLayer
370
-1
48
1
60
0
100
AcDbLine
10
111.183988
20
17.51075
30
0
11
139.148436
21
17.51075
31
0
39
0
210
0
220
0
230
1
0
LINE
5
72
100
AcDbEntity
8
1
62
256
6
ByLayer
370
-1
48
1
60
0
100
AcDbLine
10
147.162933
20
3.181084
30
0
11
147.403398
21
2.447683
31
0
39
0
210
0
220
0
230
1
0
LINE
5
73
100
AcDbEntity
8
SK1
62
256
6
ByLayer
370
-1
48
1
60
0
100
AcDbLine
10
0
20
-7.571005
30
0
11
0
21
7.571005
31
0
39
0
210
0
220
0
230
1
0
LINE
5
74
100
AcDbEntity
8
1
62
256
6
ByLayer
370
-1
48
1
60
0
100
AcDbLine
10
149.086844
20
1.493651
30
0
11
149.818434
21
15.453224
31
0
39
0
210
0
220
0
230
1
0
LINE
5
75
100
AcDbEntity
8
1
62
256
6
ByLayer
370
-1
48
1
60
0
100
AcDbLine
10
159.103547
20
12.003421
30
0
11
150.439559
21
0.991062
31
0
39
0
210
0
220
0
230
1
0
LINE
5
76
100
AcDbEntity
8
1
62
256
6
ByLayer
370
-1
48
1
60
0
100
AcDbLine
10
159.918978
20
26.18583
30
0
11
159.187388
21
12.226257
31
0
39
0
210
0
220
0
230
1
0
LINE
5
77
100
AcDbEntity
8
1
62
256
6
ByLayer
370
-1
48
1
60
0
100
AcDbLine
10
149.902276
20
15.67606
30
0
11
158.566263
21
26.68842
31
0
39
0
210
0
220
0
230
1
0
LINE
5
78
100
AcDbEntity
8
1
62
256
6
ByLayer
370
-1
48
1
60
0
100
AcDbLine
10
158.333768
20
11.024997
30
0
11
158.33195
21
10.990292
31
0
39
0
210
0
220
0
230
1
0
LINE
5
79
100
AcDbEntity
8
1
62
256
6
ByLayer
370
-1
48
1
60
0
100
AcDbLine
10
155.635129
20
12.69237
30
0
11
155.643351
21
12.849258
31
0
39
0
210
0
220
0
230
1
0
LINE
5
7A
100
AcDbEntity
8
1
62
256
6
ByLayer
370
-1
48
1
60
0
100
AcDbLine
10
155.884773
20
14.152853
30
0
11
155.893006
21
14.309949
31
0
39
0
210
0
220
0
230
1
0
LINE
5
7B
100
AcDbEntity
8
1
62
256
6
ByLayer
370
-1
48
1
60
0
100
AcDbLine
10
154.739198
20
15.090612
30
0
11
154.747431
21
15.247708
31
0
39
0
210
0
220
0
230
1
0
LINE
5
7C
100
AcDbEntity
8
1
62
256
6
ByLayer
370
-1
48
1
60
0
100
AcDbLine
10
153.783556
20
14.933541
30
0
11
153.791789
21
15.090637
31
0
39
0
210
0
220
0
230
1
0
LINE
5
7D
100
AcDbEntity
8
1
62
256
6
ByLayer
370
-1
48
1
60
0
100
AcDbLine
10
153.007753
20
13.668549
30
0
11
153.015975
21
13.825437
31
0
39
0
210
0
220
0
230
1
0
LINE
5
7E
100
AcDbEntity
8
1
62
256
6
ByLayer
370
-1
48
1
60
0
100
AcDbLine
10
153.342699
20
14.113394
30
0
11
153.335482
21
13.975685
31
0
39
0
210
0
220
0
230
1
0
LINE
5
7F
100
AcDbEntity
8
1
62
256
6
ByLayer
370
-1
48
1
60
0
100
AcDbLine
10
153.393712
20
14.130451
30
0
11
153.400929
21
14.26816
31
0
39
0
210
0
220
0
230
1
0
LINE
5
80
100
AcDbEntity
8
SK1
62
256
6
ByLayer
370
-1
48
1
60
0
100
AcDbLine
10
-138.836
20
7.571005
30
0
11
-138.836
21
17.51075
31
0
39
0
210
0
220
0
230
1
0
LINE
5
81
100
AcDbEntity
8
SK1
62
256
6
ByLayer
370
-1
48
1
60
0
100
AcDbLine
10
-138.836
20
-7.571005
30
0
11
0
21
-7.571005
31
0
39
0
210
0
220
0
230
1
0
LINE
5
82
100
AcDbEntity
8
SK1
62
256
6
ByLayer
370
-1
48
1
60
0
100
AcDbLine
10
-138.836
20
17.51075
30
0
11
0
21
17.51075
31
0
39
0
210
0
220
0
230
1
0
LINE
5
83
100
AcDbEntity
8
SK1
62
256
6
ByLayer
370
-1
48
1
60
0
100
AcDbLine
10
0
20
17.51075
30
0
11
0
21
7.571005
31
0
39
0
210
0
220
0
230
1
0
LINE
5
84
100
AcDbEntity
8
SK1
62
256
6
ByLayer
370
-1
48
1
60
0
100
AcDbLine
10
0
20
7.571005
30
0
11
-138.836
21
7.571005
31
0
39
0
210
0
220
0
230
1
0
LINE
5
85
100
AcDbEntity
8
SK1
62
256
6
ByLayer
370
-1
48
1
60
0
100
AcDbLine
10
0
20
-19.98925
30
0
11
0
21
-7.571005
31
0
39
0
210
0
220
0
230
1
0
LINE
5
86
100
AcDbEntity
8
SK1
62
256
6
ByLayer
370
-1
48
1
60
0
100
AcDbLine
10
-138.836
20
-19.98925
30
0
11
-138.836
21
-7.571005
31
0
39
0
210
0
220
0
230
1
0
LINE
5
87
100
AcDbEntity
8
SK1
62
256
6
ByLayer
370
-1
48
1
60
0
100
AcDbLine
10
-141.336
20
-17.48925
30
0
11
-141.336
21
17.48925
31
0
39
0
210
0
220
0
230
1
0
LINE
5
88
100
AcDbEntity
8
2
62
256
6
ByLayer
370
-1
48
1
60
1
100
AcDbLine
10
159.914
20
0
30
0
11
159.915
21
0.001
31
0
39
0
210
0
220
0
230
1
0
MTEXT
5
DD
100
AcDbEntity
8
SK6
62
256
6
ByLayer
370
-1
48
1
60
0
100
AcDbMText
10
12.664
20
-34.30977
30
0
210
0
220
0
230
1
1
\W00.801;\fsimplex.shx,bigfont.shx;A40T-SVUBR 16 
40
3.5
41
0
44
1.084337
50
0
71
7
72
5
7
DEFAULT
0
DIMENSION
5
110
100
AcDbEntity
8
2
62
256
6
ByLayer
370
-3
48
1
60
0
100
AcDbDimension
2
DimnDraft3D1
10
172.164
20
0
30
0
11
172.164
21
8.286842
31
0
70
32
71
5
72
1
41
1
210
0
220
0
230
1
3
Standard
100
AcDbAlignedDimension
13
161.914
23
26.9
33
0
14
161.914
24
0
34
0
50
90
100
AcDbRotatedDimension
1001
ACAD
1000
DSTYLE
1002
{
1070
    74
1070
     0
1070
   279
1070
     0
1070
   172
1070
     1
1070
   173
1070
     1
1070
   340
1005
DE
1070
    77
1070
     1
1070
    73
1070
     0
1070
   171
1070
     4
1070
   274
1070
     4
1070
   177
1070
     2
1070
   176
1070
     2
1070
   178
1070
     7
1070
    78
1070
     8
1070
    41
1041
3.175
1070
   147
1041
2.25
1070
    42
1041
2.0
1070
    44
1041
2.0
1070
   140
1041
4.5
1070
   343
1005
111
1070
   344
1005
111
1002
}
0
DIMENSION
5
126
100
AcDbEntity
8
SK2
62
256
6
ByLayer
370
-3
48
1
60
0
100
AcDbDimension
2
DimnDraft3D2
10
-151.086
20
19.98925
30
0
11
-151.086
21
-5.021053
31
0
70
32
71
5
72
1
41
1
210
0
220
0
230
1
3
Standard
100
AcDbAlignedDimension
13
-143.336
23
-19.98925
33
0
14
-143.336
24
19.98925
34
0
50
90
100
AcDbRotatedDimension
1001
ACAD
1000
DSTYLE
1002
{
1070
    74
1070
     0
1070
   279
1070
     0
1070
   172
1070
     1
1070
   173
1070
     1
1070
   340
1005
DE
1070
    77
1070
     1
1070
    73
1070
     0
1070
   171
1070
     4
1070
   274
1070
     4
1070
   177
1070
     2
1070
   176
1070
     2
1070
   178
1070
     7
1070
    78
1070
     8
1070
    41
1041
3.175
1070
   147
1041
2.25
1070
    42
1041
2.0
1070
    44
1041
2.0
1070
   140
1041
4.5
1070
   343
1005
111
1070
   344
1005
111
1002
}
0
DIMENSION
5
134
100
AcDbEntity
8
SK2
62
256
6
ByLayer
370
-3
48
1
60
0
100
AcDbDimension
2
DimnDraft3D3
10
-141.336
20
39.65
30
0
11
2.473868
21
39.65
31
0
70
32
71
5
72
1
41
1
210
0
220
0
230
1
3
Standard
100
AcDbAlignedDimension
13
159.914
23
28.9
33
0
14
-141.336
24
21.98925
34
0
50
0
100
AcDbRotatedDimension
1001
ACAD
1000
DSTYLE
1002
{
1070
   279
1070
     0
1070
   172
1070
     1
1070
   173
1070
     1
1070
   340
1005
DE
1070
    77
1070
     1
1070
    73
1070
     0
1070
   171
1070
     4
1070
   274
1070
     4
1070
   177
1070
     2
1070
   176
1070
     2
1070
   178
1070
     7
1070
    78
1070
     8
1070
    41
1041
3.175
1070
   147
1041
2.25
1070
    42
1041
2.0
1070
    44
1041
2.0
1070
   140
1041
4.5
1070
   343
1005
111
1070
   344
1005
111
1002
}
0
DIMENSION
5
142
100
AcDbEntity
8
2
62
256
6
ByLayer
370
-3
48
1
60
0
100
AcDbDimension
2
DimnDraft3D4
10
207.430638
20
0
30
0
11
184.636042
21
-36.792664
31
0
70
34
71
5
72
1
41
1
210
0
220
0
230
1
3
Standard
100
AcDb2LineAngularDimension
13
158.971953
23
8.924668
33
0
14
155.94362
24
-48.859355
34
0
15
161.914
25
0
35
0
16
187.708642
26
-30.775028
36
0
40
0
0
ENDSEC
0
SECTION
2
OBJECTS
0
DICTIONARY
5
173
330
0
100
AcDbDictionary
280
0
281
1
3
ACAD_GROUP
350
174
3
ACAD_MLINESTYLE
350
175
0
DICTIONARY
5
174
330
0
100
AcDbDictionary
280
0
281
1
0
DICTIONARY
5
175
330
0
100
AcDbDictionary
280
0
281
1
3
Standard
350
18
0
MLINESTYLE
5
18
330
175
100
AcDbMlineStyle
2
Standard
70
0
3

62
256
51
90
52
90
71
2
49
-0.5
62
256
6
ByLayer
49
0.5
62
256
6
ByLayer
0
RASTERVARIABLES
5
161
330

100
AcDbRasterVariables
90
0
70
1
71
1
72
1
0
ENDSEC
0
EOF
