0
SECTION
2
HEADER
9
$ACADVER
1
AC1015
9
$DWGCODEPAGE
3
ANSI_1252
9
$HANDSEED
5
273
9
$ANGBASE
50
0
9
$ANGDIR
70
0
9
$ATTMODE
70
1
9
$AUNITS
70
0
9
$AUPREC
70
0
9
$CECOLOR
62
256
9
$CELTSCALE
40
1
9
$CELTYPE
6
ByLayer
9
$CELWEIGHT
370
18
9
$CLAYER
8
0
9
$CMLJUST
70
0
9
$CMLSCALE
40
1
9
$CMLSTYLE
2
Standard
9
$DIMSTYLE
2
Standard
9
$TEXTSIZE
40
0.2
9
$TEXTSTYLE
7
Standard
9
$LUNITS
70
2
9
$LUPREC
70
4
9
$EXTNAMES
290
1
9
$INSUNITS
70
4
9
$LTSCALE
40
1
9
$LWDISPLAY
290
1
9
$PDMODE
70
0
9
$PDSIZE
40
0
9
$PLINEGEN
70
0
0
ENDSEC
0
SECTION
2
CLASSES
0
CLASS
1
RASTERVARIABLES
2
AcDbRasterVariables
3
ISM
90
0
280
0
281
0
0
ENDSEC
0
SECTION
2
TABLES
0
TABLE
2
VPORT
5
269
100
AcDbSymbolTable
0
VPORT
5
1
100
AcDbSymbolTableRecord
100
AcDbViewportTableRecord
2
*Active
70
0
10
0
20
0
11
1
21
1
12
-1
22
1
13
0
23
0
14
0.5
24
0.5
15
10
25
10
16
0
26
0
36
1
17
0
27
0
37
0
0
ENDTAB
0
TABLE
2
LTYPE
5
26a
100
AcDbSymbolTable
0
LTYPE
5
14
100
AcDbSymbolTableRecord
100
AcDbLinetypeTableRecord
70
0
2
ByBlock
3

72
65
73
0
40
0
0
LTYPE
5
15
100
AcDbSymbolTableRecord
100
AcDbLinetypeTableRecord
70
0
2
ByLayer
3

72
65
73
0
40
0
0
LTYPE
5
16
100
AcDbSymbolTableRecord
100
AcDbLinetypeTableRecord
70
0
2
CONTINUOUS
3
Solid line
72
65
73
0
40
0
0
LTYPE
5
6A
100
AcDbSymbolTableRecord
100
AcDbLinetypeTableRecord
70
0
2
CENTER
3
____ _ ____ _ ____ _ ____
72
65
73
4
40
47.5
49
22
74
0
49
-8.5
74
0
49
8.5
74
0
49
-8.5
74
0
0
LTYPE
5
6B
100
AcDbSymbolTableRecord
100
AcDbLinetypeTableRecord
70
0
2
DASHED
3
__ __ __ __ __ __ __ __ __
72
65
73
2
40
25.72
49
12.86
74
0
49
-12.86
74
0
0
ENDTAB
0
TABLE
2
LAYER
5
26b
100
AcDbSymbolTable
0
LAYER
5
10
100
AcDbSymbolTableRecord
100
AcDbLayerTableRecord
2
0
70
0
62
7
6
CONTINUOUS
290
1
370
-3
390
0
0
LAYER
5
6F
100
AcDbSymbolTableRecord
100
AcDbLayerTableRecord
2
80
70
0
62
-6
6
CONTINUOUS
290
1
370
-3
390
0
0
LAYER
5
71
100
AcDbSymbolTableRecord
100
AcDbLayerTableRecord
2
81
70
0
62
-3
6
CONTINUOUS
290
1
370
-3
390
0
0
LAYER
5
74
100
AcDbSymbolTableRecord
100
AcDbLayerTableRecord
2
1
70
0
62
4
6
CONTINUOUS
290
1
370
-3
390
0
0
LAYER
5
BC
100
AcDbSymbolTableRecord
100
AcDbLayerTableRecord
2
4
70
0
62
-2
6
CENTER
290
1
370
-3
390
0
0
LAYER
5
1CB
100
AcDbSymbolTableRecord
100
AcDbLayerTableRecord
2
2
70
0
62
7
6
CONTINUOUS
290
1
370
-3
390
0
0
LAYER
5
255
100
AcDbSymbolTableRecord
100
AcDbLayerTableRecord
2
SK2
70
0
62
7
6
CONTINUOUS
290
1
370
-3
390
0
0
LAYER
5
256
100
AcDbSymbolTableRecord
100
AcDbLayerTableRecord
2
SK1
70
0
62
4
6
CONTINUOUS
290
1
370
-3
390
0
0
LAYER
5
257
100
AcDbSymbolTableRecord
100
AcDbLayerTableRecord
2
SK4
70
0
62
2
6
CENTER
290
1
370
-3
390
0
0
LAYER
5
258
100
AcDbSymbolTableRecord
100
AcDbLayerTableRecord
2
SK6
70
0
62
5
6
CONTINUOUS
290
1
370
-3
390
0
0
ENDTAB
0
TABLE
2
STYLE
5
26c
100
AcDbSymbolTable
0
STYLE
5
11
100
AcDbSymbolTableRecord
100
AcDbTextStyleTableRecord
2
Standard
3
txt
70
0
71
0
40
0
41
1
42
0
50
0
0
STYLE
5
1C5
100
AcDbSymbolTableRecord
100
AcDbTextStyleTableRecord
2
iso_b_vert
3
simplex.shx
70
0
71
0
40
0
41
1
42
0
50
0
0
STYLE
5
1C6
100
AcDbSymbolTableRecord
100
AcDbTextStyleTableRecord
2
DWGDirectTextStyle
3
simplex
70
0
71
0
40
0
41
1
42
0
50
0
0
ENDTAB
0
TABLE
2
DIMSTYLE
5
26d
100
AcDbSymbolTable
100
AcDbDimStyleTable
0
DIMSTYLE
105
27
100
AcDbSymbolTableRecord
100
AcDbDimStyleTableRecord
2
Standard
70
0
3
<>
41
0.18
42
0.0625
44
0.18
140
0.18
147
0.09
73
0
74
0
77
1
271
2
275
0
278
52
280
0
340
11
0
ENDTAB
0
TABLE
2
VIEW
5
26e
100
AcDbSymbolTable
0
ENDTAB
0
TABLE
2
UCS
5
26f
100
AcDbSymbolTable
0
ENDTAB
0
TABLE
2
APPID
5
270
100
AcDbSymbolTable
0
APPID
5
12
100
AcDbSymbolTableRecord
100
AcDbRegAppTableRecord
2
ACAD
70
0
0
ENDTAB
0
TABLE
2
BLOCK_RECORD
5
271
100
AcDbSymbolTable
0
BLOCK_RECORD
5
1F
100
AcDbSymbolTableRecord
100
AcDbBlockTableRecord
2
*Model_Space
340
0
70
0
0
BLOCK_RECORD
5
1B
100
AcDbSymbolTableRecord
100
AcDbBlockTableRecord
2
*Paper_Space
340
0
70
0
0
BLOCK_RECORD
5
23
100
AcDbSymbolTableRecord
100
AcDbBlockTableRecord
2
*Paper_Space0
340
0
70
0
0
BLOCK_RECORD
5
1C9
100
AcDbSymbolTableRecord
100
AcDbBlockTableRecord
2
DimnDraft3D1
340
0
70
0
0
BLOCK_RECORD
5
1D4
100
AcDbSymbolTableRecord
100
AcDbBlockTableRecord
2
DimnDraft3D2
340
0
70
0
0
BLOCK_RECORD
5
1DE
100
AcDbSymbolTableRecord
100
AcDbBlockTableRecord
2
DimnDraft3D3
340
0
70
0
0
BLOCK_RECORD
5
1E8
100
AcDbSymbolTableRecord
100
AcDbBlockTableRecord
2
DimnDraft3D4
340
0
70
0
0
BLOCK_RECORD
5
1F2
100
AcDbSymbolTableRecord
100
AcDbBlockTableRecord
2
DimnDraft3D5
340
0
70
0
0
ENDTAB
0
ENDSEC
0
SECTION
2
BLOCKS
0
BLOCK
5
20
100
AcDbEntity
8
0
100
AcDbBlockBegin
2
*Model_Space
70
0
10
0
20
0
30
0
3
*Model_Space
0
ENDBLK
5
21
100
AcDbEntity
8
0
100
AcDbBlockEnd
0
BLOCK
5
1C
100
AcDbEntity
8
0
100
AcDbBlockBegin
2
*Paper_Space
70
0
10
0
20
0
30
0
3
*Paper_Space
0
ENDBLK
5
1D
100
AcDbEntity
8
0
100
AcDbBlockEnd
0
BLOCK
5
24
100
AcDbEntity
8
0
100
AcDbBlockBegin
2
*Paper_Space0
70
0
10
0
20
0
30
0
3
*Paper_Space0
0
ENDBLK
5
25
100
AcDbEntity
8
0
100
AcDbBlockEnd
0
BLOCK
5
1D1
100
AcDbEntity
8
0
100
AcDbBlockBegin
2
DimnDraft3D1
70
0
10
0
20
0
30
0
3
DimnDraft3D1
0
MTEXT
5
1CA
100
AcDbEntity
8
2
62
256
6
ByLayer
370
18
48
1
60
0
100
AcDbMText
10
20.65
20
57.135065
30
0
210
0
220
0
230
1
1
\W0.7493;47.0
40
3
41
0
44
1.084337
50
0
71
7
72
5
7
iso_b_vert
0
LINE
5
1CC
100
AcDbEntity
8
2
62
256
6
ByLayer
370
13
48
1
60
0
100
AcDbLine
10
0
20
26.69375
30
0
11
0
21
58.385065
31
0
39
0
210
0
220
0
230
1
0
LINE
5
1CD
100
AcDbEntity
8
2
62
256
6
ByLayer
370
13
48
1
60
0
100
AcDbLine
10
47
20
33
30
0
11
47
21
58.385065
31
0
39
0
210
0
220
0
230
1
0
LINE
5
1CE
100
AcDbEntity
8
2
62
256
6
ByLayer
370
13
48
1
60
0
100
AcDbLine
10
0
20
56.385065
30
0
11
47
21
56.385065
31
0
39
0
210
0
220
0
230
1
0
SOLID
5
1CF
100
AcDbEntity
8
2
62
256
6
ByLayer
370
13
48
1
60
0
100
AcDbTrace
10
0
20
56.385065
30
0
11
3.174998
21
56.803061
31
0
12
3.175002
22
55.967068
32
0
13
0
23
56.385065
33
0
39
0
210
0
220
0
230
1
0
SOLID
5
1D0
100
AcDbEntity
8
2
62
256
6
ByLayer
370
13
48
1
60
0
100
AcDbTrace
10
47
20
56.385065
30
0
11
43.825002
21
55.967068
31
0
12
43.824998
22
56.803061
32
0
13
47
23
56.385065
33
0
39
0
210
0
220
0
230
1
0
ENDBLK
5
1D2
100
AcDbEntity
8
0
100
AcDbBlockEnd
0
BLOCK
5
1DB
100
AcDbEntity
8
0
100
AcDbBlockBegin
2
DimnDraft3D2
70
0
10
0
20
0
30
0
3
DimnDraft3D2
0
MTEXT
5
1D5
100
AcDbEntity
8
SK2
62
256
6
ByLayer
370
18
48
1
60
0
100
AcDbMText
10
-36.567043
20
-3.323684
30
0
210
0
220
0
230
1
1
\W0.7884;%%c 50
40
3
41
0
44
1.084337
50
90
71
7
72
5
7
iso_b_vert
0
LINE
5
1D6
100
AcDbEntity
8
SK2
62
256
6
ByLayer
370
13
48
1
60
0
100
AcDbLine
10
-1.7
20
-24.99375
30
0
11
-37.817043
21
-24.99375
31
0
39
0
210
0
220
0
230
1
0
LINE
5
1D7
100
AcDbEntity
8
SK2
62
256
6
ByLayer
370
13
48
1
60
0
100
AcDbLine
10
-1.7
20
24.99375
30
0
11
-37.817043
21
24.99375
31
0
39
0
210
0
220
0
230
1
0
LINE
5
1D8
100
AcDbEntity
8
SK2
62
256
6
ByLayer
370
13
48
1
60
0
100
AcDbLine
10
-35.817043
20
-24.99375
30
0
11
-35.817043
21
24.99375
31
0
39
0
210
0
220
0
230
1
0
SOLID
5
1D9
100
AcDbEntity
8
SK2
62
256
6
ByLayer
370
13
48
1
60
0
100
AcDbTrace
10
-35.817043
20
-24.99375
30
0
11
-36.23504
21
-21.818752
31
0
12
-35.399046
22
-21.818748
32
0
13
-35.817043
23
-24.99375
33
0
39
0
210
0
220
0
230
1
0
SOLID
5
1DA
100
AcDbEntity
8
SK2
62
256
6
ByLayer
370
13
48
1
60
0
100
AcDbTrace
10
-35.817043
20
24.99375
30
0
11
-35.399046
21
21.818752
31
0
12
-36.23504
22
21.818748
32
0
13
-35.817043
23
24.99375
33
0
39
0
210
0
220
0
230
1
0
ENDBLK
5
1DC
100
AcDbEntity
8
0
100
AcDbBlockEnd
0
BLOCK
5
1E5
100
AcDbEntity
8
0
100
AcDbBlockBegin
2
DimnDraft3D3
70
0
10
0
20
0
30
0
3
DimnDraft3D3
0
MTEXT
5
1DF
100
AcDbEntity
8
SK2
62
256
6
ByLayer
370
18
48
1
60
0
100
AcDbMText
10
9.15
20
-30.75
30
0
210
0
220
0
230
1
1
\W0.7493;24.0
40
3
41
0
44
1.084337
50
0
71
7
72
5
7
iso_b_vert
0
LINE
5
1E0
100
AcDbEntity
8
SK2
62
256
6
ByLayer
370
13
48
1
60
0
100
AcDbLine
10
0
20
-26.69375
30
0
11
0
21
-33.5
31
0
39
0
210
0
220
0
230
1
0
LINE
5
1E1
100
AcDbEntity
8
SK2
62
256
6
ByLayer
370
13
48
1
60
0
100
AcDbLine
10
24
20
-30.24375
30
0
11
24
21
-33.5
31
0
39
0
210
0
220
0
230
1
0
LINE
5
1E2
100
AcDbEntity
8
SK2
62
256
6
ByLayer
370
13
48
1
60
0
100
AcDbLine
10
0
20
-31.5
30
0
11
24
21
-31.5
31
0
39
0
210
0
220
0
230
1
0
SOLID
5
1E3
100
AcDbEntity
8
SK2
62
256
6
ByLayer
370
13
48
1
60
0
100
AcDbTrace
10
0
20
-31.5
30
0
11
3.174998
21
-31.082003
31
0
12
3.175002
22
-31.917997
32
0
13
0
23
-31.5
33
0
39
0
210
0
220
0
230
1
0
SOLID
5
1E4
100
AcDbEntity
8
SK2
62
256
6
ByLayer
370
13
48
1
60
0
100
AcDbTrace
10
24
20
-31.5
30
0
11
20.825002
21
-31.917997
31
0
12
20.824998
22
-31.082003
32
0
13
24
23
-31.5
33
0
39
0
210
0
220
0
230
1
0
ENDBLK
5
1E6
100
AcDbEntity
8
0
100
AcDbBlockEnd
0
BLOCK
5
1EF
100
AcDbEntity
8
0
100
AcDbBlockBegin
2
DimnDraft3D4
70
0
10
0
20
0
30
0
3
DimnDraft3D4
0
MTEXT
5
1E9
100
AcDbEntity
8
SK2
62
256
6
ByLayer
370
18
48
1
60
0
100
AcDbMText
10
18.65
20
-45.75
30
0
210
0
220
0
230
1
1
\W0.7493;43.0
40
3
41
0
44
1.084337
50
0
71
7
72
5
7
iso_b_vert
0
LINE
5
1EA
100
AcDbEntity
8
SK2
62
256
6
ByLayer
370
13
48
1
60
0
100
AcDbLine
10
0
20
-26.69375
30
0
11
0
21
-48.5
31
0
39
0
210
0
220
0
230
1
0
LINE
5
1EB
100
AcDbEntity
8
SK2
62
256
6
ByLayer
370
13
48
1
60
0
100
AcDbLine
10
43
20
-23.4
30
0
11
43
21
-48.5
31
0
39
0
210
0
220
0
230
1
0
LINE
5
1EC
100
AcDbEntity
8
SK2
62
256
6
ByLayer
370
13
48
1
60
0
100
AcDbLine
10
0
20
-46.5
30
0
11
43
21
-46.5
31
0
39
0
210
0
220
0
230
1
0
SOLID
5
1ED
100
AcDbEntity
8
SK2
62
256
6
ByLayer
370
13
48
1
60
0
100
AcDbTrace
10
0
20
-46.5
30
0
11
3.174998
21
-46.082003
31
0
12
3.175002
22
-46.917997
32
0
13
0
23
-46.5
33
0
39
0
210
0
220
0
230
1
0
SOLID
5
1EE
100
AcDbEntity
8
SK2
62
256
6
ByLayer
370
13
48
1
60
0
100
AcDbTrace
10
43
20
-46.5
30
0
11
39.825002
21
-46.917997
31
0
12
39.824998
22
-46.082003
32
0
13
43
23
-46.5
33
0
39
0
210
0
220
0
230
1
0
ENDBLK
5
1F0
100
AcDbEntity
8
0
100
AcDbBlockEnd
0
BLOCK
5
1F9
100
AcDbEntity
8
0
100
AcDbBlockBegin
2
DimnDraft3D5
70
0
10
0
20
0
30
0
3
DimnDraft3D5
0
MTEXT
5
1F3
100
AcDbEntity
8
SK2
62
256
6
ByLayer
370
18
48
1
60
0
100
AcDbMText
10
15.182895
20
-60.75
30
0
210
0
220
0
230
1
1
\W0.6367;51.0
40
3
41
0
44
1.084337
50
0
71
7
72
5
7
iso_b_vert
0
LINE
5
1F4
100
AcDbEntity
8
SK2
62
256
6
ByLayer
370
13
48
1
60
0
100
AcDbLine
10
-8
20
-18.434535
30
0
11
-8
21
-63.5
31
0
39
0
210
0
220
0
230
1
0
LINE
5
1F5
100
AcDbEntity
8
SK2
62
256
6
ByLayer
370
13
48
1
60
0
100
AcDbLine
10
43
20
-23.4
30
0
11
43
21
-63.5
31
0
39
0
210
0
220
0
230
1
0
LINE
5
1F6
100
AcDbEntity
8
SK2
62
256
6
ByLayer
370
13
48
1
60
0
100
AcDbLine
10
-8
20
-61.5
30
0
11
43
21
-61.5
31
0
39
0
210
0
220
0
230
1
0
SOLID
5
1F7
100
AcDbEntity
8
SK2
62
256
6
ByLayer
370
13
48
1
60
0
100
AcDbTrace
10
-8
20
-61.5
30
0
11
-4.825002
21
-61.082003
31
0
12
-4.824998
22
-61.917997
32
0
13
-8
23
-61.5
33
0
39
0
210
0
220
0
230
1
0
SOLID
5
1F8
100
AcDbEntity
8
SK2
62
256
6
ByLayer
370
13
48
1
60
0
100
AcDbTrace
10
43
20
-61.5
30
0
11
39.825002
21
-61.917997
31
0
12
39.824998
22
-61.082003
32
0
13
43
23
-61.5
33
0
39
0
210
0
220
0
230
1
0
ENDBLK
5
1FA
100
AcDbEntity
8
0
100
AcDbBlockEnd
0
ENDSEC
0
SECTION
2
ENTITIES
0
ARC
5
11E
100
AcDbEntity
8
SK1
62
256
6
ByLayer
370
18
48
1
60
0
100
AcDbCircle
39
0
10
-0.375
20
17.25
30
0
40
0.600000000005505
210
0
220
0
230
1
100
AcDbArc
50
270
51
308.682187
0
ARC
5
11F
100
AcDbEntity
8
SK1
62
256
6
ByLayer
370
18
48
1
60
0
100
AcDbCircle
39
0
10
-1.114791
20
17.25
30
0
40
0.600000000086445
210
0
220
0
230
1
100
AcDbArc
50
255
51
270
0
ARC
5
120
100
AcDbEntity
8
SK1
62
256
6
ByLayer
370
18
48
1
60
0
100
AcDbCircle
39
0
10
-0.375
20
-17.25
30
0
40
0.600000000005578
210
0
220
0
230
1
100
AcDbArc
50
51.317813
51
90
0
ARC
5
121
100
AcDbEntity
8
SK1
62
256
6
ByLayer
370
18
48
1
60
0
100
AcDbCircle
39
0
10
-1.114791
20
-17.25
30
0
40
0.600000000087467
210
0
220
0
230
1
100
AcDbArc
50
90
51
105
0
ARC
5
122
100
AcDbEntity
8
SK1
62
256
6
ByLayer
370
18
48
1
60
0
100
AcDbCircle
39
0
10
0.502502
20
0
30
0
40
4.99999999999996
210
0
220
0
230
1
100
AcDbArc
50
150
51
210
0
ARC
5
123
100
AcDbEntity
8
1
62
256
6
ByLayer
370
13
48
1
60
0
100
AcDbCircle
39
0
10
19.25
20
8.7857
30
0
40
3.4455
210
0
220
0
230
1
100
AcDbArc
50
75
51
345
0
ARC
5
124
100
AcDbEntity
8
1
62
256
6
ByLayer
370
18
48
1
60
0
100
AcDbCircle
39
0
10
30.441288
20
-10.5
30
0
40
13.5
210
0
220
0
230
1
100
AcDbArc
50
338.477906
51
0
0
ARC
5
125
100
AcDbEntity
8
1
62
256
6
ByLayer
370
18
48
1
60
0
100
AcDbCircle
39
0
10
30.441288
20
-10.5
30
0
40
13.5
210
0
220
0
230
1
100
AcDbArc
50
0
51
21.522094
0
ARC
5
126
100
AcDbEntity
8
1
62
256
6
ByLayer
370
18
48
1
60
0
100
AcDbCircle
39
0
10
36.546
20
-14.956
30
0
40
6.8
210
0
220
0
230
1
100
AcDbArc
50
341.644109
51
0
0
ARC
5
127
100
AcDbEntity
8
1
62
256
6
ByLayer
370
18
48
1
60
0
100
AcDbCircle
39
0
10
36.546
20
-14.956
30
0
40
6.8
210
0
220
0
230
1
100
AcDbArc
50
0
51
3.746874
0
ARC
5
128
100
AcDbEntity
8
1
62
256
6
ByLayer
370
18
48
1
60
0
100
AcDbCircle
39
0
10
30.460064
20
8.7857
30
0
40
13.5
210
0
220
0
230
1
100
AcDbArc
50
338.261539
51
0
0
ARC
5
129
100
AcDbEntity
8
1
62
256
6
ByLayer
370
18
48
1
60
0
100
AcDbCircle
39
0
10
30.460064
20
8.7857
30
0
40
13.5
210
0
220
0
230
1
100
AcDbArc
50
0
51
21.738461
0
ARC
5
12B
100
AcDbEntity
8
1
62
256
6
ByLayer
370
18
48
1
60
0
100
AcDbCircle
39
0
10
-19.25
20
8.7857
30
0
40
2.34259871723677
210
0
220
0
230
-1
100
AcDbArc
50
240
51
300
0
ARC
5
12C
100
AcDbEntity
8
1
62
256
6
ByLayer
370
18
48
1
60
0
100
AcDbCircle
39
0
10
-19.25
20
8.7857
30
0
40
2.34259871723677
210
0
220
0
230
-1
100
AcDbArc
50
300
51
360
0
ARC
5
12D
100
AcDbEntity
8
1
62
256
6
ByLayer
370
18
48
1
60
0
100
AcDbCircle
39
0
10
-19.25
20
8.7857
30
0
40
2.34259871723677
210
0
220
0
230
-1
100
AcDbArc
50
360
51
60
0
ARC
5
12F
100
AcDbEntity
8
1
62
256
6
ByLayer
370
18
48
1
60
0
100
AcDbCircle
39
0
10
-19.25
20
8.7857
30
0
40
2.34259871723677
210
0
220
0
230
-1
100
AcDbArc
50
60
51
120
0
ARC
5
130
100
AcDbEntity
8
1
62
256
6
ByLayer
370
18
48
1
60
0
100
AcDbCircle
39
0
10
-19.25
20
8.7857
30
0
40
2.34259871723677
210
0
220
0
230
-1
100
AcDbArc
50
180
51
240
0
ARC
5
131
100
AcDbEntity
8
1
62
256
6
ByLayer
370
18
48
1
60
0
100
AcDbCircle
39
0
10
-19.25
20
8.7857
30
0
40
2.34259871723677
210
0
220
0
230
-1
100
AcDbArc
50
120
51
180
0
CIRCLE
5
12A
100
AcDbEntity
8
1
62
256
6
ByLayer
370
18
48
1
60
0
100
AcDbCircle
10
19.25
20
8.7857
30
0
40
4
39
0
210
0
220
0
230
1
0
CIRCLE
5
12E
100
AcDbEntity
8
1
62
256
6
ByLayer
370
18
48
1
60
0
100
AcDbCircle
10
19.25
20
8.7857
30
0
40
3.233
39
0
210
0
220
0
230
1
0
ELLIPSE
5
132
100
AcDbEntity
8
1
62
256
6
ByLayer
370
18
48
1
60
0
100
AcDbEllipse
10
33.797924
20
21.2
30
0
11
-3.21628574467825E-17
21
0.2
31
0
210
0
220
0
230
1
40
0.999981
41
1.56924875436161
42
3.1086033360209
0
ELLIPSE
5
133
100
AcDbEntity
8
1
62
256
6
ByLayer
370
18
48
1
60
0
100
AcDbEllipse
10
7.5
20
9.025785
30
0
11
6
21
0
31
0
210
0
220
0
230
1
40
0.93358
41
0
42
3.1415925892664
0
POINT
5
6C
100
AcDbEntity
8
SK2
62
256
6
ByLayer
370
18
48
1
60
0
100
AcDbPoint
10
47
20
31
30
0
39
0
210
0
220
0
230
1
50
360
0
POINT
5
6E
100
AcDbEntity
8
80
62
256
6
ByLayer
370
13
48
1
60
0
100
AcDbPoint
10
0
20
0
30
0
39
0
210
0
220
0
230
1
50
360
0
POINT
5
70
100
AcDbEntity
8
81
62
256
6
ByLayer
370
13
48
1
60
0
100
AcDbPoint
10
24
20
21
30
0
39
0
210
0
220
0
230
1
50
360
0
POINT
5
72
100
AcDbEntity
8
SK2
62
256
6
ByLayer
370
18
48
1
60
0
100
AcDbPoint
10
47
20
31
30
0
39
0
210
0
220
0
230
1
50
360
0
POINT
5
73
100
AcDbEntity
8
1
62
256
6
ByLayer
370
13
48
1
60
1
100
AcDbPoint
10
186.176474
20
162.236145
30
0
39
0
210
0
220
0
230
1
50
360
0
POINT
5
75
100
AcDbEntity
8
1
62
256
6
ByLayer
370
13
48
1
60
1
100
AcDbPoint
10
186.176474
20
162.236145
30
0
39
0
210
0
220
0
230
1
50
360
0
POINT
5
76
100
AcDbEntity
8
1
62
256
6
ByLayer
370
13
48
1
60
1
100
AcDbPoint
10
186.176474
20
162.236145
30
0
39
0
210
0
220
0
230
1
50
360
0
POINT
5
77
100
AcDbEntity
8
1
62
256
6
ByLayer
370
13
48
1
60
1
100
AcDbPoint
10
186.176474
20
162.236145
30
0
39
0
210
0
220
0
230
1
50
360
0
POINT
5
78
100
AcDbEntity
8
1
62
256
6
ByLayer
370
13
48
1
60
1
100
AcDbPoint
10
186.176474
20
162.236145
30
0
39
0
210
0
220
0
230
1
50
360
0
POINT
5
79
100
AcDbEntity
8
1
62
256
6
ByLayer
370
13
48
1
60
1
100
AcDbPoint
10
186.176474
20
162.236145
30
0
39
0
210
0
220
0
230
1
50
360
0
SPLINE
5
134
100
AcDbEntity
8
1
62
256
6
ByLayer
370
18
48
1
60
0
100
AcDbSpline
70
4
71
2
72
6
73
3
40
0
40
0
40
0
40
1
40
1
40
1
41
1
10
14.4347329839072
20
23.6500514012124
30
0
41
1
10
14.4322416445234
20
23.5549110146404
30
0
41
1
10
14.4297503051396
20
23.4597706280684
30
0
0
SPLINE
5
135
100
AcDbEntity
8
1
62
256
6
ByLayer
370
18
48
1
60
0
100
AcDbSpline
70
4
71
2
72
6
73
3
40
0
40
0
40
0
40
1
40
1
40
1
41
1
10
33.5980000610031
20
22.4
30
0
41
1
10
33.5816331867074
20
23.0250257006062
30
0
41
1
10
33.5652663124117
20
23.6500514012124
30
0
0
SPLINE
5
136
100
AcDbEntity
8
1
62
256
6
ByLayer
370
18
48
1
60
0
100
AcDbSpline
70
4
71
2
72
6
73
3
40
0
40
0
40
0
40
1
40
1
40
1
41
1
10
14.5886585187629
20
23.8
30
0
41
1
10
14.5116951786764
20
23.7250257005281
30
0
41
1
10
14.4347318388479
20
23.6500514012883
30
0
0
SPLINE
5
137
100
AcDbEntity
8
1
62
256
6
ByLayer
370
18
48
1
60
0
100
AcDbSpline
70
4
71
2
72
6
73
3
40
0
40
0
40
0
40
1
40
1
40
1
41
1
10
33.5652662581017
20
23.6500514012864
30
0
41
1
10
33.4883029880937
20
23.7250257006475
30
0
41
1
10
33.4113397180962
20
23.8
30
0
0
SPLINE
5
138
100
AcDbEntity
8
1
62
256
6
ByLayer
370
18
48
1
60
0
100
AcDbSpline
70
2053
71
3
72
134
73
130
40
0
40
0
40
0
40
0
40
0.0312499999999984
40
0.0312499999999984
40
0.0468749999999978
40
0.0468749999999978
40
0.0546874999999976
40
0.0546874999999976
40
0.0624999999999973
40
0.0624999999999973
40
0.093749999999996
40
0.093749999999996
40
0.109374999999995
40
0.109374999999995
40
0.117187499999995
40
0.117187499999995
40
0.124999999999995
40
0.124999999999995
40
0.156249999999993
40
0.156249999999993
40
0.171874999999993
40
0.171874999999993
40
0.179687499999992
40
0.179687499999992
40
0.187499999999992
40
0.187499999999992
40
0.218749999999991
40
0.218749999999991
40
0.23437499999999
40
0.23437499999999
40
0.24218749999999
40
0.24218749999999
40
0.24999999999999
40
0.24999999999999
40
0.28124999999999
40
0.28124999999999
40
0.28906249999999
40
0.28906249999999
40
0.29687499999999
40
0.29687499999999
40
0.31249999999999
40
0.31249999999999
40
0.32812499999999
40
0.32812499999999
40
0.34374999999999
40
0.34374999999999
40
0.37499999999999
40
0.37499999999999
40
0.406249999999991
40
0.406249999999991
40
0.421874999999991
40
0.421874999999991
40
0.437499999999991
40
0.437499999999991
40
0.468749999999992
40
0.468749999999992
40
0.484374999999992
40
0.484374999999992
40
0.492187499999992
40
0.492187499999992
40
0.499999999999992
40
0.499999999999992
40
0.531249999999993
40
0.531249999999993
40
0.546874999999993
40
0.546874999999993
40
0.554687499999993
40
0.554687499999993
40
0.562499999999993
40
0.562499999999993
40
0.593749999999994
40
0.593749999999994
40
0.601562499999995
40
0.601562499999995
40
0.609374999999995
40
0.609374999999995
40
0.624999999999996
40
0.624999999999996
40
0.656249999999997
40
0.656249999999997
40
0.664062499999997
40
0.664062499999997
40
0.671874999999998
40
0.671874999999998
40
0.687499999999999
40
0.703125
40
0.703125
40
0.7109375
40
0.7109375
40
0.71875
40
0.71875
40
0.750000000000001
40
0.750000000000001
40
0.757812500000001
40
0.757812500000001
40
0.765625000000001
40
0.765625000000001
40
0.78125
40
0.78125
40
0.8125
40
0.8125
40
0.828124999999999
40
0.828124999999999
40
0.843749999999999
40
0.859374999999999
40
0.859374999999999
40
0.867187499999999
40
0.867187499999999
40
0.874999999999999
40
0.874999999999999
40
0.906249999999999
40
0.906249999999999
40
0.914062499999999
40
0.914062499999999
40
0.921874999999999
40
0.921874999999999
40
0.937499999999999
40
0.937499999999999
40
0.953124999999999
40
0.953124999999999
40
0.9609375
40
0.9609375
40
0.96875
40
0.96875
40
0.984375
40
0.984375
40
0.9921875
40
0.9921875
40
1
40
1
40
1
40
1
41
1
10
15
20
8.78570000000001
30
0
41
1
10
15
20
9.05807753257685
30
0
41
1
10
15.0259283450279
20
9.32439940432727
30
0
41
1
10
15.1008340988747
20
9.71550746586612
30
0
41
1
10
15.1318510363137
20
9.84447324870354
30
0
41
1
10
15.1874810027984
20
10.0358409189352
30
0
41
1
10
15.2075443685306
20
10.0992828897682
30
0
41
1
10
15.2507492787658
20
10.2254712350922
30
0
41
1
10
15.273952632809
20
10.2883681132367
30
0
41
1
10
15.3969525810979
20
10.5989709622789
30
0
41
1
10
15.5171573948775
20
10.8347182993986
30
0
41
1
10
15.7295198333972
20
11.170284213868
30
0
41
1
10
15.8056894643965
20
11.2791097790397
30
0
41
1
10
15.9283111204135
20
11.4377463486149
30
0
41
1
10
15.9705822636315
20
11.4898569121891
30
0
41
1
10
16.0580041727771
20
11.5925145528944
30
0
41
1
10
16.1032009612822
20
11.6430966194736
30
0
41
1
10
16.3341095876796
20
11.8894134533034
30
0
41
1
10
16.5361918860381
20
12.0677234309303
30
0
41
1
10
16.8664661115112
20
12.3070277712491
30
0
41
1
10
16.9811157042169
20
12.3820679487659
30
0
41
1
10
17.1604152575189
20
12.4871774342998
30
0
41
1
10
17.2214053338178
20
12.520969441862
30
0
41
1
10
17.3459514701902
20
12.5859675325692
30
0
41
1
10
17.4092481295276
20
12.6170265870845
30
0
41
1
10
17.7281867896053
20
12.7638249856489
30
0
41
1
10
17.9936380022388
20
12.855674463018
30
0
41
1
10
18.4081094875484
20
12.9538986234827
30
0
41
1
10
18.5490008035987
20
12.9799994675159
30
0
41
1
10
18.764740987486
20
13.0085291067617
30
0
41
1
10
18.8372245637259
20
13.0162264533439
30
0
41
1
10
18.9815018897832
20
13.0278275791805
30
0
41
1
10
19.0535520434655
20
13.0317677468837
30
0
41
1
10
19.4133667165949
20
13.0423114560696
30
0
41
1
10
19.6998347851373
20
13.0217262972711
30
0
41
1
10
20.0561731905056
20
12.9591662356042
30
0
41
1
10
20.1272752622492
20
12.9447932379965
30
0
41
1
10
20.2674414311933
20
12.9127426920731
30
0
41
1
10
20.3367417084027
20
12.8950266292927
30
0
41
1
10
20.5423684430015
20
12.8369436800963
30
0
41
1
10
20.6764264972905
20
12.7916553098018
30
0
41
1
10
20.9387362082071
20
12.6883325109331
30
0
41
1
10
21.0670873077226
20
12.6302457354156
30
0
41
1
10
21.3176428292207
20
12.501502918127
30
0
41
1
10
21.4380344296954
20
12.4317960317994
30
0
41
1
10
21.7856240285284
20
12.2075641908311
30
0
41
1
10
21.9993694215368
20
12.0380776217281
30
0
41
1
10
22.3928015274706
20
11.6596852068736
30
0
41
1
10
22.5670563196922
20
11.4560147229517
30
0
41
1
10
22.7976353879321
20
11.1297390336336
30
0
41
1
10
22.869315821163
20
11.017490179169
30
0
41
1
10
23.0022940834418
20
10.7858558760566
30
0
41
1
10
23.0636728859726
20
10.6661580868608
30
0
41
1
10
23.2289982678974
20
10.3025937914828
30
0
41
1
10
23.3155474558213
20
10.0523870824937
30
0
41
1
10
23.4101658264644
20
9.66501130234997
30
0
41
1
10
23.4357962299954
20
9.53386415714098
30
0
41
1
10
23.4650256374667
20
9.33396434934863
30
0
41
1
10
23.4732348313535
20
9.26667977225097
30
0
41
1
10
23.4863763420208
20
9.13235468529768
30
0
41
1
10
23.4913347459201
20
9.06517498673756
30
0
41
1
10
23.508137372986
20
8.72919128064513
30
0
41
1
10
23.4962271561353
20
8.46012002185429
30
0
41
1
10
23.4391370314645
20
8.05623596556777
30
0
41
1
10
23.4135285869744
20
7.92156396439086
30
0
41
1
10
23.3646793798744
20
7.7195321208722
30
0
41
1
10
23.3466689659795
20
7.65229650079348
30
0
41
1
10
23.3075488590483
20
7.5193677508374
30
0
41
1
10
23.2863962323096
20
7.4534892891223
30
0
41
1
10
23.1727266496995
20
7.12702752183401
30
0
41
1
10
23.05670235054
20
6.87514761949828
30
0
41
1
10
22.8791116346933
20
6.57279081366875
30
0
41
1
10
22.841951915697
20
6.51294978452128
30
0
41
1
10
22.7642613739511
20
6.39457492962131
30
0
41
1
10
22.7236019243531
20
6.33587378166268
30
0
41
1
10
22.5977221312622
20
6.16358408960522
30
0
41
1
10
22.5084797473926
20
6.05351666853116
30
0
41
1
10
22.2251066356184
20
5.73753586557515
30
0
41
1
10
22.0154844329008
20
5.54570091119851
30
0
41
1
10
21.7263916687024
20
5.33096821686036
30
0
41
1
10
21.6670852908832
20
5.28921641786553
30
0
41
1
10
21.5470910210111
20
5.20923923763593
30
0
41
1
10
21.4862585709542
20
5.17089751666495
30
0
41
1
10
21.3012963037166
20
5.06074530767827
30
0
41
1
10
21.0481173325464
20
4.92685064709804
30
0
41
1
10
20.7819443180443
20
4.81877408506659
30
0
41
1
10
20.5773384638168
20
4.74764523879233
30
0
41
1
10
20.508305572318
20
4.72559348174758
30
0
41
1
10
20.3685400332051
20
4.68488714801566
30
0
41
1
10
20.2982705345408
20
4.66637193384346
30
0
41
1
10
19.9462157119022
20
4.58313638169719
30
0
41
1
10
19.6611088563778
20
4.54579307058373
30
0
41
1
10
19.300441171541
20
4.53538668600979
30
0
41
1
10
19.228091284497
20
4.53513662232174
30
0
41
1
10
19.0829511370959
20
4.53836392936972
30
0
41
1
10
19.0099562071972
20
4.54186194934476
30
0
41
1
10
18.7925057055419
20
4.55789576362062
30
0
41
1
10
18.6492227733541
20
4.57591822873439
30
0
41
1
10
18.2242774292829
20
4.65131049744133
30
0
41
1
10
17.947466679761
20
4.72978760657386
30
0
41
1
10
17.5423387015424
20
4.89114964236941
30
0
41
1
10
17.4109509490912
20
4.95151236346854
30
0
41
1
10
17.1564895041053
20
5.08430692177129
30
0
41
1
10
16.909915004952
20
5.22934431445631
30
0
41
1
10
16.6789790866334
20
5.39851733311255
30
0
41
1
10
16.5117685065484
20
5.53458449494212
30
0
41
1
10
16.456884935251
20
5.58161371135409
30
0
41
1
10
16.3501936413138
20
5.67784160680714
30
0
41
1
10
16.2983215991545
20
5.72707763939343
30
0
41
1
10
16.0461665123786
20
5.97871424785944
30
0
41
1
10
15.8672999242455
20
6.1973323084614
30
0
41
1
10
15.6717823313468
20
6.49139264045607
30
0
41
1
10
15.6340943466055
20
6.55125340162334
30
0
41
1
10
15.5615861125391
20
6.6730882775027
30
0
41
1
10
15.5269310477462
20
6.73479779808767
30
0
41
1
10
15.4282393644373
20
6.92118539704256
30
0
41
1
10
15.3692056525229
20
7.04754950615791
30
0
41
1
10
15.2641485516878
20
7.30424121264164
30
0
41
1
10
15.2181265466502
20
7.43456940048287
30
0
41
1
10
15.1587389218675
20
7.63294367242932
30
0
41
1
10
15.1405532685484
20
7.69954968511942
30
0
41
1
10
15.1074151969563
20
7.83371990843057
30
0
41
1
10
15.0924384180806
20
7.9014146895239
30
0
41
1
10
15.0525984577149
20
8.10493898178197
30
0
41
1
10
15.0328545913413
20
8.24083695502202
30
0
41
1
10
15.0131298514203
20
8.44495944185815
30
0
41
1
10
15.0082064360778
20
8.51304646701934
30
0
41
1
10
15.0016415101062
20
8.64930817720207
30
0
41
1
10
15
20
8.71760561685579
30
0
41
1
10
15
20
8.78570000000001
30
0
0
SPLINE
5
139
100
AcDbEntity
8
1
62
256
6
ByLayer
370
18
48
1
60
0
100
AcDbSpline
70
4
71
3
72
50
73
46
40
0
40
0
40
0
40
0
40
0.0995554281621098
40
0.0995554281621098
40
0.127694321032044
40
0.127694321032044
40
0.155833213901977
40
0.155833213901977
40
0.212110999641845
40
0.212110999641845
40
0.32466657112158
40
0.32466657112158
40
0.437222142601315
40
0.437222142601315
40
0.465361035471249
40
0.465361035471249
40
0.493499928341183
40
0.493499928341183
40
0.549777714081051
40
0.549777714081051
40
0.606055499820919
40
0.606055499820919
40
0.662333285560788
40
0.662333285560788
40
0.690472178430722
40
0.690472178430722
40
0.718611071300657
40
0.718611071300657
40
0.774888857040525
40
0.774888857040525
40
0.803027749910459
40
0.803027749910459
40
0.831166642780393
40
0.831166642780393
40
0.887444428520262
40
0.887444428520262
40
0.915583321390197
40
0.915583321390197
40
0.929652767825164
40
0.929652767825164
40
0.943722214260131
40
0.943722214260131
40
0.971861107130066
40
0.971861107130066
40
1
40
1
40
1
40
1
41
1
10
22.6393495715686
20
21.2
30
0
41
1
10
23.0911064186047
20
21.2
30
0
41
1
10
23.5455322823391
20
21.2
30
0
41
1
10
24.1318256776937
20
21.2
30
0
41
1
10
24.2612367726455
20
21.2
30
0
41
1
10
24.5204937488323
20
21.2
30
0
41
1
10
24.6500543134476
20
21.2
30
0
41
1
10
25.0374147359358
20
21.2
30
0
41
1
10
25.2943568571985
20
21.2
30
0
41
1
10
26.0612910171165
20
21.2
30
0
41
1
10
26.5674193990746
20
21.2
30
0
41
1
10
27.5687267951826
20
21.2
30
0
41
1
10
28.0639233947359
20
21.2
30
0
41
1
10
28.674998590283
20
21.2
30
0
41
1
10
28.7968139354942
20
21.2
30
0
41
1
10
29.039600622698
20
21.2
30
0
41
1
10
29.1607657896932
20
21.2
30
0
41
1
10
29.5214617380871
20
21.2
30
0
41
1
10
29.7575200032831
20
21.2
30
0
41
1
10
30.2200715422029
20
21.2
30
0
41
1
10
30.4465700495604
20
21.2
30
0
41
1
10
30.8888552871762
20
21.2
30
0
41
1
10
31.1046521090906
20
21.2
30
0
41
1
10
31.4189908167239
20
21.2
30
0
41
1
10
31.5223693799371
20
21.2
30
0
41
1
10
31.7237330794454
20
21.2
30
0
41
1
10
31.8219371669237
20
21.2
30
0
41
1
10
32.1086525002122
20
21.2
30
0
41
1
10
32.2893225024685
20
21.2
30
0
41
1
10
32.5419509736304
20
21.2
30
0
41
1
10
32.623085481328
20
21.2
30
0
41
1
10
32.7785596189421
20
21.2
30
0
41
1
10
32.853161241959
20
21.2
30
0
41
1
10
33.0625546024264
20
21.2
30
0
41
1
10
33.1836954319478
20
21.2
30
0
41
1
10
33.3340383535202
20
21.2
30
0
41
1
10
33.3789049769752
20
21.2
30
0
41
1
10
33.437638101289
20
21.2
30
0
41
1
10
33.4558250358651
20
21.2
30
0
41
1
10
33.4889490787286
20
21.2
30
0
41
1
10
33.5038996566247
20
21.2
30
0
41
1
10
33.5438829168466
20
21.2
30
0
41
1
10
33.5640526791045
20
21.2
30
0
41
1
10
33.5911107726411
20
21.2
30
0
41
1
10
33.5980080008
20
21.2
30
0
41
1
10
33.5980015626562
20
21.2
30
0
0
SPLINE
5
13A
100
AcDbEntity
8
1
62
256
6
ByLayer
370
18
48
1
60
0
100
AcDbSpline
70
4
71
3
72
74
73
70
40
0
40
0
40
0
40
0
40
0.0156250381707882
40
0.0156250381707882
40
0.031250503197352
40
0.031250503197352
40
0.0468759682239159
40
0.0468759682239159
40
0.0625014332504797
40
0.0625014332504797
40
0.0781268982770439
40
0.0781268982770439
40
0.0937523633036078
40
0.0937523633036078
40
0.125003293356735
40
0.125003293356735
40
0.140628758383299
40
0.140628758383299
40
0.156254223409863
40
0.156254223409863
40
0.187505153462991
40
0.187505153462991
40
0.218756083516119
40
0.218756083516119
40
0.250007013569247
40
0.250007013569247
40
0.281257943622374
40
0.281257943622374
40
0.312508873675502
40
0.312508873675502
40
0.34375980372863
40
0.34375980372863
40
0.375010733781758
40
0.375010733781758
40
0.406261663834885
40
0.406261663834885
40
0.437512593888013
40
0.437512593888013
40
0.500014453994269
40
0.500014453994269
40
0.562516314100524
40
0.562516314100524
40
0.62501817420678
40
0.62501817420678
40
0.687520034313036
40
0.687520034313036
40
0.750021894419291
40
0.750021894419291
40
0.781272824472419
40
0.781272824472419
40
0.812523754525547
40
0.812523754525547
40
0.843774684578675
40
0.843774684578675
40
0.875025614631802
40
0.875025614631802
40
0.90627654468493
40
0.90627654468493
40
0.921902009711494
40
0.921902009711494
40
0.937527474738058
40
0.937527474738058
40
0.953152939764621
40
0.953152939764621
40
0.968778404791185
40
0.968778404791185
40
0.984403869817749
40
0.984403869817749
40
1
40
1
40
1
40
1
41
1
10
33.565266068705
20
23.6500514012124
30
0
41
1
10
33.5652892262028
20
23.6500514012124
30
0
41
1
10
33.5585662018775
20
23.6500514012124
30
0
41
1
10
33.5312511459747
20
23.6500514012124
30
0
41
1
10
33.5108746009472
20
23.6500514012124
30
0
41
1
10
33.4575578589418
20
23.6500514012124
30
0
41
1
10
33.4246451082965
20
23.6500514012124
30
0
41
1
10
33.3468766893816
20
23.6500514012124
30
0
41
1
10
33.3020482199812
20
23.6500514012124
30
0
41
1
10
33.2008393021219
20
23.6500514012124
30
0
41
1
10
33.1444495150411
20
23.6500514012124
30
0
41
1
10
33.023211921572
20
23.6500514012124
30
0
41
1
10
32.9579555198445
20
23.6500514012124
30
0
41
1
10
32.7500945618784
20
23.6500514012124
30
0
41
1
10
32.5949884771884
20
23.6500514012124
30
0
41
1
10
32.3411259837955
20
23.6500514012124
30
0
41
1
10
32.2526364098294
20
23.6500514012124
30
0
41
1
10
32.0707174433271
20
23.6500514012124
30
0
41
1
10
31.9773190733364
20
23.6500514012124
30
0
41
1
10
31.6908780312918
20
23.6500514012124
30
0
41
1
10
31.490922367815
20
23.6500514012124
30
0
41
1
10
31.0764134227209
20
23.6500514012124
30
0
41
1
10
30.8615846926292
20
23.6500514012124
30
0
41
1
10
30.4191496305249
20
23.6500514012124
30
0
41
1
10
30.1901964848966
20
23.6500514012124
30
0
41
1
10
29.728060803727
20
23.6500514012124
30
0
41
1
10
29.4935886200563
20
23.6500514012124
30
0
41
1
10
29.0192297607403
20
23.6500514012124
30
0
41
1
10
28.7792265001701
20
23.6500514012124
30
0
41
1
10
28.29405705342
20
23.6500514012124
30
0
41
1
10
28.0488878119741
20
23.6500514012124
30
0
41
1
10
27.5536963158707
20
23.6500514012124
30
0
41
1
10
27.3036088733321
20
23.6500514012124
30
0
41
1
10
26.7990201766317
20
23.6500514012124
30
0
41
1
10
26.5436847790874
20
23.6500514012124
30
0
41
1
10
26.034673420911
20
23.6500514012124
30
0
41
1
10
25.7797606994815
20
23.6500514012124
30
0
41
1
10
25.0158038645349
20
23.6500514012124
30
0
41
1
10
24.5057420953662
20
23.6500514012124
30
0
41
1
10
23.4854908246034
20
23.6500514012124
30
0
41
1
10
22.9746509949033
20
23.6500514012124
30
0
41
1
10
21.954041543179
20
23.6500514012124
30
0
41
1
10
21.4398504539664
20
23.6500514012124
30
0
41
1
10
20.4339243871103
20
23.6500514012124
30
0
41
1
10
19.9389308466187
20
23.6500514012124
30
0
41
1
10
18.9684121756259
20
23.6500514012124
30
0
41
1
10
18.4929494473452
20
23.6500514012124
30
0
41
1
10
17.7962213107454
20
23.6500514012124
30
0
41
1
10
17.5692773131367
20
23.6500514012124
30
0
41
1
10
17.1280885124073
20
23.6500514012124
30
0
41
1
10
16.9136411527662
20
23.6500514012124
30
0
41
1
10
16.498844272386
20
23.6500514012124
30
0
41
1
10
16.2986964266333
20
23.6500514012124
30
0
41
1
10
15.9141787856995
20
23.6500514012124
30
0
41
1
10
15.732664155979
20
23.6500514012124
30
0
41
1
10
15.3972697831685
20
23.6500514012124
30
0
41
1
10
15.2427527828761
20
23.6500514012124
30
0
41
1
10
15.0347964658114
20
23.6500514012124
30
0
41
1
10
14.9692553738548
20
23.6500514012124
30
0
41
1
10
14.8481682700578
20
23.6500514012124
30
0
41
1
10
14.7929745392216
20
23.6500514012124
30
0
41
1
10
14.6934607661832
20
23.6500514012124
30
0
41
1
10
14.64919027331
20
23.6500514012124
30
0
41
1
10
14.5722826800306
20
23.6500514012124
30
0
41
1
10
14.5396648166022
20
23.6500514012124
30
0
41
1
10
14.4868505850451
20
23.6500514012124
30
0
41
1
10
14.4668264906795
20
23.6500514012124
30
0
41
1
10
14.4406245218596
20
23.6500514012124
30
0
41
1
10
14.4342318437173
20
23.6500514012125
30
0
41
1
10
14.4347634297306
20
23.6500514012125
30
0
0
SPLINE
5
13B
100
AcDbEntity
8
1
62
256
6
ByLayer
370
18
48
1
60
0
100
AcDbSpline
70
4
71
3
72
37
73
33
40
0
40
0
40
0
40
0
40
0.0005621719433948
40
0.0161776146763465
40
0.0319634270646923
40
0.0475605483924039
40
0.0634867859536693
40
0.0940484478182921
40
0.126323248131568
40
0.15679672057317
40
0.188946559925445
40
0.21946781362355
40
0.251336573829881
40
0.313793590729139
40
0.376091901151662
40
0.438067711497403
40
0.500415754314265
40
0.562722292234223
40
0.624654731281344
40
0.686907831062312
40
0.749457053415862
40
0.781406955691432
40
0.812058608440467
40
0.844117141651873
40
0.874571092506155
40
0.890520512195954
40
0.906043868379651
40
0.937315380429279
40
0.9531727558297
40
0.968790732371641
40
0.984446429060254
40
1
40
1
40
1
40
1
41
1
10
14.5886580469548
20
23.8
30
0
41
1
10
14.5886567640292
20
23.8
30
0
41
1
10
14.5888704812526
20
23.8
30
0
41
1
10
14.6035499731248
20
23.8
30
0
41
1
10
14.6650977325522
20
23.8
30
0
41
1
10
14.7651040566531
20
23.8
30
0
41
1
10
14.9434738283295
20
23.8
30
0
41
1
10
15.2482503308685
20
23.8
30
0
41
1
10
15.7089495691
20
23.8
30
0
41
1
10
16.2519799835596
20
23.8
30
0
41
1
10
16.8413347559627
20
23.8
30
0
41
1
10
17.4816438632998
20
23.8
30
0
41
1
10
18.3703562239898
20
23.8
30
0
41
1
10
19.548002418024
20
23.8
30
0
41
1
10
21.0087696991295
20
23.8
30
0
41
1
10
22.5015540013086
20
23.8
30
0
41
1
10
24.0093341470354
20
23.8
30
0
41
1
10
25.5166699251006
20
23.8
30
0
41
1
10
27.0081334244367
20
23.8
30
0
41
1
10
28.4684434806543
20
23.8
30
0
41
1
10
29.6463481753945
20
23.8
30
0
41
1
10
30.5362955948167
20
23.8
30
0
41
1
10
31.1763508714599
20
23.8
30
0
41
1
10
31.7642935823149
20
23.8
30
0
41
1
10
32.2119509879065
20
23.8
30
0
41
1
10
32.5286273505547
20
23.8
30
0
41
1
10
32.8200208808531
20
23.8
30
0
41
1
10
33.062066375493
20
23.8
30
0
41
1
10
33.2400763144742
20
23.8
30
0
41
1
10
33.3381788923114
20
23.8
30
0
41
1
10
33.3980736149744
20
23.8
30
0
41
1
10
33.411354291379
20
23.8
30
0
41
1
10
33.4113397157454
20
23.8
30
0
0
SPLINE
5
13C
100
AcDbEntity
8
1
62
256
6
ByLayer
370
18
48
1
60
0
100
AcDbSpline
70
2053
71
3
72
132
73
128
40
0
40
0
40
0
40
0
40
0.0312500000000003
40
0.0312500000000003
40
0.0468750000000005
40
0.0468750000000005
40
0.0546875000000005
40
0.0546875000000005
40
0.0625000000000005
40
0.0625000000000005
40
0.0937500000000005
40
0.0937500000000005
40
0.101562500000001
40
0.101562500000001
40
0.109375000000001
40
0.109375000000001
40
0.125
40
0.125
40
0.15625
40
0.15625
40
0.1640625
40
0.1640625
40
0.171875
40
0.171875
40
0.1875
40
0.203125
40
0.203125
40
0.2109375
40
0.2109375
40
0.21875
40
0.21875
40
0.25
40
0.25
40
0.265625
40
0.265625
40
0.28125
40
0.28125
40
0.3125
40
0.3125
40
0.3203125
40
0.3203125
40
0.328125
40
0.328125
40
0.34375
40
0.34375
40
0.359375
40
0.359375
40
0.3671875
40
0.3671875
40
0.375
40
0.375
40
0.40625
40
0.40625
40
0.421875
40
0.421875
40
0.4296875
40
0.4296875
40
0.4375
40
0.4375
40
0.46875
40
0.46875
40
0.4765625
40
0.4765625
40
0.484375
40
0.484375
40
0.5
40
0.5
40
0.531250000000001
40
0.531250000000001
40
0.562500000000001
40
0.562500000000001
40
0.578125000000001
40
0.578125000000001
40
0.585937500000001
40
0.585937500000001
40
0.59375
40
0.59375
40
0.625
40
0.625
40
0.6328125
40
0.6328125
40
0.640625
40
0.640625
40
0.65625
40
0.65625
40
0.6875
40
0.6875
40
0.6953125
40
0.6953125
40
0.703125
40
0.703125
40
0.71875
40
0.734374999999999
40
0.734374999999999
40
0.742187499999999
40
0.742187499999999
40
0.749999999999999
40
0.749999999999999
40
0.781249999999999
40
0.781249999999999
40
0.796874999999999
40
0.796874999999999
40
0.812499999999999
40
0.812499999999999
40
0.843749999999999
40
0.843749999999999
40
0.851562499999999
40
0.851562499999999
40
0.859374999999999
40
0.859374999999999
40
0.874999999999999
40
0.874999999999999
40
0.890624999999999
40
0.890624999999999
40
0.898437499999999
40
0.898437499999999
40
0.906249999999999
40
0.906249999999999
40
0.9375
40
0.9375
40
0.953125
40
0.953125
40
0.9609375
40
0.9609375
40
0.96875
40
0.96875
40
1
40
1
40
1
40
1
41
1
10
13.4962985213748
20
8.95695893894785
30
0
41
1
10
13.468668039576
20
8.58563823420266
30
0
41
1
10
13.4023411671893
20
8.21993463615104
30
0
41
1
10
13.2473692271672
20
7.67984865167168
30
0
41
1
10
13.18639482552
20
7.50124626877067
30
0
41
1
10
13.0806530258292
20
7.23562405684021
30
0
41
1
10
13.0429133308857
20
7.14723376303908
30
0
41
1
10
12.963115001867
20
6.97244723003945
30
0
41
1
10
12.9211369046273
20
6.88619131370314
30
0
41
1
10
12.7010640462518
20
6.46052305721207
30
0
41
1
10
12.4927251826119
20
6.13776666919469
30
0
41
1
10
12.1922004242154
20
5.75716390213293
30
0
41
1
10
12.1300715551914
20
5.68219664881559
30
0
41
1
10
12.0016949537665
20
5.53463053265645
30
0
41
1
10
11.9353002272133
20
5.46189208994821
30
0
41
1
10
11.7319313427395
20
5.24951558775567
30
0
41
1
10
11.5902788828578
20
5.11506358450012
30
0
41
1
10
11.1475212894763
20
4.73281118911336
30
0
41
1
10
10.8287961614158
20
4.50589940875929
30
0
41
1
10
10.3996246188
20
4.25938681726044
30
0
41
1
10
10.3121913554627
20
4.21195339245139
30
0
41
1
10
10.1361613135308
20
4.12192951688317
30
0
41
1
10
10.0473251741788
20
4.07919560524692
30
0
41
1
10
9.77838461739114
20
3.95775749431294
30
0
41
1
10
9.41332169578587
20
3.81384946172446
30
0
41
1
10
9.03535723364897
20
3.70597177002799
30
0
41
1
10
8.746924955943
20
3.63895674680666
30
0
41
1
10
8.64995292357764
20
3.61893788233087
30
0
41
1
10
8.45431417555264
20
3.58365348927379
30
0
41
1
10
8.35573846441847
20
3.56842259634311
30
0
41
1
10
7.86433385074329
20
3.50505459816591
30
0
41
1
10
7.47142340963299
20
3.4940798041151
30
0
41
1
10
6.88237162453441
20
3.53611441814556
30
0
41
1
10
6.68607369536281
20
3.55993873024139
30
0
41
1
10
6.293586595628
20
3.62782611864836
30
0
41
1
10
6.10034073475842
20
3.67140191494903
30
0
41
1
10
5.53120323983191
20
3.82941070971265
30
0
41
1
10
5.16493094792159
20
3.97103656462727
30
0
41
1
10
4.72354529646961
20
4.19309250292028
30
0
41
1
10
4.6358751975894
20
4.2399035130903
30
0
41
1
10
4.46339117208507
20
4.33746921235033
30
0
41
1
10
4.37869960046572
20
4.38813727612146
30
0
41
1
10
4.12917107754049
20
4.54564667292493
30
0
41
1
10
3.9688691318172
20
4.65797983026016
30
0
41
1
10
3.66009200794335
20
4.89684267830515
30
0
41
1
10
3.51161709131267
20
5.02337289761493
30
0
41
1
10
3.29783775984097
20
5.22379228146016
30
0
41
1
10
3.22806957275074
20
5.29237266820934
30
0
41
1
10
3.09156135062781
20
5.43311780555999
30
0
41
1
10
3.0246816445368
20
5.50545430901707
30
0
41
1
10
2.70126264815738
20
5.87245768448466
30
0
41
1
10
2.47517143376916
20
6.18490554379648
30
0
41
1
10
2.18367904074338
20
6.68013643552118
30
0
41
1
10
2.09451521520006
20
6.84967594502103
30
0
41
1
10
1.97315716308896
20
7.11079085382957
30
0
41
1
10
1.9347284372943
20
7.19911009450507
30
0
41
1
10
1.86289202291172
20
7.37604149410356
30
0
41
1
10
1.82937144273009
20
7.46487777816367
30
0
41
1
10
1.67356160266945
20
7.91083919367591
30
0
41
1
10
1.58631004082662
20
8.27323146671952
30
0
41
1
10
1.52436602660154
20
8.73284397351489
30
0
41
1
10
1.51435468084398
20
8.82510210193058
30
0
41
1
10
1.49918530629847
20
9.01029787237377
30
0
41
1
10
1.49404874480499
20
9.1032024625089
30
0
41
1
10
1.48609755369546
20
9.37967655275364
30
0
41
1
10
1.4906166465627
20
9.56210187235263
30
0
41
1
10
1.53284514580082
20
10.1038713313266
30
0
41
1
10
1.59894501312297
20
10.4577364792155
30
0
41
1
10
1.80963005088924
20
11.1510228181603
30
0
41
1
10
1.95074768764832
20
11.4790026984977
30
0
41
1
10
2.21341532588164
20
11.944963308745
30
0
41
1
10
2.30954520048587
20
12.0959478678433
30
0
41
1
10
2.46687792170664
20
12.3159802956799
30
0
41
1
10
2.52167167341904
20
12.3884379263203
30
0
41
1
10
2.63487179239746
20
12.5301194826669
30
0
41
1
10
2.69323278051601
20
12.5993132227593
30
0
41
1
10
2.99368493988192
20
12.9372991067854
30
0
41
1
10
3.26145697933529
20
13.1823733682413
30
0
41
1
10
3.63060620648886
20
13.4586827150179
30
0
41
1
10
3.70617406072287
20
13.5124286886859
30
0
41
1
10
3.86085731692179
20
13.6168716231035
30
0
41
1
10
3.94017017207895
20
13.6676793726147
30
0
41
1
10
4.18112185696774
20
13.8140270991516
30
0
41
1
10
4.34626537529255
20
13.9038979956288
30
0
41
1
10
4.85497016022967
20
14.151395351284
30
0
41
1
10
5.21167388479293
20
14.2871379080657
30
0
41
1
10
5.68064470015756
20
14.4198985712506
30
0
41
1
10
5.77582764403888
20
14.4446298499367
30
0
41
1
10
5.96648047959243
20
14.4898106221535
30
0
41
1
10
6.06214664063981
20
14.5103257367603
30
0
41
1
10
6.35014978915379
20
14.5657724048767
30
0
41
1
10
6.73682883740537
20
14.6234694578371
30
0
41
1
10
7.12881550294597
20
14.6492481229338
30
0
41
1
10
7.42483496638283
20
14.6564276439896
30
0
41
1
10
7.52384693463787
20
14.6567910351329
30
0
41
1
10
7.72256229576922
20
14.6533760589311
30
0
41
1
10
7.82231226378087
20
14.6495798871306
30
0
41
1
10
8.31694225131483
20
14.6204441113486
30
0
41
1
10
8.70424464172444
20
14.5649629354293
30
0
41
1
10
9.27301241750806
20
14.4342509518238
30
0
41
1
10
9.46055664297424
20
14.3827021051166
30
0
41
1
10
9.83145105422997
20
14.262987782936
30
0
41
1
10
10.0117516144749
20
14.1958035528252
30
0
41
1
10
10.5376098951442
20
13.9728988677099
30
0
41
1
10
10.8683967065406
20
13.7960080913585
30
0
41
1
10
11.2571865255493
20
13.5378270906386
30
0
41
1
10
11.3338987287546
20
13.4841669683106
30
0
41
1
10
11.48360445351
20
13.3738727239054
30
0
41
1
10
11.5565947946807
20
13.317261016153
30
0
41
1
10
11.7700969896868
20
13.143059521232
30
0
41
1
10
11.9051536682842
20
13.0211138953115
30
0
41
1
10
12.1609955066303
20
12.7654832868546
30
0
41
1
10
12.2817804757454
20
12.6317987558795
30
0
41
1
10
12.452139192887
20
12.4221219516831
30
0
41
1
10
12.5071189302216
20
12.3507019665286
30
0
41
1
10
12.6134036390814
20
12.20471381278
30
0
41
1
10
12.6648230990953
20
12.1299540515659
30
0
41
1
10
12.9100994876818
20
11.7518433966538
30
0
41
1
10
13.070379588179
20
11.4338845769436
30
0
41
1
10
13.2581152879251
20
10.9329600702756
30
0
41
1
10
13.3118481385807
20
10.7619646380807
30
0
41
1
10
13.3787277812185
20
10.4991184013463
30
0
41
1
10
13.3987584231252
20
10.4102496215899
30
0
41
1
10
13.4337949421208
20
10.2320895306509
30
0
41
1
10
13.448852450935
20
10.1426381068273
30
0
41
1
10
13.5119805722008
20
9.69352254888506
30
0
41
1
10
13.5239290031736
20
9.32827964369304
30
0
41
1
10
13.4962985213748
20
8.95695893894785
30
0
0
SPLINE
5
13D
100
AcDbEntity
8
1
62
256
6
ByLayer
370
18
48
1
60
0
100
AcDbSpline
70
4
71
3
72
10
73
6
40
0
40
0
40
0
40
0
40
0.5
40
0.5
40
1
40
1
40
1
40
1
41
1
10
41.2
20
-21.4
30
0
41
1
10
41.5335647339924
20
-21.4
30
0
41
1
10
41.8524209262735
20
-21.4
30
0
41
1
10
42.4546615457997
20
-21.4
30
0
41
1
10
42.7380540194019
20
-21.4
30
0
41
1
10
43
20
-21.4
30
0
0
SPLINE
5
13E
100
AcDbEntity
8
1
62
256
6
ByLayer
370
18
48
1
60
0
100
AcDbSpline
70
4
71
3
72
41
73
37
40
0
40
0
40
0
40
0
40
0.0622459823413346
40
0.0622459823413346
40
0.0935044495966234
40
0.0935044495966234
40
0.124762916851912
40
0.124762916851912
40
0.249796785873067
40
0.249796785873067
40
0.312313720383644
40
0.312313720383644
40
0.374830654894222
40
0.374830654894222
40
0.437347589404799
40
0.437347589404799
40
0.499864523915377
40
0.499864523915377
40
0.531122991170665
40
0.531122991170665
40
0.562381458425953
40
0.562381458425953
40
0.62489839293653
40
0.687415327447108
40
0.687415327447108
40
0.718673794702396
40
0.718673794702396
40
0.749932261957685
40
0.749932261957685
40
0.812449196468264
40
0.812449196468264
40
0.843707663723553
40
0.843707663723553
40
0.874966130978843
40
0.874966130978843
40
1
40
1
40
1
40
1
41
1
10
5.80000103753002
20
24.9937499168378
30
0
41
1
10
5.80009508123908
20
24.993742370253
30
0
41
1
10
5.80657721420252
20
24.9932212450267
30
0
41
1
10
5.8259492910137
20
24.9916860893385
30
0
41
1
10
5.83404856557806
20
24.9910465845204
30
0
41
1
10
5.8535728357235
20
24.989518263724
30
0
41
1
10
5.86499529506827
20
24.9886297498403
30
0
41
1
10
5.92950906784145
20
24.9836672138763
30
0
41
1
10
6.00492480030516
20
24.9779892447729
30
0
41
1
10
6.15442229445389
20
24.967839177965
30
0
41
1
10
6.20941585877742
20
24.9642534253898
30
0
41
1
10
6.32876881976537
20
24.9569331521818
30
0
41
1
10
6.39321616921691
20
24.9531920232047
30
0
41
1
10
6.53180131477544
20
24.9457627525313
30
0
41
1
10
6.6063604871029
20
24.942060109888
30
0
41
1
10
6.76081145833919
20
24.9351458801354
30
0
41
1
10
6.84115894956528
20
24.9319064795181
30
0
41
1
10
6.96632678460526
20
24.9275111365496
30
0
41
1
10
7.00882662393027
20
24.9261232832345
30
0
41
1
10
7.09540906632546
20
24.9235253325813
30
0
41
1
10
7.13966519432822
20
24.9223111307074
30
0
41
1
10
7.2735014178902
20
24.9190044690845
30
0
41
1
10
7.45411461320413
20
24.9155002070601
30
0
41
1
10
7.63891861752441
20
24.9139468652474
30
0
41
1
10
7.77913399492232
20
24.9135663843054
30
0
41
1
10
7.82631298161749
20
24.9135714457292
30
0
41
1
10
7.91989231473693
20
24.9138460293787
30
0
41
1
10
7.96639327799747
20
24.9141142686244
30
0
41
1
10
8.10504881727243
20
24.9152975069907
30
0
41
1
10
8.19636003733092
20
24.9165910597903
30
0
41
1
10
8.33163809859948
20
24.9192324431385
30
0
41
1
10
8.37644832613242
20
24.9202297501929
30
0
41
1
10
8.46549131487234
20
24.922448451544
30
0
41
1
10
8.50976143407192
20
24.9236720515887
30
0
41
1
10
8.72618294435517
20
24.9302106845976
30
0
41
1
10
8.88663077048037
20
24.9368515217485
30
0
41
1
10
9.03426219824922
20
24.9441564747443
30
0
0
SPLINE
5
13F
100
AcDbEntity
8
1
62
256
6
ByLayer
370
18
48
1
60
0
100
AcDbSpline
70
4
71
3
72
8
73
4
40
0
40
0
40
0
40
0
40
1
40
1
40
1
40
1
41
1
10
41.2
20
16.0812228559284
30
0
41
1
10
41.8035138889334
20
15.9149308974284
30
0
41
1
10
42.4038662130761
20
15.7495100751369
30
0
41
1
10
43
20
15.5852516267841
30
0
0
SPLINE
5
140
100
AcDbEntity
8
1
62
256
6
ByLayer
370
18
48
1
60
0
100
AcDbSpline
70
4
71
3
72
8
73
4
40
0
40
0
40
0
40
0
40
1
40
1
40
1
40
1
41
1
10
27.6212628153516
20
-21.4303312887908
30
0
41
1
10
27.3123685153248
20
-21.648239028758
30
0
41
1
10
27.003474199706
20
-21.8661465296042
30
0
41
1
10
26.6945798434715
20
-22.0840534075614
30
0
0
SPLINE
5
141
100
AcDbEntity
8
1
62
256
6
ByLayer
370
18
48
1
60
0
100
AcDbSpline
70
4
71
3
72
8
73
4
40
0
40
0
40
0
40
0
40
1
40
1
40
1
40
1
41
1
10
27.5498130383211
20
-21.4303312887908
30
0
41
1
10
27.2409187382943
20
-21.648239028758
30
0
41
1
10
26.9320244226755
20
-21.8661465296042
30
0
41
1
10
26.623130066441
20
-22.0840534075614
30
0
0
SPLINE
5
142
100
AcDbEntity
8
1
62
256
6
ByLayer
370
18
48
1
60
0
100
AcDbSpline
70
4
71
3
72
8
73
4
40
0
40
0
40
0
40
0
40
1
40
1
40
1
40
1
41
1
10
20.3324458834978
20
-21.4303312887908
30
0
41
1
10
20.651473115377
20
-21.648239028758
30
0
41
1
10
20.9705003633598
20
-21.8661465296042
30
0
41
1
10
21.2895276532906
20
-22.0840534075614
30
0
0
SPLINE
5
143
100
AcDbEntity
8
1
62
256
6
ByLayer
370
18
48
1
60
0
100
AcDbSpline
70
4
71
3
72
8
73
4
40
0
40
0
40
0
40
0
40
1
40
1
40
1
40
1
41
1
10
32.5335348922036
20
-21.86958049925
30
0
41
1
10
32.521380049108
20
-21.8696002238944
30
0
41
1
10
32.5092214977153
20
-21.8696002238944
30
0
41
1
10
32.4970592617761
20
-21.86958049925
30
0
0
SPLINE
5
144
100
AcDbEntity
8
1
62
256
6
ByLayer
370
18
48
1
60
0
100
AcDbSpline
70
4
71
3
72
8
73
4
40
0
40
0
40
0
40
0
40
1
40
1
40
1
40
1
41
1
10
14.4445099685682
20
-21.4303312887908
30
0
41
1
10
15.2696011731124
20
-21.648239028758
30
0
41
1
10
16.0946924193047
20
-21.8661465296042
30
0
41
1
10
16.919783773986
20
-22.0840534075614
30
0
0
SPLINE
5
145
100
AcDbEntity
8
1
62
256
6
ByLayer
370
18
48
1
60
0
100
AcDbSpline
70
4
71
3
72
8
73
4
40
0
40
0
40
0
40
0
40
1
40
1
40
1
40
1
41
1
10
14.4007448209452
20
-21.4303312887908
30
0
41
1
10
15.2258360254894
20
-21.648239028758
30
0
41
1
10
16.0509272716817
20
-21.8661465296042
30
0
41
1
10
16.876018626363
20
-22.0840534075614
30
0
0
SPLINE
5
146
100
AcDbEntity
8
1
62
256
6
ByLayer
370
18
48
1
60
0
100
AcDbSpline
70
4
71
3
72
8
73
4
40
0
40
0
40
0
40
0
40
1
40
1
40
1
40
1
41
1
10
32.5335348922036
20
-21.86958049925
30
0
41
1
10
33.1300384322018
20
-21.7231642757223
30
0
41
1
10
33.7265419326193
20
-21.576747840985
30
0
41
1
10
34.3230454110254
20
-21.4303312887908
30
0
0
SPLINE
5
147
100
AcDbEntity
8
1
62
256
6
ByLayer
370
18
48
1
60
0
100
AcDbSpline
70
4
71
3
72
8
73
4
40
0
40
0
40
0
40
0
40
1
40
1
40
1
40
1
41
1
10
33.6669939054774
20
-21.86958049925
30
0
41
1
10
34.3438318533691
20
-21.7231642757223
30
0
41
1
10
35.0206697563496
20
-21.576747840985
30
0
41
1
10
35.6975076343543
20
-21.4303312887908
30
0
0
SPLINE
5
148
100
AcDbEntity
8
1
62
256
6
ByLayer
370
18
48
1
60
0
100
AcDbSpline
70
4
71
3
72
8
73
4
40
0
40
0
40
0
40
0
40
1
40
1
40
1
40
1
41
1
10
24.5234805587871
20
-21.86958049925
30
0
41
1
10
24.5627733519594
20
-21.7231642757223
30
0
41
1
10
24.6020661425244
20
-21.576747840985
30
0
41
1
10
24.6413589316395
20
-21.4303312887908
30
0
0
SPLINE
5
149
100
AcDbEntity
8
1
62
256
6
ByLayer
370
18
48
1
60
0
100
AcDbSpline
70
4
71
3
72
8
73
4
40
0
40
0
40
0
40
0
40
1
40
1
40
1
40
1
41
1
10
33.028197866118
20
-21.86958049925
30
0
41
1
10
33.6616103482885
20
-21.7231642757223
30
0
41
1
10
34.2950227884292
20
-21.576747840985
30
0
41
1
10
34.9284352051965
20
-21.4303312887908
30
0
0
SPLINE
5
14A
100
AcDbEntity
8
1
62
256
6
ByLayer
370
18
48
1
60
0
100
AcDbSpline
70
4
71
3
72
8
73
4
40
0
40
0
40
0
40
0
40
1
40
1
40
1
40
1
41
1
10
23.3745005878408
20
-21.86958049925
30
0
41
1
10
23.3280630200582
20
-21.7231642757223
30
0
41
1
10
23.2816254553569
20
-21.576747840985
30
0
41
1
10
23.2351878923691
20
-21.4303312887908
30
0
0
SPLINE
5
14B
100
AcDbEntity
8
1
62
256
6
ByLayer
370
18
48
1
60
0
100
AcDbSpline
70
4
71
3
72
8
73
4
40
0
40
0
40
0
40
0
40
1
40
1
40
1
40
1
41
1
10
35.6877176288168
20
-21.4303312887908
30
0
41
1
10
35.6977418580286
20
-21.4202206023255
30
0
41
1
10
35.7077660871752
20
-21.4101099157946
30
0
41
1
10
35.7177903162572
20
-21.3999992291984
30
0
0
SPLINE
5
14C
100
AcDbEntity
8
1
62
256
6
ByLayer
370
18
48
1
60
0
100
AcDbSpline
70
4
71
3
72
8
73
4
40
0
40
0
40
0
40
0
40
1
40
1
40
1
40
1
41
1
10
14.5572476471278
20
-21.86958049925
30
0
41
1
10
13.8951351697128
20
-21.7231642757223
30
0
41
1
10
13.2330227362319
20
-21.576747840985
30
0
41
1
10
12.5709103271835
20
-21.4303312887908
30
0
0
SPLINE
5
14D
100
AcDbEntity
8
1
62
256
6
ByLayer
370
18
48
1
60
0
100
AcDbSpline
70
4
71
3
72
8
73
4
40
0
40
0
40
0
40
0
40
1
40
1
40
1
40
1
41
1
10
18.7665944486964
20
-21.86958049925
30
0
41
1
10
18.745554498806
20
-21.8696002238944
30
0
41
1
10
18.7245168138456
20
-21.8696002238944
30
0
41
1
10
18.7034814349103
20
-21.86958049925
30
0
0
SPLINE
5
14E
100
AcDbEntity
8
1
62
256
6
ByLayer
370
18
48
1
60
0
100
AcDbSpline
70
4
71
3
72
8
73
4
40
0
40
0
40
0
40
0
40
1
40
1
40
1
40
1
41
1
10
34.9284352051965
20
-21.4303312887908
30
0
41
1
10
34.9378162321116
20
-21.4202206610847
30
0
41
1
10
34.9471972589658
20
-21.4101100333129
30
0
41
1
10
34.9565782857594
20
-21.3999994054759
30
0
0
SPLINE
5
14F
100
AcDbEntity
8
1
62
256
6
ByLayer
370
18
48
1
60
0
100
AcDbSpline
70
4
71
3
72
8
73
4
40
0
40
0
40
0
40
0
40
1
40
1
40
1
40
1
41
1
10
34.3230454110254
20
-21.4303312887908
30
0
41
1
10
34.331879685661
20
-21.420220798292
30
0
41
1
10
34.3407139602392
20
-21.4101103077275
30
0
41
1
10
34.3495482347605
20
-21.3999998170977
30
0
0
SPLINE
5
150
100
AcDbEntity
8
1
62
256
6
ByLayer
370
18
48
1
60
0
100
AcDbSpline
70
4
71
3
72
8
73
4
40
0
40
0
40
0
40
0
40
1
40
1
40
1
40
1
41
1
10
33.4359887706962
20
-21.86958049925
30
0
41
1
10
33.4296487401278
20
-21.8696002238944
30
0
41
1
10
33.4233046114072
20
-21.8696002238944
30
0
41
1
10
33.4169563969272
20
-21.86958049925
30
0
0
SPLINE
5
151
100
AcDbEntity
8
1
62
256
6
ByLayer
370
18
48
1
60
0
100
AcDbSpline
70
4
71
3
72
8
73
4
40
0
40
0
40
0
40
0
40
1
40
1
40
1
40
1
41
1
10
35.4169850520473
20
-21.4303312887908
30
0
41
1
10
35.4267646215707
20
-21.4202208113888
30
0
41
1
10
35.4365441910306
20
-21.4101103339212
30
0
41
1
10
35.4463237604274
20
-21.3999998563883
30
0
0
SPLINE
5
152
100
AcDbEntity
8
1
62
256
6
ByLayer
370
18
48
1
60
0
100
AcDbSpline
70
4
71
3
72
8
73
4
40
0
40
0
40
0
40
0
40
1
40
1
40
1
40
1
41
1
10
34.2865697805979
20
-21.4303312887908
30
0
41
1
10
34.2954040552336
20
-21.420220798292
30
0
41
1
10
34.3042383298118
20
-21.4101103077275
30
0
41
1
10
34.313072604333
20
-21.3999998170977
30
0
0
SPLINE
5
153
100
AcDbEntity
8
1
62
256
6
ByLayer
370
18
48
1
60
0
100
AcDbSpline
70
4
71
3
72
8
73
4
40
0
40
0
40
0
40
0
40
1
40
1
40
1
40
1
41
1
10
33.0561724562147
20
-21.86958049925
30
0
41
1
10
33.0468515210247
20
-21.8696002238944
30
0
41
1
10
33.0375266515874
20
-21.8696002238944
30
0
41
1
10
33.028197866118
20
-21.86958049925
30
0
0
SPLINE
5
154
100
AcDbEntity
8
1
62
256
6
ByLayer
370
18
48
1
60
0
100
AcDbSpline
70
4
71
3
72
8
73
4
40
0
40
0
40
0
40
0
40
1
40
1
40
1
40
1
41
1
10
35.3979526782783
20
-21.4303312887908
30
0
41
1
10
35.4077322478018
20
-21.4202208113888
30
0
41
1
10
35.4175118172616
20
-21.4101103339212
30
0
41
1
10
35.4272913866584
20
-21.3999998563883
30
0
0
SPLINE
5
155
100
AcDbEntity
8
1
62
256
6
ByLayer
370
18
48
1
60
0
100
AcDbSpline
70
4
71
3
72
8
73
4
40
0
40
0
40
0
40
0
40
1
40
1
40
1
40
1
41
1
10
34.9564097952932
20
-21.4303312887908
30
0
41
1
10
34.9657908222083
20
-21.4202206610847
30
0
41
1
10
34.9751718490625
20
-21.4101100333129
30
0
41
1
10
34.9845528758562
20
-21.3999994054759
30
0
0
SPLINE
5
156
100
AcDbEntity
8
1
62
256
6
ByLayer
370
18
48
1
60
0
100
AcDbSpline
70
4
71
3
72
8
73
4
40
0
40
0
40
0
40
0
40
1
40
1
40
1
40
1
41
1
10
33.6669939054774
20
-21.86958049925
30
0
41
1
10
33.6637347655999
20
-21.8696002238944
30
0
41
1
10
33.6604714282958
20
-21.8696002238944
30
0
41
1
10
33.6572038999398
20
-21.86958049925
30
0
0
SPLINE
5
157
100
AcDbEntity
8
1
62
256
6
ByLayer
370
18
48
1
60
0
100
AcDbSpline
70
4
71
3
72
8
73
4
40
0
40
0
40
0
40
0
40
1
40
1
40
1
40
1
41
1
10
35.6975076343543
20
-21.4303312887908
30
0
41
1
10
35.7075318635661
20
-21.4202206023255
30
0
41
1
10
35.7175560927127
20
-21.4101099157946
30
0
41
1
10
35.7275803217947
20
-21.3999992291984
30
0
0
SPLINE
5
158
100
AcDbEntity
8
1
62
256
6
ByLayer
370
18
48
1
60
0
100
AcDbSpline
70
4
71
3
72
10
73
6
40
0
40
0
40
0
40
0
40
0.876183133825515
40
0.876183133825515
40
1
40
1
40
1
40
1
41
1
10
33.4824790056604
20
-21.4303312887908
30
0
41
1
10
32.7650351019964
20
-21.6212583752801
30
0
41
1
10
32.0475911653099
20
-21.8121852707222
30
0
41
1
10
31.2287623348803
20
-22.0300923038531
30
0
41
1
10
31.1273775136079
20
-22.0570728608149
30
0
41
1
10
31.0259926905698
20
-22.0840534075614
30
0
0
SPLINE
5
159
100
AcDbEntity
8
1
62
256
6
ByLayer
370
18
48
1
60
0
100
AcDbSpline
70
4
71
3
72
8
73
4
40
0
40
0
40
0
40
0
40
1
40
1
40
1
40
1
41
1
10
35.7935535335152
20
-21.4303312887908
30
0
41
1
10
34.7775551526234
20
-21.648239028758
30
0
41
1
10
33.7615567204469
20
-21.8661465296042
30
0
41
1
10
32.7455581546797
20
-22.0840534075614
30
0
0
SPLINE
5
15A
100
AcDbEntity
8
1
62
256
6
ByLayer
370
18
48
1
60
0
100
AcDbSpline
70
4
71
3
72
8
73
4
40
0
40
0
40
0
40
0
40
1
40
1
40
1
40
1
41
1
10
18.7034814349103
20
-21.86958049925
30
0
41
1
10
18.3346665271889
20
-21.7231642757223
30
0
41
1
10
17.96585164394
20
-21.576747840985
30
0
41
1
10
17.5970367743007
20
-21.4303312887908
30
0
0
SPLINE
5
15B
100
AcDbEntity
8
1
62
256
6
ByLayer
370
18
48
1
60
0
100
AcDbSpline
70
4
71
3
72
8
73
4
40
0
40
0
40
0
40
0
40
1
40
1
40
1
40
1
41
1
10
31.0948876322878
20
-21.86958049925
30
0
41
1
10
31.5900820699629
20
-21.7231642757223
30
0
41
1
10
32.0852764747797
20
-21.576747840985
30
0
41
1
10
32.5804708613234
20
-21.4303312887908
30
0
0
SPLINE
5
15C
100
AcDbEntity
8
1
62
256
6
ByLayer
370
18
48
1
60
0
100
AcDbSpline
70
4
71
3
72
8
73
4
40
0
40
0
40
0
40
0
40
1
40
1
40
1
40
1
41
1
10
31.0432606432096
20
-21.86958049925
30
0
41
1
10
31.5384550808847
20
-21.7231642757223
30
0
41
1
10
32.0336494857016
20
-21.576747840985
30
0
41
1
10
32.5288438722453
20
-21.4303312887908
30
0
0
SPLINE
5
15D
100
AcDbEntity
8
1
62
256
6
ByLayer
370
18
48
1
60
0
100
AcDbSpline
70
4
71
3
72
8
73
4
40
0
40
0
40
0
40
0
40
1
40
1
40
1
40
1
41
1
10
17.6601497880868
20
-21.4303312887908
30
0
41
1
10
17.6546875847405
20
-21.4202207627687
30
0
41
1
10
17.6492253814297
20
-21.4101102366809
30
0
41
1
10
17.6437631781541
20
-21.399999710528
30
0
0
SPLINE
5
15E
100
AcDbEntity
8
1
62
256
6
ByLayer
370
18
48
1
60
0
100
AcDbSpline
70
4
71
3
72
8
73
4
40
0
40
0
40
0
40
0
40
1
40
1
40
1
40
1
41
1
10
30.143527901657
20
-21.86958049925
30
0
41
1
10
30.5759198842441
20
-21.7231642757223
30
0
41
1
10
31.0083118381401
20
-21.576747840985
30
0
41
1
10
31.4407037760805
20
-21.4303312887908
30
0
0
SPLINE
5
15F
100
AcDbEntity
8
1
62
256
6
ByLayer
370
18
48
1
60
0
100
AcDbSpline
70
4
71
3
72
8
73
4
40
0
40
0
40
0
40
0
40
1
40
1
40
1
40
1
41
1
10
23.2351878923691
20
-21.4303312887908
30
0
41
1
10
23.2345001376801
20
-21.4202206533919
30
0
41
1
10
23.2338123829955
20
-21.4101100179274
30
0
41
1
10
23.2331246283154
20
-21.3999993823976
30
0
0
SPLINE
5
160
100
AcDbEntity
8
1
62
256
6
ByLayer
370
18
48
1
60
0
100
AcDbSpline
70
4
71
3
72
8
73
4
40
0
40
0
40
0
40
0
40
1
40
1
40
1
40
1
41
1
10
29.1469080551296
20
-21.86958049925
30
0
41
1
10
29.5096785027648
20
-21.7231642757223
30
0
41
1
10
29.8724489263286
20
-21.576747840985
30
0
41
1
10
30.2352193365059
20
-21.4303312887908
30
0
0
SPLINE
5
161
100
AcDbEntity
8
1
62
256
6
ByLayer
370
18
48
1
60
0
100
AcDbSpline
70
4
71
3
72
8
73
4
40
0
40
0
40
0
40
0
40
1
40
1
40
1
40
1
41
1
10
14.9338157146294
20
-21.86958049925
30
0
41
1
10
14.2977678652062
20
-21.7231642757223
30
0
41
1
10
13.6617200579876
20
-21.576747840985
30
0
41
1
10
13.0256722742397
20
-21.4303312887908
30
0
0
SPLINE
5
162
100
AcDbEntity
8
1
62
256
6
ByLayer
370
18
48
1
60
0
100
AcDbSpline
70
4
71
3
72
8
73
4
40
0
40
0
40
0
40
0
40
1
40
1
40
1
40
1
41
1
10
28.1371469248263
20
-21.86958049925
30
0
41
1
10
28.4245747308419
20
-21.7231642757223
30
0
41
1
10
28.7120025177854
20
-21.576747840985
30
0
41
1
10
28.9994302941225
20
-21.4303312887908
30
0
0
SPLINE
5
163
100
AcDbEntity
8
1
62
256
6
ByLayer
370
18
48
1
60
0
100
AcDbSpline
70
4
71
3
72
8
73
4
40
0
40
0
40
0
40
0
40
1
40
1
40
1
40
1
41
1
10
28.0691183939589
20
-21.86958049925
30
0
41
1
10
28.3565461999745
20
-21.7231642757223
30
0
41
1
10
28.6439739869179
20
-21.576747840985
30
0
41
1
10
28.9314017632551
20
-21.4303312887908
30
0
0
SPLINE
5
164
100
AcDbEntity
8
1
62
256
6
ByLayer
370
18
48
1
60
0
100
AcDbSpline
70
4
71
3
72
8
73
4
40
0
40
0
40
0
40
0
40
1
40
1
40
1
40
1
41
1
10
29.2104424892639
20
-21.86958049925
30
0
41
1
10
29.5732129368991
20
-21.7231642757223
30
0
41
1
10
29.9359833604629
20
-21.576747840985
30
0
41
1
10
30.2987537706402
20
-21.4303312887908
30
0
0
SPLINE
5
165
100
AcDbEntity
8
1
62
256
6
ByLayer
370
18
48
1
60
0
100
AcDbSpline
70
4
71
3
72
8
73
4
40
0
40
0
40
0
40
0
40
1
40
1
40
1
40
1
41
1
10
25.8127754299255
20
-21.86958049925
30
0
41
1
10
25.9371789132321
20
-21.7231642757223
30
0
41
1
10
26.0615823882839
20
-21.576747840985
30
0
41
1
10
26.1859858587451
20
-21.4303312887908
30
0
0
SPLINE
5
166
100
AcDbEntity
8
1
62
256
6
ByLayer
370
18
48
1
60
0
100
AcDbSpline
70
4
71
3
72
8
73
4
40
0
40
0
40
0
40
0
40
1
40
1
40
1
40
1
41
1
10
25.7390312123978
20
-21.86958049925
30
0
41
1
10
25.8634346957043
20
-21.7231642757223
30
0
41
1
10
25.9878381707561
20
-21.576747840985
30
0
41
1
10
26.1122416412173
20
-21.4303312887908
30
0
0
SPLINE
5
167
100
AcDbEntity
8
1
62
256
6
ByLayer
370
18
48
1
60
0
100
AcDbSpline
70
4
71
3
72
8
73
4
40
0
40
0
40
0
40
0
40
1
40
1
40
1
40
1
41
1
10
24.5983562264491
20
-21.86958049925
30
0
41
1
10
24.6376490196214
20
-21.7231642757223
30
0
41
1
10
24.6769418101864
20
-21.576747840985
30
0
41
1
10
24.7162345993015
20
-21.4303312887908
30
0
0
SPLINE
5
168
100
AcDbEntity
8
1
62
256
6
ByLayer
370
18
48
1
60
0
100
AcDbSpline
70
4
71
3
72
8
73
4
40
0
40
0
40
0
40
0
40
1
40
1
40
1
40
1
41
1
10
23.2996743040523
20
-21.86958049925
30
0
41
1
10
23.2532367362696
20
-21.7231642757223
30
0
41
1
10
23.2067991715683
20
-21.576747840985
30
0
41
1
10
23.1603616085805
20
-21.4303312887908
30
0
0
SPLINE
5
169
100
AcDbEntity
8
1
62
256
6
ByLayer
370
18
48
1
60
0
100
AcDbSpline
70
4
71
3
72
8
73
4
40
0
40
0
40
0
40
0
40
1
40
1
40
1
40
1
41
1
10
29.2104424892639
20
-21.86958049925
30
0
41
1
10
29.1892665994685
20
-21.8696002238944
30
0
41
1
10
29.1680884409673
20
-21.8696002238944
30
0
41
1
10
29.1469080551296
20
-21.86958049925
30
0
0
SPLINE
5
16A
100
AcDbEntity
8
1
62
256
6
ByLayer
370
18
48
1
60
0
100
AcDbSpline
70
4
71
3
72
8
73
4
40
0
40
0
40
0
40
0
40
1
40
1
40
1
40
1
41
1
10
22.1605094486176
20
-21.86958049925
30
0
41
1
10
22.0290738680644
20
-21.7231642757223
30
0
41
1
10
21.8976382962325
20
-21.576747840985
30
0
41
1
10
21.7662027292507
20
-21.4303312887908
30
0
0
SPLINE
5
16B
100
AcDbEntity
8
1
62
256
6
ByLayer
370
18
48
1
60
0
100
AcDbSpline
70
4
71
3
72
8
73
4
40
0
40
0
40
0
40
0
40
1
40
1
40
1
40
1
41
1
10
22.0869126038968
20
-21.86958049925
30
0
41
1
10
21.9554770233436
20
-21.7231642757223
30
0
41
1
10
21.8240414515117
20
-21.576747840985
30
0
41
1
10
21.6926058845299
20
-21.4303312887908
30
0
0
SPLINE
5
16C
100
AcDbEntity
8
1
62
256
6
ByLayer
370
18
48
1
60
0
100
AcDbSpline
70
4
71
3
72
8
73
4
40
0
40
0
40
0
40
0
40
1
40
1
40
1
40
1
41
1
10
15.4175764968189
20
-21.86958049925
30
0
41
1
10
14.8176241299295
20
-21.7231642757223
30
0
41
1
10
14.2176718028495
20
-21.576747840985
30
0
41
1
10
13.6177194979084
20
-21.4303312887908
30
0
0
SPLINE
5
16D
100
AcDbEntity
8
1
62
256
6
ByLayer
370
18
48
1
60
0
100
AcDbSpline
70
4
71
3
72
8
73
4
40
0
40
0
40
0
40
0
40
1
40
1
40
1
40
1
41
1
10
23.1603616085805
20
-21.4303312887908
30
0
41
1
10
23.1596738538915
20
-21.4202206533919
30
0
41
1
10
23.158986099207
20
-21.4101100179274
30
0
41
1
10
23.1582983445269
20
-21.3999993823976
30
0
0
SPLINE
5
16E
100
AcDbEntity
8
1
62
256
6
ByLayer
370
18
48
1
60
0
100
AcDbSpline
70
4
71
3
72
8
73
4
40
0
40
0
40
0
40
0
40
1
40
1
40
1
40
1
41
1
10
19.8382446273024
20
-21.86958049925
30
0
41
1
10
19.5443392539362
20
-21.7231642757223
30
0
41
1
10
19.2504339000718
20
-21.576747840985
30
0
41
1
10
18.9565285570527
20
-21.4303312887908
30
0
0
SPLINE
5
16F
100
AcDbEntity
8
1
62
256
6
ByLayer
370
18
48
1
60
0
100
AcDbSpline
70
4
71
3
72
8
73
4
40
0
40
0
40
0
40
0
40
1
40
1
40
1
40
1
41
1
10
19.7705509659469
20
-21.86958049925
30
0
41
1
10
19.4766455925806
20
-21.7231642757223
30
0
41
1
10
19.1827402387162
20
-21.576747840985
30
0
41
1
10
18.8888348956972
20
-21.4303312887908
30
0
0
SPLINE
5
170
100
AcDbEntity
8
1
62
256
6
ByLayer
370
18
48
1
60
0
100
AcDbSpline
70
4
71
3
72
8
73
4
40
0
40
0
40
0
40
0
40
1
40
1
40
1
40
1
41
1
10
18.7665944486964
20
-21.86958049925
30
0
41
1
10
18.3977795409751
20
-21.7231642757223
30
0
41
1
10
18.0289646577261
20
-21.576747840985
30
0
41
1
10
17.6601497880868
20
-21.4303312887908
30
0
0
SPLINE
5
171
100
AcDbEntity
8
1
62
256
6
ByLayer
370
18
48
1
60
0
100
AcDbSpline
70
4
71
3
72
8
73
4
40
0
40
0
40
0
40
0
40
1
40
1
40
1
40
1
41
1
10
17.7774782019195
20
-21.86958049925
30
0
41
1
10
17.3395701912571
20
-21.7231642757223
30
0
41
1
10
16.9016622096518
20
-21.576747840985
30
0
41
1
10
16.4637542442057
20
-21.4303312887908
30
0
0
SPLINE
5
172
100
AcDbEntity
8
1
62
256
6
ByLayer
370
18
48
1
60
0
100
AcDbSpline
70
4
71
3
72
8
73
4
40
0
40
0
40
0
40
0
40
1
40
1
40
1
40
1
41
1
10
14.3295974250578
20
-21.86958049925
30
0
41
1
10
14.326589985878
20
-21.8696002238944
30
0
41
1
10
14.3235867435642
20
-21.8696002238944
30
0
41
1
10
14.320587703983
20
-21.86958049925
30
0
0
SPLINE
5
173
100
AcDbEntity
8
1
62
256
6
ByLayer
370
18
48
1
60
0
100
AcDbSpline
70
4
71
3
72
8
73
4
40
0
40
0
40
0
40
0
40
1
40
1
40
1
40
1
41
1
10
17.719941165632
20
-21.86958049925
30
0
41
1
10
17.2820331549696
20
-21.7231642757223
30
0
41
1
10
16.8441251733643
20
-21.576747840985
30
0
41
1
10
16.4062172079182
20
-21.4303312887908
30
0
0
SPLINE
5
174
100
AcDbEntity
8
1
62
256
6
ByLayer
370
18
48
1
60
0
100
AcDbSpline
70
4
71
3
72
8
73
4
40
0
40
0
40
0
40
0
40
1
40
1
40
1
40
1
41
1
10
12.2963919516748
20
-21.4303312887908
30
0
41
1
10
12.2863544520574
20
-21.4202206206422
30
0
41
1
10
12.2763169525052
20
-21.4101099524279
30
0
41
1
10
12.2662794530177
20
-21.3999992841484
30
0
0
SPLINE
5
175
100
AcDbEntity
8
1
62
256
6
ByLayer
370
18
48
1
60
0
100
AcDbSpline
70
4
71
3
72
8
73
4
40
0
40
0
40
0
40
0
40
1
40
1
40
1
40
1
41
1
10
12.2873822306001
20
-21.4303312887908
30
0
41
1
10
12.2773447309826
20
-21.4202206206422
30
0
41
1
10
12.2673072314304
20
-21.4101099524279
30
0
41
1
10
12.257269731943
20
-21.3999992841484
30
0
0
SPLINE
5
176
100
AcDbEntity
8
1
62
256
6
ByLayer
370
18
48
1
60
0
100
AcDbSpline
70
4
71
3
72
8
73
4
40
0
40
0
40
0
40
0
40
1
40
1
40
1
40
1
41
1
10
33.6572038999399
20
-21.86958049925
30
0
41
1
10
34.3340418478316
20
-21.7231642757223
30
0
41
1
10
35.0108797508121
20
-21.576747840985
30
0
41
1
10
35.6877176288168
20
-21.4303312887908
30
0
0
SPLINE
5
177
100
AcDbEntity
8
1
62
256
6
ByLayer
370
18
48
1
60
0
100
AcDbSpline
70
4
71
3
72
8
73
4
40
0
40
0
40
0
40
0
40
1
40
1
40
1
40
1
41
1
10
14.5572476471278
20
-21.86958049925
30
0
41
1
10
14.5511533472769
20
-21.8696002238944
30
0
41
1
10
14.5450631444658
20
-21.8696002238944
30
0
41
1
10
14.5389770505913
20
-21.86958049925
30
0
0
SPLINE
5
178
100
AcDbEntity
8
1
62
256
6
ByLayer
370
18
48
1
60
0
100
AcDbSpline
70
4
71
3
72
8
73
4
40
0
40
0
40
0
40
0
40
1
40
1
40
1
40
1
41
1
10
12.5709103271835
20
-21.4303312887908
30
0
41
1
10
12.5611043982724
20
-21.4202208193049
30
0
41
1
10
12.5512984694251
20
-21.4101103497534
30
0
41
1
10
12.5414925406411
20
-21.3999998801366
30
0
0
SPLINE
5
179
100
AcDbEntity
8
1
62
256
6
ByLayer
370
18
48
1
60
0
100
AcDbSpline
70
4
71
3
72
8
73
4
40
0
40
0
40
0
40
0
40
1
40
1
40
1
40
1
41
1
10
33.4359887706962
20
-21.86958049925
30
0
41
1
10
34.0963209018128
20
-21.7231642757223
30
0
41
1
10
34.7566529891135
20
-21.576747840985
30
0
41
1
10
35.4169850520473
20
-21.4303312887908
30
0
0
SPLINE
5
17A
100
AcDbEntity
8
1
62
256
6
ByLayer
370
18
48
1
60
0
100
AcDbSpline
70
4
71
3
72
8
73
4
40
0
40
0
40
0
40
0
40
1
40
1
40
1
40
1
41
1
10
16.8864948410526
20
-21.86958049925
30
0
41
1
10
16.3863997983709
20
-21.7231642757223
30
0
41
1
10
15.8863047888727
20
-21.576747840985
30
0
41
1
10
15.3862097978284
20
-21.4303312887908
30
0
0
SPLINE
5
17B
100
AcDbEntity
8
1
62
256
6
ByLayer
370
18
48
1
60
0
100
AcDbSpline
70
4
71
3
72
8
73
4
40
0
40
0
40
0
40
0
40
1
40
1
40
1
40
1
41
1
10
12.552639730647
20
-21.4303312887908
30
0
41
1
10
12.542833801736
20
-21.4202208193049
30
0
41
1
10
12.5330278728887
20
-21.4101103497534
30
0
41
1
10
12.5232219441046
20
-21.3999998801366
30
0
0
SPLINE
5
17C
100
AcDbEntity
8
1
62
256
6
ByLayer
370
18
48
1
60
0
100
AcDbSpline
70
4
71
3
72
8
73
4
40
0
40
0
40
0
40
0
40
1
40
1
40
1
40
1
41
1
10
16.835441175697
20
-21.86958049925
30
0
41
1
10
16.3353461330153
20
-21.7231642757223
30
0
41
1
10
15.8352511235171
20
-21.576747840985
30
0
41
1
10
15.3351561324728
20
-21.4303312887908
30
0
0
SPLINE
5
17D
100
AcDbEntity
8
1
62
256
6
ByLayer
370
18
48
1
60
0
100
AcDbSpline
70
4
71
3
72
8
73
4
40
0
40
0
40
0
40
0
40
1
40
1
40
1
40
1
41
1
10
13.0256722742397
20
-21.4303312887908
30
0
41
1
10
13.0162521554575
20
-21.4202205952956
30
0
41
1
10
13.0068320367365
20
-21.4101099017347
30
0
41
1
10
12.9974119180763
20
-21.3999992081085
30
0
0
SPLINE
5
17E
100
AcDbEntity
8
1
62
256
6
ByLayer
370
18
48
1
60
0
100
AcDbSpline
70
4
71
3
72
8
73
4
40
0
40
0
40
0
40
0
40
1
40
1
40
1
40
1
41
1
10
12.9984289404632
20
-21.4303312887908
30
0
41
1
10
12.989008821681
20
-21.4202205952956
30
0
41
1
10
12.97958870296
20
-21.4101099017346
30
0
41
1
10
12.9701685842998
20
-21.3999992081085
30
0
0
SPLINE
5
17F
100
AcDbEntity
8
1
62
256
6
ByLayer
370
18
48
1
60
0
100
AcDbSpline
70
4
71
3
72
8
73
4
40
0
40
0
40
0
40
0
40
1
40
1
40
1
40
1
41
1
10
15.4533629241873
20
-21.86958049925
30
0
41
1
10
15.4414304011546
20
-21.8696002238944
30
0
41
1
10
15.4295015842645
20
-21.8696002238944
30
0
41
1
10
15.4175764968189
20
-21.86958049925
30
0
0
SPLINE
5
180
100
AcDbEntity
8
1
62
256
6
ByLayer
370
18
48
1
60
0
100
AcDbSpline
70
4
71
3
72
8
73
4
40
0
40
0
40
0
40
0
40
1
40
1
40
1
40
1
41
1
10
13.6535059252768
20
-21.4303312887908
30
0
41
1
10
13.6446205707378
20
-21.4202207955083
30
0
41
1
10
13.6357352162565
20
-21.4101103021601
30
0
41
1
10
13.6268498618326
20
-21.3999998087467
30
0
0
SPLINE
5
181
100
AcDbEntity
8
1
62
256
6
ByLayer
370
18
48
1
60
0
100
AcDbSpline
70
4
71
3
72
8
73
4
40
0
40
0
40
0
40
0
40
1
40
1
40
1
40
1
41
1
10
15.4533629241873
20
-21.86958049925
30
0
41
1
10
14.8534105572979
20
-21.7231642757223
30
0
41
1
10
14.253458230218
20
-21.576747840985
30
0
41
1
10
13.6535059252768
20
-21.4303312887908
30
0
0
SPLINE
5
182
100
AcDbEntity
8
1
62
256
6
ByLayer
370
18
48
1
60
0
100
AcDbSpline
70
4
71
3
72
8
73
4
40
0
40
0
40
0
40
0
40
1
40
1
40
1
40
1
41
1
10
13.6177194979084
20
-21.4303312887908
30
0
41
1
10
13.6088341433694
20
-21.4202207955083
30
0
41
1
10
13.5999487888881
20
-21.4101103021602
30
0
41
1
10
13.5910634344642
20
-21.3999998087468
30
0
0
SPLINE
5
183
100
AcDbEntity
8
1
62
256
6
ByLayer
370
18
48
1
60
0
100
AcDbSpline
70
4
71
3
72
8
73
4
40
0
40
0
40
0
40
0
40
1
40
1
40
1
40
1
41
1
10
16.8864948410526
20
-21.86958049925
30
0
41
1
10
16.869473859145
20
-21.8696002238944
30
0
41
1
10
16.8524559596122
20
-21.8696002238944
30
0
41
1
10
16.835441175697
20
-21.86958049925
30
0
0
SPLINE
5
184
100
AcDbEntity
8
1
62
256
6
ByLayer
370
18
48
1
60
0
100
AcDbSpline
70
4
71
3
72
8
73
4
40
0
40
0
40
0
40
0
40
1
40
1
40
1
40
1
41
1
10
15.3862097978284
20
-21.4303312887908
30
0
41
1
10
15.3788033779655
20
-21.4202208470003
30
0
41
1
10
15.3713969581507
20
-21.410110405144
30
0
41
1
10
15.3639905383837
20
-21.3999999632225
30
0
0
SPLINE
5
185
100
AcDbEntity
8
1
62
256
6
ByLayer
370
18
48
1
60
0
100
AcDbSpline
70
4
71
3
72
8
73
4
40
0
40
0
40
0
40
0
40
1
40
1
40
1
40
1
41
1
10
15.3351561324728
20
-21.4303312887908
30
0
41
1
10
15.3277497126099
20
-21.4202208470002
30
0
41
1
10
15.3203432927951
20
-21.410110405144
30
0
41
1
10
15.3129368730281
20
-21.3999999632225
30
0
0
SPLINE
5
186
100
AcDbEntity
8
1
62
256
6
ByLayer
370
18
48
1
60
0
100
AcDbSpline
70
4
71
3
72
8
73
4
40
0
40
0
40
0
40
0
40
1
40
1
40
1
40
1
41
1
10
17.7774782019195
20
-21.86958049925
30
0
41
1
10
17.758296482433
20
-21.8696002238944
30
0
41
1
10
17.7391174578491
20
-21.8696002238944
30
0
41
1
10
17.719941165632
20
-21.86958049925
30
0
0
SPLINE
5
187
100
AcDbEntity
8
1
62
256
6
ByLayer
370
18
48
1
60
0
100
AcDbSpline
70
4
71
3
72
8
73
4
40
0
40
0
40
0
40
0
40
1
40
1
40
1
40
1
41
1
10
16.4637542442057
20
-21.4303312887908
30
0
41
1
10
16.4572686735813
20
-21.4202206252668
30
0
41
1
10
16.450783102999
20
-21.410109961677
30
0
41
1
10
16.4442975324586
20
-21.3999992980221
30
0
0
SPLINE
5
188
100
AcDbEntity
8
1
62
256
6
ByLayer
370
18
48
1
60
0
100
AcDbSpline
70
4
71
3
72
8
73
4
40
0
40
0
40
0
40
0
40
1
40
1
40
1
40
1
41
1
10
14.906572380853
20
-21.86958049925
30
0
41
1
10
14.2705245314298
20
-21.7231642757223
30
0
41
1
10
13.6344767242112
20
-21.576747840985
30
0
41
1
10
12.9984289404632
20
-21.4303312887908
30
0
0
SPLINE
5
189
100
AcDbEntity
8
1
62
256
6
ByLayer
370
18
48
1
60
0
100
AcDbSpline
70
4
71
3
72
8
73
4
40
0
40
0
40
0
40
0
40
1
40
1
40
1
40
1
41
1
10
16.4062172079182
20
-21.4303312887908
30
0
41
1
10
16.3997316372938
20
-21.4202206252668
30
0
41
1
10
16.3932460667116
20
-21.410109961677
30
0
41
1
10
16.3867604961711
20
-21.3999992980221
30
0
0
SPLINE
5
18A
100
AcDbEntity
8
1
62
256
6
ByLayer
370
18
48
1
60
0
100
AcDbSpline
70
4
71
3
72
8
73
4
40
0
40
0
40
0
40
0
40
1
40
1
40
1
40
1
41
1
10
35.7931602904448
20
-21.4303312887908
30
0
41
1
10
34.7771619095529
20
-21.648239028758
30
0
41
1
10
33.7611634773765
20
-21.8661465296042
30
0
41
1
10
32.7451649116092
20
-22.0840534075614
30
0
0
SPLINE
5
18B
100
AcDbEntity
8
1
62
256
6
ByLayer
370
18
48
1
60
0
100
AcDbSpline
70
4
71
3
72
8
73
4
40
0
40
0
40
0
40
0
40
1
40
1
40
1
40
1
41
1
10
17.5970367743007
20
-21.4303312887908
30
0
41
1
10
17.5915745709543
20
-21.4202207627687
30
0
41
1
10
17.5861123676435
20
-21.4101102366809
30
0
41
1
10
17.5806501643679
20
-21.399999710528
30
0
0
SPLINE
5
18C
100
AcDbEntity
8
1
62
256
6
ByLayer
370
18
48
1
60
0
100
AcDbSpline
70
4
71
3
72
8
73
4
40
0
40
0
40
0
40
0
40
1
40
1
40
1
40
1
41
1
10
19.8382446273024
20
-21.86958049925
30
0
41
1
10
19.8156782595864
20
-21.8696002238944
30
0
41
1
10
19.7931136911087
20
-21.8696002238944
30
0
41
1
10
19.7705509659469
20
-21.86958049925
30
0
0
SPLINE
5
18D
100
AcDbEntity
8
1
62
256
6
ByLayer
370
18
48
1
60
0
100
AcDbSpline
70
4
71
3
72
8
73
4
40
0
40
0
40
0
40
0
40
1
40
1
40
1
40
1
41
1
10
18.9565285570527
20
-21.4303312887908
30
0
41
1
10
18.952175787992
20
-21.4202207929638
30
0
41
1
10
18.9478230189596
20
-21.410110297071
30
0
41
1
10
18.9434702499552
20
-21.399999801113
30
0
0
SPLINE
5
18E
100
AcDbEntity
8
1
62
256
6
ByLayer
370
18
48
1
60
0
100
AcDbSpline
70
4
71
3
72
8
73
4
40
0
40
0
40
0
40
0
40
1
40
1
40
1
40
1
41
1
10
18.8888348956972
20
-21.4303312887908
30
0
41
1
10
18.8844821266365
20
-21.4202207929637
30
0
41
1
10
18.880129357604
20
-21.410110297071
30
0
41
1
10
18.8757765885996
20
-21.399999801113
30
0
0
SPLINE
5
18F
100
AcDbEntity
8
1
62
256
6
ByLayer
370
18
48
1
60
0
100
AcDbSpline
70
4
71
3
72
8
73
4
40
0
40
0
40
0
40
0
40
1
40
1
40
1
40
1
41
1
10
22.1605094486176
20
-21.86958049925
30
0
41
1
10
22.1359763605489
20
-21.8696002238944
30
0
41
1
10
22.1114440630016
20
-21.8696002238944
30
0
41
1
10
22.0869126038968
20
-21.86958049925
30
0
0
SPLINE
5
190
100
AcDbEntity
8
1
62
256
6
ByLayer
370
18
48
1
60
0
100
AcDbSpline
70
4
71
3
72
8
73
4
40
0
40
0
40
0
40
0
40
1
40
1
40
1
40
1
41
1
10
21.7662027292507
20
-21.4303312887908
30
0
41
1
10
21.7642561252891
20
-21.4202206403521
30
0
41
1
10
21.7623095213401
20
-21.4101099918476
30
0
41
1
10
21.7603629174037
20
-21.399999343278
30
0
0
SPLINE
5
191
100
AcDbEntity
8
1
62
256
6
ByLayer
370
18
48
1
60
0
100
AcDbSpline
70
4
71
3
72
8
73
4
40
0
40
0
40
0
40
0
40
1
40
1
40
1
40
1
41
1
10
14.3295974250578
20
-21.86958049925
30
0
41
1
10
13.6518622289467
20
-21.7231642757223
30
0
41
1
10
12.9741270778062
20
-21.576747840985
30
0
41
1
10
12.2963919516748
20
-21.4303312887908
30
0
0
SPLINE
5
192
100
AcDbEntity
8
1
62
256
6
ByLayer
370
18
48
1
60
0
100
AcDbSpline
70
4
71
3
72
8
73
4
40
0
40
0
40
0
40
0
40
1
40
1
40
1
40
1
41
1
10
21.6926058845299
20
-21.4303312887908
30
0
41
1
10
21.6906592805683
20
-21.4202206403521
30
0
41
1
10
21.6887126766193
20
-21.4101099918476
30
0
41
1
10
21.6867660726828
20
-21.399999343278
30
0
0
SPLINE
5
193
100
AcDbEntity
8
1
62
256
6
ByLayer
370
18
48
1
60
0
100
AcDbSpline
70
4
71
3
72
8
73
4
40
0
40
0
40
0
40
0
40
1
40
1
40
1
40
1
41
1
10
14.320587703983
20
-21.86958049925
30
0
41
1
10
13.6428525078719
20
-21.7231642757223
30
0
41
1
10
12.9651173567315
20
-21.576747840985
30
0
41
1
10
12.2873822306001
20
-21.4303312887908
30
0
0
SPLINE
5
194
100
AcDbEntity
8
1
62
256
6
ByLayer
370
18
48
1
60
0
100
AcDbSpline
70
4
71
3
72
8
73
4
40
0
40
0
40
0
40
0
40
1
40
1
40
1
40
1
41
1
10
23.3745005878408
20
-21.86958049925
30
0
41
1
10
23.3495582135999
20
-21.8696002238944
30
0
41
1
10
23.3246161027631
20
-21.8696002238944
30
0
41
1
10
23.2996743040523
20
-21.86958049925
30
0
0
SPLINE
5
195
100
AcDbEntity
8
1
62
256
6
ByLayer
370
18
48
1
60
0
100
AcDbSpline
70
4
71
3
72
8
73
4
40
0
40
0
40
0
40
0
40
1
40
1
40
1
40
1
41
1
10
14.5389770505913
20
-21.86958049925
30
0
41
1
10
13.8768645731763
20
-21.7231642757223
30
0
41
1
10
13.2147521396954
20
-21.576747840985
30
0
41
1
10
12.552639730647
20
-21.4303312887908
30
0
0
SPLINE
5
196
100
AcDbEntity
8
1
62
256
6
ByLayer
370
18
48
1
60
0
100
AcDbSpline
70
4
71
3
72
8
73
4
40
0
40
0
40
0
40
0
40
1
40
1
40
1
40
1
41
1
10
24.5983562264491
20
-21.86958049925
30
0
41
1
10
24.5733979221776
20
-21.8696002238944
30
0
41
1
10
24.5484393500389
20
-21.8696002238944
30
0
41
1
10
24.5234805587871
20
-21.86958049925
30
0
0
SPLINE
5
197
100
AcDbEntity
8
1
62
256
6
ByLayer
370
18
48
1
60
0
100
AcDbSpline
70
4
71
3
72
8
73
4
40
0
40
0
40
0
40
0
40
1
40
1
40
1
40
1
41
1
10
24.7162345993015
20
-21.4303312887908
30
0
41
1
10
24.7168165356305
20
-21.4202206889454
30
0
41
1
10
24.7173984719557
20
-21.4101100890344
30
0
41
1
10
24.7179804082771
20
-21.3999994890582
30
0
0
SPLINE
5
198
100
AcDbEntity
8
1
62
256
6
ByLayer
370
18
48
1
60
0
100
AcDbSpline
70
4
71
3
72
8
73
4
40
0
40
0
40
0
40
0
40
1
40
1
40
1
40
1
41
1
10
24.6413589316395
20
-21.4303312887908
30
0
41
1
10
24.6419408679685
20
-21.4202206889454
30
0
41
1
10
24.6425228042937
20
-21.4101100890344
30
0
41
1
10
24.6431047406151
20
-21.3999994890582
30
0
0
SPLINE
5
199
100
AcDbEntity
8
1
62
256
6
ByLayer
370
18
48
1
60
0
100
AcDbSpline
70
4
71
3
72
8
73
4
40
0
40
0
40
0
40
0
40
1
40
1
40
1
40
1
41
1
10
25.8127754299255
20
-21.86958049925
30
0
41
1
10
25.7881948029911
20
-21.8696002238944
30
0
41
1
10
25.7636133811428
20
-21.8696002238944
30
0
41
1
10
25.7390312123978
20
-21.86958049925
30
0
0
SPLINE
5
19A
100
AcDbEntity
8
1
62
256
6
ByLayer
370
18
48
1
60
0
100
AcDbSpline
70
4
71
3
72
8
73
4
40
0
40
0
40
0
40
0
40
1
40
1
40
1
40
1
41
1
10
35.7935535335152
20
-21.4303312887908
30
0
41
1
10
35.8036639380413
20
-21.4202207963977
30
0
41
1
10
35.8137743425016
20
-21.4101103039389
30
0
41
1
10
35.8238847468967
20
-21.3999998114148
30
0
0
SPLINE
5
19B
100
AcDbEntity
8
1
62
256
6
ByLayer
370
18
48
1
60
0
100
AcDbSpline
70
4
71
3
72
8
73
4
40
0
40
0
40
0
40
0
40
1
40
1
40
1
40
1
41
1
10
26.1859858587451
20
-21.4303312887908
30
0
41
1
10
26.1878282877504
20
-21.4202207901345
30
0
41
1
10
26.1896707167438
20
-21.4101102914125
30
0
41
1
10
26.1915131457253
20
-21.3999997926253
30
0
0
SPLINE
5
19C
100
AcDbEntity
8
1
62
256
6
ByLayer
370
18
48
1
60
0
100
AcDbSpline
70
4
71
3
72
8
73
4
40
0
40
0
40
0
40
0
40
1
40
1
40
1
40
1
41
1
10
26.1122416412173
20
-21.4303312887908
30
0
41
1
10
26.1140840702227
20
-21.4202207901345
30
0
41
1
10
26.115926499216
20
-21.4101102914125
30
0
41
1
10
26.1177689281975
20
-21.3999997926253
30
0
0
SPLINE
5
19D
100
AcDbEntity
8
1
62
256
6
ByLayer
370
18
48
1
60
0
100
AcDbSpline
70
4
71
3
72
8
73
4
40
0
40
0
40
0
40
0
40
1
40
1
40
1
40
1
41
1
10
28.1371469248263
20
-21.86958049925
30
0
41
1
10
28.1144725363899
20
-21.8696002238944
30
0
41
1
10
28.0917963446689
20
-21.8696002238944
30
0
41
1
10
28.0691183939589
20
-21.86958049925
30
0
0
SPLINE
5
19E
100
AcDbEntity
8
1
62
256
6
ByLayer
370
18
48
1
60
0
100
AcDbSpline
70
4
71
3
72
8
73
4
40
0
40
0
40
0
40
0
40
1
40
1
40
1
40
1
41
1
10
28.9994302941225
20
-21.4303312887908
30
0
41
1
10
29.0036872258986
20
-21.420220564573
30
0
41
1
10
29.0079441576471
20
-21.4101098402896
30
0
41
1
10
29.0122010893681
20
-21.3999991159409
30
0
0
SPLINE
5
19F
100
AcDbEntity
8
1
62
256
6
ByLayer
370
18
48
1
60
0
100
AcDbSpline
70
4
71
3
72
8
73
4
40
0
40
0
40
0
40
0
40
1
40
1
40
1
40
1
41
1
10
33.0561724562147
20
-21.86958049925
30
0
41
1
10
33.6895849383852
20
-21.7231642757223
30
0
41
1
10
34.3229973785259
20
-21.576747840985
30
0
41
1
10
34.9564097952932
20
-21.4303312887908
30
0
0
SPLINE
5
1A0
100
AcDbEntity
8
1
62
256
6
ByLayer
370
18
48
1
60
0
100
AcDbSpline
70
4
71
3
72
8
73
4
40
0
40
0
40
0
40
0
40
1
40
1
40
1
40
1
41
1
10
28.9314017632551
20
-21.4303312887908
30
0
41
1
10
28.9356586950312
20
-21.420220564573
30
0
41
1
10
28.9399156267797
20
-21.4101098402896
30
0
41
1
10
28.9441725585007
20
-21.3999991159409
30
0
0
SPLINE
5
1A1
100
AcDbEntity
8
1
62
256
6
ByLayer
370
18
48
1
60
0
100
AcDbSpline
70
4
71
3
72
8
73
4
40
0
40
0
40
0
40
0
40
1
40
1
40
1
40
1
41
1
10
30.2987537706402
20
-21.4303312887908
30
0
41
1
10
30.3041264292898
20
-21.4202208104707
30
0
41
1
10
30.3094990879045
20
-21.4101103320849
30
0
41
1
10
30.3148717464846
20
-21.3999998536338
30
0
0
SPLINE
5
1A2
100
AcDbEntity
8
1
62
256
6
ByLayer
370
18
48
1
60
0
100
AcDbSpline
70
4
71
3
72
8
73
4
40
0
40
0
40
0
40
0
40
1
40
1
40
1
40
1
41
1
10
30.2352193365059
20
-21.4303312887908
30
0
41
1
10
30.2405919951555
20
-21.4202208104707
30
0
41
1
10
30.2459646537702
20
-21.4101103320849
30
0
41
1
10
30.2513373123502
20
-21.3999998536338
30
0
0
SPLINE
5
1A3
100
AcDbEntity
8
1
62
256
6
ByLayer
370
18
48
1
60
0
100
AcDbSpline
70
4
71
3
72
8
73
4
40
0
40
0
40
0
40
0
40
1
40
1
40
1
40
1
41
1
10
16.876018626363
20
-22.0840534075614
30
0
41
1
10
16.8906031746986
20
-22.084075387577
30
0
41
1
10
16.9051915690351
20
-22.084075387577
30
0
41
1
10
16.919783773986
20
-22.0840534075614
30
0
0
SPLINE
5
1A4
100
AcDbEntity
8
1
62
256
6
ByLayer
370
18
48
1
60
0
100
AcDbSpline
70
4
71
3
72
8
73
4
40
0
40
0
40
0
40
0
40
1
40
1
40
1
40
1
41
1
10
14.4445099685682
20
-21.4303312887908
30
0
41
1
10
14.4362991956138
20
-21.4202206434693
30
0
41
1
10
14.4280884227127
20
-21.4101099980821
30
0
41
1
10
14.4198776498646
20
-21.3999993526297
30
0
0
SPLINE
5
1A5
100
AcDbEntity
8
1
62
256
6
ByLayer
370
18
48
1
60
0
100
AcDbSpline
70
4
71
3
72
8
73
4
40
0
40
0
40
0
40
0
40
1
40
1
40
1
40
1
41
1
10
30.2015662630783
20
-21.86958049925
30
0
41
1
10
30.6339582456654
20
-21.7231642757223
30
0
41
1
10
31.0663501995614
20
-21.576747840985
30
0
41
1
10
31.4987421375017
20
-21.4303312887908
30
0
0
SPLINE
5
1A6
100
AcDbEntity
8
1
62
256
6
ByLayer
370
18
48
1
60
0
100
AcDbSpline
70
4
71
3
72
8
73
4
40
0
40
0
40
0
40
0
40
1
40
1
40
1
40
1
41
1
10
31.4987421375017
20
-21.4303312887908
30
0
41
1
10
31.5051459663058
20
-21.4202207002889
30
0
41
1
10
31.5115497950683
20
-21.4101101117213
30
0
41
1
10
31.5179536237895
20
-21.3999995230886
30
0
0
SPLINE
5
1A7
100
AcDbEntity
8
1
62
256
6
ByLayer
370
18
48
1
60
0
100
AcDbSpline
70
4
71
3
72
8
73
4
40
0
40
0
40
0
40
0
40
1
40
1
40
1
40
1
41
1
10
31.4407037760805
20
-21.4303312887908
30
0
41
1
10
31.4471076048846
20
-21.4202207002889
30
0
41
1
10
31.4535114336471
20
-21.4101101117213
30
0
41
1
10
31.4599152623682
20
-21.3999995230886
30
0
0
SPLINE
5
1A8
100
AcDbEntity
8
1
62
256
6
ByLayer
370
18
48
1
60
0
100
AcDbSpline
70
4
71
3
72
8
73
4
40
0
40
0
40
0
40
0
40
1
40
1
40
1
40
1
41
1
10
21.2183209138435
20
-22.0840534075614
30
0
41
1
10
21.2420550038218
20
-22.084075387577
30
0
41
1
10
21.2657906028289
20
-22.084075387577
30
0
41
1
10
21.2895276532906
20
-22.0840534075614
30
0
0
SPLINE
5
1A9
100
AcDbEntity
8
1
62
256
6
ByLayer
370
18
48
1
60
0
100
AcDbSpline
70
4
71
3
72
8
73
4
40
0
40
0
40
0
40
0
40
1
40
1
40
1
40
1
41
1
10
31.0948876322878
20
-21.86958049925
30
0
41
1
10
31.0776817101591
20
-21.8696002238944
30
0
41
1
10
31.0604727025944
20
-21.8696002238944
30
0
41
1
10
31.0432606432096
20
-21.86958049925
30
0
0
SPLINE
5
1AA
100
AcDbEntity
8
1
62
256
6
ByLayer
370
18
48
1
60
0
100
AcDbSpline
70
4
71
3
72
8
73
4
40
0
40
0
40
0
40
0
40
1
40
1
40
1
40
1
41
1
10
20.3324458834978
20
-21.4303312887908
30
0
41
1
10
20.3292711415289
20
-21.4202206762468
30
0
41
1
10
20.3260963995806
20
-21.4101100636372
30
0
41
1
10
20.3229216576528
20
-21.3999994509623
30
0
0
SPLINE
5
1AB
100
AcDbEntity
8
1
62
256
6
ByLayer
370
18
48
1
60
0
100
AcDbSpline
70
4
71
3
72
8
73
4
40
0
40
0
40
0
40
0
40
1
40
1
40
1
40
1
41
1
10
32.5804708613234
20
-21.4303312887908
30
0
41
1
10
32.5878047538214
20
-21.4202207770837
30
0
41
1
10
32.5951386462717
20
-21.410110265311
30
0
41
1
10
32.6024725386747
20
-21.399999753473
30
0
0
SPLINE
5
1AC
100
AcDbEntity
8
1
62
256
6
ByLayer
370
18
48
1
60
0
100
AcDbSpline
70
4
71
3
72
8
73
4
40
0
40
0
40
0
40
0
40
1
40
1
40
1
40
1
41
1
10
20.2612391440506
20
-21.4303312887908
30
0
41
1
10
20.2580644020817
20
-21.4202206762468
30
0
41
1
10
20.2548896601334
20
-21.4101100636372
30
0
41
1
10
20.2517149182056
20
-21.3999994509623
30
0
0
SPLINE
5
1AD
100
AcDbEntity
8
1
62
256
6
ByLayer
370
18
48
1
60
0
100
AcDbSpline
70
4
71
3
72
8
73
4
40
0
40
0
40
0
40
0
40
1
40
1
40
1
40
1
41
1
10
32.5288438722453
20
-21.4303312887908
30
0
41
1
10
32.5361777647432
20
-21.4202207770838
30
0
41
1
10
32.5435116571935
20
-21.410110265311
30
0
41
1
10
32.5508455495965
20
-21.399999753473
30
0
0
SPLINE
5
1AE
100
AcDbEntity
8
1
62
256
6
ByLayer
370
18
48
1
60
0
100
AcDbSpline
70
4
71
3
72
8
73
4
40
0
40
0
40
0
40
0
40
1
40
1
40
1
40
1
41
1
10
26.623130066441
20
-22.0840534075614
30
0
41
1
10
26.6469480823823
20
-22.084075387577
30
0
41
1
10
26.6707646939828
20
-22.084075387577
30
0
41
1
10
26.6945798434715
20
-22.0840534075614
30
0
0
SPLINE
5
1AF
100
AcDbEntity
8
1
62
256
6
ByLayer
370
18
48
1
60
0
100
AcDbSpline
70
4
71
3
72
8
73
4
40
0
40
0
40
0
40
0
40
1
40
1
40
1
40
1
41
1
10
32.7451649116092
20
-22.0840534075614
30
0
41
1
10
32.74530070667
20
-22.084075387577
30
0
41
1
10
32.7454317877994
20
-22.084075387577
30
0
41
1
10
32.7455581546797
20
-22.0840534075614
30
0
0
SPLINE
5
1B0
100
AcDbEntity
8
1
62
256
6
ByLayer
370
18
48
1
60
0
100
AcDbSpline
70
4
71
3
72
8
73
4
40
0
40
0
40
0
40
0
40
1
40
1
40
1
40
1
41
1
10
27.6212628153516
20
-21.4303312887908
30
0
41
1
10
27.6243367514712
20
-21.4202205769312
30
0
41
1
10
27.6274106875707
20
-21.4101098650059
30
0
41
1
10
27.6304846236505
20
-21.3999991530153
30
0
0
SPLINE
5
1B1
100
AcDbEntity
8
1
62
256
6
ByLayer
370
18
48
1
60
0
100
AcDbSpline
70
4
71
3
72
8
73
4
40
0
40
0
40
0
40
0
40
1
40
1
40
1
40
1
41
1
10
27.5498130383211
20
-21.4303312887908
30
0
41
1
10
27.5528869744407
20
-21.4202205769312
30
0
41
1
10
27.5559609105402
20
-21.4101098650059
30
0
41
1
10
27.5590348466199
20
-21.3999991530153
30
0
0
SPLINE
5
1B2
100
AcDbEntity
8
1
62
256
6
ByLayer
370
18
48
1
60
0
100
AcDbSpline
70
4
71
3
72
8
73
4
40
0
40
0
40
0
40
0
40
1
40
1
40
1
40
1
41
1
10
35.7931602904448
20
-21.4303312887908
30
0
41
1
10
35.8032706949708
20
-21.4202207963977
30
0
41
1
10
35.8133810994311
20
-21.4101103039389
30
0
41
1
10
35.8234915038263
20
-21.3999998114148
30
0
0
SPLINE
5
1B3
100
AcDbEntity
8
1
62
256
6
ByLayer
370
18
48
1
60
0
100
AcDbSpline
70
4
71
3
72
8
73
4
40
0
40
0
40
0
40
0
40
1
40
1
40
1
40
1
41
1
10
31.0259926905698
20
-22.0840534075614
30
0
41
1
10
31.0407969599292
20
-22.084075387577
30
0
41
1
10
31.0555974479884
20
-22.084075387577
30
0
41
1
10
31.0703941188466
20
-22.0840534075614
30
0
0
SPLINE
5
1B4
100
AcDbEntity
8
1
62
256
6
ByLayer
370
18
48
1
60
0
100
AcDbSpline
70
4
71
3
72
8
73
4
40
0
40
0
40
0
40
0
40
1
40
1
40
1
40
1
41
1
10
33.5268804339373
20
-21.4303312887908
30
0
41
1
10
33.5350288008583
20
-21.4202207498421
30
0
41
1
10
33.5431771677264
20
-21.4101102108277
30
0
41
1
10
33.551325534542
20
-21.399999671748
30
0
0
SPLINE
5
1B5
100
AcDbEntity
8
1
62
256
6
ByLayer
370
18
48
1
60
0
100
AcDbSpline
70
4
71
3
72
8
73
4
40
0
40
0
40
0
40
0
40
1
40
1
40
1
40
1
41
1
10
14.9338157146294
20
-21.86958049925
30
0
41
1
10
14.9247306648566
20
-21.8696002238944
30
0
41
1
10
14.9156495476847
20
-21.8696002238944
30
0
41
1
10
14.906572380853
20
-21.86958049925
30
0
0
SPLINE
5
1B6
100
AcDbEntity
8
1
62
256
6
ByLayer
370
18
48
1
60
0
100
AcDbSpline
70
4
71
3
72
8
73
4
40
0
40
0
40
0
40
0
40
1
40
1
40
1
40
1
41
1
10
33.4169563969272
20
-21.86958049925
30
0
41
1
10
34.0772885280439
20
-21.7231642757223
30
0
41
1
10
34.7376206153445
20
-21.576747840985
30
0
41
1
10
35.3979526782783
20
-21.4303312887908
30
0
0
SPLINE
5
1B7
100
AcDbEntity
8
1
62
256
6
ByLayer
370
18
48
1
60
0
100
AcDbSpline
70
4
71
3
72
8
73
4
40
0
40
0
40
0
40
0
40
1
40
1
40
1
40
1
41
1
10
33.4824790056604
20
-21.4303312887908
30
0
41
1
10
33.4906273725815
20
-21.4202207498421
30
0
41
1
10
33.4987757394496
20
-21.4101102108277
30
0
41
1
10
33.5069241062651
20
-21.3999996717481
30
0
0
SPLINE
5
1B8
100
AcDbEntity
8
1
62
256
6
ByLayer
370
18
48
1
60
0
100
AcDbSpline
70
4
71
3
72
8
73
4
40
0
40
0
40
0
40
0
40
1
40
1
40
1
40
1
41
1
10
32.4970592617761
20
-21.86958049925
30
0
41
1
10
33.0935628017743
20
-21.7231642757223
30
0
41
1
10
33.6900663021919
20
-21.576747840985
30
0
41
1
10
34.2865697805979
20
-21.4303312887908
30
0
0
SPLINE
5
1B9
100
AcDbEntity
8
1
62
256
6
ByLayer
370
18
48
1
60
0
100
AcDbSpline
70
4
71
3
72
8
73
4
40
0
40
0
40
0
40
0
40
1
40
1
40
1
40
1
41
1
10
30.2015662630783
20
-21.86958049925
30
0
41
1
10
30.1822228283559
20
-21.8696002238944
30
0
41
1
10
30.1628766952852
20
-21.8696002238944
30
0
41
1
10
30.143527901657
20
-21.86958049925
30
0
0
SPLINE
5
1BA
100
AcDbEntity
8
1
62
256
6
ByLayer
370
18
48
1
60
0
100
AcDbSpline
70
4
71
3
72
8
73
4
40
0
40
0
40
0
40
0
40
1
40
1
40
1
40
1
41
1
10
20.2612391440506
20
-21.4303312887908
30
0
41
1
10
20.5802663759299
20
-21.648239028758
30
0
41
1
10
20.8992936239127
20
-21.8661465296042
30
0
41
1
10
21.2183209138435
20
-22.0840534075614
30
0
0
SPLINE
5
1BB
100
AcDbEntity
8
1
62
256
6
ByLayer
370
18
48
1
60
0
100
AcDbSpline
70
4
71
3
72
10
73
6
40
0
40
0
40
0
40
0
40
0.876183133825516
40
0.876183133825516
40
1
40
1
40
1
40
1
41
1
10
33.5268804339373
20
-21.4303312887908
30
0
41
1
10
32.8094365302732
20
-21.62125837528
30
0
41
1
10
32.0919925935868
20
-21.8121852707222
30
0
41
1
10
31.2731637631571
20
-22.0300923038531
30
0
41
1
10
31.1717789418847
20
-22.0570728608149
30
0
41
1
10
31.0703941188466
20
-22.0840534075614
30
0
0
SPLINE
5
1BC
100
AcDbEntity
8
1
62
256
6
ByLayer
370
18
48
1
60
0
100
AcDbSpline
70
4
71
3
72
8
73
4
40
0
40
0
40
0
40
0
40
1
40
1
40
1
40
1
41
1
10
14.4007448209452
20
-21.4303312887908
30
0
41
1
10
14.3925340479908
20
-21.4202206434693
30
0
41
1
10
14.3843232750897
20
-21.4101099980821
30
0
41
1
10
14.3761125022415
20
-21.3999993526297
30
0
0
SPLINE
5
1BD
100
AcDbEntity
8
1
62
256
6
ByLayer
370
18
48
1
60
0
100
AcDbSpline
70
4
71
3
72
18
73
14
40
0
40
0
40
0
40
0
40
0.249999999999997
40
0.249999999999997
40
0.374999999999996
40
0.374999999999996
40
0.437499999999995
40
0.437499999999995
40
0.499999999999995
40
0.499999999999995
40
0.749999999999997
40
0.749999999999997
40
1
40
1
40
1
40
1
41
1
10
16.907401282763
20
8.78569999999976
30
0
41
1
10
17.0031456223728
20
8.95153406074127
30
0
41
1
10
17.0996902732767
20
9.1187543013057
30
0
41
1
10
17.2462520896328
20
9.37260681368397
30
0
41
1
10
17.295397687434
20
9.45772948604414
30
0
41
1
10
17.3696137258325
20
9.58627543528672
30
0
41
1
10
17.3944352004073
20
9.62926749036919
30
0
41
1
10
17.4442512304502
20
9.71555138543471
30
0
41
1
10
17.4692729924517
20
9.75889034851619
30
0
41
1
10
17.5937512351082
20
9.97449298923414
30
0
41
1
10
17.6920981972957
20
10.1448349245129
30
0
41
1
10
17.8867528173248
20
10.4819866163314
30
0
41
1
10
17.9830754139252
20
10.6488222475602
30
0
41
1
10
18.0787006413815
20
10.81445
30
0
0
SPLINE
5
1BE
100
AcDbEntity
8
1
62
256
6
ByLayer
370
18
48
1
60
0
100
AcDbSpline
70
4
71
3
72
18
73
14
40
0
40
0
40
0
40
0
40
0.250000000000002
40
0.250000000000002
40
0.375000000000001
40
0.375000000000001
40
0.437500000000002
40
0.437500000000002
40
0.500000000000003
40
0.500000000000003
40
0.750000000000001
40
0.750000000000001
40
1
40
1
40
1
40
1
41
1
10
16.9074012827632
20
8.78569999999991
30
0
41
1
10
17.0031456223731
20
8.6198659392584
30
0
41
1
10
17.0996902732769
20
8.452645698694
30
0
41
1
10
17.246252089633
20
8.1987931863157
30
0
41
1
10
17.2953976874342
20
8.11367051395555
30
0
41
1
10
17.3696137258327
20
7.98512456471295
30
0
41
1
10
17.3944352004076
20
7.94213250963048
30
0
41
1
10
17.4442512304504
20
7.85584861456496
30
0
41
1
10
17.4692729924519
20
7.81250965148348
30
0
41
1
10
17.5937512351084
20
7.59690701076553
30
0
41
1
10
17.6920981972958
20
7.42656507548674
30
0
41
1
10
17.886752817325
20
7.0894133836683
30
0
41
1
10
17.9830754139253
20
6.92257775243948
30
0
41
1
10
18.0787006413817
20
6.7569499999997
30
0
0
SPLINE
5
1BF
100
AcDbEntity
8
1
62
256
6
ByLayer
370
18
48
1
60
0
100
AcDbSpline
70
4
71
3
72
18
73
14
40
0
40
0
40
0
40
0
40
0.249999999999998
40
0.249999999999998
40
0.374999999999998
40
0.374999999999998
40
0.437499999999999
40
0.437499999999999
40
0.5
40
0.5
40
0.75
40
0.75
40
1
40
1
40
1
40
1
41
1
10
20.4212993586183
20
10.8144500000002
30
0
41
1
10
20.5170436982282
20
10.6486159392587
30
0
41
1
10
20.6135883491321
20
10.4813956986943
30
0
41
1
10
20.7601501654882
20
10.2275431863159
30
0
41
1
10
20.8092957632895
20
10.1424205139558
30
0
41
1
10
20.8835118016879
20
10.0138745647132
30
0
41
1
10
20.9083332762628
20
9.97088250963068
30
0
41
1
10
20.9581493063056
20
9.88459861456514
30
0
41
1
10
20.9831710683071
20
9.84125965148365
30
0
41
1
10
21.1076493109636
20
9.62565701076568
30
0
41
1
10
21.2059962731512
20
9.45531507548682
30
0
41
1
10
21.4006508931803
20
9.11816338366836
30
0
41
1
10
21.4969734897807
20
8.95132775243948
30
0
41
1
10
21.5925987172371
20
8.78569999999968
30
0
0
SPLINE
5
1C0
100
AcDbEntity
8
1
62
256
6
ByLayer
370
18
48
1
60
0
100
AcDbSpline
70
4
71
3
72
20
73
16
40
0
40
0
40
0
40
0
40
0.124999999999998
40
0.124999999999998
40
0.249999999999997
40
0.249999999999997
40
0.499999999999998
40
0.499999999999998
40
0.624999999999999
40
0.624999999999999
40
0.687499999999999
40
0.687499999999999
40
0.749999999999999
40
0.749999999999999
40
1
40
1
40
1
40
1
41
1
10
18.0787006413818
20
6.75695000000002
30
0
41
1
10
18.1738621211689
20
6.75694999999999
30
0
41
1
10
18.2698824458715
20
6.75695000000002
30
0
41
1
10
18.4640911724623
20
6.75694999999999
30
0
41
1
10
18.5620399266717
20
6.75695000000002
30
0
41
1
10
18.8557653359902
20
6.75694999999999
30
0
41
1
10
19.0524913172484
20
6.75694999999999
30
0
41
1
10
19.3491677810289
20
6.75694999999999
30
0
41
1
10
19.448321321361
20
6.75694999999999
30
0
41
1
10
19.597437381523
20
6.75694999999999
30
0
41
1
10
19.6472629788972
20
6.75694999999999
30
0
41
1
10
19.7461733697775
20
6.75694999999999
30
0
41
1
10
19.7953630258416
20
6.75694999999999
30
0
41
1
10
20.0400900978256
20
6.75695000000002
30
0
41
1
10
20.2319808034458
20
6.75694999999999
30
0
41
1
10
20.4212993586185
20
6.75694999999999
30
0
0
SPLINE
5
1C1
100
AcDbEntity
8
1
62
256
6
ByLayer
370
18
48
1
60
0
100
AcDbSpline
70
4
71
3
72
18
73
14
40
0
40
0
40
0
40
0
40
0.249999999999998
40
0.249999999999998
40
0.374999999999997
40
0.374999999999997
40
0.437499999999996
40
0.437499999999996
40
0.499999999999995
40
0.499999999999995
40
0.749999999999998
40
0.749999999999998
40
1
40
1
40
1
40
1
41
1
10
20.4212993586185
20
6.7569500000001
30
0
41
1
10
20.5170436982284
20
6.92278406074155
30
0
41
1
10
20.6135883491322
20
7.09000430130595
30
0
41
1
10
20.7601501654883
20
7.3438568136842
30
0
41
1
10
20.8092957632895
20
7.42897948604434
30
0
41
1
10
20.883511801688
20
7.55752543528692
30
0
41
1
10
20.9083332762628
20
7.60051749036938
30
0
41
1
10
20.9581493063056
20
7.6868013854349
30
0
41
1
10
20.9831710683071
20
7.73014034851636
30
0
41
1
10
21.1076493109636
20
7.94574298923428
30
0
41
1
10
21.2059962731511
20
8.11608492451305
30
0
41
1
10
21.4006508931802
20
8.45323661633142
30
0
41
1
10
21.4969734897805
20
8.62007224756024
30
0
41
1
10
21.5925987172369
20
8.78569999999999
30
0
0
SPLINE
5
1C2
100
AcDbEntity
8
1
62
256
6
ByLayer
370
18
48
1
60
0
100
AcDbSpline
70
4
71
3
72
20
73
16
40
0
40
0
40
0
40
0
40
0.125000000000001
40
0.125000000000001
40
0.250000000000003
40
0.250000000000003
40
0.500000000000011
40
0.500000000000011
40
0.625000000000013
40
0.625000000000013
40
0.687500000000011
40
0.687500000000011
40
0.75000000000001
40
0.75000000000001
40
1
40
1
40
1
40
1
41
1
10
18.0787006413815
20
10.81445
30
0
41
1
10
18.1738621211684
20
10.81445
30
0
41
1
10
18.2698824458707
20
10.81445
30
0
41
1
10
18.4640911724606
20
10.81445
30
0
41
1
10
18.5620399266706
20
10.81445
30
0
41
1
10
18.855765335991
20
10.81445
30
0
41
1
10
19.0524913172514
20
10.81445
30
0
41
1
10
19.3491677810368
20
10.81445
30
0
41
1
10
19.4483213213707
20
10.81445
30
0
41
1
10
19.5974373815359
20
10.81445
30
0
41
1
10
19.6472629789094
20
10.81445
30
0
41
1
10
19.7461733697871
20
10.81445
30
0
41
1
10
19.79536302585
20
10.81445
30
0
41
1
10
20.0400900978288
20
10.81445
30
0
41
1
10
20.2319808034467
20
10.81445
30
0
41
1
10
20.4212993586182
20
10.81445
30
0
0
SPLINE
5
1C3
100
AcDbEntity
8
1
62
256
6
ByLayer
370
18
48
1
60
0
100
AcDbSpline
70
4
71
3
72
8
73
4
40
0
40
0
40
0
40
0
40
1
40
1
40
1
40
1
41
1
10
33.5980012137136
20
22.4
30
0
41
0.556392189806838
10
33.5979987364379
20
22.4
30
0
41
0.407966213510234
10
26.6534115073546
20
22.4
30
0
41
0.55472207111019
10
18.2759709611704
20
22.3999999999999
30
0
0
LINE
5
7A
100
AcDbEntity
8
SK1
62
256
6
ByLayer
370
18
48
1
60
0
100
AcDbLine
10
-25.55
20
17
30
0
11
-25.55
21
13.415623
31
0
39
0
210
0
220
0
230
1
0
LINE
5
7C
100
AcDbEntity
8
SK1
62
256
6
ByLayer
370
18
48
1
60
0
100
AcDbLine
10
-26.05
20
7.5
30
0
11
-26.05
21
13.274061
31
0
39
0
210
0
220
0
230
1
0
LINE
5
7D
100
AcDbEntity
8
SK1
62
256
6
ByLayer
370
18
48
1
60
0
100
AcDbLine
10
-25.55
20
17
30
0
11
-26.05
21
16.5
31
0
39
0
210
0
220
0
230
1
0
LINE
5
7E
100
AcDbEntity
8
SK1
62
256
6
ByLayer
370
18
48
1
60
0
100
AcDbLine
10
-26.05
20
7.5
30
0
11
-25.55
21
7
31
0
39
0
210
0
220
0
230
1
0
LINE
5
7F
100
AcDbEntity
8
SK1
62
256
6
ByLayer
370
18
48
1
60
0
100
AcDbLine
10
-25.55
20
13.415623
30
0
11
-25.55
21
7
31
0
39
0
210
0
220
0
230
1
0
LINE
5
80
100
AcDbEntity
8
SK1
62
256
6
ByLayer
370
18
48
1
60
0
100
AcDbLine
10
-26.05
20
13.274061
30
0
11
-26.05
21
16.5
31
0
39
0
210
0
220
0
230
1
0
LINE
5
81
100
AcDbEntity
8
SK1
62
256
6
ByLayer
370
18
48
1
60
0
100
AcDbLine
10
-25.55
20
7
30
0
11
-20.05
21
7
31
0
39
0
210
0
220
0
230
1
0
LINE
5
82
100
AcDbEntity
8
SK1
62
256
6
ByLayer
370
18
48
1
60
0
100
AcDbLine
10
-20.05
20
17
30
0
11
-25.55
21
17
31
0
39
0
210
0
220
0
230
1
0
LINE
5
83
100
AcDbEntity
8
SK1
62
256
6
ByLayer
370
18
48
1
60
0
100
AcDbLine
10
-8
20
14.8975
30
0
11
-18.45
21
14.8975
31
0
39
0
210
0
220
0
230
1
0
LINE
5
84
100
AcDbEntity
8
SK1
62
256
6
ByLayer
370
18
48
1
60
0
100
AcDbLine
10
-18.45
20
9.1025
30
0
11
-8
21
9.1025
31
0
39
0
210
0
220
0
230
1
0
LINE
5
85
100
AcDbEntity
8
SK1
62
256
6
ByLayer
370
18
48
1
60
0
100
AcDbLine
10
-1.270082
20
16.670445
30
0
11
-2.5
21
17
31
0
39
0
210
0
220
0
230
1
0
LINE
5
86
100
AcDbEntity
8
SK1
62
256
6
ByLayer
370
18
48
1
60
0
100
AcDbLine
10
-2.5
20
17
30
0
11
-5.5
21
17
31
0
39
0
210
0
220
0
230
1
0
LINE
5
87
100
AcDbEntity
8
SK1
62
256
6
ByLayer
370
18
48
1
60
0
100
AcDbLine
10
-5.5
20
17
30
0
11
-7.500171
21
16.947624
31
0
39
0
210
0
220
0
230
1
0
LINE
5
88
100
AcDbEntity
8
SK1
62
256
6
ByLayer
370
18
48
1
60
0
100
AcDbLine
10
-7.500171
20
16.947624
30
0
11
-8
21
16.434535
31
0
39
0
210
0
220
0
230
1
0
LINE
5
89
100
AcDbEntity
8
SK1
62
256
6
ByLayer
370
18
48
1
60
0
100
AcDbLine
10
-0.375
20
16.65
30
0
11
-1.114791
21
16.65
31
0
39
0
210
0
220
0
230
1
0
LINE
5
8A
100
AcDbEntity
8
SK1
62
256
6
ByLayer
370
18
48
1
60
0
100
AcDbLine
10
-20.05
20
6.5
30
0
11
-18.45
21
6.5
31
0
39
0
210
0
220
0
230
1
0
LINE
5
8B
100
AcDbEntity
8
SK1
62
256
6
ByLayer
370
18
48
1
60
0
100
AcDbLine
10
-18.45
20
17.5
30
0
11
-20.05
21
17.5
31
0
39
0
210
0
220
0
230
1
0
LINE
5
8C
100
AcDbEntity
8
SK1
62
256
6
ByLayer
370
18
48
1
60
0
100
AcDbLine
10
-20.05
20
17.5
30
0
11
-20.05
21
6.5
31
0
39
0
210
0
220
0
230
1
0
LINE
5
8D
100
AcDbEntity
8
SK1
62
256
6
ByLayer
370
18
48
1
60
0
100
AcDbLine
10
-18.45
20
17.5
30
0
11
-18.45
21
6.5
31
0
39
0
210
0
220
0
230
1
0
LINE
5
8E
100
AcDbEntity
8
SK1
62
256
6
ByLayer
370
18
48
1
60
0
100
AcDbLine
10
-0.375
20
-16.65
30
0
11
-0.375
21
-2.5
31
0
39
0
210
0
220
0
230
1
0
LINE
5
8F
100
AcDbEntity
8
SK1
62
256
6
ByLayer
370
18
48
1
60
0
100
AcDbLine
10
-2.5
20
-17
30
0
11
-1.270082
21
-16.670445
31
0
39
0
210
0
220
0
230
1
0
LINE
5
90
100
AcDbEntity
8
SK1
62
256
6
ByLayer
370
18
48
1
60
0
100
AcDbLine
10
-2.5
20
-17
30
0
11
-2.5
21
-2.5
31
0
39
0
210
0
220
0
230
1
0
LINE
5
91
100
AcDbEntity
8
SK1
62
256
6
ByLayer
370
18
48
1
60
0
100
AcDbLine
10
-1.270082
20
-16.670445
30
0
11
-1.270082
21
-2.5
31
0
39
0
210
0
220
0
230
1
0
LINE
5
92
100
AcDbEntity
8
SK1
62
256
6
ByLayer
370
18
48
1
60
0
100
AcDbLine
10
-5.5
20
-17
30
0
11
-2.5
21
-17
31
0
39
0
210
0
220
0
230
1
0
LINE
5
93
100
AcDbEntity
8
SK1
62
256
6
ByLayer
370
18
48
1
60
0
100
AcDbLine
10
-7.500171
20
-16.947624
30
0
11
-5.5
21
-17
31
0
39
0
210
0
220
0
230
1
0
LINE
5
94
100
AcDbEntity
8
SK1
62
256
6
ByLayer
370
18
48
1
60
0
100
AcDbLine
10
-8
20
-16.434535
30
0
11
-7.500171
21
-16.947624
31
0
39
0
210
0
220
0
230
1
0
LINE
5
95
100
AcDbEntity
8
SK1
62
256
6
ByLayer
370
18
48
1
60
0
100
AcDbLine
10
-1.114791
20
-16.65
30
0
11
-1.114791
21
-2.5
31
0
39
0
210
0
220
0
230
1
0
LINE
5
96
100
AcDbEntity
8
SK1
62
256
6
ByLayer
370
18
48
1
60
0
100
AcDbLine
10
-1.114791
20
-16.65
30
0
11
-0.375
21
-16.65
31
0
39
0
210
0
220
0
230
1
0
LINE
5
97
100
AcDbEntity
8
SK1
62
256
6
ByLayer
370
18
48
1
60
0
100
AcDbLine
10
-25.55
20
-7
30
0
11
-25.55
21
-10.584377
31
0
39
0
210
0
220
0
230
1
0
LINE
5
98
100
AcDbEntity
8
SK1
62
256
6
ByLayer
370
18
48
1
60
0
100
AcDbLine
10
-26.05
20
-16.5
30
0
11
-26.05
21
-10.725939
31
0
39
0
210
0
220
0
230
1
0
LINE
5
99
100
AcDbEntity
8
SK1
62
256
6
ByLayer
370
18
48
1
60
0
100
AcDbLine
10
-25.55
20
-7
30
0
11
-26.05
21
-7.5
31
0
39
0
210
0
220
0
230
1
0
LINE
5
9A
100
AcDbEntity
8
SK1
62
256
6
ByLayer
370
18
48
1
60
0
100
AcDbLine
10
-26.05
20
-16.5
30
0
11
-25.55
21
-17
31
0
39
0
210
0
220
0
230
1
0
LINE
5
9B
100
AcDbEntity
8
SK1
62
256
6
ByLayer
370
18
48
1
60
0
100
AcDbLine
10
-25.55
20
-10.584377
30
0
11
-25.55
21
-17
31
0
39
0
210
0
220
0
230
1
0
LINE
5
9C
100
AcDbEntity
8
SK1
62
256
6
ByLayer
370
18
48
1
60
0
100
AcDbLine
10
-26.05
20
-10.725939
30
0
11
-26.05
21
-7.5
31
0
39
0
210
0
220
0
230
1
0
LINE
5
9D
100
AcDbEntity
8
SK1
62
256
6
ByLayer
370
18
48
1
60
0
100
AcDbLine
10
-25.55
20
-17
30
0
11
-20.05
21
-17
31
0
39
0
210
0
220
0
230
1
0
LINE
5
9E
100
AcDbEntity
8
SK1
62
256
6
ByLayer
370
18
48
1
60
0
100
AcDbLine
10
-20.05
20
-7
30
0
11
-25.55
21
-7
31
0
39
0
210
0
220
0
230
1
0
LINE
5
9F
100
AcDbEntity
8
SK1
62
256
6
ByLayer
370
18
48
1
60
0
100
AcDbLine
10
-8
20
-9.1025
30
0
11
-18.45
21
-9.1025
31
0
39
0
210
0
220
0
230
1
0
LINE
5
A0
100
AcDbEntity
8
SK1
62
256
6
ByLayer
370
18
48
1
60
0
100
AcDbLine
10
-18.45
20
-14.8975
30
0
11
-8
21
-14.8975
31
0
39
0
210
0
220
0
230
1
0
LINE
5
A1
100
AcDbEntity
8
SK1
62
256
6
ByLayer
370
18
48
1
60
0
100
AcDbLine
10
-20.05
20
-17.5
30
0
11
-18.45
21
-17.5
31
0
39
0
210
0
220
0
230
1
0
LINE
5
A2
100
AcDbEntity
8
SK1
62
256
6
ByLayer
370
18
48
1
60
0
100
AcDbLine
10
-18.45
20
-6.5
30
0
11
-20.05
21
-6.5
31
0
39
0
210
0
220
0
230
1
0
LINE
5
A3
100
AcDbEntity
8
SK1
62
256
6
ByLayer
370
18
48
1
60
0
100
AcDbLine
10
-20.05
20
-6.5
30
0
11
-20.05
21
-17.5
31
0
39
0
210
0
220
0
230
1
0
LINE
5
A4
100
AcDbEntity
8
SK1
62
256
6
ByLayer
370
18
48
1
60
0
100
AcDbLine
10
-18.45
20
-6.5
30
0
11
-18.45
21
-17.5
31
0
39
0
210
0
220
0
230
1
0
LINE
5
A5
100
AcDbEntity
8
SK1
62
256
6
ByLayer
370
18
48
1
60
0
100
AcDbLine
10
-3.827625
20
-2.5
30
0
11
-3.827625
21
2.5
31
0
39
0
210
0
220
0
230
1
0
LINE
5
A6
100
AcDbEntity
8
SK1
62
256
6
ByLayer
370
18
48
1
60
0
100
AcDbLine
10
-3.827625
20
-2.5
30
0
11
0
21
-2.5
31
0
39
0
210
0
220
0
230
1
0
LINE
5
A7
100
AcDbEntity
8
SK1
62
256
6
ByLayer
370
18
48
1
60
0
100
AcDbLine
10
0
20
2.5
30
0
11
-3.827625
21
2.5
31
0
39
0
210
0
220
0
230
1
0
LINE
5
A8
100
AcDbEntity
8
SK1
62
256
6
ByLayer
370
18
48
1
60
0
100
AcDbLine
10
-0.375
20
2.5
30
0
11
-0.375
21
16.65
31
0
39
0
210
0
220
0
230
1
0
LINE
5
A9
100
AcDbEntity
8
SK1
62
256
6
ByLayer
370
18
48
1
60
0
100
AcDbLine
10
-2.5
20
2.5
30
0
11
-2.5
21
17
31
0
39
0
210
0
220
0
230
1
0
LINE
5
AA
100
AcDbEntity
8
SK1
62
256
6
ByLayer
370
18
48
1
60
0
100
AcDbLine
10
-1.270082
20
2.5
30
0
11
-1.270082
21
16.670445
31
0
39
0
210
0
220
0
230
1
0
LINE
5
AB
100
AcDbEntity
8
SK1
62
256
6
ByLayer
370
18
48
1
60
0
100
AcDbLine
10
-5.5
20
17
30
0
11
-5.5
21
-17
31
0
39
0
210
0
220
0
230
1
0
LINE
5
AC
100
AcDbEntity
8
SK1
62
256
6
ByLayer
370
18
48
1
60
0
100
AcDbLine
10
-7.500171
20
16.947624
30
0
11
-7.500171
21
-16.947624
31
0
39
0
210
0
220
0
230
1
0
LINE
5
AD
100
AcDbEntity
8
SK1
62
256
6
ByLayer
370
18
48
1
60
0
100
AcDbLine
10
-8
20
-16.434535
30
0
11
-8
21
16.434535
31
0
39
0
210
0
220
0
230
1
0
LINE
5
AE
100
AcDbEntity
8
SK1
62
256
6
ByLayer
370
18
48
1
60
0
100
AcDbLine
10
-1.114791
20
2.5
30
0
11
-1.114791
21
16.65
31
0
39
0
210
0
220
0
230
1
0
LINE
5
AF
100
AcDbEntity
8
80
62
256
6
ByLayer
370
13
48
0.05
60
0
100
AcDbLine
10
0
20
0
30
0
11
-11
21
0
31
0
39
0
210
0
220
0
230
1
0
LINE
5
B0
100
AcDbEntity
8
81
62
256
6
ByLayer
370
13
48
0.05
60
0
100
AcDbLine
10
24
20
21
30
0
11
24
21
31.5
31
0
39
0
210
0
220
0
230
1
0
LINE
5
B1
100
AcDbEntity
8
SK4
62
256
6
ByLayer
370
13
48
0.05
60
0
100
AcDbLine
10
24
20
-28.24375
30
0
11
24
21
29.75625
31
0
39
0
210
0
220
0
230
1
0
LINE
5
B3
100
AcDbEntity
8
SK4
62
256
6
ByLayer
370
13
48
0.05
60
0
100
AcDbLine
10
-29.05
20
0
30
0
11
44.95
21
0
31
0
39
0
210
0
220
0
230
1
0
LINE
5
B4
100
AcDbEntity
8
SK2
62
256
6
ByLayer
370
13
48
1
60
0
100
AcDbLine
10
61.922654
20
29.825
30
0
11
61.791002
21
27.825
31
0
39
0
210
0
220
0
230
1
0
LINE
5
B5
100
AcDbEntity
8
SK2
62
256
6
ByLayer
370
13
48
1
60
0
100
AcDbLine
10
62
20
31
30
0
11
61.582003
21
27.825
31
0
39
0
210
0
220
0
230
1
0
LINE
5
B6
100
AcDbEntity
8
SK2
62
256
6
ByLayer
370
13
48
1
60
0
100
AcDbLine
10
62
20
31
30
0
11
62.417997
21
27.825
31
0
39
0
210
0
220
0
230
1
0
LINE
5
B7
100
AcDbEntity
8
SK2
62
256
6
ByLayer
370
13
48
1
60
0
100
AcDbLine
10
49
20
31
30
0
11
64
21
31
31
0
39
0
210
0
220
0
230
1
0
LINE
5
B8
100
AcDbEntity
8
SK2
62
256
6
ByLayer
370
13
48
1
60
0
100
AcDbLine
10
62.077346
20
29.825
30
0
11
62.208998
21
27.825
31
0
39
0
210
0
220
0
230
1
0
LINE
5
B9
100
AcDbEntity
8
SK2
62
256
6
ByLayer
370
13
48
1
60
0
100
AcDbLine
10
61.582003
20
27.825
30
0
11
62.417997
21
27.825
31
0
39
0
210
0
220
0
230
1
0
LINE
5
BA
100
AcDbEntity
8
SK2
62
256
6
ByLayer
370
13
48
1
60
0
100
AcDbLine
10
62
20
31
30
0
11
62
21
-3
31
0
39
0
210
0
220
0
230
1
0
LINE
5
BB
100
AcDbEntity
8
4
62
256
6
ByLayer
370
13
48
0.05
60
0
100
AcDbLine
10
0
20
0
30
0
11
44
21
0
31
0
39
0
210
0
220
0
230
1
0
LINE
5
BD
100
AcDbEntity
8
1
62
256
6
ByLayer
370
13
48
1
60
0
100
AcDbLine
10
27.3095
20
23.799872
30
0
11
27.3095
21
24.4643
31
0
39
0
210
0
220
0
230
1
0
LINE
5
BE
100
AcDbEntity
8
1
62
256
6
ByLayer
370
18
48
1
60
0
100
AcDbLine
10
20
20
24.4643
30
0
11
20
21
23.799959
31
0
39
0
210
0
220
0
230
1
0
LINE
5
BF
100
AcDbEntity
8
1
62
256
6
ByLayer
370
18
48
1
60
0
100
AcDbLine
10
20.014
20
24.4643
30
0
11
28
21
24.4643
31
0
39
0
210
0
220
0
230
1
0
LINE
5
C0
100
AcDbEntity
8
1
62
256
6
ByLayer
370
18
48
1
60
0
100
AcDbLine
10
17.2
20
27.8143
30
0
11
17.2
21
27.2643
31
0
39
0
210
0
220
0
230
1
0
LINE
5
C1
100
AcDbEntity
8
1
62
256
6
ByLayer
370
18
48
1
60
0
100
AcDbLine
10
35.793579
20
-21.430331
30
0
11
35.823911
21
-21.399999
31
0
39
0
210
0
220
0
230
1
0
LINE
5
C2
100
AcDbEntity
8
1
62
256
6
ByLayer
370
18
48
1
60
0
100
AcDbLine
10
0.3
20
24.99375
30
0
11
0
21
24.69375
31
0
39
0
210
0
220
0
230
1
0
LINE
5
C3
100
AcDbEntity
8
1
62
256
6
ByLayer
370
18
48
1
60
0
100
AcDbLine
10
0
20
-24.69375
30
0
11
0.3
21
-24.99375
31
0
39
0
210
0
220
0
230
1
0
LINE
5
C4
100
AcDbEntity
8
1
62
256
6
ByLayer
370
18
48
1
60
0
100
AcDbLine
10
0.3
20
-24.99375
30
0
11
7.90625
21
-24.99375
31
0
39
0
210
0
220
0
230
1
0
LINE
5
C5
100
AcDbEntity
8
1
62
256
6
ByLayer
370
18
48
1
60
0
100
AcDbLine
10
5.824733
20
24.99375
30
0
11
0.3
21
24.99375
31
0
39
0
210
0
220
0
230
1
0
LINE
5
C6
100
AcDbEntity
8
1
62
256
6
ByLayer
370
18
48
1
60
0
100
AcDbLine
10
28.75
20
-22.941
30
0
11
35.793579
21
-21.430331
31
0
39
0
210
0
220
0
230
1
0
LINE
5
C7
100
AcDbEntity
8
1
62
256
6
ByLayer
370
18
48
1
60
0
100
AcDbLine
10
12.206421
20
-21.430331
30
0
11
19.25
21
-22.941
31
0
39
0
210
0
220
0
230
1
0
LINE
5
C8
100
AcDbEntity
8
1
62
256
6
ByLayer
370
18
48
1
60
0
100
AcDbLine
10
28
20
23.799959
30
0
11
28
21
24.4643
31
0
39
0
210
0
220
0
230
1
0
LINE
5
C9
100
AcDbEntity
8
1
62
256
6
ByLayer
370
18
48
1
60
0
100
AcDbLine
10
17.2
20
27.2643
30
0
11
20
21
24.4643
31
0
39
0
210
0
220
0
230
1
0
LINE
5
CA
100
AcDbEntity
8
1
62
256
6
ByLayer
370
18
48
1
60
0
100
AcDbLine
10
28
20
24.4643
30
0
11
30.8
21
27.2643
31
0
39
0
210
0
220
0
230
1
0
LINE
5
CB
100
AcDbEntity
8
1
62
256
6
ByLayer
370
18
48
1
60
0
100
AcDbLine
10
30.8
20
27.2643
30
0
11
30.8
21
27.8143
31
0
39
0
210
0
220
0
230
1
0
LINE
5
CC
100
AcDbEntity
8
1
62
256
6
ByLayer
370
18
48
1
60
0
100
AcDbLine
10
12.176089
20
-21.399999
30
0
11
12.206421
21
-21.430331
31
0
39
0
210
0
220
0
230
1
0
LINE
5
CD
100
AcDbEntity
8
1
62
256
6
ByLayer
370
13
48
1
60
0
100
AcDbLine
10
20.6905
20
23.799872
30
0
11
20.6905
21
24.4643
31
0
39
0
210
0
220
0
230
1
0
LINE
5
CE
100
AcDbEntity
8
1
62
256
6
ByLayer
370
18
48
1
60
0
100
AcDbLine
10
36
20
17.516314
30
0
11
36
21
20.85
31
0
39
0
210
0
220
0
230
1
0
LINE
5
CF
100
AcDbEntity
8
1
62
256
6
ByLayer
370
18
48
1
60
0
100
AcDbLine
10
36
20
20.85
30
0
11
35.85
21
21
31
0
39
0
210
0
220
0
230
1
0
LINE
5
D0
100
AcDbEntity
8
1
62
256
6
ByLayer
370
18
48
1
60
0
100
AcDbLine
10
33.598
20
21.2
30
0
11
33.598
21
22.4
31
0
39
0
210
0
220
0
230
1
0
LINE
5
D1
100
AcDbEntity
8
1
62
256
6
ByLayer
370
18
48
1
60
0
100
AcDbLine
10
28
20
24.4643
30
0
11
20
21
24.4643
31
0
39
0
210
0
220
0
230
1
0
LINE
5
D2
100
AcDbEntity
8
1
62
256
6
ByLayer
370
18
48
1
60
0
100
AcDbLine
10
30.8
20
27.8143
30
0
11
17.2
21
27.8143
31
0
39
0
210
0
220
0
230
1
0
LINE
5
D3
100
AcDbEntity
8
1
62
256
6
ByLayer
370
18
48
1
60
0
100
AcDbLine
10
30.8
20
27.2643
30
0
11
17.2
21
27.2643
31
0
39
0
210
0
220
0
230
1
0
LINE
5
D4
100
AcDbEntity
8
1
62
256
6
ByLayer
370
18
48
1
60
0
100
AcDbLine
10
23.901041
20
20.85
30
0
11
36
21
20.85
31
0
39
0
210
0
220
0
230
1
0
LINE
5
D5
100
AcDbEntity
8
1
62
256
6
ByLayer
370
18
48
1
60
0
100
AcDbLine
10
23.356972
20
21
30
0
11
35.85
21
21
31
0
39
0
210
0
220
0
230
1
0
LINE
5
D6
100
AcDbEntity
8
1
62
256
6
ByLayer
370
18
48
1
60
0
100
AcDbLine
10
41.2
20
-21.4
30
0
11
41.2
21
16.081223
31
0
39
0
210
0
220
0
230
1
0
LINE
5
D7
100
AcDbEntity
8
1
62
256
6
ByLayer
370
18
48
1
60
0
100
AcDbLine
10
43
20
15.585252
30
0
11
43
21
-21.4
31
0
39
0
210
0
220
0
230
1
0
LINE
5
D8
100
AcDbEntity
8
1
62
256
6
ByLayer
370
18
48
1
60
0
100
AcDbLine
10
7.90625
20
-24.99375
30
0
11
11.5
21
-21.4
31
0
39
0
210
0
220
0
230
1
0
LINE
5
D9
100
AcDbEntity
8
1
62
256
6
ByLayer
370
18
48
1
60
0
100
AcDbLine
10
11.5
20
-21.4
30
0
11
41.2
21
-21.4
31
0
39
0
210
0
220
0
230
1
0
LINE
5
DA
100
AcDbEntity
8
1
62
256
6
ByLayer
370
18
48
1
60
0
100
AcDbLine
10
9.034262
20
24.944156
30
0
11
41.2
21
16.081223
31
0
39
0
210
0
220
0
230
1
0
LINE
5
DB
100
AcDbEntity
8
1
62
256
6
ByLayer
370
18
48
1
60
0
100
AcDbLine
10
0
20
-24.69375
30
0
11
0
21
24.69375
31
0
39
0
210
0
220
0
230
1
0
LINE
5
DC
100
AcDbEntity
8
1
62
256
6
ByLayer
370
18
48
1
60
0
100
AcDbLine
10
0.3
20
-24.99375
30
0
11
0.3
21
24.99375
31
0
39
0
210
0
220
0
230
1
0
LINE
5
DD
100
AcDbEntity
8
1
62
256
6
ByLayer
370
18
48
1
60
0
100
AcDbLine
10
33.435989
20
-21.86958
30
0
11
33.435152
21
-21.865545
31
0
39
0
210
0
220
0
230
1
0
LINE
5
DE
100
AcDbEntity
8
1
62
256
6
ByLayer
370
18
48
1
60
0
100
AcDbLine
10
30.201566
20
-21.86958
30
0
11
30.199014
21
-21.850792
31
0
39
0
210
0
220
0
230
1
0
LINE
5
DF
100
AcDbEntity
8
1
62
256
6
ByLayer
370
18
48
1
60
0
100
AcDbLine
10
23.235188
20
-21.430331
30
0
11
24.641359
21
-21.430331
31
0
39
0
210
0
220
0
230
1
0
LINE
5
E0
100
AcDbEntity
8
1
62
256
6
ByLayer
370
18
48
1
60
0
100
AcDbLine
10
27.591786
20
-21.400001
30
0
11
27.550091
21
-21.429415
31
0
39
0
210
0
220
0
230
1
0
LINE
5
E1
100
AcDbEntity
8
1
62
256
6
ByLayer
370
18
48
1
60
0
100
AcDbLine
10
26.691438
20
-22.035867
30
0
11
26.69458
21
-22.084053
31
0
39
0
210
0
220
0
230
1
0
LINE
5
E2
100
AcDbEntity
8
1
62
256
6
ByLayer
370
18
48
1
60
0
100
AcDbLine
10
28.75
20
-22.941
30
0
11
19.25
21
-22.941
31
0
39
0
210
0
220
0
230
1
0
LINE
5
E3
100
AcDbEntity
8
1
62
256
6
ByLayer
370
18
48
1
60
0
100
AcDbLine
10
21.221452
20
-22.037556
30
0
11
21.218321
21
-22.084053
31
0
39
0
210
0
220
0
230
1
0
LINE
5
E4
100
AcDbEntity
8
1
62
256
6
ByLayer
370
18
48
1
60
0
100
AcDbLine
10
16.877943
20
-22.073003
30
0
11
16.876019
21
-22.084053
31
0
39
0
210
0
220
0
230
1
0
LINE
5
E5
100
AcDbEntity
8
1
62
256
6
ByLayer
370
18
48
1
60
0
100
AcDbLine
10
33.666994
20
-21.86958
30
0
11
33.666563
21
-21.867555
31
0
39
0
210
0
220
0
230
1
0
LINE
5
E6
100
AcDbEntity
8
1
62
256
6
ByLayer
370
18
48
1
60
0
100
AcDbLine
10
15.38621
20
-21.430331
30
0
11
16.406217
21
-21.430331
31
0
39
0
210
0
220
0
230
1
0
LINE
5
E7
100
AcDbEntity
8
1
62
256
6
ByLayer
370
18
48
1
60
0
100
AcDbLine
10
16.835441
20
-21.86958
30
0
11
16.837686
21
-21.85529
31
0
39
0
210
0
220
0
230
1
0
LINE
5
E8
100
AcDbEntity
8
1
62
256
6
ByLayer
370
18
48
1
60
0
100
AcDbLine
10
28.137147
20
-21.86958
30
0
11
28.134155
21
-21.836451
31
0
39
0
210
0
220
0
230
1
0
LINE
5
E9
100
AcDbEntity
8
1
62
256
6
ByLayer
370
18
48
1
60
0
100
AcDbLine
10
33.056172
20
-21.86958
30
0
11
33.054942
21
-21.863398
31
0
39
0
210
0
220
0
230
1
0
LINE
5
EA
100
AcDbEntity
8
1
62
256
6
ByLayer
370
18
48
1
60
0
100
AcDbLine
10
33.52688
20
-21.430331
30
0
11
34.28657
21
-21.430331
31
0
39
0
210
0
220
0
230
1
0
LINE
5
EB
100
AcDbEntity
8
1
62
256
6
ByLayer
370
18
48
1
60
0
100
AcDbLine
10
29.210442
20
-21.86958
30
0
11
29.207649
21
-21.845066
31
0
39
0
210
0
220
0
230
1
0
LINE
5
EC
100
AcDbEntity
8
1
62
256
6
ByLayer
370
18
48
1
60
0
100
AcDbLine
10
28.940216
20
-21.409371
30
0
11
28.958601
21
-21.400006
31
0
39
0
210
0
220
0
230
1
0
LINE
5
ED
100
AcDbEntity
8
1
62
256
6
ByLayer
370
18
48
1
60
0
100
AcDbLine
10
34.323045
20
-21.430331
30
0
11
34.928435
21
-21.430331
31
0
39
0
210
0
220
0
230
1
0
LINE
5
EE
100
AcDbEntity
8
1
62
256
6
ByLayer
370
18
48
1
60
0
100
AcDbLine
10
15.417576
20
-21.86958
30
0
11
15.41915
21
-21.861231
31
0
39
0
210
0
220
0
230
1
0
LINE
5
EF
100
AcDbEntity
8
1
62
256
6
ByLayer
370
18
48
1
60
0
100
AcDbLine
10
25.780556
20
-21.820707
30
0
11
25.810865
21
-21.820707
31
0
39
0
210
0
220
0
230
1
0
LINE
5
F0
100
AcDbEntity
8
1
62
256
6
ByLayer
370
18
48
1
60
0
100
AcDbLine
10
25.812775
20
-21.86958
30
0
11
25.810865
21
-21.820707
31
0
39
0
210
0
220
0
230
1
0
LINE
5
F1
100
AcDbEntity
8
1
62
256
6
ByLayer
370
18
48
1
60
0
100
AcDbLine
10
25.810865
20
-21.820707
30
0
11
26.168314
21
-21.400006
31
0
39
0
210
0
220
0
230
1
0
LINE
5
F2
100
AcDbEntity
8
1
62
256
6
ByLayer
370
18
48
1
60
0
100
AcDbLine
10
24.536597
20
-21.820707
30
0
11
24.597753
21
-21.820707
31
0
39
0
210
0
220
0
230
1
0
LINE
5
F3
100
AcDbEntity
8
1
62
256
6
ByLayer
370
18
48
1
60
0
100
AcDbLine
10
24.597753
20
-21.820707
30
0
11
24.710653
21
-21.400006
31
0
39
0
210
0
220
0
230
1
0
LINE
5
F4
100
AcDbEntity
8
1
62
256
6
ByLayer
370
18
48
1
60
0
100
AcDbLine
10
31.094888
20
-21.86958
30
0
11
31.092617
21
-21.854986
31
0
39
0
210
0
220
0
230
1
0
LINE
5
F5
100
AcDbEntity
8
1
62
256
6
ByLayer
370
18
48
1
60
0
100
AcDbLine
10
32.533535
20
-21.86958
30
0
11
32.531931
21
-21.861021
31
0
39
0
210
0
220
0
230
1
0
LINE
5
F6
100
AcDbEntity
8
1
62
256
6
ByLayer
370
18
48
1
60
0
100
AcDbLine
10
23.300387
20
-21.820707
30
0
11
23.359
21
-21.820707
31
0
39
0
210
0
220
0
230
1
0
LINE
5
F7
100
AcDbEntity
8
1
62
256
6
ByLayer
370
18
48
1
60
0
100
AcDbLine
10
23.300387
20
-21.820707
30
0
11
23.166958
21
-21.400006
31
0
39
0
210
0
220
0
230
1
0
LINE
5
F8
100
AcDbEntity
8
1
62
256
6
ByLayer
370
18
48
1
60
0
100
AcDbLine
10
34.95641
20
-21.430331
30
0
11
35.397953
21
-21.430331
31
0
39
0
210
0
220
0
230
1
0
LINE
5
F9
100
AcDbEntity
8
1
62
256
6
ByLayer
370
18
48
1
60
0
100
AcDbLine
10
24.598356
20
-21.86958
30
0
11
24.597753
21
-21.820707
31
0
39
0
210
0
220
0
230
1
0
LINE
5
FA
100
AcDbEntity
8
1
62
256
6
ByLayer
370
18
48
1
60
0
100
AcDbLine
10
19.770551
20
-21.86958
30
0
11
19.773528
21
-21.837341
31
0
39
0
210
0
220
0
230
1
0
LINE
5
FB
100
AcDbEntity
8
1
62
256
6
ByLayer
370
18
48
1
60
0
100
AcDbLine
10
18.946998
20
-21.408182
30
0
11
18.930584
21
-21.400006
31
0
39
0
210
0
220
0
230
1
0
LINE
5
FC
100
AcDbEntity
8
1
62
256
6
ByLayer
370
18
48
1
60
0
100
AcDbLine
10
18.703481
20
-21.86958
30
0
11
18.706257
21
-21.845626
31
0
39
0
210
0
220
0
230
1
0
LINE
5
FD
100
AcDbEntity
8
1
62
256
6
ByLayer
370
18
48
1
60
0
100
AcDbLine
10
22.088931
20
-21.820707
30
0
11
22.116638
21
-21.820707
31
0
39
0
210
0
220
0
230
1
0
LINE
5
FE
100
AcDbEntity
8
1
62
256
6
ByLayer
370
18
48
1
60
0
100
AcDbLine
10
17.719941
20
-21.86958
30
0
11
17.722472
21
-21.851188
31
0
39
0
210
0
220
0
230
1
0
LINE
5
FF
100
AcDbEntity
8
1
62
256
6
ByLayer
370
18
48
1
60
0
100
AcDbLine
10
14.906572
20
-21.86958
30
0
11
14.907771
21
-21.863584
31
0
39
0
210
0
220
0
230
1
0
LINE
5
100
100
AcDbEntity
8
1
62
256
6
ByLayer
370
18
48
1
60
0
100
AcDbLine
10
13.025672
20
-21.430331
30
0
11
13.617719
21
-21.430331
31
0
39
0
210
0
220
0
230
1
0
LINE
5
101
100
AcDbEntity
8
1
62
256
6
ByLayer
370
18
48
1
60
0
100
AcDbLine
10
14.538977
20
-21.86958
30
0
11
14.539781
21
-21.865717
31
0
39
0
210
0
220
0
230
1
0
LINE
5
102
100
AcDbEntity
8
1
62
256
6
ByLayer
370
18
48
1
60
0
100
AcDbLine
10
14.320588
20
-21.86958
30
0
11
14.320984
21
-21.867719
31
0
39
0
210
0
220
0
230
1
0
LINE
5
103
100
AcDbEntity
8
1
62
256
6
ByLayer
370
18
48
1
60
0
100
AcDbLine
10
28.99943
20
-21.430331
30
0
11
30.235219
21
-21.430331
31
0
39
0
210
0
220
0
230
1
0
LINE
5
104
100
AcDbEntity
8
1
62
256
6
ByLayer
370
18
48
1
60
0
100
AcDbLine
10
20.291682
20
-21.400001
30
0
11
20.331467
21
-21.427175
31
0
39
0
210
0
220
0
230
1
0
LINE
5
105
100
AcDbEntity
8
1
62
256
6
ByLayer
370
18
48
1
60
0
100
AcDbLine
10
22.086913
20
-21.86958
30
0
11
22.088931
21
-21.820707
31
0
39
0
210
0
220
0
230
1
0
LINE
5
106
100
AcDbEntity
8
1
62
256
6
ByLayer
370
18
48
1
60
0
100
AcDbLine
10
12.206421
20
-21.430331
30
0
11
12.287382
21
-21.430331
31
0
39
0
210
0
220
0
230
1
0
LINE
5
107
100
AcDbEntity
8
1
62
256
6
ByLayer
370
18
48
1
60
0
100
AcDbLine
10
12.296392
20
-21.430331
30
0
11
12.55264
21
-21.430331
31
0
39
0
210
0
220
0
230
1
0
LINE
5
108
100
AcDbEntity
8
1
62
256
6
ByLayer
370
18
48
1
60
0
100
AcDbLine
10
12.57091
20
-21.430331
30
0
11
12.998429
21
-21.430331
31
0
39
0
210
0
220
0
230
1
0
LINE
5
109
100
AcDbEntity
8
1
62
256
6
ByLayer
370
18
48
1
60
0
100
AcDbLine
10
32.745541
20
-22.083972
30
0
11
32.745558
21
-22.084053
31
0
39
0
210
0
220
0
230
1
0
LINE
5
10A
100
AcDbEntity
8
1
62
256
6
ByLayer
370
18
48
1
60
0
100
AcDbLine
10
13.653506
20
-21.430331
30
0
11
14.400745
21
-21.430331
31
0
39
0
210
0
220
0
230
1
0
LINE
5
10B
100
AcDbEntity
8
1
62
256
6
ByLayer
370
18
48
1
60
0
100
AcDbLine
10
16.463754
20
-21.430331
30
0
11
17.597037
21
-21.430331
31
0
39
0
210
0
220
0
230
1
0
LINE
5
10C
100
AcDbEntity
8
1
62
256
6
ByLayer
370
18
48
1
60
0
100
AcDbLine
10
17.66015
20
-21.430331
30
0
11
18.888835
21
-21.430331
31
0
39
0
210
0
220
0
230
1
0
LINE
5
10D
100
AcDbEntity
8
1
62
256
6
ByLayer
370
18
48
1
60
0
100
AcDbLine
10
18.956529
20
-21.430331
30
0
11
20.261239
21
-21.430331
31
0
39
0
210
0
220
0
230
1
0
LINE
5
10E
100
AcDbEntity
8
1
62
256
6
ByLayer
370
18
48
1
60
0
100
AcDbLine
10
20.332446
20
-21.430331
30
0
11
21.692606
21
-21.430331
31
0
39
0
210
0
220
0
230
1
0
LINE
5
10F
100
AcDbEntity
8
1
62
256
6
ByLayer
370
18
48
1
60
0
100
AcDbLine
10
21.766203
20
-21.430331
30
0
11
23.160362
21
-21.430331
31
0
39
0
210
0
220
0
230
1
0
LINE
5
110
100
AcDbEntity
8
1
62
256
6
ByLayer
370
18
48
1
60
0
100
AcDbLine
10
35.416985
20
-21.430331
30
0
11
35.687718
21
-21.430331
31
0
39
0
210
0
220
0
230
1
0
LINE
5
111
100
AcDbEntity
8
1
62
256
6
ByLayer
370
18
48
1
60
0
100
AcDbLine
10
22.088931
20
-21.820707
30
0
11
21.711276
21
-21.400006
31
0
39
0
210
0
220
0
230
1
0
LINE
5
112
100
AcDbEntity
8
1
62
256
6
ByLayer
370
18
48
1
60
0
100
AcDbLine
10
35.697508
20
-21.430331
30
0
11
35.79316
21
-21.430331
31
0
39
0
210
0
220
0
230
1
0
LINE
5
113
100
AcDbEntity
8
1
62
256
6
ByLayer
370
18
48
1
60
0
100
AcDbLine
10
23.299674
20
-21.86958
30
0
11
23.300387
21
-21.820707
31
0
39
0
210
0
220
0
230
1
0
LINE
5
114
100
AcDbEntity
8
1
62
256
6
ByLayer
370
18
48
1
60
0
100
AcDbLine
10
24.716235
20
-21.430331
30
0
11
26.112242
21
-21.430331
31
0
39
0
210
0
220
0
230
1
0
LINE
5
115
100
AcDbEntity
8
1
62
256
6
ByLayer
370
18
48
1
60
0
100
AcDbLine
10
26.185986
20
-21.430331
30
0
11
27.549813
21
-21.430331
31
0
39
0
210
0
220
0
230
1
0
LINE
5
116
100
AcDbEntity
8
1
62
256
6
ByLayer
370
18
48
1
60
0
100
AcDbLine
10
27.621263
20
-21.430331
30
0
11
28.931402
21
-21.430331
31
0
39
0
210
0
220
0
230
1
0
LINE
5
117
100
AcDbEntity
8
1
62
256
6
ByLayer
370
18
48
1
60
0
100
AcDbLine
10
30.298754
20
-21.430331
30
0
11
31.440704
21
-21.430331
31
0
39
0
210
0
220
0
230
1
0
LINE
5
118
100
AcDbEntity
8
1
62
256
6
ByLayer
370
18
48
1
60
0
100
AcDbLine
10
31.498742
20
-21.430331
30
0
11
32.528844
21
-21.430331
31
0
39
0
210
0
220
0
230
1
0
LINE
5
119
100
AcDbEntity
8
1
62
256
6
ByLayer
370
18
48
1
60
0
100
AcDbLine
10
32.580471
20
-21.430331
30
0
11
33.482479
21
-21.430331
31
0
39
0
210
0
220
0
230
1
0
LINE
5
11A
100
AcDbEntity
8
1
62
256
6
ByLayer
370
18
48
1
60
0
100
AcDbLine
10
14.44451
20
-21.430331
30
0
11
15.335156
21
-21.430331
31
0
39
0
210
0
220
0
230
1
0
LINE
5
11B
100
AcDbEntity
8
1
62
256
6
ByLayer
370
18
48
1
60
0
100
AcDbLine
10
31.068441
20
-22.072756
30
0
11
31.070394
21
-22.084053
31
0
39
0
210
0
220
0
230
1
0
LINE
5
11C
100
AcDbEntity
8
1
62
256
6
ByLayer
370
18
48
1
60
0
100
AcDbLine
10
28.75
20
-22.941
30
0
11
19.25
21
-22.941
31
0
39
0
210
0
220
0
230
1
0
LINE
5
11D
100
AcDbEntity
8
4
62
256
6
ByLayer
370
13
48
0.05
60
0
100
AcDbLine
10
24
20
-28.24375
30
0
11
24
21
21
31
0
39
0
210
0
220
0
230
1
0
MTEXT
5
1C4
100
AcDbEntity
8
SK6
62
256
6
ByLayer
370
18
48
1
60
0
100
AcDbMText
10
6.656132
20
-15.593938
30
0
210
0
220
0
230
1
1
\W0.7732;A34-R826C-E024HP
40
3
41
0
44
1.084337
50
89.9999999999997
71
7
72
5
7
iso_b_vert
0
MTEXT
5
1C8
100
AcDbEntity
8
SK2
62
256
6
ByLayer
370
18
48
1
60
0
100
AcDbMText
10
61.423146
20
-2.037445
30
0
210
0
220
0
230
1
1
\W0.7744;Dc min 61.35
40
3
41
0
44
1.084337
50
89.9999999999993
71
7
72
5
7
iso_b_vert
0
DIMENSION
5
1D3
100
AcDbEntity
8
2
62
256
6
ByLayer
370
13
48
1
60
0
100
AcDbDimension
2
DimnDraft3D1
10
47
20
56.385065
30
0
11
19.9
21
56.385065
31
0
70
32
71
5
72
1
41
1
210
0
220
0
230
1
3
Standard
100
AcDbAlignedDimension
13
0
23
26.69375
33
0
14
47
24
33
34
0
50
0
100
AcDbRotatedDimension
1001
ACAD
1000
DSTYLE
1002
{
1070
   279
1070
     0
1070
   172
1070
     1
1070
   173
1070
     1
1070
   340
1005
1C5
1070
   271
1070
     1
1070
    77
1070
     1
1070
    73
1070
     0
1070
   171
1070
     4
1070
   274
1070
     4
1070
   177
1070
     7
1070
   176
1070
     7
1070
   178
1070
     7
1070
    41
1041
3.175
1070
   147
1041
1.5
1070
    42
1041
2.0
1070
    44
1041
2.0
1070
   140
1041
3.0
1070
   343
1005
0
1070
   344
1005
0
1002
}
0
DIMENSION
5
1DD
100
AcDbEntity
8
SK2
62
256
6
ByLayer
370
13
48
1
60
0
100
AcDbDimension
2
DimnDraft3D2
10
-37.817043
20
24.99375
30
0
11
-37.317043
21
-4.073684
31
0
70
33
71
5
72
1
41
1
210
0
220
0
230
1
3
Standard
100
AcDbAlignedDimension
13
-1.7
23
-24.99375
33
0
14
-1.7
24
24.99375
34
0
1001
ACAD
1000
DSTYLE
1002
{
1070
   279
1070
     0
1070
    74
1070
     0
1070
   173
1070
     1
1070
   340
1005
1C5
1070
   271
1070
     1
1070
    77
1070
     1
1070
    73
1070
     0
1070
   171
1070
     4
1070
   274
1070
     4
1070
   177
1070
     7
1070
   176
1070
     7
1070
   178
1070
     7
1070
    78
1070
     8
1070
    41
1041
3.175
1070
   147
1041
1.5
1070
    42
1041
2.0
1070
    44
1041
2.0
1070
   140
1041
3.0
1070
   343
1005
0
1070
   344
1005
0
1002
}
0
DIMENSION
5
1E7
100
AcDbEntity
8
SK2
62
256
6
ByLayer
370
13
48
1
60
0
100
AcDbDimension
2
DimnDraft3D3
10
24
20
-31.5
30
0
11
8.4
21
-31.5
31
0
70
32
71
5
72
1
41
1
210
0
220
0
230
1
3
Standard
100
AcDbAlignedDimension
13
0
23
-26.69375
33
0
14
24
24
-30.24375
34
0
50
0
100
AcDbRotatedDimension
1001
ACAD
1000
DSTYLE
1002
{
1070
   279
1070
     0
1070
   173
1070
     1
1070
   340
1005
1C5
1070
   271
1070
     1
1070
    77
1070
     1
1070
    73
1070
     0
1070
   171
1070
     4
1070
   274
1070
     4
1070
   177
1070
     7
1070
   176
1070
     7
1070
   178
1070
     7
1070
    41
1041
3.175
1070
   147
1041
1.5
1070
    42
1041
2.0
1070
    44
1041
2.0
1070
   140
1041
3.0
1070
   343
1005
0
1070
   344
1005
0
1002
}
0
DIMENSION
5
1F1
100
AcDbEntity
8
SK2
62
256
6
ByLayer
370
13
48
1
60
0
100
AcDbDimension
2
DimnDraft3D4
10
43
20
-46.5
30
0
11
17.9
21
-46.5
31
0
70
32
71
5
72
1
41
1
210
0
220
0
230
1
3
Standard
100
AcDbAlignedDimension
13
0
23
-26.69375
33
0
14
43
24
-23.4
34
0
50
0
100
AcDbRotatedDimension
1001
ACAD
1000
DSTYLE
1002
{
1070
   279
1070
     0
1070
   172
1070
     1
1070
   173
1070
     1
1070
   340
1005
1C5
1070
   271
1070
     1
1070
    77
1070
     1
1070
    73
1070
     0
1070
   171
1070
     4
1070
   274
1070
     4
1070
   177
1070
     7
1070
   176
1070
     7
1070
   178
1070
     7
1070
    41
1041
3.175
1070
   147
1041
1.5
1070
    42
1041
2.0
1070
    44
1041
2.0
1070
   140
1041
3.0
1070
   343
1005
0
1070
   344
1005
0
1002
}
0
DIMENSION
5
1FB
100
AcDbEntity
8
SK2
62
256
6
ByLayer
370
13
48
1
60
0
100
AcDbDimension
2
DimnDraft3D5
10
43
20
-61.5
30
0
11
14.432895
21
-61.5
31
0
70
32
71
5
72
1
41
1
210
0
220
0
230
1
3
Standard
100
AcDbAlignedDimension
13
-8
23
-18.434535
33
0
14
43
24
-23.4
34
0
50
0
100
AcDbRotatedDimension
1001
ACAD
1000
DSTYLE
1002
{
1070
   279
1070
     0
1070
   172
1070
     1
1070
   173
1070
     1
1070
   340
1005
1C5
1070
   271
1070
     1
1070
    77
1070
     1
1070
    73
1070
     0
1070
   171
1070
     4
1070
   274
1070
     4
1070
   177
1070
     7
1070
   176
1070
     7
1070
   178
1070
     7
1070
    41
1041
3.175
1070
   147
1041
1.5
1070
    42
1041
2.0
1070
    44
1041
2.0
1070
   140
1041
3.0
1070
   343
1005
0
1070
   344
1005
0
1002
}
0
ENDSEC
0
SECTION
2
OBJECTS
0
DICTIONARY
5
266
330
0
100
AcDbDictionary
280
0
281
1
3
ACAD_GROUP
350
267
3
ACAD_MLINESTYLE
350
268
0
DICTIONARY
5
267
330
0
100
AcDbDictionary
280
0
281
1
0
DICTIONARY
5
268
330
0
100
AcDbDictionary
280
0
281
1
3
Standard
350
18
0
MLINESTYLE
5
18
330
268
100
AcDbMlineStyle
2
Standard
70
0
3

62
256
51
90
52
90
71
2
49
-0.5
62
256
6
ByLayer
49
0.5
62
256
6
ByLayer
0
RASTERVARIABLES
5
254
330

100
AcDbRasterVariables
90
0
70
1
71
1
72
1
0
ENDSEC
0
EOF
