0
SECTION
2
HEADER
9
$ACADVER
1
AC1015
9
$DWGCODEPAGE
3
ANSI_1252
9
$HANDSEED
5
1a2
9
$ANGBASE
50
0
9
$ANGDIR
70
0
9
$ATTMODE
70
1
9
$AUNITS
70
0
9
$AUPREC
70
0
9
$CECOLOR
62
256
9
$CELTSCALE
40
1
9
$CELTYPE
6
ByLayer
9
$CELWEIGHT
370
-1
9
$CLAYER
8
0
9
$CMLJUST
70
0
9
$CMLSCALE
40
1
9
$CMLSTYLE
2
Standard
9
$DIMSTYLE
2
Standard
9
$TEXTSIZE
40
0.2
9
$TEXTSTYLE
7
Standard
9
$LUNITS
70
2
9
$LUPREC
70
4
9
$EXTNAMES
290
1
9
$INSUNITS
70
4
9
$LTSCALE
40
1
9
$LWDISPLAY
290
0
9
$PDMODE
70
0
9
$PDSIZE
40
0
9
$PLINEGEN
70
0
0
ENDSEC
0
SECTION
2
CLASSES
0
CLASS
1
RASTERVARIABLES
2
AcDbRasterVariables
3
ISM
90
0
280
0
281
0
0
ENDSEC
0
SECTION
2
TABLES
0
TABLE
2
VPORT
5
198
100
AcDbSymbolTable
0
VPORT
5
1
100
AcDbSymbolTableRecord
100
AcDbViewportTableRecord
2
*Active
70
0
10
0
20
0
11
1
21
1
12
-1
22
1
13
0
23
0
14
0.5
24
0.5
15
10
25
10
16
0
26
0
36
1
17
0
27
0
37
0
0
ENDTAB
0
TABLE
2
LTYPE
5
199
100
AcDbSymbolTable
0
LTYPE
5
14
100
AcDbSymbolTableRecord
100
AcDbLinetypeTableRecord
70
0
2
ByBlock
3

72
65
73
0
40
0
0
LTYPE
5
15
100
AcDbSymbolTableRecord
100
AcDbLinetypeTableRecord
70
0
2
ByLayer
3

72
65
73
0
40
0
0
LTYPE
5
16
100
AcDbSymbolTableRecord
100
AcDbLinetypeTableRecord
70
0
2
CONTINUOUS
3
Solid line
72
65
73
0
40
0
0
LTYPE
5
3B
100
AcDbSymbolTableRecord
100
AcDbLinetypeTableRecord
70
0
2
DASHED
3
__ __ __ __ __ __ __ __ __
72
65
73
2
40
25.72
49
12.86
74
0
49
-12.86
74
0
0
LTYPE
5
3C
100
AcDbSymbolTableRecord
100
AcDbLinetypeTableRecord
70
0
2
HIDDEN
3
_ _ _ _ _ _ _ _ _ _ _ _ _ _ _
72
65
73
2
40
0.5
49
0.25
74
0
49
-0.25
74
0
0
LTYPE
5
3D
100
AcDbSymbolTableRecord
100
AcDbLinetypeTableRecord
70
0
2
PHANTOM
3
____ _ _ ____ _ _ _____ _ _ ____
72
65
73
6
40
50.5
49
18
74
0
49
-6.5
74
0
49
6.5
74
0
49
-6.5
74
0
49
6.5
74
0
49
-6.5
74
0
0
LTYPE
5
3E
100
AcDbSymbolTableRecord
100
AcDbLinetypeTableRecord
70
0
2
CENTER
3
____ _ ____ _ ____ _ ____
72
65
73
4
40
47.5
49
22
74
0
49
-8.5
74
0
49
8.5
74
0
49
-8.5
74
0
0
LTYPE
5
3F
100
AcDbSymbolTableRecord
100
AcDbLinetypeTableRecord
70
0
2
DOT
3
.........................
72
65
73
2
40
10
49
0
74
0
49
-10
74
0
0
LTYPE
5
40
100
AcDbSymbolTableRecord
100
AcDbLinetypeTableRecord
70
0
2
DASHDOT
3
_._._._._._._._._._._._._._._._.
72
65
73
4
40
70
49
31
74
0
49
-13
74
0
49
13
74
0
49
-13
74
0
0
ENDTAB
0
TABLE
2
LAYER
5
19a
100
AcDbSymbolTable
0
LAYER
5
10
100
AcDbSymbolTableRecord
100
AcDbLayerTableRecord
2
0
70
0
62
7
6
CONTINUOUS
290
1
370
-3
390
0
0
LAYER
5
42
100
AcDbSymbolTableRecord
100
AcDbLayerTableRecord
2
80
70
0
62
-6
6
CONTINUOUS
290
1
370
-3
390
0
0
LAYER
5
44
100
AcDbSymbolTableRecord
100
AcDbLayerTableRecord
2
81
70
0
62
-3
6
CONTINUOUS
290
1
370
-3
390
0
0
LAYER
5
46
100
AcDbSymbolTableRecord
100
AcDbLayerTableRecord
2
1
70
0
62
4
6
CONTINUOUS
290
1
370
-3
390
0
0
LAYER
5
48
100
AcDbSymbolTableRecord
100
AcDbLayerTableRecord
2
2
70
0
62
7
6
CONTINUOUS
290
1
370
-3
390
0
0
LAYER
5
4F
100
AcDbSymbolTableRecord
100
AcDbLayerTableRecord
2
4
70
0
62
-2
6
CENTER
290
1
370
-3
390
0
0
LAYER
5
184
100
AcDbSymbolTableRecord
100
AcDbLayerTableRecord
2
SK4
70
0
62
2
6
CENTER
290
1
370
-3
390
0
0
LAYER
5
185
100
AcDbSymbolTableRecord
100
AcDbLayerTableRecord
2
SK1
70
0
62
4
6
CONTINUOUS
290
1
370
-3
390
0
0
LAYER
5
186
100
AcDbSymbolTableRecord
100
AcDbLayerTableRecord
2
SK6
70
0
62
5
6
CONTINUOUS
290
1
370
-3
390
0
0
LAYER
5
187
100
AcDbSymbolTableRecord
100
AcDbLayerTableRecord
2
SK2
70
0
62
7
6
CONTINUOUS
290
1
370
-3
390
0
0
ENDTAB
0
TABLE
2
STYLE
5
19b
100
AcDbSymbolTable
0
STYLE
5
11
100
AcDbSymbolTableRecord
100
AcDbTextStyleTableRecord
2
Standard
3
txt
70
0
71
0
40
0
41
1
42
0
50
0
0
STYLE
5
100
100
AcDbSymbolTableRecord
100
AcDbTextStyleTableRecord
2
DEFAULT
3
simplex.shx
70
0
71
0
40
0
41
1
42
0
50
0
0
STYLE
5
123
100
AcDbSymbolTableRecord
100
AcDbTextStyleTableRecord
2
DWGDirectTextStyle
3
SIMPLEX
70
0
71
0
40
0
41
1
42
0
50
0
0
ENDTAB
0
TABLE
2
DIMSTYLE
5
19c
100
AcDbSymbolTable
100
AcDbDimStyleTable
0
DIMSTYLE
105
27
100
AcDbSymbolTableRecord
100
AcDbDimStyleTableRecord
2
Standard
70
0
3
<>
41
0.18
42
0.0625
44
0.18
140
0.18
147
0.09
73
0
74
0
77
1
271
2
275
0
278
52
280
0
340
11
0
ENDTAB
0
TABLE
2
VIEW
5
19d
100
AcDbSymbolTable
0
ENDTAB
0
TABLE
2
UCS
5
19e
100
AcDbSymbolTable
0
ENDTAB
0
TABLE
2
APPID
5
19f
100
AcDbSymbolTable
0
APPID
5
12
100
AcDbSymbolTableRecord
100
AcDbRegAppTableRecord
2
ACAD
70
0
0
ENDTAB
0
TABLE
2
BLOCK_RECORD
5
1a0
100
AcDbSymbolTable
0
BLOCK_RECORD
5
1F
100
AcDbSymbolTableRecord
100
AcDbBlockTableRecord
2
*Model_Space
340
0
70
0
0
BLOCK_RECORD
5
1B
100
AcDbSymbolTableRecord
100
AcDbBlockTableRecord
2
*Paper_Space
340
0
70
0
0
BLOCK_RECORD
5
23
100
AcDbSymbolTableRecord
100
AcDbBlockTableRecord
2
*Paper_Space0
340
0
70
0
0
BLOCK_RECORD
5
125
100
AcDbSymbolTableRecord
100
AcDbBlockTableRecord
2
DimnDraft3D1
340
0
70
0
0
BLOCK_RECORD
5
133
100
AcDbSymbolTableRecord
100
AcDbBlockTableRecord
2
_CLOSED
340
0
70
0
0
BLOCK_RECORD
5
13A
100
AcDbSymbolTableRecord
100
AcDbBlockTableRecord
2
DimnDraft3D2
340
0
70
0
0
BLOCK_RECORD
5
149
100
AcDbSymbolTableRecord
100
AcDbBlockTableRecord
2
DimnDraft3D3
340
0
70
0
0
BLOCK_RECORD
5
157
100
AcDbSymbolTableRecord
100
AcDbBlockTableRecord
2
DimnDraft3D4
340
0
70
0
0
ENDTAB
0
ENDSEC
0
SECTION
2
BLOCKS
0
BLOCK
5
20
100
AcDbEntity
8
0
100
AcDbBlockBegin
2
*Model_Space
70
0
10
0
20
0
30
0
3
*Model_Space
0
ENDBLK
5
21
100
AcDbEntity
8
0
100
AcDbBlockEnd
0
BLOCK
5
1C
100
AcDbEntity
8
0
100
AcDbBlockBegin
2
*Paper_Space
70
0
10
0
20
0
30
0
3
*Paper_Space
0
ENDBLK
5
1D
100
AcDbEntity
8
0
100
AcDbBlockEnd
0
BLOCK
5
24
100
AcDbEntity
8
0
100
AcDbBlockBegin
2
*Paper_Space0
70
0
10
0
20
0
30
0
3
*Paper_Space0
0
ENDBLK
5
25
100
AcDbEntity
8
0
100
AcDbBlockEnd
0
BLOCK
5
130
100
AcDbEntity
8
0
100
AcDbBlockBegin
2
DimnDraft3D1
70
0
10
0
20
0
30
0
3
DimnDraft3D1
0
MTEXT
5
126
100
AcDbEntity
8
2
62
256
6
ByLayer
370
-1
48
1
60
0
100
AcDbMText
10
111.055
20
5.474342
30
0
210
0
220
0
230
1
1
\W01.000;\fsimplex.shx,bigfont.shx;18.0 
40
4.5
41
0
44
1.084337
50
90
71
7
72
5
7
DEFAULT
0
LINE
5
127
100
AcDbEntity
8
2
62
256
6
ByLayer
370
-1
48
1
60
0
100
AcDbLine
10
101.93
20
17.9
30
0
11
114.18
21
17.9
31
0
39
0
210
0
220
0
230
1
0
LINE
5
128
100
AcDbEntity
8
2
62
256
6
ByLayer
370
-1
48
1
60
0
100
AcDbLine
10
101.93
20
0
30
0
11
114.18
21
0
31
0
39
0
210
0
220
0
230
1
0
LINE
5
129
100
AcDbEntity
8
2
62
256
6
ByLayer
370
-1
48
1
60
0
100
AcDbLine
10
112.18
20
29.15
30
0
11
112.18
21
-11.25
31
0
39
0
210
0
220
0
230
1
0
LINE
5
12A
100
AcDbEntity
8
2
62
256
6
ByLayer
370
-1
48
1
60
0
100
AcDbLine
10
112.18
20
17.9
30
0
11
111.762003
21
21.074998
31
0
39
0
210
0
220
0
230
1
0
LINE
5
12B
100
AcDbEntity
8
2
62
256
6
ByLayer
370
-1
48
1
60
0
100
AcDbLine
10
112.18
20
17.9
30
0
11
112.597997
21
21.075002
31
0
39
0
210
0
220
0
230
1
0
LINE
5
12C
100
AcDbEntity
8
2
62
256
6
ByLayer
370
-1
48
1
60
0
100
AcDbLine
10
111.762003
20
21.074998
30
0
11
112.597997
21
21.075002
31
0
39
0
210
0
220
0
230
1
0
LINE
5
12D
100
AcDbEntity
8
2
62
256
6
ByLayer
370
-1
48
1
60
0
100
AcDbLine
10
112.18
20
0
30
0
11
112.597997
21
-3.174998
31
0
39
0
210
0
220
0
230
1
0
LINE
5
12E
100
AcDbEntity
8
2
62
256
6
ByLayer
370
-1
48
1
60
0
100
AcDbLine
10
112.18
20
0
30
0
11
111.762003
21
-3.175002
31
0
39
0
210
0
220
0
230
1
0
LINE
5
12F
100
AcDbEntity
8
2
62
256
6
ByLayer
370
-1
48
1
60
0
100
AcDbLine
10
112.597997
20
-3.174998
30
0
11
111.762003
21
-3.175002
31
0
39
0
210
0
220
0
230
1
0
ENDBLK
5
131
100
AcDbEntity
8
0
100
AcDbBlockEnd
0
BLOCK
5
134
100
AcDbEntity
8
0
100
AcDbBlockBegin
2
_CLOSED
70
0
10
0
20
0
30
0
3
_CLOSED
0
LINE
5
136
100
AcDbEntity
8
0
62
256
6
ByLayer
370
-2
48
1
60
0
100
AcDbLine
10
-1
20
0.166667
30
0
11
0
21
0
31
0
39
0
210
0
220
0
230
1
0
LINE
5
137
100
AcDbEntity
8
0
62
256
6
ByLayer
370
-2
48
1
60
0
100
AcDbLine
10
0
20
0
30
0
11
-1
21
-0.166667
31
0
39
0
210
0
220
0
230
1
0
LINE
5
138
100
AcDbEntity
8
0
62
256
6
ByLayer
370
-2
48
1
60
0
100
AcDbLine
10
-1
20
0.166667
30
0
11
-1
21
-0.166667
31
0
39
0
210
0
220
0
230
1
0
LINE
5
139
100
AcDbEntity
8
0
62
256
6
ByLayer
370
-2
48
1
60
0
100
AcDbLine
10
0
20
0
30
0
11
-1
21
0
31
0
39
0
210
0
220
0
230
1
0
ENDBLK
5
135
100
AcDbEntity
8
0
100
AcDbBlockEnd
0
BLOCK
5
146
100
AcDbEntity
8
0
100
AcDbBlockBegin
2
DimnDraft3D2
70
0
10
0
20
0
30
0
3
DimnDraft3D2
0
MTEXT
5
13B
100
AcDbEntity
8
SK2
62
256
6
ByLayer
370
-1
48
1
60
0
100
AcDbMText
10
-212.195
20
-3.659211
30
0
210
0
220
0
230
1
1
\W01.000;\fsimplex.shx,bigfont.shx;%%c25 
40
4.5
41
0
44
1.084337
50
90
71
7
72
5
7
DEFAULT
0
LINE
5
13D
100
AcDbEntity
8
SK2
62
256
6
ByLayer
370
-1
48
1
60
0
100
AcDbLine
10
-203.32
20
-12.49125
30
0
11
-213.07
21
-12.49125
31
0
39
0
210
0
220
0
230
1
0
LINE
5
13E
100
AcDbEntity
8
SK2
62
256
6
ByLayer
370
-1
48
1
60
0
100
AcDbLine
10
-203.32
20
12.49125
30
0
11
-213.07
21
12.49125
31
0
39
0
210
0
220
0
230
1
0
LINE
5
13F
100
AcDbEntity
8
SK2
62
256
6
ByLayer
370
-1
48
1
60
0
100
AcDbLine
10
-211.07
20
-12.49125
30
0
11
-211.07
21
12.49125
31
0
39
0
210
0
220
0
230
1
0
LINE
5
140
100
AcDbEntity
8
SK2
62
256
6
ByLayer
370
-1
48
1
60
0
100
AcDbLine
10
-211.07
20
-12.49125
30
0
11
-211.487997
21
-9.316252
31
0
39
0
210
0
220
0
230
1
0
LINE
5
141
100
AcDbEntity
8
SK2
62
256
6
ByLayer
370
-1
48
1
60
0
100
AcDbLine
10
-211.07
20
-12.49125
30
0
11
-210.652003
21
-9.316248
31
0
39
0
210
0
220
0
230
1
0
LINE
5
142
100
AcDbEntity
8
SK2
62
256
6
ByLayer
370
-1
48
1
60
0
100
AcDbLine
10
-211.487997
20
-9.316252
30
0
11
-210.652003
21
-9.316248
31
0
39
0
210
0
220
0
230
1
0
LINE
5
143
100
AcDbEntity
8
SK2
62
256
6
ByLayer
370
-1
48
1
60
0
100
AcDbLine
10
-211.07
20
12.49125
30
0
11
-210.652003
21
9.316252
31
0
39
0
210
0
220
0
230
1
0
LINE
5
144
100
AcDbEntity
8
SK2
62
256
6
ByLayer
370
-1
48
1
60
0
100
AcDbLine
10
-211.07
20
12.49125
30
0
11
-211.487997
21
9.316248
31
0
39
0
210
0
220
0
230
1
0
LINE
5
145
100
AcDbEntity
8
SK2
62
256
6
ByLayer
370
-1
48
1
60
0
100
AcDbLine
10
-210.652003
20
9.316252
30
0
11
-211.487997
21
9.316248
31
0
39
0
210
0
220
0
230
1
0
ENDBLK
5
147
100
AcDbEntity
8
0
100
AcDbBlockEnd
0
BLOCK
5
154
100
AcDbEntity
8
0
100
AcDbBlockBegin
2
DimnDraft3D3
70
0
10
0
20
0
30
0
3
DimnDraft3D3
0
MTEXT
5
14A
100
AcDbEntity
8
SK2
62
256
6
ByLayer
370
-1
48
1
60
0
100
AcDbMText
10
-56.385132
20
31.775
30
0
210
0
220
0
230
1
1
\W01.000;\fsimplex.shx,bigfont.shx;300.0 
40
4.5
41
0
44
1.084337
50
0
71
7
72
5
7
DEFAULT
0
LINE
5
14B
100
AcDbEntity
8
SK2
62
256
6
ByLayer
370
-1
48
1
60
0
100
AcDbLine
10
99.93
20
19.9
30
0
11
99.93
21
32.65
31
0
39
0
210
0
220
0
230
1
0
LINE
5
14C
100
AcDbEntity
8
SK2
62
256
6
ByLayer
370
-1
48
1
60
0
100
AcDbLine
10
-201.32
20
14.49125
30
0
11
-201.32
21
32.65
31
0
39
0
210
0
220
0
230
1
0
LINE
5
14D
100
AcDbEntity
8
SK2
62
256
6
ByLayer
370
-1
48
1
60
0
100
AcDbLine
10
99.93
20
30.65
30
0
11
-201.32
21
30.65
31
0
39
0
210
0
220
0
230
1
0
LINE
5
14E
100
AcDbEntity
8
SK2
62
256
6
ByLayer
370
-1
48
1
60
0
100
AcDbLine
10
99.93
20
30.65
30
0
11
96.755002
21
30.232003
31
0
39
0
210
0
220
0
230
1
0
LINE
5
14F
100
AcDbEntity
8
SK2
62
256
6
ByLayer
370
-1
48
1
60
0
100
AcDbLine
10
99.93
20
30.65
30
0
11
96.754998
21
31.067997
31
0
39
0
210
0
220
0
230
1
0
LINE
5
150
100
AcDbEntity
8
SK2
62
256
6
ByLayer
370
-1
48
1
60
0
100
AcDbLine
10
96.755002
20
30.232003
30
0
11
96.754998
21
31.067997
31
0
39
0
210
0
220
0
230
1
0
LINE
5
151
100
AcDbEntity
8
SK2
62
256
6
ByLayer
370
-1
48
1
60
0
100
AcDbLine
10
-201.32
20
30.65
30
0
11
-198.145002
21
31.067997
31
0
39
0
210
0
220
0
230
1
0
LINE
5
152
100
AcDbEntity
8
SK2
62
256
6
ByLayer
370
-1
48
1
60
0
100
AcDbLine
10
-201.32
20
30.65
30
0
11
-198.144998
21
30.232003
31
0
39
0
210
0
220
0
230
1
0
LINE
5
153
100
AcDbEntity
8
SK2
62
256
6
ByLayer
370
-1
48
1
60
0
100
AcDbLine
10
-198.145002
20
31.067997
30
0
11
-198.144998
21
30.232003
31
0
39
0
210
0
220
0
230
1
0
ENDBLK
5
155
100
AcDbEntity
8
0
100
AcDbBlockEnd
0
BLOCK
5
162
100
AcDbEntity
8
0
100
AcDbBlockBegin
2
DimnDraft3D4
70
0
10
0
20
0
30
0
3
DimnDraft3D4
0
MTEXT
5
158
100
AcDbEntity
8
2
62
256
6
ByLayer
370
-1
48
1
60
0
100
AcDbMText
10
126.714157
20
-36.834311
30
0
210
0
220
0
230
1
1
\W01.000;\fsimplex.shx,bigfont.shx;93%%d0' 
40
4.5
41
0
44
1.084337
50
43.5000000000001
71
7
72
5
7
DEFAULT
0
LINE
5
159
100
AcDbEntity
8
2
62
256
6
ByLayer
370
-1
48
1
60
0
100
AcDbLine
10
98.987953
20
-0.075332
30
0
11
96.43129
21
-48.859355
31
0
39
0
210
0
220
0
230
1
0
LINE
5
15A
100
AcDbEntity
8
2
62
256
6
ByLayer
370
-1
48
1
60
0
100
AcDbLine
10
101.93
20
0
30
0
11
147.918308
21
0
31
0
39
0
210
0
220
0
230
1
0
ARC
5
15B
100
AcDbEntity
8
2
62
256
6
ByLayer
370
-1
48
1
60
0
100
AcDbCircle
39
0
10
98.991901
20
0
30
0
40
46.9264068782929
210
0
220
0
230
1
100
AcDbArc
50
267
51
0
0
LINE
5
15C
100
AcDbEntity
8
2
62
256
6
ByLayer
370
-1
48
1
60
0
100
AcDbLine
10
96.535962
20
-46.862096
30
0
11
99.723781
21
-46.556897
31
0
39
0
210
0
220
0
230
1
0
LINE
5
15D
100
AcDbEntity
8
2
62
256
6
ByLayer
370
-1
48
1
60
0
100
AcDbLine
10
96.535962
20
-46.862096
30
0
11
99.694153
21
-47.392365
31
0
39
0
210
0
220
0
230
1
0
LINE
5
15E
100
AcDbEntity
8
2
62
256
6
ByLayer
370
-1
48
1
60
0
100
AcDbLine
10
99.723781
20
-46.556897
30
0
11
99.694153
21
-47.392365
31
0
39
0
210
0
220
0
230
1
0
LINE
5
15F
100
AcDbEntity
8
2
62
256
6
ByLayer
370
-1
48
1
60
0
100
AcDbLine
10
145.918308
20
0
30
0
11
146.282563
21
-3.181612
31
0
39
0
210
0
220
0
230
1
0
LINE
5
160
100
AcDbEntity
8
2
62
256
6
ByLayer
370
-1
48
1
60
0
100
AcDbLine
10
145.918308
20
0
30
0
11
145.446689
21
-3.16748
31
0
39
0
210
0
220
0
230
1
0
LINE
5
161
100
AcDbEntity
8
2
62
256
6
ByLayer
370
-1
48
1
60
0
100
AcDbLine
10
146.282563
20
-3.181612
30
0
11
145.446689
21
-3.16748
31
0
39
0
210
0
220
0
230
1
0
ENDBLK
5
163
100
AcDbEntity
8
0
100
AcDbBlockEnd
0
ENDSEC
0
SECTION
2
ENTITIES
0
ELLIPSE
5
95
100
AcDbEntity
8
1
62
256
6
ByLayer
370
-1
48
1
60
0
100
AcDbEllipse
10
87.200944
20
8.326628
30
0
11
4.19424404596922
21
-0.219811016220359
31
0
210
0
220
0
230
1
40
0.993113
41
-0.975700418736407
42
-0.863855551478353
0
ELLIPSE
5
96
100
AcDbEntity
8
1
62
256
6
ByLayer
370
-1
48
1
60
0
100
AcDbEllipse
10
87.5682
20
-1.648642
30
0
11
-1.39009114080245
21
-0.792241516371452
31
0
210
0
220
0
230
1
40
0.098815
41
0.499237514430994
42
1.50749207880193
0
ELLIPSE
5
97
100
AcDbEntity
8
1
62
256
6
ByLayer
370
-1
48
1
60
0
100
AcDbEllipse
10
76.690338
20
0
30
0
11
17.8531500878965
21
-12.4495392669163
31
0
210
0
220
0
230
-1
40
0.05713
41
-2.89877852520781
42
-2.16657884296232
0
ELLIPSE
5
98
100
AcDbEntity
8
1
62
256
6
ByLayer
370
-1
48
1
60
0
100
AcDbEllipse
10
65.531538
20
0
30
0
11
2.30941537001619
21
-0.150657704122692
31
0
210
0
220
0
230
-1
40
0.251482
41
-0.655657657712722
42
0.148032569590654
0
ELLIPSE
5
99
100
AcDbEntity
8
1
62
256
6
ByLayer
370
-1
48
1
60
0
100
AcDbEllipse
10
80.917363
20
6.745353
30
0
11
-2.93905524917371E-16
21
-1.6
31
0
210
0
220
0
230
1
40
0.006174
41
-1.45352393083035
42
-0.8794957716748
0
ELLIPSE
5
9A
100
AcDbEntity
8
1
62
256
6
ByLayer
370
-1
48
1
60
0
100
AcDbEllipse
10
88.914107
20
-7.507567
30
0
11
-1.49794430213186
21
0.0785039343644483
31
0
210
0
220
0
230
1
40
0.993113
41
-0.610865238198027
42
0.703182788958694
0
ELLIPSE
5
9B
100
AcDbEntity
8
1
62
256
6
ByLayer
370
-1
48
1
60
0
100
AcDbEllipse
10
114.326247
20
0
30
0
11
48.0791412340388
21
-3.13650507772468
31
0
210
0
220
0
230
-1
40
0.251482
41
2.9065679883067
42
-2.81154175757179
0
ELLIPSE
5
9C
100
AcDbEntity
8
1
62
256
6
ByLayer
370
-1
48
1
60
0
100
AcDbEllipse
10
88.923611
20
-7.326211
30
0
11
1.62203026728888
21
-0.0850070042384859
31
0
210
0
220
0
230
1
40
0.993113
41
2.53072741539179
42
-2.13825372442097
0
ELLIPSE
5
9D
100
AcDbEntity
8
1
62
256
6
ByLayer
370
-1
48
1
60
0
100
AcDbEllipse
10
89.970364
20
0
30
0
11
12.4769645265104
21
-12.467444154759
31
0
210
0
220
0
230
-1
40
0.061779
41
-3.07984727000731
42
-3.05887671794643
0
ELLIPSE
5
9E
100
AcDbEntity
8
1
62
256
6
ByLayer
370
-1
48
1
60
0
100
AcDbEllipse
10
89.330619
20
-9.00797
30
0
11
-1.3980813486564
21
0.0732703387401517
31
0
210
0
220
0
230
1
40
0.993113
41
-0.21593521494146
42
-2.36957993966878
0
ELLIPSE
5
9F
100
AcDbEntity
8
1
62
256
6
ByLayer
370
-1
48
1
60
0
100
AcDbEllipse
10
358.887956
20
0.026889
30
0
11
2055.65552775251
21
-1.47146380994063
31
0
210
0
220
0
230
-1
40
0.006096
41
1.69797324926485
42
1.70016334148234
0
ELLIPSE
5
A0
100
AcDbEntity
8
1
62
256
6
ByLayer
370
-1
48
1
60
0
100
AcDbEllipse
10
357.71498
20
-0.026681
30
0
11
2034.76564754011
21
-1.46355748826759
31
0
210
0
220
0
230
-1
40
0.006083
41
1.70245507046223
42
1.70502544225752
0
ELLIPSE
5
A1
100
AcDbEntity
8
1
62
256
6
ByLayer
370
-1
48
1
60
0
100
AcDbEllipse
10
83.704193
20
5.131262
30
0
11
-1.39009114080245
21
-0.792241516371452
31
0
210
0
220
0
230
1
40
0.098815
41
0.615033828696748
42
1.50749207880201
0
ELLIPSE
5
A2
100
AcDbEntity
8
1
62
256
6
ByLayer
370
-1
48
1
60
0
100
AcDbEllipse
10
87.839196
20
-4.158749
30
0
11
-1.52682340286248
21
0.478341192530447
31
0
210
0
220
0
230
1
40
0.113534
41
0.029132486369897
42
1.59992881316488
0
ELLIPSE
5
A3
100
AcDbEntity
8
1
62
256
6
ByLayer
370
-1
48
1
60
0
100
AcDbEllipse
10
102.66186
20
2.580833
30
0
11
4.19424404596913
21
-0.219811016220355
31
0
210
0
220
0
230
1
40
0.993113
41
-2.99443914563074
42
-2.77675741952149
0
ELLIPSE
5
A4
100
AcDbEntity
8
1
62
256
6
ByLayer
370
-1
48
1
60
0
100
AcDbEllipse
10
84.77387
20
-3.399778
30
0
11
-3.19561451121463
21
0.16747505997749
31
0
210
0
220
0
230
1
40
0.993113
41
2.8920057499118
42
-2.57436064669163
0
ELLIPSE
5
A5
100
AcDbEntity
8
1
62
256
6
ByLayer
370
-1
48
1
60
0
100
AcDbEllipse
10
73.095344
20
15.944881
30
0
11
8.93777686158009
21
-5.06651727013711
31
0
210
0
220
0
230
-1
40
0.963442
41
1.06945731548963
42
1.47431180874172
0
ELLIPSE
5
A6
100
AcDbEntity
8
1
62
256
6
ByLayer
370
-1
48
1
60
0
100
AcDbEllipse
10
88.897551
20
-7.823477
30
0
11
-1.49794430213186
21
0.0785039343644483
31
0
210
0
220
0
230
1
40
0.993113
41
-0.610865238198031
42
-0.106366731825803
0
ELLIPSE
5
A7
100
AcDbEntity
8
1
62
256
6
ByLayer
370
-1
48
1
60
0
100
AcDbEllipse
10
73.067041
20
6.745353
30
0
11
-2.93905524917371E-16
21
-1.6
31
0
210
0
220
0
230
1
40
0.006174
41
-1.45352393083035
42
-1.05790435483972
0
ELLIPSE
5
A8
100
AcDbEntity
8
1
62
256
6
ByLayer
370
-1
48
1
60
0
100
AcDbEllipse
10
89.304558
20
-9.505236
30
0
11
-1.3980813486564
21
0.0732703387401517
31
0
210
0
220
0
230
1
40
0.993113
41
-2.27987925708073
42
-2.12165547795737
0
ELLIPSE
5
A9
100
AcDbEntity
8
1
62
256
6
ByLayer
370
-1
48
1
60
0
100
AcDbEllipse
10
89.304558
20
-9.505236
30
0
11
-1.3980813486564
21
0.0732703387401517
31
0
210
0
220
0
230
1
40
0.993113
41
-1.58282097439251
42
-0.309396706415716
0
ELLIPSE
5
AA
100
AcDbEntity
8
1
62
256
6
ByLayer
370
-1
48
1
60
0
100
AcDbEllipse
10
80.950613
20
4.157663
30
0
11
1.40200421367172
21
-0.794747806866253
31
0
210
0
220
0
230
-1
40
0.963442
41
-2.07213533795856
42
-1.01584868311372
0
ELLIPSE
5
AB
100
AcDbEntity
8
1
62
256
6
ByLayer
370
-1
48
1
60
0
100
AcDbEllipse
10
80.909864
20
3.380126
30
0
11
-3.19561451121463
21
0.16747505997749
31
0
210
0
220
0
230
1
40
0.993113
41
-2.57436064669161
42
-1.51807399184351
0
ELLIPSE
5
AC
100
AcDbEntity
8
1
62
256
6
ByLayer
370
-1
48
1
60
0
100
AcDbEllipse
10
84.813618
20
-2.641351
30
0
11
1.40200421376495
21
-0.794747806736845
31
0
210
0
220
0
230
-1
40
0.963442
41
-1.01584868300957
42
-0.199029772439708
0
ELLIPSE
5
AD
100
AcDbEntity
8
1
62
256
6
ByLayer
370
-1
48
1
60
0
100
AcDbEllipse
10
114.326247
20
0
30
0
11
48.0791412339677
21
-3.13650507772281
31
0
210
0
220
0
230
-1
40
0.251482
41
2.21406667196409
42
2.86899223074766
0
ELLIPSE
5
AE
100
AcDbEntity
8
1
62
256
6
ByLayer
370
-1
48
1
60
0
100
AcDbEllipse
10
84.783681
20
-3.212572
30
0
11
1.59780725560732
21
-0.0837375299887082
31
0
210
0
220
0
230
1
40
0.993113
41
-0.24958690367798
42
2.38742003833756E-06
0
ELLIPSE
5
AF
100
AcDbEntity
8
1
62
256
6
ByLayer
370
-1
48
1
60
0
100
AcDbEllipse
10
73.051018
20
15.099078
30
0
11
8.58821399888933
21
-0.450089223689306
31
0
210
0
220
0
230
1
40
0.993113
41
-2.12893923004154
42
-1.51807399184352
0
ELLIPSE
5
B0
100
AcDbEntity
8
1
62
256
6
ByLayer
370
-1
48
1
60
0
100
AcDbEllipse
10
87.565641
20
0
30
0
11
3.87117219210471
21
12.4907912404403
31
0
210
0
220
0
230
-1
40
0.027654
41
-2.76693130507349
42
-2.25308028585059
0
ELLIPSE
5
B1
100
AcDbEntity
8
1
62
256
6
ByLayer
370
-1
48
1
60
0
100
AcDbEllipse
10
89.300572
20
-9.581288
30
0
11
1.3980813486564
21
-0.0732703387401195
31
0
210
0
220
0
230
1
40
0.993113
41
1.50366043853007
42
2.93367435376429
0
ELLIPSE
5
B2
100
AcDbEntity
8
1
62
256
6
ByLayer
370
-1
48
1
60
0
100
AcDbEllipse
10
89.300572
20
-9.581288
30
0
11
1.3980813486564
21
-0.0732703387401195
31
0
210
0
220
0
230
1
40
0.993113
41
0.207950260262716
42
1.06481943350814
0
ELLIPSE
5
B3
100
AcDbEntity
8
1
62
256
6
ByLayer
370
-1
48
1
60
0
100
AcDbEllipse
10
87.227005
20
8.823894
30
0
11
-4.19424404596921
21
0.219811016220455
31
0
210
0
220
0
230
1
40
0.993113
41
0.837758040957293
42
2.01041588497636
0
ELLIPSE
5
B4
100
AcDbEntity
8
1
62
256
6
ByLayer
370
-1
48
1
60
0
100
AcDbEllipse
10
68.133255
20
8.289963
30
0
11
0.913178643880685
21
1.31381306294322
31
0
210
0
220
0
230
1
40
0.062052
41
-2.12574913415897
42
-1.67053700389145
0
ELLIPSE
5
B5
100
AcDbEntity
8
1
62
256
6
ByLayer
370
-1
48
1
60
0
100
AcDbEllipse
10
358.308833
20
8.7E-05
30
0
11
2037.04464952717
21
-1.46158775252438
31
0
210
0
220
0
230
-1
40
0.00609
41
-1.71686952944102
42
-1.70904274854066
0
ELLIPSE
5
B6
100
AcDbEntity
8
1
62
256
6
ByLayer
370
-1
48
1
60
0
100
AcDbEllipse
10
94.508163
20
4.634443
30
0
11
-1.20484653368139
21
0.0631433312071378
31
0
210
0
220
0
230
1
40
0.993113
41
2.07338462450106
42
2.7417509278686
0
ELLIPSE
5
B7
100
AcDbEntity
8
1
62
256
6
ByLayer
370
-1
48
1
60
0
100
AcDbEllipse
10
94.515237
20
4.769423
30
0
11
1.20484653368139
21
-0.0631433312071101
31
0
210
0
220
0
230
1
40
0.993113
41
2.76712740107916
42
2.90519266790234
0
ELLIPSE
5
B8
100
AcDbEntity
8
1
62
256
6
ByLayer
370
-1
48
1
60
0
100
AcDbEllipse
10
94.516901
20
4.801173
30
0
11
1.67420241501603
21
-0.0877412306412926
31
0
210
0
220
0
230
1
40
0.993113
41
-1.87622894589386
42
-0.831821942378667
0
ELLIPSE
5
B9
100
AcDbEntity
8
1
62
256
6
ByLayer
370
-1
48
1
60
0
100
AcDbEllipse
10
96.273582
20
3.978354
30
0
11
-0.685059860841637
21
0.0359024659826744
31
0
210
0
220
0
230
1
40
0.993113
41
1.00333264844148E-05
42
0.48582871582234
0
ELLIPSE
5
BA
100
AcDbEntity
8
1
62
256
6
ByLayer
370
-1
48
1
60
0
100
AcDbEllipse
10
94.516901
20
4.801173
30
0
11
1.67420241501603
21
-0.0877412306412926
31
0
210
0
220
0
230
1
40
0.993113
41
-2.9206359494092
42
-1.87622894589386
0
ELLIPSE
5
BB
100
AcDbEntity
8
1
62
256
6
ByLayer
370
-1
48
1
60
0
100
AcDbEllipse
10
94.508163
20
4.634443
30
0
11
-1.20484653368139
21
0.0631433312071378
31
0
210
0
220
0
230
1
40
0.993113
41
0.886358526031039
42
1.52875074715736
0
ELLIPSE
5
BC
100
AcDbEntity
8
1
62
256
6
ByLayer
370
-1
48
1
60
0
100
AcDbEllipse
10
94.515237
20
4.769423
30
0
11
1.20484653368139
21
-0.0631433312071101
31
0
210
0
220
0
230
1
40
0.993113
41
-0.37446525251075
42
-0.236399985687164
0
ELLIPSE
5
BD
100
AcDbEntity
8
1
62
256
6
ByLayer
370
-1
48
1
60
0
100
AcDbEllipse
10
94.508163
20
4.634443
30
0
11
-1.20484653368139
21
0.0631433312071378
31
0
210
0
220
0
230
1
40
0.993113
41
-2.39843244765157
42
-1.35402544413624
0
ELLIPSE
5
BE
100
AcDbEntity
8
1
62
256
6
ByLayer
370
-1
48
1
60
0
100
AcDbEllipse
10
94.508163
20
4.634443
30
0
11
1.20484653368139
21
-0.0631433312071101
31
0
210
0
220
0
230
1
40
0.993113
41
-0.0773901733116009
42
0.743160205938184
0
ELLIPSE
5
BF
100
AcDbEntity
8
1
62
256
6
ByLayer
370
-1
48
1
60
0
100
AcDbEllipse
10
94.516901
20
4.801173
30
0
11
1.67420241501603
21
-0.0877412306412926
31
0
210
0
220
0
230
1
40
0.993113
41
2.30977071121109
42
-2.9206359494092
0
ELLIPSE
5
C0
100
AcDbEntity
8
1
62
256
6
ByLayer
370
-1
48
1
60
0
100
AcDbEllipse
10
94.197749
20
6.48871
30
0
11
-0.685059860841637
21
0.0359024659826744
31
0
210
0
220
0
230
1
40
0.993113
41
1.78756720945348
42
2.57155785307439
0
ELLIPSE
5
C1
100
AcDbEntity
8
1
62
256
6
ByLayer
370
-1
48
1
60
0
100
AcDbEllipse
10
94.516901
20
4.801173
30
0
11
1.67420241501603
21
-0.0877412306412926
31
0
210
0
220
0
230
1
40
0.993113
41
-0.831821942378667
42
0.220956704180656
0
ELLIPSE
5
C2
100
AcDbEntity
8
1
62
256
6
ByLayer
370
-1
48
1
60
0
100
AcDbEllipse
10
94.508163
20
4.634443
30
0
11
1.20484653368139
21
-0.0631433312071101
31
0
210
0
220
0
230
1
40
0.993113
41
2.76712740107915
42
2.90519266790237
0
ELLIPSE
5
C3
100
AcDbEntity
8
1
62
256
6
ByLayer
370
-1
48
1
60
0
100
AcDbEllipse
10
94.516901
20
4.801173
30
0
11
1.67420241501603
21
-0.0877412306412926
31
0
210
0
220
0
230
1
40
0.993113
41
0.220956704180656
42
1.26536370769593
0
ELLIPSE
5
C4
100
AcDbEntity
8
1
62
256
6
ByLayer
370
-1
48
1
60
0
100
AcDbEllipse
10
92.742744
20
5.290531
30
0
11
-0.685059860841637
21
0.0359024659826744
31
0
210
0
220
0
230
1
40
0.993113
41
2.95777407570715
42
-3.14158206750475
0
ELLIPSE
5
C5
100
AcDbEntity
8
1
62
256
6
ByLayer
370
-1
48
1
60
0
100
AcDbEllipse
10
94.508163
20
4.634443
30
0
11
-1.20484653368139
21
0.0631433312071378
31
0
210
0
220
0
230
1
40
0.993113
41
-0.236399985687408
42
0.478541446778845
0
ELLIPSE
5
C6
100
AcDbEntity
8
1
62
256
6
ByLayer
370
-1
48
1
60
0
100
AcDbEllipse
10
94.516901
20
4.801173
30
0
11
1.67420241501603
21
-0.0877412306412926
31
0
210
0
220
0
230
1
40
0.993113
41
1.26536370769593
42
2.30977071121109
0
ELLIPSE
5
C7
100
AcDbEntity
8
1
62
256
6
ByLayer
370
-1
48
1
60
0
100
AcDbEllipse
10
94.508163
20
4.634443
30
0
11
-1.20484653368139
21
0.0631433312071378
31
0
210
0
220
0
230
1
40
0.993113
41
-1.35402544413624
42
-0.374465252510621
0
ELLIPSE
5
C8
100
AcDbEntity
8
1
62
256
6
ByLayer
370
-1
48
1
60
0
100
AcDbEllipse
10
95.96632
20
5.83145
30
0
11
-0.685059860841637
21
0.0359024659826744
31
0
210
0
220
0
230
1
40
0.993113
41
0.743160205938228
42
1.52715084955903
0
ELLIPSE
5
C9
100
AcDbEntity
8
1
62
256
6
ByLayer
370
-1
48
1
60
0
100
AcDbEllipse
10
93.143403
20
4.404211
30
0
11
-0.291599824148335
21
0.0152820992229459
31
0
210
0
220
0
230
1
40
0.993113
41
-1.09669395402089
42
-0.370136162532643
0
ELLIPSE
5
CA
100
AcDbEntity
8
1
62
256
6
ByLayer
370
-1
48
1
60
0
100
AcDbEllipse
10
92.742744
20
5.290531
30
0
11
-0.685059860841637
21
0.0359024659826744
31
0
210
0
220
0
230
1
40
0.993113
41
2.04489869956977
42
2.71454599327443
0
ELLIPSE
5
CB
100
AcDbEntity
8
1
62
256
6
ByLayer
370
-1
48
1
60
0
100
AcDbEllipse
10
93.630128
20
5.698171
30
0
11
-0.291599824148335
21
0.0152820992229459
31
0
210
0
220
0
230
1
40
0.993113
41
-2.13801608775726
42
-0.26955226356771
0
ELLIPSE
5
CC
100
AcDbEntity
8
1
62
256
6
ByLayer
370
-1
48
1
60
0
100
AcDbEllipse
10
94.197749
20
6.48871
30
0
11
-0.685059860841637
21
0.0359024659826744
31
0
210
0
220
0
230
1
40
0.993113
41
1.00357656583281
42
1.78756720945348
0
ELLIPSE
5
CD
100
AcDbEntity
8
1
62
256
6
ByLayer
370
-1
48
1
60
0
100
AcDbEllipse
10
94.992549
20
5.922183
30
0
11
-0.291599824148335
21
0.0152820992229459
31
0
210
0
220
0
230
1
40
0.993113
41
-3.06682429107245
42
-0.570034800515585
0
ELLIPSE
5
CE
100
AcDbEntity
8
1
62
256
6
ByLayer
370
-1
48
1
60
0
100
AcDbEllipse
10
95.96632
20
5.83145
30
0
11
-0.685059860841637
21
0.0359024659826744
31
0
210
0
220
0
230
1
40
0.993113
41
9.84366727013617E-06
42
0.743160205938227
0
ELLIPSE
5
CF
100
AcDbEntity
8
1
62
256
6
ByLayer
370
-1
48
1
60
0
100
AcDbEllipse
10
95.872923
20
4.864674
30
0
11
-0.291599824148335
21
0.0152820992229459
31
0
210
0
220
0
230
1
40
0.993113
41
-2.87749386966113
42
-1.61444180403129
0
ELLIPSE
5
D0
100
AcDbEntity
8
1
62
256
6
ByLayer
370
-1
48
1
60
0
100
AcDbEllipse
10
94.516901
20
4.801173
30
0
11
1.79753316255823
21
-0.0942047212372965
31
0
210
0
220
0
230
1
40
0.993113
41
0
42
6.28318530717959
0
ELLIPSE
5
D1
100
AcDbEntity
8
1
62
256
6
ByLayer
370
-1
48
1
60
0
100
AcDbEllipse
10
94.508316
20
4.637368
30
0
11
2.62140252873076
21
-0.137381885137724
31
0
210
0
220
0
230
1
40
0.993113
41
3.14153200962415
42
-3.40700085181934E-16
0
ELLIPSE
5
D2
100
AcDbEntity
8
1
62
256
6
ByLayer
370
-1
48
1
60
0
100
AcDbEllipse
10
94.515212
20
4.768945
30
0
11
2.62140252873076
21
-0.137381885137724
31
0
210
0
220
0
230
1
40
0.993113
41
0
42
6.28318530717959
0
ELLIPSE
5
D3
100
AcDbEntity
8
1
62
256
6
ByLayer
370
-1
48
1
60
0
100
AcDbEllipse
10
94.518725
20
4.835969
30
0
11
3.04036173350945
21
-0.159338606670364
31
0
210
0
220
0
230
1
40
0.993113
41
0
42
6.28318530717959
0
ELLIPSE
5
D4
100
AcDbEntity
8
1
62
256
6
ByLayer
370
-1
48
1
60
0
100
AcDbEllipse
10
94.511481
20
4.697762
30
0
11
2.94041639042782
21
-0.154100693189774
31
0
210
0
220
0
230
1
40
0.993113
41
-0.78516403475283
42
-3.03736595858371E-16
0
ELLIPSE
5
D5
100
AcDbEntity
8
1
62
256
6
ByLayer
370
-1
48
1
60
0
100
AcDbEllipse
10
94.511481
20
4.697762
30
0
11
2.94041639042782
21
-0.154100693189774
31
0
210
0
220
0
230
1
40
0.993113
41
0
42
0.0527222795412685
0
ELLIPSE
5
D6
100
AcDbEntity
8
1
62
256
6
ByLayer
370
-1
48
1
60
0
100
AcDbEllipse
10
94.511481
20
4.697762
30
0
11
2.94041639042782
21
-0.154100693189774
31
0
210
0
220
0
230
1
40
0.993113
41
0.0527224807846932
42
-2.35645118135979
0
ELLIPSE
5
D7
100
AcDbEntity
8
1
62
256
6
ByLayer
370
-1
48
1
60
0
100
AcDbEllipse
10
94.51247
20
4.716625
30
0
11
2.99588860426369
21
-0.157007868728826
31
0
210
0
220
0
230
1
40
0.993113
41
-0.360656403686062
42
-2.98112574534195E-16
0
ELLIPSE
5
D8
100
AcDbEntity
8
1
62
256
6
ByLayer
370
-1
48
1
60
0
100
AcDbEllipse
10
94.51247
20
4.716625
30
0
11
2.99588860426369
21
-0.157007868728826
31
0
210
0
220
0
230
1
40
0.993113
41
0
42
0.0527224530524262
0
ELLIPSE
5
D9
100
AcDbEntity
8
1
62
256
6
ByLayer
370
-1
48
1
60
0
100
AcDbEllipse
10
94.51247
20
4.716625
30
0
11
2.99588860426369
21
-0.157007868728826
31
0
210
0
220
0
230
1
40
0.993113
41
0.0527221891505603
42
-2.78095918585494
0
ELLIPSE
5
DA
100
AcDbEntity
8
1
62
256
6
ByLayer
370
-1
48
1
60
0
100
AcDbEllipse
10
90.235196
20
6.427872
30
0
11
0.396028745312166
21
-0.0665573400641329
31
0
210
0
220
0
230
-1
40
0.989437
41
3.02864207363177
42
-2.64607715642914
0
ELLIPSE
5
DB
100
AcDbEntity
8
1
62
256
6
ByLayer
370
-1
48
1
60
0
100
AcDbEllipse
10
98.802253
20
3.244066
30
0
11
0.396028745266738
21
-0.0665573408546708
31
0
210
0
220
0
230
-1
40
0.989437
41
-0.11295058188408
42
0.49551549516668
0
ELLIPSE
5
DC
100
AcDbEntity
8
1
62
256
6
ByLayer
370
-1
48
1
60
0
100
AcDbEllipse
10
90.210245
20
-7.915676
30
0
11
0.548249821345357
21
0.600580717034007
31
0
210
0
220
0
230
-1
40
0.307895
41
1.45898503809701
42
2.23094234284319
0
ELLIPSE
5
DD
100
AcDbEntity
8
1
62
256
6
ByLayer
370
-1
48
1
60
0
100
AcDbEllipse
10
89.894855
20
-7.456589
30
0
11
0.777150238591794
21
0.165160714299619
31
0
210
0
220
0
230
-1
40
0.995635
41
0.996355200374535
42
-3.00354441045079
0
ELLIPSE
5
DE
100
AcDbEntity
8
1
62
256
6
ByLayer
370
-1
48
1
60
0
100
AcDbEllipse
10
90.011367
20
-7.626185
30
0
11
0.777150238738145
21
0.165160713568392
31
0
210
0
220
0
230
-1
40
0.995635
41
1.7683125041143
42
2.50768359111701
0
ELLIPSE
5
DF
100
AcDbEntity
8
1
62
256
6
ByLayer
370
-1
48
1
60
0
100
AcDbEllipse
10
90.210245
20
-7.915676
30
0
11
1.03278941404595
21
-0.738351798175914
31
0
210
0
220
0
230
-1
40
0.557596
41
1.90493935318737
42
2.14786470789332
0
ELLIPSE
5
E0
100
AcDbEntity
8
1
62
256
6
ByLayer
370
-1
48
1
60
0
100
AcDbEllipse
10
99.142594
20
17.128527
30
0
11
0.777150238584001
21
0.165160714337612
31
0
210
0
220
0
230
-1
40
0.995635
41
-2.14523745316605
42
0.138048243186907
0
POINT
5
41
100
AcDbEntity
8
80
62
256
6
ByLayer
370
-1
48
1
60
0
100
AcDbPoint
10
0
20
0
30
0
39
0
210
0
220
0
230
1
50
360
0
POINT
5
43
100
AcDbEntity
8
81
62
256
6
ByLayer
370
-1
48
1
60
0
100
AcDbPoint
10
99.93
20
17.9
30
0
39
0
210
0
220
0
230
1
50
360
0
POINT
5
45
100
AcDbEntity
8
1
62
256
6
ByLayer
370
-1
48
1
60
0
100
AcDbPoint
10
-201.32
20
0
30
0
39
0
210
0
220
0
230
1
50
360
0
POINT
5
47
100
AcDbEntity
8
2
62
256
6
ByLayer
370
-1
48
1
60
0
100
AcDbPoint
10
99.93
20
17.9
30
0
39
0
210
0
220
0
230
1
50
360
0
POINT
5
49
100
AcDbEntity
8
2
62
256
6
ByLayer
370
-1
48
1
60
0
100
AcDbPoint
10
99.672311
20
16.80574
30
0
39
0
210
0
220
0
230
1
50
360
0
SPLINE
5
E1
100
AcDbEntity
8
1
62
256
6
ByLayer
370
-1
48
1
60
0
100
AcDbSpline
70
4
71
3
72
12
73
8
40
0
40
0
40
0
40
0
40
0.55662291166785
40
0.55662291166785
40
0.834934367501775
40
0.834934367501775
40
1
40
1
40
1
40
1
41
1
10
61.8170579474781
20
12.4860718945519
30
0
41
1
10
61.2661689952658
20
12.4859735908164
30
0
41
1
10
60.721195531682
20
12.4856862079392
30
0
41
1
10
59.9771590207523
20
12.4653780512391
30
0
41
1
10
59.7420566885426
20
12.4549136769151
30
0
41
1
10
59.5088920786895
20
12.4186611145751
30
0
41
1
10
59.4662150204335
20
12.3997212549554
30
0
41
1
10
59.4674469287967
20
12.3778625074102
30
0
0
SPLINE
5
E2
100
AcDbEntity
8
1
62
256
6
ByLayer
370
-1
48
1
60
0
100
AcDbSpline
70
4
71
3
72
8
73
4
40
0
40
0
40
0
40
0
40
1
40
1
40
1
40
1
41
1
10
59.4823811242029
20
12.3558489637389
30
0
41
1
10
59.4931186290582
20
12.3473250523509
30
0
41
1
10
59.5096329564596
20
12.3385239691495
30
0
41
1
10
59.5319136190239
20
12.329566473467
30
0
0
SPLINE
5
E3
100
AcDbEntity
8
1
62
256
6
ByLayer
370
-1
48
1
60
0
100
AcDbSpline
70
4
71
3
72
8
73
4
40
0
40
0
40
0
40
0
40
1
40
1
40
1
40
1
41
1
10
93.6861917912275
20
-12.2106220719001
30
0
41
1
10
93.6270096917782
20
-12.1521091547746
30
0
41
1
10
93.5678313850687
20
-12.0935924536173
30
0
41
1
10
93.5086570359774
20
-12.0350718054892
30
0
0
SPLINE
5
E4
100
AcDbEntity
8
1
62
256
6
ByLayer
370
-1
48
1
60
0
100
AcDbSpline
70
4
71
3
72
8
73
4
40
0
40
0
40
0
40
0
40
1
40
1
40
1
40
1
41
1
10
67.2606261002236
20
7.83036409243519
30
0
41
1
10
67.8290877820795
20
7.46582222847033
30
0
41
1
10
68.4419564141359
20
7.14748756055235
30
0
41
1
10
69.0977719061963
20
6.88581982641168
30
0
0
SPLINE
5
E5
100
AcDbEntity
8
1
62
256
6
ByLayer
370
-1
48
1
60
0
100
AcDbSpline
70
4
71
3
72
8
73
4
40
0
40
0
40
0
40
0
40
1
40
1
40
1
40
1
41
1
10
88.0115733451442
20
-8.69677303555591
30
0
41
1
10
87.9994838738194
20
-8.67639413623155
30
0
41
1
10
87.9891069442006
20
-8.65711868301076
30
0
41
1
10
87.9805965995685
20
-8.6389100687035
30
0
0
SPLINE
5
E6
100
AcDbEntity
8
1
62
256
6
ByLayer
370
-1
48
1
60
0
100
AcDbSpline
70
4
71
3
72
8
73
4
40
0
40
0
40
0
40
0
40
1
40
1
40
1
40
1
41
1
10
93.6861917912275
20
-12.59025
30
0
41
1
10
93.685519295111
20
-12.59025
30
0
41
1
10
93.685184463901
20
-12.59025
30
0
41
1
10
93.685174462901
20
-12.59025
30
0
0
SPLINE
5
E7
100
AcDbEntity
8
1
62
256
6
ByLayer
370
-1
48
1
60
0
100
AcDbSpline
70
4
71
2
72
6
73
3
40
0
40
0
40
0
40
1
40
1
40
1
41
0.499999353227402
10
90.6597433596562
20
-12.0307266257282
30
0
41
0.500000646772598
10
92.0840661220101
20
-12.0329052755619
30
0
41
0.499999353227402
10
93.508657035984
20
-12.0350718054889
30
0
0
SPLINE
5
E8
100
AcDbEntity
8
1
62
256
6
ByLayer
370
-1
48
1
60
0
100
AcDbSpline
70
4
71
3
72
8
73
4
40
0
40
0
40
0
40
0
40
1
40
1
40
1
40
1
41
1
10
90.5847433596563
20
-12.1057524848616
30
0
41
1
10
90.6097439680785
20
-12.0807444650799
30
0
41
1
10
90.6347439718006
20
-12.0557358490097
30
0
41
1
10
90.6597433596563
20
-12.0307266257282
30
0
0
SPLINE
5
E9
100
AcDbEntity
8
1
62
256
6
ByLayer
370
-1
48
1
60
0
100
AcDbSpline
70
4
71
3
72
16
73
12
40
0
40
0
40
0
40
0
40
0.19582457213233
40
0.19582457213233
40
0.392165462568639
40
0.392165462568639
40
0.58269390287713
40
0.58269390287713
40
0.778130510302987
40
0.778130510302987
40
1
40
1
40
1
40
1
41
1
10
83.8365946653836
20
-11.5851474786791
30
0
41
1
10
83.8220720893955
20
-11.6470811610122
30
0
41
1
10
83.8340821356668
20
-11.7075607664885
30
0
41
1
10
83.9136938283764
20
-11.8163674230136
30
0
41
1
10
83.9826322970576
20
-11.8661433807337
30
0
41
1
10
84.1645295663362
20
-11.9487152052795
30
0
41
1
10
84.278400052686
20
-11.9831421273724
30
0
41
1
10
84.538207725841
20
-12.0381385142464
30
0
41
1
10
84.6881276669127
20
-12.0591363151881
30
0
41
1
10
85.0219773475069
20
-12.089527013651
30
0
41
1
10
85.2126422565954
20
-12.0975164753102
30
0
41
1
10
85.4007942193695
20
-12.0978063776833
30
0
0
SPLINE
5
EA
100
AcDbEntity
8
SK1
62
256
6
ByLayer
370
-1
48
1
60
0
100
AcDbSpline
70
4
71
3
72
34
73
30
40
0
40
0
40
0
40
0
40
0.21740153606627
40
0.21740153606627
40
0.435096189293024
40
0.435096189293024
40
0.489682713739691
40
0.489682713739691
40
0.496424752611491
40
0.496424752611491
40
0.499827716366198
40
0.499827716366198
40
0.501221335421434
40
0.501221335421434
40
0.502631422618687
40
0.502631422618687
40
0.503888875466478
40
0.503888875466478
40
0.506006326341784
40
0.506006326341784
40
0.511464845542498
40
0.511464845542498
40
0.532512938526583
40
0.532512938526583
40
0.61604965645278
40
0.61604965645278
40
0.949479024361998
40
0.949479024361998
40
1
40
1
40
1
40
1
41
1
10
-75.0700000003437
20
-0.234670284410242
30
0
41
1
10
-75.4700064435934
20
-0.234670284410242
30
0
41
1
10
-75.8701232446007
20
-0.227970241868832
30
0
41
1
10
-76.6697893160079
20
-0.195494684745
30
0
41
1
10
-77.0713370502392
20
-0.176891731587375
30
0
41
1
10
-77.5659938804592
20
-0.0996805507180909
30
0
41
1
10
-77.6682572404774
20
-0.0865193849705008
30
0
41
1
10
-77.7709539749448
20
-0.0396411306649043
30
0
41
1
10
-77.7822855196325
20
-0.0337382311877263
30
0
41
1
10
-77.7970213737242
20
-0.0219157473509881
30
0
41
1
10
-77.8017110841147
20
-0.0173068007109691
30
0
41
1
10
-77.8061192870521
20
-0.0095065790782485
30
0
41
1
10
-77.8071371754999
20
-0.007015234910682
30
0
41
1
10
-77.8082348816096
20
-0.0018522115922792
30
0
41
1
10
-77.8083006992479
20
0.0008888427524596
30
0
41
1
10
-77.80747036553
20
0.0058452740892108
30
0
41
1
10
-77.8066797549446
20
0.0081402936263828
30
0
41
1
10
-77.8038722036202
20
0.0138466647665325
30
0
41
1
10
-77.80137415693
20
0.0170720040323431
30
0
41
1
10
-77.7915694043431
20
0.027304578034574
30
0
41
1
10
-77.7827295797767
20
0.0328902269622802
30
0
41
1
10
-77.7394809029609
20
0.0564798090606473
30
0
41
1
10
-77.7010509550517
20
0.0669596151246878
30
0
41
1
10
-77.5130753594112
20
0.115123589139188
30
0
41
1
10
-77.3580161700059
20
0.132424615807736
30
0
41
1
10
-76.5891558509525
20
0.214102141366197
30
0
41
1
10
-75.9693947306797
20
0.228220267770837
30
0
41
1
10
-75.2574713293135
20
0.234275218157279
30
0
41
1
10
-75.1637352334118
20
0.234670284410242
30
0
41
1
10
-75.0700000003437
20
0.234670284410242
30
0
0
SPLINE
5
EB
100
AcDbEntity
8
1
62
256
6
ByLayer
370
-1
48
1
60
0
100
AcDbSpline
70
4
71
3
72
18
73
14
40
0
40
0
40
0
40
0
40
0.205038239923197
40
0.205038239923197
40
0.380486376929356
40
0.380486376929356
40
0.55770329911808
40
0.55770329911808
40
0.710945652173718
40
0.710945652173718
40
0.912497655237701
40
0.912497655237701
40
1
40
1
40
1
40
1
41
1
10
93.8076719116282
20
6.08818484686284
30
0
41
1
10
93.8632199415508
20
6.04451600353016
30
0
41
1
10
93.9265924376181
20
6.00821929121864
30
0
41
1
10
94.0537556538943
20
5.96144606062776
30
0
41
1
10
94.117675469056
20
5.94764365398245
30
0
41
1
10
94.2480475712357
20
5.94068188454801
30
0
41
1
10
94.3164862644308
20
5.94786475382651
30
0
41
1
10
94.4362893041661
20
5.98052058113285
30
0
41
1
10
94.4901625895041
20
6.00367997164108
30
0
41
1
10
94.6025529015225
20
6.06999093910008
30
0
41
1
10
94.6592352840629
20
6.11803496957091
30
0
41
1
10
94.7269839499772
20
6.19499243688909
30
0
41
1
10
94.7460120981394
20
6.21969425106661
30
0
41
1
10
94.7633167193487
20
6.24531386889564
30
0
0
SPLINE
5
EC
100
AcDbEntity
8
1
62
256
6
ByLayer
370
-1
48
1
60
0
100
AcDbSpline
70
4
71
3
72
16
73
12
40
0
40
0
40
0
40
0
40
0.100625190658142
40
0.100625190658142
40
0.323043133752305
40
0.323043133752305
40
0.550371560921587
40
0.550371560921587
40
0.793863917882337
40
0.793863917882337
40
1
40
1
40
1
40
1
41
1
10
96.1694977182376
20
5.07996116113745
30
0
41
1
10
96.1672411650654
20
5.09310063397368
30
0
41
1
10
96.1640571966511
20
5.10607106822255
30
0
41
1
10
96.1510836784868
20
5.14635837703446
30
0
41
1
10
96.1376869640346
20
5.17264581837415
30
0
41
1
10
96.1041098991313
20
5.21897238934912
30
0
41
1
10
96.0833816308916
20
5.23946321009603
30
0
41
1
10
96.0363843264435
20
5.27337684729201
30
0
41
1
10
96.0092582558333
20
5.28664446786593
30
0
41
1
10
95.9577834533696
20
5.30244200112617
30
0
41
1
10
95.9332437800763
20
5.3064548246968
30
0
41
1
10
95.908878330046
20
5.30730598584097
30
0
0
SPLINE
5
ED
100
AcDbEntity
8
1
62
256
6
ByLayer
370
-1
48
1
60
0
100
AcDbSpline
70
4
71
3
72
12
73
8
40
0
40
0
40
0
40
0
40
0.313025784920533
40
0.313025784920533
40
0.779678005262886
40
0.779678005262886
40
1
40
1
40
1
40
1
41
1
10
93.4168194799095
20
5.26585839264106
30
0
41
1
10
93.4286787056558
20
5.31537334179222
30
0
41
1
10
93.43496577931
20
5.36666300759415
30
0
41
1
10
93.4372636679279
20
5.49152872129667
30
0
41
1
10
93.4269055153045
20
5.56575304799898
30
0
41
1
10
93.3980401594503
20
5.66749129073528
30
0
41
1
10
93.3865838974851
20
5.69946275583072
30
0
41
1
10
93.3732426607284
20
5.73024297989664
30
0
0
SPLINE
5
EE
100
AcDbEntity
8
1
62
256
6
ByLayer
370
-1
48
1
60
0
100
AcDbSpline
70
4
71
3
72
18
73
14
40
0
40
0
40
0
40
0
40
0.203480035963928
40
0.203480035963928
40
0.379208759162159
40
0.379208759162159
40
0.556724440000207
40
0.556724440000207
40
0.710031291911171
40
0.710031291911171
40
0.911314745147277
40
0.911314745147277
40
1
40
1
40
1
40
1
41
1
10
95.2913563493986
20
6.04907661144526
30
0
41
1
10
95.2848405855381
20
5.97775413736019
30
0
41
1
10
95.2883321096668
20
5.90358921800714
30
0
41
1
10
95.3161709776992
20
5.76812718051494
30
0
41
1
10
95.3380946345295
20
5.70495506111547
30
0
41
1
10
95.3997054353411
20
5.58775195668215
30
0
41
1
10
95.440680653231
20
5.53218778226176
30
0
41
1
10
95.5282969265263
20
5.446100736798
30
0
41
1
10
95.5743908675159
20
5.41209204345381
30
0
41
1
10
95.6848487987216
20
5.35106233817314
30
0
41
1
10
95.7521915443224
20
5.32825936175388
30
0
41
1
10
95.8489758647086
20
5.31141588908699
30
0
41
1
10
95.8789840829601
20
5.30835028510569
30
0
41
1
10
95.908878330046
20
5.30730598584088
30
0
0
SPLINE
5
EF
100
AcDbEntity
8
1
62
256
6
ByLayer
370
-1
48
1
60
0
100
AcDbSpline
70
4
71
3
72
14
73
10
40
0
40
0
40
0
40
0
40
0.249615817604575
40
0.249615817604575
40
0.540247798725513
40
0.540247798725513
40
0.802949835369476
40
0.802949835369476
40
1
40
1
40
1
40
1
41
1
10
93.741109461016
20
3.52777553442689
30
0
41
1
10
93.7384702085427
20
3.50041124738704
30
0
41
1
10
93.7402864960764
20
3.47179445997199
30
0
41
1
10
93.7546028995588
20
3.41113754845893
30
0
41
1
10
93.769132795348
20
3.37833377889356
30
0
41
1
10
93.8085903059109
20
3.32242080549651
30
0
41
1
10
93.8330384340278
20
3.2978660420336
30
0
41
1
10
93.8821799723535
20
3.26338521823041
30
0
41
1
10
93.90576752373
20
3.25097668631398
30
0
41
1
10
93.9303546088153
20
3.24183929989206
30
0
0
SPLINE
5
F0
100
AcDbEntity
8
1
62
256
6
ByLayer
370
-1
48
1
60
0
100
AcDbSpline
70
4
71
3
72
16
73
12
40
0
40
0
40
0
40
0
40
0.194650218454968
40
0.194650218454968
40
0.417625129124706
40
0.417625129124706
40
0.650539082914571
40
0.650539082914571
40
0.903611639926541
40
0.903611639926541
40
1
40
1
40
1
40
1
41
1
10
92.8643041592385
20
4.52238466295711
30
0
41
1
10
92.8686521816852
20
4.49706696890257
30
0
41
1
10
92.8765054625218
20
4.47187858142087
30
0
41
1
10
92.8996630825795
20
4.42144927564129
30
0
41
1
10
92.9161974230656
20
4.39609896705647
30
0
41
1
10
92.9554307522483
20
4.35106240132689
30
0
41
1
10
92.9788434844836
20
4.33109399272595
30
0
41
1
10
93.0306817618438
20
4.2979505460514
30
0
41
1
10
93.0599973323637
20
4.28506892883641
30
0
41
1
10
93.1007751627001
20
4.2738013791267
30
0
41
1
10
93.1121900234383
20
4.27134074750708
30
0
41
1
10
93.1235874803687
20
4.26954616003161
30
0
0
SPLINE
5
F1
100
AcDbEntity
8
1
62
256
6
ByLayer
370
-1
48
1
60
0
100
AcDbSpline
70
4
71
3
72
18
73
14
40
0
40
0
40
0
40
0
40
0.211848912010637
40
0.211848912010637
40
0.386078504679991
40
0.386078504679991
40
0.561996960008911
40
0.561996960008911
40
0.714974034271995
40
0.714974034271995
40
0.917712865251852
40
0.917712865251852
40
1
40
1
40
1
40
1
41
1
10
95.2247938987856
20
3.4886672990103
30
0
41
1
10
95.1669465851785
20
3.52520316746268
30
0
41
1
10
95.1007241339399
20
3.55436302642147
30
0
41
1
10
94.9703464751086
20
3.58857500411435
30
0
41
1
10
94.9063926971858
20
3.59724496518831
30
0
41
1
10
94.7764667663011
20
3.59779608215129
30
0
41
1
10
94.7085508276808
20
3.58936846751831
30
0
41
1
10
94.5897305456677
20
3.558568306306
30
0
41
1
10
94.5363219315571
20
3.53785578143655
30
0
41
1
10
94.4246614775464
20
3.47953176561282
30
0
41
1
10
94.3684257424323
20
3.43777674789575
30
0
41
1
10
94.3028554748558
20
3.37224138288985
30
0
41
1
10
94.2852396261947
20
3.35225248211887
30
0
41
1
10
94.2691490910657
20
3.33153827697657
30
0
0
SPLINE
5
F2
100
AcDbEntity
8
1
62
256
6
ByLayer
370
-1
48
1
60
0
100
AcDbSpline
70
4
71
3
72
20
73
16
40
0
40
0
40
0
40
0
40
0.082685395731018
40
0.082685395731018
40
0.28339747537573
40
0.28339747537573
40
0.44567928928848
40
0.44567928928848
40
0.608800846300459
40
0.608800846300459
40
0.761153998989704
40
0.761153998989704
40
0.977166022108196
40
0.977166022108196
40
1
40
1
40
1
40
1
41
1
10
93.741109461016
20
3.52777553442692
30
0
41
1
10
93.7435917008451
20
3.55351188359111
30
0
41
1
10
93.7444232475553
20
3.57970359046297
30
0
41
1
10
93.7412950429392
20
3.67010198886416
30
0
41
1
10
93.7286375179114
20
3.73683549186103
30
0
41
1
10
93.6849787896535
20
3.85504588330991
30
0
41
1
10
93.6573162836893
20
3.9082778022171
30
0
41
1
10
93.5881971599558
20
4.00717051153424
30
0
41
1
10
93.5457029697703
20
4.05404913109072
30
0
41
1
10
93.456055092436
20
4.13149562623161
30
0
41
1
10
93.4084115409266
20
4.1639096465646
30
0
41
1
10
93.2909542149737
20
4.22670185700011
30
0
41
1
10
93.2181610489918
20
4.25190782122439
30
0
41
1
10
93.1389069788011
20
4.26700801133234
30
0
41
1
10
93.1312447928545
20
4.26834047729318
30
0
41
1
10
93.1235874803687
20
4.26954616003158
30
0
0
SPLINE
5
F3
100
AcDbEntity
8
1
62
256
6
ByLayer
370
-1
48
1
60
0
100
AcDbSpline
70
4
71
3
72
12
73
8
40
0
40
0
40
0
40
0
40
0.320841153100044
40
0.320841153100044
40
0.789220521357059
40
0.789220521357059
40
1
40
1
40
1
40
1
41
1
10
95.6136545543055
20
4.27298839931382
30
0
41
1
10
95.6015514938749
20
4.22349440971925
30
0
41
1
10
95.5953888617964
20
4.17337330956445
30
0
41
1
10
95.5942034560573
20
4.05530530172777
30
0
41
1
10
95.6054140663063
20
3.98772978227481
30
0
41
1
10
95.6351317363054
20
3.89854487066435
30
0
41
1
10
95.6463098114066
20
3.87178464693122
30
0
41
1
10
95.6592018208416
20
3.84620218737419
30
0
0
SPLINE
5
F4
100
AcDbEntity
8
1
62
256
6
ByLayer
370
-1
48
1
60
0
100
AcDbSpline
70
4
71
3
72
14
73
10
40
0
40
0
40
0
40
0
40
0.281819123051936
40
0.281819123051936
40
0.568411649829046
40
0.568411649829046
40
0.827793737189475
40
0.827793737189475
40
1
40
1
40
1
40
1
41
1
10
93.8076719116282
20
6.0881848468629
30
0
41
1
10
93.7806820665824
20
6.10940279674355
30
0
41
1
10
93.749460048307
20
6.12641163025037
30
0
41
1
10
93.6824373102426
20
6.14827283249576
30
0
41
1
10
93.6455094337468
20
6.15319101229875
30
0
41
1
10
93.5760301012762
20
6.14839160288309
30
0
41
1
10
93.5423525476483
20
6.1398850420683
30
0
41
1
10
93.4910576463542
20
6.11597756548778
30
0
41
1
10
93.4714268277086
20
6.10369103185948
30
0
41
1
10
93.4536831973683
20
6.08924903081726
30
0
0
SPLINE
5
F5
100
AcDbEntity
8
1
62
256
6
ByLayer
370
-1
48
1
60
0
100
AcDbSpline
70
4
71
3
72
16
73
12
40
0
40
0
40
0
40
0
40
0.158246777788117
40
0.158246777788117
40
0.458087079300111
40
0.458087079300111
40
0.729091089354956
40
0.729091089354956
40
0.969330546691372
40
0.969330546691372
40
1
40
1
40
1
40
1
41
1
10
93.0318380760544
20
4.82261877859719
30
0
41
1
10
93.0146712460266
20
4.81609910888577
30
0
41
1
10
92.9980276837447
20
4.80777080360269
30
0
41
1
10
92.9528809308706
20
4.77884655327995
30
0
41
1
10
92.9262227787315
20
4.75324160773278
30
0
41
1
10
92.8873524883941
20
4.69540921158816
30
0
41
1
10
92.8734570461872
20
4.66311587250556
30
0
41
1
10
92.8597741798301
20
4.59887379175203
30
0
41
1
10
92.8584042568651
20
4.56636351502729
30
0
41
1
10
92.8629889091525
20
4.53056496969123
30
0
41
1
10
92.8636026701503
20
4.52646929829089
30
0
41
1
10
92.8643041592385
20
4.52238466295711
30
0
0
SPLINE
5
F6
100
AcDbEntity
8
1
62
256
6
ByLayer
370
-1
48
1
60
0
100
AcDbSpline
70
4
71
3
72
18
73
14
40
0
40
0
40
0
40
0
40
0.0447644379316202
40
0.0447644379316202
40
0.265888659264878
40
0.265888659264878
40
0.488773734883294
40
0.488773734883294
40
0.725161308447078
40
0.725161308447078
40
0.984302503243653
40
0.984302503243653
40
1
40
1
40
1
40
1
41
1
10
95.5801186801078
20
3.51309679327727
30
0
41
1
10
95.5848011981085
20
3.51690801615266
30
0
41
1
10
95.5893662737217
20
3.5208559435213
30
0
41
1
10
95.6155016313318
20
3.5448613989912
30
0
41
1
10
95.6342520411688
20
3.56814336725171
30
0
41
1
10
95.6632246956331
20
3.61762253817639
30
0
41
1
10
95.6737672546314
20
3.64446209326766
30
0
41
1
10
95.6863699126721
20
3.69956133461773
30
0
41
1
10
95.6880661635063
20
3.72849299149578
30
0
41
1
10
95.6823887900327
20
3.7860881607638
30
0
41
1
10
95.6740908501777
20
3.81518537796961
30
0
41
1
10
95.660785638586
20
3.84301814959269
30
0
41
1
10
95.660001677675
20
3.84461497901862
30
0
41
1
10
95.6592018208415
20
3.8462021873741
30
0
0
SPLINE
5
F7
100
AcDbEntity
8
1
62
256
6
ByLayer
370
-1
48
1
60
0
100
AcDbSpline
70
4
71
3
72
14
73
10
40
0
40
0
40
0
40
0
40
0.249934220180428
40
0.249934220180428
40
0.547588928761594
40
0.547588928761594
40
0.809689888114178
40
0.809689888114178
40
1
40
1
40
1
40
1
41
1
10
95.2913563494004
20
6.04907661144517
30
0
41
1
10
95.2941809283101
20
6.07999485225332
30
0
41
1
10
95.2925487964533
20
6.11200786772312
30
0
41
1
10
95.27841989849
20
6.18014772081168
30
0
41
1
10
95.2635311602551
20
6.21702378915458
30
0
41
1
10
95.2232656015752
20
6.27805842986982
30
0
41
1
10
95.1986866178727
20
6.3040982291808
30
0
41
1
10
95.1500354223616
20
6.33940809846402
30
0
41
1
10
95.1272211445581
20
6.35167135362133
30
0
41
1
10
95.1034472686608
20
6.36050652420238
30
0
0
SPLINE
5
F8
100
AcDbEntity
8
1
62
256
6
ByLayer
370
-1
48
1
60
0
100
AcDbSpline
70
4
71
3
72
12
73
8
40
0
40
0
40
0
40
0
40
0.49427637886395
40
0.49427637886395
40
0.899413616892532
40
0.899413616892532
40
1
40
1
40
1
40
1
41
1
10
96.0006064055142
20
4.75382638867819
30
0
41
1
10
95.935469222267
20
4.72058263728519
30
0
41
1
10
95.8727885598437
20
4.676423285515
30
0
41
1
10
95.7717424151786
20
4.57869292672896
30
0
41
1
10
95.7299994401932
20
4.52705642409092
30
0
41
1
10
95.6874955506243
20
4.4568001230694
30
0
41
1
10
95.6794383563507
20
4.44242147394257
30
0
41
1
10
95.6718870674268
20
4.42779955471272
30
0
0
SPLINE
5
F9
100
AcDbEntity
8
1
62
256
6
ByLayer
370
-1
48
1
60
0
100
AcDbSpline
70
4
71
3
72
14
73
10
40
0
40
0
40
0
40
0
40
0.258996407932407
40
0.258996407932407
40
0.548453544254927
40
0.548453544254927
40
0.81017524664461
40
0.81017524664461
40
1
40
1
40
1
40
1
41
1
10
95.2247938987856
20
3.4886672990103
30
0
41
1
10
95.2497992534231
20
3.4728741309153
30
0
41
1
10
95.2783272750631
20
3.46048044637178
30
0
41
1
10
95.342575419487
20
3.44420444119663
30
0
41
1
10
95.3798052910035
20
3.44131098858972
30
0
41
1
10
95.4501543934539
20
3.44883673339612
30
0
41
1
10
95.4843890199409
20
3.45818227228526
30
0
41
1
10
95.5386799048505
20
3.48351049216501
30
0
41
1
10
95.5605672323071
20
3.49718336270536
30
0
41
1
10
95.5801186801078
20
3.51309679327727
30
0
0
SPLINE
5
FA
100
AcDbEntity
8
1
62
256
6
ByLayer
370
-1
48
1
60
0
100
AcDbSpline
70
4
71
3
72
16
73
12
40
0
40
0
40
0
40
0
40
0.0609147512951417
40
0.0609147512951417
40
0.281683404303607
40
0.281683404303607
40
0.505139650592296
40
0.505139650592296
40
0.742848098732403
40
0.742848098732403
40
1
40
1
40
1
40
1
41
1
10
93.4536831973683
20
6.08924903081726
30
0
41
1
10
93.4473209131161
20
6.08407060261305
30
0
41
1
10
93.4411718493826
20
6.07859911692063
30
0
41
1
10
93.4140519974022
20
6.05225228003218
30
0
41
1
10
93.3958424458006
20
6.02786572893203
30
0
41
1
10
93.3678774229986
20
5.97538845654472
30
0
41
1
10
93.3578508164606
20
5.94660011453394
30
0
41
1
10
93.3462600154515
20
5.88687161871721
30
0
41
1
10
93.3450999025009
20
5.85517032977546
30
0
41
1
10
93.3518121178943
20
5.79186286669511
30
0
41
1
10
93.3604760177797
20
5.7596975303029
30
0
41
1
10
93.3732426607285
20
5.73024297989664
30
0
0
SPLINE
5
FB
100
AcDbEntity
8
1
62
256
6
ByLayer
370
-1
48
1
60
0
100
AcDbSpline
70
4
71
3
72
16
73
12
40
0
40
0
40
0
40
0
40
0.0197319576645838
40
0.0197319576645838
40
0.333026703899935
40
0.333026703899935
40
0.619205556150959
40
0.619205556150959
40
0.871115388931945
40
0.871115388931945
40
1
40
1
40
1
40
1
41
1
10
96.0006064055143
20
4.75382638867819
30
0
41
1
10
96.0027821274469
20
4.75493680143205
30
0
41
1
10
96.0049485295735
20
4.75607407575018
30
0
41
1
10
96.0408373673617
20
4.77544666795077
30
0
41
1
10
96.0726553128222
20
4.80074120627492
30
0
41
1
10
96.1226355184465
20
4.85934279420502
30
0
41
1
10
96.1424722022502
20
4.89274907978438
30
0
41
1
10
96.1668678475371
20
4.95999807418011
30
0
41
1
10
96.1732825502022
20
4.994331481275
30
0
41
1
10
96.1738057749819
20
5.04548616729639
30
0
41
1
10
96.1724211292004
20
5.06293870431711
30
0
41
1
10
96.1694977182376
20
5.07996116113745
30
0
0
SPLINE
5
FC
100
AcDbEntity
8
1
62
256
6
ByLayer
370
-1
48
1
60
0
100
AcDbSpline
70
4
71
3
72
16
73
12
40
0
40
0
40
0
40
0
40
0.0385037996107309
40
0.0385037996107309
40
0.261757335704643
40
0.261757335704643
40
0.486401837404865
40
0.486401837404865
40
0.724356263875753
40
0.724356263875753
40
1
40
1
40
1
40
1
41
1
10
93.9303546088153
20
3.24183929989206
30
0
41
1
10
93.935194964879
20
3.24004046104557
30
0
41
1
10
93.9400850399601
20
3.23836088110775
30
0
41
1
10
93.9733145406545
20
3.22786621024659
30
0
41
1
10
94.0033180711839
20
3.2229902462604
30
0
41
1
10
94.0620008338705
20
3.22180887767698
30
0
41
1
10
94.0914198355292
20
3.22552037323962
30
0
41
1
10
94.1476233047514
20
3.24072556632945
30
0
41
1
10
94.1748620965594
20
3.25282899047787
30
0
41
1
10
94.2264084488767
20
3.28539666452289
30
0
41
1
10
94.2503205827537
20
3.30729933274157
30
0
41
1
10
94.2691490910658
20
3.33153827697652
30
0
0
SPLINE
5
FD
100
AcDbEntity
8
1
62
256
6
ByLayer
370
-1
48
1
60
0
100
AcDbSpline
70
4
71
3
72
12
73
8
40
0
40
0
40
0
40
0
40
0.480255555800055
40
0.480255555800055
40
0.887839652789383
40
0.887839652789383
40
1
40
1
40
1
40
1
41
1
10
93.0318380760558
20
4.82261877859276
30
0
41
1
10
93.0946934401293
20
4.84649017550714
30
0
41
1
10
93.1552215331838
20
4.88108368976901
30
0
41
1
10
93.2550189148205
20
4.96449603404668
30
0
41
1
10
93.2971500900874
20
5.01146888177351
30
0
41
1
10
93.341183878718
20
5.0798416907144
30
0
41
1
10
93.3501963333209
20
5.09521941801501
30
0
41
1
10
93.3585869667883
20
5.11104723724264
30
0
0
SPLINE
5
FE
100
AcDbEntity
8
1
62
256
6
ByLayer
370
-1
48
1
60
0
100
AcDbSpline
70
4
71
3
72
18
73
14
40
0
40
0
40
0
40
0
40
0.0445778070866277
40
0.0445778070866277
40
0.267784791885341
40
0.267784791885341
40
0.492733764289551
40
0.492733764289551
40
0.731283199196911
40
0.731283199196911
40
0.992778173490025
40
0.992778173490025
40
1
40
1
40
1
40
1
41
1
10
95.1034472686608
20
6.36050652420238
30
0
41
1
10
95.0978494277235
20
6.36258686986332
30
0
41
1
10
95.0921835579721
20
6.36448732409184
30
0
41
1
10
95.0581038217299
20
6.37471092730775
30
0
41
1
10
95.0280584149313
20
6.37862688380926
30
0
41
1
10
94.9692798298348
20
6.37699989119704
30
0
41
1
10
94.9398087748138
20
6.37138545281175
30
0
41
1
10
94.8834952377371
20
6.35154760293685
30
0
41
1
10
94.8562042867601
20
6.33660627417018
30
0
41
1
10
94.8060240597389
20
6.29847283098903
30
0
41
1
10
94.7831593855776
20
6.27417582075867
30
0
41
1
10
94.7643298719093
20
6.24680695185003
30
0
41
1
10
94.7638216398923
20
6.24606140744086
30
0
41
1
10
94.7633167193486
20
6.24531386889564
30
0
0
LINE
5
4A
100
AcDbEntity
8
80
62
256
6
ByLayer
370
-1
48
1
60
0
100
AcDbLine
10
0
20
0
30
0
11
-10
21
0
31
0
39
0
210
0
220
0
230
1
0
LINE
5
4B
100
AcDbEntity
8
81
62
256
6
ByLayer
370
-1
48
1
60
0
100
AcDbLine
10
99.93
20
17.9
30
0
11
109.93
21
17.9
31
0
39
0
210
0
220
0
230
1
0
LINE
5
4C
100
AcDbEntity
8
SK4
62
256
6
ByLayer
370
-1
48
0.05
60
0
100
AcDbLine
10
-206.32
20
0
30
0
11
104.672311
21
0
31
0
39
0
210
0
220
0
230
1
0
LINE
5
4E
100
AcDbEntity
8
4
62
256
6
ByLayer
370
-1
48
0.05
60
0
100
AcDbLine
10
0
20
0
30
0
11
104.672311
21
0
31
0
39
0
210
0
220
0
230
1
0
LINE
5
50
100
AcDbEntity
8
1
62
256
6
ByLayer
370
-1
48
1
60
0
100
AcDbLine
10
93.741435
20
3.523061
30
0
11
93.74305
21
3.553886
31
0
39
0
210
0
220
0
230
1
0
LINE
5
51
100
AcDbEntity
8
1
62
256
6
ByLayer
370
-1
48
1
60
0
100
AcDbLine
10
97.129719
20
4.499986
30
0
11
97.136614
21
4.631563
31
0
39
0
210
0
220
0
230
1
0
LINE
5
52
100
AcDbEntity
8
1
62
256
6
ByLayer
370
-1
48
1
60
0
100
AcDbLine
10
91.893809
20
4.906327
30
0
11
91.886914
21
4.77475
31
0
39
0
210
0
220
0
230
1
0
LINE
5
53
100
AcDbEntity
8
1
62
256
6
ByLayer
370
-1
48
1
60
0
100
AcDbLine
10
95.595754
20
4.152247
30
0
11
95.588522
21
4.014256
31
0
39
0
210
0
220
0
230
1
0
LINE
5
54
100
AcDbEntity
8
1
62
256
6
ByLayer
370
-1
48
1
60
0
100
AcDbLine
10
95.289252
20
6.019845
30
0
11
95.28126
21
5.867352
31
0
39
0
210
0
220
0
230
1
0
LINE
5
55
100
AcDbEntity
8
1
62
256
6
ByLayer
370
-1
48
1
60
0
100
AcDbLine
10
93.427804
20
5.254629
30
0
11
93.435034
21
5.392586
31
0
39
0
210
0
220
0
230
1
0
LINE
5
56
100
AcDbEntity
8
SK1
62
256
6
ByLayer
370
-1
48
1
60
0
100
AcDbLine
10
-199.32
20
-12.49125
30
0
11
0
21
-12.49125
31
0
39
0
210
0
220
0
230
1
0
LINE
5
58
100
AcDbEntity
8
SK1
62
256
6
ByLayer
370
-1
48
1
60
0
100
AcDbLine
10
0
20
12.49125
30
0
11
-199.32
21
12.49125
31
0
39
0
210
0
220
0
230
1
0
LINE
5
59
100
AcDbEntity
8
SK1
62
256
6
ByLayer
370
-1
48
1
60
0
100
AcDbLine
10
-199.32
20
12.49125
30
0
11
-201.32
21
10.49125
31
0
39
0
210
0
220
0
230
1
0
LINE
5
5A
100
AcDbEntity
8
SK1
62
256
6
ByLayer
370
-1
48
1
60
0
100
AcDbLine
10
-201.32
20
-10.49125
30
0
11
-199.32
21
-12.49125
31
0
39
0
210
0
220
0
230
1
0
LINE
5
5B
100
AcDbEntity
8
1
62
256
6
ByLayer
370
-1
48
1
60
0
100
AcDbLine
10
89.239025
20
-7.90417
30
0
11
89.30176
21
-7.995487
31
0
39
0
210
0
220
0
230
1
0
LINE
5
5C
100
AcDbEntity
8
1
62
256
6
ByLayer
370
-1
48
1
60
0
100
AcDbLine
10
0
20
-12.49125
30
0
11
90.584743
21
-12.49125
31
0
39
0
210
0
220
0
230
1
0
LINE
5
5D
100
AcDbEntity
8
1
62
256
6
ByLayer
370
-1
48
1
60
0
100
AcDbLine
10
77.564708
20
12.49125
30
0
11
0
21
12.49125
31
0
39
0
210
0
220
0
230
1
0
LINE
5
5E
100
AcDbEntity
8
1
62
256
6
ByLayer
370
-1
48
1
60
0
100
AcDbLine
10
86.381489
20
-3.296309
30
0
11
86.408987
21
-2.771611
31
0
39
0
210
0
220
0
230
1
0
LINE
5
5F
100
AcDbEntity
8
1
62
256
6
ByLayer
370
-1
48
1
60
0
100
AcDbLine
10
90.584743
20
-12.49125
30
0
11
90.659743
21
-12.41625
31
0
39
0
210
0
220
0
230
1
0
LINE
5
60
100
AcDbEntity
8
1
62
256
6
ByLayer
370
-1
48
1
60
0
100
AcDbLine
10
93.508657
20
-12.41625
30
0
11
93.685165
21
-12.590238
31
0
39
0
210
0
220
0
230
1
0
LINE
5
61
100
AcDbEntity
8
1
62
256
6
ByLayer
370
-1
48
1
60
0
100
AcDbLine
10
90.659743
20
-12.41625
30
0
11
93.508657
21
-12.41625
31
0
39
0
210
0
220
0
230
1
0
LINE
5
62
100
AcDbEntity
8
1
62
256
6
ByLayer
370
-1
48
1
60
0
100
AcDbLine
10
87.715224
20
-6.905903
30
0
11
89.235619
21
-4.972873
31
0
39
0
210
0
220
0
230
1
0
LINE
5
63
100
AcDbEntity
8
1
62
256
6
ByLayer
370
-1
48
1
60
0
100
AcDbLine
10
80.907552
20
6.558147
30
0
11
73.05723
21
6.558147
31
0
39
0
210
0
220
0
230
1
0
LINE
5
64
100
AcDbEntity
8
1
62
256
6
ByLayer
370
-1
48
1
60
0
100
AcDbLine
10
0
20
-0.23467
30
0
11
0
21
0.23467
31
0
39
0
210
0
220
0
230
1
0
LINE
5
65
100
AcDbEntity
8
1
62
256
6
ByLayer
370
-1
48
1
60
0
100
AcDbLine
10
93.508657
20
-12.41625
30
0
11
93.508657
21
-12.035072
31
0
39
0
210
0
220
0
230
1
0
LINE
5
66
100
AcDbEntity
8
1
62
256
6
ByLayer
370
-1
48
1
60
0
100
AcDbLine
10
86.311439
20
-3.68566
30
0
11
83.836595
21
-11.585147
31
0
39
0
210
0
220
0
230
1
0
LINE
5
67
100
AcDbEntity
8
1
62
256
6
ByLayer
370
-1
48
1
60
0
100
AcDbLine
10
87.715224
20
-6.905903
30
0
11
87.731781
21
-6.589992
31
0
39
0
210
0
220
0
230
1
0
LINE
5
68
100
AcDbEntity
8
1
62
256
6
ByLayer
370
-1
48
1
60
0
100
AcDbLine
10
98.855985
20
1.229308
30
0
11
97.982562
21
1.553901
31
0
39
0
210
0
220
0
230
1
0
LINE
5
69
100
AcDbEntity
8
1
62
256
6
ByLayer
370
-1
48
1
60
0
100
AcDbLine
10
86.339336
20
-3.153342
30
0
11
84.856509
21
-7.793196
31
0
39
0
210
0
220
0
230
1
0
LINE
5
6A
100
AcDbEntity
8
1
62
256
6
ByLayer
370
-1
48
1
60
0
100
AcDbLine
10
84.258281
20
5.875513
30
0
11
77.599696
21
12.488504
31
0
39
0
210
0
220
0
230
1
0
LINE
5
6B
100
AcDbEntity
8
1
62
256
6
ByLayer
370
-1
48
1
60
0
100
AcDbLine
10
93.686192
20
-12.59025
30
0
11
98.131732
21
-12.59025
31
0
39
0
210
0
220
0
230
1
0
LINE
5
6C
100
AcDbEntity
8
1
62
256
6
ByLayer
370
-1
48
1
60
0
100
AcDbLine
10
87.643344
20
-6.332627
30
0
11
87.731781
21
-6.589992
31
0
39
0
210
0
220
0
230
1
0
LINE
5
6D
100
AcDbEntity
8
1
62
256
6
ByLayer
370
-1
48
1
60
0
100
AcDbLine
10
68.123443
20
8.102757
30
0
11
61.817058
21
12.486072
31
0
39
0
210
0
220
0
230
1
0
LINE
5
6E
100
AcDbEntity
8
1
62
256
6
ByLayer
370
-1
48
1
60
0
100
AcDbLine
10
90.270128
20
-8.499166
30
0
11
90.285957
21
-8.197137
31
0
39
0
210
0
220
0
230
1
0
LINE
5
6F
100
AcDbEntity
8
1
62
256
6
ByLayer
370
-1
48
1
60
0
100
AcDbLine
10
87.558389
20
-1.835848
30
0
11
83.694382
21
4.944056
31
0
39
0
210
0
220
0
230
1
0
LINE
5
70
100
AcDbEntity
8
1
62
256
6
ByLayer
370
-1
48
1
60
0
100
AcDbLine
10
93.686192
20
-12.210622
30
0
11
93.686192
21
-12.59025
31
0
39
0
210
0
220
0
230
1
0
LINE
5
71
100
AcDbEntity
8
1
62
256
6
ByLayer
370
-1
48
1
60
0
100
AcDbLine
10
0
20
-12.49125
30
0
11
0
21
-0.23467
31
0
39
0
210
0
220
0
230
1
0
LINE
5
72
100
AcDbEntity
8
1
62
256
6
ByLayer
370
-1
48
1
60
0
100
AcDbLine
10
0
20
0.23467
30
0
11
0
21
12.49125
31
0
39
0
210
0
220
0
230
1
0
LINE
5
73
100
AcDbEntity
8
1
62
256
6
ByLayer
370
-1
48
1
60
0
100
AcDbLine
10
88.814515
20
4.961056
30
0
11
89.738247
21
4.617766
31
0
39
0
210
0
220
0
230
1
0
LINE
5
74
100
AcDbEntity
8
1
62
256
6
ByLayer
370
-1
48
1
60
0
100
AcDbLine
10
90.659743
20
-12.41625
30
0
11
90.659743
21
-12.030727
31
0
39
0
210
0
220
0
230
1
0
LINE
5
75
100
AcDbEntity
8
1
62
256
6
ByLayer
370
-1
48
1
60
0
100
AcDbLine
10
86.339336
20
-3.153342
30
0
11
86.311439
21
-3.68566
31
0
39
0
210
0
220
0
230
1
0
LINE
5
76
100
AcDbEntity
8
1
62
256
6
ByLayer
370
-1
48
1
60
0
100
AcDbLine
10
90.584743
20
-12.49125
30
0
11
90.584743
21
-12.105752
31
0
39
0
210
0
220
0
230
1
0
LINE
5
77
100
AcDbEntity
8
1
62
256
6
ByLayer
370
-1
48
1
60
0
100
AcDbLine
10
98.131732
20
-12.59025
30
0
11
98.151276
21
-12.217329
31
0
39
0
210
0
220
0
230
1
0
LINE
5
78
100
AcDbEntity
8
1
62
256
6
ByLayer
370
-1
48
1
60
0
100
AcDbLine
10
88.011573
20
-8.696773
30
0
11
87.995017
21
-9.012683
31
0
39
0
210
0
220
0
230
1
0
LINE
5
79
100
AcDbEntity
8
1
62
256
6
ByLayer
370
-1
48
1
60
0
100
AcDbLine
10
98.855985
20
1.229308
30
0
11
98.151276
21
-12.217329
31
0
39
0
210
0
220
0
230
1
0
LINE
5
7A
100
AcDbEntity
8
1
62
256
6
ByLayer
370
-1
48
1
60
0
100
AcDbLine
10
85.400794
20
-12.097806
30
0
11
87.829385
21
-4.345955
31
0
39
0
210
0
220
0
230
1
0
LINE
5
7B
100
AcDbEntity
8
1
62
256
6
ByLayer
370
-1
48
1
60
0
100
AcDbLine
10
67.385189
20
0.23467
30
0
11
0
21
0.23467
31
0
39
0
210
0
220
0
230
1
0
LINE
5
7C
100
AcDbEntity
8
1
62
256
6
ByLayer
370
-1
48
1
60
0
100
AcDbLine
10
0
20
-0.23467
30
0
11
67.810108
21
-0.23467
31
0
39
0
210
0
220
0
230
1
0
LINE
5
7D
100
AcDbEntity
8
1
62
256
6
ByLayer
370
-1
48
1
60
0
100
AcDbLine
10
87.731781
20
-6.589992
30
0
11
89.252175
21
-4.656962
31
0
39
0
210
0
220
0
230
1
0
LINE
5
7E
100
AcDbEntity
8
1
62
256
6
ByLayer
370
-1
48
1
60
0
100
AcDbLine
10
89.27293
20
-4.260771
30
0
11
87.643344
21
-6.332627
31
0
39
0
210
0
220
0
230
1
0
LINE
5
7F
100
AcDbEntity
8
1
62
256
6
ByLayer
370
-1
48
1
60
0
100
AcDbLine
10
73.11024
20
5.958558
30
0
11
80.948276
21
5.724145
31
0
39
0
210
0
220
0
230
1
0
LINE
5
80
100
AcDbEntity
8
1
62
256
6
ByLayer
370
-1
48
1
60
0
100
AcDbLine
10
82.340111
20
4.886951
30
0
11
86.203116
21
-1.912063
31
0
39
0
210
0
220
0
230
1
0
LINE
5
81
100
AcDbEntity
8
SK1
62
256
6
ByLayer
370
-1
48
1
60
0
100
AcDbLine
10
-75.07
20
-0.23467
30
0
11
0
21
-0.23467
31
0
39
0
210
0
220
0
230
1
0
LINE
5
82
100
AcDbEntity
8
SK1
62
256
6
ByLayer
370
-1
48
1
60
0
100
AcDbLine
10
-199.32
20
-12.49125
30
0
11
-199.32
21
12.49125
31
0
39
0
210
0
220
0
230
1
0
LINE
5
83
100
AcDbEntity
8
SK1
62
256
6
ByLayer
370
-1
48
1
60
0
100
AcDbLine
10
0
20
0.23467
30
0
11
-75.07
21
0.23467
31
0
39
0
210
0
220
0
230
1
0
LINE
5
84
100
AcDbEntity
8
SK1
62
256
6
ByLayer
370
-1
48
1
60
0
100
AcDbLine
10
-75.07
20
-0.23467
30
0
11
-75.07
21
0.23467
31
0
39
0
210
0
220
0
230
1
0
LINE
5
85
100
AcDbEntity
8
SK1
62
256
6
ByLayer
370
-1
48
1
60
0
100
AcDbLine
10
0
20
-12.49125
30
0
11
0
21
-0.23467
31
0
39
0
210
0
220
0
230
1
0
LINE
5
86
100
AcDbEntity
8
SK1
62
256
6
ByLayer
370
-1
48
1
60
0
100
AcDbLine
10
0
20
0.23467
30
0
11
0
21
12.49125
31
0
39
0
210
0
220
0
230
1
0
LINE
5
87
100
AcDbEntity
8
SK1
62
256
6
ByLayer
370
-1
48
1
60
0
100
AcDbLine
10
-201.32
20
-10.49125
30
0
11
-201.32
21
10.49125
31
0
39
0
210
0
220
0
230
1
0
LINE
5
88
100
AcDbEntity
8
SK1
62
256
6
ByLayer
370
-1
48
1
60
0
100
AcDbLine
10
0
20
-0.23467
30
0
11
0
21
0.23467
31
0
39
0
210
0
220
0
230
1
0
LINE
5
89
100
AcDbEntity
8
1
62
256
6
ByLayer
370
-1
48
1
60
0
100
AcDbLine
10
93.358587
20
5.111047
30
0
11
93.351513
21
4.976066
31
0
39
0
210
0
220
0
230
1
0
LINE
5
8A
100
AcDbEntity
8
1
62
256
6
ByLayer
370
-1
48
1
60
0
100
AcDbLine
10
93.409745
20
5.130878
30
0
11
93.416819
21
5.265858
31
0
39
0
210
0
220
0
230
1
0
LINE
5
8B
100
AcDbEntity
8
1
62
256
6
ByLayer
370
-1
48
1
60
0
100
AcDbLine
10
95.651143
20
3.692422
30
0
11
95.659202
21
3.846202
31
0
39
0
210
0
220
0
230
1
0
LINE
5
8C
100
AcDbEntity
8
1
62
256
6
ByLayer
370
-1
48
1
60
0
100
AcDbLine
10
95.900808
20
5.153322
30
0
11
95.908878
21
5.307306
31
0
39
0
210
0
220
0
230
1
0
LINE
5
8D
100
AcDbEntity
8
1
62
256
6
ByLayer
370
-1
48
1
60
0
100
AcDbLine
10
94.755247
20
6.09133
30
0
11
94.763317
21
6.245314
31
0
39
0
210
0
220
0
230
1
0
LINE
5
8E
100
AcDbEntity
8
1
62
256
6
ByLayer
370
-1
48
1
60
0
100
AcDbLine
10
93.799602
20
5.934201
30
0
11
93.807672
21
6.088185
31
0
39
0
210
0
220
0
230
1
0
LINE
5
8F
100
AcDbEntity
8
1
62
256
6
ByLayer
370
-1
48
1
60
0
100
AcDbLine
10
93.023779
20
4.668839
30
0
11
93.031838
21
4.822619
31
0
39
0
210
0
220
0
230
1
0
LINE
5
90
100
AcDbEntity
8
1
62
256
6
ByLayer
370
-1
48
1
60
0
100
AcDbLine
10
89.10247
20
-7.513701
30
0
11
89.834268
21
6.44984
31
0
39
0
210
0
220
0
230
1
0
LINE
5
91
100
AcDbEntity
8
1
62
256
6
ByLayer
370
-1
48
1
60
0
100
AcDbLine
10
99.119336
20
2.999197
30
0
11
90.455179
21
-8.016413
31
0
39
0
210
0
220
0
230
1
0
LINE
5
92
100
AcDbEntity
8
1
62
256
6
ByLayer
370
-1
48
1
60
0
100
AcDbLine
10
99.934979
20
17.185639
30
0
11
99.203181
21
3.222098
31
0
39
0
210
0
220
0
230
1
0
LINE
5
93
100
AcDbEntity
8
1
62
256
6
ByLayer
370
-1
48
1
60
0
100
AcDbLine
10
89.918113
20
6.672741
30
0
11
98.58227
21
17.688351
31
0
39
0
210
0
220
0
230
1
0
LINE
5
94
100
AcDbEntity
8
2
62
256
6
ByLayer
370
-1
48
1
60
1
100
AcDbLine
10
99.93
20
0
30
0
11
99.931
21
0.001
31
0
39
0
210
0
220
0
230
1
0
MTEXT
5
FF
100
AcDbEntity
8
SK6
62
256
6
ByLayer
370
-1
48
1
60
0
100
AcDbMText
10
-47.32
20
-26.605415
30
0
210
0
220
0
230
1
1
\W00.787;\fsimplex.shx,bigfont.shx;A25T-SVUBR 16HP-DR 
40
3.5
41
0
44
1.084337
50
0
71
7
72
5
7
DEFAULT
0
DIMENSION
5
132
100
AcDbEntity
8
2
62
256
6
ByLayer
370
-3
48
1
60
0
100
AcDbDimension
2
DimnDraft3D1
10
112.18
20
0
30
0
11
112.18
21
4.349342
31
0
70
32
71
5
72
1
41
1
210
0
220
0
230
1
3
Standard
100
AcDbAlignedDimension
13
101.93
23
17.9
33
0
14
101.93
24
0
34
0
50
90
100
AcDbRotatedDimension
1001
ACAD
1000
DSTYLE
1002
{
1070
    74
1070
     0
1070
   279
1070
     0
1070
   172
1070
     1
1070
   173
1070
     1
1070
   340
1005
100
1070
    77
1070
     1
1070
    73
1070
     0
1070
   171
1070
     4
1070
   274
1070
     4
1070
   177
1070
     2
1070
   176
1070
     2
1070
   178
1070
     7
1070
    78
1070
     8
1070
    41
1041
3.175
1070
   147
1041
2.25
1070
    42
1041
2.0
1070
    44
1041
2.0
1070
   140
1041
4.5
1070
   343
1005
133
1070
   344
1005
133
1002
}
0
DIMENSION
5
148
100
AcDbEntity
8
SK2
62
256
6
ByLayer
370
-3
48
1
60
0
100
AcDbDimension
2
DimnDraft3D2
10
-211.07
20
12.49125
30
0
11
-211.07
21
-4.784211
31
0
70
32
71
5
72
1
41
1
210
0
220
0
230
1
3
Standard
100
AcDbAlignedDimension
13
-203.32
23
-12.49125
33
0
14
-203.32
24
12.49125
34
0
50
90
100
AcDbRotatedDimension
1001
ACAD
1000
DSTYLE
1002
{
1070
    74
1070
     0
1070
   279
1070
     0
1070
   172
1070
     1
1070
   173
1070
     1
1070
   340
1005
100
1070
    77
1070
     1
1070
    73
1070
     0
1070
   171
1070
     4
1070
   274
1070
     4
1070
   177
1070
     2
1070
   176
1070
     2
1070
   178
1070
     7
1070
    78
1070
     8
1070
    41
1041
3.175
1070
   147
1041
2.25
1070
    42
1041
2.0
1070
    44
1041
2.0
1070
   140
1041
4.5
1070
   343
1005
133
1070
   344
1005
133
1002
}
0
DIMENSION
5
156
100
AcDbEntity
8
SK2
62
256
6
ByLayer
370
-3
48
1
60
0
100
AcDbDimension
2
DimnDraft3D3
10
-201.32
20
30.65
30
0
11
-57.510132
21
30.65
31
0
70
32
71
5
72
1
41
1
210
0
220
0
230
1
3
Standard
100
AcDbAlignedDimension
13
99.93
23
19.9
33
0
14
-201.32
24
14.49125
34
0
50
0
100
AcDbRotatedDimension
1001
ACAD
1000
DSTYLE
1002
{
1070
   279
1070
     0
1070
   172
1070
     1
1070
   173
1070
     1
1070
   340
1005
100
1070
    77
1070
     1
1070
    73
1070
     0
1070
   171
1070
     4
1070
   274
1070
     4
1070
   177
1070
     2
1070
   176
1070
     2
1070
   178
1070
     7
1070
    78
1070
     8
1070
    41
1041
3.175
1070
   147
1041
2.25
1070
    42
1041
2.0
1070
    44
1041
2.0
1070
   140
1041
4.5
1070
   343
1005
133
1070
   344
1005
133
1002
}
0
DIMENSION
5
164
100
AcDbEntity
8
2
62
256
6
ByLayer
370
-3
48
1
60
0
100
AcDbDimension
2
DimnDraft3D4
10
147.918308
20
0
30
0
11
125.123712
21
-36.792664
31
0
70
34
71
5
72
1
41
1
210
0
220
0
230
1
3
Standard
100
AcDb2LineAngularDimension
13
98.987953
23
-0.075332
33
0
14
96.43129
24
-48.859355
34
0
15
101.93
25
0
35
0
16
128.196312
26
-30.775028
36
0
40
0
0
ENDSEC
0
SECTION
2
OBJECTS
0
DICTIONARY
5
195
330
0
100
AcDbDictionary
280
0
281
1
3
ACAD_GROUP
350
196
3
ACAD_MLINESTYLE
350
197
0
DICTIONARY
5
196
330
0
100
AcDbDictionary
280
0
281
1
0
DICTIONARY
5
197
330
0
100
AcDbDictionary
280
0
281
1
3
Standard
350
18
0
MLINESTYLE
5
18
330
197
100
AcDbMlineStyle
2
Standard
70
0
3

62
256
51
90
52
90
71
2
49
-0.5
62
256
6
ByLayer
49
0.5
62
256
6
ByLayer
0
RASTERVARIABLES
5
183
330

100
AcDbRasterVariables
90
0
70
1
71
1
72
1
0
ENDSEC
0
EOF
