0
SECTION
2
HEADER
9
$ACADVER
1
AC1015
9
$DWGCODEPAGE
3
ANSI_1252
9
$HANDSEED
5
1a1
9
$ANGBASE
50
0
9
$ANGDIR
70
0
9
$ATTMODE
70
1
9
$AUNITS
70
0
9
$AUPREC
70
0
9
$CECOLOR
62
256
9
$CELTSCALE
40
1
9
$CELTYPE
6
ByLayer
9
$CELWEIGHT
370
-1
9
$CLAYER
8
0
9
$CMLJUST
70
0
9
$CMLSCALE
40
1
9
$CMLSTYLE
2
Standard
9
$DIMSTYLE
2
Standard
9
$TEXTSIZE
40
0.2
9
$TEXTSTYLE
7
Standard
9
$LUNITS
70
2
9
$LUPREC
70
4
9
$EXTNAMES
290
1
9
$INSUNITS
70
4
9
$LTSCALE
40
1
9
$LWDISPLAY
290
0
9
$PDMODE
70
0
9
$PDSIZE
40
0
9
$PLINEGEN
70
0
0
ENDSEC
0
SECTION
2
CLASSES
0
CLASS
1
RASTERVARIABLES
2
AcDbRasterVariables
3
ISM
90
0
280
0
281
0
0
ENDSEC
0
SECTION
2
TABLES
0
TABLE
2
VPORT
5
197
100
AcDbSymbolTable
0
VPORT
5
1
100
AcDbSymbolTableRecord
100
AcDbViewportTableRecord
2
*Active
70
0
10
0
20
0
11
1
21
1
12
-1
22
1
13
0
23
0
14
0.5
24
0.5
15
10
25
10
16
0
26
0
36
1
17
0
27
0
37
0
0
ENDTAB
0
TABLE
2
LTYPE
5
198
100
AcDbSymbolTable
0
LTYPE
5
14
100
AcDbSymbolTableRecord
100
AcDbLinetypeTableRecord
70
0
2
ByBlock
3

72
65
73
0
40
0
0
LTYPE
5
15
100
AcDbSymbolTableRecord
100
AcDbLinetypeTableRecord
70
0
2
ByLayer
3

72
65
73
0
40
0
0
LTYPE
5
16
100
AcDbSymbolTableRecord
100
AcDbLinetypeTableRecord
70
0
2
CONTINUOUS
3
Solid line
72
65
73
0
40
0
0
LTYPE
5
3B
100
AcDbSymbolTableRecord
100
AcDbLinetypeTableRecord
70
0
2
DASHED
3
__ __ __ __ __ __ __ __ __
72
65
73
2
40
25.72
49
12.86
74
0
49
-12.86
74
0
0
LTYPE
5
3C
100
AcDbSymbolTableRecord
100
AcDbLinetypeTableRecord
70
0
2
HIDDEN
3
_ _ _ _ _ _ _ _ _ _ _ _ _ _ _
72
65
73
2
40
0.5
49
0.25
74
0
49
-0.25
74
0
0
LTYPE
5
3D
100
AcDbSymbolTableRecord
100
AcDbLinetypeTableRecord
70
0
2
PHANTOM
3
____ _ _ ____ _ _ _____ _ _ ____
72
65
73
6
40
50.5
49
18
74
0
49
-6.5
74
0
49
6.5
74
0
49
-6.5
74
0
49
6.5
74
0
49
-6.5
74
0
0
LTYPE
5
3E
100
AcDbSymbolTableRecord
100
AcDbLinetypeTableRecord
70
0
2
CENTER
3
____ _ ____ _ ____ _ ____
72
65
73
4
40
47.5
49
22
74
0
49
-8.5
74
0
49
8.5
74
0
49
-8.5
74
0
0
LTYPE
5
3F
100
AcDbSymbolTableRecord
100
AcDbLinetypeTableRecord
70
0
2
DOT
3
.........................
72
65
73
2
40
10
49
0
74
0
49
-10
74
0
0
LTYPE
5
40
100
AcDbSymbolTableRecord
100
AcDbLinetypeTableRecord
70
0
2
DASHDOT
3
_._._._._._._._._._._._._._._._.
72
65
73
4
40
70
49
31
74
0
49
-13
74
0
49
13
74
0
49
-13
74
0
0
ENDTAB
0
TABLE
2
LAYER
5
199
100
AcDbSymbolTable
0
LAYER
5
10
100
AcDbSymbolTableRecord
100
AcDbLayerTableRecord
2
0
70
0
62
7
6
CONTINUOUS
290
1
370
-3
390
0
0
LAYER
5
42
100
AcDbSymbolTableRecord
100
AcDbLayerTableRecord
2
80
70
0
62
-6
6
CONTINUOUS
290
1
370
-3
390
0
0
LAYER
5
44
100
AcDbSymbolTableRecord
100
AcDbLayerTableRecord
2
81
70
0
62
-3
6
CONTINUOUS
290
1
370
-3
390
0
0
LAYER
5
46
100
AcDbSymbolTableRecord
100
AcDbLayerTableRecord
2
1
70
0
62
4
6
CONTINUOUS
290
1
370
-3
390
0
0
LAYER
5
48
100
AcDbSymbolTableRecord
100
AcDbLayerTableRecord
2
2
70
0
62
7
6
CONTINUOUS
290
1
370
-3
390
0
0
LAYER
5
5E
100
AcDbSymbolTableRecord
100
AcDbLayerTableRecord
2
4
70
0
62
-2
6
CENTER
290
1
370
-3
390
0
0
LAYER
5
183
100
AcDbSymbolTableRecord
100
AcDbLayerTableRecord
2
SK1
70
0
62
4
6
CONTINUOUS
290
1
370
-3
390
0
0
LAYER
5
184
100
AcDbSymbolTableRecord
100
AcDbLayerTableRecord
2
SK4
70
0
62
2
6
CENTER
290
1
370
-3
390
0
0
LAYER
5
185
100
AcDbSymbolTableRecord
100
AcDbLayerTableRecord
2
SK6
70
0
62
5
6
CONTINUOUS
290
1
370
-3
390
0
0
LAYER
5
186
100
AcDbSymbolTableRecord
100
AcDbLayerTableRecord
2
SK2
70
0
62
7
6
CONTINUOUS
290
1
370
-3
390
0
0
ENDTAB
0
TABLE
2
STYLE
5
19a
100
AcDbSymbolTable
0
STYLE
5
11
100
AcDbSymbolTableRecord
100
AcDbTextStyleTableRecord
2
Standard
3
txt
70
0
71
0
40
0
41
1
42
0
50
0
0
STYLE
5
FF
100
AcDbSymbolTableRecord
100
AcDbTextStyleTableRecord
2
DEFAULT
3
simplex.shx
70
0
71
0
40
0
41
1
42
0
50
0
0
STYLE
5
122
100
AcDbSymbolTableRecord
100
AcDbTextStyleTableRecord
2
DWGDirectTextStyle
3
SIMPLEX
70
0
71
0
40
0
41
1
42
0
50
0
0
ENDTAB
0
TABLE
2
DIMSTYLE
5
19b
100
AcDbSymbolTable
100
AcDbDimStyleTable
0
DIMSTYLE
105
27
100
AcDbSymbolTableRecord
100
AcDbDimStyleTableRecord
2
Standard
70
0
3
<>
41
0.18
42
0.0625
44
0.18
140
0.18
147
0.09
73
0
74
0
77
1
271
2
275
0
278
52
280
0
340
11
0
ENDTAB
0
TABLE
2
VIEW
5
19c
100
AcDbSymbolTable
0
ENDTAB
0
TABLE
2
UCS
5
19d
100
AcDbSymbolTable
0
ENDTAB
0
TABLE
2
APPID
5
19e
100
AcDbSymbolTable
0
APPID
5
12
100
AcDbSymbolTableRecord
100
AcDbRegAppTableRecord
2
ACAD
70
0
0
ENDTAB
0
TABLE
2
BLOCK_RECORD
5
19f
100
AcDbSymbolTable
0
BLOCK_RECORD
5
1F
100
AcDbSymbolTableRecord
100
AcDbBlockTableRecord
2
*Model_Space
340
0
70
0
0
BLOCK_RECORD
5
1B
100
AcDbSymbolTableRecord
100
AcDbBlockTableRecord
2
*Paper_Space
340
0
70
0
0
BLOCK_RECORD
5
23
100
AcDbSymbolTableRecord
100
AcDbBlockTableRecord
2
*Paper_Space0
340
0
70
0
0
BLOCK_RECORD
5
124
100
AcDbSymbolTableRecord
100
AcDbBlockTableRecord
2
DimnDraft3D1
340
0
70
0
0
BLOCK_RECORD
5
132
100
AcDbSymbolTableRecord
100
AcDbBlockTableRecord
2
_CLOSED
340
0
70
0
0
BLOCK_RECORD
5
139
100
AcDbSymbolTableRecord
100
AcDbBlockTableRecord
2
DimnDraft3D2
340
0
70
0
0
BLOCK_RECORD
5
148
100
AcDbSymbolTableRecord
100
AcDbBlockTableRecord
2
DimnDraft3D3
340
0
70
0
0
BLOCK_RECORD
5
156
100
AcDbSymbolTableRecord
100
AcDbBlockTableRecord
2
DimnDraft3D4
340
0
70
0
0
ENDTAB
0
ENDSEC
0
SECTION
2
BLOCKS
0
BLOCK
5
20
100
AcDbEntity
8
0
100
AcDbBlockBegin
2
*Model_Space
70
0
10
0
20
0
30
0
3
*Model_Space
0
ENDBLK
5
21
100
AcDbEntity
8
0
100
AcDbBlockEnd
0
BLOCK
5
1C
100
AcDbEntity
8
0
100
AcDbBlockBegin
2
*Paper_Space
70
0
10
0
20
0
30
0
3
*Paper_Space
0
ENDBLK
5
1D
100
AcDbEntity
8
0
100
AcDbBlockEnd
0
BLOCK
5
24
100
AcDbEntity
8
0
100
AcDbBlockBegin
2
*Paper_Space0
70
0
10
0
20
0
30
0
3
*Paper_Space0
0
ENDBLK
5
25
100
AcDbEntity
8
0
100
AcDbBlockEnd
0
BLOCK
5
12F
100
AcDbEntity
8
0
100
AcDbBlockBegin
2
DimnDraft3D1
70
0
10
0
20
0
30
0
3
DimnDraft3D1
0
MTEXT
5
125
100
AcDbEntity
8
2
62
256
6
ByLayer
370
-1
48
1
60
0
100
AcDbMText
10
111.055
20
-12.425658
30
0
210
0
220
0
230
1
1
\W01.000;\fsimplex.shx,bigfont.shx;18.0 
40
4.5
41
0
44
1.084337
50
90
71
7
72
5
7
DEFAULT
0
LINE
5
126
100
AcDbEntity
8
2
62
256
6
ByLayer
370
-1
48
1
60
0
100
AcDbLine
10
101.93
20
-17.9
30
0
11
114.18
21
-17.9
31
0
39
0
210
0
220
0
230
1
0
LINE
5
127
100
AcDbEntity
8
2
62
256
6
ByLayer
370
-1
48
1
60
0
100
AcDbLine
10
101.93
20
0
30
0
11
114.18
21
0
31
0
39
0
210
0
220
0
230
1
0
LINE
5
128
100
AcDbEntity
8
2
62
256
6
ByLayer
370
-1
48
1
60
0
100
AcDbLine
10
112.18
20
-29.15
30
0
11
112.18
21
11.25
31
0
39
0
210
0
220
0
230
1
0
LINE
5
129
100
AcDbEntity
8
2
62
256
6
ByLayer
370
-1
48
1
60
0
100
AcDbLine
10
112.18
20
-17.9
30
0
11
112.597997
21
-21.074998
31
0
39
0
210
0
220
0
230
1
0
LINE
5
12A
100
AcDbEntity
8
2
62
256
6
ByLayer
370
-1
48
1
60
0
100
AcDbLine
10
112.18
20
-17.9
30
0
11
111.762003
21
-21.075002
31
0
39
0
210
0
220
0
230
1
0
LINE
5
12B
100
AcDbEntity
8
2
62
256
6
ByLayer
370
-1
48
1
60
0
100
AcDbLine
10
112.597997
20
-21.074998
30
0
11
111.762003
21
-21.075002
31
0
39
0
210
0
220
0
230
1
0
LINE
5
12C
100
AcDbEntity
8
2
62
256
6
ByLayer
370
-1
48
1
60
0
100
AcDbLine
10
112.18
20
0
30
0
11
111.762003
21
3.174998
31
0
39
0
210
0
220
0
230
1
0
LINE
5
12D
100
AcDbEntity
8
2
62
256
6
ByLayer
370
-1
48
1
60
0
100
AcDbLine
10
112.18
20
0
30
0
11
112.597997
21
3.175002
31
0
39
0
210
0
220
0
230
1
0
LINE
5
12E
100
AcDbEntity
8
2
62
256
6
ByLayer
370
-1
48
1
60
0
100
AcDbLine
10
111.762003
20
3.174998
30
0
11
112.597997
21
3.175002
31
0
39
0
210
0
220
0
230
1
0
ENDBLK
5
130
100
AcDbEntity
8
0
100
AcDbBlockEnd
0
BLOCK
5
133
100
AcDbEntity
8
0
100
AcDbBlockBegin
2
_CLOSED
70
0
10
0
20
0
30
0
3
_CLOSED
0
LINE
5
135
100
AcDbEntity
8
0
62
256
6
ByLayer
370
-2
48
1
60
0
100
AcDbLine
10
-1
20
0.166667
30
0
11
0
21
0
31
0
39
0
210
0
220
0
230
1
0
LINE
5
136
100
AcDbEntity
8
0
62
256
6
ByLayer
370
-2
48
1
60
0
100
AcDbLine
10
0
20
0
30
0
11
-1
21
-0.166667
31
0
39
0
210
0
220
0
230
1
0
LINE
5
137
100
AcDbEntity
8
0
62
256
6
ByLayer
370
-2
48
1
60
0
100
AcDbLine
10
-1
20
0.166667
30
0
11
-1
21
-0.166667
31
0
39
0
210
0
220
0
230
1
0
LINE
5
138
100
AcDbEntity
8
0
62
256
6
ByLayer
370
-2
48
1
60
0
100
AcDbLine
10
0
20
0
30
0
11
-1
21
0
31
0
39
0
210
0
220
0
230
1
0
ENDBLK
5
134
100
AcDbEntity
8
0
100
AcDbBlockEnd
0
BLOCK
5
145
100
AcDbEntity
8
0
100
AcDbBlockBegin
2
DimnDraft3D2
70
0
10
0
20
0
30
0
3
DimnDraft3D2
0
MTEXT
5
13A
100
AcDbEntity
8
SK2
62
256
6
ByLayer
370
-1
48
1
60
0
100
AcDbMText
10
-212.195
20
-3.659211
30
0
210
0
220
0
230
1
1
\W01.000;\fsimplex.shx,bigfont.shx;%%c25 
40
4.5
41
0
44
1.084337
50
90
71
7
72
5
7
DEFAULT
0
LINE
5
13C
100
AcDbEntity
8
SK2
62
256
6
ByLayer
370
-1
48
1
60
0
100
AcDbLine
10
-203.32
20
-12.49125
30
0
11
-213.07
21
-12.49125
31
0
39
0
210
0
220
0
230
1
0
LINE
5
13D
100
AcDbEntity
8
SK2
62
256
6
ByLayer
370
-1
48
1
60
0
100
AcDbLine
10
-203.32
20
12.49125
30
0
11
-213.07
21
12.49125
31
0
39
0
210
0
220
0
230
1
0
LINE
5
13E
100
AcDbEntity
8
SK2
62
256
6
ByLayer
370
-1
48
1
60
0
100
AcDbLine
10
-211.07
20
-12.49125
30
0
11
-211.07
21
12.49125
31
0
39
0
210
0
220
0
230
1
0
LINE
5
13F
100
AcDbEntity
8
SK2
62
256
6
ByLayer
370
-1
48
1
60
0
100
AcDbLine
10
-211.07
20
-12.49125
30
0
11
-211.487997
21
-9.316252
31
0
39
0
210
0
220
0
230
1
0
LINE
5
140
100
AcDbEntity
8
SK2
62
256
6
ByLayer
370
-1
48
1
60
0
100
AcDbLine
10
-211.07
20
-12.49125
30
0
11
-210.652003
21
-9.316248
31
0
39
0
210
0
220
0
230
1
0
LINE
5
141
100
AcDbEntity
8
SK2
62
256
6
ByLayer
370
-1
48
1
60
0
100
AcDbLine
10
-211.487997
20
-9.316252
30
0
11
-210.652003
21
-9.316248
31
0
39
0
210
0
220
0
230
1
0
LINE
5
142
100
AcDbEntity
8
SK2
62
256
6
ByLayer
370
-1
48
1
60
0
100
AcDbLine
10
-211.07
20
12.49125
30
0
11
-210.652003
21
9.316252
31
0
39
0
210
0
220
0
230
1
0
LINE
5
143
100
AcDbEntity
8
SK2
62
256
6
ByLayer
370
-1
48
1
60
0
100
AcDbLine
10
-211.07
20
12.49125
30
0
11
-211.487997
21
9.316248
31
0
39
0
210
0
220
0
230
1
0
LINE
5
144
100
AcDbEntity
8
SK2
62
256
6
ByLayer
370
-1
48
1
60
0
100
AcDbLine
10
-210.652003
20
9.316252
30
0
11
-211.487997
21
9.316248
31
0
39
0
210
0
220
0
230
1
0
ENDBLK
5
146
100
AcDbEntity
8
0
100
AcDbBlockEnd
0
BLOCK
5
153
100
AcDbEntity
8
0
100
AcDbBlockBegin
2
DimnDraft3D3
70
0
10
0
20
0
30
0
3
DimnDraft3D3
0
MTEXT
5
149
100
AcDbEntity
8
SK2
62
256
6
ByLayer
370
-1
48
1
60
0
100
AcDbMText
10
-56.385132
20
-34.025
30
0
210
0
220
0
230
1
1
\W01.000;\fsimplex.shx,bigfont.shx;300.0 
40
4.5
41
0
44
1.084337
50
0
71
7
72
5
7
DEFAULT
0
LINE
5
14A
100
AcDbEntity
8
SK2
62
256
6
ByLayer
370
-1
48
1
60
0
100
AcDbLine
10
-201.32
20
-14.49125
30
0
11
-201.32
21
-37.15
31
0
39
0
210
0
220
0
230
1
0
LINE
5
14B
100
AcDbEntity
8
SK2
62
256
6
ByLayer
370
-1
48
1
60
0
100
AcDbLine
10
99.93
20
-19.9
30
0
11
99.93
21
-37.15
31
0
39
0
210
0
220
0
230
1
0
LINE
5
14C
100
AcDbEntity
8
SK2
62
256
6
ByLayer
370
-1
48
1
60
0
100
AcDbLine
10
-201.32
20
-35.15
30
0
11
99.93
21
-35.15
31
0
39
0
210
0
220
0
230
1
0
LINE
5
14D
100
AcDbEntity
8
SK2
62
256
6
ByLayer
370
-1
48
1
60
0
100
AcDbLine
10
-201.32
20
-35.15
30
0
11
-198.145002
21
-34.732003
31
0
39
0
210
0
220
0
230
1
0
LINE
5
14E
100
AcDbEntity
8
SK2
62
256
6
ByLayer
370
-1
48
1
60
0
100
AcDbLine
10
-201.32
20
-35.15
30
0
11
-198.144998
21
-35.567997
31
0
39
0
210
0
220
0
230
1
0
LINE
5
14F
100
AcDbEntity
8
SK2
62
256
6
ByLayer
370
-1
48
1
60
0
100
AcDbLine
10
-198.145002
20
-34.732003
30
0
11
-198.144998
21
-35.567997
31
0
39
0
210
0
220
0
230
1
0
LINE
5
150
100
AcDbEntity
8
SK2
62
256
6
ByLayer
370
-1
48
1
60
0
100
AcDbLine
10
99.93
20
-35.15
30
0
11
96.755002
21
-35.567997
31
0
39
0
210
0
220
0
230
1
0
LINE
5
151
100
AcDbEntity
8
SK2
62
256
6
ByLayer
370
-1
48
1
60
0
100
AcDbLine
10
99.93
20
-35.15
30
0
11
96.754998
21
-34.732003
31
0
39
0
210
0
220
0
230
1
0
LINE
5
152
100
AcDbEntity
8
SK2
62
256
6
ByLayer
370
-1
48
1
60
0
100
AcDbLine
10
96.755002
20
-35.567997
30
0
11
96.754998
21
-34.732003
31
0
39
0
210
0
220
0
230
1
0
ENDBLK
5
154
100
AcDbEntity
8
0
100
AcDbBlockEnd
0
BLOCK
5
161
100
AcDbEntity
8
0
100
AcDbBlockBegin
2
DimnDraft3D4
70
0
10
0
20
0
30
0
3
DimnDraft3D4
0
MTEXT
5
157
100
AcDbEntity
8
2
62
256
6
ByLayer
370
-1
48
1
60
0
100
AcDbMText
10
122.067763
20
31.938034
30
0
210
0
220
0
230
1
1
\W01.000;\fsimplex.shx,bigfont.shx;93%%d0' 
40
4.5
41
0
44
1.084337
50
316.5
71
7
72
5
7
DEFAULT
0
LINE
5
158
100
AcDbEntity
8
2
62
256
6
ByLayer
370
-1
48
1
60
0
100
AcDbLine
10
98.987953
20
0.075332
30
0
11
96.902314
21
39.871689
31
0
39
0
210
0
220
0
230
1
0
LINE
5
159
100
AcDbEntity
8
2
62
256
6
ByLayer
370
-1
48
1
60
0
100
AcDbLine
10
101.93
20
0
30
0
11
138.918308
21
0
31
0
39
0
210
0
220
0
230
1
0
ARC
5
15A
100
AcDbEntity
8
2
62
256
6
ByLayer
370
-1
48
1
60
0
100
AcDbCircle
39
0
10
98.991901
20
0
30
0
40
37.9264068640929
210
0
220
0
230
1
100
AcDbArc
50
0
51
93
0
LINE
5
15B
100
AcDbEntity
8
2
62
256
6
ByLayer
370
-1
48
1
60
0
100
AcDbLine
10
97.006986
20
37.87443
30
0
11
100.167274
21
38.392036
31
0
39
0
210
0
220
0
230
1
0
LINE
5
15C
100
AcDbEntity
8
2
62
256
6
ByLayer
370
-1
48
1
60
0
100
AcDbLine
10
97.006986
20
37.87443
30
0
11
100.193559
21
37.556456
31
0
39
0
210
0
220
0
230
1
0
LINE
5
15D
100
AcDbEntity
8
2
62
256
6
ByLayer
370
-1
48
1
60
0
100
AcDbLine
10
100.167274
20
38.392036
30
0
11
100.193559
21
37.556456
31
0
39
0
210
0
220
0
230
1
0
LINE
5
15E
100
AcDbEntity
8
2
62
256
6
ByLayer
370
-1
48
1
60
0
100
AcDbLine
10
136.918308
20
0
30
0
11
136.433997
21
3.165562
31
0
39
0
210
0
220
0
230
1
0
LINE
5
15F
100
AcDbEntity
8
2
62
256
6
ByLayer
370
-1
48
1
60
0
100
AcDbLine
10
136.918308
20
0
30
0
11
137.269808
21
3.183049
31
0
39
0
210
0
220
0
230
1
0
LINE
5
160
100
AcDbEntity
8
2
62
256
6
ByLayer
370
-1
48
1
60
0
100
AcDbLine
10
136.433997
20
3.165562
30
0
11
137.269808
21
3.183049
31
0
39
0
210
0
220
0
230
1
0
ENDBLK
5
162
100
AcDbEntity
8
0
100
AcDbBlockEnd
0
ENDSEC
0
SECTION
2
ENTITIES
0
ELLIPSE
5
97
100
AcDbEntity
8
1
62
256
6
ByLayer
370
-1
48
1
60
0
100
AcDbEllipse
10
89.304558
20
9.505236
30
0
11
-1.3980813486564
21
-0.0732703387401164
31
0
210
0
220
0
230
1
40
0.993113
41
2.12165547795737
42
2.27987925708073
0
ELLIPSE
5
98
100
AcDbEntity
8
1
62
256
6
ByLayer
370
-1
48
1
60
0
100
AcDbEllipse
10
89.304558
20
9.505236
30
0
11
-1.3980813486564
21
-0.0732703387401164
31
0
210
0
220
0
230
1
40
0.993113
41
0.309396706415754
42
1.58282097439255
0
ELLIPSE
5
99
100
AcDbEntity
8
1
62
256
6
ByLayer
370
-1
48
1
60
0
100
AcDbEllipse
10
68.133255
20
-8.289963
30
0
11
0.913178643880684
21
-1.31381306294322
31
0
210
0
220
0
230
1
40
0.062052
41
1.67053700389149
42
2.11897500791187
0
ELLIPSE
5
9A
100
AcDbEntity
8
1
62
256
6
ByLayer
370
-1
48
1
60
0
100
AcDbEllipse
10
83.704193
20
-5.131262
30
0
11
-1.39009114080246
21
0.792241516371438
31
0
210
0
220
0
230
1
40
0.098815
41
-1.50749207880204
42
-0.6150338286968
0
ELLIPSE
5
9B
100
AcDbEntity
8
1
62
256
6
ByLayer
370
-1
48
1
60
0
100
AcDbEllipse
10
88.914107
20
7.507567
30
0
11
-1.49794430213186
21
-0.0785039343644106
31
0
210
0
220
0
230
1
40
0.993113
41
-0.703405680723123
42
0.61086523819803
0
ELLIPSE
5
9C
100
AcDbEntity
8
1
62
256
6
ByLayer
370
-1
48
1
60
0
100
AcDbEllipse
10
87.227005
20
-8.823894
30
0
11
-4.19424404596922
21
-0.21981101622035
31
0
210
0
220
0
230
1
40
0.993113
41
-2.01041588497638
42
-0.837758040957302
0
ELLIPSE
5
9D
100
AcDbEntity
8
1
62
256
6
ByLayer
370
-1
48
1
60
0
100
AcDbEllipse
10
87.839196
20
4.158749
30
0
11
-1.52682340286248
21
-0.47834119253043
31
0
210
0
220
0
230
1
40
0.113534
41
-1.59992881316484
42
-0.029132486369809
0
ELLIPSE
5
9E
100
AcDbEntity
8
1
62
256
6
ByLayer
370
-1
48
1
60
0
100
AcDbEllipse
10
102.66186
20
-2.580833
30
0
11
4.19424404596913
21
0.219811016220344
31
0
210
0
220
0
230
1
40
0.993113
41
2.77675734098234
42
2.9944390670338
0
ELLIPSE
5
9F
100
AcDbEntity
8
1
62
256
6
ByLayer
370
-1
48
1
60
0
100
AcDbEllipse
10
114.326247
20
0
30
0
11
48.0791412332365
21
3.13650507780418
31
0
210
0
220
0
230
-1
40
0.251482
41
-2.48671180500427
42
-2.21406667195687
0
ELLIPSE
5
A0
100
AcDbEntity
8
1
62
256
6
ByLayer
370
-1
48
1
60
0
100
AcDbEllipse
10
73.095344
20
-15.944881
30
0
11
8.93777686231559
21
5.06651726830398
31
0
210
0
220
0
230
-1
40
0.963442
41
-1.47431180893757
42
-1.06945731567594
0
ELLIPSE
5
A1
100
AcDbEntity
8
1
62
256
6
ByLayer
370
-1
48
1
60
0
100
AcDbEllipse
10
80.917363
20
-6.745353
30
0
11
9.79685083057902E-17
21
1.6
31
0
210
0
220
0
230
1
40
0.006174
41
0.87949577167478
42
1.45352393083036
0
ELLIPSE
5
A2
100
AcDbEntity
8
1
62
256
6
ByLayer
370
-1
48
1
60
0
100
AcDbEllipse
10
88.897551
20
7.823477
30
0
11
-1.49794430213186
21
-0.0785039343644106
31
0
210
0
220
0
230
1
40
0.993113
41
0.106366731825841
42
0.610865238198075
0
ELLIPSE
5
A3
100
AcDbEntity
8
1
62
256
6
ByLayer
370
-1
48
1
60
0
100
AcDbEllipse
10
84.783681
20
3.212572
30
0
11
1.59780725560732
21
0.0837375299887043
31
0
210
0
220
0
230
1
40
0.993113
41
-2.3874200363812E-06
42
0.249586903677983
0
ELLIPSE
5
A4
100
AcDbEntity
8
1
62
256
6
ByLayer
370
-1
48
1
60
0
100
AcDbEllipse
10
73.051018
20
-15.099078
30
0
11
8.58821399888934
21
0.450089223689285
31
0
210
0
220
0
230
1
40
0.993113
41
1.51807399184351
42
2.12893923004154
0
ELLIPSE
5
A5
100
AcDbEntity
8
1
62
256
6
ByLayer
370
-1
48
1
60
0
100
AcDbEllipse
10
73.067041
20
-6.745353
30
0
11
9.79685083057902E-17
21
1.6
31
0
210
0
220
0
230
1
40
0.006174
41
1.0579043548397
42
1.45352393083036
0
ELLIPSE
5
A6
100
AcDbEntity
8
1
62
256
6
ByLayer
370
-1
48
1
60
0
100
AcDbEllipse
10
114.326247
20
0
30
0
11
48.0791412370176
21
3.13650507815368
31
0
210
0
220
0
230
-1
40
0.251482
41
2.81154175758328
42
2.99433689313989
0
ELLIPSE
5
A7
100
AcDbEntity
8
1
62
256
6
ByLayer
370
-1
48
1
60
0
100
AcDbEllipse
10
80.909864
20
-3.380126
30
0
11
-3.19561451121464
21
-0.16747505997741
31
0
210
0
220
0
230
1
40
0.993113
41
1.51807399184353
42
2.57436064669164
0
ELLIPSE
5
A8
100
AcDbEntity
8
1
62
256
6
ByLayer
370
-1
48
1
60
0
100
AcDbEllipse
10
358.340631
20
-0.001412
30
0
11
2053.48020003278
21
1.47321259335057
31
0
210
0
220
0
230
-1
40
0.00609
41
-1.70003237360642
42
-1.69783999867965
0
ELLIPSE
5
A9
100
AcDbEntity
8
1
62
256
6
ByLayer
370
-1
48
1
60
0
100
AcDbEllipse
10
89.330619
20
9.00797
30
0
11
-1.3980813486564
21
-0.0732703387401164
31
0
210
0
220
0
230
1
40
0.993113
41
2.36957993966878
42
0.215935214941465
0
ELLIPSE
5
AA
100
AcDbEntity
8
1
62
256
6
ByLayer
370
-1
48
1
60
0
100
AcDbEllipse
10
76.690338
20
0
30
0
11
17.8531500858827
21
12.4495392653903
31
0
210
0
220
0
230
-1
40
0.05713
41
2.16657884290872
42
2.41845178231858
0
ELLIPSE
5
AB
100
AcDbEntity
8
1
62
256
6
ByLayer
370
-1
48
1
60
0
100
AcDbEllipse
10
84.77387
20
3.399778
30
0
11
-3.19561451121464
21
-0.16747505997741
31
0
210
0
220
0
230
1
40
0.993113
41
2.57436064669165
42
-2.89200574991181
0
ELLIPSE
5
AC
100
AcDbEntity
8
1
62
256
6
ByLayer
370
-1
48
1
60
0
100
AcDbEllipse
10
89.300572
20
9.581288
30
0
11
1.3980813486564
21
0.0732703387401162
31
0
210
0
220
0
230
1
40
0.993113
41
-2.93356292886475
42
-1.50364760498473
0
ELLIPSE
5
AD
100
AcDbEntity
8
1
62
256
6
ByLayer
370
-1
48
1
60
0
100
AcDbEllipse
10
89.300572
20
9.581288
30
0
11
1.3980813486564
21
0.0732703387401162
31
0
210
0
220
0
230
1
40
0.993113
41
-1.06480586417789
42
-0.207936622918001
0
ELLIPSE
5
AE
100
AcDbEntity
8
1
62
256
6
ByLayer
370
-1
48
1
60
0
100
AcDbEllipse
10
88.923611
20
7.326211
30
0
11
1.62203026728888
21
0.0850070042384818
31
0
210
0
220
0
230
1
40
0.993113
41
2.13825372442097
42
-2.53072741539176
0
ELLIPSE
5
AF
100
AcDbEntity
8
1
62
256
6
ByLayer
370
-1
48
1
60
0
100
AcDbEllipse
10
87.565641
20
0
30
0
11
3.87117219202998
21
-12.490791240213
31
0
210
0
220
0
230
-1
40
0.027654
41
2.25308028584244
42
2.76693130507119
0
ELLIPSE
5
B0
100
AcDbEntity
8
1
62
256
6
ByLayer
370
-1
48
1
60
0
100
AcDbEllipse
10
87.5682
20
1.648642
30
0
11
-1.39009114080246
21
0.792241516371438
31
0
210
0
220
0
230
1
40
0.098815
41
-1.50749207880204
42
-0.499237514431215
0
ELLIPSE
5
B1
100
AcDbEntity
8
1
62
256
6
ByLayer
370
-1
48
1
60
0
100
AcDbEllipse
10
87.200944
20
-8.326628
30
0
11
4.19424404596922
21
0.219811016220349
31
0
210
0
220
0
230
1
40
0.993113
41
0.863855748158421
42
0.975700615270526
0
ELLIPSE
5
B2
100
AcDbEntity
8
1
62
256
6
ByLayer
370
-1
48
1
60
0
100
AcDbEllipse
10
84.813618
20
2.641351
30
0
11
1.40200421350166
21
0.794747807086408
31
0
210
0
220
0
230
-1
40
0.963442
41
0.199029772701406
42
1.01584868328834
0
ELLIPSE
5
B3
100
AcDbEntity
8
1
62
256
6
ByLayer
370
-1
48
1
60
0
100
AcDbEllipse
10
358.555133
20
-0.010935
30
0
11
2037.98826866914
21
1.46080175923053
31
0
210
0
220
0
230
-1
40
0.006093
41
-1.70522789749407
42
-1.70266151994435
0
ELLIPSE
5
B4
100
AcDbEntity
8
1
62
256
6
ByLayer
370
-1
48
1
60
0
100
AcDbEllipse
10
80.950613
20
-4.157663
30
0
11
1.40200421367042
21
0.794747806856817
31
0
210
0
220
0
230
-1
40
0.963442
41
1.01584868310659
42
2.07213533795566
0
ELLIPSE
5
B5
100
AcDbEntity
8
1
62
256
6
ByLayer
370
-1
48
1
60
0
100
AcDbEllipse
10
99.142594
20
-17.128527
30
0
11
0.777150238593627
21
-0.165160714290546
31
0
210
0
220
0
230
-1
40
0.995635
41
-0.138048243126861
42
2.14523745322703
0
ELLIPSE
5
B6
100
AcDbEntity
8
1
62
256
6
ByLayer
370
-1
48
1
60
0
100
AcDbEllipse
10
90.210245
20
7.915676
30
0
11
1.03278941413229
21
0.738351798183036
31
0
210
0
220
0
230
-1
40
0.557596
41
-2.14786470794012
42
-1.90493935324458
0
ELLIPSE
5
B7
100
AcDbEntity
8
1
62
256
6
ByLayer
370
-1
48
1
60
0
100
AcDbEllipse
10
94.518725
20
-4.835969
30
0
11
3.04036173350945
21
0.159338606670357
31
0
210
0
220
0
230
1
40
0.993113
41
0
42
6.28318530717959
0
ELLIPSE
5
B8
100
AcDbEntity
8
1
62
256
6
ByLayer
370
-1
48
1
60
0
100
AcDbEllipse
10
90.011367
20
7.626185
30
0
11
0.777150238568465
21
-0.165160714413737
31
0
210
0
220
0
230
-1
40
0.995635
41
-2.50768359219878
42
-1.76831250520308
0
ELLIPSE
5
B9
100
AcDbEntity
8
1
62
256
6
ByLayer
370
-1
48
1
60
0
100
AcDbEllipse
10
89.894855
20
7.456589
30
0
11
0.777150238586771
21
-0.165160714324054
31
0
210
0
220
0
230
-1
40
0.995635
41
3.00354441041962
42
-0.996355200406184
0
ELLIPSE
5
BA
100
AcDbEntity
8
1
62
256
6
ByLayer
370
-1
48
1
60
0
100
AcDbEllipse
10
90.235196
20
-6.427872
30
0
11
0.396028745410407
21
0.0665573384001707
31
0
210
0
220
0
230
-1
40
0.989437
41
2.64607715223322
42
-3.02864207768941
0
ELLIPSE
5
BB
100
AcDbEntity
8
1
62
256
6
ByLayer
370
-1
48
1
60
0
100
AcDbEllipse
10
98.802253
20
-3.244066
30
0
11
0.396028745304643
21
0.0665573400147586
31
0
210
0
220
0
230
-1
40
0.989437
41
-0.495515497287644
42
0.112950579843272
0
ELLIPSE
5
BC
100
AcDbEntity
8
1
62
256
6
ByLayer
370
-1
48
1
60
0
100
AcDbEllipse
10
94.51247
20
-4.716625
30
0
11
2.99588860426369
21
0.157007868728819
31
0
210
0
220
0
230
1
40
0.993113
41
3.08887040422502
42
-2.98112574534195E-16
0
ELLIPSE
5
BD
100
AcDbEntity
8
1
62
256
6
ByLayer
370
-1
48
1
60
0
100
AcDbEllipse
10
94.51247
20
-4.716625
30
0
11
2.99588860426369
21
0.157007868728819
31
0
210
0
220
0
230
1
40
0.993113
41
0
42
0.36078987476387
0
ELLIPSE
5
BE
100
AcDbEntity
8
1
62
256
6
ByLayer
370
-1
48
1
60
0
100
AcDbEllipse
10
94.51247
20
-4.716625
30
0
11
2.99588860426369
21
0.157007868728819
31
0
210
0
220
0
230
1
40
0.993113
41
2.78069969322132
42
3.08887040422502
0
ELLIPSE
5
BF
100
AcDbEntity
8
1
62
256
6
ByLayer
370
-1
48
1
60
0
100
AcDbEllipse
10
94.511481
20
-4.697762
30
0
11
2.94041639042782
21
0.154100693189767
31
0
210
0
220
0
230
1
40
0.993113
41
3.08887030368496
42
-3.03736595858371E-16
0
ELLIPSE
5
C0
100
AcDbEntity
8
1
62
256
6
ByLayer
370
-1
48
1
60
0
100
AcDbEllipse
10
94.511481
20
-4.697762
30
0
11
2.94041639042782
21
0.154100693189767
31
0
210
0
220
0
230
1
40
0.993113
41
0
42
0.784904690337011
0
ELLIPSE
5
C1
100
AcDbEntity
8
1
62
256
6
ByLayer
370
-1
48
1
60
0
100
AcDbEllipse
10
94.511481
20
-4.697762
30
0
11
2.94041639042782
21
0.154100693189767
31
0
210
0
220
0
230
1
40
0.993113
41
2.35658463242115
42
3.08887030368496
0
ELLIPSE
5
C2
100
AcDbEntity
8
1
62
256
6
ByLayer
370
-1
48
1
60
0
100
AcDbEllipse
10
90.210245
20
7.915676
30
0
11
0.548249821380148
21
-0.600580717091761
31
0
210
0
220
0
230
-1
40
0.307895
41
-2.23094234284609
42
-1.45898503815963
0
ELLIPSE
5
C3
100
AcDbEntity
8
1
62
256
6
ByLayer
370
-1
48
1
60
0
100
AcDbEllipse
10
95.96632
20
-5.83145
30
0
11
-0.685059860841638
21
-0.0359024659826572
31
0
210
0
220
0
230
1
40
0.993113
41
-1.52715084955928
42
-0.743160205938265
0
ELLIPSE
5
C4
100
AcDbEntity
8
1
62
256
6
ByLayer
370
-1
48
1
60
0
100
AcDbEllipse
10
94.516901
20
-4.801173
30
0
11
1.79753316255823
21
0.0942047212372922
31
0
210
0
220
0
230
1
40
0.993113
41
0
42
6.28318530717959
0
ELLIPSE
5
C5
100
AcDbEntity
8
1
62
256
6
ByLayer
370
-1
48
1
60
0
100
AcDbEllipse
10
94.508316
20
-4.637368
30
0
11
2.62140252873076
21
0.137381885137718
31
0
210
0
220
0
230
1
40
0.993113
41
3.08887021243158
42
-3.141497174646
0
ELLIPSE
5
C6
100
AcDbEntity
8
1
62
256
6
ByLayer
370
-1
48
1
60
0
100
AcDbEllipse
10
94.508316
20
-4.637368
30
0
11
2.62140252873076
21
0.137381885137718
31
0
210
0
220
0
230
1
40
0.993113
41
0
42
3.0888702845399
0
ELLIPSE
5
C7
100
AcDbEntity
8
1
62
256
6
ByLayer
370
-1
48
1
60
0
100
AcDbEllipse
10
94.197749
20
-6.48871
30
0
11
-0.685059860841638
21
-0.0359024659826572
31
0
210
0
220
0
230
1
40
0.993113
41
-2.57155785307443
42
-1.78756720945365
0
ELLIPSE
5
C8
100
AcDbEntity
8
1
62
256
6
ByLayer
370
-1
48
1
60
0
100
AcDbEllipse
10
94.516901
20
-4.801173
30
0
11
1.67420241501603
21
0.0877412306412887
31
0
210
0
220
0
230
1
40
0.993113
41
1.87622894589386
42
2.92063594940921
0
ELLIPSE
5
C9
100
AcDbEntity
8
1
62
256
6
ByLayer
370
-1
48
1
60
0
100
AcDbEllipse
10
94.516901
20
-4.801173
30
0
11
1.67420241501603
21
0.0877412306412887
31
0
210
0
220
0
230
1
40
0.993113
41
-1.26536370769593
42
-0.220956704180662
0
ELLIPSE
5
CA
100
AcDbEntity
8
1
62
256
6
ByLayer
370
-1
48
1
60
0
100
AcDbEllipse
10
93.143403
20
-4.404211
30
0
11
-0.291599824148336
21
-0.0152820992229386
31
0
210
0
220
0
230
1
40
0.993113
41
0.370136162532635
42
1.09669395402089
0
ELLIPSE
5
CB
100
AcDbEntity
8
1
62
256
6
ByLayer
370
-1
48
1
60
0
100
AcDbEllipse
10
94.508163
20
-4.634443
30
0
11
-1.20484653368139
21
-0.0631433312071075
31
0
210
0
220
0
230
1
40
0.993113
41
0.374465252510641
42
1.35402544413629
0
ELLIPSE
5
CC
100
AcDbEntity
8
1
62
256
6
ByLayer
370
-1
48
1
60
0
100
AcDbEllipse
10
95.96632
20
-5.83145
30
0
11
-0.685059860841638
21
-0.0359024659826572
31
0
210
0
220
0
230
1
40
0.993113
41
-0.743160205938265
42
-9.84366732358784E-06
0
ELLIPSE
5
CD
100
AcDbEntity
8
1
62
256
6
ByLayer
370
-1
48
1
60
0
100
AcDbEllipse
10
94.508163
20
-4.634443
30
0
11
1.20484653368139
21
0.063143331207107
31
0
210
0
220
0
230
1
40
0.993113
41
-2.90519266790238
42
-2.76712740107918
0
ELLIPSE
5
CE
100
AcDbEntity
8
1
62
256
6
ByLayer
370
-1
48
1
60
0
100
AcDbEllipse
10
94.197749
20
-6.48871
30
0
11
-0.685059860841638
21
-0.0359024659826572
31
0
210
0
220
0
230
1
40
0.993113
41
-1.78756720945365
42
-1.00357656583279
0
ELLIPSE
5
CF
100
AcDbEntity
8
1
62
256
6
ByLayer
370
-1
48
1
60
0
100
AcDbEllipse
10
95.872923
20
-4.864674
30
0
11
-0.291599824148336
21
-0.0152820992229386
31
0
210
0
220
0
230
1
40
0.993113
41
1.61444180403129
42
2.87749386966114
0
ELLIPSE
5
D0
100
AcDbEntity
8
1
62
256
6
ByLayer
370
-1
48
1
60
0
100
AcDbEllipse
10
94.516901
20
-4.801173
30
0
11
1.67420241501603
21
0.0877412306412887
31
0
210
0
220
0
230
1
40
0.993113
41
2.92063594940921
42
-2.30977071121109
0
ELLIPSE
5
D1
100
AcDbEntity
8
1
62
256
6
ByLayer
370
-1
48
1
60
0
100
AcDbEllipse
10
96.273582
20
-3.978354
30
0
11
-0.685059860841638
21
-0.0359024659826572
31
0
210
0
220
0
230
1
40
0.993113
41
-0.485828715822337
42
-1.00333264772445E-05
0
ELLIPSE
5
D2
100
AcDbEntity
8
1
62
256
6
ByLayer
370
-1
48
1
60
0
100
AcDbEllipse
10
94.992549
20
-5.922183
30
0
11
-0.291599824148336
21
-0.0152820992229386
31
0
210
0
220
0
230
1
40
0.993113
41
0.570034800515761
42
2.78925988119922
0
ELLIPSE
5
D3
100
AcDbEntity
8
1
62
256
6
ByLayer
370
-1
48
1
60
0
100
AcDbEllipse
10
92.742744
20
-5.290531
30
0
11
-0.685059860841638
21
-0.0359024659826572
31
0
210
0
220
0
230
1
40
0.993113
41
-2.71454599327436
42
-2.04489869956968
0
ELLIPSE
5
D4
100
AcDbEntity
8
1
62
256
6
ByLayer
370
-1
48
1
60
0
100
AcDbEllipse
10
94.516901
20
-4.801173
30
0
11
1.67420241501603
21
0.0877412306412887
31
0
210
0
220
0
230
1
40
0.993113
41
-0.220956704180662
42
0.831821942378667
0
ELLIPSE
5
D5
100
AcDbEntity
8
1
62
256
6
ByLayer
370
-1
48
1
60
0
100
AcDbEllipse
10
94.508163
20
-4.634443
30
0
11
1.20484653368139
21
0.063143331207107
31
0
210
0
220
0
230
1
40
0.993113
41
-0.743160205938239
42
0.0773901733115366
0
ELLIPSE
5
D6
100
AcDbEntity
8
1
62
256
6
ByLayer
370
-1
48
1
60
0
100
AcDbEllipse
10
93.630128
20
-5.698171
30
0
11
-0.291599824148336
21
-0.0152820992229386
31
0
210
0
220
0
230
1
40
0.993113
41
0.269552263567761
42
2.13801608775732
0
ELLIPSE
5
D7
100
AcDbEntity
8
1
62
256
6
ByLayer
370
-1
48
1
60
0
100
AcDbEllipse
10
94.508163
20
-4.634443
30
0
11
-1.20484653368139
21
-0.0631433312071075
31
0
210
0
220
0
230
1
40
0.993113
41
-0.478541446778838
42
0.236399985687413
0
ELLIPSE
5
D8
100
AcDbEntity
8
1
62
256
6
ByLayer
370
-1
48
1
60
0
100
AcDbEllipse
10
94.515212
20
-4.768945
30
0
11
2.62140252873076
21
0.137381885137718
31
0
210
0
220
0
230
1
40
0.993113
41
0
42
6.28318530717959
0
ELLIPSE
5
D9
100
AcDbEntity
8
1
62
256
6
ByLayer
370
-1
48
1
60
0
100
AcDbEllipse
10
94.508163
20
-4.634443
30
0
11
-1.20484653368139
21
-0.0631433312071075
31
0
210
0
220
0
230
1
40
0.993113
41
-1.52875023313512
42
-0.886358010598948
0
ELLIPSE
5
DA
100
AcDbEntity
8
1
62
256
6
ByLayer
370
-1
48
1
60
0
100
AcDbEllipse
10
94.508163
20
-4.634443
30
0
11
-1.20484653368139
21
-0.0631433312071075
31
0
210
0
220
0
230
1
40
0.993113
41
1.35402544413629
42
2.39843244765157
0
ELLIPSE
5
DB
100
AcDbEntity
8
1
62
256
6
ByLayer
370
-1
48
1
60
0
100
AcDbEllipse
10
94.515237
20
-4.769423
30
0
11
1.20484653368139
21
0.0631433312071071
31
0
210
0
220
0
230
1
40
0.993113
41
0.236399985687175
42
0.374465252510766
0
ELLIPSE
5
DC
100
AcDbEntity
8
1
62
256
6
ByLayer
370
-1
48
1
60
0
100
AcDbEllipse
10
94.516901
20
-4.801173
30
0
11
1.67420241501603
21
0.0877412306412887
31
0
210
0
220
0
230
1
40
0.993113
41
-2.30977071121109
42
-1.26536370769593
0
ELLIPSE
5
DD
100
AcDbEntity
8
1
62
256
6
ByLayer
370
-1
48
1
60
0
100
AcDbEllipse
10
94.515237
20
-4.769423
30
0
11
1.20484653368139
21
0.0631433312071071
31
0
210
0
220
0
230
1
40
0.993113
41
-2.90519266790235
42
-2.76712740107916
0
ELLIPSE
5
DE
100
AcDbEntity
8
1
62
256
6
ByLayer
370
-1
48
1
60
0
100
AcDbEllipse
10
94.508163
20
-4.634443
30
0
11
-1.20484653368139
21
-0.0631433312071075
31
0
210
0
220
0
230
1
40
0.993113
41
-2.74175071331142
42
-2.07338441085652
0
ELLIPSE
5
DF
100
AcDbEntity
8
1
62
256
6
ByLayer
370
-1
48
1
60
0
100
AcDbEllipse
10
94.516901
20
-4.801173
30
0
11
1.67420241501603
21
0.0877412306412887
31
0
210
0
220
0
230
1
40
0.993113
41
0.831821942378667
42
1.87622894589386
0
ELLIPSE
5
E0
100
AcDbEntity
8
1
62
256
6
ByLayer
370
-1
48
1
60
0
100
AcDbEllipse
10
92.742744
20
-5.290531
30
0
11
-0.685059860841638
21
-0.0359024659826572
31
0
210
0
220
0
230
1
40
0.993113
41
3.14158206750477
42
-2.95777407570713
0
POINT
5
41
100
AcDbEntity
8
80
62
256
6
ByLayer
370
-1
48
1
60
0
100
AcDbPoint
10
0
20
0
30
0
39
0
210
0
220
0
230
1
50
360
0
POINT
5
43
100
AcDbEntity
8
81
62
256
6
ByLayer
370
-1
48
1
60
0
100
AcDbPoint
10
99.93
20
-17.9
30
0
39
0
210
0
220
0
230
1
50
360
0
POINT
5
45
100
AcDbEntity
8
1
62
256
6
ByLayer
370
-1
48
1
60
0
100
AcDbPoint
10
-201.32
20
0
30
0
39
0
210
0
220
0
230
1
50
360
0
POINT
5
47
100
AcDbEntity
8
2
62
256
6
ByLayer
370
-1
48
1
60
0
100
AcDbPoint
10
99.93
20
17.9
30
0
39
0
210
0
220
0
230
1
50
360
0
POINT
5
49
100
AcDbEntity
8
2
62
256
6
ByLayer
370
-1
48
1
60
0
100
AcDbPoint
10
99.672311
20
16.80574
30
0
39
0
210
0
220
0
230
1
50
360
0
SPLINE
5
E1
100
AcDbEntity
8
1
62
256
6
ByLayer
370
-1
48
1
60
0
100
AcDbSpline
70
4
71
3
72
16
73
12
40
0
40
0
40
0
40
0
40
0.195824572132324
40
0.195824572132324
40
0.392165462568651
40
0.392165462568651
40
0.58269390287714
40
0.58269390287714
40
0.778130510302993
40
0.778130510302993
40
1
40
1
40
1
40
1
41
1
10
83.8365946653836
20
11.5851474786785
30
0
41
1
10
83.8220720893955
20
11.6470811610115
30
0
41
1
10
83.8340821356668
20
11.7075607664879
30
0
41
1
10
83.9136938283763
20
11.8163674230129
30
0
41
1
10
83.9826322970576
20
11.8661433807331
30
0
41
1
10
84.1645295663363
20
11.9487152052789
30
0
41
1
10
84.278400052686
20
11.9831421273717
30
0
41
1
10
84.5382077258411
20
12.0381385142457
30
0
41
1
10
84.6881276669128
20
12.0591363151875
30
0
41
1
10
85.0219773475069
20
12.0895270136503
30
0
41
1
10
85.2126422565954
20
12.0975164753095
30
0
41
1
10
85.4007942193695
20
12.0978063776826
30
0
0
SPLINE
5
E2
100
AcDbEntity
8
1
62
256
6
ByLayer
370
-1
48
1
60
0
100
AcDbSpline
70
4
71
3
72
8
73
4
40
0
40
0
40
0
40
0
40
1
40
1
40
1
40
1
41
1
10
88.0115733451442
20
8.69677303555522
30
0
41
1
10
87.9994838738194
20
8.67639413623087
30
0
41
1
10
87.9891069442006
20
8.65711868301008
30
0
41
1
10
87.9805965995685
20
8.63891006870281
30
0
0
SPLINE
5
E3
100
AcDbEntity
8
1
62
256
6
ByLayer
370
-1
48
1
60
0
100
AcDbSpline
70
4
71
3
72
8
73
4
40
0
40
0
40
0
40
0
40
1
40
1
40
1
40
1
41
1
10
67.2606261002238
20
-7.83036409243584
30
0
41
1
10
67.8290877820798
20
-7.4658222284709
30
0
41
1
10
68.4419564141364
20
-7.14748756055283
30
0
41
1
10
69.097771906197
20
-6.88581982641213
30
0
0
SPLINE
5
E4
100
AcDbEntity
8
1
62
256
6
ByLayer
370
-1
48
1
60
0
100
AcDbSpline
70
4
71
3
72
8
73
4
40
0
40
0
40
0
40
0
40
1
40
1
40
1
40
1
41
1
10
93.6861917912276
20
12.2106220718995
30
0
41
1
10
93.6270096917782
20
12.152109154774
30
0
41
1
10
93.5678313850688
20
12.0935924536166
30
0
41
1
10
93.5086570359775
20
12.0350718054886
30
0
0
SPLINE
5
E5
100
AcDbEntity
8
1
62
256
6
ByLayer
370
-1
48
1
60
0
100
AcDbSpline
70
4
71
2
72
6
73
3
40
0
40
0
40
0
40
1
40
1
40
1
41
0.500002103491308
10
90.6597433596562
20
12.0307266257275
30
0
41
0.499997896508692
10
92.0840661224113
20
12.0329052755618
30
0
41
0.500002103491308
10
93.508657035984
20
12.0350718054882
30
0
0
SPLINE
5
E6
100
AcDbEntity
8
1
62
256
6
ByLayer
370
-1
48
1
60
0
100
AcDbSpline
70
4
71
3
72
8
73
4
40
0
40
0
40
0
40
0
40
1
40
1
40
1
40
1
41
1
10
90.5847433596563
20
12.1057524848609
30
0
41
1
10
90.6097439680785
20
12.0807444650792
30
0
41
1
10
90.6347439718007
20
12.055735849009
30
0
41
1
10
90.6597433596563
20
12.0307266257275
30
0
0
SPLINE
5
E7
100
AcDbEntity
8
1
62
256
6
ByLayer
370
-1
48
1
60
0
100
AcDbSpline
70
4
71
3
72
8
73
4
40
0
40
0
40
0
40
0
40
1
40
1
40
1
40
1
41
1
10
93.6861917912276
20
12.5902499999993
30
0
41
1
10
93.6855192951111
20
12.5902499999993
30
0
41
1
10
93.685184463901
20
12.5902499999993
30
0
41
1
10
93.685174462901
20
12.5902499999993
30
0
0
SPLINE
5
E8
100
AcDbEntity
8
1
62
256
6
ByLayer
370
-1
48
1
60
0
100
AcDbSpline
70
4
71
3
72
16
73
12
40
0
40
0
40
0
40
0
40
0.100625190658142
40
0.100625190658142
40
0.323043133752304
40
0.323043133752304
40
0.550371560921586
40
0.550371560921586
40
0.793863917882337
40
0.793863917882337
40
1
40
1
40
1
40
1
41
1
10
96.1694977182376
20
-5.07996116113813
30
0
41
1
10
96.1672411650654
20
-5.09310063397436
30
0
41
1
10
96.1640571966511
20
-5.10607106822326
30
0
41
1
10
96.1510836784868
20
-5.14635837703514
30
0
41
1
10
96.1376869640346
20
-5.17264581837483
30
0
41
1
10
96.1041098991313
20
-5.21897238934983
30
0
41
1
10
96.0833816308916
20
-5.23946321009672
30
0
41
1
10
96.0363843264435
20
-5.27337684729272
30
0
41
1
10
96.0092582558333
20
-5.28664446786661
30
0
41
1
10
95.9577834533696
20
-5.30244200112688
30
0
41
1
10
95.9332437800763
20
-5.30645482469748
30
0
41
1
10
95.908878330046
20
-5.30730598584165
30
0
0
SPLINE
5
E9
100
AcDbEntity
8
1
62
256
6
ByLayer
370
-1
48
1
60
0
100
AcDbSpline
70
4
71
3
72
14
73
10
40
0
40
0
40
0
40
0
40
0.249615817604575
40
0.249615817604575
40
0.540247798725514
40
0.540247798725514
40
0.802949835369476
40
0.802949835369476
40
1
40
1
40
1
40
1
41
1
10
93.741109461016
20
-3.52777553442758
30
0
41
1
10
93.7384702085427
20
-3.50041124738772
30
0
41
1
10
93.7402864960764
20
-3.4717944599727
30
0
41
1
10
93.7546028995588
20
-3.41113754845961
30
0
41
1
10
93.769132795348
20
-3.37833377889425
30
0
41
1
10
93.8085903059109
20
-3.32242080549719
30
0
41
1
10
93.8330384340278
20
-3.29786604203429
30
0
41
1
10
93.8821799723535
20
-3.26338521823109
30
0
41
1
10
93.90576752373
20
-3.25097668631466
30
0
41
1
10
93.9303546088153
20
-3.24183929989275
30
0
0
SPLINE
5
EA
100
AcDbEntity
8
1
62
256
6
ByLayer
370
-1
48
1
60
0
100
AcDbSpline
70
4
71
3
72
18
73
14
40
0
40
0
40
0
40
0
40
0.205038239923197
40
0.205038239923197
40
0.380486376929355
40
0.380486376929355
40
0.557703299118079
40
0.557703299118079
40
0.710945652173718
40
0.710945652173718
40
0.912497655237701
40
0.912497655237701
40
1
40
1
40
1
40
1
41
1
10
93.8076719116282
20
-6.08818484686353
30
0
41
1
10
93.8632199415508
20
-6.04451600353084
30
0
41
1
10
93.9265924376181
20
-6.00821929121932
30
0
41
1
10
94.0537556538943
20
-5.96144606062845
30
0
41
1
10
94.117675469056
20
-5.94764365398316
30
0
41
1
10
94.2480475712357
20
-5.94068188454872
30
0
41
1
10
94.3164862644308
20
-5.94786475382722
30
0
41
1
10
94.4362893041661
20
-5.98052058113356
30
0
41
1
10
94.4901625895041
20
-6.00367997164176
30
0
41
1
10
94.6025529015225
20
-6.06999093910076
30
0
41
1
10
94.6592352840629
20
-6.1180349695716
30
0
41
1
10
94.7269839499772
20
-6.19499243688981
30
0
41
1
10
94.7460120981394
20
-6.21969425106729
30
0
41
1
10
94.7633167193487
20
-6.24531386889632
30
0
0
SPLINE
5
EB
100
AcDbEntity
8
1
62
256
6
ByLayer
370
-1
48
1
60
0
100
AcDbSpline
70
4
71
3
72
14
73
10
40
0
40
0
40
0
40
0
40
0.258996407932407
40
0.258996407932407
40
0.548453544254927
40
0.548453544254927
40
0.81017524664461
40
0.81017524664461
40
1
40
1
40
1
40
1
41
1
10
95.2247938987856
20
-3.48866729901101
30
0
41
1
10
95.2497992534231
20
-3.47287413091601
30
0
41
1
10
95.2783272750631
20
-3.46048044637246
30
0
41
1
10
95.342575419487
20
-3.44420444119731
30
0
41
1
10
95.3798052910035
20
-3.4413109885904
30
0
41
1
10
95.4501543934539
20
-3.4488367333968
30
0
41
1
10
95.4843890199409
20
-3.45818227228594
30
0
41
1
10
95.5386799048505
20
-3.48351049216569
30
0
41
1
10
95.5605672323071
20
-3.49718336270604
30
0
41
1
10
95.5801186801078
20
-3.51309679327798
30
0
0
SPLINE
5
EC
100
AcDbEntity
8
1
62
256
6
ByLayer
370
-1
48
1
60
0
100
AcDbSpline
70
4
71
3
72
12
73
8
40
0
40
0
40
0
40
0
40
0.494276378863949
40
0.494276378863949
40
0.899413616892532
40
0.899413616892532
40
1
40
1
40
1
40
1
41
1
10
96.0006064055142
20
-4.7538263886789
30
0
41
1
10
95.935469222267
20
-4.72058263728587
30
0
41
1
10
95.8727885598437
20
-4.67642328551568
30
0
41
1
10
95.7717424151786
20
-4.57869292672964
30
0
41
1
10
95.7299994401932
20
-4.5270564240916
30
0
41
1
10
95.6874955506243
20
-4.45680012307008
30
0
41
1
10
95.6794383563507
20
-4.44242147394326
30
0
41
1
10
95.6718870674268
20
-4.4277995547134
30
0
0
SPLINE
5
ED
100
AcDbEntity
8
1
62
256
6
ByLayer
370
-1
48
1
60
0
100
AcDbSpline
70
4
71
3
72
20
73
16
40
0
40
0
40
0
40
0
40
0.0826853957310181
40
0.0826853957310181
40
0.28339747537573
40
0.28339747537573
40
0.44567928928848
40
0.44567928928848
40
0.608800846300459
40
0.608800846300459
40
0.761153998989703
40
0.761153998989703
40
0.977166022108196
40
0.977166022108196
40
1
40
1
40
1
40
1
41
1
10
93.741109461016
20
-3.5277755344276
30
0
41
1
10
93.7435917008451
20
-3.5535118835918
30
0
41
1
10
93.7444232475553
20
-3.57970359046365
30
0
41
1
10
93.7412950429392
20
-3.67010198886484
30
0
41
1
10
93.7286375179114
20
-3.73683549186174
30
0
41
1
10
93.6849787896535
20
-3.85504588331062
30
0
41
1
10
93.6573162836893
20
-3.90827780221778
30
0
41
1
10
93.5881971599558
20
-4.00717051153492
30
0
41
1
10
93.5457029697703
20
-4.0540491310914
30
0
41
1
10
93.456055092436
20
-4.13149562623229
30
0
41
1
10
93.4084115409266
20
-4.16390964656529
30
0
41
1
10
93.2909542149737
20
-4.22670185700079
30
0
41
1
10
93.2181610489918
20
-4.25190782122507
30
0
41
1
10
93.1389069788011
20
-4.26700801133302
30
0
41
1
10
93.1312447928545
20
-4.26834047729386
30
0
41
1
10
93.1235874803687
20
-4.26954616003226
30
0
0
SPLINE
5
EE
100
AcDbEntity
8
1
62
256
6
ByLayer
370
-1
48
1
60
0
100
AcDbSpline
70
4
71
3
72
12
73
8
40
0
40
0
40
0
40
0
40
0.320841153100044
40
0.320841153100044
40
0.789220521357059
40
0.789220521357059
40
1
40
1
40
1
40
1
41
1
10
95.6136545543055
20
-4.2729883993145
30
0
41
1
10
95.6015514938749
20
-4.22349440971993
30
0
41
1
10
95.5953888617964
20
-4.17337330956514
30
0
41
1
10
95.5942034560573
20
-4.05530530172845
30
0
41
1
10
95.6054140663063
20
-3.98772978227549
30
0
41
1
10
95.6351317363054
20
-3.89854487066506
30
0
41
1
10
95.6463098114066
20
-3.8717846469319
30
0
41
1
10
95.6592018208416
20
-3.84620218737487
30
0
0
SPLINE
5
EF
100
AcDbEntity
8
1
62
256
6
ByLayer
370
-1
48
1
60
0
100
AcDbSpline
70
4
71
3
72
16
73
12
40
0
40
0
40
0
40
0
40
0.0609147512951417
40
0.0609147512951417
40
0.281683404303607
40
0.281683404303607
40
0.505139650592296
40
0.505139650592296
40
0.742848098732403
40
0.742848098732403
40
1
40
1
40
1
40
1
41
1
10
93.4536831973683
20
-6.08924903081794
30
0
41
1
10
93.4473209131161
20
-6.08407060261373
30
0
41
1
10
93.4411718493826
20
-6.07859911692134
30
0
41
1
10
93.4140519974022
20
-6.05225228003289
30
0
41
1
10
93.3958424458006
20
-6.02786572893274
30
0
41
1
10
93.3678774229986
20
-5.97538845654543
30
0
41
1
10
93.3578508164606
20
-5.94660011453462
30
0
41
1
10
93.3462600154515
20
-5.88687161871792
30
0
41
1
10
93.3450999025009
20
-5.85517032977614
30
0
41
1
10
93.3518121178943
20
-5.79186286669579
30
0
41
1
10
93.3604760177797
20
-5.75969753030358
30
0
41
1
10
93.3732426607285
20
-5.73024297989735
30
0
0
SPLINE
5
F0
100
AcDbEntity
8
1
62
256
6
ByLayer
370
-1
48
1
60
0
100
AcDbSpline
70
4
71
3
72
18
73
14
40
0
40
0
40
0
40
0
40
0.0445778070866274
40
0.0445778070866274
40
0.267784791885341
40
0.267784791885341
40
0.492733764289551
40
0.492733764289551
40
0.731283199196911
40
0.731283199196911
40
0.992778173490025
40
0.992778173490025
40
1
40
1
40
1
40
1
41
1
10
95.1034472686608
20
-6.36050652420309
30
0
41
1
10
95.0978494277235
20
-6.362586869864
30
0
41
1
10
95.0921835579721
20
-6.36448732409252
30
0
41
1
10
95.0581038217299
20
-6.37471092730846
30
0
41
1
10
95.0280584149313
20
-6.37862688380997
30
0
41
1
10
94.9692798298348
20
-6.37699989119773
30
0
41
1
10
94.9398087748138
20
-6.37138545281243
30
0
41
1
10
94.8834952377371
20
-6.35154760293753
30
0
41
1
10
94.8562042867601
20
-6.33660627417086
30
0
41
1
10
94.8060240597389
20
-6.29847283098971
30
0
41
1
10
94.7831593855776
20
-6.27417582075938
30
0
41
1
10
94.7643298719093
20
-6.24680695185072
30
0
41
1
10
94.7638216398923
20
-6.24606140744154
30
0
41
1
10
94.7633167193486
20
-6.24531386889632
30
0
0
SPLINE
5
F1
100
AcDbEntity
8
1
62
256
6
ByLayer
370
-1
48
1
60
0
100
AcDbSpline
70
4
71
3
72
18
73
14
40
0
40
0
40
0
40
0
40
0.211848912010637
40
0.211848912010637
40
0.38607850467999
40
0.38607850467999
40
0.56199696000891
40
0.56199696000891
40
0.714974034271995
40
0.714974034271995
40
0.917712865251852
40
0.917712865251852
40
1
40
1
40
1
40
1
41
1
10
95.2247938987856
20
-3.48866729901101
30
0
41
1
10
95.1669465851785
20
-3.52520316746336
30
0
41
1
10
95.1007241339399
20
-3.55436302642218
30
0
41
1
10
94.9703464751086
20
-3.58857500411503
30
0
41
1
10
94.9063926971858
20
-3.59724496518902
30
0
41
1
10
94.7764667663011
20
-3.59779608215197
30
0
41
1
10
94.7085508276808
20
-3.58936846751902
30
0
41
1
10
94.5897305456677
20
-3.55856830630668
30
0
41
1
10
94.5363219315571
20
-3.53785578143726
30
0
41
1
10
94.4246614775464
20
-3.47953176561353
30
0
41
1
10
94.3684257424323
20
-3.43777674789646
30
0
41
1
10
94.3028554748558
20
-3.37224138289054
30
0
41
1
10
94.2852396261947
20
-3.35225248211955
30
0
41
1
10
94.2691490910657
20
-3.33153827697726
30
0
0
SPLINE
5
F2
100
AcDbEntity
8
1
62
256
6
ByLayer
370
-1
48
1
60
0
100
AcDbSpline
70
4
71
3
72
18
73
14
40
0
40
0
40
0
40
0
40
0.203480035963929
40
0.203480035963929
40
0.37920875916216
40
0.37920875916216
40
0.556724440000207
40
0.556724440000207
40
0.710031291911171
40
0.710031291911171
40
0.911314745147277
40
0.911314745147277
40
1
40
1
40
1
40
1
41
1
10
95.2913563493986
20
-6.04907661144597
30
0
41
1
10
95.2848405855381
20
-5.9777541373609
30
0
41
1
10
95.2883321096668
20
-5.90358921800782
30
0
41
1
10
95.3161709776992
20
-5.76812718051565
30
0
41
1
10
95.3380946345295
20
-5.70495506111618
30
0
41
1
10
95.3997054353411
20
-5.58775195668287
30
0
41
1
10
95.440680653231
20
-5.53218778226244
30
0
41
1
10
95.5282969265263
20
-5.44610073679871
30
0
41
1
10
95.5743908675159
20
-5.41209204345452
30
0
41
1
10
95.6848487987216
20
-5.35106233817385
30
0
41
1
10
95.7521915443224
20
-5.32825936175459
30
0
41
1
10
95.8489758647086
20
-5.3114158890877
30
0
41
1
10
95.8789840829601
20
-5.3083502851064
30
0
41
1
10
95.908878330046
20
-5.30730598584157
30
0
0
SPLINE
5
F3
100
AcDbEntity
8
1
62
256
6
ByLayer
370
-1
48
1
60
0
100
AcDbSpline
70
4
71
3
72
16
73
12
40
0
40
0
40
0
40
0
40
0.0385037996107308
40
0.0385037996107308
40
0.261757335704642
40
0.261757335704642
40
0.486401837404865
40
0.486401837404865
40
0.724356263875753
40
0.724356263875753
40
1
40
1
40
1
40
1
41
1
10
93.9303546088153
20
-3.24183929989275
30
0
41
1
10
93.935194964879
20
-3.24004046104628
30
0
41
1
10
93.9400850399601
20
-3.23836088110846
30
0
41
1
10
93.9733145406545
20
-3.22786621024727
30
0
41
1
10
94.0033180711839
20
-3.22299024626111
30
0
41
1
10
94.0620008338705
20
-3.22180887767769
30
0
41
1
10
94.0914198355292
20
-3.22552037324033
30
0
41
1
10
94.1476233047514
20
-3.24072556633013
30
0
41
1
10
94.1748620965594
20
-3.25282899047855
30
0
41
1
10
94.2264084488767
20
-3.2853966645236
30
0
41
1
10
94.2503205827537
20
-3.30729933274225
30
0
41
1
10
94.2691490910658
20
-3.3315382769772
30
0
0
SPLINE
5
F4
100
AcDbEntity
8
1
62
256
6
ByLayer
370
-1
48
1
60
0
100
AcDbSpline
70
4
71
3
72
12
73
8
40
0
40
0
40
0
40
0
40
0.480255555800055
40
0.480255555800055
40
0.887839652789383
40
0.887839652789383
40
1
40
1
40
1
40
1
41
1
10
93.0318380760558
20
-4.82261877859347
30
0
41
1
10
93.0946934401293
20
-4.84649017550782
30
0
41
1
10
93.1552215331838
20
-4.88108368976972
30
0
41
1
10
93.2550189148205
20
-4.96449603404736
30
0
41
1
10
93.2971500900874
20
-5.01146888177422
30
0
41
1
10
93.341183878718
20
-5.07984169071509
30
0
41
1
10
93.3501963333209
20
-5.09521941801569
30
0
41
1
10
93.3585869667883
20
-5.11104723724333
30
0
0
SPLINE
5
F5
100
AcDbEntity
8
1
62
256
6
ByLayer
370
-1
48
1
60
0
100
AcDbSpline
70
4
71
3
72
16
73
12
40
0
40
0
40
0
40
0
40
0.0197319576645837
40
0.0197319576645837
40
0.333026703899934
40
0.333026703899934
40
0.61920555615096
40
0.61920555615096
40
0.871115388931945
40
0.871115388931945
40
1
40
1
40
1
40
1
41
1
10
96.0006064055143
20
-4.75382638867887
30
0
41
1
10
96.0027821274469
20
-4.75493680143273
30
0
41
1
10
96.0049485295735
20
-4.75607407575086
30
0
41
1
10
96.0408373673617
20
-4.77544666795146
30
0
41
1
10
96.0726553128222
20
-4.8007412062756
30
0
41
1
10
96.1226355184465
20
-4.85934279420573
30
0
41
1
10
96.1424722022502
20
-4.89274907978509
30
0
41
1
10
96.1668678475371
20
-4.95999807418082
30
0
41
1
10
96.1732825502022
20
-4.99433148127571
30
0
41
1
10
96.1738057749819
20
-5.0454861672971
30
0
41
1
10
96.1724211292004
20
-5.06293870431779
30
0
41
1
10
96.1694977182376
20
-5.07996116113813
30
0
0
SPLINE
5
F6
100
AcDbEntity
8
1
62
256
6
ByLayer
370
-1
48
1
60
0
100
AcDbSpline
70
4
71
3
72
18
73
14
40
0
40
0
40
0
40
0
40
0.0447644379316203
40
0.0447644379316203
40
0.265888659264879
40
0.265888659264879
40
0.488773734883296
40
0.488773734883296
40
0.725161308447079
40
0.725161308447079
40
0.984302503243653
40
0.984302503243653
40
1
40
1
40
1
40
1
41
1
10
95.5801186801078
20
-3.51309679327798
30
0
41
1
10
95.5848011981085
20
-3.51690801615337
30
0
41
1
10
95.5893662737217
20
-3.52085594352198
30
0
41
1
10
95.6155016313318
20
-3.54486139899191
30
0
41
1
10
95.6342520411688
20
-3.56814336725239
30
0
41
1
10
95.6632246956331
20
-3.61762253817707
30
0
41
1
10
95.6737672546314
20
-3.64446209326837
30
0
41
1
10
95.6863699126721
20
-3.69956133461841
30
0
41
1
10
95.6880661635063
20
-3.72849299149649
30
0
41
1
10
95.6823887900327
20
-3.78608816076451
30
0
41
1
10
95.6740908501777
20
-3.81518537797032
30
0
41
1
10
95.660785638586
20
-3.84301814959338
30
0
41
1
10
95.660001677675
20
-3.84461497901933
30
0
41
1
10
95.6592018208415
20
-3.84620218737479
30
0
0
SPLINE
5
F7
100
AcDbEntity
8
1
62
256
6
ByLayer
370
-1
48
1
60
0
100
AcDbSpline
70
4
71
3
72
12
73
8
40
0
40
0
40
0
40
0
40
0.313025784920533
40
0.313025784920533
40
0.779678005262886
40
0.779678005262886
40
1
40
1
40
1
40
1
41
1
10
93.4168194799095
20
-5.26585839264175
30
0
41
1
10
93.4286787056558
20
-5.31537334179291
30
0
41
1
10
93.43496577931
20
-5.36666300759487
30
0
41
1
10
93.4372636679279
20
-5.49152872129739
30
0
41
1
10
93.4269055153045
20
-5.56575304799966
30
0
41
1
10
93.3980401594503
20
-5.66749129073597
30
0
41
1
10
93.3865838974851
20
-5.69946275583143
30
0
41
1
10
93.3732426607284
20
-5.73024297989733
30
0
0
SPLINE
5
F8
100
AcDbEntity
8
1
62
256
6
ByLayer
370
-1
48
1
60
0
100
AcDbSpline
70
4
71
3
72
16
73
12
40
0
40
0
40
0
40
0
40
0.158246777788117
40
0.158246777788117
40
0.458087079300111
40
0.458087079300111
40
0.729091089354956
40
0.729091089354956
40
0.969330546691372
40
0.969330546691372
40
1
40
1
40
1
40
1
41
1
10
93.0318380760544
20
-4.8226187785979
30
0
41
1
10
93.0146712460266
20
-4.81609910888645
30
0
41
1
10
92.9980276837447
20
-4.8077708036034
30
0
41
1
10
92.9528809308706
20
-4.77884655328066
30
0
41
1
10
92.9262227787315
20
-4.75324160773346
30
0
41
1
10
92.8873524883941
20
-4.69540921158887
30
0
41
1
10
92.8734570461872
20
-4.66311587250624
30
0
41
1
10
92.8597741798301
20
-4.59887379175271
30
0
41
1
10
92.8584042568651
20
-4.566363515028
30
0
41
1
10
92.8629889091525
20
-4.53056496969191
30
0
41
1
10
92.8636026701503
20
-4.52646929829157
30
0
41
1
10
92.8643041592385
20
-4.52238466295779
30
0
0
SPLINE
5
F9
100
AcDbEntity
8
1
62
256
6
ByLayer
370
-1
48
1
60
0
100
AcDbSpline
70
4
71
3
72
16
73
12
40
0
40
0
40
0
40
0
40
0.194650218454968
40
0.194650218454968
40
0.417625129124706
40
0.417625129124706
40
0.650539082914572
40
0.650539082914572
40
0.903611639926542
40
0.903611639926542
40
1
40
1
40
1
40
1
41
1
10
92.8643041592385
20
-4.52238466295779
30
0
41
1
10
92.8686521816852
20
-4.49706696890328
30
0
41
1
10
92.8765054625218
20
-4.47187858142158
30
0
41
1
10
92.8996630825795
20
-4.42144927564198
30
0
41
1
10
92.9161974230656
20
-4.39609896705716
30
0
41
1
10
92.9554307522483
20
-4.35106240132757
30
0
41
1
10
92.9788434844836
20
-4.33109399272667
30
0
41
1
10
93.0306817618438
20
-4.29795054605208
30
0
41
1
10
93.0599973323637
20
-4.28506892883709
30
0
41
1
10
93.1007751627001
20
-4.27380137912738
30
0
41
1
10
93.1121900234383
20
-4.27134074750779
30
0
41
1
10
93.1235874803687
20
-4.26954616003232
30
0
0
SPLINE
5
FA
100
AcDbEntity
8
1
62
256
6
ByLayer
370
-1
48
1
60
0
100
AcDbSpline
70
4
71
3
72
14
73
10
40
0
40
0
40
0
40
0
40
0.249934220180428
40
0.249934220180428
40
0.547588928761594
40
0.547588928761594
40
0.809689888114178
40
0.809689888114178
40
1
40
1
40
1
40
1
41
1
10
95.2913563494004
20
-6.04907661144588
30
0
41
1
10
95.2941809283101
20
-6.079994852254
30
0
41
1
10
95.2925487964533
20
-6.11200786772383
30
0
41
1
10
95.27841989849
20
-6.18014772081239
30
0
41
1
10
95.2635311602551
20
-6.21702378915529
30
0
41
1
10
95.2232656015752
20
-6.2780584298705
30
0
41
1
10
95.1986866178727
20
-6.30409822918148
30
0
41
1
10
95.1500354223616
20
-6.3394080984647
30
0
41
1
10
95.1272211445581
20
-6.35167135362201
30
0
41
1
10
95.1034472686608
20
-6.36050652420309
30
0
0
SPLINE
5
FB
100
AcDbEntity
8
1
62
256
6
ByLayer
370
-1
48
1
60
0
100
AcDbSpline
70
4
71
3
72
14
73
10
40
0
40
0
40
0
40
0
40
0.281819123051935
40
0.281819123051935
40
0.568411649829045
40
0.568411649829045
40
0.827793737189474
40
0.827793737189474
40
1
40
1
40
1
40
1
41
1
10
93.8076719116282
20
-6.08818484686358
30
0
41
1
10
93.7806820665824
20
-6.10940279674423
30
0
41
1
10
93.749460048307
20
-6.12641163025106
30
0
41
1
10
93.6824373102426
20
-6.14827283249647
30
0
41
1
10
93.6455094337468
20
-6.15319101229943
30
0
41
1
10
93.5760301012762
20
-6.14839160288381
30
0
41
1
10
93.5423525476483
20
-6.13988504206901
30
0
41
1
10
93.4910576463542
20
-6.11597756548846
30
0
41
1
10
93.4714268277086
20
-6.10369103186017
30
0
41
1
10
93.4536831973683
20
-6.08924903081794
30
0
0
SPLINE
5
FC
100
AcDbEntity
8
SK1
62
256
6
ByLayer
370
-1
48
1
60
0
100
AcDbSpline
70
4
71
3
72
8
73
4
40
0
40
0
40
0
40
0
40
1
40
1
40
1
40
1
41
1
10
-201.32
20
-10.00875
30
0
41
1
10
-200.859655016927
20
-10.00875
30
0
41
1
10
-200.133727162837
20
-10.00875
30
0
41
1
10
-199.32
20
-10.00875
30
0
0
SPLINE
5
FD
100
AcDbEntity
8
SK1
62
256
6
ByLayer
370
-1
48
1
60
0
100
AcDbSpline
70
4
71
3
72
10
73
6
40
0
40
0
40
0
40
0
40
0.5
40
0.5
40
1
40
1
40
1
40
1
41
1
10
-199.32
20
-4.87661015076048
30
0
41
1
10
-199.931278087239
20
-3.31084475816917
30
0
41
1
10
-200.311010085058
20
-1.68546685393193
30
0
41
1
10
-200.311489681707
20
1.6821913662468
30
0
41
1
10
-199.931860983986
20
3.30935169049232
30
0
41
1
10
-199.32
20
4.87661015076048
30
0
0
LINE
5
4A
100
AcDbEntity
8
80
62
256
6
ByLayer
370
-1
48
1
60
0
100
AcDbLine
10
0
20
0
30
0
11
-10
21
0
31
0
39
0
210
0
220
0
230
1
0
LINE
5
4B
100
AcDbEntity
8
81
62
256
6
ByLayer
370
-1
48
1
60
0
100
AcDbLine
10
99.93
20
-17.9
30
0
11
109.93
21
-17.9
31
0
39
0
210
0
220
0
230
1
0
LINE
5
4C
100
AcDbEntity
8
SK1
62
256
6
ByLayer
370
-1
48
1
60
0
100
AcDbLine
10
-199.32
20
12.49125
30
0
11
-201.32
21
10.49125
31
0
39
0
210
0
220
0
230
1
0
LINE
5
4E
100
AcDbEntity
8
SK1
62
256
6
ByLayer
370
-1
48
1
60
0
100
AcDbLine
10
0
20
12.49125
30
0
11
-199.32
21
12.49125
31
0
39
0
210
0
220
0
230
1
0
LINE
5
4F
100
AcDbEntity
8
1
62
256
6
ByLayer
370
-1
48
1
60
0
100
AcDbLine
10
93.74305
20
-3.553886
30
0
11
93.741435
21
-3.523061
31
0
39
0
210
0
220
0
230
1
0
LINE
5
50
100
AcDbEntity
8
1
62
256
6
ByLayer
370
-1
48
1
60
0
100
AcDbLine
10
91.886914
20
-4.77475
30
0
11
91.893809
21
-4.906327
31
0
39
0
210
0
220
0
230
1
0
LINE
5
51
100
AcDbEntity
8
1
62
256
6
ByLayer
370
-1
48
1
60
0
100
AcDbLine
10
97.136614
20
-4.631563
30
0
11
97.129719
21
-4.499986
31
0
39
0
210
0
220
0
230
1
0
LINE
5
52
100
AcDbEntity
8
1
62
256
6
ByLayer
370
-1
48
1
60
0
100
AcDbLine
10
95.588522
20
-4.014256
30
0
11
95.595754
21
-4.152247
31
0
39
0
210
0
220
0
230
1
0
LINE
5
53
100
AcDbEntity
8
1
62
256
6
ByLayer
370
-1
48
1
60
0
100
AcDbLine
10
95.28126
20
-5.867352
30
0
11
95.289252
21
-6.019845
31
0
39
0
210
0
220
0
230
1
0
LINE
5
54
100
AcDbEntity
8
1
62
256
6
ByLayer
370
-1
48
1
60
0
100
AcDbLine
10
93.435034
20
-5.392586
30
0
11
93.427804
21
-5.254629
31
0
39
0
210
0
220
0
230
1
0
LINE
5
55
100
AcDbEntity
8
1
62
256
6
ByLayer
370
-1
48
1
60
0
100
AcDbLine
10
90.584743
20
12.49125
30
0
11
0
21
12.49125
31
0
39
0
210
0
220
0
230
1
0
LINE
5
56
100
AcDbEntity
8
1
62
256
6
ByLayer
370
-1
48
1
60
0
100
AcDbLine
10
86.408987
20
2.771611
30
0
11
86.381489
21
3.296309
31
0
39
0
210
0
220
0
230
1
0
LINE
5
57
100
AcDbEntity
8
1
62
256
6
ByLayer
370
-1
48
1
60
0
100
AcDbLine
10
90.659743
20
12.41625
30
0
11
90.584743
21
12.49125
31
0
39
0
210
0
220
0
230
1
0
LINE
5
58
100
AcDbEntity
8
1
62
256
6
ByLayer
370
-1
48
1
60
0
100
AcDbLine
10
93.685165
20
12.590238
30
0
11
93.508657
21
12.41625
31
0
39
0
210
0
220
0
230
1
0
LINE
5
59
100
AcDbEntity
8
1
62
256
6
ByLayer
370
-1
48
1
60
0
100
AcDbLine
10
93.508657
20
12.41625
30
0
11
90.659743
21
12.41625
31
0
39
0
210
0
220
0
230
1
0
LINE
5
5A
100
AcDbEntity
8
1
62
256
6
ByLayer
370
-1
48
1
60
0
100
AcDbLine
10
89.30176
20
7.995487
30
0
11
89.239025
21
7.90417
31
0
39
0
210
0
220
0
230
1
0
LINE
5
5B
100
AcDbEntity
8
SK4
62
256
6
ByLayer
370
-1
48
0.05
60
0
100
AcDbLine
10
-206.32
20
0
30
0
11
104.672311
21
0
31
0
39
0
210
0
220
0
230
1
0
LINE
5
5D
100
AcDbEntity
8
4
62
256
6
ByLayer
370
-1
48
0.05
60
0
100
AcDbLine
10
0
20
0
30
0
11
104.672311
21
0
31
0
39
0
210
0
220
0
230
1
0
LINE
5
5F
100
AcDbEntity
8
1
62
256
6
ByLayer
370
-1
48
1
60
0
100
AcDbLine
10
87.715224
20
6.905903
30
0
11
87.731781
21
6.589992
31
0
39
0
210
0
220
0
230
1
0
LINE
5
60
100
AcDbEntity
8
1
62
256
6
ByLayer
370
-1
48
1
60
0
100
AcDbLine
10
88.011573
20
8.696773
30
0
11
87.995017
21
9.012683
31
0
39
0
210
0
220
0
230
1
0
LINE
5
61
100
AcDbEntity
8
1
62
256
6
ByLayer
370
-1
48
1
60
0
100
AcDbLine
10
87.731781
20
6.589992
30
0
11
89.252175
21
4.656962
31
0
39
0
210
0
220
0
230
1
0
LINE
5
62
100
AcDbEntity
8
1
62
256
6
ByLayer
370
-1
48
1
60
0
100
AcDbLine
10
82.340111
20
-4.886951
30
0
11
86.203116
21
1.912063
31
0
39
0
210
0
220
0
230
1
0
LINE
5
63
100
AcDbEntity
8
1
62
256
6
ByLayer
370
-1
48
1
60
0
100
AcDbLine
10
66.883177
20
-4.87661
30
0
11
0
21
-4.87661
31
0
39
0
210
0
220
0
230
1
0
LINE
5
64
100
AcDbEntity
8
1
62
256
6
ByLayer
370
-1
48
1
60
0
100
AcDbLine
10
0
20
4.87661
30
0
11
0
21
12.49125
31
0
39
0
210
0
220
0
230
1
0
LINE
5
65
100
AcDbEntity
8
1
62
256
6
ByLayer
370
-1
48
1
60
0
100
AcDbLine
10
84.258281
20
-5.875513
30
0
11
80.096548
21
-10.00875
31
0
39
0
210
0
220
0
230
1
0
LINE
5
66
100
AcDbEntity
8
1
62
256
6
ByLayer
370
-1
48
1
60
0
100
AcDbLine
10
80.907552
20
-6.558147
30
0
11
73.05723
21
-6.558147
31
0
39
0
210
0
220
0
230
1
0
LINE
5
67
100
AcDbEntity
8
1
62
256
6
ByLayer
370
-1
48
1
60
0
100
AcDbLine
10
89.27293
20
4.260771
30
0
11
87.643344
21
6.332627
31
0
39
0
210
0
220
0
230
1
0
LINE
5
68
100
AcDbEntity
8
1
62
256
6
ByLayer
370
-1
48
1
60
0
100
AcDbLine
10
75.713279
20
4.87661
30
0
11
66.883177
21
-4.87661
31
0
39
0
210
0
220
0
230
1
0
LINE
5
69
100
AcDbEntity
8
1
62
256
6
ByLayer
370
-1
48
1
60
0
100
AcDbLine
10
86.311439
20
3.68566
30
0
11
83.836595
21
11.585147
31
0
39
0
210
0
220
0
230
1
0
LINE
5
6A
100
AcDbEntity
8
1
62
256
6
ByLayer
370
-1
48
1
60
0
100
AcDbLine
10
87.558389
20
1.835848
30
0
11
83.694382
21
-4.944056
31
0
39
0
210
0
220
0
230
1
0
LINE
5
6B
100
AcDbEntity
8
1
62
256
6
ByLayer
370
-1
48
1
60
0
100
AcDbLine
10
93.686192
20
12.59025
30
0
11
98.131732
21
12.59025
31
0
39
0
210
0
220
0
230
1
0
LINE
5
6C
100
AcDbEntity
8
1
62
256
6
ByLayer
370
-1
48
1
60
0
100
AcDbLine
10
87.643344
20
6.332627
30
0
11
87.731781
21
6.589992
31
0
39
0
210
0
220
0
230
1
0
LINE
5
6D
100
AcDbEntity
8
1
62
256
6
ByLayer
370
-1
48
1
60
0
100
AcDbLine
10
0
20
4.87661
30
0
11
75.713279
21
4.87661
31
0
39
0
210
0
220
0
230
1
0
LINE
5
6E
100
AcDbEntity
8
1
62
256
6
ByLayer
370
-1
48
1
60
0
100
AcDbLine
10
85.400794
20
12.097806
30
0
11
87.829385
21
4.345955
31
0
39
0
210
0
220
0
230
1
0
LINE
5
6F
100
AcDbEntity
8
1
62
256
6
ByLayer
370
-1
48
1
60
0
100
AcDbLine
10
93.508657
20
12.41625
30
0
11
93.508657
21
12.035072
31
0
39
0
210
0
220
0
230
1
0
LINE
5
70
100
AcDbEntity
8
1
62
256
6
ByLayer
370
-1
48
1
60
0
100
AcDbLine
10
65.381243
20
-10.00875
30
0
11
80.096548
21
-10.00875
31
0
39
0
210
0
220
0
230
1
0
LINE
5
71
100
AcDbEntity
8
1
62
256
6
ByLayer
370
-1
48
1
60
0
100
AcDbLine
10
90.584743
20
12.49125
30
0
11
90.584743
21
12.105752
31
0
39
0
210
0
220
0
230
1
0
LINE
5
72
100
AcDbEntity
8
1
62
256
6
ByLayer
370
-1
48
1
60
0
100
AcDbLine
10
0
20
-4.87661
30
0
11
0
21
-10.00875
31
0
39
0
210
0
220
0
230
1
0
LINE
5
73
100
AcDbEntity
8
1
62
256
6
ByLayer
370
-1
48
1
60
0
100
AcDbLine
10
88.814515
20
-4.961056
30
0
11
89.738247
21
-4.617766
31
0
39
0
210
0
220
0
230
1
0
LINE
5
74
100
AcDbEntity
8
1
62
256
6
ByLayer
370
-1
48
1
60
0
100
AcDbLine
10
90.270128
20
8.499166
30
0
11
90.285957
21
8.197137
31
0
39
0
210
0
220
0
230
1
0
LINE
5
75
100
AcDbEntity
8
1
62
256
6
ByLayer
370
-1
48
1
60
0
100
AcDbLine
10
73.11024
20
-5.958558
30
0
11
80.948276
21
-5.724145
31
0
39
0
210
0
220
0
230
1
0
LINE
5
76
100
AcDbEntity
8
1
62
256
6
ByLayer
370
-1
48
1
60
0
100
AcDbLine
10
93.686192
20
12.210622
30
0
11
93.686192
21
12.59025
31
0
39
0
210
0
220
0
230
1
0
LINE
5
77
100
AcDbEntity
8
1
62
256
6
ByLayer
370
-1
48
1
60
0
100
AcDbLine
10
65.381243
20
-10.00875
30
0
11
63.775923
21
-10.00875
31
0
39
0
210
0
220
0
230
1
0
LINE
5
78
100
AcDbEntity
8
1
62
256
6
ByLayer
370
-1
48
1
60
0
100
AcDbLine
10
98.855985
20
-1.229308
30
0
11
98.151276
21
12.217329
31
0
39
0
210
0
220
0
230
1
0
LINE
5
79
100
AcDbEntity
8
1
62
256
6
ByLayer
370
-1
48
1
60
0
100
AcDbLine
10
98.855985
20
-1.229308
30
0
11
97.982562
21
-1.553901
31
0
39
0
210
0
220
0
230
1
0
LINE
5
7A
100
AcDbEntity
8
1
62
256
6
ByLayer
370
-1
48
1
60
0
100
AcDbLine
10
0
20
-4.87661
30
0
11
0
21
4.87661
31
0
39
0
210
0
220
0
230
1
0
LINE
5
7B
100
AcDbEntity
8
1
62
256
6
ByLayer
370
-1
48
1
60
0
100
AcDbLine
10
86.339336
20
3.153342
30
0
11
86.311439
21
3.68566
31
0
39
0
210
0
220
0
230
1
0
LINE
5
7C
100
AcDbEntity
8
1
62
256
6
ByLayer
370
-1
48
1
60
0
100
AcDbLine
10
98.131732
20
12.59025
30
0
11
98.151276
21
12.217329
31
0
39
0
210
0
220
0
230
1
0
LINE
5
7D
100
AcDbEntity
8
1
62
256
6
ByLayer
370
-1
48
1
60
0
100
AcDbLine
10
0
20
-10.00875
30
0
11
63.775937
21
-10.00875
31
0
39
0
210
0
220
0
230
1
0
LINE
5
7E
100
AcDbEntity
8
1
62
256
6
ByLayer
370
-1
48
1
60
0
100
AcDbLine
10
86.339336
20
3.153342
30
0
11
84.856509
21
7.793196
31
0
39
0
210
0
220
0
230
1
0
LINE
5
7F
100
AcDbEntity
8
1
62
256
6
ByLayer
370
-1
48
1
60
0
100
AcDbLine
10
87.715224
20
6.905903
30
0
11
89.235619
21
4.972873
31
0
39
0
210
0
220
0
230
1
0
LINE
5
80
100
AcDbEntity
8
1
62
256
6
ByLayer
370
-1
48
1
60
0
100
AcDbLine
10
68.123443
20
-8.102757
30
0
11
65.381243
21
-10.00875
31
0
39
0
210
0
220
0
230
1
0
LINE
5
81
100
AcDbEntity
8
1
62
256
6
ByLayer
370
-1
48
1
60
0
100
AcDbLine
10
90.659743
20
12.41625
30
0
11
90.659743
21
12.030727
31
0
39
0
210
0
220
0
230
1
0
LINE
5
82
100
AcDbEntity
8
SK1
62
256
6
ByLayer
370
-1
48
1
60
0
100
AcDbLine
10
0
20
-4.87661
30
0
11
-199.32
21
-4.87661
31
0
39
0
210
0
220
0
230
1
0
LINE
5
83
100
AcDbEntity
8
SK1
62
256
6
ByLayer
370
-1
48
1
60
0
100
AcDbLine
10
0
20
12.49125
30
0
11
0
21
4.87661
31
0
39
0
210
0
220
0
230
1
0
LINE
5
84
100
AcDbEntity
8
1
62
256
6
ByLayer
370
-1
48
1
60
0
100
AcDbLine
10
89.918113
20
-6.672741
30
0
11
98.58227
21
-17.688351
31
0
39
0
210
0
220
0
230
1
0
LINE
5
85
100
AcDbEntity
8
1
62
256
6
ByLayer
370
-1
48
1
60
0
100
AcDbLine
10
99.119336
20
-2.999197
30
0
11
90.455179
21
8.016413
31
0
39
0
210
0
220
0
230
1
0
LINE
5
86
100
AcDbEntity
8
1
62
256
6
ByLayer
370
-1
48
1
60
0
100
AcDbLine
10
99.934979
20
-17.185639
30
0
11
99.203181
21
-3.222098
31
0
39
0
210
0
220
0
230
1
0
LINE
5
87
100
AcDbEntity
8
1
62
256
6
ByLayer
370
-1
48
1
60
0
100
AcDbLine
10
89.10247
20
7.513701
30
0
11
89.834268
21
-6.44984
31
0
39
0
210
0
220
0
230
1
0
LINE
5
88
100
AcDbEntity
8
1
62
256
6
ByLayer
370
-1
48
1
60
0
100
AcDbLine
10
93.799602
20
-5.934201
30
0
11
93.807672
21
-6.088185
31
0
39
0
210
0
220
0
230
1
0
LINE
5
89
100
AcDbEntity
8
1
62
256
6
ByLayer
370
-1
48
1
60
0
100
AcDbLine
10
94.755247
20
-6.09133
30
0
11
94.763317
21
-6.245314
31
0
39
0
210
0
220
0
230
1
0
LINE
5
8A
100
AcDbEntity
8
1
62
256
6
ByLayer
370
-1
48
1
60
0
100
AcDbLine
10
93.358587
20
-5.111047
30
0
11
93.351513
21
-4.976066
31
0
39
0
210
0
220
0
230
1
0
LINE
5
8B
100
AcDbEntity
8
1
62
256
6
ByLayer
370
-1
48
1
60
0
100
AcDbLine
10
93.023779
20
-4.668839
30
0
11
93.031838
21
-4.822619
31
0
39
0
210
0
220
0
230
1
0
LINE
5
8C
100
AcDbEntity
8
1
62
256
6
ByLayer
370
-1
48
1
60
0
100
AcDbLine
10
95.900808
20
-5.153322
30
0
11
95.908878
21
-5.307306
31
0
39
0
210
0
220
0
230
1
0
LINE
5
8D
100
AcDbEntity
8
1
62
256
6
ByLayer
370
-1
48
1
60
0
100
AcDbLine
10
93.409745
20
-5.130878
30
0
11
93.416819
21
-5.265858
31
0
39
0
210
0
220
0
230
1
0
LINE
5
8E
100
AcDbEntity
8
1
62
256
6
ByLayer
370
-1
48
1
60
0
100
AcDbLine
10
95.651143
20
-3.692422
30
0
11
95.659202
21
-3.846202
31
0
39
0
210
0
220
0
230
1
0
LINE
5
8F
100
AcDbEntity
8
SK1
62
256
6
ByLayer
370
-1
48
1
60
0
100
AcDbLine
10
-199.32
20
-10.00875
30
0
11
0
21
-10.00875
31
0
39
0
210
0
220
0
230
1
0
LINE
5
90
100
AcDbEntity
8
SK1
62
256
6
ByLayer
370
-1
48
1
60
0
100
AcDbLine
10
-201.32
20
10.49125
30
0
11
-201.32
21
-10.00875
31
0
39
0
210
0
220
0
230
1
0
LINE
5
91
100
AcDbEntity
8
SK1
62
256
6
ByLayer
370
-1
48
1
60
0
100
AcDbLine
10
-199.32
20
-4.87661
30
0
11
-199.32
21
-10.00875
31
0
39
0
210
0
220
0
230
1
0
LINE
5
92
100
AcDbEntity
8
SK1
62
256
6
ByLayer
370
-1
48
1
60
0
100
AcDbLine
10
-199.32
20
12.49125
30
0
11
-199.32
21
4.87661
31
0
39
0
210
0
220
0
230
1
0
LINE
5
93
100
AcDbEntity
8
SK1
62
256
6
ByLayer
370
-1
48
1
60
0
100
AcDbLine
10
0
20
-4.87661
30
0
11
0
21
4.87661
31
0
39
0
210
0
220
0
230
1
0
LINE
5
94
100
AcDbEntity
8
SK1
62
256
6
ByLayer
370
-1
48
1
60
0
100
AcDbLine
10
-199.32
20
4.87661
30
0
11
0
21
4.87661
31
0
39
0
210
0
220
0
230
1
0
LINE
5
95
100
AcDbEntity
8
SK1
62
256
6
ByLayer
370
-1
48
1
60
0
100
AcDbLine
10
0
20
-4.87661
30
0
11
0
21
-10.00875
31
0
39
0
210
0
220
0
230
1
0
LINE
5
96
100
AcDbEntity
8
2
62
256
6
ByLayer
370
-1
48
1
60
1
100
AcDbLine
10
99.93
20
0
30
0
11
99.931
21
0.001
31
0
39
0
210
0
220
0
230
1
0
MTEXT
5
FE
100
AcDbEntity
8
SK6
62
256
6
ByLayer
370
-1
48
1
60
0
100
AcDbMText
10
-47.32
20
19.446665
30
0
210
0
220
0
230
1
1
\W00.787;\fsimplex.shx,bigfont.shx;A25T-SVUBL 16HP-D 
40
3.5
41
0
44
1.084337
50
0
71
7
72
5
7
DEFAULT
0
DIMENSION
5
131
100
AcDbEntity
8
2
62
256
6
ByLayer
370
-3
48
1
60
0
100
AcDbDimension
2
DimnDraft3D1
10
112.18
20
0
30
0
11
112.18
21
-13.550658
31
0
70
32
71
5
72
1
41
1
210
0
220
0
230
1
3
Standard
100
AcDbAlignedDimension
13
101.93
23
-17.9
33
0
14
101.93
24
0
34
0
50
90
100
AcDbRotatedDimension
1001
ACAD
1000
DSTYLE
1002
{
1070
    74
1070
     0
1070
   279
1070
     0
1070
   172
1070
     1
1070
   173
1070
     1
1070
   340
1005
FF
1070
    77
1070
     1
1070
    73
1070
     0
1070
   171
1070
     4
1070
   274
1070
     4
1070
   177
1070
     2
1070
   176
1070
     2
1070
   178
1070
     7
1070
    78
1070
     8
1070
    41
1041
3.175
1070
   147
1041
2.25
1070
    42
1041
2.0
1070
    44
1041
2.0
1070
   140
1041
4.5
1070
   343
1005
132
1070
   344
1005
132
1002
}
0
DIMENSION
5
147
100
AcDbEntity
8
SK2
62
256
6
ByLayer
370
-3
48
1
60
0
100
AcDbDimension
2
DimnDraft3D2
10
-211.07
20
12.49125
30
0
11
-211.07
21
-4.784211
31
0
70
32
71
5
72
1
41
1
210
0
220
0
230
1
3
Standard
100
AcDbAlignedDimension
13
-203.32
23
-12.49125
33
0
14
-203.32
24
12.49125
34
0
50
90
100
AcDbRotatedDimension
1001
ACAD
1000
DSTYLE
1002
{
1070
    74
1070
     0
1070
   279
1070
     0
1070
   172
1070
     1
1070
   173
1070
     1
1070
   340
1005
FF
1070
    77
1070
     1
1070
    73
1070
     0
1070
   171
1070
     4
1070
   274
1070
     4
1070
   177
1070
     2
1070
   176
1070
     2
1070
   178
1070
     7
1070
    78
1070
     8
1070
    41
1041
3.175
1070
   147
1041
2.25
1070
    42
1041
2.0
1070
    44
1041
2.0
1070
   140
1041
4.5
1070
   343
1005
132
1070
   344
1005
132
1002
}
0
DIMENSION
5
155
100
AcDbEntity
8
SK2
62
256
6
ByLayer
370
-3
48
1
60
0
100
AcDbDimension
2
DimnDraft3D3
10
99.93
20
-35.15
30
0
11
-57.510132
21
-35.15
31
0
70
32
71
5
72
1
41
1
210
0
220
0
230
1
3
Standard
100
AcDbAlignedDimension
13
-201.32
23
-14.49125
33
0
14
99.93
24
-19.9
34
0
50
0
100
AcDbRotatedDimension
1001
ACAD
1000
DSTYLE
1002
{
1070
   279
1070
     0
1070
   172
1070
     1
1070
   173
1070
     1
1070
   340
1005
FF
1070
    77
1070
     1
1070
    73
1070
     0
1070
   171
1070
     4
1070
   274
1070
     4
1070
   177
1070
     2
1070
   176
1070
     2
1070
   178
1070
     7
1070
    78
1070
     8
1070
    41
1041
3.175
1070
   147
1041
2.25
1070
    42
1041
2.0
1070
    44
1041
2.0
1070
   140
1041
4.5
1070
   343
1005
132
1070
   344
1005
132
1002
}
0
DIMENSION
5
163
100
AcDbEntity
8
2
62
256
6
ByLayer
370
-3
48
1
60
0
100
AcDbDimension
2
DimnDraft3D4
10
138.918308
20
0
30
0
11
122.026116
21
33.528479
31
0
70
34
71
5
72
1
41
1
210
0
220
0
230
1
3
Standard
100
AcDb2LineAngularDimension
13
98.987953
23
0.075332
33
0
14
96.902314
24
39.871689
34
0
15
101.93
25
0
35
0
16
128.196312
26
30.775028
36
0
40
0
0
ENDSEC
0
SECTION
2
OBJECTS
0
DICTIONARY
5
194
330
0
100
AcDbDictionary
280
0
281
1
3
ACAD_GROUP
350
195
3
ACAD_MLINESTYLE
350
196
0
DICTIONARY
5
195
330
0
100
AcDbDictionary
280
0
281
1
0
DICTIONARY
5
196
330
0
100
AcDbDictionary
280
0
281
1
3
Standard
350
18
0
MLINESTYLE
5
18
330
196
100
AcDbMlineStyle
2
Standard
70
0
3

62
256
51
90
52
90
71
2
49
-0.5
62
256
6
ByLayer
49
0.5
62
256
6
ByLayer
0
RASTERVARIABLES
5
182
330

100
AcDbRasterVariables
90
0
70
1
71
1
72
1
0
ENDSEC
0
EOF
