0
SECTION
2
HEADER
9
$ACADVER
1
AC1015
9
$DWGCODEPAGE
3
ANSI_1252
9
$HANDSEED
5
190
9
$ANGBASE
50
0
9
$ANGDIR
70
0
9
$ATTMODE
70
1
9
$AUNITS
70
0
9
$AUPREC
70
0
9
$CECOLOR
62
256
9
$CELTSCALE
40
1
9
$CELTYPE
6
ByLayer
9
$CELWEIGHT
370
-1
9
$CLAYER
8
0
9
$CMLJUST
70
0
9
$CMLSCALE
40
1
9
$CMLSTYLE
2
Standard
9
$DIMSTYLE
2
Standard
9
$TEXTSIZE
40
0.2
9
$TEXTSTYLE
7
Standard
9
$LUNITS
70
2
9
$LUPREC
70
4
9
$EXTNAMES
290
1
9
$INSUNITS
70
4
9
$LTSCALE
40
1
9
$LWDISPLAY
290
0
9
$PDMODE
70
0
9
$PDSIZE
40
0
9
$PLINEGEN
70
0
0
ENDSEC
0
SECTION
2
CLASSES
0
CLASS
1
RASTERVARIABLES
2
AcDbRasterVariables
3
ISM
90
0
280
0
281
0
0
ENDSEC
0
SECTION
2
TABLES
0
TABLE
2
VPORT
5
186
100
AcDbSymbolTable
0
VPORT
5
1
100
AcDbSymbolTableRecord
100
AcDbViewportTableRecord
2
*Active
70
0
10
0
20
0
11
1
21
1
12
-1
22
1
13
0
23
0
14
0.5
24
0.5
15
10
25
10
16
0
26
0
36
1
17
0
27
0
37
0
0
ENDTAB
0
TABLE
2
LTYPE
5
187
100
AcDbSymbolTable
0
LTYPE
5
14
100
AcDbSymbolTableRecord
100
AcDbLinetypeTableRecord
70
0
2
ByBlock
3

72
65
73
0
40
0
0
LTYPE
5
15
100
AcDbSymbolTableRecord
100
AcDbLinetypeTableRecord
70
0
2
ByLayer
3

72
65
73
0
40
0
0
LTYPE
5
16
100
AcDbSymbolTableRecord
100
AcDbLinetypeTableRecord
70
0
2
CONTINUOUS
3
Solid line
72
65
73
0
40
0
0
LTYPE
5
3B
100
AcDbSymbolTableRecord
100
AcDbLinetypeTableRecord
70
0
2
DASHED
3
__ __ __ __ __ __ __ __ __
72
65
73
2
40
25.72
49
12.86
74
0
49
-12.86
74
0
0
LTYPE
5
3C
100
AcDbSymbolTableRecord
100
AcDbLinetypeTableRecord
70
0
2
HIDDEN
3
_ _ _ _ _ _ _ _ _ _ _ _ _ _ _
72
65
73
2
40
0.5
49
0.25
74
0
49
-0.25
74
0
0
LTYPE
5
3D
100
AcDbSymbolTableRecord
100
AcDbLinetypeTableRecord
70
0
2
PHANTOM
3
____ _ _ ____ _ _ _____ _ _ ____
72
65
73
6
40
50.5
49
18
74
0
49
-6.5
74
0
49
6.5
74
0
49
-6.5
74
0
49
6.5
74
0
49
-6.5
74
0
0
LTYPE
5
3E
100
AcDbSymbolTableRecord
100
AcDbLinetypeTableRecord
70
0
2
CENTER
3
____ _ ____ _ ____ _ ____
72
65
73
4
40
47.5
49
22
74
0
49
-8.5
74
0
49
8.5
74
0
49
-8.5
74
0
0
LTYPE
5
3F
100
AcDbSymbolTableRecord
100
AcDbLinetypeTableRecord
70
0
2
DOT
3
.........................
72
65
73
2
40
10
49
0
74
0
49
-10
74
0
0
LTYPE
5
40
100
AcDbSymbolTableRecord
100
AcDbLinetypeTableRecord
70
0
2
DASHDOT
3
_._._._._._._._._._._._._._._._.
72
65
73
4
40
70
49
31
74
0
49
-13
74
0
49
13
74
0
49
-13
74
0
0
ENDTAB
0
TABLE
2
LAYER
5
188
100
AcDbSymbolTable
0
LAYER
5
10
100
AcDbSymbolTableRecord
100
AcDbLayerTableRecord
2
0
70
0
62
7
6
CONTINUOUS
290
1
370
-3
390
0
0
LAYER
5
42
100
AcDbSymbolTableRecord
100
AcDbLayerTableRecord
2
80
70
0
62
-6
6
CONTINUOUS
290
1
370
-3
390
0
0
LAYER
5
44
100
AcDbSymbolTableRecord
100
AcDbLayerTableRecord
2
81
70
0
62
-3
6
CONTINUOUS
290
1
370
-3
390
0
0
LAYER
5
46
100
AcDbSymbolTableRecord
100
AcDbLayerTableRecord
2
1
70
0
62
4
6
CONTINUOUS
290
1
370
-3
390
0
0
LAYER
5
48
100
AcDbSymbolTableRecord
100
AcDbLayerTableRecord
2
2
70
0
62
7
6
CONTINUOUS
290
1
370
-3
390
0
0
LAYER
5
5B
100
AcDbSymbolTableRecord
100
AcDbLayerTableRecord
2
4
70
0
62
-2
6
CENTER
290
1
370
-3
390
0
0
LAYER
5
172
100
AcDbSymbolTableRecord
100
AcDbLayerTableRecord
2
SK1
70
0
62
4
6
CONTINUOUS
290
1
370
-3
390
0
0
LAYER
5
173
100
AcDbSymbolTableRecord
100
AcDbLayerTableRecord
2
SK4
70
0
62
2
6
CENTER
290
1
370
-3
390
0
0
LAYER
5
174
100
AcDbSymbolTableRecord
100
AcDbLayerTableRecord
2
SK6
70
0
62
5
6
CONTINUOUS
290
1
370
-3
390
0
0
LAYER
5
175
100
AcDbSymbolTableRecord
100
AcDbLayerTableRecord
2
SK2
70
0
62
7
6
CONTINUOUS
290
1
370
-3
390
0
0
ENDTAB
0
TABLE
2
STYLE
5
189
100
AcDbSymbolTable
0
STYLE
5
11
100
AcDbSymbolTableRecord
100
AcDbTextStyleTableRecord
2
Standard
3
txt
70
0
71
0
40
0
41
1
42
0
50
0
0
STYLE
5
EE
100
AcDbSymbolTableRecord
100
AcDbTextStyleTableRecord
2
DEFAULT
3
simplex.shx
70
0
71
0
40
0
41
1
42
0
50
0
0
STYLE
5
111
100
AcDbSymbolTableRecord
100
AcDbTextStyleTableRecord
2
DWGDirectTextStyle
3
SIMPLEX
70
0
71
0
40
0
41
1
42
0
50
0
0
ENDTAB
0
TABLE
2
DIMSTYLE
5
18a
100
AcDbSymbolTable
100
AcDbDimStyleTable
0
DIMSTYLE
105
27
100
AcDbSymbolTableRecord
100
AcDbDimStyleTableRecord
2
Standard
70
0
3
<>
41
0.18
42
0.0625
44
0.18
140
0.18
147
0.09
73
0
74
0
77
1
271
2
275
0
278
52
280
0
340
11
0
ENDTAB
0
TABLE
2
VIEW
5
18b
100
AcDbSymbolTable
0
ENDTAB
0
TABLE
2
UCS
5
18c
100
AcDbSymbolTable
0
ENDTAB
0
TABLE
2
APPID
5
18d
100
AcDbSymbolTable
0
APPID
5
12
100
AcDbSymbolTableRecord
100
AcDbRegAppTableRecord
2
ACAD
70
0
0
ENDTAB
0
TABLE
2
BLOCK_RECORD
5
18e
100
AcDbSymbolTable
0
BLOCK_RECORD
5
1F
100
AcDbSymbolTableRecord
100
AcDbBlockTableRecord
2
*Model_Space
340
0
70
0
0
BLOCK_RECORD
5
1B
100
AcDbSymbolTableRecord
100
AcDbBlockTableRecord
2
*Paper_Space
340
0
70
0
0
BLOCK_RECORD
5
23
100
AcDbSymbolTableRecord
100
AcDbBlockTableRecord
2
*Paper_Space0
340
0
70
0
0
BLOCK_RECORD
5
113
100
AcDbSymbolTableRecord
100
AcDbBlockTableRecord
2
DimnDraft3D1
340
0
70
0
0
BLOCK_RECORD
5
121
100
AcDbSymbolTableRecord
100
AcDbBlockTableRecord
2
_CLOSED
340
0
70
0
0
BLOCK_RECORD
5
128
100
AcDbSymbolTableRecord
100
AcDbBlockTableRecord
2
DimnDraft3D2
340
0
70
0
0
BLOCK_RECORD
5
137
100
AcDbSymbolTableRecord
100
AcDbBlockTableRecord
2
DimnDraft3D3
340
0
70
0
0
BLOCK_RECORD
5
145
100
AcDbSymbolTableRecord
100
AcDbBlockTableRecord
2
DimnDraft3D4
340
0
70
0
0
ENDTAB
0
ENDSEC
0
SECTION
2
BLOCKS
0
BLOCK
5
20
100
AcDbEntity
8
0
100
AcDbBlockBegin
2
*Model_Space
70
0
10
0
20
0
30
0
3
*Model_Space
0
ENDBLK
5
21
100
AcDbEntity
8
0
100
AcDbBlockEnd
0
BLOCK
5
1C
100
AcDbEntity
8
0
100
AcDbBlockBegin
2
*Paper_Space
70
0
10
0
20
0
30
0
3
*Paper_Space
0
ENDBLK
5
1D
100
AcDbEntity
8
0
100
AcDbBlockEnd
0
BLOCK
5
24
100
AcDbEntity
8
0
100
AcDbBlockBegin
2
*Paper_Space0
70
0
10
0
20
0
30
0
3
*Paper_Space0
0
ENDBLK
5
25
100
AcDbEntity
8
0
100
AcDbBlockEnd
0
BLOCK
5
11E
100
AcDbEntity
8
0
100
AcDbBlockBegin
2
DimnDraft3D1
70
0
10
0
20
0
30
0
3
DimnDraft3D1
0
MTEXT
5
114
100
AcDbEntity
8
2
62
256
6
ByLayer
370
-1
48
1
60
0
100
AcDbMText
10
111.055
20
-11.925658
30
0
210
0
220
0
230
1
1
\W01.000;\fsimplex.shx,bigfont.shx;17.0 
40
4.5
41
0
44
1.084337
50
90
71
7
72
5
7
DEFAULT
0
LINE
5
115
100
AcDbEntity
8
2
62
256
6
ByLayer
370
-1
48
1
60
0
100
AcDbLine
10
101.93
20
-16.9
30
0
11
114.18
21
-16.9
31
0
39
0
210
0
220
0
230
1
0
LINE
5
116
100
AcDbEntity
8
2
62
256
6
ByLayer
370
-1
48
1
60
0
100
AcDbLine
10
101.93
20
0
30
0
11
114.18
21
0
31
0
39
0
210
0
220
0
230
1
0
LINE
5
117
100
AcDbEntity
8
2
62
256
6
ByLayer
370
-1
48
1
60
0
100
AcDbLine
10
112.18
20
-28.15
30
0
11
112.18
21
11.25
31
0
39
0
210
0
220
0
230
1
0
LINE
5
118
100
AcDbEntity
8
2
62
256
6
ByLayer
370
-1
48
1
60
0
100
AcDbLine
10
112.18
20
-16.9
30
0
11
112.597997
21
-20.074998
31
0
39
0
210
0
220
0
230
1
0
LINE
5
119
100
AcDbEntity
8
2
62
256
6
ByLayer
370
-1
48
1
60
0
100
AcDbLine
10
112.18
20
-16.9
30
0
11
111.762003
21
-20.075002
31
0
39
0
210
0
220
0
230
1
0
LINE
5
11A
100
AcDbEntity
8
2
62
256
6
ByLayer
370
-1
48
1
60
0
100
AcDbLine
10
112.597997
20
-20.074998
30
0
11
111.762003
21
-20.075002
31
0
39
0
210
0
220
0
230
1
0
LINE
5
11B
100
AcDbEntity
8
2
62
256
6
ByLayer
370
-1
48
1
60
0
100
AcDbLine
10
112.18
20
0
30
0
11
111.762003
21
3.174998
31
0
39
0
210
0
220
0
230
1
0
LINE
5
11C
100
AcDbEntity
8
2
62
256
6
ByLayer
370
-1
48
1
60
0
100
AcDbLine
10
112.18
20
0
30
0
11
112.597997
21
3.175002
31
0
39
0
210
0
220
0
230
1
0
LINE
5
11D
100
AcDbEntity
8
2
62
256
6
ByLayer
370
-1
48
1
60
0
100
AcDbLine
10
111.762003
20
3.174998
30
0
11
112.597997
21
3.175002
31
0
39
0
210
0
220
0
230
1
0
ENDBLK
5
11F
100
AcDbEntity
8
0
100
AcDbBlockEnd
0
BLOCK
5
122
100
AcDbEntity
8
0
100
AcDbBlockBegin
2
_CLOSED
70
0
10
0
20
0
30
0
3
_CLOSED
0
LINE
5
124
100
AcDbEntity
8
0
62
256
6
ByLayer
370
-2
48
1
60
0
100
AcDbLine
10
-1
20
0.166667
30
0
11
0
21
0
31
0
39
0
210
0
220
0
230
1
0
LINE
5
125
100
AcDbEntity
8
0
62
256
6
ByLayer
370
-2
48
1
60
0
100
AcDbLine
10
0
20
0
30
0
11
-1
21
-0.166667
31
0
39
0
210
0
220
0
230
1
0
LINE
5
126
100
AcDbEntity
8
0
62
256
6
ByLayer
370
-2
48
1
60
0
100
AcDbLine
10
-1
20
0.166667
30
0
11
-1
21
-0.166667
31
0
39
0
210
0
220
0
230
1
0
LINE
5
127
100
AcDbEntity
8
0
62
256
6
ByLayer
370
-2
48
1
60
0
100
AcDbLine
10
0
20
0
30
0
11
-1
21
0
31
0
39
0
210
0
220
0
230
1
0
ENDBLK
5
123
100
AcDbEntity
8
0
100
AcDbBlockEnd
0
BLOCK
5
134
100
AcDbEntity
8
0
100
AcDbBlockBegin
2
DimnDraft3D2
70
0
10
0
20
0
30
0
3
DimnDraft3D2
0
MTEXT
5
129
100
AcDbEntity
8
SK2
62
256
6
ByLayer
370
-1
48
1
60
0
100
AcDbMText
10
-212.195
20
-3.659211
30
0
210
0
220
0
230
1
1
\W01.000;\fsimplex.shx,bigfont.shx;%%c25 
40
4.5
41
0
44
1.084337
50
90
71
7
72
5
7
DEFAULT
0
LINE
5
12B
100
AcDbEntity
8
SK2
62
256
6
ByLayer
370
-1
48
1
60
0
100
AcDbLine
10
-203.32
20
-12.49125
30
0
11
-213.07
21
-12.49125
31
0
39
0
210
0
220
0
230
1
0
LINE
5
12C
100
AcDbEntity
8
SK2
62
256
6
ByLayer
370
-1
48
1
60
0
100
AcDbLine
10
-203.32
20
12.49125
30
0
11
-213.07
21
12.49125
31
0
39
0
210
0
220
0
230
1
0
LINE
5
12D
100
AcDbEntity
8
SK2
62
256
6
ByLayer
370
-1
48
1
60
0
100
AcDbLine
10
-211.07
20
-12.49125
30
0
11
-211.07
21
12.49125
31
0
39
0
210
0
220
0
230
1
0
LINE
5
12E
100
AcDbEntity
8
SK2
62
256
6
ByLayer
370
-1
48
1
60
0
100
AcDbLine
10
-211.07
20
-12.49125
30
0
11
-211.487997
21
-9.316252
31
0
39
0
210
0
220
0
230
1
0
LINE
5
12F
100
AcDbEntity
8
SK2
62
256
6
ByLayer
370
-1
48
1
60
0
100
AcDbLine
10
-211.07
20
-12.49125
30
0
11
-210.652003
21
-9.316248
31
0
39
0
210
0
220
0
230
1
0
LINE
5
130
100
AcDbEntity
8
SK2
62
256
6
ByLayer
370
-1
48
1
60
0
100
AcDbLine
10
-211.487997
20
-9.316252
30
0
11
-210.652003
21
-9.316248
31
0
39
0
210
0
220
0
230
1
0
LINE
5
131
100
AcDbEntity
8
SK2
62
256
6
ByLayer
370
-1
48
1
60
0
100
AcDbLine
10
-211.07
20
12.49125
30
0
11
-210.652003
21
9.316252
31
0
39
0
210
0
220
0
230
1
0
LINE
5
132
100
AcDbEntity
8
SK2
62
256
6
ByLayer
370
-1
48
1
60
0
100
AcDbLine
10
-211.07
20
12.49125
30
0
11
-211.487997
21
9.316248
31
0
39
0
210
0
220
0
230
1
0
LINE
5
133
100
AcDbEntity
8
SK2
62
256
6
ByLayer
370
-1
48
1
60
0
100
AcDbLine
10
-210.652003
20
9.316252
30
0
11
-211.487997
21
9.316248
31
0
39
0
210
0
220
0
230
1
0
ENDBLK
5
135
100
AcDbEntity
8
0
100
AcDbBlockEnd
0
BLOCK
5
142
100
AcDbEntity
8
0
100
AcDbBlockBegin
2
DimnDraft3D3
70
0
10
0
20
0
30
0
3
DimnDraft3D3
0
MTEXT
5
138
100
AcDbEntity
8
SK2
62
256
6
ByLayer
370
-1
48
1
60
0
100
AcDbMText
10
-56.385132
20
-33.025
30
0
210
0
220
0
230
1
1
\W01.000;\fsimplex.shx,bigfont.shx;300.0 
40
4.5
41
0
44
1.084337
50
0
71
7
72
5
7
DEFAULT
0
LINE
5
139
100
AcDbEntity
8
SK2
62
256
6
ByLayer
370
-1
48
1
60
0
100
AcDbLine
10
-201.32
20
-14.49125
30
0
11
-201.32
21
-36.15
31
0
39
0
210
0
220
0
230
1
0
LINE
5
13A
100
AcDbEntity
8
SK2
62
256
6
ByLayer
370
-1
48
1
60
0
100
AcDbLine
10
99.93
20
-18.9
30
0
11
99.93
21
-36.15
31
0
39
0
210
0
220
0
230
1
0
LINE
5
13B
100
AcDbEntity
8
SK2
62
256
6
ByLayer
370
-1
48
1
60
0
100
AcDbLine
10
-201.32
20
-34.15
30
0
11
99.93
21
-34.15
31
0
39
0
210
0
220
0
230
1
0
LINE
5
13C
100
AcDbEntity
8
SK2
62
256
6
ByLayer
370
-1
48
1
60
0
100
AcDbLine
10
-201.32
20
-34.15
30
0
11
-198.145002
21
-33.732003
31
0
39
0
210
0
220
0
230
1
0
LINE
5
13D
100
AcDbEntity
8
SK2
62
256
6
ByLayer
370
-1
48
1
60
0
100
AcDbLine
10
-201.32
20
-34.15
30
0
11
-198.144998
21
-34.567997
31
0
39
0
210
0
220
0
230
1
0
LINE
5
13E
100
AcDbEntity
8
SK2
62
256
6
ByLayer
370
-1
48
1
60
0
100
AcDbLine
10
-198.145002
20
-33.732003
30
0
11
-198.144998
21
-34.567997
31
0
39
0
210
0
220
0
230
1
0
LINE
5
13F
100
AcDbEntity
8
SK2
62
256
6
ByLayer
370
-1
48
1
60
0
100
AcDbLine
10
99.93
20
-34.15
30
0
11
96.755002
21
-34.567997
31
0
39
0
210
0
220
0
230
1
0
LINE
5
140
100
AcDbEntity
8
SK2
62
256
6
ByLayer
370
-1
48
1
60
0
100
AcDbLine
10
99.93
20
-34.15
30
0
11
96.754998
21
-33.732003
31
0
39
0
210
0
220
0
230
1
0
LINE
5
141
100
AcDbEntity
8
SK2
62
256
6
ByLayer
370
-1
48
1
60
0
100
AcDbLine
10
96.755002
20
-34.567997
30
0
11
96.754998
21
-33.732003
31
0
39
0
210
0
220
0
230
1
0
ENDBLK
5
143
100
AcDbEntity
8
0
100
AcDbBlockEnd
0
BLOCK
5
150
100
AcDbEntity
8
0
100
AcDbBlockBegin
2
DimnDraft3D4
70
0
10
0
20
0
30
0
3
DimnDraft3D4
0
MTEXT
5
146
100
AcDbEntity
8
2
62
256
6
ByLayer
370
-1
48
1
60
0
100
AcDbMText
10
105.043522
20
37.237403
30
0
210
0
220
0
230
1
1
\W01.000;\fsimplex.shx,bigfont.shx;117%%d30' 
40
4.5
41
0
44
1.084337
50
328.75
71
7
72
5
7
DEFAULT
0
LINE
5
147
100
AcDbEntity
8
2
62
256
6
ByLayer
370
-1
48
1
60
0
100
AcDbLine
10
91.618525
20
-0.933805
30
0
11
72.696454
21
35.415155
31
0
39
0
210
0
220
0
230
1
0
LINE
5
148
100
AcDbEntity
8
2
62
256
6
ByLayer
370
-1
48
1
60
0
100
AcDbLine
10
101.93
20
0
30
0
11
131.058824
21
0
31
0
39
0
210
0
220
0
230
1
0
ARC
5
149
100
AcDbEntity
8
2
62
256
6
ByLayer
370
-1
48
1
60
0
100
AcDbCircle
39
0
10
91.132417
20
0
30
0
40
37.9264068640928
210
0
220
0
230
1
100
AcDbArc
50
0
51
117.5
0
LINE
5
14A
100
AcDbEntity
8
2
62
256
6
ByLayer
370
-1
48
1
60
0
100
AcDbLine
10
73.619951
20
33.641134
30
0
11
76.281043
21
35.422686
31
0
39
0
210
0
220
0
230
1
0
LINE
5
14B
100
AcDbEntity
8
2
62
256
6
ByLayer
370
-1
48
1
60
0
100
AcDbLine
10
73.619951
20
33.641134
30
0
11
76.651471
21
34.67324
31
0
39
0
210
0
220
0
230
1
0
LINE
5
14C
100
AcDbEntity
8
2
62
256
6
ByLayer
370
-1
48
1
60
0
100
AcDbLine
10
76.281043
20
35.422686
30
0
11
76.651471
21
34.67324
31
0
39
0
210
0
220
0
230
1
0
LINE
5
14D
100
AcDbEntity
8
2
62
256
6
ByLayer
370
-1
48
1
60
0
100
AcDbLine
10
129.058824
20
0
30
0
11
128.574514
21
3.165562
31
0
39
0
210
0
220
0
230
1
0
LINE
5
14E
100
AcDbEntity
8
2
62
256
6
ByLayer
370
-1
48
1
60
0
100
AcDbLine
10
129.058824
20
0
30
0
11
129.410324
21
3.183049
31
0
39
0
210
0
220
0
230
1
0
LINE
5
14F
100
AcDbEntity
8
2
62
256
6
ByLayer
370
-1
48
1
60
0
100
AcDbLine
10
128.574514
20
3.165562
30
0
11
129.410324
21
3.183049
31
0
39
0
210
0
220
0
230
1
0
ENDBLK
5
151
100
AcDbEntity
8
0
100
AcDbBlockEnd
0
ENDSEC
0
SECTION
2
ENTITIES
0
ELLIPSE
5
8C
100
AcDbEntity
8
1
62
256
6
ByLayer
370
-1
48
1
60
0
100
AcDbEllipse
10
77.735678
20
1.936637
30
0
11
-1.28756925122664
21
-0.949823890674299
31
0
210
0
220
0
230
1
40
0.137297
41
-1.59233179491876
42
-0.0215354681240833
0
ELLIPSE
5
8D
100
AcDbEntity
8
1
62
256
6
ByLayer
370
-1
48
1
60
0
100
AcDbEllipse
10
-885.866451
20
-0.001155
30
0
11
1567.5242480782
21
-12.3952090237088
31
0
210
0
220
0
230
-1
40
0.00098
41
0.912460098474773
42
0.918615444210294
0
ELLIPSE
5
8E
100
AcDbEntity
8
1
62
256
6
ByLayer
370
-1
48
1
60
0
100
AcDbEllipse
10
72.728928
20
-6.401788
30
0
11
-2.83843466617031
21
-1.4775955623521
31
0
210
0
220
0
230
1
40
0.9903
41
1.08682745411592
42
2.33001455141243
0
ELLIPSE
5
8F
100
AcDbEntity
8
1
62
256
6
ByLayer
370
-1
48
1
60
0
100
AcDbEllipse
10
79.203743
20
3.934531
30
0
11
2.15961373891636
21
-1.11664614072719
31
0
210
0
220
0
230
-1
40
0.001271
41
-0.863520133508087
42
-0.795837990928929
0
ELLIPSE
5
90
100
AcDbEntity
8
1
62
256
6
ByLayer
370
-1
48
1
60
0
100
AcDbEllipse
10
84.597784
20
-12.997968
30
0
11
3.72544549934852
21
1.93934417558712
31
0
210
0
220
0
230
1
40
0.9903
41
0.863855704168365
42
0.948489302465468
0
ELLIPSE
5
91
100
AcDbEntity
8
1
62
256
6
ByLayer
370
-1
48
1
60
0
100
AcDbEllipse
10
75.483042
20
-0.58412
30
0
11
1.05014513430475
21
1.22080403634155
31
0
210
0
220
0
230
-1
40
0.952491
41
0.20983035281117
42
1.17553194260028
0
ELLIPSE
5
92
100
AcDbEntity
8
1
62
256
6
ByLayer
370
-1
48
1
60
0
100
AcDbEllipse
10
75.846842
20
-7.620827
30
0
11
-1.51027730548079
21
0.528263627888279
31
0
210
0
220
0
230
1
40
0.095643
41
-1.46937184198149
42
-0.817663192830254
0
ELLIPSE
5
93
100
AcDbEntity
8
1
62
256
6
ByLayer
370
-1
48
1
60
0
100
AcDbEllipse
10
102.614794
20
0
30
0
11
34.5216308776653
21
2.57221107671947
31
0
210
0
220
0
230
-1
40
0.354084
41
2.5823793959692
42
2.94792916541479
0
ELLIPSE
5
94
100
AcDbEntity
8
1
62
256
6
ByLayer
370
-1
48
1
60
0
100
AcDbEllipse
10
84.870452
20
-13.521759
30
0
11
-3.72544549934852
21
-1.93934417558712
31
0
210
0
220
0
230
1
40
0.9903
41
-2.01041588497642
42
-1.48653816176864
0
ELLIPSE
5
95
100
AcDbEntity
8
1
62
256
6
ByLayer
370
-1
48
1
60
0
100
AcDbEllipse
10
79.098676
20
4.136348
30
0
11
1.24181516644951
21
0.646448058529043
31
0
210
0
220
0
230
1
40
0.9903
41
-2.8934722596708
42
-1.4919294743172
0
ELLIPSE
5
96
100
AcDbEntity
8
1
62
256
6
ByLayer
370
-1
48
1
60
0
100
AcDbEllipse
10
79.098676
20
4.136348
30
0
11
1.24181516644951
21
0.646448058529043
31
0
210
0
220
0
230
1
40
0.9903
41
-1.07566824264861
42
-0.248152996078545
0
ELLIPSE
5
97
100
AcDbEntity
8
1
62
256
6
ByLayer
370
-1
48
1
60
0
100
AcDbEllipse
10
124.445381
20
0
30
0
11
194.296214852696
21
1.54896569941059
31
0
210
0
220
0
230
-1
40
0.063794
41
-1.85037645888021
42
-1.77359976550252
0
ELLIPSE
5
98
100
AcDbEntity
8
1
62
256
6
ByLayer
370
-1
48
1
60
0
100
AcDbEllipse
10
79.413047
20
3.532448
30
0
11
-1.24181516644951
21
-0.646448058529043
31
0
210
0
220
0
230
1
40
0.9903
41
2.36957993966881
42
0.215935214941504
0
ELLIPSE
5
99
100
AcDbEntity
8
1
62
256
6
ByLayer
370
-1
48
1
60
0
100
AcDbEllipse
10
65.013042
20
-18.111828
30
0
11
7.62829316533272
21
3.97103807382127
31
0
210
0
220
0
230
1
40
0.9903
41
1.08682745411592
42
1.40612293815817
0
ELLIPSE
5
9A
100
AcDbEntity
8
1
62
256
6
ByLayer
370
-1
48
1
60
0
100
AcDbEllipse
10
79.140378
20
4.056239
30
0
11
-1.24181516644951
21
-0.646448058529043
31
0
210
0
220
0
230
1
40
0.9903
41
2.10804706717881
42
2.27987925708069
0
ELLIPSE
5
9B
100
AcDbEntity
8
1
62
256
6
ByLayer
370
-1
48
1
60
0
100
AcDbEllipse
10
79.140378
20
4.056239
30
0
11
-1.24181516644951
21
-0.646448058529043
31
0
210
0
220
0
230
1
40
0.9903
41
0.309396706415714
42
1.59578324824992
0
ELLIPSE
5
9C
100
AcDbEntity
8
1
62
256
6
ByLayer
370
-1
48
1
60
0
100
AcDbEllipse
10
77.300282
20
0
30
0
11
9.16116380857942
21
-12.4902557212271
31
0
210
0
220
0
230
-1
40
0.017203
41
1.98448201777643
42
2.60563322714317
0
ELLIPSE
5
9D
100
AcDbEntity
8
1
62
256
6
ByLayer
370
-1
48
1
60
0
100
AcDbEllipse
10
79.737931
20
1.837494
30
0
11
1.44073289318626
21
0.749998072838848
31
0
210
0
220
0
230
1
40
0.9903
41
2.13825372442101
42
-2.53072741539176
0
ELLIPSE
5
9E
100
AcDbEntity
8
1
62
256
6
ByLayer
370
-1
48
1
60
0
100
AcDbEllipse
10
96.29032
20
-1.37036
30
0
11
3.72544549934851
21
1.93934417558711
31
0
210
0
220
0
230
1
40
0.9903
41
2.80396852926734
42
3.0157914767847
0
ELLIPSE
5
9F
100
AcDbEntity
8
1
62
256
6
ByLayer
370
-1
48
1
60
0
100
AcDbEllipse
10
75.155521
20
0.045043
30
0
11
1.41921733308516
21
0.738797781176049
31
0
210
0
220
0
230
1
40
0.9903
41
-1.16262471318907E-05
42
0.154123487611747
0
ELLIPSE
5
A0
100
AcDbEntity
8
1
62
256
6
ByLayer
370
-1
48
1
60
0
100
AcDbEllipse
10
75.052869
20
0.242235
30
0
11
-2.83843466617031
21
-1.4775955623521
31
0
210
0
220
0
230
1
40
0.9903
41
2.33001455141243
42
-2.98746916597805
0
ELLIPSE
5
A1
100
AcDbEntity
8
1
62
256
6
ByLayer
370
-1
48
1
60
0
100
AcDbEllipse
10
79.465263
20
2.361286
30
0
11
-1.33051624976734
21
-0.692622919852547
31
0
210
0
220
0
230
1
40
0.9903
41
0.126589225244944
42
0.610865238198031
0
ELLIPSE
5
A2
100
AcDbEntity
8
1
62
256
6
ByLayer
370
-1
48
1
60
0
100
AcDbEllipse
10
73.178587
20
-7.265576
30
0
11
1.05014513430447
21
1.22080403633803
31
0
210
0
220
0
230
-1
40
0.952491
41
1.17553194259875
42
1.97482239690467
0
ELLIPSE
5
A3
100
AcDbEntity
8
1
62
256
6
ByLayer
370
-1
48
1
60
0
100
AcDbEllipse
10
65.184216
20
-9.774584
30
0
11
9.79685083057902E-17
21
1.6
31
0
210
0
220
0
230
1
40
0.06465
41
0.869625779255536
42
1.44723721227701
0
ELLIPSE
5
A4
100
AcDbEntity
8
1
62
256
6
ByLayer
370
-1
48
1
60
0
100
AcDbEllipse
10
72.806082
20
-9.774584
30
0
11
9.79685083057902E-17
21
1.6
31
0
210
0
220
0
230
1
40
0.06465
41
0.91319127950542
42
1.44723721227701
0
ELLIPSE
5
A5
100
AcDbEntity
8
1
62
256
6
ByLayer
370
-1
48
1
60
0
100
AcDbEllipse
10
79.638488
20
2.028524
30
0
11
-1.33051624976734
21
-0.692622919852547
31
0
210
0
220
0
230
1
40
0.9903
41
-0.549738759469828
42
0.610865238197981
0
ELLIPSE
5
A6
100
AcDbEntity
8
1
62
256
6
ByLayer
370
-1
48
1
60
0
100
AcDbEllipse
10
78.170784
20
-0.976804
30
0
11
-1.51027730548079
21
0.528263627888279
31
0
210
0
220
0
230
1
40
0.095643
41
-1.46937184198145
42
-0.701375241962682
0
ELLIPSE
5
A7
100
AcDbEntity
8
1
62
256
6
ByLayer
370
-1
48
1
60
0
100
AcDbEllipse
10
80.57297
20
2.348699
30
0
11
0.753951612622041
21
0.250299172792849
31
0
210
0
220
0
230
-1
40
0.993049
41
3.10587746775994
42
-0.894022143065062
0
ELLIPSE
5
A8
100
AcDbEntity
8
1
62
256
6
ByLayer
370
-1
48
1
60
0
100
AcDbEllipse
10
80.538604
20
3.148847
30
0
11
0.80977342203973
21
-0.369928483949904
31
0
210
0
220
0
230
-1
40
0.090638
41
-1.9879304474587
42
-1.21597314280589
0
ELLIPSE
5
A9
100
AcDbEntity
8
1
62
256
6
ByLayer
370
-1
48
1
60
0
100
AcDbEllipse
10
89.796344
20
-6.762413
30
0
11
2.66103249953464
21
1.38524583970508
31
0
210
0
220
0
230
1
40
0.9903
41
2.84769008533139
42
-2.98959379211732E-16
0
ELLIPSE
5
AA
100
AcDbEntity
8
1
62
256
6
ByLayer
370
-1
48
1
60
0
100
AcDbEllipse
10
89.796344
20
-6.762413
30
0
11
2.66103249953464
21
1.38524583970508
31
0
210
0
220
0
230
1
40
0.9903
41
0
42
0.293869781474733
0
ELLIPSE
5
AB
100
AcDbEntity
8
1
62
256
6
ByLayer
370
-1
48
1
60
0
100
AcDbEllipse
10
86.622305
20
-10.109613
30
0
11
0.338050922538768
21
0.216750630294581
31
0
210
0
220
0
230
-1
40
0.986693
41
2.6221153641435
42
-3.05260386605103
0
ELLIPSE
5
AC
100
AcDbEntity
8
1
62
256
6
ByLayer
370
-1
48
1
60
0
100
AcDbEllipse
10
89.861785
20
-6.888123
30
0
11
2.70053478346823
21
1.40580942714245
31
0
210
0
220
0
230
1
40
0.9903
41
0
42
6.28318530717959
0
ELLIPSE
5
AD
100
AcDbEntity
8
1
62
256
6
ByLayer
370
-1
48
1
60
0
100
AcDbEllipse
10
89.786001
20
-6.742543
30
0
11
2.61176051938549
21
1.35959647032399
31
0
210
0
220
0
230
1
40
0.9903
41
2.65762386258493
42
-3.04599375868619E-16
0
ELLIPSE
5
AE
100
AcDbEntity
8
1
62
256
6
ByLayer
370
-1
48
1
60
0
100
AcDbEllipse
10
89.786001
20
-6.742543
30
0
11
2.61176051938549
21
1.35959647032399
31
0
210
0
220
0
230
1
40
0.9903
41
0
42
0.625897033574002
0
ELLIPSE
5
AF
100
AcDbEntity
8
1
62
256
6
ByLayer
370
-1
48
1
60
0
100
AcDbEllipse
10
89.786001
20
-6.742543
30
0
11
2.61176051938549
21
1.35959647032399
31
0
210
0
220
0
230
1
40
0.9903
41
2.51556490990132
42
2.65762386258493
0
ELLIPSE
5
B0
100
AcDbEntity
8
1
62
256
6
ByLayer
370
-1
48
1
60
0
100
AcDbEllipse
10
93.101264
20
-3.666632
30
0
11
0.338050923339696
21
0.216750628712299
31
0
210
0
220
0
230
-1
40
0.986693
41
-0.519477293900615
42
0.0889887832266964
0
ELLIPSE
5
B1
100
AcDbEntity
8
1
62
256
6
ByLayer
370
-1
48
1
60
0
100
AcDbEllipse
10
99.150599
20
-16.124944
30
0
11
0.753951612624942
21
0.250299172784508
31
0
210
0
220
0
230
-1
40
0.993049
41
-0.0357151858392448
42
2.24757051051329
0
ELLIPSE
5
B2
100
AcDbEntity
8
1
62
256
6
ByLayer
370
-1
48
1
60
0
100
AcDbEllipse
10
80.560274
20
2.64429
30
0
11
0.753951612613868
21
0.250299172815257
31
0
210
0
220
0
230
-1
40
0.993049
41
-2.4053505347125
42
-1.66597944771594
0
ELLIPSE
5
B3
100
AcDbEntity
8
1
62
256
6
ByLayer
370
-1
48
1
60
0
100
AcDbEllipse
10
80.538604
20
3.148847
30
0
11
0.486319111551503
21
1.34797014647091
31
0
210
0
220
0
230
-1
40
0.436418
41
-2.32509047915787
42
-1.86463032198391
0
ELLIPSE
5
B4
100
AcDbEntity
8
1
62
256
6
ByLayer
370
-1
48
1
60
0
100
AcDbEllipse
10
91.572875
20
-7.157194
30
0
11
-0.608489431560261
21
-0.316759548679231
31
0
210
0
220
0
230
1
40
0.9903
41
-0.743160205938231
42
-1.12713802473639E-05
0
ELLIPSE
5
B5
100
AcDbEntity
8
1
62
256
6
ByLayer
370
-1
48
1
60
0
100
AcDbEllipse
10
89.842705
20
-6.85147
30
0
11
1.4870736618233
21
0.774121550088534
31
0
210
0
220
0
230
1
40
0.9903
41
2.92063594940918
42
-2.30977071121099
0
ELLIPSE
5
B6
100
AcDbEntity
8
1
62
256
6
ByLayer
370
-1
48
1
60
0
100
AcDbEllipse
10
89.75128
20
-6.675846
30
0
11
-1.07017857022953
21
-0.557099701868066
31
0
210
0
220
0
230
1
40
0.9903
41
-2.74175062316269
42
-2.1067046713738
0
ELLIPSE
5
B7
100
AcDbEntity
8
1
62
256
6
ByLayer
370
-1
48
1
60
0
100
AcDbEllipse
10
91.086404
20
-5.348137
30
0
11
-0.608489431560261
21
-0.316759548679231
31
0
210
0
220
0
230
1
40
0.9903
41
-0.485828715822204
42
-9.42049979131578E-06
0
ELLIPSE
5
B8
100
AcDbEntity
8
1
62
256
6
ByLayer
370
-1
48
1
60
0
100
AcDbEllipse
10
89.392095
20
-8.00536
30
0
11
-0.259007163288041
21
-0.134830595064629
31
0
210
0
220
0
230
1
40
0.9903
41
0.31965070757348
42
2.1380160877568
0
ELLIPSE
5
B9
100
AcDbEntity
8
1
62
256
6
ByLayer
370
-1
48
1
60
0
100
AcDbEllipse
10
89.825295
20
-6.818027
30
0
11
1.07017857022953
21
0.557099701868068
31
0
210
0
220
0
230
1
40
0.9903
41
0.236399985687813
42
0.3744652525101
0
ELLIPSE
5
BA
100
AcDbEntity
8
1
62
256
6
ByLayer
370
-1
48
1
60
0
100
AcDbEllipse
10
89.842705
20
-6.85147
30
0
11
1.4870736618233
21
0.774121550088534
31
0
210
0
220
0
230
1
40
0.9903
41
-2.30977071121099
42
-1.26536370769582
0
ELLIPSE
5
BB
100
AcDbEntity
8
1
62
256
6
ByLayer
370
-1
48
1
60
0
100
AcDbEllipse
10
89.75128
20
-6.675846
30
0
11
1.07017857022951
21
0.557099701868057
31
0
210
0
220
0
230
1
40
0.9903
41
-2.90519266790319
42
-2.76712740107816
0
ELLIPSE
5
BC
100
AcDbEntity
8
1
62
256
6
ByLayer
370
-1
48
1
60
0
100
AcDbEllipse
10
89.75128
20
-6.675846
30
0
11
-1.07017857022953
21
-0.557099701868066
31
0
210
0
220
0
230
1
40
0.9903
41
-0.447608352812013
42
0.236399985686535
0
ELLIPSE
5
BD
100
AcDbEntity
8
1
62
256
6
ByLayer
370
-1
48
1
60
0
100
AcDbEllipse
10
89.75128
20
-6.675846
30
0
11
-1.07017857022953
21
-0.557099701868066
31
0
210
0
220
0
230
1
40
0.9903
41
-1.50536516683842
42
-0.894909353060686
0
ELLIPSE
5
BE
100
AcDbEntity
8
1
62
256
6
ByLayer
370
-1
48
1
60
0
100
AcDbEllipse
10
91.572875
20
-7.157194
30
0
11
-0.608489431560261
21
-0.316759548679231
31
0
210
0
220
0
230
1
40
0.9903
41
-1.52715084955895
42
-0.743160205938231
0
ELLIPSE
5
BF
100
AcDbEntity
8
1
62
256
6
ByLayer
370
-1
48
1
60
0
100
AcDbEllipse
10
89.842705
20
-6.85147
30
0
11
1.4870736618233
21
0.774121550088534
31
0
210
0
220
0
230
1
40
0.9903
41
0.83182194237853
42
1.87622894589383
0
ELLIPSE
5
C0
100
AcDbEntity
8
1
62
256
6
ByLayer
370
-1
48
1
60
0
100
AcDbEllipse
10
89.75128
20
-6.675846
30
0
11
-1.07017857022953
21
-0.557099701868066
31
0
210
0
220
0
230
1
40
0.9903
41
0.374465252511637
42
1.35402544413641
0
ELLIPSE
5
C1
100
AcDbEntity
8
1
62
256
6
ByLayer
370
-1
48
1
60
0
100
AcDbEllipse
10
89.825033
20
-6.817523
30
0
11
2.32840343709283
21
1.21209010974196
31
0
210
0
220
0
230
1
40
0.9903
41
0
42
6.28318530717959
0
ELLIPSE
5
C2
100
AcDbEntity
8
1
62
256
6
ByLayer
370
-1
48
1
60
0
100
AcDbEllipse
10
88.416157
20
-8.003555
30
0
11
-0.608489431560261
21
-0.316759548679231
31
0
210
0
220
0
230
1
40
0.9903
41
-2.71454599327267
42
-2.04489869956933
0
ELLIPSE
5
C3
100
AcDbEntity
8
1
62
256
6
ByLayer
370
-1
48
1
60
0
100
AcDbEllipse
10
89.75128
20
-6.675846
30
0
11
-1.07017857022953
21
-0.557099701868066
31
0
210
0
220
0
230
1
40
0.9903
41
2.39843244765155
42
-3.05105504491483
0
ELLIPSE
5
C4
100
AcDbEntity
8
1
62
256
6
ByLayer
370
-1
48
1
60
0
100
AcDbEllipse
10
88.41432
20
-7.033058
30
0
11
-0.259007163288041
21
-0.134830595064629
31
0
210
0
220
0
230
1
40
0.9903
41
0.41843036054787
42
1.09669395402051
0
ELLIPSE
5
C5
100
AcDbEntity
8
1
62
256
6
ByLayer
370
-1
48
1
60
0
100
AcDbEllipse
10
90.235368
20
-8.487274
30
0
11
-0.608489431560261
21
-0.316759548679231
31
0
210
0
220
0
230
1
40
0.9903
41
-1.78756720945348
42
-1.00357656583272
0
ELLIPSE
5
C6
100
AcDbEntity
8
1
62
256
6
ByLayer
370
-1
48
1
60
0
100
AcDbEllipse
10
91.08824
20
-6.318634
30
0
11
-0.259007163288041
21
-0.134830595064629
31
0
210
0
220
0
230
1
40
0.9903
41
1.61444180403012
42
2.79955837495732
0
ELLIPSE
5
C7
100
AcDbEntity
8
1
62
256
6
ByLayer
370
-1
48
1
60
0
100
AcDbEllipse
10
89.842705
20
-6.85147
30
0
11
1.4870736618233
21
0.774121550088534
31
0
210
0
220
0
230
1
40
0.9903
41
-1.26536370769582
42
-0.220956704180669
0
ELLIPSE
5
C8
100
AcDbEntity
8
1
62
256
6
ByLayer
370
-1
48
1
60
0
100
AcDbEllipse
10
88.416157
20
-8.003555
30
0
11
-0.608489431560261
21
-0.316759548679231
31
0
210
0
220
0
230
1
40
0.9903
41
3.14158257874128
42
-2.95777407570867
0
ELLIPSE
5
C9
100
AcDbEntity
8
1
62
256
6
ByLayer
370
-1
48
1
60
0
100
AcDbEllipse
10
90.724356
20
-7.643475
30
0
11
-0.259007163288041
21
-0.134830595064629
31
0
210
0
220
0
230
1
40
0.9903
41
0.570034800515041
42
3.06682319108221
0
ELLIPSE
5
CA
100
AcDbEntity
8
1
62
256
6
ByLayer
370
-1
48
1
60
0
100
AcDbEllipse
10
89.825295
20
-6.818027
30
0
11
1.07017857022953
21
0.557099701868068
31
0
210
0
220
0
230
1
40
0.9903
41
-2.90519266790327
42
-2.76712740107817
0
ELLIPSE
5
CB
100
AcDbEntity
8
1
62
256
6
ByLayer
370
-1
48
1
60
0
100
AcDbEllipse
10
89.842705
20
-6.85147
30
0
11
1.59661949972085
21
0.831147503823079
31
0
210
0
220
0
230
1
40
0.9903
41
0
42
6.28318530717959
0
ELLIPSE
5
CC
100
AcDbEntity
8
1
62
256
6
ByLayer
370
-1
48
1
60
0
100
AcDbEllipse
10
89.75128
20
-6.675846
30
0
11
1.07017857022951
21
0.557099701868057
31
0
210
0
220
0
230
1
40
0.9903
41
-1.78756720945339
42
-0.743160205938225
0
ELLIPSE
5
CD
100
AcDbEntity
8
1
62
256
6
ByLayer
370
-1
48
1
60
0
100
AcDbEllipse
10
90.235368
20
-8.487274
30
0
11
-0.608489431560261
21
-0.316759548679231
31
0
210
0
220
0
230
1
40
0.9903
41
-2.5715578530742
42
-1.78756720945348
0
ELLIPSE
5
CE
100
AcDbEntity
8
1
62
256
6
ByLayer
370
-1
48
1
60
0
100
AcDbEllipse
10
89.842705
20
-6.85147
30
0
11
1.4870736618233
21
0.774121550088534
31
0
210
0
220
0
230
1
40
0.9903
41
1.87622894589383
42
2.92063594940918
0
ELLIPSE
5
CF
100
AcDbEntity
8
1
62
256
6
ByLayer
370
-1
48
1
60
0
100
AcDbEllipse
10
89.842705
20
-6.85147
30
0
11
1.4870736618233
21
0.774121550088534
31
0
210
0
220
0
230
1
40
0.9903
41
-0.220956704180669
42
0.83182194237853
0
ELLIPSE
5
D0
100
AcDbEntity
8
1
62
256
6
ByLayer
370
-1
48
1
60
0
100
AcDbEllipse
10
89.752884
20
-6.678927
30
0
11
2.32840343709285
21
1.21209010974196
31
0
210
0
220
0
230
1
40
0.9903
41
2.65762392952764
42
-3.14155959035281
0
ELLIPSE
5
D1
100
AcDbEntity
8
1
62
256
6
ByLayer
370
-1
48
1
60
0
100
AcDbEllipse
10
89.752884
20
-6.678927
30
0
11
2.32840343709285
21
1.21209010974196
31
0
210
0
220
0
230
1
40
0.9903
41
0
42
2.65762396857192
0
POINT
5
41
100
AcDbEntity
8
80
62
256
6
ByLayer
370
-1
48
1
60
0
100
AcDbPoint
10
0
20
0
30
0
39
0
210
0
220
0
230
1
50
360
0
POINT
5
43
100
AcDbEntity
8
81
62
256
6
ByLayer
370
-1
48
1
60
0
100
AcDbPoint
10
99.93
20
-16.9
30
0
39
0
210
0
220
0
230
1
50
360
0
POINT
5
45
100
AcDbEntity
8
1
62
256
6
ByLayer
370
-1
48
1
60
0
100
AcDbPoint
10
-201.32
20
0
30
0
39
0
210
0
220
0
230
1
50
360
0
POINT
5
47
100
AcDbEntity
8
2
62
256
6
ByLayer
370
-1
48
1
60
0
100
AcDbPoint
10
99.93
20
16.9
30
0
39
0
210
0
220
0
230
1
50
360
0
POINT
5
49
100
AcDbEntity
8
2
62
256
6
ByLayer
370
-1
48
1
60
0
100
AcDbPoint
10
99.550173
20
15.710306
30
0
39
0
210
0
220
0
230
1
50
360
0
SPLINE
5
D2
100
AcDbEntity
8
1
62
256
6
ByLayer
370
-1
48
1
60
0
100
AcDbSpline
70
4
71
3
72
18
73
14
40
0
40
0
40
0
40
0
40
0.163393675379371
40
0.163393675379371
40
0.328466633707635
40
0.328466633707635
40
0.476859667959572
40
0.476859667959572
40
0.623017218311752
40
0.623017218311752
40
0.833505245934808
40
0.833505245934808
40
1
40
1
40
1
40
1
41
1
10
69.3139763021196
20
10.6583781612733
30
0
41
1
10
69.2641701255497
20
10.7305772125371
30
0
41
1
10
69.2325924156995
20
10.8053234970899
30
0
41
1
10
69.2209798747123
20
10.9503226102964
30
0
41
1
10
69.2419270518165
20
11.02248390973
30
0
41
1
10
69.334232037046
20
11.1450250759915
30
0
41
1
10
69.401397058466
20
11.1984670833206
30
0
41
1
10
69.5669532953273
20
11.2888363414366
30
0
41
1
10
69.6665132952833
20
11.3271921388543
30
0
41
1
10
69.9300702654934
20
11.4033750731452
30
0
41
1
10
70.1072607571609
20
11.4352120219684
30
0
41
1
10
70.4336981395847
20
11.4723879003626
30
0
41
1
10
70.5838062231765
20
11.482176595473
30
0
41
1
10
70.7339542965158
20
11.4861241581735
30
0
0
SPLINE
5
D3
100
AcDbEntity
8
1
62
256
6
ByLayer
370
-1
48
1
60
0
100
AcDbSpline
70
4
71
3
72
10
73
6
40
0
40
0
40
0
40
0
40
0.767383240035054
40
0.767383240035054
40
1
40
1
40
1
40
1
41
1
10
62.3842283740187
20
-10.0087500000006
30
0
41
1
10
61.7908625733448
20
-10.0087500000006
30
0
41
1
10
61.1898234568305
20
-10.0087500000006
30
0
41
1
10
60.4607113246659
20
-10.0087500000006
30
0
41
1
10
60.2865422750436
20
-10.0087500000006
30
0
41
1
10
60.1229543740101
20
-10.0087500000006
30
0
0
SPLINE
5
D4
100
AcDbEntity
8
1
62
256
6
ByLayer
370
-1
48
1
60
0
100
AcDbSpline
70
4
71
3
72
8
73
4
40
0
40
0
40
0
40
0
40
1
40
1
40
1
40
1
41
1
10
60.0993228978505
20
-10.0087500000006
30
0
41
1
10
61.5968686918962
20
-9.27042635809721
30
0
41
1
10
63.5240006726458
20
-8.73080713756789
30
0
41
1
10
65.4874839373547
20
-8.74486400121478
30
0
0
SPLINE
5
D5
100
AcDbEntity
8
1
62
256
6
ByLayer
370
-1
48
1
60
0
100
AcDbSpline
70
4
71
3
72
12
73
8
40
0
40
0
40
0
40
0
40
0.0273668274743379
40
0.0273668274743379
40
0.680613691272709
40
0.680613691272709
40
1
40
1
40
1
40
1
41
1
10
73.8349333473805
20
-8.66522186421395
30
0
41
1
10
73.8291112539368
20
-8.66760385198813
30
0
41
1
10
73.8232681060502
20
-8.66995843075736
30
0
41
1
10
73.6791132896134
20
-8.72715942732188
30
0
41
1
10
73.5267744320481
20
-8.7669441281684
30
0
41
1
10
73.2942821095559
20
-8.79555623201702
30
0
41
1
10
73.215872932843
20
-8.80015530316422
30
0
41
1
10
73.137842308672
20
-8.79959741922286
30
0
0
SPLINE
5
D6
100
AcDbEntity
8
1
62
256
6
ByLayer
370
-1
48
1
60
0
100
AcDbSpline
70
4
71
3
72
8
73
4
40
0
40
0
40
0
40
0
40
1
40
1
40
1
40
1
41
1
10
78.3256760340487
20
2.73327926984831
30
0
41
1
10
78.3283758382424
20
2.69963713767984
30
0
41
1
10
78.3321774008411
20
2.66770735064992
30
0
41
1
10
78.3372358307882
20
2.63752094942527
30
0
0
SPLINE
5
D7
100
AcDbEntity
8
SK1
62
256
6
ByLayer
370
-1
48
1
60
0
100
AcDbSpline
70
4
71
3
72
10
73
6
40
0
40
0
40
0
40
0
40
0.5
40
0.5
40
1
40
1
40
1
40
1
41
1
10
-199.32
20
-4.87661015076048
30
0
41
1
10
-199.931278087239
20
-3.31084475816917
30
0
41
1
10
-200.311010085058
20
-1.68546685393193
30
0
41
1
10
-200.311489681707
20
1.6821913662468
30
0
41
1
10
-199.931860983986
20
3.30935169049232
30
0
41
1
10
-199.32
20
4.87661015076051
30
0
0
SPLINE
5
D8
100
AcDbEntity
8
SK1
62
256
6
ByLayer
370
-1
48
1
60
0
100
AcDbSpline
70
4
71
3
72
8
73
4
40
0
40
0
40
0
40
0
40
1
40
1
40
1
40
1
41
1
10
-201.32
20
-10.00875
30
0
41
1
10
-200.859655016927
20
-10.00875
30
0
41
1
10
-200.133727162837
20
-10.00875
30
0
41
1
10
-199.32
20
-10.00875
30
0
0
SPLINE
5
D9
100
AcDbEntity
8
1
62
256
6
ByLayer
370
-1
48
1
60
0
100
AcDbSpline
70
4
71
3
72
12
73
8
40
0
40
0
40
0
40
0
40
0.314566371938852
40
0.314566371938852
40
0.781099770558795
40
0.781099770558795
40
1
40
1
40
1
40
1
41
1
10
90.6195174563792
20
-5.91188490483148
30
0
41
1
10
90.5887150837799
20
-5.87287891499065
30
0
41
1
10
90.5629112659838
20
-5.83106248491777
30
0
41
1
10
90.5133556586838
20
-5.72628943277078
30
0
41
1
10
90.4956263547368
20
-5.6611525150887
30
0
41
1
10
90.4856496881825
20
-5.56792281443126
30
0
41
1
10
90.484805597887
20
-5.53818935367858
30
0
41
1
10
90.4861729832083
20
-5.5088536947398
30
0
0
SPLINE
5
DA
100
AcDbEntity
8
1
62
256
6
ByLayer
370
-1
48
1
60
0
100
AcDbSpline
70
4
71
3
72
14
73
10
40
0
40
0
40
0
40
0
40
0.244176151919767
40
0.244176151919767
40
0.535488233197297
40
0.535488233197297
40
0.798763498974167
40
0.798763498974167
40
1
40
1
40
1
40
1
41
1
10
89.7283044192557
20
-8.3114417150218
30
0
41
1
10
89.7147725373243
20
-8.33813086382648
30
0
41
1
10
89.6970866075956
20
-8.36321760271616
30
0
41
1
10
89.6508185290683
20
-8.4108258260986
30
0
41
1
10
89.6199636785591
20
-8.43262978212547
30
0
41
1
10
89.5553632072793
20
-8.46078048362995
30
0
41
1
10
89.521173207583
20
-8.46877962954818
30
0
41
1
10
89.4605699183956
20
-8.47101847637265
30
0
41
1
10
89.4335915931995
20
-8.46809658787447
30
0
41
1
10
89.407764859988
20
-8.46138741404144
30
0
0
SPLINE
5
DB
100
AcDbEntity
8
1
62
256
6
ByLayer
370
-1
48
1
60
0
100
AcDbSpline
70
4
71
3
72
18
73
14
40
0
40
0
40
0
40
0
40
0.0439895531307511
40
0.0439895531307511
40
0.267209406976778
40
0.267209406976778
40
0.492137628302111
40
0.492137628302111
40
0.730638693196036
40
0.730638693196036
40
0.992064881115283
40
0.992064881115283
40
1
40
1
40
1
40
1
41
1
10
88.2237710391016
20
-7.28402085502393
30
0
41
1
10
88.2222864190477
20
-7.27836992374964
30
0
41
1
10
88.2209682348416
20
-7.27265915508698
30
0
41
1
10
88.2140482836237
20
-7.23797675223176
30
0
41
1
10
88.2126353815046
20
-7.20752903757398
30
0
41
1
10
88.2184190277932
20
-7.14831393571677
30
0
41
1
10
88.2257331587431
20
-7.11880421852615
30
0
41
1
10
88.2480466090665
20
-7.06272927239269
30
0
41
1
10
88.2637342848187
20
-7.03573519091876
30
0
41
1
10
88.3022706572364
20
-6.98641884721405
30
0
41
1
10
88.3261203329643
20
-6.9641527777751
30
0
41
1
10
88.3524837101546
20
-6.94595873198412
30
0
41
1
10
88.3532701834268
20
-6.94542131768475
30
0
41
1
10
88.3540584974002
20
-6.94488796810467
30
0
0
SPLINE
5
DC
100
AcDbEntity
8
1
62
256
6
ByLayer
370
-1
48
1
60
0
100
AcDbSpline
70
4
71
3
72
14
73
10
40
0
40
0
40
0
40
0
40
0.264207719815122
40
0.264207719815122
40
0.551188103132173
40
0.551188103132173
40
0.810654937638019
40
0.810654937638019
40
1
40
1
40
1
40
1
41
1
10
88.4991918907795
20
-7.48480110340151
30
0
41
1
10
88.4688490296087
20
-7.48712993190003
30
0
41
1
10
88.4375645941865
20
-7.48422387471601
30
0
41
1
10
88.3752057569004
20
-7.4665533194983
30
0
41
1
10
88.3434123402004
20
-7.45042972718025
30
0
41
1
10
88.291001158944
20
-7.40814763849744
30
0
41
1
10
88.2688481348802
20
-7.38240670688074
30
0
41
1
10
88.2398436454296
20
-7.33197742229385
30
0
41
1
10
88.2301805290422
20
-7.30841739140484
30
0
41
1
10
88.2237710391016
20
-7.28402085502393
30
0
0
SPLINE
5
DD
100
AcDbEntity
8
1
62
256
6
ByLayer
370
-1
48
1
60
0
100
AcDbSpline
70
4
71
3
72
18
73
14
40
0
40
0
40
0
40
0
40
0.201762295902873
40
0.201762295902873
40
0.377795197920731
40
0.377795197920731
40
0.555634925556323
40
0.555634925556323
40
0.70900998513508
40
0.70900998513508
40
0.909994042671943
40
0.909994042671943
40
1
40
1
40
1
40
1
41
1
10
89.7283044192554
20
-8.31144171502163
30
0
41
1
10
89.7599198200485
20
-8.24908615054304
30
0
41
1
10
89.8013852186701
20
-8.19011803450812
30
0
41
1
10
89.8959841902975
20
-8.0941583716849
30
0
41
1
10
89.9481722773307
20
-8.05436306915018
30
0
41
1
10
90.0637223877474
20
-7.99277690282764
30
0
41
1
10
90.1290528970991
20
-7.97046708086506
30
0
41
1
10
90.25188165901
20
-7.95009611984514
30
0
41
1
10
90.3106664401735
20
-7.94877981270767
30
0
41
1
10
90.4406628704217
20
-7.96262607339204
30
0
41
1
10
90.5123019984965
20
-7.98298552472264
30
0
41
1
10
90.6070557953055
20
-8.02558102862497
30
0
41
1
10
90.6355520444135
20
-8.04077015409064
30
0
41
1
10
90.6627939491572
20
-8.05760382092006
30
0
0
SPLINE
5
DE
100
AcDbEntity
8
1
62
256
6
ByLayer
370
-1
48
1
60
0
100
AcDbSpline
70
4
71
3
72
20
73
16
40
0
40
0
40
0
40
0
40
0.0870400543493249
40
0.0870400543493249
40
0.286760561891666
40
0.286760561891666
40
0.448605671719522
40
0.448605671719522
40
0.611252433237371
40
0.611252433237371
40
0.763682321746011
40
0.763682321746011
40
0.980401511152828
40
0.980401511152828
40
1
40
1
40
1
40
1
41
1
10
88.6092986613506
20
-6.01560272402773
30
0
41
1
10
88.6227172848649
20
-6.03879994195626
30
0
41
1
10
88.6346863750751
20
-6.06322400482426
30
0
41
1
10
88.6686169288182
20
-6.14700176395993
30
0
41
1
10
88.6839333486606
20
-6.21212870557355
30
0
41
1
10
88.6919935791174
20
-6.33651840419023
30
0
41
1
10
88.6884074341727
20
-6.39596996021771
30
0
41
1
10
88.6658053301738
20
-6.51387263503781
30
0
41
1
10
88.6463528507525
20
-6.57384832302122
30
0
41
1
10
88.5966734461144
20
-6.68134849719644
30
0
41
1
10
88.5667058385204
20
-6.73070664485866
30
0
41
1
10
88.4857647330934
20
-6.83715812547362
30
0
41
1
10
88.4299572451528
20
-6.89080382575355
30
0
41
1
10
88.3650567695273
20
-6.93733733608872
30
0
41
1
10
88.3595752277812
20
-6.94115551386517
30
0
41
1
10
88.3540584974002
20
-6.94488796810475
30
0
0
SPLINE
5
DF
100
AcDbEntity
8
1
62
256
6
ByLayer
370
-1
48
1
60
0
100
AcDbSpline
70
4
71
3
72
14
73
10
40
0
40
0
40
0
40
0
40
0.189093120973672
40
0.189093120973672
40
0.493242366405325
40
0.493242366405325
40
0.762047003708727
40
0.762047003708727
40
1
40
1
40
1
40
1
41
1
10
89.9431256499602
20
-5.36464488764713
30
0
41
1
10
89.9550884355297
20
-5.34683568039523
30
0
41
1
10
89.9694492153086
20
-5.3299222833123
30
0
41
1
10
90.01218244983
20
-5.29006995945787
30
0
41
1
10
90.0446851239211
20
-5.26906122329777
30
0
41
1
10
90.1122151616256
20
-5.2418306647761
30
0
41
1
10
90.1475788217672
20
-5.23381929701142
30
0
41
1
10
90.2145693210817
20
-5.23039423716327
30
0
41
1
10
90.2471117994851
20
-5.23362112699411
30
0
41
1
10
90.2776442853241
20
-5.24155274394971
30
0
0
SPLINE
5
E0
100
AcDbEntity
8
1
62
256
6
ByLayer
370
-1
48
1
60
0
100
AcDbSpline
70
4
71
3
72
18
73
14
40
0
40
0
40
0
40
0
40
0.0343455315398241
40
0.0343455315398241
40
0.255719924475928
40
0.255719924475928
40
0.478251018083661
40
0.478251018083661
40
0.713794007593937
40
0.713794007593937
40
0.971726575408325
40
0.971726575408325
40
1
40
1
40
1
40
1
41
1
10
89.407764859988
20
-8.46138741404144
30
0
41
1
10
89.4032819455755
20
-8.46022285901137
30
0
41
1
10
89.3988229259535
20
-8.4589445095111
30
0
41
1
10
89.3661493498565
20
-8.44868737729874
30
0
41
1
10
89.338863496573
20
-8.43501891674956
30
0
41
1
10
89.2903633052129
20
-8.40052140093911
30
0
41
1
10
89.26854953614
20
-8.37923355308433
30
0
41
1
10
89.2315887809349
20
-8.33098012648375
30
0
41
1
10
89.2164186675607
20
-8.30317044689073
30
0
41
1
10
89.1939562712593
20
-8.24316747386362
30
0
41
1
10
89.1872345741634
20
-8.21006822216714
30
0
41
1
10
89.185252589129
20
-8.17398195856799
30
0
41
1
10
89.1851140819986
20
-8.1703907225081
30
0
41
1
10
89.1850339254022
20
-8.16680422038456
30
0
0
SPLINE
5
E1
100
AcDbEntity
8
1
62
256
6
ByLayer
370
-1
48
1
60
0
100
AcDbSpline
70
4
71
3
72
18
73
14
40
0
40
0
40
0
40
0
40
0.0323096246915745
40
0.0323096246915745
40
0.255830536524476
40
0.255830536524476
40
0.480381526231242
40
0.480381526231242
40
0.717955236478354
40
0.717955236478354
40
0.978046052268034
40
0.978046052268034
40
1
40
1
40
1
40
1
41
1
10
88.6644013325273
20
-5.67976224839973
30
0
41
1
10
88.6674736687876
20
-5.67670697278837
30
0
41
1
10
88.6706119322392
20
-5.673712657029
30
0
41
1
10
88.6957148377075
20
-5.65073264486023
30
0
41
1
10
88.7208646319267
20
-5.6335869877974
30
0
41
1
10
88.7735091425207
20
-5.60755873776927
30
0
41
1
10
88.8016778572836
20
-5.5983629064259
30
0
41
1
10
88.858839018922
20
-5.58805136881892
30
0
41
1
10
88.8884974155561
20
-5.5872761980346
30
0
41
1
10
88.9469209042276
20
-5.59421325935008
30
0
41
1
10
88.9760750660606
20
-5.60278967189248
30
0
41
1
10
89.0042647501299
20
-5.61627673019913
30
0
41
1
10
89.0064609793765
20
-5.61736580710698
30
0
41
1
10
89.0086361200653
20
-5.61848278175171
30
0
0
SPLINE
5
E2
100
AcDbEntity
8
1
62
256
6
ByLayer
370
-1
48
1
60
0
100
AcDbSpline
70
4
71
3
72
12
73
8
40
0
40
0
40
0
40
0
40
0.483690758234588
40
0.483690758234588
40
0.890671071532429
40
0.890671071532429
40
1
40
1
40
1
40
1
41
1
10
91.1720150178307
20
-6.19085681172277
30
0
41
1
10
91.1001910637276
20
-6.18706542175613
30
0
41
1
10
91.0262363433314
20
-6.17285869100047
30
0
41
1
10
90.8944983607161
20
-6.12644066424721
30
0
41
1
10
90.8345714161053
20
-6.09678012617479
30
0
41
1
10
90.7650347905841
20
-6.04981750886
30
0
41
1
10
90.7505511626583
20
-6.03926278892649
30
0
41
1
10
90.73649979075
20
-6.02821244476826
30
0
0
SPLINE
5
E3
100
AcDbEntity
8
1
62
256
6
ByLayer
370
-1
48
1
60
0
100
AcDbSpline
70
4
71
3
72
18
73
14
40
0
40
0
40
0
40
0
40
0.202432963046226
40
0.202432963046226
40
0.378262782711688
40
0.378262782711688
40
0.555890030476041
40
0.555890030476041
40
0.709174067884256
40
0.709174067884256
40
0.910208908362884
40
0.910208908362884
40
1
40
1
40
1
40
1
41
1
10
89.9431256499672
20
-5.36464488765029
30
0
41
1
10
89.9068922715909
20
-5.41858614917285
30
0
41
1
10
89.8609754717991
20
-5.46958530949249
30
0
41
1
10
89.7595755280305
20
-5.55308299450812
30
0
41
1
10
89.7048734563061
20
-5.58799337392605
30
0
41
1
10
89.5863544179977
20
-5.64369112012969
30
0
41
1
10
89.5205911831825
20
-5.66503020595522
30
0
41
1
10
89.3991260500628
20
-5.68780869729486
30
0
41
1
10
89.3418325664064
20
-5.69190863378731
30
0
41
1
10
89.2165714662194
20
-5.68708505205242
30
0
41
1
10
89.1486409587531
20
-5.67382360431711
30
0
41
1
10
89.0600568744061
20
-5.64270839955228
30
0
41
1
10
89.0336989065682
20
-5.63135298237614
30
0
41
1
10
89.0086361200653
20
-5.61848278175171
30
0
0
SPLINE
5
E4
100
AcDbEntity
8
1
62
256
6
ByLayer
370
-1
48
1
60
0
100
AcDbSpline
70
4
71
3
72
16
73
12
40
0
40
0
40
0
40
0
40
0.0728618654442592
40
0.0728618654442592
40
0.381595327795465
40
0.381595327795465
40
0.662032803625747
40
0.662032803625747
40
0.909256760149728
40
0.909256760149728
40
1
40
1
40
1
40
1
41
1
10
91.1720150178305
20
-6.19085681172137
30
0
41
1
10
91.1810257879174
20
-6.19133246561324
30
0
41
1
10
91.190077110386
20
-6.19218915546878
30
0
41
1
10
91.2370436764509
20
-6.19864900925708
30
0
41
1
10
91.2757043406933
20
-6.21101058325615
30
0
41
1
10
91.3429126971049
20
-6.24766782739968
30
0
41
1
10
91.373082667844
20
-6.27141245159061
30
0
41
1
10
91.4195248403732
20
-6.32443969995651
30
0
41
1
10
91.4376665289039
20
-6.35354702013149
30
0
41
1
10
91.454677867738
20
-6.39553089543782
30
0
41
1
10
91.4585491503594
20
-6.40716176461405
30
0
41
1
10
91.4616381062105
20
-6.41891930296725
30
0
0
SPLINE
5
E5
100
AcDbEntity
8
1
62
256
6
ByLayer
370
-1
48
1
60
0
100
AcDbSpline
70
4
71
3
72
16
73
12
40
0
40
0
40
0
40
0
40
0.136789730505408
40
0.136789730505408
40
0.359007745710995
40
0.359007745710995
40
0.588111065988121
40
0.588111065988121
40
0.834953840205731
40
0.834953840205731
40
1
40
1
40
1
40
1
41
1
10
91.4616381062105
20
-6.41891930296725
30
0
41
1
10
91.4662236200459
20
-6.43637321211563
30
0
41
1
10
91.4691139384085
20
-6.45426248191336
30
0
41
1
10
91.4720598660262
20
-6.50082858496194
30
0
41
1
10
91.4691892978002
20
-6.52988344856325
30
0
41
1
10
91.4548290307252
20
-6.5848821166494
30
0
41
1
10
91.44292029371
20
-6.61140322192676
30
0
41
1
10
91.4111875044902
20
-6.66000818156476
30
0
41
1
10
91.3904543034174
20
-6.6822152103322
30
0
41
1
10
91.3517360368861
20
-6.7123157814965
30
0
41
1
10
91.3349326218104
20
-6.72269177753313
30
0
41
1
10
91.3173715718229
20
-6.73119863456853
30
0
0
SPLINE
5
E6
100
AcDbEntity
8
1
62
256
6
ByLayer
370
-1
48
1
60
0
100
AcDbSpline
70
4
71
3
72
18
73
14
40
0
40
0
40
0
40
0
40
0.0239317543001131
40
0.0239317543001131
40
0.247671244138934
40
0.247671244138934
40
0.471950017181237
40
0.471950017181237
40
0.708852175456653
40
0.708852175456653
40
0.967971442854089
40
0.967971442854089
40
1
40
1
40
1
40
1
41
1
10
91.0210078127848
20
-8.02317790959142
30
0
41
1
10
91.0187297755268
20
-8.02544329693407
30
0
41
1
10
91.016412386788
20
-8.02766880506815
30
0
41
1
10
90.9922909234334
20
-8.05003842206165
30
0
41
1
10
90.9669370149161
20
-8.06680997213519
30
0
41
1
10
90.9133083728539
20
-8.09108843266011
30
0
41
1
10
90.8843504702022
20
-8.09890350641189
30
0
41
1
10
90.8250946298915
20
-8.10557104960216
30
0
41
1
10
90.7940747905325
20
-8.10400911166053
30
0
41
1
10
90.7324024850554
20
-8.09155552665035
30
0
41
1
10
90.7012777991868
20
-8.07968193657211
30
0
41
1
10
90.6696761845924
20
-8.06176761696
30
0
41
1
10
90.6662135011098
20
-8.05971687427729
30
0
41
1
10
90.6627939491572
20
-8.05760382092004
30
0
0
SPLINE
5
E7
100
AcDbEntity
8
1
62
256
6
ByLayer
370
-1
48
1
60
0
100
AcDbSpline
70
4
71
3
72
14
73
10
40
0
40
0
40
0
40
0
40
0.221260774076652
40
0.221260774076652
40
0.521985749353726
40
0.521985749353726
40
0.787205530094759
40
0.787205530094759
40
1
40
1
40
1
40
1
41
1
10
91.062131407873
20
-7.66048387863665
30
0
41
1
10
91.0758715780568
20
-7.68457088878668
30
0
41
1
10
91.0867732872685
20
-7.71083926484522
30
0
41
1
10
91.1038522714062
20
-7.77520433880264
30
0
41
1
10
91.1070860998058
20
-7.81533888385971
30
0
41
1
10
91.0982678379045
20
-7.88881572407607
30
0
41
1
10
91.0877701537096
20
-7.92351287777981
30
0
41
1
10
91.0583101762285
20
-7.97975726896556
30
0
41
1
10
91.0410961394261
20
-8.00320113320311
30
0
41
1
10
91.0210078127848
20
-8.02317790959142
30
0
0
SPLINE
5
E8
100
AcDbEntity
8
1
62
256
6
ByLayer
370
-1
48
1
60
0
100
AcDbSpline
70
4
71
3
72
12
73
8
40
0
40
0
40
0
40
0
40
0.161856123520365
40
0.161856123520365
40
0.519675783503562
40
0.519675783503562
40
1
40
1
40
1
40
1
41
1
10
89.0310729470423
20
-7.72416907230337
30
0
41
1
10
89.0473164769174
20
-7.74498002563729
30
0
41
1
10
89.0624006315592
20
-7.7668264114607
30
0
41
1
10
89.1064723122897
20
-7.83897563254197
30
0
41
1
10
89.1306022043407
20
-7.89251444089649
30
0
41
1
10
89.1713482874851
20
-8.0188160716703
30
0
41
1
10
89.1834021280733
20
-8.09379158204044
30
0
41
1
10
89.1850339254023
20
-8.16680422038456
30
0
0
SPLINE
5
E9
100
AcDbEntity
8
1
62
256
6
ByLayer
370
-1
48
1
60
0
100
AcDbSpline
70
4
71
3
72
18
73
14
40
0
40
0
40
0
40
0
40
0.0009931260250489
40
0.0009931260250489
40
0.223378568794942
40
0.223378568794942
40
0.444951572299677
40
0.444951572299677
40
0.677933667227658
40
0.677933667227658
40
0.932094227431358
40
0.932094227431358
40
1
40
1
40
1
40
1
41
1
10
90.2776442853241
20
-5.24155274394971
30
0
41
1
10
90.2777744583875
20
-5.24158655982967
30
0
41
1
10
90.2779046043021
20
-5.24162046022983
30
0
41
1
10
90.3067569623011
20
-5.24915623021698
30
0
41
1
10
90.3344889555494
20
-5.26101196329179
30
0
41
1
10
90.3834213236625
20
-5.29117763950592
30
0
41
1
10
90.4052843499026
20
-5.30983446460004
30
0
41
1
10
90.4420002521811
20
-5.35211846099648
30
0
41
1
10
90.456918634366
20
-5.37646428665511
30
0
41
1
10
90.4786497104551
20
-5.42889049262578
30
0
41
1
10
90.4849076421246
20
-5.45775342451324
30
0
41
1
10
90.486533922218
20
-5.49366380978628
30
0
41
1
10
90.4865259351362
20
-5.50128152234666
30
0
41
1
10
90.4861729832083
20
-5.5088536947398
30
0
0
SPLINE
5
EA
100
AcDbEntity
8
1
62
256
6
ByLayer
370
-1
48
1
60
0
100
AcDbSpline
70
4
71
3
72
18
73
14
40
0
40
0
40
0
40
0
40
0.201605092678436
40
0.201605092678436
40
0.377666505011946
40
0.377666505011946
40
0.555536570982891
40
0.555536570982891
40
0.70891843816337
40
0.70891843816337
40
0.909875657410956
40
0.909875657410956
40
1
40
1
40
1
40
1
41
1
10
91.0621314078684
20
-7.66048387863805
30
0
41
1
10
91.0266877938824
20
-7.59834995464226
30
0
41
1
10
90.9990519288449
20
-7.52965739672791
30
0
41
1
10
90.9676178090686
20
-7.39486819404144
30
0
41
1
10
90.9610577522226
20
-7.32797660766576
30
0
41
1
10
90.9680975647758
20
-7.19534667724312
30
0
41
1
10
90.9822382372382
20
-7.12767415999596
30
0
41
1
10
91.026300507984
20
-7.01313723397627
30
0
41
1
10
91.0542225783633
20
-6.96327527773832
30
0
41
1
10
91.129657670373
20
-6.86268540770573
30
0
41
1
10
91.1816367108426
20
-6.81457759014617
30
0
41
1
10
91.2634192625026
20
-6.75965297139052
30
0
41
1
10
91.2900159237533
20
-6.74445015354823
30
0
41
1
10
91.3173715718223
20
-6.73119863456728
30
0
0
SPLINE
5
EB
100
AcDbEntity
8
1
62
256
6
ByLayer
370
-1
48
1
60
0
100
AcDbSpline
70
4
71
3
72
14
73
10
40
0
40
0
40
0
40
0
40
0.240840541493552
40
0.240840541493552
40
0.532569150053095
40
0.532569150053095
40
0.796197602837724
40
0.796197602837724
40
1
40
1
40
1
40
1
41
1
10
88.6092986613505
20
-6.01560272402784
30
0
41
1
10
88.5962161476257
20
-5.9929865502001
30
0
41
1
10
88.5864211261891
20
-5.96759239020801
30
0
41
1
10
88.5741580521112
20
-5.90829048237913
30
0
41
1
10
88.5735655908113
20
-5.87270982665001
30
0
41
1
10
88.5859035501303
20
-5.80576108243943
30
0
41
1
10
88.5977886801631
20
-5.77330445657307
30
0
41
1
10
88.6283418290285
20
-5.72071154711037
30
0
41
1
10
88.6451726076576
20
-5.6988841963755
30
0
41
1
10
88.6644013325273
20
-5.67976224839973
30
0
0
SPLINE
5
EC
100
AcDbEntity
8
1
62
256
6
ByLayer
370
-1
48
1
60
0
100
AcDbSpline
70
4
71
3
72
12
73
8
40
0
40
0
40
0
40
0
40
0.339524106560622
40
0.339524106560622
40
0.774472915985051
40
0.774472915985051
40
1
40
1
40
1
40
1
41
1
10
88.4991918907796
20
-7.48480110340157
30
0
41
1
10
88.5464058461211
20
-7.48117741069478
30
0
41
1
10
88.5946255914056
20
-7.48290507463454
30
0
41
1
10
88.7040001933532
20
-7.50039789699051
30
0
41
1
10
88.7663431474975
20
-7.52037405187454
30
0
41
1
10
88.8557358598632
20
-7.56706295453387
30
0
41
1
10
88.8856980579524
20
-7.58609524788599
30
0
41
1
10
88.914090612669
20
-7.60784153236418
30
0
0
LINE
5
4A
100
AcDbEntity
8
80
62
256
6
ByLayer
370
-1
48
1
60
0
100
AcDbLine
10
0
20
0
30
0
11
-10
21
0
31
0
39
0
210
0
220
0
230
1
0
LINE
5
4B
100
AcDbEntity
8
81
62
256
6
ByLayer
370
-1
48
1
60
0
100
AcDbLine
10
99.93
20
-16.9
30
0
11
109.93
21
-16.9
31
0
39
0
210
0
220
0
230
1
0
LINE
5
4C
100
AcDbEntity
8
1
62
256
6
ByLayer
370
-1
48
1
60
0
100
AcDbLine
10
88.621719
20
-6.038223
30
0
11
88.607559
21
-6.011023
31
0
39
0
210
0
220
0
230
1
0
LINE
5
4D
100
AcDbEntity
8
1
62
256
6
ByLayer
370
-1
48
1
60
0
100
AcDbLine
10
87.424481
20
-7.891017
30
0
11
87.49663
21
-8.029614
31
0
39
0
210
0
220
0
230
1
0
LINE
5
4E
100
AcDbEntity
8
1
62
256
6
ByLayer
370
-1
48
1
60
0
100
AcDbLine
10
92.153437
20
-5.605433
30
0
11
92.081288
21
-5.466837
31
0
39
0
210
0
220
0
230
1
0
LINE
5
4F
100
AcDbEntity
8
1
62
256
6
ByLayer
370
-1
48
1
60
0
100
AcDbLine
10
90.477914
20
-5.664896
30
0
11
90.553565
21
-5.810221
31
0
39
0
210
0
220
0
230
1
0
LINE
5
50
100
AcDbEntity
8
1
62
256
6
ByLayer
370
-1
48
1
60
0
100
AcDbLine
10
90.964385
20
-7.473954
30
0
11
91.048001
21
-7.634578
31
0
39
0
210
0
220
0
230
1
0
LINE
5
51
100
AcDbEntity
8
1
62
256
6
ByLayer
370
-1
48
1
60
0
100
AcDbLine
10
89.100375
20
-7.832269
30
0
11
89.024647
21
-7.686796
31
0
39
0
210
0
220
0
230
1
0
LINE
5
52
100
AcDbEntity
8
1
62
256
6
ByLayer
370
-1
48
1
60
0
100
AcDbLine
10
84.869372
20
12.49125
30
0
11
0
21
12.49125
31
0
39
0
210
0
220
0
230
1
0
LINE
5
53
100
AcDbEntity
8
1
62
256
6
ByLayer
370
-1
48
1
60
0
100
AcDbLine
10
76.878325
20
0.200655
30
0
11
76.574738
21
0.783841
31
0
39
0
210
0
220
0
230
1
0
LINE
5
54
100
AcDbEntity
8
1
62
256
6
ByLayer
370
-1
48
1
60
0
100
AcDbLine
10
79.776874
20
2.380457
30
0
11
79.779826
21
2.311728
31
0
39
0
210
0
220
0
230
1
0
LINE
5
55
100
AcDbEntity
8
SK1
62
256
6
ByLayer
370
-1
48
1
60
0
100
AcDbLine
10
-199.32
20
12.49125
30
0
11
-201.32
21
10.49125
31
0
39
0
210
0
220
0
230
1
0
LINE
5
57
100
AcDbEntity
8
SK1
62
256
6
ByLayer
370
-1
48
1
60
0
100
AcDbLine
10
0
20
12.49125
30
0
11
-199.32
21
12.49125
31
0
39
0
210
0
220
0
230
1
0
LINE
5
58
100
AcDbEntity
8
SK4
62
256
6
ByLayer
370
-1
48
0.05
60
0
100
AcDbLine
10
-206.32
20
0
30
0
11
104.550173
21
0
31
0
39
0
210
0
220
0
230
1
0
LINE
5
5A
100
AcDbEntity
8
4
62
256
6
ByLayer
370
-1
48
0.05
60
0
100
AcDbLine
10
0
20
0
30
0
11
104.550173
21
0
31
0
39
0
210
0
220
0
230
1
0
LINE
5
5C
100
AcDbEntity
8
1
62
256
6
ByLayer
370
-1
48
1
60
0
100
AcDbLine
10
72.703431
20
-9.577392
30
0
11
65.081565
21
-9.577392
31
0
39
0
210
0
220
0
230
1
0
LINE
5
5D
100
AcDbEntity
8
1
62
256
6
ByLayer
370
-1
48
1
60
0
100
AcDbLine
10
73.627881
20
4.59424
30
0
11
68.913802
21
-4.87661
31
0
39
0
210
0
220
0
230
1
0
LINE
5
5E
100
AcDbEntity
8
1
62
256
6
ByLayer
370
-1
48
1
60
0
100
AcDbLine
10
76.752359
20
0.401561
30
0
11
73.627881
21
4.59424
31
0
39
0
210
0
220
0
230
1
0
LINE
5
5F
100
AcDbEntity
8
1
62
256
6
ByLayer
370
-1
48
1
60
0
100
AcDbLine
10
70.733954
20
11.486124
30
0
11
77.633027
21
2.133829
31
0
39
0
210
0
220
0
230
1
0
LINE
5
60
100
AcDbEntity
8
1
62
256
6
ByLayer
370
-1
48
1
60
0
100
AcDbLine
10
84.718067
20
-9.357877
30
0
11
85.416653
21
-8.663171
31
0
39
0
210
0
220
0
230
1
0
LINE
5
61
100
AcDbEntity
8
1
62
256
6
ByLayer
370
-1
48
1
60
0
100
AcDbLine
10
78.068132
20
-0.779612
30
0
11
75.744191
21
-7.423635
31
0
39
0
210
0
220
0
230
1
0
LINE
5
62
100
AcDbEntity
8
1
62
256
6
ByLayer
370
-1
48
1
60
0
100
AcDbLine
10
80.43484
20
3.543821
30
0
11
80.608065
21
3.211059
31
0
39
0
210
0
220
0
230
1
0
LINE
5
63
100
AcDbEntity
8
1
62
256
6
ByLayer
370
-1
48
1
60
0
100
AcDbLine
10
78.768787
20
1.038172
30
0
11
80.951273
21
-0.085265
31
0
39
0
210
0
220
0
230
1
0
LINE
5
64
100
AcDbEntity
8
1
62
256
6
ByLayer
370
-1
48
1
60
0
100
AcDbLine
10
84.869372
20
12.49125
30
0
11
85.214206
21
11.82883
31
0
39
0
210
0
220
0
230
1
0
LINE
5
65
100
AcDbEntity
8
1
62
256
6
ByLayer
370
-1
48
1
60
0
100
AcDbLine
10
92.312071
20
-1.806042
30
0
11
91.64669
21
-2.467728
31
0
39
0
210
0
220
0
230
1
0
LINE
5
66
100
AcDbEntity
8
1
62
256
6
ByLayer
370
-1
48
1
60
0
100
AcDbLine
10
0
20
4.87661
30
0
11
73.420866
21
4.87661
31
0
39
0
210
0
220
0
230
1
0
LINE
5
67
100
AcDbEntity
8
1
62
256
6
ByLayer
370
-1
48
1
60
0
100
AcDbLine
10
78.325676
20
2.733279
30
0
11
78.152451
21
3.066041
31
0
39
0
210
0
220
0
230
1
0
LINE
5
68
100
AcDbEntity
8
1
62
256
6
ByLayer
370
-1
48
1
60
0
100
AcDbLine
10
0
20
-10.00875
30
0
11
60.099323
21
-10.00875
31
0
39
0
210
0
220
0
230
1
0
LINE
5
69
100
AcDbEntity
8
1
62
256
6
ByLayer
370
-1
48
1
60
0
100
AcDbLine
10
74.656095
20
-7.718632
30
0
11
76.96055
21
-1.037176
31
0
39
0
210
0
220
0
230
1
0
LINE
5
6A
100
AcDbEntity
8
1
62
256
6
ByLayer
370
-1
48
1
60
0
100
AcDbLine
10
0
20
-4.87661
30
0
11
0
21
4.87661
31
0
39
0
210
0
220
0
230
1
0
LINE
5
6B
100
AcDbEntity
8
1
62
256
6
ByLayer
370
-1
48
1
60
0
100
AcDbLine
10
0
20
4.87661
30
0
11
0
21
12.49125
31
0
39
0
210
0
220
0
230
1
0
LINE
5
6C
100
AcDbEntity
8
1
62
256
6
ByLayer
370
-1
48
1
60
0
100
AcDbLine
10
78.983761
20
0.404777
30
0
11
78.942011
21
0.70541
31
0
39
0
210
0
220
0
230
1
0
LINE
5
6D
100
AcDbEntity
8
1
62
256
6
ByLayer
370
-1
48
1
60
0
100
AcDbLine
10
0
20
-4.87661
30
0
11
0
21
-10.00875
31
0
39
0
210
0
220
0
230
1
0
LINE
5
6E
100
AcDbEntity
8
1
62
256
6
ByLayer
370
-1
48
1
60
0
100
AcDbLine
10
78.768787
20
1.038172
30
0
11
78.942011
21
0.70541
31
0
39
0
210
0
220
0
230
1
0
LINE
5
6F
100
AcDbEntity
8
1
62
256
6
ByLayer
370
-1
48
1
60
0
100
AcDbLine
10
76.752359
20
0.401561
30
0
11
76.4456
21
0.99084
31
0
39
0
210
0
220
0
230
1
0
LINE
5
70
100
AcDbEntity
8
1
62
256
6
ByLayer
370
-1
48
1
60
0
100
AcDbLine
10
81.322989
20
-0.799342
30
0
11
78.983761
21
0.404777
31
0
39
0
210
0
220
0
230
1
0
LINE
5
71
100
AcDbEntity
8
1
62
256
6
ByLayer
370
-1
48
1
60
0
100
AcDbLine
10
76.4456
20
0.99084
30
0
11
69.313976
21
10.658378
31
0
39
0
210
0
220
0
230
1
0
LINE
5
72
100
AcDbEntity
8
1
62
256
6
ByLayer
370
-1
48
1
60
0
100
AcDbLine
10
62.384228
20
-10.00875
30
0
11
82.643204
21
-10.00875
31
0
39
0
210
0
220
0
230
1
0
LINE
5
73
100
AcDbEntity
8
1
62
256
6
ByLayer
370
-1
48
1
60
0
100
AcDbLine
10
73.420866
20
4.87661
30
0
11
73.627881
21
4.59424
31
0
39
0
210
0
220
0
230
1
0
LINE
5
74
100
AcDbEntity
8
1
62
256
6
ByLayer
370
-1
48
1
60
0
100
AcDbLine
10
78.942011
20
0.70541
30
0
11
81.124498
21
-0.418026
31
0
39
0
210
0
220
0
230
1
0
LINE
5
75
100
AcDbEntity
8
1
62
256
6
ByLayer
370
-1
48
1
60
0
100
AcDbLine
10
92.312071
20
-1.806042
30
0
11
85.214206
21
11.82883
31
0
39
0
210
0
220
0
230
1
0
LINE
5
76
100
AcDbEntity
8
1
62
256
6
ByLayer
370
-1
48
1
60
0
100
AcDbLine
10
68.913802
20
-4.87661
30
0
11
0
21
-4.87661
31
0
39
0
210
0
220
0
230
1
0
LINE
5
77
100
AcDbEntity
8
SK1
62
256
6
ByLayer
370
-1
48
1
60
0
100
AcDbLine
10
0
20
-4.87661
30
0
11
0
21
4.87661
31
0
39
0
210
0
220
0
230
1
0
LINE
5
78
100
AcDbEntity
8
SK1
62
256
6
ByLayer
370
-1
48
1
60
0
100
AcDbLine
10
0
20
-4.87661
30
0
11
0
21
-10.00875
31
0
39
0
210
0
220
0
230
1
0
LINE
5
79
100
AcDbEntity
8
SK1
62
256
6
ByLayer
370
-1
48
1
60
0
100
AcDbLine
10
-199.32
20
4.87661
30
0
11
0
21
4.87661
31
0
39
0
210
0
220
0
230
1
0
LINE
5
7A
100
AcDbEntity
8
SK1
62
256
6
ByLayer
370
-1
48
1
60
0
100
AcDbLine
10
-199.32
20
-10.00875
30
0
11
0
21
-10.00875
31
0
39
0
210
0
220
0
230
1
0
LINE
5
7B
100
AcDbEntity
8
SK1
62
256
6
ByLayer
370
-1
48
1
60
0
100
AcDbLine
10
0
20
12.49125
30
0
11
0
21
4.87661
31
0
39
0
210
0
220
0
230
1
0
LINE
5
7C
100
AcDbEntity
8
1
62
256
6
ByLayer
370
-1
48
1
60
0
100
AcDbLine
10
99.895194
20
-15.84807
30
0
11
93.456984
21
-3.480382
31
0
39
0
210
0
220
0
230
1
0
LINE
5
7D
100
AcDbEntity
8
1
62
256
6
ByLayer
370
-1
48
1
60
0
100
AcDbLine
10
79.828375
20
2.071825
30
0
11
86.266585
21
-10.295863
31
0
39
0
210
0
220
0
230
1
0
LINE
5
7E
100
AcDbEntity
8
1
62
256
6
ByLayer
370
-1
48
1
60
0
100
AcDbLine
10
86.435019
20
-10.463354
30
0
11
98.872189
21
-16.865394
31
0
39
0
210
0
220
0
230
1
0
LINE
5
7F
100
AcDbEntity
8
1
62
256
6
ByLayer
370
-1
48
1
60
0
100
AcDbLine
10
93.28855
20
-3.312891
30
0
11
80.85138
21
3.089149
31
0
39
0
210
0
220
0
230
1
0
LINE
5
80
100
AcDbEntity
8
1
62
256
6
ByLayer
370
-1
48
1
60
0
100
AcDbLine
10
89.64387
20
-8.149244
30
0
11
89.728304
21
-8.311442
31
0
39
0
210
0
220
0
230
1
0
LINE
5
81
100
AcDbEntity
8
1
62
256
6
ByLayer
370
-1
48
1
60
0
100
AcDbLine
10
88.957058
20
-7.581988
30
0
11
89.031073
21
-7.724169
31
0
39
0
210
0
220
0
230
1
0
LINE
5
82
100
AcDbEntity
8
1
62
256
6
ByLayer
370
-1
48
1
60
0
100
AcDbLine
10
90.578359
20
-7.895407
30
0
11
90.662794
21
-8.057604
31
0
39
0
210
0
220
0
230
1
0
LINE
5
83
100
AcDbEntity
8
1
62
256
6
ByLayer
370
-1
48
1
60
0
100
AcDbLine
10
90.40185
20
-5.346871
30
0
11
90.486173
21
-5.508854
31
0
39
0
210
0
220
0
230
1
0
LINE
5
84
100
AcDbEntity
8
1
62
256
6
ByLayer
370
-1
48
1
60
0
100
AcDbLine
10
88.914091
20
-7.607842
30
0
11
88.840076
21
-7.465661
31
0
39
0
210
0
220
0
230
1
0
LINE
5
85
100
AcDbEntity
8
1
62
256
6
ByLayer
370
-1
48
1
60
0
100
AcDbLine
10
88.414869
20
-7.322818
30
0
11
88.499192
21
-7.484801
31
0
39
0
210
0
220
0
230
1
0
LINE
5
86
100
AcDbEntity
8
1
62
256
6
ByLayer
370
-1
48
1
60
0
100
AcDbLine
10
91.232937
20
-6.569001
30
0
11
91.317372
21
-6.731199
31
0
39
0
210
0
220
0
230
1
0
LINE
5
87
100
AcDbEntity
8
SK1
62
256
6
ByLayer
370
-1
48
1
60
0
100
AcDbLine
10
0
20
-4.87661
30
0
11
-199.32
21
-4.87661
31
0
39
0
210
0
220
0
230
1
0
LINE
5
88
100
AcDbEntity
8
SK1
62
256
6
ByLayer
370
-1
48
1
60
0
100
AcDbLine
10
-201.32
20
10.49125
30
0
11
-201.32
21
-10.00875
31
0
39
0
210
0
220
0
230
1
0
LINE
5
89
100
AcDbEntity
8
SK1
62
256
6
ByLayer
370
-1
48
1
60
0
100
AcDbLine
10
-199.32
20
-4.87661
30
0
11
-199.32
21
-10.00875
31
0
39
0
210
0
220
0
230
1
0
LINE
5
8A
100
AcDbEntity
8
SK1
62
256
6
ByLayer
370
-1
48
1
60
0
100
AcDbLine
10
-199.32
20
12.49125
30
0
11
-199.32
21
4.87661
31
0
39
0
210
0
220
0
230
1
0
LINE
5
8B
100
AcDbEntity
8
2
62
256
6
ByLayer
370
-1
48
1
60
1
100
AcDbLine
10
99.93
20
0
30
0
11
99.931
21
0.001
31
0
39
0
210
0
220
0
230
1
0
MTEXT
5
ED
100
AcDbEntity
8
SK6
62
256
6
ByLayer
370
-1
48
1
60
0
100
AcDbMText
10
-47.32
20
19.404682
30
0
210
0
220
0
230
1
1
\W00.803;\fsimplex.shx,bigfont.shx;A25T-SVPBL 16HP 
40
3.5
41
0
44
1.084337
50
0
71
7
72
5
7
DEFAULT
0
DIMENSION
5
120
100
AcDbEntity
8
2
62
256
6
ByLayer
370
-3
48
1
60
0
100
AcDbDimension
2
DimnDraft3D1
10
112.18
20
0
30
0
11
112.18
21
-13.050658
31
0
70
32
71
5
72
1
41
1
210
0
220
0
230
1
3
Standard
100
AcDbAlignedDimension
13
101.93
23
-16.9
33
0
14
101.93
24
0
34
0
50
90
100
AcDbRotatedDimension
1001
ACAD
1000
DSTYLE
1002
{
1070
    74
1070
     0
1070
   279
1070
     0
1070
   172
1070
     1
1070
   173
1070
     1
1070
   340
1005
EE
1070
    77
1070
     1
1070
    73
1070
     0
1070
   171
1070
     4
1070
   274
1070
     4
1070
   177
1070
     2
1070
   176
1070
     2
1070
   178
1070
     7
1070
    78
1070
     8
1070
    41
1041
3.175
1070
   147
1041
2.25
1070
    42
1041
2.0
1070
    44
1041
2.0
1070
   140
1041
4.5
1070
   343
1005
121
1070
   344
1005
121
1002
}
0
DIMENSION
5
136
100
AcDbEntity
8
SK2
62
256
6
ByLayer
370
-3
48
1
60
0
100
AcDbDimension
2
DimnDraft3D2
10
-211.07
20
12.49125
30
0
11
-211.07
21
-4.784211
31
0
70
32
71
5
72
1
41
1
210
0
220
0
230
1
3
Standard
100
AcDbAlignedDimension
13
-203.32
23
-12.49125
33
0
14
-203.32
24
12.49125
34
0
50
90
100
AcDbRotatedDimension
1001
ACAD
1000
DSTYLE
1002
{
1070
    74
1070
     0
1070
   279
1070
     0
1070
   172
1070
     1
1070
   173
1070
     1
1070
   340
1005
EE
1070
    77
1070
     1
1070
    73
1070
     0
1070
   171
1070
     4
1070
   274
1070
     4
1070
   177
1070
     2
1070
   176
1070
     2
1070
   178
1070
     7
1070
    78
1070
     8
1070
    41
1041
3.175
1070
   147
1041
2.25
1070
    42
1041
2.0
1070
    44
1041
2.0
1070
   140
1041
4.5
1070
   343
1005
121
1070
   344
1005
121
1002
}
0
DIMENSION
5
144
100
AcDbEntity
8
SK2
62
256
6
ByLayer
370
-3
48
1
60
0
100
AcDbDimension
2
DimnDraft3D3
10
99.93
20
-34.15
30
0
11
-57.510132
21
-34.15
31
0
70
32
71
5
72
1
41
1
210
0
220
0
230
1
3
Standard
100
AcDbAlignedDimension
13
-201.32
23
-14.49125
33
0
14
99.93
24
-18.9
34
0
50
0
100
AcDbRotatedDimension
1001
ACAD
1000
DSTYLE
1002
{
1070
   279
1070
     0
1070
   172
1070
     1
1070
   173
1070
     1
1070
   340
1005
EE
1070
    77
1070
     1
1070
    73
1070
     0
1070
   171
1070
     4
1070
   274
1070
     4
1070
   177
1070
     2
1070
   176
1070
     2
1070
   178
1070
     7
1070
    78
1070
     8
1070
    41
1041
3.175
1070
   147
1041
2.25
1070
    42
1041
2.0
1070
    44
1041
2.0
1070
   140
1041
4.5
1070
   343
1005
121
1070
   344
1005
121
1002
}
0
DIMENSION
5
152
100
AcDbEntity
8
2
62
256
6
ByLayer
370
-3
48
1
60
0
100
AcDbDimension
2
DimnDraft3D4
10
131.058824
20
0
30
0
11
104.665366
21
38.782799
31
0
70
34
71
5
72
1
41
1
210
0
220
0
230
1
3
Standard
100
AcDb2LineAngularDimension
13
91.618525
23
-0.933805
33
0
14
72.696454
24
35.415155
34
0
15
101.93
25
0
35
0
16
113.142102
26
36.270839
36
0
40
0
0
ENDSEC
0
SECTION
2
OBJECTS
0
DICTIONARY
5
183
330
0
100
AcDbDictionary
280
0
281
1
3
ACAD_GROUP
350
184
3
ACAD_MLINESTYLE
350
185
0
DICTIONARY
5
184
330
0
100
AcDbDictionary
280
0
281
1
0
DICTIONARY
5
185
330
0
100
AcDbDictionary
280
0
281
1
3
Standard
350
18
0
MLINESTYLE
5
18
330
185
100
AcDbMlineStyle
2
Standard
70
0
3

62
256
51
90
52
90
71
2
49
-0.5
62
256
6
ByLayer
49
0.5
62
256
6
ByLayer
0
RASTERVARIABLES
5
171
330

100
AcDbRasterVariables
90
0
70
1
71
1
72
1
0
ENDSEC
0
EOF
