0
SECTION
2
HEADER
9
$ACADVER
1
AC1015
9
$DWGCODEPAGE
3
ANSI_1252
9
$HANDSEED
5
195
9
$ANGBASE
50
0
9
$ANGDIR
70
0
9
$ATTMODE
70
1
9
$AUNITS
70
0
9
$AUPREC
70
0
9
$CECOLOR
62
256
9
$CELTSCALE
40
1
9
$CELTYPE
6
ByLayer
9
$CELWEIGHT
370
-1
9
$CLAYER
8
0
9
$CMLJUST
70
0
9
$CMLSCALE
40
1
9
$CMLSTYLE
2
Standard
9
$DIMSTYLE
2
Standard
9
$TEXTSIZE
40
0.2
9
$TEXTSTYLE
7
Standard
9
$LUNITS
70
2
9
$LUPREC
70
4
9
$EXTNAMES
290
1
9
$INSUNITS
70
4
9
$LTSCALE
40
1
9
$LWDISPLAY
290
0
9
$PDMODE
70
0
9
$PDSIZE
40
0
9
$PLINEGEN
70
0
0
ENDSEC
0
SECTION
2
CLASSES
0
CLASS
1
RASTERVARIABLES
2
AcDbRasterVariables
3
ISM
90
0
280
0
281
0
0
ENDSEC
0
SECTION
2
TABLES
0
TABLE
2
VPORT
5
18b
100
AcDbSymbolTable
0
VPORT
5
1
100
AcDbSymbolTableRecord
100
AcDbViewportTableRecord
2
*Active
70
0
10
0
20
0
11
1
21
1
12
-1
22
1
13
0
23
0
14
0.5
24
0.5
15
10
25
10
16
0
26
0
36
1
17
0
27
0
37
0
0
ENDTAB
0
TABLE
2
LTYPE
5
18c
100
AcDbSymbolTable
0
LTYPE
5
14
100
AcDbSymbolTableRecord
100
AcDbLinetypeTableRecord
70
0
2
ByBlock
3

72
65
73
0
40
0
0
LTYPE
5
15
100
AcDbSymbolTableRecord
100
AcDbLinetypeTableRecord
70
0
2
ByLayer
3

72
65
73
0
40
0
0
LTYPE
5
16
100
AcDbSymbolTableRecord
100
AcDbLinetypeTableRecord
70
0
2
CONTINUOUS
3
Solid line
72
65
73
0
40
0
0
LTYPE
5
3B
100
AcDbSymbolTableRecord
100
AcDbLinetypeTableRecord
70
0
2
DASHED
3
__ __ __ __ __ __ __ __ __
72
65
73
2
40
25.72
49
12.86
74
0
49
-12.86
74
0
0
LTYPE
5
3C
100
AcDbSymbolTableRecord
100
AcDbLinetypeTableRecord
70
0
2
HIDDEN
3
_ _ _ _ _ _ _ _ _ _ _ _ _ _ _
72
65
73
2
40
0.5
49
0.25
74
0
49
-0.25
74
0
0
LTYPE
5
3D
100
AcDbSymbolTableRecord
100
AcDbLinetypeTableRecord
70
0
2
PHANTOM
3
____ _ _ ____ _ _ _____ _ _ ____
72
65
73
6
40
50.5
49
18
74
0
49
-6.5
74
0
49
6.5
74
0
49
-6.5
74
0
49
6.5
74
0
49
-6.5
74
0
0
LTYPE
5
3E
100
AcDbSymbolTableRecord
100
AcDbLinetypeTableRecord
70
0
2
CENTER
3
____ _ ____ _ ____ _ ____
72
65
73
4
40
47.5
49
22
74
0
49
-8.5
74
0
49
8.5
74
0
49
-8.5
74
0
0
LTYPE
5
3F
100
AcDbSymbolTableRecord
100
AcDbLinetypeTableRecord
70
0
2
DOT
3
.........................
72
65
73
2
40
10
49
0
74
0
49
-10
74
0
0
LTYPE
5
40
100
AcDbSymbolTableRecord
100
AcDbLinetypeTableRecord
70
0
2
DASHDOT
3
_._._._._._._._._._._._._._._._.
72
65
73
4
40
70
49
31
74
0
49
-13
74
0
49
13
74
0
49
-13
74
0
0
ENDTAB
0
TABLE
2
LAYER
5
18d
100
AcDbSymbolTable
0
LAYER
5
10
100
AcDbSymbolTableRecord
100
AcDbLayerTableRecord
2
0
70
0
62
7
6
CONTINUOUS
290
1
370
-3
390
0
0
LAYER
5
42
100
AcDbSymbolTableRecord
100
AcDbLayerTableRecord
2
80
70
0
62
-6
6
CONTINUOUS
290
1
370
-3
390
0
0
LAYER
5
44
100
AcDbSymbolTableRecord
100
AcDbLayerTableRecord
2
81
70
0
62
-3
6
CONTINUOUS
290
1
370
-3
390
0
0
LAYER
5
46
100
AcDbSymbolTableRecord
100
AcDbLayerTableRecord
2
1
70
0
62
4
6
CONTINUOUS
290
1
370
-3
390
0
0
LAYER
5
48
100
AcDbSymbolTableRecord
100
AcDbLayerTableRecord
2
2
70
0
62
7
6
CONTINUOUS
290
1
370
-3
390
0
0
LAYER
5
4F
100
AcDbSymbolTableRecord
100
AcDbLayerTableRecord
2
4
70
0
62
-2
6
CENTER
290
1
370
-3
390
0
0
LAYER
5
177
100
AcDbSymbolTableRecord
100
AcDbLayerTableRecord
2
SK4
70
0
62
2
6
CENTER
290
1
370
-3
390
0
0
LAYER
5
178
100
AcDbSymbolTableRecord
100
AcDbLayerTableRecord
2
SK1
70
0
62
4
6
CONTINUOUS
290
1
370
-3
390
0
0
LAYER
5
179
100
AcDbSymbolTableRecord
100
AcDbLayerTableRecord
2
SK6
70
0
62
5
6
CONTINUOUS
290
1
370
-3
390
0
0
LAYER
5
17a
100
AcDbSymbolTableRecord
100
AcDbLayerTableRecord
2
SK2
70
0
62
7
6
CONTINUOUS
290
1
370
-3
390
0
0
ENDTAB
0
TABLE
2
STYLE
5
18e
100
AcDbSymbolTable
0
STYLE
5
11
100
AcDbSymbolTableRecord
100
AcDbTextStyleTableRecord
2
Standard
3
txt
70
0
71
0
40
0
41
1
42
0
50
0
0
STYLE
5
F3
100
AcDbSymbolTableRecord
100
AcDbTextStyleTableRecord
2
DEFAULT
3
simplex.shx
70
0
71
0
40
0
41
1
42
0
50
0
0
STYLE
5
116
100
AcDbSymbolTableRecord
100
AcDbTextStyleTableRecord
2
DWGDirectTextStyle
3
SIMPLEX
70
0
71
0
40
0
41
1
42
0
50
0
0
ENDTAB
0
TABLE
2
DIMSTYLE
5
18f
100
AcDbSymbolTable
100
AcDbDimStyleTable
0
DIMSTYLE
105
27
100
AcDbSymbolTableRecord
100
AcDbDimStyleTableRecord
2
Standard
70
0
3
<>
41
0.18
42
0.0625
44
0.18
140
0.18
147
0.09
73
0
74
0
77
1
271
2
275
0
278
52
280
0
340
11
0
ENDTAB
0
TABLE
2
VIEW
5
190
100
AcDbSymbolTable
0
ENDTAB
0
TABLE
2
UCS
5
191
100
AcDbSymbolTable
0
ENDTAB
0
TABLE
2
APPID
5
192
100
AcDbSymbolTable
0
APPID
5
12
100
AcDbSymbolTableRecord
100
AcDbRegAppTableRecord
2
ACAD
70
0
0
ENDTAB
0
TABLE
2
BLOCK_RECORD
5
193
100
AcDbSymbolTable
0
BLOCK_RECORD
5
1F
100
AcDbSymbolTableRecord
100
AcDbBlockTableRecord
2
*Model_Space
340
0
70
0
0
BLOCK_RECORD
5
1B
100
AcDbSymbolTableRecord
100
AcDbBlockTableRecord
2
*Paper_Space
340
0
70
0
0
BLOCK_RECORD
5
23
100
AcDbSymbolTableRecord
100
AcDbBlockTableRecord
2
*Paper_Space0
340
0
70
0
0
BLOCK_RECORD
5
118
100
AcDbSymbolTableRecord
100
AcDbBlockTableRecord
2
DimnDraft3D1
340
0
70
0
0
BLOCK_RECORD
5
126
100
AcDbSymbolTableRecord
100
AcDbBlockTableRecord
2
_CLOSED
340
0
70
0
0
BLOCK_RECORD
5
12D
100
AcDbSymbolTableRecord
100
AcDbBlockTableRecord
2
DimnDraft3D2
340
0
70
0
0
BLOCK_RECORD
5
13C
100
AcDbSymbolTableRecord
100
AcDbBlockTableRecord
2
DimnDraft3D3
340
0
70
0
0
BLOCK_RECORD
5
14A
100
AcDbSymbolTableRecord
100
AcDbBlockTableRecord
2
DimnDraft3D4
340
0
70
0
0
ENDTAB
0
ENDSEC
0
SECTION
2
BLOCKS
0
BLOCK
5
20
100
AcDbEntity
8
0
100
AcDbBlockBegin
2
*Model_Space
70
0
10
0
20
0
30
0
3
*Model_Space
0
ENDBLK
5
21
100
AcDbEntity
8
0
100
AcDbBlockEnd
0
BLOCK
5
1C
100
AcDbEntity
8
0
100
AcDbBlockBegin
2
*Paper_Space
70
0
10
0
20
0
30
0
3
*Paper_Space
0
ENDBLK
5
1D
100
AcDbEntity
8
0
100
AcDbBlockEnd
0
BLOCK
5
24
100
AcDbEntity
8
0
100
AcDbBlockBegin
2
*Paper_Space0
70
0
10
0
20
0
30
0
3
*Paper_Space0
0
ENDBLK
5
25
100
AcDbEntity
8
0
100
AcDbBlockEnd
0
BLOCK
5
123
100
AcDbEntity
8
0
100
AcDbBlockBegin
2
DimnDraft3D1
70
0
10
0
20
0
30
0
3
DimnDraft3D1
0
MTEXT
5
119
100
AcDbEntity
8
2
62
256
6
ByLayer
370
-1
48
1
60
0
100
AcDbMText
10
111.055
20
-11.925658
30
0
210
0
220
0
230
1
1
\W01.000;\fsimplex.shx,bigfont.shx;17.0 
40
4.5
41
0
44
1.084337
50
90
71
7
72
5
7
DEFAULT
0
LINE
5
11A
100
AcDbEntity
8
2
62
256
6
ByLayer
370
-1
48
1
60
0
100
AcDbLine
10
101.93
20
-16.9
30
0
11
114.18
21
-16.9
31
0
39
0
210
0
220
0
230
1
0
LINE
5
11B
100
AcDbEntity
8
2
62
256
6
ByLayer
370
-1
48
1
60
0
100
AcDbLine
10
101.93
20
0
30
0
11
114.18
21
0
31
0
39
0
210
0
220
0
230
1
0
LINE
5
11C
100
AcDbEntity
8
2
62
256
6
ByLayer
370
-1
48
1
60
0
100
AcDbLine
10
112.18
20
-28.15
30
0
11
112.18
21
11.25
31
0
39
0
210
0
220
0
230
1
0
LINE
5
11D
100
AcDbEntity
8
2
62
256
6
ByLayer
370
-1
48
1
60
0
100
AcDbLine
10
112.18
20
-16.9
30
0
11
112.597997
21
-20.074998
31
0
39
0
210
0
220
0
230
1
0
LINE
5
11E
100
AcDbEntity
8
2
62
256
6
ByLayer
370
-1
48
1
60
0
100
AcDbLine
10
112.18
20
-16.9
30
0
11
111.762003
21
-20.075002
31
0
39
0
210
0
220
0
230
1
0
LINE
5
11F
100
AcDbEntity
8
2
62
256
6
ByLayer
370
-1
48
1
60
0
100
AcDbLine
10
112.597997
20
-20.074998
30
0
11
111.762003
21
-20.075002
31
0
39
0
210
0
220
0
230
1
0
LINE
5
120
100
AcDbEntity
8
2
62
256
6
ByLayer
370
-1
48
1
60
0
100
AcDbLine
10
112.18
20
0
30
0
11
111.762003
21
3.174998
31
0
39
0
210
0
220
0
230
1
0
LINE
5
121
100
AcDbEntity
8
2
62
256
6
ByLayer
370
-1
48
1
60
0
100
AcDbLine
10
112.18
20
0
30
0
11
112.597997
21
3.175002
31
0
39
0
210
0
220
0
230
1
0
LINE
5
122
100
AcDbEntity
8
2
62
256
6
ByLayer
370
-1
48
1
60
0
100
AcDbLine
10
111.762003
20
3.174998
30
0
11
112.597997
21
3.175002
31
0
39
0
210
0
220
0
230
1
0
ENDBLK
5
124
100
AcDbEntity
8
0
100
AcDbBlockEnd
0
BLOCK
5
127
100
AcDbEntity
8
0
100
AcDbBlockBegin
2
_CLOSED
70
0
10
0
20
0
30
0
3
_CLOSED
0
LINE
5
129
100
AcDbEntity
8
0
62
256
6
ByLayer
370
-2
48
1
60
0
100
AcDbLine
10
-1
20
0.166667
30
0
11
0
21
0
31
0
39
0
210
0
220
0
230
1
0
LINE
5
12A
100
AcDbEntity
8
0
62
256
6
ByLayer
370
-2
48
1
60
0
100
AcDbLine
10
0
20
0
30
0
11
-1
21
-0.166667
31
0
39
0
210
0
220
0
230
1
0
LINE
5
12B
100
AcDbEntity
8
0
62
256
6
ByLayer
370
-2
48
1
60
0
100
AcDbLine
10
-1
20
0.166667
30
0
11
-1
21
-0.166667
31
0
39
0
210
0
220
0
230
1
0
LINE
5
12C
100
AcDbEntity
8
0
62
256
6
ByLayer
370
-2
48
1
60
0
100
AcDbLine
10
0
20
0
30
0
11
-1
21
0
31
0
39
0
210
0
220
0
230
1
0
ENDBLK
5
128
100
AcDbEntity
8
0
100
AcDbBlockEnd
0
BLOCK
5
139
100
AcDbEntity
8
0
100
AcDbBlockBegin
2
DimnDraft3D2
70
0
10
0
20
0
30
0
3
DimnDraft3D2
0
MTEXT
5
12E
100
AcDbEntity
8
SK2
62
256
6
ByLayer
370
-1
48
1
60
0
100
AcDbMText
10
-212.195
20
-3.659211
30
0
210
0
220
0
230
1
1
\W01.000;\fsimplex.shx,bigfont.shx;%%c25 
40
4.5
41
0
44
1.084337
50
90
71
7
72
5
7
DEFAULT
0
LINE
5
130
100
AcDbEntity
8
SK2
62
256
6
ByLayer
370
-1
48
1
60
0
100
AcDbLine
10
-203.32
20
-12.49125
30
0
11
-213.07
21
-12.49125
31
0
39
0
210
0
220
0
230
1
0
LINE
5
131
100
AcDbEntity
8
SK2
62
256
6
ByLayer
370
-1
48
1
60
0
100
AcDbLine
10
-203.32
20
12.49125
30
0
11
-213.07
21
12.49125
31
0
39
0
210
0
220
0
230
1
0
LINE
5
132
100
AcDbEntity
8
SK2
62
256
6
ByLayer
370
-1
48
1
60
0
100
AcDbLine
10
-211.07
20
-12.49125
30
0
11
-211.07
21
12.49125
31
0
39
0
210
0
220
0
230
1
0
LINE
5
133
100
AcDbEntity
8
SK2
62
256
6
ByLayer
370
-1
48
1
60
0
100
AcDbLine
10
-211.07
20
-12.49125
30
0
11
-211.487997
21
-9.316252
31
0
39
0
210
0
220
0
230
1
0
LINE
5
134
100
AcDbEntity
8
SK2
62
256
6
ByLayer
370
-1
48
1
60
0
100
AcDbLine
10
-211.07
20
-12.49125
30
0
11
-210.652003
21
-9.316248
31
0
39
0
210
0
220
0
230
1
0
LINE
5
135
100
AcDbEntity
8
SK2
62
256
6
ByLayer
370
-1
48
1
60
0
100
AcDbLine
10
-211.487997
20
-9.316252
30
0
11
-210.652003
21
-9.316248
31
0
39
0
210
0
220
0
230
1
0
LINE
5
136
100
AcDbEntity
8
SK2
62
256
6
ByLayer
370
-1
48
1
60
0
100
AcDbLine
10
-211.07
20
12.49125
30
0
11
-210.652003
21
9.316252
31
0
39
0
210
0
220
0
230
1
0
LINE
5
137
100
AcDbEntity
8
SK2
62
256
6
ByLayer
370
-1
48
1
60
0
100
AcDbLine
10
-211.07
20
12.49125
30
0
11
-211.487997
21
9.316248
31
0
39
0
210
0
220
0
230
1
0
LINE
5
138
100
AcDbEntity
8
SK2
62
256
6
ByLayer
370
-1
48
1
60
0
100
AcDbLine
10
-210.652003
20
9.316252
30
0
11
-211.487997
21
9.316248
31
0
39
0
210
0
220
0
230
1
0
ENDBLK
5
13A
100
AcDbEntity
8
0
100
AcDbBlockEnd
0
BLOCK
5
147
100
AcDbEntity
8
0
100
AcDbBlockBegin
2
DimnDraft3D3
70
0
10
0
20
0
30
0
3
DimnDraft3D3
0
MTEXT
5
13D
100
AcDbEntity
8
SK2
62
256
6
ByLayer
370
-1
48
1
60
0
100
AcDbMText
10
-56.385132
20
-33.025
30
0
210
0
220
0
230
1
1
\W01.000;\fsimplex.shx,bigfont.shx;300.0 
40
4.5
41
0
44
1.084337
50
0
71
7
72
5
7
DEFAULT
0
LINE
5
13E
100
AcDbEntity
8
SK2
62
256
6
ByLayer
370
-1
48
1
60
0
100
AcDbLine
10
-201.32
20
-14.49125
30
0
11
-201.32
21
-36.15
31
0
39
0
210
0
220
0
230
1
0
LINE
5
13F
100
AcDbEntity
8
SK2
62
256
6
ByLayer
370
-1
48
1
60
0
100
AcDbLine
10
99.93
20
-18.9
30
0
11
99.93
21
-36.15
31
0
39
0
210
0
220
0
230
1
0
LINE
5
140
100
AcDbEntity
8
SK2
62
256
6
ByLayer
370
-1
48
1
60
0
100
AcDbLine
10
-201.32
20
-34.15
30
0
11
99.93
21
-34.15
31
0
39
0
210
0
220
0
230
1
0
LINE
5
141
100
AcDbEntity
8
SK2
62
256
6
ByLayer
370
-1
48
1
60
0
100
AcDbLine
10
-201.32
20
-34.15
30
0
11
-198.145002
21
-33.732003
31
0
39
0
210
0
220
0
230
1
0
LINE
5
142
100
AcDbEntity
8
SK2
62
256
6
ByLayer
370
-1
48
1
60
0
100
AcDbLine
10
-201.32
20
-34.15
30
0
11
-198.144998
21
-34.567997
31
0
39
0
210
0
220
0
230
1
0
LINE
5
143
100
AcDbEntity
8
SK2
62
256
6
ByLayer
370
-1
48
1
60
0
100
AcDbLine
10
-198.145002
20
-33.732003
30
0
11
-198.144998
21
-34.567997
31
0
39
0
210
0
220
0
230
1
0
LINE
5
144
100
AcDbEntity
8
SK2
62
256
6
ByLayer
370
-1
48
1
60
0
100
AcDbLine
10
99.93
20
-34.15
30
0
11
96.755002
21
-34.567997
31
0
39
0
210
0
220
0
230
1
0
LINE
5
145
100
AcDbEntity
8
SK2
62
256
6
ByLayer
370
-1
48
1
60
0
100
AcDbLine
10
99.93
20
-34.15
30
0
11
96.754998
21
-33.732003
31
0
39
0
210
0
220
0
230
1
0
LINE
5
146
100
AcDbEntity
8
SK2
62
256
6
ByLayer
370
-1
48
1
60
0
100
AcDbLine
10
96.755002
20
-34.567997
30
0
11
96.754998
21
-33.732003
31
0
39
0
210
0
220
0
230
1
0
ENDBLK
5
148
100
AcDbEntity
8
0
100
AcDbBlockEnd
0
BLOCK
5
155
100
AcDbEntity
8
0
100
AcDbBlockBegin
2
DimnDraft3D4
70
0
10
0
20
0
30
0
3
DimnDraft3D4
0
MTEXT
5
14B
100
AcDbEntity
8
2
62
256
6
ByLayer
370
-1
48
1
60
0
100
AcDbMText
10
105.043522
20
37.237403
30
0
210
0
220
0
230
1
1
\W01.000;\fsimplex.shx,bigfont.shx;117%%d30' 
40
4.5
41
0
44
1.084337
50
328.75
71
7
72
5
7
DEFAULT
0
LINE
5
14C
100
AcDbEntity
8
2
62
256
6
ByLayer
370
-1
48
1
60
0
100
AcDbLine
10
91.618525
20
-0.933805
30
0
11
72.696454
21
35.415155
31
0
39
0
210
0
220
0
230
1
0
LINE
5
14D
100
AcDbEntity
8
2
62
256
6
ByLayer
370
-1
48
1
60
0
100
AcDbLine
10
101.93
20
0
30
0
11
131.058824
21
0
31
0
39
0
210
0
220
0
230
1
0
ARC
5
14E
100
AcDbEntity
8
2
62
256
6
ByLayer
370
-1
48
1
60
0
100
AcDbCircle
39
0
10
91.132417
20
0
30
0
40
37.9264068640928
210
0
220
0
230
1
100
AcDbArc
50
0
51
117.5
0
LINE
5
14F
100
AcDbEntity
8
2
62
256
6
ByLayer
370
-1
48
1
60
0
100
AcDbLine
10
73.619951
20
33.641134
30
0
11
76.281043
21
35.422686
31
0
39
0
210
0
220
0
230
1
0
LINE
5
150
100
AcDbEntity
8
2
62
256
6
ByLayer
370
-1
48
1
60
0
100
AcDbLine
10
73.619951
20
33.641134
30
0
11
76.651471
21
34.67324
31
0
39
0
210
0
220
0
230
1
0
LINE
5
151
100
AcDbEntity
8
2
62
256
6
ByLayer
370
-1
48
1
60
0
100
AcDbLine
10
76.281043
20
35.422686
30
0
11
76.651471
21
34.67324
31
0
39
0
210
0
220
0
230
1
0
LINE
5
152
100
AcDbEntity
8
2
62
256
6
ByLayer
370
-1
48
1
60
0
100
AcDbLine
10
129.058824
20
0
30
0
11
128.574514
21
3.165562
31
0
39
0
210
0
220
0
230
1
0
LINE
5
153
100
AcDbEntity
8
2
62
256
6
ByLayer
370
-1
48
1
60
0
100
AcDbLine
10
129.058824
20
0
30
0
11
129.410324
21
3.183049
31
0
39
0
210
0
220
0
230
1
0
LINE
5
154
100
AcDbEntity
8
2
62
256
6
ByLayer
370
-1
48
1
60
0
100
AcDbLine
10
128.574514
20
3.165562
30
0
11
129.410324
21
3.183049
31
0
39
0
210
0
220
0
230
1
0
ENDBLK
5
156
100
AcDbEntity
8
0
100
AcDbBlockEnd
0
ENDSEC
0
SECTION
2
ENTITIES
0
ELLIPSE
5
8C
100
AcDbEntity
8
1
62
256
6
ByLayer
370
-1
48
1
60
0
100
AcDbEllipse
10
79.737931
20
1.837494
30
0
11
1.44073289318626
21
0.74999807283885
31
0
210
0
220
0
230
1
40
0.9903
41
2.138253724421
42
-2.53072741539173
0
ELLIPSE
5
8D
100
AcDbEntity
8
1
62
256
6
ByLayer
370
-1
48
1
60
0
100
AcDbEllipse
10
65.184216
20
-9.774584
30
0
11
9.79685083057902E-17
21
1.6
31
0
210
0
220
0
230
1
40
0.06465
41
0.869625779255536
42
1.44723721227701
0
ELLIPSE
5
8E
100
AcDbEntity
8
1
62
256
6
ByLayer
370
-1
48
1
60
0
100
AcDbEllipse
10
-886.355157
20
0.003333
30
0
11
1568.07416721301
21
-12.3999373504407
31
0
210
0
220
0
230
-1
40
0.00098
41
0.912337332322183
42
0.918491103756452
0
ELLIPSE
5
8F
100
AcDbEntity
8
1
62
256
6
ByLayer
370
-1
48
1
60
0
100
AcDbEllipse
10
102.614794
20
0
30
0
11
34.5216308778697
21
2.57221107677726
31
0
210
0
220
0
230
-1
40
0.354084
41
2.58237939597132
42
-2.9529757160248
0
ELLIPSE
5
90
100
AcDbEntity
8
1
62
256
6
ByLayer
370
-1
48
1
60
0
100
AcDbEllipse
10
92.174609
20
0
30
0
11
12.5885249304
21
12.4351256519759
31
0
210
0
220
0
230
-1
40
0.093957
41
2.94017594967549
42
3.04676825861523
0
ELLIPSE
5
91
100
AcDbEntity
8
1
62
256
6
ByLayer
370
-1
48
1
60
0
100
AcDbEllipse
10
79.098676
20
4.136348
30
0
11
1.24181516644951
21
0.646448058529045
31
0
210
0
220
0
230
1
40
0.9903
41
-2.8934722596708
42
-1.49192947431721
0
ELLIPSE
5
92
100
AcDbEntity
8
1
62
256
6
ByLayer
370
-1
48
1
60
0
100
AcDbEllipse
10
79.098676
20
4.136348
30
0
11
1.24181516644951
21
0.646448058529045
31
0
210
0
220
0
230
1
40
0.9903
41
-1.07566824264861
42
-0.248152996078552
0
ELLIPSE
5
93
100
AcDbEntity
8
1
62
256
6
ByLayer
370
-1
48
1
60
0
100
AcDbEllipse
10
79.203741
20
3.934531
30
0
11
2.15961527105545
21
-1.11664693143831
31
0
210
0
220
0
230
-1
40
0.001271
41
-0.8635198068187
42
-0.795837692901876
0
ELLIPSE
5
94
100
AcDbEntity
8
1
62
256
6
ByLayer
370
-1
48
1
60
0
100
AcDbEllipse
10
75.483042
20
-0.58412
30
0
11
1.05014513430547
21
1.22080403634105
31
0
210
0
220
0
230
-1
40
0.952491
41
0.209830352810675
42
1.17553194259973
0
ELLIPSE
5
95
100
AcDbEntity
8
1
62
256
6
ByLayer
370
-1
48
1
60
0
100
AcDbEllipse
10
124.445381
20
0
30
0
11
194.296214549222
21
1.54896570551957
31
0
210
0
220
0
230
-1
40
0.063794
41
-1.85037645859197
42
-1.77359976510079
0
ELLIPSE
5
96
100
AcDbEntity
8
1
62
256
6
ByLayer
370
-1
48
1
60
0
100
AcDbEllipse
10
72.806082
20
-9.774584
30
0
11
9.79685083057902E-17
21
1.6
31
0
210
0
220
0
230
1
40
0.06465
41
0.91319127950542
42
1.44723721227701
0
ELLIPSE
5
97
100
AcDbEntity
8
1
62
256
6
ByLayer
370
-1
48
1
60
0
100
AcDbEllipse
10
79.465263
20
2.361286
30
0
11
-1.33051624976733
21
-0.692622919852548
31
0
210
0
220
0
230
1
40
0.9903
41
0.126589225244942
42
0.610865238198029
0
ELLIPSE
5
98
100
AcDbEntity
8
1
62
256
6
ByLayer
370
-1
48
1
60
0
100
AcDbEllipse
10
79.638488
20
2.028524
30
0
11
-1.33051624976733
21
-0.692622919852548
31
0
210
0
220
0
230
1
40
0.9903
41
-0.549838125895431
42
0.61086523819798
0
ELLIPSE
5
99
100
AcDbEntity
8
1
62
256
6
ByLayer
370
-1
48
1
60
0
100
AcDbEllipse
10
84.870452
20
-13.521759
30
0
11
-3.72544549934852
21
-1.93934417558712
31
0
210
0
220
0
230
1
40
0.9903
41
-2.01041588497641
42
-1.26536370769589
0
ELLIPSE
5
9A
100
AcDbEntity
8
1
62
256
6
ByLayer
370
-1
48
1
60
0
100
AcDbEllipse
10
79.140378
20
4.056239
30
0
11
-1.24181516644951
21
-0.646448058529044
31
0
210
0
220
0
230
1
40
0.9903
41
2.10804706717882
42
2.2798792570807
0
ELLIPSE
5
9B
100
AcDbEntity
8
1
62
256
6
ByLayer
370
-1
48
1
60
0
100
AcDbEllipse
10
79.140378
20
4.056239
30
0
11
-1.24181516644951
21
-0.646448058529044
31
0
210
0
220
0
230
1
40
0.9903
41
0.309396706415725
42
1.59578324824994
0
ELLIPSE
5
9C
100
AcDbEntity
8
1
62
256
6
ByLayer
370
-1
48
1
60
0
100
AcDbEllipse
10
67.149764
20
0
30
0
11
1.65819902146233
21
0.123552618518724
31
0
210
0
220
0
230
-1
40
0.354084
41
-0.194440297309034
42
0.609249929996519
0
ELLIPSE
5
9D
100
AcDbEntity
8
1
62
256
6
ByLayer
370
-1
48
1
60
0
100
AcDbEllipse
10
65.013042
20
-18.111828
30
0
11
7.62829316533271
21
3.97103807382128
31
0
210
0
220
0
230
1
40
0.9903
41
1.08682745411593
42
1.69769269231394
0
ELLIPSE
5
9E
100
AcDbEntity
8
1
62
256
6
ByLayer
370
-1
48
1
60
0
100
AcDbEllipse
10
72.617921
20
0
30
0
11
18.1751291369613
21
12.4095647137389
31
0
210
0
220
0
230
-1
40
0.07847
41
2.42895106129304
42
2.65549107726177
0
ELLIPSE
5
9F
100
AcDbEntity
8
1
62
256
6
ByLayer
370
-1
48
1
60
0
100
AcDbEllipse
10
124.445381
20
0
30
0
11
194.296214636685
21
1.54896570345193
31
0
210
0
220
0
230
-1
40
0.063794
41
1.80170608567089
42
1.91698973770616
0
ELLIPSE
5
A0
100
AcDbEntity
8
1
62
256
6
ByLayer
370
-1
48
1
60
0
100
AcDbEllipse
10
60.249386
20
-11.31802
30
0
11
0.910866672745254
21
-1.31541700782755
31
0
210
0
220
0
230
1
40
0.017584
41
1.7090849424421
42
2.46773079362134
0
ELLIPSE
5
A1
100
AcDbEntity
8
1
62
256
6
ByLayer
370
-1
48
1
60
0
100
AcDbEllipse
10
72.728928
20
-6.401788
30
0
11
-2.83843466617031
21
-1.4775955623521
31
0
210
0
220
0
230
1
40
0.9903
41
1.08682745411591
42
2.33001455141244
0
ELLIPSE
5
A2
100
AcDbEntity
8
1
62
256
6
ByLayer
370
-1
48
1
60
0
100
AcDbEllipse
10
102.614794
20
0
30
0
11
34.5216308782343
21
2.5722110767654
31
0
210
0
220
0
230
-1
40
0.354084
41
-2.91539995846748
42
-2.54593194865929
0
ELLIPSE
5
A3
100
AcDbEntity
8
1
62
256
6
ByLayer
370
-1
48
1
60
0
100
AcDbEllipse
10
77.735678
20
1.936637
30
0
11
-1.28756925122665
21
-0.949823890674284
31
0
210
0
220
0
230
1
40
0.137297
41
-1.59233179491878
42
-0.0215354681239538
0
ELLIPSE
5
A4
100
AcDbEntity
8
1
62
256
6
ByLayer
370
-1
48
1
60
0
100
AcDbEllipse
10
84.597784
20
-12.997968
30
0
11
3.72544549934852
21
1.93934417558713
31
0
210
0
220
0
230
1
40
0.9903
41
0.863855704168374
42
0.948489302465477
0
ELLIPSE
5
A5
100
AcDbEntity
8
1
62
256
6
ByLayer
370
-1
48
1
60
0
100
AcDbEllipse
10
96.29032
20
-1.37036
30
0
11
3.7254454993485
21
1.93934417558712
31
0
210
0
220
0
230
1
40
0.9903
41
2.80396852926734
42
3.0157914767847
0
ELLIPSE
5
A6
100
AcDbEntity
8
1
62
256
6
ByLayer
370
-1
48
1
60
0
100
AcDbEllipse
10
73.178587
20
-7.265576
30
0
11
1.05014513432252
21
1.22080403634307
31
0
210
0
220
0
230
-1
40
0.952491
41
1.17553194259599
42
1.97482239689378
0
ELLIPSE
5
A7
100
AcDbEntity
8
1
62
256
6
ByLayer
370
-1
48
1
60
0
100
AcDbEllipse
10
75.155521
20
0.045043
30
0
11
1.41921733308516
21
0.738797781176052
31
0
210
0
220
0
230
1
40
0.9903
41
-1.16262471229219E-05
42
0.154123487611756
0
ELLIPSE
5
A8
100
AcDbEntity
8
1
62
256
6
ByLayer
370
-1
48
1
60
0
100
AcDbEllipse
10
75.052869
20
0.242235
30
0
11
-2.83843466617031
21
-1.4775955623521
31
0
210
0
220
0
230
1
40
0.9903
41
2.33001455141244
42
-2.98746916597805
0
ELLIPSE
5
A9
100
AcDbEntity
8
1
62
256
6
ByLayer
370
-1
48
1
60
0
100
AcDbEllipse
10
79.413047
20
3.532448
30
0
11
-1.24181516644951
21
-0.646448058529044
31
0
210
0
220
0
230
1
40
0.9903
41
2.36957993966882
42
0.215935214941492
0
ELLIPSE
5
AA
100
AcDbEntity
8
1
62
256
6
ByLayer
370
-1
48
1
60
0
100
AcDbEllipse
10
78.170784
20
-0.976804
30
0
11
-1.51027730548079
21
0.528263627888281
31
0
210
0
220
0
230
1
40
0.095643
41
-1.46937184198146
42
-0.701375241962709
0
ELLIPSE
5
AB
100
AcDbEntity
8
1
62
256
6
ByLayer
370
-1
48
1
60
0
100
AcDbEllipse
10
75.846842
20
-7.620827
30
0
11
-1.51027730548079
21
0.528263627888281
31
0
210
0
220
0
230
1
40
0.095643
41
-1.46937184198149
42
-0.817663192830264
0
ELLIPSE
5
AC
100
AcDbEntity
8
1
62
256
6
ByLayer
370
-1
48
1
60
0
100
AcDbEllipse
10
77.300282
20
0
30
0
11
9.16116380836497
21
-12.4902557209434
31
0
210
0
220
0
230
-1
40
0.017203
41
1.97166960183894
42
2.60563322714632
0
ELLIPSE
5
AD
100
AcDbEntity
8
1
62
256
6
ByLayer
370
-1
48
1
60
0
100
AcDbEllipse
10
89.861785
20
-6.888123
30
0
11
2.70053478346823
21
1.40580942714245
31
0
210
0
220
0
230
1
40
0.9903
41
0
42
6.28318530717959
0
ELLIPSE
5
AE
100
AcDbEntity
8
1
62
256
6
ByLayer
370
-1
48
1
60
0
100
AcDbEllipse
10
93.101264
20
-3.666632
30
0
11
0.338050922422296
21
0.21675063056493
31
0
210
0
220
0
230
-1
40
0.986693
41
-0.5194772887009
42
0.0889887882473462
0
ELLIPSE
5
AF
100
AcDbEntity
8
1
62
256
6
ByLayer
370
-1
48
1
60
0
100
AcDbEllipse
10
80.57297
20
2.348699
30
0
11
0.753951612627157
21
0.25029917277798
31
0
210
0
220
0
230
-1
40
0.993049
41
3.10587746774036
42
-0.894022143085223
0
ELLIPSE
5
B0
100
AcDbEntity
8
1
62
256
6
ByLayer
370
-1
48
1
60
0
100
AcDbEllipse
10
89.786001
20
-6.742543
30
0
11
2.61176051938549
21
1.359596470324
31
0
210
0
220
0
230
1
40
0.9903
41
2.65762386258492
42
-3.04599375868619E-16
0
ELLIPSE
5
B1
100
AcDbEntity
8
1
62
256
6
ByLayer
370
-1
48
1
60
0
100
AcDbEllipse
10
89.786001
20
-6.742543
30
0
11
2.61176051938549
21
1.359596470324
31
0
210
0
220
0
230
1
40
0.9903
41
0
42
0.626093224133605
0
ELLIPSE
5
B2
100
AcDbEntity
8
1
62
256
6
ByLayer
370
-1
48
1
60
0
100
AcDbEllipse
10
89.786001
20
-6.742543
30
0
11
2.61176051938549
21
1.359596470324
31
0
210
0
220
0
230
1
40
0.9903
41
2.51546681469588
42
2.65762386258492
0
ELLIPSE
5
B3
100
AcDbEntity
8
1
62
256
6
ByLayer
370
-1
48
1
60
0
100
AcDbEllipse
10
99.150599
20
-16.124944
30
0
11
0.753951612624696
21
0.250299172785133
31
0
210
0
220
0
230
-1
40
0.993049
41
-0.0357151858386603
42
2.24757051051416
0
ELLIPSE
5
B4
100
AcDbEntity
8
1
62
256
6
ByLayer
370
-1
48
1
60
0
100
AcDbEllipse
10
80.560274
20
2.64429
30
0
11
0.753951612539838
21
0.25029917302469
31
0
210
0
220
0
230
-1
40
0.993049
41
-2.40535053443412
42
-1.66597944743426
0
ELLIPSE
5
B5
100
AcDbEntity
8
1
62
256
6
ByLayer
370
-1
48
1
60
0
100
AcDbEllipse
10
86.622305
20
-10.109613
30
0
11
0.338050922578717
21
0.216750630217542
31
0
210
0
220
0
230
-1
40
0.986693
41
2.62211536392592
42
-3.05260386626212
0
ELLIPSE
5
B6
100
AcDbEntity
8
1
62
256
6
ByLayer
370
-1
48
1
60
0
100
AcDbEllipse
10
80.538604
20
3.148847
30
0
11
0.809773422063186
21
-0.369928483960268
31
0
210
0
220
0
230
-1
40
0.090638
41
-1.98793044744162
42
-1.21597314281242
0
ELLIPSE
5
B7
100
AcDbEntity
8
1
62
256
6
ByLayer
370
-1
48
1
60
0
100
AcDbEllipse
10
89.796344
20
-6.762413
30
0
11
2.66103249953464
21
1.38524583970508
31
0
210
0
220
0
230
1
40
0.9903
41
2.84739546874449
42
-2.98959379211732E-16
0
ELLIPSE
5
B8
100
AcDbEntity
8
1
62
256
6
ByLayer
370
-1
48
1
60
0
100
AcDbEllipse
10
89.796344
20
-6.762413
30
0
11
2.66103249953464
21
1.38524583970508
31
0
210
0
220
0
230
1
40
0.9903
41
0
42
0.294262603555649
0
ELLIPSE
5
B9
100
AcDbEntity
8
1
62
256
6
ByLayer
370
-1
48
1
60
0
100
AcDbEllipse
10
80.538604
20
3.148847
30
0
11
0.48631911154549
21
1.34797014646338
31
0
210
0
220
0
230
-1
40
0.436418
41
-2.32509047915355
42
-1.86463032197776
0
ELLIPSE
5
BA
100
AcDbEntity
8
1
62
256
6
ByLayer
370
-1
48
1
60
0
100
AcDbEllipse
10
89.75128
20
-6.675846
30
0
11
-1.07017857022953
21
-0.557099701868067
31
0
210
0
220
0
230
1
40
0.9903
41
2.39843244765152
42
-3.05105504491486
0
ELLIPSE
5
BB
100
AcDbEntity
8
1
62
256
6
ByLayer
370
-1
48
1
60
0
100
AcDbEllipse
10
88.416157
20
-8.003555
30
0
11
-0.608489431560261
21
-0.316759548679232
31
0
210
0
220
0
230
1
40
0.9903
41
3.14158257874129
42
-2.95777407570866
0
ELLIPSE
5
BC
100
AcDbEntity
8
1
62
256
6
ByLayer
370
-1
48
1
60
0
100
AcDbEllipse
10
89.75128
20
-6.675846
30
0
11
1.07017857022951
21
0.557099701868059
31
0
210
0
220
0
230
1
40
0.9903
41
-2.90519266790319
42
-2.76712740107819
0
ELLIPSE
5
BD
100
AcDbEntity
8
1
62
256
6
ByLayer
370
-1
48
1
60
0
100
AcDbEllipse
10
88.416157
20
-8.003555
30
0
11
-0.608489431560261
21
-0.316759548679232
31
0
210
0
220
0
230
1
40
0.9903
41
-2.71454599327263
42
-2.04489869956935
0
ELLIPSE
5
BE
100
AcDbEntity
8
1
62
256
6
ByLayer
370
-1
48
1
60
0
100
AcDbEllipse
10
91.572875
20
-7.157194
30
0
11
-0.608489431560261
21
-0.316759548679232
31
0
210
0
220
0
230
1
40
0.9903
41
-1.52715084955887
42
-0.743160205938233
0
ELLIPSE
5
BF
100
AcDbEntity
8
1
62
256
6
ByLayer
370
-1
48
1
60
0
100
AcDbEllipse
10
89.75128
20
-6.675846
30
0
11
-1.07017857022953
21
-0.557099701868067
31
0
210
0
220
0
230
1
40
0.9903
41
-0.447608352812014
42
0.236399985686535
0
ELLIPSE
5
C0
100
AcDbEntity
8
1
62
256
6
ByLayer
370
-1
48
1
60
0
100
AcDbEllipse
10
89.75128
20
-6.675846
30
0
11
1.07017857022951
21
0.557099701868059
31
0
210
0
220
0
230
1
40
0.9903
41
-1.78756720945344
42
-0.743160205938276
0
ELLIPSE
5
C1
100
AcDbEntity
8
1
62
256
6
ByLayer
370
-1
48
1
60
0
100
AcDbEllipse
10
89.392095
20
-8.00536
30
0
11
-0.259007163288041
21
-0.134830595064629
31
0
210
0
220
0
230
1
40
0.9903
41
0.319650707573252
42
2.13801608775657
0
ELLIPSE
5
C2
100
AcDbEntity
8
1
62
256
6
ByLayer
370
-1
48
1
60
0
100
AcDbEllipse
10
89.752884
20
-6.678927
30
0
11
2.32840343709285
21
1.21209010974197
31
0
210
0
220
0
230
1
40
0.9903
41
2.65762392952764
42
-3.14155959035282
0
ELLIPSE
5
C3
100
AcDbEntity
8
1
62
256
6
ByLayer
370
-1
48
1
60
0
100
AcDbEllipse
10
89.752884
20
-6.678927
30
0
11
2.32840343709285
21
1.21209010974197
31
0
210
0
220
0
230
1
40
0.9903
41
0
42
2.65762396857191
0
ELLIPSE
5
C4
100
AcDbEntity
8
1
62
256
6
ByLayer
370
-1
48
1
60
0
100
AcDbEllipse
10
89.825295
20
-6.818027
30
0
11
1.07017857022953
21
0.557099701868069
31
0
210
0
220
0
230
1
40
0.9903
41
-2.90519266790326
42
-2.76712740107817
0
ELLIPSE
5
C5
100
AcDbEntity
8
1
62
256
6
ByLayer
370
-1
48
1
60
0
100
AcDbEllipse
10
89.842705
20
-6.85147
30
0
11
1.4870736618233
21
0.774121550088537
31
0
210
0
220
0
230
1
40
0.9903
41
2.92063594940919
42
-2.30977071121102
0
ELLIPSE
5
C6
100
AcDbEntity
8
1
62
256
6
ByLayer
370
-1
48
1
60
0
100
AcDbEllipse
10
88.41432
20
-7.033058
30
0
11
-0.259007163288041
21
-0.134830595064629
31
0
210
0
220
0
230
1
40
0.9903
41
0.418430360547744
42
1.0966939540204
0
ELLIPSE
5
C7
100
AcDbEntity
8
1
62
256
6
ByLayer
370
-1
48
1
60
0
100
AcDbEllipse
10
91.08824
20
-6.318634
30
0
11
-0.259007163288041
21
-0.134830595064629
31
0
210
0
220
0
230
1
40
0.9903
41
1.61444180403032
42
2.7995583749575
0
ELLIPSE
5
C8
100
AcDbEntity
8
1
62
256
6
ByLayer
370
-1
48
1
60
0
100
AcDbEllipse
10
89.825295
20
-6.818027
30
0
11
1.07017857022953
21
0.557099701868069
31
0
210
0
220
0
230
1
40
0.9903
41
0.236399985687792
42
0.374465252510126
0
ELLIPSE
5
C9
100
AcDbEntity
8
1
62
256
6
ByLayer
370
-1
48
1
60
0
100
AcDbEllipse
10
90.235368
20
-8.487274
30
0
11
-0.608489431560261
21
-0.316759548679232
31
0
210
0
220
0
230
1
40
0.9903
41
-1.78756720945348
42
-1.00357656583264
0
ELLIPSE
5
CA
100
AcDbEntity
8
1
62
256
6
ByLayer
370
-1
48
1
60
0
100
AcDbEllipse
10
89.842705
20
-6.85147
30
0
11
1.4870736618233
21
0.774121550088537
31
0
210
0
220
0
230
1
40
0.9903
41
1.87622894589383
42
2.92063594940919
0
ELLIPSE
5
CB
100
AcDbEntity
8
1
62
256
6
ByLayer
370
-1
48
1
60
0
100
AcDbEllipse
10
89.842705
20
-6.85147
30
0
11
1.4870736618233
21
0.774121550088537
31
0
210
0
220
0
230
1
40
0.9903
41
-1.26536370769579
42
-0.220956704180687
0
ELLIPSE
5
CC
100
AcDbEntity
8
1
62
256
6
ByLayer
370
-1
48
1
60
0
100
AcDbEllipse
10
89.842705
20
-6.85147
30
0
11
1.4870736618233
21
0.774121550088537
31
0
210
0
220
0
230
1
40
0.9903
41
-0.220956704180687
42
0.831821942378531
0
ELLIPSE
5
CD
100
AcDbEntity
8
1
62
256
6
ByLayer
370
-1
48
1
60
0
100
AcDbEllipse
10
89.842705
20
-6.85147
30
0
11
1.4870736618233
21
0.774121550088537
31
0
210
0
220
0
230
1
40
0.9903
41
-2.30977071121102
42
-1.26536370769579
0
ELLIPSE
5
CE
100
AcDbEntity
8
1
62
256
6
ByLayer
370
-1
48
1
60
0
100
AcDbEllipse
10
91.572875
20
-7.157194
30
0
11
-0.608489431560261
21
-0.316759548679232
31
0
210
0
220
0
230
1
40
0.9903
41
-0.743160205938233
42
-1.12713802539009E-05
0
ELLIPSE
5
CF
100
AcDbEntity
8
1
62
256
6
ByLayer
370
-1
48
1
60
0
100
AcDbEllipse
10
89.842705
20
-6.85147
30
0
11
1.59661949972085
21
0.831147503823082
31
0
210
0
220
0
230
1
40
0.9903
41
0
42
6.28318530717959
0
ELLIPSE
5
D0
100
AcDbEntity
8
1
62
256
6
ByLayer
370
-1
48
1
60
0
100
AcDbEllipse
10
89.842705
20
-6.85147
30
0
11
1.4870736618233
21
0.774121550088537
31
0
210
0
220
0
230
1
40
0.9903
41
0.831821942378531
42
1.87622894589383
0
ELLIPSE
5
D1
100
AcDbEntity
8
1
62
256
6
ByLayer
370
-1
48
1
60
0
100
AcDbEllipse
10
89.75128
20
-6.675846
30
0
11
-1.07017857022953
21
-0.557099701868067
31
0
210
0
220
0
230
1
40
0.9903
41
-2.74175062316269
42
-2.1067046713738
0
ELLIPSE
5
D2
100
AcDbEntity
8
1
62
256
6
ByLayer
370
-1
48
1
60
0
100
AcDbEllipse
10
90.724356
20
-7.643475
30
0
11
-0.259007163288041
21
-0.134830595064629
31
0
210
0
220
0
230
1
40
0.9903
41
0.570034800514784
42
3.06682319108197
0
ELLIPSE
5
D3
100
AcDbEntity
8
1
62
256
6
ByLayer
370
-1
48
1
60
0
100
AcDbEllipse
10
89.825033
20
-6.817523
30
0
11
2.32840343709283
21
1.21209010974196
31
0
210
0
220
0
230
1
40
0.9903
41
0
42
6.28318530717959
0
ELLIPSE
5
D4
100
AcDbEntity
8
1
62
256
6
ByLayer
370
-1
48
1
60
0
100
AcDbEllipse
10
91.086404
20
-5.348137
30
0
11
-0.608489431560261
21
-0.316759548679232
31
0
210
0
220
0
230
1
40
0.9903
41
-0.485828715822165
42
-9.42049975470832E-06
0
ELLIPSE
5
D5
100
AcDbEntity
8
1
62
256
6
ByLayer
370
-1
48
1
60
0
100
AcDbEllipse
10
90.235368
20
-8.487274
30
0
11
-0.608489431560261
21
-0.316759548679232
31
0
210
0
220
0
230
1
40
0.9903
41
-2.57155785307424
42
-1.78756720945348
0
ELLIPSE
5
D6
100
AcDbEntity
8
1
62
256
6
ByLayer
370
-1
48
1
60
0
100
AcDbEllipse
10
89.75128
20
-6.675846
30
0
11
-1.07017857022953
21
-0.557099701868067
31
0
210
0
220
0
230
1
40
0.9903
41
0.374465252511626
42
1.35402544413634
0
ELLIPSE
5
D7
100
AcDbEntity
8
1
62
256
6
ByLayer
370
-1
48
1
60
0
100
AcDbEllipse
10
89.75128
20
-6.675846
30
0
11
-1.07017857022953
21
-0.557099701868067
31
0
210
0
220
0
230
1
40
0.9903
41
-1.50536516683836
42
-0.894909353060624
0
POINT
5
41
100
AcDbEntity
8
80
62
256
6
ByLayer
370
-1
48
1
60
0
100
AcDbPoint
10
0
20
0
30
0
39
0
210
0
220
0
230
1
50
360
0
POINT
5
43
100
AcDbEntity
8
81
62
256
6
ByLayer
370
-1
48
1
60
0
100
AcDbPoint
10
99.93
20
-16.9
30
0
39
0
210
0
220
0
230
1
50
360
0
POINT
5
45
100
AcDbEntity
8
1
62
256
6
ByLayer
370
-1
48
1
60
0
100
AcDbPoint
10
-201.32
20
0
30
0
39
0
210
0
220
0
230
1
50
360
0
POINT
5
47
100
AcDbEntity
8
2
62
256
6
ByLayer
370
-1
48
1
60
0
100
AcDbPoint
10
99.93
20
16.9
30
0
39
0
210
0
220
0
230
1
50
360
0
POINT
5
49
100
AcDbEntity
8
2
62
256
6
ByLayer
370
-1
48
1
60
0
100
AcDbPoint
10
99.550173
20
15.710306
30
0
39
0
210
0
220
0
230
1
50
360
0
SPLINE
5
D8
100
AcDbEntity
8
1
62
256
6
ByLayer
370
-1
48
1
60
0
100
AcDbSpline
70
4
71
3
72
8
73
4
40
0
40
0
40
0
40
0
40
1
40
1
40
1
40
1
41
1
10
59.5026265340579
20
-10.3220356278384
30
0
41
1
10
61.0896688010677
20
-9.43740265008179
30
0
41
1
10
63.2539697760976
20
-8.72887394691497
30
0
41
1
10
65.4874839373548
20
-8.74486400121415
30
0
0
SPLINE
5
D9
100
AcDbEntity
8
1
62
256
6
ByLayer
370
-1
48
1
60
0
100
AcDbSpline
70
4
71
3
72
12
73
8
40
0
40
0
40
0
40
0
40
0.5
40
0.5
40
0.75
40
0.75
40
1
40
1
40
1
40
1
41
1
10
58.6098334273323
20
-12.1850619966588
30
0
41
1
10
58.0837520742937
20
-12.1771514721734
30
0
41
1
10
57.550920134785
20
-12.1567954652658
30
0
41
1
10
56.9209690519258
20
-12.0309360627776
30
0
41
1
10
56.7580378925928
20
-11.9661740193401
30
0
41
1
10
56.7251568040234
20
-11.8037623727197
30
0
41
1
10
56.8432577674123
20
-11.7158880851887
30
0
41
1
10
57.0031136961382
20
-11.6383444441846
30
0
0
SPLINE
5
DA
100
AcDbEntity
8
1
62
256
6
ByLayer
370
-1
48
1
60
0
100
AcDbSpline
70
4
71
3
72
8
73
4
40
0
40
0
40
0
40
0
40
1
40
1
40
1
40
1
41
1
10
78.3256760340487
20
2.73327926984896
30
0
41
1
10
78.3283758382424
20
2.6996371376805
30
0
41
1
10
78.3321774008411
20
2.66770735065057
30
0
41
1
10
78.3372358307882
20
2.63752094942592
30
0
0
SPLINE
5
DB
100
AcDbEntity
8
1
62
256
6
ByLayer
370
-1
48
1
60
0
100
AcDbSpline
70
4
71
3
72
12
73
8
40
0
40
0
40
0
40
0
40
0.0273668274759263
40
0.0273668274759263
40
0.680613691274177
40
0.680613691274177
40
1
40
1
40
1
40
1
41
1
10
73.8349333473804
20
-8.66522186421338
30
0
41
1
10
73.8291112539364
20
-8.66760385198768
30
0
41
1
10
73.8232681060495
20
-8.66995843075705
30
0
41
1
10
73.6791132896123
20
-8.72715942732157
30
0
41
1
10
73.5267744320471
20
-8.76694412816801
30
0
41
1
10
73.2942821095552
20
-8.79555623201639
30
0
41
1
10
73.2158729328427
20
-8.80015530316356
30
0
41
1
10
73.1378423086721
20
-8.79959741922221
30
0
0
SPLINE
5
DC
100
AcDbEntity
8
1
62
256
6
ByLayer
370
-1
48
1
60
0
100
AcDbSpline
70
4
71
3
72
18
73
14
40
0
40
0
40
0
40
0
40
0.16339367537937
40
0.16339367537937
40
0.328466633707634
40
0.328466633707634
40
0.47685966795959
40
0.47685966795959
40
0.623017218311753
40
0.623017218311753
40
0.833505245934808
40
0.833505245934808
40
1
40
1
40
1
40
1
41
1
10
69.3139763021197
20
10.6583781612739
30
0
41
1
10
69.2641701255498
20
10.7305772125377
30
0
41
1
10
69.2325924156996
20
10.8053234970906
30
0
41
1
10
69.2209798747124
20
10.9503226102971
30
0
41
1
10
69.2419270518166
20
11.0224839097307
30
0
41
1
10
69.3342320370461
20
11.1450250759922
30
0
41
1
10
69.4013970584662
20
11.1984670833213
30
0
41
1
10
69.5669532953274
20
11.2888363414373
30
0
41
1
10
69.6665132952834
20
11.3271921388549
30
0
41
1
10
69.9300702654936
20
11.4033750731459
30
0
41
1
10
70.107260757161
20
11.435212021969
30
0
41
1
10
70.4336981395848
20
11.4723879003633
30
0
41
1
10
70.5838062231766
20
11.4821765954736
30
0
41
1
10
70.7339542965159
20
11.4861241581741
30
0
0
SPLINE
5
DD
100
AcDbEntity
8
1
62
256
6
ByLayer
370
-1
48
1
60
0
100
AcDbSpline
70
4
71
3
72
14
73
10
40
0
40
0
40
0
40
0
40
0.189093120973672
40
0.189093120973672
40
0.493242366405325
40
0.493242366405325
40
0.762047003708728
40
0.762047003708728
40
1
40
1
40
1
40
1
41
1
10
89.9431256499602
20
-5.36464488764645
30
0
41
1
10
89.9550884355297
20
-5.34683568039455
30
0
41
1
10
89.9694492153086
20
-5.32992228331162
30
0
41
1
10
90.01218244983
20
-5.29006995945718
30
0
41
1
10
90.0446851239211
20
-5.26906122329709
30
0
41
1
10
90.1122151616256
20
-5.24183066477542
30
0
41
1
10
90.1475788217672
20
-5.23381929701074
30
0
41
1
10
90.2145693210817
20
-5.23039423716259
30
0
41
1
10
90.2471117994851
20
-5.23362112699343
30
0
41
1
10
90.2776442853241
20
-5.24155274394903
30
0
0
SPLINE
5
DE
100
AcDbEntity
8
1
62
256
6
ByLayer
370
-1
48
1
60
0
100
AcDbSpline
70
4
71
3
72
20
73
16
40
0
40
0
40
0
40
0
40
0.0870400543493248
40
0.0870400543493248
40
0.286760561891666
40
0.286760561891666
40
0.448605671719522
40
0.448605671719522
40
0.611252433237371
40
0.611252433237371
40
0.763682321746011
40
0.763682321746011
40
0.980401511152828
40
0.980401511152828
40
1
40
1
40
1
40
1
41
1
10
88.6092986613506
20
-6.01560272402705
30
0
41
1
10
88.6227172848649
20
-6.03879994195557
30
0
41
1
10
88.6346863750751
20
-6.06322400482358
30
0
41
1
10
88.6686169288182
20
-6.14700176395925
30
0
41
1
10
88.6839333486606
20
-6.21212870557287
30
0
41
1
10
88.6919935791174
20
-6.33651840418958
30
0
41
1
10
88.6884074341727
20
-6.39596996021703
30
0
41
1
10
88.6658053301738
20
-6.51387263503713
30
0
41
1
10
88.6463528507525
20
-6.57384832302054
30
0
41
1
10
88.5966734461144
20
-6.68134849719576
30
0
41
1
10
88.5667058385204
20
-6.73070664485797
30
0
41
1
10
88.4857647330934
20
-6.83715812547294
30
0
41
1
10
88.4299572451528
20
-6.89080382575287
30
0
41
1
10
88.3650567695273
20
-6.93733733608804
30
0
41
1
10
88.3595752277812
20
-6.94115551386449
30
0
41
1
10
88.3540584974002
20
-6.94488796810407
30
0
0
SPLINE
5
DF
100
AcDbEntity
8
1
62
256
6
ByLayer
370
-1
48
1
60
0
100
AcDbSpline
70
4
71
3
72
18
73
14
40
0
40
0
40
0
40
0
40
0.0343455315398243
40
0.0343455315398243
40
0.255719924475929
40
0.255719924475929
40
0.478251018083659
40
0.478251018083659
40
0.713794007593936
40
0.713794007593936
40
0.971726575408325
40
0.971726575408325
40
1
40
1
40
1
40
1
41
1
10
89.407764859988
20
-8.46138741404076
30
0
41
1
10
89.4032819455755
20
-8.46022285901068
30
0
41
1
10
89.3988229259535
20
-8.45894450951042
30
0
41
1
10
89.3661493498565
20
-8.44868737729806
30
0
41
1
10
89.338863496573
20
-8.43501891674887
30
0
41
1
10
89.2903633052129
20
-8.40052140093843
30
0
41
1
10
89.26854953614
20
-8.37923355308365
30
0
41
1
10
89.2315887809349
20
-8.33098012648307
30
0
41
1
10
89.2164186675607
20
-8.30317044689005
30
0
41
1
10
89.1939562712593
20
-8.24316747386297
30
0
41
1
10
89.1872345741634
20
-8.21006822216648
30
0
41
1
10
89.185252589129
20
-8.17398195856731
30
0
41
1
10
89.1851140819986
20
-8.17039072250742
30
0
41
1
10
89.1850339254022
20
-8.16680422038388
30
0
0
SPLINE
5
E0
100
AcDbEntity
8
1
62
256
6
ByLayer
370
-1
48
1
60
0
100
AcDbSpline
70
4
71
3
72
12
73
8
40
0
40
0
40
0
40
0
40
0.314566371938851
40
0.314566371938851
40
0.781099770558795
40
0.781099770558795
40
1
40
1
40
1
40
1
41
1
10
90.6195174563792
20
-5.9118849048308
30
0
41
1
10
90.5887150837799
20
-5.87287891498997
30
0
41
1
10
90.5629112659838
20
-5.83106248491708
30
0
41
1
10
90.5133556586838
20
-5.7262894327701
30
0
41
1
10
90.4956263547368
20
-5.66115251508802
30
0
41
1
10
90.4856496881825
20
-5.56792281443057
30
0
41
1
10
90.484805597887
20
-5.53818935367789
30
0
41
1
10
90.4861729832083
20
-5.50885369473912
30
0
0
SPLINE
5
E1
100
AcDbEntity
8
1
62
256
6
ByLayer
370
-1
48
1
60
0
100
AcDbSpline
70
4
71
3
72
18
73
14
40
0
40
0
40
0
40
0
40
0.0439895531307509
40
0.0439895531307509
40
0.267209406976777
40
0.267209406976777
40
0.49213762830211
40
0.49213762830211
40
0.730638693196035
40
0.730638693196035
40
0.992064881115283
40
0.992064881115283
40
1
40
1
40
1
40
1
41
1
10
88.2237710391016
20
-7.28402085502324
30
0
41
1
10
88.2222864190477
20
-7.27836992374895
30
0
41
1
10
88.2209682348416
20
-7.27265915508633
30
0
41
1
10
88.2140482836237
20
-7.23797675223108
30
0
41
1
10
88.2126353815046
20
-7.20752903757329
30
0
41
1
10
88.2184190277932
20
-7.14831393571609
30
0
41
1
10
88.2257331587431
20
-7.11880421852547
30
0
41
1
10
88.2480466090665
20
-7.06272927239201
30
0
41
1
10
88.2637342848187
20
-7.03573519091808
30
0
41
1
10
88.3022706572364
20
-6.98641884721337
30
0
41
1
10
88.3261203329643
20
-6.96415277777442
30
0
41
1
10
88.3524837101546
20
-6.94595873198344
30
0
41
1
10
88.3532701834268
20
-6.94542131768407
30
0
41
1
10
88.3540584974002
20
-6.94488796810398
30
0
0
SPLINE
5
E2
100
AcDbEntity
8
1
62
256
6
ByLayer
370
-1
48
1
60
0
100
AcDbSpline
70
4
71
3
72
16
73
12
40
0
40
0
40
0
40
0
40
0.136789730505408
40
0.136789730505408
40
0.359007745710995
40
0.359007745710995
40
0.588111065988121
40
0.588111065988121
40
0.834953840205731
40
0.834953840205731
40
1
40
1
40
1
40
1
41
1
10
91.4616381062105
20
-6.41891930296657
30
0
41
1
10
91.4662236200459
20
-6.43637321211494
30
0
41
1
10
91.4691139384085
20
-6.45426248191268
30
0
41
1
10
91.4720598660262
20
-6.50082858496125
30
0
41
1
10
91.4691892978002
20
-6.52988344856257
30
0
41
1
10
91.4548290307252
20
-6.58488211664871
30
0
41
1
10
91.44292029371
20
-6.61140322192608
30
0
41
1
10
91.4111875044902
20
-6.66000818156408
30
0
41
1
10
91.3904543034174
20
-6.68221521033149
30
0
41
1
10
91.3517360368861
20
-6.71231578149582
30
0
41
1
10
91.3349326218104
20
-6.72269177753245
30
0
41
1
10
91.3173715718229
20
-6.73119863456785
30
0
0
SPLINE
5
E3
100
AcDbEntity
8
1
62
256
6
ByLayer
370
-1
48
1
60
0
100
AcDbSpline
70
4
71
3
72
12
73
8
40
0
40
0
40
0
40
0
40
0.339524106560622
40
0.339524106560622
40
0.774472915985051
40
0.774472915985051
40
1
40
1
40
1
40
1
41
1
10
88.4991918907796
20
-7.48480110340088
30
0
41
1
10
88.5464058461211
20
-7.4811774106941
30
0
41
1
10
88.5946255914056
20
-7.48290507463386
30
0
41
1
10
88.7040001933532
20
-7.50039789698982
30
0
41
1
10
88.7663431474975
20
-7.52037405187386
30
0
41
1
10
88.8557358598632
20
-7.56706295453318
30
0
41
1
10
88.8856980579524
20
-7.58609524788531
30
0
41
1
10
88.914090612669
20
-7.60784153236352
30
0
0
SPLINE
5
E4
100
AcDbEntity
8
1
62
256
6
ByLayer
370
-1
48
1
60
0
100
AcDbSpline
70
4
71
3
72
12
73
8
40
0
40
0
40
0
40
0
40
0.161856123520365
40
0.161856123520365
40
0.519675783503562
40
0.519675783503562
40
1
40
1
40
1
40
1
41
1
10
89.0310729470423
20
-7.72416907230269
30
0
41
1
10
89.0473164769174
20
-7.74498002563661
30
0
41
1
10
89.0624006315592
20
-7.76682641146002
30
0
41
1
10
89.1064723122897
20
-7.83897563254129
30
0
41
1
10
89.1306022043407
20
-7.89251444089581
30
0
41
1
10
89.1713482874851
20
-8.01881607166962
30
0
41
1
10
89.1834021280733
20
-8.09379158203976
30
0
41
1
10
89.1850339254023
20
-8.16680422038388
30
0
0
SPLINE
5
E5
100
AcDbEntity
8
1
62
256
6
ByLayer
370
-1
48
1
60
0
100
AcDbSpline
70
4
71
3
72
18
73
14
40
0
40
0
40
0
40
0
40
0.201762295902873
40
0.201762295902873
40
0.377795197920731
40
0.377795197920731
40
0.555634925556324
40
0.555634925556324
40
0.70900998513508
40
0.70900998513508
40
0.909994042671943
40
0.909994042671943
40
1
40
1
40
1
40
1
41
1
10
89.7283044192554
20
-8.31144171502095
30
0
41
1
10
89.7599198200485
20
-8.24908615054235
30
0
41
1
10
89.8013852186701
20
-8.19011803450744
30
0
41
1
10
89.8959841902975
20
-8.09415837168422
30
0
41
1
10
89.9481722773307
20
-8.0543630691495
30
0
41
1
10
90.0637223877474
20
-7.99277690282696
30
0
41
1
10
90.1290528970991
20
-7.97046708086438
30
0
41
1
10
90.25188165901
20
-7.95009611984446
30
0
41
1
10
90.3106664401735
20
-7.94877981270699
30
0
41
1
10
90.4406628704217
20
-7.96262607339136
30
0
41
1
10
90.5123019984965
20
-7.98298552472195
30
0
41
1
10
90.6070557953055
20
-8.02558102862429
30
0
41
1
10
90.6355520444135
20
-8.04077015408996
30
0
41
1
10
90.6627939491572
20
-8.05760382091938
30
0
0
SPLINE
5
E6
100
AcDbEntity
8
1
62
256
6
ByLayer
370
-1
48
1
60
0
100
AcDbSpline
70
4
71
3
72
14
73
10
40
0
40
0
40
0
40
0
40
0.244176151919767
40
0.244176151919767
40
0.535488233197297
40
0.535488233197297
40
0.798763498974167
40
0.798763498974167
40
1
40
1
40
1
40
1
41
1
10
89.7283044192557
20
-8.31144171502112
30
0
41
1
10
89.7147725373243
20
-8.3381308638258
30
0
41
1
10
89.6970866075956
20
-8.36321760271548
30
0
41
1
10
89.6508185290683
20
-8.41082582609792
30
0
41
1
10
89.6199636785591
20
-8.43262978212479
30
0
41
1
10
89.5553632072793
20
-8.46078048362926
30
0
41
1
10
89.521173207583
20
-8.4687796295475
30
0
41
1
10
89.4605699183956
20
-8.47101847637197
30
0
41
1
10
89.4335915931995
20
-8.46809658787379
30
0
41
1
10
89.407764859988
20
-8.46138741404076
30
0
0
SPLINE
5
E7
100
AcDbEntity
8
1
62
256
6
ByLayer
370
-1
48
1
60
0
100
AcDbSpline
70
4
71
3
72
14
73
10
40
0
40
0
40
0
40
0
40
0.221260774076651
40
0.221260774076651
40
0.521985749353726
40
0.521985749353726
40
0.787205530094759
40
0.787205530094759
40
1
40
1
40
1
40
1
41
1
10
91.062131407873
20
-7.66048387863597
30
0
41
1
10
91.0758715780568
20
-7.684570888786
30
0
41
1
10
91.0867732872685
20
-7.71083926484454
30
0
41
1
10
91.1038522714062
20
-7.77520433880196
30
0
41
1
10
91.1070860998058
20
-7.81533888385903
30
0
41
1
10
91.0982678379045
20
-7.88881572407539
30
0
41
1
10
91.0877701537096
20
-7.9235128777791
30
0
41
1
10
91.0583101762285
20
-7.97975726896487
30
0
41
1
10
91.0410961394261
20
-8.00320113320242
30
0
41
1
10
91.0210078127848
20
-8.02317790959074
30
0
0
SPLINE
5
E8
100
AcDbEntity
8
1
62
256
6
ByLayer
370
-1
48
1
60
0
100
AcDbSpline
70
4
71
3
72
14
73
10
40
0
40
0
40
0
40
0
40
0.240840541493551
40
0.240840541493551
40
0.532569150053094
40
0.532569150053094
40
0.796197602837724
40
0.796197602837724
40
1
40
1
40
1
40
1
41
1
10
88.6092986613505
20
-6.01560272402716
30
0
41
1
10
88.5962161476257
20
-5.99298655019942
30
0
41
1
10
88.5864211261891
20
-5.96759239020733
30
0
41
1
10
88.5741580521112
20
-5.90829048237848
30
0
41
1
10
88.5735655908113
20
-5.87270982664933
30
0
41
1
10
88.5859035501303
20
-5.80576108243875
30
0
41
1
10
88.5977886801631
20
-5.77330445657239
30
0
41
1
10
88.6283418290285
20
-5.72071154710972
30
0
41
1
10
88.6451726076576
20
-5.69888419637482
30
0
41
1
10
88.6644013325273
20
-5.67976224839904
30
0
0
SPLINE
5
E9
100
AcDbEntity
8
1
62
256
6
ByLayer
370
-1
48
1
60
0
100
AcDbSpline
70
4
71
3
72
18
73
14
40
0
40
0
40
0
40
0
40
0.0009931260250489
40
0.0009931260250489
40
0.223378568794941
40
0.223378568794941
40
0.444951572299677
40
0.444951572299677
40
0.677933667227658
40
0.677933667227658
40
0.932094227431358
40
0.932094227431358
40
1
40
1
40
1
40
1
41
1
10
90.2776442853241
20
-5.24155274394903
30
0
41
1
10
90.2777744583875
20
-5.24158655982899
30
0
41
1
10
90.2779046043021
20
-5.24162046022914
30
0
41
1
10
90.3067569623011
20
-5.2491562302163
30
0
41
1
10
90.3344889555494
20
-5.26101196329111
30
0
41
1
10
90.3834213236625
20
-5.29117763950524
30
0
41
1
10
90.4052843499026
20
-5.30983446459936
30
0
41
1
10
90.4420002521811
20
-5.35211846099577
30
0
41
1
10
90.456918634366
20
-5.37646428665443
30
0
41
1
10
90.4786497104551
20
-5.4288904926251
30
0
41
1
10
90.4849076421246
20
-5.45775342451256
30
0
41
1
10
90.486533922218
20
-5.4936638097856
30
0
41
1
10
90.4865259351362
20
-5.50128152234598
30
0
41
1
10
90.4861729832083
20
-5.50885369473912
30
0
0
SPLINE
5
EA
100
AcDbEntity
8
1
62
256
6
ByLayer
370
-1
48
1
60
0
100
AcDbSpline
70
4
71
3
72
18
73
14
40
0
40
0
40
0
40
0
40
0.0239317543001131
40
0.0239317543001131
40
0.247671244138934
40
0.247671244138934
40
0.471950017181238
40
0.471950017181238
40
0.708852175456654
40
0.708852175456654
40
0.967971442854089
40
0.967971442854089
40
1
40
1
40
1
40
1
41
1
10
91.0210078127848
20
-8.02317790959074
30
0
41
1
10
91.0187297755268
20
-8.02544329693336
30
0
41
1
10
91.016412386788
20
-8.02766880506746
30
0
41
1
10
90.9922909234334
20
-8.05003842206096
30
0
41
1
10
90.9669370149161
20
-8.06680997213451
30
0
41
1
10
90.9133083728539
20
-8.09108843265943
30
0
41
1
10
90.8843504702022
20
-8.0989035064112
30
0
41
1
10
90.8250946298915
20
-8.10557104960148
30
0
41
1
10
90.7940747905325
20
-8.10400911165985
30
0
41
1
10
90.7324024850554
20
-8.09155552664967
30
0
41
1
10
90.7012777991868
20
-8.07968193657143
30
0
41
1
10
90.6696761845924
20
-8.06176761695932
30
0
41
1
10
90.6662135011098
20
-8.0597168742766
30
0
41
1
10
90.6627939491572
20
-8.05760382091935
30
0
0
SPLINE
5
EB
100
AcDbEntity
8
1
62
256
6
ByLayer
370
-1
48
1
60
0
100
AcDbSpline
70
4
71
3
72
18
73
14
40
0
40
0
40
0
40
0
40
0.0323096246915744
40
0.0323096246915744
40
0.255830536524477
40
0.255830536524477
40
0.480381526231243
40
0.480381526231243
40
0.717955236478354
40
0.717955236478354
40
0.978046052268033
40
0.978046052268033
40
1
40
1
40
1
40
1
41
1
10
88.6644013325273
20
-5.67976224839904
30
0
41
1
10
88.6674736687876
20
-5.67670697278768
30
0
41
1
10
88.6706119322392
20
-5.67371265702832
30
0
41
1
10
88.6957148377075
20
-5.65073264485955
30
0
41
1
10
88.7208646319267
20
-5.63358698779672
30
0
41
1
10
88.7735091425207
20
-5.60755873776858
30
0
41
1
10
88.8016778572836
20
-5.59836290642525
30
0
41
1
10
88.858839018922
20
-5.58805136881824
30
0
41
1
10
88.8884974155561
20
-5.58727619803392
30
0
41
1
10
88.9469209042276
20
-5.5942132593494
30
0
41
1
10
88.9760750660606
20
-5.6027896718918
30
0
41
1
10
89.0042647501299
20
-5.61627673019845
30
0
41
1
10
89.0064609793765
20
-5.6173658071063
30
0
41
1
10
89.0086361200653
20
-5.61848278175103
30
0
0
SPLINE
5
EC
100
AcDbEntity
8
1
62
256
6
ByLayer
370
-1
48
1
60
0
100
AcDbSpline
70
4
71
3
72
18
73
14
40
0
40
0
40
0
40
0
40
0.202432963046227
40
0.202432963046227
40
0.378262782711689
40
0.378262782711689
40
0.555890030476042
40
0.555890030476042
40
0.709174067884257
40
0.709174067884257
40
0.910208908362885
40
0.910208908362885
40
1
40
1
40
1
40
1
41
1
10
89.9431256499672
20
-5.3646448876496
30
0
41
1
10
89.9068922715909
20
-5.41858614917217
30
0
41
1
10
89.8609754717991
20
-5.46958530949181
30
0
41
1
10
89.7595755280305
20
-5.55308299450743
30
0
41
1
10
89.7048734563061
20
-5.58799337392537
30
0
41
1
10
89.5863544179977
20
-5.64369112012901
30
0
41
1
10
89.5205911831825
20
-5.66503020595454
30
0
41
1
10
89.3991260500628
20
-5.68780869729417
30
0
41
1
10
89.3418325664064
20
-5.69190863378662
30
0
41
1
10
89.2165714662194
20
-5.68708505205174
30
0
41
1
10
89.1486409587531
20
-5.67382360431643
30
0
41
1
10
89.0600568744061
20
-5.64270839955159
30
0
41
1
10
89.0336989065682
20
-5.63135298237546
30
0
41
1
10
89.0086361200653
20
-5.61848278175103
30
0
0
SPLINE
5
ED
100
AcDbEntity
8
1
62
256
6
ByLayer
370
-1
48
1
60
0
100
AcDbSpline
70
4
71
3
72
18
73
14
40
0
40
0
40
0
40
0
40
0.201605092678435
40
0.201605092678435
40
0.377666505011946
40
0.377666505011946
40
0.555536570982891
40
0.555536570982891
40
0.70891843816337
40
0.70891843816337
40
0.909875657410956
40
0.909875657410956
40
1
40
1
40
1
40
1
41
1
10
91.0621314078684
20
-7.66048387863736
30
0
41
1
10
91.0266877938824
20
-7.59834995464158
30
0
41
1
10
90.9990519288449
20
-7.52965739672723
30
0
41
1
10
90.9676178090686
20
-7.39486819404075
30
0
41
1
10
90.9610577522226
20
-7.32797660766508
30
0
41
1
10
90.9680975647758
20
-7.19534667724244
30
0
41
1
10
90.9822382372382
20
-7.12767415999525
30
0
41
1
10
91.026300507984
20
-7.01313723397558
30
0
41
1
10
91.0542225783633
20
-6.96327527773764
30
0
41
1
10
91.129657670373
20
-6.86268540770504
30
0
41
1
10
91.1816367108426
20
-6.81457759014549
30
0
41
1
10
91.2634192625026
20
-6.75965297138984
30
0
41
1
10
91.2900159237533
20
-6.74445015354755
30
0
41
1
10
91.3173715718223
20
-6.7311986345666
30
0
0
SPLINE
5
EE
100
AcDbEntity
8
1
62
256
6
ByLayer
370
-1
48
1
60
0
100
AcDbSpline
70
4
71
3
72
14
73
10
40
0
40
0
40
0
40
0
40
0.264207719815122
40
0.264207719815122
40
0.551188103132173
40
0.551188103132173
40
0.810654937638019
40
0.810654937638019
40
1
40
1
40
1
40
1
41
1
10
88.4991918907795
20
-7.48480110340083
30
0
41
1
10
88.4688490296087
20
-7.48712993189935
30
0
41
1
10
88.4375645941865
20
-7.48422387471533
30
0
41
1
10
88.3752057569004
20
-7.46655331949762
30
0
41
1
10
88.3434123402004
20
-7.45042972717957
30
0
41
1
10
88.291001158944
20
-7.40814763849676
30
0
41
1
10
88.2688481348802
20
-7.38240670688006
30
0
41
1
10
88.2398436454296
20
-7.33197742229316
30
0
41
1
10
88.2301805290422
20
-7.30841739140416
30
0
41
1
10
88.2237710391016
20
-7.28402085502324
30
0
0
SPLINE
5
EF
100
AcDbEntity
8
1
62
256
6
ByLayer
370
-1
48
1
60
0
100
AcDbSpline
70
4
71
3
72
16
73
12
40
0
40
0
40
0
40
0
40
0.0728618654442593
40
0.0728618654442593
40
0.381595327795465
40
0.381595327795465
40
0.662032803625747
40
0.662032803625747
40
0.909256760149728
40
0.909256760149728
40
1
40
1
40
1
40
1
41
1
10
91.1720150178305
20
-6.19085681172069
30
0
41
1
10
91.1810257879174
20
-6.19133246561256
30
0
41
1
10
91.190077110386
20
-6.1921891554681
30
0
41
1
10
91.2370436764509
20
-6.19864900925637
30
0
41
1
10
91.2757043406933
20
-6.21101058325547
30
0
41
1
10
91.3429126971049
20
-6.247667827399
30
0
41
1
10
91.373082667844
20
-6.27141245158992
30
0
41
1
10
91.4195248403732
20
-6.32443969995583
30
0
41
1
10
91.4376665289039
20
-6.3535470201308
30
0
41
1
10
91.454677867738
20
-6.39553089543713
30
0
41
1
10
91.4585491503594
20
-6.40716176461336
30
0
41
1
10
91.4616381062105
20
-6.41891930296657
30
0
0
SPLINE
5
F0
100
AcDbEntity
8
1
62
256
6
ByLayer
370
-1
48
1
60
0
100
AcDbSpline
70
4
71
3
72
12
73
8
40
0
40
0
40
0
40
0
40
0.483690758234588
40
0.483690758234588
40
0.890671071532429
40
0.890671071532429
40
1
40
1
40
1
40
1
41
1
10
91.1720150178307
20
-6.19085681172209
30
0
41
1
10
91.1001910637276
20
-6.18706542175542
30
0
41
1
10
91.0262363433314
20
-6.17285869099979
30
0
41
1
10
90.8944983607161
20
-6.12644066424653
30
0
41
1
10
90.8345714161053
20
-6.09678012617411
30
0
41
1
10
90.7650347905841
20
-6.04981750885932
30
0
41
1
10
90.7505511626583
20
-6.03926278892581
30
0
41
1
10
90.73649979075
20
-6.02821244476758
30
0
0
SPLINE
5
F1
100
AcDbEntity
8
SK1
62
256
6
ByLayer
370
-1
48
1
60
0
100
AcDbSpline
70
4
71
3
72
34
73
30
40
0
40
0
40
0
40
0
40
0.217401536066909
40
0.217401536066909
40
0.435096189294303
40
0.435096189294303
40
0.489682713741126
40
0.489682713741126
40
0.496424752612956
40
0.496424752612956
40
0.499827716367674
40
0.499827716367674
40
0.501221335422918
40
0.501221335422918
40
0.502631422620177
40
0.502631422620177
40
0.503888875467972
40
0.503888875467972
40
0.506006326343231
40
0.506006326343231
40
0.511464845544059
40
0.511464845544059
40
0.532512938528387
40
0.532512938528387
40
0.616049656455532
40
0.616049656455532
40
0.949479024368573
40
0.949479024368573
40
1
40
1
40
1
40
1
41
1
10
-75.0699999994754
20
0.234670284410242
30
0
41
1
10
-75.4700064427252
20
0.234670284410242
30
0
41
1
10
-75.8701232437325
20
0.227970241868832
30
0
41
1
10
-76.6697893151397
20
0.195494684745
30
0
41
1
10
-77.0713370493708
20
0.176891731587375
30
0
41
1
10
-77.5659938795909
20
0.0996805507180909
30
0
41
1
10
-77.6682572396091
20
0.0865193849705292
30
0
41
1
10
-77.7709539740766
20
0.0396411306650464
30
0
41
1
10
-77.7822855187641
20
0.0337382311876979
30
0
41
1
10
-77.7970213728559
20
0.0219157473509313
30
0
41
1
10
-77.8017110832464
20
0.0173068007109407
30
0
41
1
10
-77.8061192861838
20
0.0095065790782485
30
0
41
1
10
-77.8071371746315
20
0.0070152349106536
30
0
41
1
10
-77.8082348807413
20
0.0018522115922508
30
0
41
1
10
-77.8083006983796
20
-0.000888842752488
30
0
41
1
10
-77.8074703646616
20
-0.0058452740892392
30
0
41
1
10
-77.8066797540763
20
-0.0081402936264112
30
0
41
1
10
-77.8038722027518
20
-0.0138466647665041
30
0
41
1
10
-77.8013741560621
20
-0.0170720040324852
30
0
41
1
10
-77.791569403475
20
-0.0273045780348298
30
0
41
1
10
-77.7827295789082
20
-0.0328902269622517
30
0
41
1
10
-77.7394809020915
20
-0.0564798090609884
30
0
41
1
10
-77.7010509541819
20
-0.0669596151252279
30
0
41
1
10
-77.5130753585385
20
-0.115123589140012
30
0
41
1
10
-77.358016169131
20
-0.132424615808588
30
0
41
1
10
-76.5891558500663
20
-0.214102141367363
30
0
41
1
10
-75.9693947297847
20
-0.228220267771746
30
0
41
1
10
-75.2574713284214
20
-0.234275218157421
30
0
41
1
10
-75.1637352325317
20
-0.234670284410242
30
0
41
1
10
-75.0699999994754
20
-0.234670284410242
30
0
0
LINE
5
4A
100
AcDbEntity
8
80
62
256
6
ByLayer
370
-1
48
1
60
0
100
AcDbLine
10
0
20
0
30
0
11
-10
21
0
31
0
39
0
210
0
220
0
230
1
0
LINE
5
4B
100
AcDbEntity
8
81
62
256
6
ByLayer
370
-1
48
1
60
0
100
AcDbLine
10
99.93
20
-16.9
30
0
11
109.93
21
-16.9
31
0
39
0
210
0
220
0
230
1
0
LINE
5
4C
100
AcDbEntity
8
SK4
62
256
6
ByLayer
370
-1
48
0.05
60
0
100
AcDbLine
10
-206.32
20
0
30
0
11
104.550173
21
0
31
0
39
0
210
0
220
0
230
1
0
LINE
5
4E
100
AcDbEntity
8
4
62
256
6
ByLayer
370
-1
48
0.05
60
0
100
AcDbLine
10
0
20
0
30
0
11
104.550173
21
0
31
0
39
0
210
0
220
0
230
1
0
LINE
5
50
100
AcDbEntity
8
1
62
256
6
ByLayer
370
-1
48
1
60
0
100
AcDbLine
10
79.776874
20
2.380457
30
0
11
79.779826
21
2.311728
31
0
39
0
210
0
220
0
230
1
0
LINE
5
51
100
AcDbEntity
8
SK1
62
256
6
ByLayer
370
-1
48
1
60
0
100
AcDbLine
10
-199.32
20
-12.49125
30
0
11
0
21
-12.49125
31
0
39
0
210
0
220
0
230
1
0
LINE
5
53
100
AcDbEntity
8
SK1
62
256
6
ByLayer
370
-1
48
1
60
0
100
AcDbLine
10
0
20
12.49125
30
0
11
-199.32
21
12.49125
31
0
39
0
210
0
220
0
230
1
0
LINE
5
54
100
AcDbEntity
8
SK1
62
256
6
ByLayer
370
-1
48
1
60
0
100
AcDbLine
10
-199.32
20
12.49125
30
0
11
-201.32
21
10.49125
31
0
39
0
210
0
220
0
230
1
0
LINE
5
55
100
AcDbEntity
8
SK1
62
256
6
ByLayer
370
-1
48
1
60
0
100
AcDbLine
10
-201.32
20
-10.49125
30
0
11
-199.32
21
-12.49125
31
0
39
0
210
0
220
0
230
1
0
LINE
5
56
100
AcDbEntity
8
1
62
256
6
ByLayer
370
-1
48
1
60
0
100
AcDbLine
10
0
20
-12.49125
30
0
11
79.753277
21
-12.49125
31
0
39
0
210
0
220
0
230
1
0
LINE
5
57
100
AcDbEntity
8
1
62
256
6
ByLayer
370
-1
48
1
60
0
100
AcDbLine
10
84.869372
20
12.49125
30
0
11
0
21
12.49125
31
0
39
0
210
0
220
0
230
1
0
LINE
5
58
100
AcDbEntity
8
1
62
256
6
ByLayer
370
-1
48
1
60
0
100
AcDbLine
10
76.878325
20
0.200655
30
0
11
76.574738
21
0.783841
31
0
39
0
210
0
220
0
230
1
0
LINE
5
59
100
AcDbEntity
8
1
62
256
6
ByLayer
370
-1
48
1
60
0
100
AcDbLine
10
88.621719
20
-6.038223
30
0
11
88.607559
21
-6.011023
31
0
39
0
210
0
220
0
230
1
0
LINE
5
5A
100
AcDbEntity
8
1
62
256
6
ByLayer
370
-1
48
1
60
0
100
AcDbLine
10
87.424481
20
-7.891017
30
0
11
87.49663
21
-8.029614
31
0
39
0
210
0
220
0
230
1
0
LINE
5
5B
100
AcDbEntity
8
1
62
256
6
ByLayer
370
-1
48
1
60
0
100
AcDbLine
10
92.153437
20
-5.605433
30
0
11
92.081288
21
-5.466837
31
0
39
0
210
0
220
0
230
1
0
LINE
5
5C
100
AcDbEntity
8
1
62
256
6
ByLayer
370
-1
48
1
60
0
100
AcDbLine
10
90.477914
20
-5.664896
30
0
11
90.553565
21
-5.810221
31
0
39
0
210
0
220
0
230
1
0
LINE
5
5D
100
AcDbEntity
8
1
62
256
6
ByLayer
370
-1
48
1
60
0
100
AcDbLine
10
90.964385
20
-7.473954
30
0
11
91.048001
21
-7.634578
31
0
39
0
210
0
220
0
230
1
0
LINE
5
5E
100
AcDbEntity
8
1
62
256
6
ByLayer
370
-1
48
1
60
0
100
AcDbLine
10
89.100375
20
-7.832269
30
0
11
89.024647
21
-7.686796
31
0
39
0
210
0
220
0
230
1
0
LINE
5
5F
100
AcDbEntity
8
1
62
256
6
ByLayer
370
-1
48
1
60
0
100
AcDbLine
10
78.768787
20
1.038172
30
0
11
78.942011
21
0.70541
31
0
39
0
210
0
220
0
230
1
0
LINE
5
60
100
AcDbEntity
8
1
62
256
6
ByLayer
370
-1
48
1
60
0
100
AcDbLine
10
78.768787
20
1.038172
30
0
11
80.951273
21
-0.085265
31
0
39
0
210
0
220
0
230
1
0
LINE
5
61
100
AcDbEntity
8
1
62
256
6
ByLayer
370
-1
48
1
60
0
100
AcDbLine
10
84.869372
20
12.49125
30
0
11
85.214206
21
11.82883
31
0
39
0
210
0
220
0
230
1
0
LINE
5
62
100
AcDbEntity
8
1
62
256
6
ByLayer
370
-1
48
1
60
0
100
AcDbLine
10
72.703431
20
-9.577392
30
0
11
65.081565
21
-9.577392
31
0
39
0
210
0
220
0
230
1
0
LINE
5
63
100
AcDbEntity
8
1
62
256
6
ByLayer
370
-1
48
1
60
0
100
AcDbLine
10
76.752359
20
0.401561
30
0
11
76.4456
21
0.99084
31
0
39
0
210
0
220
0
230
1
0
LINE
5
64
100
AcDbEntity
8
1
62
256
6
ByLayer
370
-1
48
1
60
0
100
AcDbLine
10
76.752359
20
0.401561
30
0
11
73.527551
21
4.728871
31
0
39
0
210
0
220
0
230
1
0
LINE
5
65
100
AcDbEntity
8
1
62
256
6
ByLayer
370
-1
48
1
60
0
100
AcDbLine
10
92.312071
20
-1.806042
30
0
11
91.64669
21
-2.467728
31
0
39
0
210
0
220
0
230
1
0
LINE
5
66
100
AcDbEntity
8
1
62
256
6
ByLayer
370
-1
48
1
60
0
100
AcDbLine
10
78.068132
20
-0.779612
30
0
11
75.744191
21
-7.423635
31
0
39
0
210
0
220
0
230
1
0
LINE
5
67
100
AcDbEntity
8
1
62
256
6
ByLayer
370
-1
48
1
60
0
100
AcDbLine
10
92.312071
20
-1.806042
30
0
11
85.214206
21
11.82883
31
0
39
0
210
0
220
0
230
1
0
LINE
5
68
100
AcDbEntity
8
1
62
256
6
ByLayer
370
-1
48
1
60
0
100
AcDbLine
10
84.718067
20
-9.357877
30
0
11
85.416653
21
-8.663171
31
0
39
0
210
0
220
0
230
1
0
LINE
5
69
100
AcDbEntity
8
1
62
256
6
ByLayer
370
-1
48
1
60
0
100
AcDbLine
10
74.656095
20
-7.718632
30
0
11
76.96055
21
-1.037176
31
0
39
0
210
0
220
0
230
1
0
LINE
5
6A
100
AcDbEntity
8
1
62
256
6
ByLayer
370
-1
48
1
60
0
100
AcDbLine
10
81.918544
20
-10.586374
30
0
11
80.074313
21
-12.420364
31
0
39
0
210
0
220
0
230
1
0
LINE
5
6B
100
AcDbEntity
8
1
62
256
6
ByLayer
370
-1
48
1
60
0
100
AcDbLine
10
70.733954
20
11.486124
30
0
11
77.633027
21
2.133829
31
0
39
0
210
0
220
0
230
1
0
LINE
5
6C
100
AcDbEntity
8
1
62
256
6
ByLayer
370
-1
48
1
60
0
100
AcDbLine
10
0
20
-12.49125
30
0
11
0
21
-0.23467
31
0
39
0
210
0
220
0
230
1
0
LINE
5
6D
100
AcDbEntity
8
1
62
256
6
ByLayer
370
-1
48
1
60
0
100
AcDbLine
10
0
20
0.23467
30
0
11
0
21
12.49125
31
0
39
0
210
0
220
0
230
1
0
LINE
5
6E
100
AcDbEntity
8
1
62
256
6
ByLayer
370
-1
48
1
60
0
100
AcDbLine
10
0
20
0.23467
30
0
11
68.768263
21
0.23467
31
0
39
0
210
0
220
0
230
1
0
LINE
5
6F
100
AcDbEntity
8
1
62
256
6
ByLayer
370
-1
48
1
60
0
100
AcDbLine
10
81.322989
20
-0.799342
30
0
11
78.983761
21
0.404777
31
0
39
0
210
0
220
0
230
1
0
LINE
5
70
100
AcDbEntity
8
1
62
256
6
ByLayer
370
-1
48
1
60
0
100
AcDbLine
10
78.325676
20
2.733279
30
0
11
78.152451
21
3.066041
31
0
39
0
210
0
220
0
230
1
0
LINE
5
71
100
AcDbEntity
8
1
62
256
6
ByLayer
370
-1
48
1
60
0
100
AcDbLine
10
0
20
-0.23467
30
0
11
0
21
0.23467
31
0
39
0
210
0
220
0
230
1
0
LINE
5
72
100
AcDbEntity
8
1
62
256
6
ByLayer
370
-1
48
1
60
0
100
AcDbLine
10
68.53465
20
-0.23467
30
0
11
0
21
-0.23467
31
0
39
0
210
0
220
0
230
1
0
LINE
5
73
100
AcDbEntity
8
1
62
256
6
ByLayer
370
-1
48
1
60
0
100
AcDbLine
10
78.942011
20
0.70541
30
0
11
81.124498
21
-0.418026
31
0
39
0
210
0
220
0
230
1
0
LINE
5
74
100
AcDbEntity
8
1
62
256
6
ByLayer
370
-1
48
1
60
0
100
AcDbLine
10
78.983761
20
0.404777
30
0
11
78.942011
21
0.70541
31
0
39
0
210
0
220
0
230
1
0
LINE
5
75
100
AcDbEntity
8
1
62
256
6
ByLayer
370
-1
48
1
60
0
100
AcDbLine
10
80.43484
20
3.543821
30
0
11
80.608065
21
3.211059
31
0
39
0
210
0
220
0
230
1
0
LINE
5
76
100
AcDbEntity
8
1
62
256
6
ByLayer
370
-1
48
1
60
0
100
AcDbLine
10
60.146735
20
-11.120828
30
0
11
58.609833
21
-12.185062
31
0
39
0
210
0
220
0
230
1
0
LINE
5
77
100
AcDbEntity
8
1
62
256
6
ByLayer
370
-1
48
1
60
0
100
AcDbLine
10
76.4456
20
0.99084
30
0
11
69.313976
21
10.658378
31
0
39
0
210
0
220
0
230
1
0
LINE
5
78
100
AcDbEntity
8
SK1
62
256
6
ByLayer
370
-1
48
1
60
0
100
AcDbLine
10
-75.07
20
0.23467
30
0
11
0
21
0.23467
31
0
39
0
210
0
220
0
230
1
0
LINE
5
79
100
AcDbEntity
8
SK1
62
256
6
ByLayer
370
-1
48
1
60
0
100
AcDbLine
10
-75.07
20
0.23467
30
0
11
-75.07
21
-0.23467
31
0
39
0
210
0
220
0
230
1
0
LINE
5
7A
100
AcDbEntity
8
SK1
62
256
6
ByLayer
370
-1
48
1
60
0
100
AcDbLine
10
0
20
-12.49125
30
0
11
0
21
-0.23467
31
0
39
0
210
0
220
0
230
1
0
LINE
5
7B
100
AcDbEntity
8
SK1
62
256
6
ByLayer
370
-1
48
1
60
0
100
AcDbLine
10
0
20
0.23467
30
0
11
0
21
12.49125
31
0
39
0
210
0
220
0
230
1
0
LINE
5
7C
100
AcDbEntity
8
SK1
62
256
6
ByLayer
370
-1
48
1
60
0
100
AcDbLine
10
0
20
-0.23467
30
0
11
0
21
0.23467
31
0
39
0
210
0
220
0
230
1
0
LINE
5
7D
100
AcDbEntity
8
SK1
62
256
6
ByLayer
370
-1
48
1
60
0
100
AcDbLine
10
0
20
-0.23467
30
0
11
-75.07
21
-0.23467
31
0
39
0
210
0
220
0
230
1
0
LINE
5
7E
100
AcDbEntity
8
1
62
256
6
ByLayer
370
-1
48
1
60
0
100
AcDbLine
10
79.828375
20
2.071825
30
0
11
86.266585
21
-10.295863
31
0
39
0
210
0
220
0
230
1
0
LINE
5
7F
100
AcDbEntity
8
1
62
256
6
ByLayer
370
-1
48
1
60
0
100
AcDbLine
10
93.28855
20
-3.312891
30
0
11
80.85138
21
3.089149
31
0
39
0
210
0
220
0
230
1
0
LINE
5
80
100
AcDbEntity
8
1
62
256
6
ByLayer
370
-1
48
1
60
0
100
AcDbLine
10
99.895194
20
-15.84807
30
0
11
93.456984
21
-3.480382
31
0
39
0
210
0
220
0
230
1
0
LINE
5
81
100
AcDbEntity
8
1
62
256
6
ByLayer
370
-1
48
1
60
0
100
AcDbLine
10
86.435019
20
-10.463354
30
0
11
98.872189
21
-16.865394
31
0
39
0
210
0
220
0
230
1
0
LINE
5
82
100
AcDbEntity
8
1
62
256
6
ByLayer
370
-1
48
1
60
0
100
AcDbLine
10
90.40185
20
-5.346871
30
0
11
90.486173
21
-5.508854
31
0
39
0
210
0
220
0
230
1
0
LINE
5
83
100
AcDbEntity
8
1
62
256
6
ByLayer
370
-1
48
1
60
0
100
AcDbLine
10
88.957058
20
-7.581988
30
0
11
89.031073
21
-7.724169
31
0
39
0
210
0
220
0
230
1
0
LINE
5
84
100
AcDbEntity
8
1
62
256
6
ByLayer
370
-1
48
1
60
0
100
AcDbLine
10
88.414869
20
-7.322818
30
0
11
88.499192
21
-7.484801
31
0
39
0
210
0
220
0
230
1
0
LINE
5
85
100
AcDbEntity
8
1
62
256
6
ByLayer
370
-1
48
1
60
0
100
AcDbLine
10
90.578359
20
-7.895407
30
0
11
90.662794
21
-8.057604
31
0
39
0
210
0
220
0
230
1
0
LINE
5
86
100
AcDbEntity
8
1
62
256
6
ByLayer
370
-1
48
1
60
0
100
AcDbLine
10
88.914091
20
-7.607842
30
0
11
88.840076
21
-7.465661
31
0
39
0
210
0
220
0
230
1
0
LINE
5
87
100
AcDbEntity
8
1
62
256
6
ByLayer
370
-1
48
1
60
0
100
AcDbLine
10
89.64387
20
-8.149244
30
0
11
89.728304
21
-8.311442
31
0
39
0
210
0
220
0
230
1
0
LINE
5
88
100
AcDbEntity
8
1
62
256
6
ByLayer
370
-1
48
1
60
0
100
AcDbLine
10
91.232937
20
-6.569001
30
0
11
91.317372
21
-6.731199
31
0
39
0
210
0
220
0
230
1
0
LINE
5
89
100
AcDbEntity
8
SK1
62
256
6
ByLayer
370
-1
48
1
60
0
100
AcDbLine
10
-201.32
20
10.49125
30
0
11
-201.32
21
-10.49125
31
0
39
0
210
0
220
0
230
1
0
LINE
5
8A
100
AcDbEntity
8
SK1
62
256
6
ByLayer
370
-1
48
1
60
0
100
AcDbLine
10
-199.32
20
12.49125
30
0
11
-199.32
21
-12.49125
31
0
39
0
210
0
220
0
230
1
0
LINE
5
8B
100
AcDbEntity
8
2
62
256
6
ByLayer
370
-1
48
1
60
1
100
AcDbLine
10
99.93
20
0
30
0
11
99.931
21
0.001
31
0
39
0
210
0
220
0
230
1
0
MTEXT
5
F2
100
AcDbEntity
8
SK6
62
256
6
ByLayer
370
-1
48
1
60
0
100
AcDbMText
10
-47.32
20
19.404682
30
0
210
0
220
0
230
1
1
\W00.789;\fsimplex.shx,bigfont.shx;A25T-SVPBL 16HP-R 
40
3.5
41
0
44
1.084337
50
0
71
7
72
5
7
DEFAULT
0
DIMENSION
5
125
100
AcDbEntity
8
2
62
256
6
ByLayer
370
-3
48
1
60
0
100
AcDbDimension
2
DimnDraft3D1
10
112.18
20
0
30
0
11
112.18
21
-13.050658
31
0
70
32
71
5
72
1
41
1
210
0
220
0
230
1
3
Standard
100
AcDbAlignedDimension
13
101.93
23
-16.9
33
0
14
101.93
24
0
34
0
50
90
100
AcDbRotatedDimension
1001
ACAD
1000
DSTYLE
1002
{
1070
    74
1070
     0
1070
   279
1070
     0
1070
   172
1070
     1
1070
   173
1070
     1
1070
   340
1005
F3
1070
    77
1070
     1
1070
    73
1070
     0
1070
   171
1070
     4
1070
   274
1070
     4
1070
   177
1070
     2
1070
   176
1070
     2
1070
   178
1070
     7
1070
    78
1070
     8
1070
    41
1041
3.175
1070
   147
1041
2.25
1070
    42
1041
2.0
1070
    44
1041
2.0
1070
   140
1041
4.5
1070
   343
1005
126
1070
   344
1005
126
1002
}
0
DIMENSION
5
13B
100
AcDbEntity
8
SK2
62
256
6
ByLayer
370
-3
48
1
60
0
100
AcDbDimension
2
DimnDraft3D2
10
-211.07
20
12.49125
30
0
11
-211.07
21
-4.784211
31
0
70
32
71
5
72
1
41
1
210
0
220
0
230
1
3
Standard
100
AcDbAlignedDimension
13
-203.32
23
-12.49125
33
0
14
-203.32
24
12.49125
34
0
50
90
100
AcDbRotatedDimension
1001
ACAD
1000
DSTYLE
1002
{
1070
    74
1070
     0
1070
   279
1070
     0
1070
   172
1070
     1
1070
   173
1070
     1
1070
   340
1005
F3
1070
    77
1070
     1
1070
    73
1070
     0
1070
   171
1070
     4
1070
   274
1070
     4
1070
   177
1070
     2
1070
   176
1070
     2
1070
   178
1070
     7
1070
    78
1070
     8
1070
    41
1041
3.175
1070
   147
1041
2.25
1070
    42
1041
2.0
1070
    44
1041
2.0
1070
   140
1041
4.5
1070
   343
1005
126
1070
   344
1005
126
1002
}
0
DIMENSION
5
149
100
AcDbEntity
8
SK2
62
256
6
ByLayer
370
-3
48
1
60
0
100
AcDbDimension
2
DimnDraft3D3
10
99.93
20
-34.15
30
0
11
-57.510132
21
-34.15
31
0
70
32
71
5
72
1
41
1
210
0
220
0
230
1
3
Standard
100
AcDbAlignedDimension
13
-201.32
23
-14.49125
33
0
14
99.93
24
-18.9
34
0
50
0
100
AcDbRotatedDimension
1001
ACAD
1000
DSTYLE
1002
{
1070
   279
1070
     0
1070
   172
1070
     1
1070
   173
1070
     1
1070
   340
1005
F3
1070
    77
1070
     1
1070
    73
1070
     0
1070
   171
1070
     4
1070
   274
1070
     4
1070
   177
1070
     2
1070
   176
1070
     2
1070
   178
1070
     7
1070
    78
1070
     8
1070
    41
1041
3.175
1070
   147
1041
2.25
1070
    42
1041
2.0
1070
    44
1041
2.0
1070
   140
1041
4.5
1070
   343
1005
126
1070
   344
1005
126
1002
}
0
DIMENSION
5
157
100
AcDbEntity
8
2
62
256
6
ByLayer
370
-3
48
1
60
0
100
AcDbDimension
2
DimnDraft3D4
10
131.058824
20
0
30
0
11
104.665366
21
38.782799
31
0
70
34
71
5
72
1
41
1
210
0
220
0
230
1
3
Standard
100
AcDb2LineAngularDimension
13
91.618525
23
-0.933805
33
0
14
72.696454
24
35.415155
34
0
15
101.93
25
0
35
0
16
113.142102
26
36.270839
36
0
40
0
0
ENDSEC
0
SECTION
2
OBJECTS
0
DICTIONARY
5
188
330
0
100
AcDbDictionary
280
0
281
1
3
ACAD_GROUP
350
189
3
ACAD_MLINESTYLE
350
18a
0
DICTIONARY
5
189
330
0
100
AcDbDictionary
280
0
281
1
0
DICTIONARY
5
18a
330
0
100
AcDbDictionary
280
0
281
1
3
Standard
350
18
0
MLINESTYLE
5
18
330
18a
100
AcDbMlineStyle
2
Standard
70
0
3

62
256
51
90
52
90
71
2
49
-0.5
62
256
6
ByLayer
49
0.5
62
256
6
ByLayer
0
RASTERVARIABLES
5
176
330

100
AcDbRasterVariables
90
0
70
1
71
1
72
1
0
ENDSEC
0
EOF
