0
SECTION
2
HEADER
9
$ACADVER
1
AC1015
9
$DWGCODEPAGE
3
ANSI_1252
9
$HANDSEED
5
1ae
9
$ANGBASE
50
0
9
$ANGDIR
70
0
9
$ATTMODE
70
1
9
$AUNITS
70
0
9
$AUPREC
70
0
9
$CECOLOR
62
256
9
$CELTSCALE
40
1
9
$CELTYPE
6
ByLayer
9
$CELWEIGHT
370
-1
9
$CLAYER
8
0
9
$CMLJUST
70
0
9
$CMLSCALE
40
1
9
$CMLSTYLE
2
Standard
9
$DIMSTYLE
2
Standard
9
$TEXTSIZE
40
0.2
9
$TEXTSTYLE
7
Standard
9
$LUNITS
70
2
9
$LUPREC
70
4
9
$EXTNAMES
290
1
9
$INSUNITS
70
4
9
$LTSCALE
40
1
9
$LWDISPLAY
290
0
9
$PDMODE
70
0
9
$PDSIZE
40
0
9
$PLINEGEN
70
0
0
ENDSEC
0
SECTION
2
CLASSES
0
CLASS
1
RASTERVARIABLES
2
AcDbRasterVariables
3
ISM
90
0
280
0
281
0
0
ENDSEC
0
SECTION
2
TABLES
0
TABLE
2
VPORT
5
1a4
100
AcDbSymbolTable
0
VPORT
5
1
100
AcDbSymbolTableRecord
100
AcDbViewportTableRecord
2
*Active
70
0
10
0
20
0
11
1
21
1
12
-1
22
1
13
0
23
0
14
0.5
24
0.5
15
10
25
10
16
0
26
0
36
1
17
0
27
0
37
0
0
ENDTAB
0
TABLE
2
LTYPE
5
1a5
100
AcDbSymbolTable
0
LTYPE
5
14
100
AcDbSymbolTableRecord
100
AcDbLinetypeTableRecord
70
0
2
ByBlock
3

72
65
73
0
40
0
0
LTYPE
5
15
100
AcDbSymbolTableRecord
100
AcDbLinetypeTableRecord
70
0
2
ByLayer
3

72
65
73
0
40
0
0
LTYPE
5
16
100
AcDbSymbolTableRecord
100
AcDbLinetypeTableRecord
70
0
2
CONTINUOUS
3
Solid line
72
65
73
0
40
0
0
LTYPE
5
3B
100
AcDbSymbolTableRecord
100
AcDbLinetypeTableRecord
70
0
2
DASHED
3
__ __ __ __ __ __ __ __ __
72
65
73
2
40
25.72
49
12.86
74
0
49
-12.86
74
0
0
LTYPE
5
3C
100
AcDbSymbolTableRecord
100
AcDbLinetypeTableRecord
70
0
2
HIDDEN
3
_ _ _ _ _ _ _ _ _ _ _ _ _ _ _
72
65
73
2
40
0.5
49
0.25
74
0
49
-0.25
74
0
0
LTYPE
5
3D
100
AcDbSymbolTableRecord
100
AcDbLinetypeTableRecord
70
0
2
PHANTOM
3
____ _ _ ____ _ _ _____ _ _ ____
72
65
73
6
40
50.5
49
18
74
0
49
-6.5
74
0
49
6.5
74
0
49
-6.5
74
0
49
6.5
74
0
49
-6.5
74
0
0
LTYPE
5
3E
100
AcDbSymbolTableRecord
100
AcDbLinetypeTableRecord
70
0
2
CENTER
3
____ _ ____ _ ____ _ ____
72
65
73
4
40
47.5
49
22
74
0
49
-8.5
74
0
49
8.5
74
0
49
-8.5
74
0
0
LTYPE
5
3F
100
AcDbSymbolTableRecord
100
AcDbLinetypeTableRecord
70
0
2
DOT
3
.........................
72
65
73
2
40
10
49
0
74
0
49
-10
74
0
0
LTYPE
5
40
100
AcDbSymbolTableRecord
100
AcDbLinetypeTableRecord
70
0
2
DASHDOT
3
_._._._._._._._._._._._._._._._.
72
65
73
4
40
70
49
31
74
0
49
-13
74
0
49
13
74
0
49
-13
74
0
0
ENDTAB
0
TABLE
2
LAYER
5
1a6
100
AcDbSymbolTable
0
LAYER
5
10
100
AcDbSymbolTableRecord
100
AcDbLayerTableRecord
2
0
70
0
62
7
6
CONTINUOUS
290
1
370
-3
390
0
0
LAYER
5
42
100
AcDbSymbolTableRecord
100
AcDbLayerTableRecord
2
80
70
0
62
-6
6
CONTINUOUS
290
1
370
-3
390
0
0
LAYER
5
44
100
AcDbSymbolTableRecord
100
AcDbLayerTableRecord
2
81
70
0
62
-3
6
CONTINUOUS
290
1
370
-3
390
0
0
LAYER
5
46
100
AcDbSymbolTableRecord
100
AcDbLayerTableRecord
2
1
70
0
62
4
6
CONTINUOUS
290
1
370
-3
390
0
0
LAYER
5
48
100
AcDbSymbolTableRecord
100
AcDbLayerTableRecord
2
2
70
0
62
7
6
CONTINUOUS
290
1
370
-3
390
0
0
LAYER
5
5B
100
AcDbSymbolTableRecord
100
AcDbLayerTableRecord
2
4
70
0
62
-2
6
CENTER
290
1
370
-3
390
0
0
LAYER
5
190
100
AcDbSymbolTableRecord
100
AcDbLayerTableRecord
2
SK1
70
0
62
4
6
CONTINUOUS
290
1
370
-3
390
0
0
LAYER
5
191
100
AcDbSymbolTableRecord
100
AcDbLayerTableRecord
2
SK4
70
0
62
2
6
CENTER
290
1
370
-3
390
0
0
LAYER
5
192
100
AcDbSymbolTableRecord
100
AcDbLayerTableRecord
2
SK6
70
0
62
5
6
CONTINUOUS
290
1
370
-3
390
0
0
LAYER
5
193
100
AcDbSymbolTableRecord
100
AcDbLayerTableRecord
2
SK2
70
0
62
7
6
CONTINUOUS
290
1
370
-3
390
0
0
ENDTAB
0
TABLE
2
STYLE
5
1a7
100
AcDbSymbolTable
0
STYLE
5
11
100
AcDbSymbolTableRecord
100
AcDbTextStyleTableRecord
2
Standard
3
txt
70
0
71
0
40
0
41
1
42
0
50
0
0
STYLE
5
10C
100
AcDbSymbolTableRecord
100
AcDbTextStyleTableRecord
2
DEFAULT
3
simplex.shx
70
0
71
0
40
0
41
1
42
0
50
0
0
STYLE
5
12F
100
AcDbSymbolTableRecord
100
AcDbTextStyleTableRecord
2
DWGDirectTextStyle
3
SIMPLEX
70
0
71
0
40
0
41
1
42
0
50
0
0
ENDTAB
0
TABLE
2
DIMSTYLE
5
1a8
100
AcDbSymbolTable
100
AcDbDimStyleTable
0
DIMSTYLE
105
27
100
AcDbSymbolTableRecord
100
AcDbDimStyleTableRecord
2
Standard
70
0
3
<>
41
0.18
42
0.0625
44
0.18
140
0.18
147
0.09
73
0
74
0
77
1
271
2
275
0
278
52
280
0
340
11
0
ENDTAB
0
TABLE
2
VIEW
5
1a9
100
AcDbSymbolTable
0
ENDTAB
0
TABLE
2
UCS
5
1aa
100
AcDbSymbolTable
0
ENDTAB
0
TABLE
2
APPID
5
1ab
100
AcDbSymbolTable
0
APPID
5
12
100
AcDbSymbolTableRecord
100
AcDbRegAppTableRecord
2
ACAD
70
0
0
ENDTAB
0
TABLE
2
BLOCK_RECORD
5
1ac
100
AcDbSymbolTable
0
BLOCK_RECORD
5
1F
100
AcDbSymbolTableRecord
100
AcDbBlockTableRecord
2
*Model_Space
340
0
70
0
0
BLOCK_RECORD
5
1B
100
AcDbSymbolTableRecord
100
AcDbBlockTableRecord
2
*Paper_Space
340
0
70
0
0
BLOCK_RECORD
5
23
100
AcDbSymbolTableRecord
100
AcDbBlockTableRecord
2
*Paper_Space0
340
0
70
0
0
BLOCK_RECORD
5
131
100
AcDbSymbolTableRecord
100
AcDbBlockTableRecord
2
DimnDraft3D1
340
0
70
0
0
BLOCK_RECORD
5
13F
100
AcDbSymbolTableRecord
100
AcDbBlockTableRecord
2
_CLOSED
340
0
70
0
0
BLOCK_RECORD
5
146
100
AcDbSymbolTableRecord
100
AcDbBlockTableRecord
2
DimnDraft3D2
340
0
70
0
0
BLOCK_RECORD
5
155
100
AcDbSymbolTableRecord
100
AcDbBlockTableRecord
2
DimnDraft3D3
340
0
70
0
0
BLOCK_RECORD
5
163
100
AcDbSymbolTableRecord
100
AcDbBlockTableRecord
2
DimnDraft3D4
340
0
70
0
0
ENDTAB
0
ENDSEC
0
SECTION
2
BLOCKS
0
BLOCK
5
20
100
AcDbEntity
8
0
100
AcDbBlockBegin
2
*Model_Space
70
0
10
0
20
0
30
0
3
*Model_Space
0
ENDBLK
5
21
100
AcDbEntity
8
0
100
AcDbBlockEnd
0
BLOCK
5
1C
100
AcDbEntity
8
0
100
AcDbBlockBegin
2
*Paper_Space
70
0
10
0
20
0
30
0
3
*Paper_Space
0
ENDBLK
5
1D
100
AcDbEntity
8
0
100
AcDbBlockEnd
0
BLOCK
5
24
100
AcDbEntity
8
0
100
AcDbBlockBegin
2
*Paper_Space0
70
0
10
0
20
0
30
0
3
*Paper_Space0
0
ENDBLK
5
25
100
AcDbEntity
8
0
100
AcDbBlockEnd
0
BLOCK
5
13C
100
AcDbEntity
8
0
100
AcDbBlockBegin
2
DimnDraft3D1
70
0
10
0
20
0
30
0
3
DimnDraft3D1
0
MTEXT
5
132
100
AcDbEntity
8
2
62
256
6
ByLayer
370
-1
48
1
60
0
100
AcDbMText
10
111.055
20
4.974342
30
0
210
0
220
0
230
1
1
\W01.000;\fsimplex.shx,bigfont.shx;17.0 
40
4.5
41
0
44
1.084337
50
90
71
7
72
5
7
DEFAULT
0
LINE
5
133
100
AcDbEntity
8
2
62
256
6
ByLayer
370
-1
48
1
60
0
100
AcDbLine
10
101.93
20
16.9
30
0
11
114.18
21
16.9
31
0
39
0
210
0
220
0
230
1
0
LINE
5
134
100
AcDbEntity
8
2
62
256
6
ByLayer
370
-1
48
1
60
0
100
AcDbLine
10
101.93
20
0
30
0
11
114.18
21
0
31
0
39
0
210
0
220
0
230
1
0
LINE
5
135
100
AcDbEntity
8
2
62
256
6
ByLayer
370
-1
48
1
60
0
100
AcDbLine
10
112.18
20
28.15
30
0
11
112.18
21
-11.25
31
0
39
0
210
0
220
0
230
1
0
LINE
5
136
100
AcDbEntity
8
2
62
256
6
ByLayer
370
-1
48
1
60
0
100
AcDbLine
10
112.18
20
16.9
30
0
11
111.762003
21
20.074998
31
0
39
0
210
0
220
0
230
1
0
LINE
5
137
100
AcDbEntity
8
2
62
256
6
ByLayer
370
-1
48
1
60
0
100
AcDbLine
10
112.18
20
16.9
30
0
11
112.597997
21
20.075002
31
0
39
0
210
0
220
0
230
1
0
LINE
5
138
100
AcDbEntity
8
2
62
256
6
ByLayer
370
-1
48
1
60
0
100
AcDbLine
10
111.762003
20
20.074998
30
0
11
112.597997
21
20.075002
31
0
39
0
210
0
220
0
230
1
0
LINE
5
139
100
AcDbEntity
8
2
62
256
6
ByLayer
370
-1
48
1
60
0
100
AcDbLine
10
112.18
20
0
30
0
11
112.597997
21
-3.174998
31
0
39
0
210
0
220
0
230
1
0
LINE
5
13A
100
AcDbEntity
8
2
62
256
6
ByLayer
370
-1
48
1
60
0
100
AcDbLine
10
112.18
20
0
30
0
11
111.762003
21
-3.175002
31
0
39
0
210
0
220
0
230
1
0
LINE
5
13B
100
AcDbEntity
8
2
62
256
6
ByLayer
370
-1
48
1
60
0
100
AcDbLine
10
112.597997
20
-3.174998
30
0
11
111.762003
21
-3.175002
31
0
39
0
210
0
220
0
230
1
0
ENDBLK
5
13D
100
AcDbEntity
8
0
100
AcDbBlockEnd
0
BLOCK
5
140
100
AcDbEntity
8
0
100
AcDbBlockBegin
2
_CLOSED
70
0
10
0
20
0
30
0
3
_CLOSED
0
LINE
5
142
100
AcDbEntity
8
0
62
256
6
ByLayer
370
-2
48
1
60
0
100
AcDbLine
10
-1
20
0.166667
30
0
11
0
21
0
31
0
39
0
210
0
220
0
230
1
0
LINE
5
143
100
AcDbEntity
8
0
62
256
6
ByLayer
370
-2
48
1
60
0
100
AcDbLine
10
0
20
0
30
0
11
-1
21
-0.166667
31
0
39
0
210
0
220
0
230
1
0
LINE
5
144
100
AcDbEntity
8
0
62
256
6
ByLayer
370
-2
48
1
60
0
100
AcDbLine
10
-1
20
0.166667
30
0
11
-1
21
-0.166667
31
0
39
0
210
0
220
0
230
1
0
LINE
5
145
100
AcDbEntity
8
0
62
256
6
ByLayer
370
-2
48
1
60
0
100
AcDbLine
10
0
20
0
30
0
11
-1
21
0
31
0
39
0
210
0
220
0
230
1
0
ENDBLK
5
141
100
AcDbEntity
8
0
100
AcDbBlockEnd
0
BLOCK
5
152
100
AcDbEntity
8
0
100
AcDbBlockBegin
2
DimnDraft3D2
70
0
10
0
20
0
30
0
3
DimnDraft3D2
0
MTEXT
5
147
100
AcDbEntity
8
SK2
62
256
6
ByLayer
370
-1
48
1
60
0
100
AcDbMText
10
-212.195
20
-3.659211
30
0
210
0
220
0
230
1
1
\W01.000;\fsimplex.shx,bigfont.shx;%%c25 
40
4.5
41
0
44
1.084337
50
90
71
7
72
5
7
DEFAULT
0
LINE
5
149
100
AcDbEntity
8
SK2
62
256
6
ByLayer
370
-1
48
1
60
0
100
AcDbLine
10
-203.32
20
-12.49125
30
0
11
-213.07
21
-12.49125
31
0
39
0
210
0
220
0
230
1
0
LINE
5
14A
100
AcDbEntity
8
SK2
62
256
6
ByLayer
370
-1
48
1
60
0
100
AcDbLine
10
-203.32
20
12.49125
30
0
11
-213.07
21
12.49125
31
0
39
0
210
0
220
0
230
1
0
LINE
5
14B
100
AcDbEntity
8
SK2
62
256
6
ByLayer
370
-1
48
1
60
0
100
AcDbLine
10
-211.07
20
-12.49125
30
0
11
-211.07
21
12.49125
31
0
39
0
210
0
220
0
230
1
0
LINE
5
14C
100
AcDbEntity
8
SK2
62
256
6
ByLayer
370
-1
48
1
60
0
100
AcDbLine
10
-211.07
20
-12.49125
30
0
11
-211.487997
21
-9.316252
31
0
39
0
210
0
220
0
230
1
0
LINE
5
14D
100
AcDbEntity
8
SK2
62
256
6
ByLayer
370
-1
48
1
60
0
100
AcDbLine
10
-211.07
20
-12.49125
30
0
11
-210.652003
21
-9.316248
31
0
39
0
210
0
220
0
230
1
0
LINE
5
14E
100
AcDbEntity
8
SK2
62
256
6
ByLayer
370
-1
48
1
60
0
100
AcDbLine
10
-211.487997
20
-9.316252
30
0
11
-210.652003
21
-9.316248
31
0
39
0
210
0
220
0
230
1
0
LINE
5
14F
100
AcDbEntity
8
SK2
62
256
6
ByLayer
370
-1
48
1
60
0
100
AcDbLine
10
-211.07
20
12.49125
30
0
11
-210.652003
21
9.316252
31
0
39
0
210
0
220
0
230
1
0
LINE
5
150
100
AcDbEntity
8
SK2
62
256
6
ByLayer
370
-1
48
1
60
0
100
AcDbLine
10
-211.07
20
12.49125
30
0
11
-211.487997
21
9.316248
31
0
39
0
210
0
220
0
230
1
0
LINE
5
151
100
AcDbEntity
8
SK2
62
256
6
ByLayer
370
-1
48
1
60
0
100
AcDbLine
10
-210.652003
20
9.316252
30
0
11
-211.487997
21
9.316248
31
0
39
0
210
0
220
0
230
1
0
ENDBLK
5
153
100
AcDbEntity
8
0
100
AcDbBlockEnd
0
BLOCK
5
160
100
AcDbEntity
8
0
100
AcDbBlockBegin
2
DimnDraft3D3
70
0
10
0
20
0
30
0
3
DimnDraft3D3
0
MTEXT
5
156
100
AcDbEntity
8
SK2
62
256
6
ByLayer
370
-1
48
1
60
0
100
AcDbMText
10
-56.385132
20
30.775
30
0
210
0
220
0
230
1
1
\W01.000;\fsimplex.shx,bigfont.shx;300.0 
40
4.5
41
0
44
1.084337
50
0
71
7
72
5
7
DEFAULT
0
LINE
5
157
100
AcDbEntity
8
SK2
62
256
6
ByLayer
370
-1
48
1
60
0
100
AcDbLine
10
99.93
20
18.9
30
0
11
99.93
21
31.65
31
0
39
0
210
0
220
0
230
1
0
LINE
5
158
100
AcDbEntity
8
SK2
62
256
6
ByLayer
370
-1
48
1
60
0
100
AcDbLine
10
-201.32
20
14.49125
30
0
11
-201.32
21
31.65
31
0
39
0
210
0
220
0
230
1
0
LINE
5
159
100
AcDbEntity
8
SK2
62
256
6
ByLayer
370
-1
48
1
60
0
100
AcDbLine
10
99.93
20
29.65
30
0
11
-201.32
21
29.65
31
0
39
0
210
0
220
0
230
1
0
LINE
5
15A
100
AcDbEntity
8
SK2
62
256
6
ByLayer
370
-1
48
1
60
0
100
AcDbLine
10
99.93
20
29.65
30
0
11
96.755002
21
29.232003
31
0
39
0
210
0
220
0
230
1
0
LINE
5
15B
100
AcDbEntity
8
SK2
62
256
6
ByLayer
370
-1
48
1
60
0
100
AcDbLine
10
99.93
20
29.65
30
0
11
96.754998
21
30.067997
31
0
39
0
210
0
220
0
230
1
0
LINE
5
15C
100
AcDbEntity
8
SK2
62
256
6
ByLayer
370
-1
48
1
60
0
100
AcDbLine
10
96.755002
20
29.232003
30
0
11
96.754998
21
30.067997
31
0
39
0
210
0
220
0
230
1
0
LINE
5
15D
100
AcDbEntity
8
SK2
62
256
6
ByLayer
370
-1
48
1
60
0
100
AcDbLine
10
-201.32
20
29.65
30
0
11
-198.145002
21
30.067997
31
0
39
0
210
0
220
0
230
1
0
LINE
5
15E
100
AcDbEntity
8
SK2
62
256
6
ByLayer
370
-1
48
1
60
0
100
AcDbLine
10
-201.32
20
29.65
30
0
11
-198.144998
21
29.232003
31
0
39
0
210
0
220
0
230
1
0
LINE
5
15F
100
AcDbEntity
8
SK2
62
256
6
ByLayer
370
-1
48
1
60
0
100
AcDbLine
10
-198.145002
20
30.067997
30
0
11
-198.144998
21
29.232003
31
0
39
0
210
0
220
0
230
1
0
ENDBLK
5
161
100
AcDbEntity
8
0
100
AcDbBlockEnd
0
BLOCK
5
16E
100
AcDbEntity
8
0
100
AcDbBlockBegin
2
DimnDraft3D4
70
0
10
0
20
0
30
0
3
DimnDraft3D4
0
MTEXT
5
164
100
AcDbEntity
8
2
62
256
6
ByLayer
370
-1
48
1
60
0
100
AcDbMText
10
128.397094
20
-35.950619
30
0
210
0
220
0
230
1
1
\W01.000;\fsimplex.shx,bigfont.shx;91%%d0' 
40
4.5
41
0
44
1.084337
50
44.5000000000001
71
7
72
5
7
DEFAULT
0
LINE
5
165
100
AcDbEntity
8
2
62
256
6
ByLayer
370
-1
48
1
60
0
100
AcDbLine
10
99.615857
20
-1.097259
30
0
11
98.781126
21
-48.918955
31
0
39
0
210
0
220
0
230
1
0
LINE
5
166
100
AcDbEntity
8
2
62
256
6
ByLayer
370
-1
48
1
60
0
100
AcDbLine
10
101.93
20
0
30
0
11
148.561416
21
0
31
0
39
0
210
0
220
0
230
1
0
ARC
5
167
100
AcDbEntity
8
2
62
256
6
ByLayer
370
-1
48
1
60
0
100
AcDbCircle
39
0
10
99.635009
20
0
30
0
40
46.9264068782929
210
0
220
0
230
1
100
AcDbArc
50
269
51
0
0
LINE
5
168
100
AcDbEntity
8
2
62
256
6
ByLayer
370
-1
48
1
60
0
100
AcDbLine
10
98.816031
20
-46.91926
30
0
11
101.991256
21
-46.502993
31
0
39
0
210
0
220
0
230
1
0
LINE
5
169
100
AcDbEntity
8
2
62
256
6
ByLayer
370
-1
48
1
60
0
100
AcDbLine
10
98.816031
20
-46.91926
30
0
11
101.990804
21
-47.338987
31
0
39
0
210
0
220
0
230
1
0
LINE
5
16A
100
AcDbEntity
8
2
62
256
6
ByLayer
370
-1
48
1
60
0
100
AcDbLine
10
101.991256
20
-46.502993
30
0
11
101.990804
21
-47.338987
31
0
39
0
210
0
220
0
230
1
0
LINE
5
16B
100
AcDbEntity
8
2
62
256
6
ByLayer
370
-1
48
1
60
0
100
AcDbLine
10
146.561416
20
0
30
0
11
146.925672
21
-3.181612
31
0
39
0
210
0
220
0
230
1
0
LINE
5
16C
100
AcDbEntity
8
2
62
256
6
ByLayer
370
-1
48
1
60
0
100
AcDbLine
10
146.561416
20
0
30
0
11
146.089798
21
-3.16748
31
0
39
0
210
0
220
0
230
1
0
LINE
5
16D
100
AcDbEntity
8
2
62
256
6
ByLayer
370
-1
48
1
60
0
100
AcDbLine
10
146.925672
20
-3.181612
30
0
11
146.089798
21
-3.16748
31
0
39
0
210
0
220
0
230
1
0
ENDBLK
5
16F
100
AcDbEntity
8
0
100
AcDbBlockEnd
0
ENDSEC
0
SECTION
2
ENTITIES
0
ARC
5
A9
100
AcDbEntity
8
1
62
256
6
ByLayer
370
-1
48
1
60
0
100
AcDbCircle
39
0
10
-58.005802
20
0
30
0
40
12.416250000023
210
0
220
0
230
-1
100
AcDbArc
50
157.850854
51
202.149146
0
ELLIPSE
5
AA
100
AcDbEntity
8
1
62
256
6
ByLayer
370
-1
48
1
60
0
100
AcDbEllipse
10
87.557489
20
10.23754
30
0
11
1.64958513152807
21
-0.0287936155754434
31
0
210
0
220
0
230
1
40
0.998215
41
2.61803970333125
42
2.71585841924071
0
ELLIPSE
5
AB
100
AcDbEntity
8
1
62
256
6
ByLayer
370
-1
48
1
60
0
100
AcDbEllipse
10
90.384327
20
-0.707241
30
0
11
-1.49673855871295
21
0.56548535512591
31
0
210
0
220
0
230
1
40
0.056246
41
0.0201331720736243
42
1.59092949886872
0
ELLIPSE
5
AC
100
AcDbEntity
8
1
62
256
6
ByLayer
370
-1
48
1
60
0
100
AcDbEllipse
10
70.192311
20
10.00135
30
0
11
0.916595651024693
21
1.31143143645507
31
0
210
0
220
0
230
1
40
0.033399
41
-2.48513611702032
42
-1.62036349205714
0
ELLIPSE
5
AD
100
AcDbEntity
8
1
62
256
6
ByLayer
370
-1
48
1
60
0
100
AcDbEllipse
10
87.686255
20
10.451454
30
0
11
1.64958513152807
21
-0.0287936155754434
31
0
210
0
220
0
230
1
40
0.998215
41
1.04721409243285
42
2.61803970333126
0
ELLIPSE
5
AE
100
AcDbEntity
8
1
62
256
6
ByLayer
370
-1
48
1
60
0
100
AcDbEllipse
10
75.125162
20
8.448833
30
0
11
-2.93905524917371E-16
21
-1.6
31
0
210
0
220
0
230
1
40
0.001044
41
-1.51104014234257
42
-0.781307125741008
0
ELLIPSE
5
AF
100
AcDbEntity
8
1
62
256
6
ByLayer
370
-1
48
1
60
0
100
AcDbEllipse
10
87.394792
20
0.684606
30
0
11
1.3934424335674
21
-0.80603182664121
31
0
210
0
220
0
230
-1
40
0.973986
41
-1.22889614601166
42
-0.15264437731753
0
ELLIPSE
5
B0
100
AcDbEntity
8
1
62
256
6
ByLayer
370
-1
48
1
60
0
100
AcDbEllipse
10
83.185365
20
5.555146
30
0
11
1.39344243351888
21
-0.806031826697781
31
0
210
0
220
0
230
-1
40
0.973986
41
-2.08413869026808
42
-1.22889614605692
0
ELLIPSE
5
B1
100
AcDbEntity
8
1
62
256
6
ByLayer
370
-1
48
1
60
0
100
AcDbEllipse
10
105.274625
20
0
30
0
11
34.2960965216171
21
-3.64828196312006
31
0
210
0
220
0
230
-1
40
0.351385
41
2.23675623316494
42
2.88556019644747
0
ELLIPSE
5
B2
100
AcDbEntity
8
1
62
256
6
ByLayer
370
-1
48
1
60
0
100
AcDbEllipse
10
105.274625
20
0
30
0
11
34.2960965279871
21
-3.64828196441866
31
0
210
0
220
0
230
-1
40
0.351385
41
-2.96028322388677
42
-2.79799343727726
0
ELLIPSE
5
B3
100
AcDbEntity
8
1
62
256
6
ByLayer
370
-1
48
1
60
0
100
AcDbEllipse
10
89.80518
20
2.515677
30
0
11
-1.20660199591915
21
-1.05076715948108
31
0
210
0
220
0
230
1
40
0.044388
41
0.420177274594338
42
1.53077922882746
0
ELLIPSE
5
B4
100
AcDbEntity
8
1
62
256
6
ByLayer
370
-1
48
1
60
0
100
AcDbEllipse
10
75.130552
20
17.373009
30
0
11
8.88319550212402
21
-5.13845291960227
31
0
210
0
220
0
230
-1
40
0.973986
41
1.05745396071448
42
1.22677971312852
0
ELLIPSE
5
B5
100
AcDbEntity
8
1
62
256
6
ByLayer
370
-1
48
1
60
0
100
AcDbEllipse
10
87.388528
20
0.342531
30
0
11
-3.19951262450045
21
0.0558477005993027
31
0
210
0
220
0
230
1
40
0.998215
41
2.79843377205355
42
-2.40851884806943
0
ELLIPSE
5
B6
100
AcDbEntity
8
1
62
256
6
ByLayer
370
-1
48
1
60
0
100
AcDbEllipse
10
81.521352
20
2E-06
30
0
11
17.8382064528866
21
-12.4809536260839
31
0
210
0
220
0
230
-1
40
0.028423
41
-2.45959446327368
42
-2.39272829406824
0
ELLIPSE
5
B7
100
AcDbEntity
8
1
62
256
6
ByLayer
370
-1
48
1
60
0
100
AcDbEllipse
10
85.79562
20
9.240516
30
0
11
-1.49977154273459
21
0.0261786096559232
31
0
210
0
220
0
230
1
40
0.998215
41
-2.3871385470976
42
-1.83488092701644
0
ELLIPSE
5
B8
100
AcDbEntity
8
1
62
256
6
ByLayer
370
-1
48
1
60
0
100
AcDbEllipse
10
75.124012
20
16.95514
30
0
11
8.59869017834496
21
-0.150090695360631
31
0
210
0
220
0
230
1
40
0.998215
41
-2.16415654828881
42
-1.55331182354478
0
ELLIPSE
5
B9
100
AcDbEntity
8
1
62
256
6
ByLayer
370
-1
48
1
60
0
100
AcDbEllipse
10
83.179918
20
8.448833
30
0
11
-2.93905524917371E-16
21
-1.6
31
0
210
0
220
0
230
1
40
0.001044
41
-1.51104014234257
42
-0.605623496098114
0
ELLIPSE
5
BA
100
AcDbEntity
8
1
62
256
6
ByLayer
370
-1
48
1
60
0
100
AcDbEllipse
10
87.684198
20
10.352839
30
0
11
-1.49977154273459
21
0.0261786096559232
31
0
210
0
220
0
230
1
40
0.998215
41
-2.09439510239324
42
-0.523598775598361
0
ELLIPSE
5
BB
100
AcDbEntity
8
1
62
256
6
ByLayer
370
-1
48
1
60
0
100
AcDbEllipse
10
87.555446
20
10.138934
30
0
11
-1.49977154273459
21
0.0261786096559232
31
0
210
0
220
0
230
1
40
0.998215
41
-0.523598775598342
42
-0.447435973127009
0
ELLIPSE
5
BC
100
AcDbEntity
8
1
62
256
6
ByLayer
370
-1
48
1
60
0
100
AcDbEllipse
10
81.521394
20
-3E-05
30
0
11
17.7311473089101
21
-12.4060482557156
31
0
210
0
220
0
230
-1
40
0.028423
41
-2.39289130901141
42
-2.35238566422721
0
ELLIPSE
5
BD
100
AcDbEntity
8
1
62
256
6
ByLayer
370
-1
48
1
60
0
100
AcDbEllipse
10
105.274625
20
0
30
0
11
33.8194308364556
21
-3.59757616857318
31
0
210
0
220
0
230
-1
40
0.351385
41
2.99293866512392
42
-3.06766169253137
0
ELLIPSE
5
BE
100
AcDbEntity
8
1
62
256
6
ByLayer
370
-1
48
1
60
0
100
AcDbEllipse
10
85.799909
20
9.470399
30
0
11
-1.49977154273459
21
0.0261786096559232
31
0
210
0
220
0
230
1
40
0.998215
41
-1.73239503450938
42
2.56071808789814
0
ELLIPSE
5
BF
100
AcDbEntity
8
1
62
256
6
ByLayer
370
-1
48
1
60
0
100
AcDbEllipse
10
87.390202
20
0.438084
30
0
11
1.59975631225023
21
-0.0279238502996523
31
0
210
0
220
0
230
1
40
0.998215
41
-0.343158881536252
42
-0.0112397765441983
0
ELLIPSE
5
C0
100
AcDbEntity
8
1
62
256
6
ByLayer
370
-1
48
1
60
0
100
AcDbEllipse
10
83.178771
20
5.176703
30
0
11
-3.19951262450045
21
0.0558477005993027
31
0
210
0
220
0
230
1
40
0.998215
41
-2.4085188480694
42
-1.55331182354476
0
ELLIPSE
5
C1
100
AcDbEntity
8
1
62
256
6
ByLayer
370
-1
48
1
60
0
100
AcDbEllipse
10
87.681905
20
10.221454
30
0
11
-1.49977154273459
21
0.0261786096559232
31
0
210
0
220
0
230
1
40
0.998215
41
-2.09439510239323
42
-0.523598775598335
0
ELLIPSE
5
C2
100
AcDbEntity
8
1
62
256
6
ByLayer
370
-1
48
1
60
0
100
AcDbEllipse
10
85.595121
20
7.350111
30
0
11
-1.20660199591915
21
-1.05076715948108
31
0
210
0
220
0
230
1
40
0.044388
41
0.472650881877025
42
1.53077922882742
0
ELLIPSE
5
C3
100
AcDbEntity
8
1
62
256
6
ByLayer
370
-1
48
1
60
0
100
AcDbEllipse
10
85.794943
20
9.201698
30
0
11
1.49977154273459
21
-0.0261786096559241
31
0
210
0
220
0
230
1
40
0.998215
41
0.777563131442065
42
3.0577701044708
0
ELLIPSE
5
C4
100
AcDbEntity
8
1
62
256
6
ByLayer
370
-1
48
1
60
0
100
AcDbEllipse
10
87.553152
20
10.007548
30
0
11
-1.49977154273459
21
0.0261786096559232
31
0
210
0
220
0
230
1
40
0.998215
41
-0.523598775598298
42
-0.44743597312701
0
ELLIPSE
5
C5
100
AcDbEntity
8
1
62
256
6
ByLayer
370
-1
48
1
60
0
100
AcDbEllipse
10
93.392737
20
8.300287
30
0
11
-0.685895518877285
21
0.0119723508159755
31
0
210
0
220
0
230
1
40
0.998215
41
2.88259605940816
42
-3.14159039082639
0
ELLIPSE
5
C6
100
AcDbEntity
8
1
62
256
6
ByLayer
370
-1
48
1
60
0
100
AcDbEllipse
10
93.662292
20
9.238712
30
0
11
-0.291955526985666
21
0.00509610267968637
31
0
210
0
220
0
230
1
40
0.998215
41
-1.3148601105196
42
-0.150858598832464
0
ELLIPSE
5
C7
100
AcDbEntity
8
1
62
256
6
ByLayer
370
-1
48
1
60
0
100
AcDbEllipse
10
93.431231
20
10.187343
30
0
11
-0.685895518877285
21
0.0119723508159755
31
0
210
0
220
0
230
1
40
0.998215
41
1.82673254307035
42
2.49637983677468
0
ELLIPSE
5
C8
100
AcDbEntity
8
1
62
256
6
ByLayer
370
-1
48
1
60
0
100
AcDbEllipse
10
94.378769
20
10.42904
30
0
11
-0.291955526985666
21
0.00509610267968637
31
0
210
0
220
0
230
1
40
0.998215
41
-2.35618224425648
42
-0.109844304921727
0
ELLIPSE
5
C9
100
AcDbEntity
8
1
62
256
6
ByLayer
370
-1
48
1
60
0
100
AcDbEllipse
10
95.082253
20
11.10719
30
0
11
-0.685895518877285
21
0.0119723508159755
31
0
210
0
220
0
230
1
40
0.998215
41
0.785410409333386
42
1.56940105295408
0
ELLIPSE
5
CA
100
AcDbEntity
8
1
62
256
6
ByLayer
370
-1
48
1
60
0
100
AcDbEllipse
10
95.759676
20
10.403013
30
0
11
-0.291955526985666
21
0.00509610267968637
31
0
210
0
220
0
230
1
40
0.998215
41
-2.98175014838275
42
-0.788200957014761
0
ELLIPSE
5
CB
100
AcDbEntity
8
1
62
256
6
ByLayer
370
-1
48
1
60
0
100
AcDbEllipse
10
96.70055
20
10.136522
30
0
11
-0.685895518877285
21
0.0119723508159755
31
0
210
0
220
0
230
1
40
0.998215
41
2.70689949048301E-06
42
0.524994049438978
0
ELLIPSE
5
CC
100
AcDbEntity
8
1
62
256
6
ByLayer
370
-1
48
1
60
0
100
AcDbEllipse
10
96.430994
20
9.198098
30
0
11
-0.291955526985666
21
0.00509610267968637
31
0
210
0
220
0
230
1
40
0.998215
41
3.14156601436049
42
-1.83260796052981
0
ELLIPSE
5
CD
100
AcDbEntity
8
1
62
256
6
ByLayer
370
-1
48
1
60
0
100
AcDbEllipse
10
95.047217
20
9.236855
30
0
11
-1.20631624420619
21
0.0210563283665809
31
0
210
0
220
0
230
1
40
0.998215
41
1.72714355309192
42
2.53625409202651
0
ELLIPSE
5
CE
100
AcDbEntity
8
1
62
256
6
ByLayer
370
-1
48
1
60
0
100
AcDbEllipse
10
95.048424
20
9.305752
30
0
11
1.20631624420619
21
-0.0210563283665816
31
0
210
0
220
0
230
1
40
0.998215
41
2.54900314142135
42
2.68707598654679
0
ELLIPSE
5
CF
100
AcDbEntity
8
1
62
256
6
ByLayer
370
-1
48
1
60
0
100
AcDbEllipse
10
95.048708
20
9.321957
30
0
11
1.67624466092969
21
-0.0292589593921044
31
0
210
0
220
0
230
1
40
0.998215
41
-2.09437856115691
42
-1.04997358571155
0
ELLIPSE
5
D0
100
AcDbEntity
8
1
62
256
6
ByLayer
370
-1
48
1
60
0
100
AcDbEllipse
10
96.662056
20
8.249467
30
0
11
-0.685895518877285
21
0.0119723508159755
31
0
210
0
220
0
230
1
40
0.998215
41
-8.16562121524716E-06
42
0.267662559322949
0
ELLIPSE
5
D1
100
AcDbEntity
8
1
62
256
6
ByLayer
370
-1
48
1
60
0
100
AcDbEllipse
10
95.048708
20
9.321957
30
0
11
1.67624466092969
21
-0.0292589593921044
31
0
210
0
220
0
230
1
40
0.998215
41
-3.13873975343233
42
-2.09437856115691
0
ELLIPSE
5
D2
100
AcDbEntity
8
1
62
256
6
ByLayer
370
-1
48
1
60
0
100
AcDbEllipse
10
95.047217
20
9.236855
30
0
11
-1.20631624420619
21
0.0210563283665809
31
0
210
0
220
0
230
1
40
0.998215
41
0.605268712539663
42
1.37399002946803
0
ELLIPSE
5
D3
100
AcDbEntity
8
1
62
256
6
ByLayer
370
-1
48
1
60
0
100
AcDbEllipse
10
95.048424
20
9.305752
30
0
11
1.20631624420619
21
-0.0210563283665816
31
0
210
0
220
0
230
1
40
0.998215
41
-0.592589512168895
42
-0.454516667042444
0
ELLIPSE
5
D4
100
AcDbEntity
8
1
62
256
6
ByLayer
370
-1
48
1
60
0
100
AcDbEllipse
10
95.047217
20
9.236855
30
0
11
1.2063162442062
21
-0.0210563283665818
31
0
210
0
220
0
230
1
40
0.998215
41
0.525041679963738
42
1.56940107503502
0
ELLIPSE
5
D5
100
AcDbEntity
8
1
62
256
6
ByLayer
370
-1
48
1
60
0
100
AcDbEllipse
10
95.047217
20
9.236855
30
0
11
-1.20631624420619
21
0.0210563283665809
31
0
210
0
220
0
230
1
40
0.998215
41
2.76082642094759
42
-2.62984695741043
0
ELLIPSE
5
D6
100
AcDbEntity
8
1
62
256
6
ByLayer
370
-1
48
1
60
0
100
AcDbEllipse
10
95.048708
20
9.321957
30
0
11
1.67624466092969
21
-0.0292589593921044
31
0
210
0
220
0
230
1
40
0.998215
41
-1.04997358571155
42
0.00285290015746966
0
ELLIPSE
5
D7
100
AcDbEntity
8
1
62
256
6
ByLayer
370
-1
48
1
60
0
100
AcDbEllipse
10
95.082253
20
11.10719
30
0
11
-0.685895518877285
21
0.0119723508159755
31
0
210
0
220
0
230
1
40
0.998215
41
1.56940105295408
42
2.35339169657506
0
ELLIPSE
5
D8
100
AcDbEntity
8
1
62
256
6
ByLayer
370
-1
48
1
60
0
100
AcDbEllipse
10
95.048708
20
9.321957
30
0
11
1.67624466092969
21
-0.0292589593921044
31
0
210
0
220
0
230
1
40
0.998215
41
2.09161906787821
42
-3.13873975343233
0
ELLIPSE
5
D9
100
AcDbEntity
8
1
62
256
6
ByLayer
370
-1
48
1
60
0
100
AcDbEllipse
10
95.047217
20
9.236855
30
0
11
1.2063162442062
21
-0.0210563283665818
31
0
210
0
220
0
230
1
40
0.998215
41
2.54900314142107
42
2.68707598654699
0
ELLIPSE
5
DA
100
AcDbEntity
8
1
62
256
6
ByLayer
370
-1
48
1
60
0
100
AcDbEllipse
10
95.048708
20
9.321957
30
0
11
1.67624466092969
21
-0.0292589593921044
31
0
210
0
220
0
230
1
40
0.998215
41
0.00285290015746966
42
1.04721409243284
0
ELLIPSE
5
DB
100
AcDbEntity
8
1
62
256
6
ByLayer
370
-1
48
1
60
0
100
AcDbEllipse
10
93.431231
20
10.187343
30
0
11
-0.685895518877285
21
0.0119723508159755
31
0
210
0
220
0
230
1
40
0.998215
41
2.73960791920835
42
3.14158407272221
0
ELLIPSE
5
DC
100
AcDbEntity
8
1
62
256
6
ByLayer
370
-1
48
1
60
0
100
AcDbEllipse
10
95.047217
20
9.236855
30
0
11
-1.20631624420619
21
0.0210563283665809
31
0
210
0
220
0
230
1
40
0.998215
41
-0.440623957680591
42
0.372233727423836
0
ELLIPSE
5
DD
100
AcDbEntity
8
1
62
256
6
ByLayer
370
-1
48
1
60
0
100
AcDbEllipse
10
95.048708
20
9.321957
30
0
11
1.67624466092969
21
-0.0292589593921044
31
0
210
0
220
0
230
1
40
0.998215
41
1.04721409243284
42
2.09161906787821
0
ELLIPSE
5
DE
100
AcDbEntity
8
1
62
256
6
ByLayer
370
-1
48
1
60
0
100
AcDbEllipse
10
95.047217
20
9.236855
30
0
11
-1.20631624420619
21
0.0210563283665809
31
0
210
0
220
0
230
1
40
0.998215
41
-1.57219157855482
42
-0.59258951216876
0
ELLIPSE
5
DF
100
AcDbEntity
8
1
62
256
6
ByLayer
370
-1
48
1
60
0
100
AcDbEllipse
10
96.70055
20
10.136522
30
0
11
-0.685895518877285
21
0.0119723508159755
31
0
210
0
220
0
230
1
40
0.998215
41
0.524994049438978
42
1.30898469305985
0
ELLIPSE
5
E0
100
AcDbEntity
8
1
62
256
6
ByLayer
370
-1
48
1
60
0
100
AcDbEllipse
10
95.04842
20
9.305508
30
0
11
2.62460019978552
21
-0.0458125668978669
31
0
210
0
220
0
230
1
40
0.998215
41
0
42
6.28318530717959
0
ELLIPSE
5
E1
100
AcDbEntity
8
1
62
256
6
ByLayer
370
-1
48
1
60
0
100
AcDbEllipse
10
95.048708
20
9.321957
30
0
11
1.79972585128148
21
-0.0314143315871084
31
0
210
0
220
0
230
1
40
0.998215
41
0
42
6.28318530717959
0
ELLIPSE
5
E2
100
AcDbEntity
8
1
62
256
6
ByLayer
370
-1
48
1
60
0
100
AcDbEllipse
10
95.047243
20
9.238348
30
0
11
2.62460019978551
21
-0.0458125668978667
31
0
210
0
220
0
230
1
40
0.998215
41
-3.13457574817366
42
-0.0069724485044012
0
ELLIPSE
5
E3
100
AcDbEntity
8
1
62
256
6
ByLayer
370
-1
48
1
60
0
100
AcDbEllipse
10
99.136996
20
16.125944
30
0
11
0.793879069954048
21
-0.0138572107112002
31
0
210
0
220
0
230
1
40
0.998215
41
0
42
2.09440976290206
0
ELLIPSE
5
E4
100
AcDbEntity
8
1
62
256
6
ByLayer
370
-1
48
1
60
0
100
AcDbEllipse
10
98.896647
20
2.405276
30
0
11
0.793879069954096
21
-0.0138572107112011
31
0
210
0
220
0
230
1
40
0.998215
41
-2.09437856115701
42
6.23469093583522E-05
0
ELLIPSE
5
E5
100
AcDbEntity
8
1
62
256
6
ByLayer
370
-1
48
1
60
0
100
AcDbEllipse
10
95.04893
20
9.334623
30
0
11
3.07085757045556
21
-0.0536020182776077
31
0
210
0
220
0
230
1
40
0.998215
41
0
42
6.28318530717959
0
ELLIPSE
5
E6
100
AcDbEntity
8
1
62
256
6
ByLayer
370
-1
48
1
60
0
100
AcDbEllipse
10
95.047792
20
9.269679
30
0
11
-2.95004630732266
21
0.0514932498355614
31
0
210
0
220
0
230
1
40
0.998215
41
0
42
6.28318530717959
0
ELLIPSE
5
E7
100
AcDbEntity
8
1
62
256
6
ByLayer
370
-1
48
1
60
0
100
AcDbEllipse
10
95.047953
20
9.278876
30
0
11
3.00559423705108
21
-0.0524628425556007
31
0
210
0
220
0
230
1
40
0.998215
41
0
42
6.28318530717959
0
ELLIPSE
5
E8
100
AcDbEntity
8
1
62
256
6
ByLayer
370
-1
48
1
60
0
100
AcDbEllipse
10
87.113147
20
9.472648
30
0
11
0.793879069954097
21
-0.0138572107112011
31
0
210
0
220
0
230
1
40
0.998215
41
2.09440976290211
42
-2.09437856115693
0
POINT
5
41
100
AcDbEntity
8
80
62
256
6
ByLayer
370
-1
48
1
60
0
100
AcDbPoint
10
0
20
0
30
0
39
0
210
0
220
0
230
1
50
360
0
POINT
5
43
100
AcDbEntity
8
81
62
256
6
ByLayer
370
-1
48
1
60
0
100
AcDbPoint
10
99.93
20
16.9
30
0
39
0
210
0
220
0
230
1
50
360
0
POINT
5
45
100
AcDbEntity
8
1
62
256
6
ByLayer
370
-1
48
1
60
0
100
AcDbPoint
10
-201.32
20
0
30
0
39
0
210
0
220
0
230
1
50
360
0
POINT
5
47
100
AcDbEntity
8
2
62
256
6
ByLayer
370
-1
48
1
60
0
100
AcDbPoint
10
99.93
20
16.9
30
0
39
0
210
0
220
0
230
1
50
360
0
SPLINE
5
E9
100
AcDbEntity
8
1
62
256
6
ByLayer
370
-1
48
1
60
0
100
AcDbSpline
70
4
71
3
72
8
73
4
40
0
40
0
40
0
40
0
40
1
40
1
40
1
40
1
41
1
10
71.6409508658691
20
7.93232441094236
30
0
41
1
10
70.7611407145112
20
8.23816928053995
30
0
41
1
10
69.975811391575
20
8.63957498680116
30
0
41
1
10
69.281714846445
20
9.09661805231082
30
0
0
SPLINE
5
EA
100
AcDbEntity
8
1
62
256
6
ByLayer
370
-1
48
1
60
0
100
AcDbSpline
70
4
71
3
72
8
73
4
40
0
40
0
40
0
40
0
40
1
40
1
40
1
40
1
41
1
10
68.6970523697204
20
9.48701776817776
30
0
41
1
10
68.7220523976874
20
9.4684670774094
30
0
41
1
10
68.747052397861
20
9.44991640256004
30
0
41
1
10
68.7720523697204
20
9.43136574392821
30
0
0
SPLINE
5
EB
100
AcDbEntity
8
1
62
256
6
ByLayer
370
-1
48
1
60
0
100
AcDbSpline
70
4
71
3
72
8
73
4
40
0
40
0
40
0
40
0
40
1
40
1
40
1
40
1
41
1
10
73.4150561627211
20
7.49479371657426
30
0
41
1
10
72.8563382581727
20
7.58637854978136
30
0
41
1
10
72.3032882401217
20
7.72349922599227
30
0
41
1
10
71.7718543749595
20
7.90071874070867
30
0
0
SPLINE
5
EC
100
AcDbEntity
8
1
62
256
6
ByLayer
370
-1
48
1
60
0
100
AcDbSpline
70
4
71
3
72
8
73
4
40
0
40
0
40
0
40
0
40
1
40
1
40
1
40
1
41
1
10
86.2146184923048
20
10.8102608050438
30
0
41
1
10
86.1662850831901
20
10.8512288002296
30
0
41
1
10
86.1168608533024
20
10.8898310561791
30
0
41
1
10
86.0664229090052
20
10.9259006920273
30
0
0
SPLINE
5
ED
100
AcDbEntity
8
1
62
256
6
ByLayer
370
-1
48
1
60
0
100
AcDbSpline
70
4
71
3
72
8
73
4
40
0
40
0
40
0
40
0
40
1
40
1
40
1
40
1
41
1
10
68.7720523697204
20
-4.68116054654016
30
0
41
1
10
68.7474370383542
20
-4.74644993472455
30
0
41
1
10
68.7224331029212
20
-4.81159837540838
30
0
41
1
10
68.6970523697198
20
-4.87661015076057
30
0
0
SPLINE
5
EE
100
AcDbEntity
8
1
62
256
6
ByLayer
370
-1
48
1
60
0
100
AcDbSpline
70
4
71
3
72
8
73
4
40
0
40
0
40
0
40
0
40
1
40
1
40
1
40
1
41
1
10
71.7718543748557
20
0.477477263360043
30
0
41
1
10
71.7143823819576
20
0.917183513133068
30
0
41
1
10
71.6704628382582
20
1.35778478499267
30
0
41
1
10
71.6409508658684
20
1.79784940149338
30
0
0
SPLINE
5
EF
100
AcDbEntity
8
1
62
256
6
ByLayer
370
-1
48
1
60
0
100
AcDbSpline
70
4
71
3
72
8
73
4
40
0
40
0
40
0
40
0
40
1
40
1
40
1
40
1
41
1
10
71.6409508658688
20
12.4156415207624
30
0
41
1
10
72.0520852145777
20
12.9649689447598
30
0
41
1
10
72.4632639414809
20
13.514263273103
30
0
41
1
10
72.874473061656
20
14.0635349252963
30
0
0
SPLINE
5
F0
100
AcDbEntity
8
1
62
256
6
ByLayer
370
-1
48
1
60
0
100
AcDbSpline
70
4
71
3
72
12
73
8
40
0
40
0
40
0
40
0
40
0.330092131110074
40
0.330092131110074
40
0.665046065555066
40
0.665046065555066
40
1
40
1
40
1
40
1
41
1
10
70.4214564265016
20
12.4156540565051
30
0
41
1
10
70.5556382659588
20
12.4156526843629
30
0
41
1
10
70.6898201054159
20
12.4156513098525
30
0
41
1
10
70.9601600983743
20
12.4156485358156
30
0
41
1
10
71.0963182518755
20
12.4156471362188
30
0
41
1
10
71.3686345588779
20
12.4156443321483
30
0
41
1
10
71.504792712379
20
12.4156429276745
30
0
41
1
10
71.6409508658802
20
12.4156415207622
30
0
0
SPLINE
5
F1
100
AcDbEntity
8
1
62
256
6
ByLayer
370
-1
48
1
60
0
100
AcDbSpline
70
4
71
3
72
8
73
4
40
0
40
0
40
0
40
0
40
1
40
1
40
1
40
1
41
1
10
71.6409508664857
20
7.9323244123928
30
0
41
1
10
71.6842440865652
20
7.92158846944216
30
0
41
1
10
71.7278822854993
20
7.91104817622488
30
0
41
1
10
71.771854374954
20
7.90071874072018
30
0
0
SPLINE
5
F2
100
AcDbEntity
8
1
62
256
6
ByLayer
370
-1
48
1
60
0
100
AcDbSpline
70
4
71
3
72
8
73
4
40
0
40
0
40
0
40
0
40
1
40
1
40
1
40
1
41
1
10
71.6409508658687
20
4.46551706246839
30
0
41
1
10
71.6705997448359
20
4.90210184117996
30
0
41
1
10
71.7145804244558
20
5.33398660956289
30
0
41
1
10
71.7718543748557
20
5.76151194597475
30
0
0
SPLINE
5
F3
100
AcDbEntity
8
1
62
256
6
ByLayer
370
-1
48
1
60
0
100
AcDbSpline
70
4
71
3
72
8
73
4
40
0
40
0
40
0
40
0
40
1
40
1
40
1
40
1
41
1
10
71.6409508658688
20
-11.7257847953095
30
0
41
1
10
71.6818573200581
20
-11.7096767179632
30
0
41
1
10
71.7255469471417
20
-11.6924726872977
30
0
41
1
10
71.7718543748556
20
-11.6742378233354
30
0
0
SPLINE
5
F4
100
AcDbEntity
8
1
62
256
6
ByLayer
370
-1
48
1
60
0
100
AcDbSpline
70
4
71
3
72
8
73
4
40
0
40
0
40
0
40
0
40
1
40
1
40
1
40
1
41
1
10
68.69705236972
20
4.87661015076
30
0
41
1
10
68.7224361627107
20
4.81159053787465
30
0
41
1
10
68.7474400358174
20
4.74644198429181
30
0
41
1
10
68.7720523697204
20
4.68116054654016
30
0
0
SPLINE
5
F5
100
AcDbEntity
8
1
62
256
6
ByLayer
370
-1
48
1
60
0
100
AcDbSpline
70
4
71
3
72
18
73
14
40
0
40
0
40
0
40
0
40
0.210965823598892
40
0.210965823598892
40
0.385360648441876
40
0.385360648441876
40
0.561454900569894
40
0.561454900569894
40
0.714470859794355
40
0.714470859794355
40
0.91706081372904
40
0.91706081372904
40
1
40
1
40
1
40
1
41
1
10
94.590178938147
20
10.7101103642837
30
0
41
1
10
94.6390907119215
20
10.6573309238983
30
0
41
1
10
94.6975652979718
20
10.6106261761955
30
0
41
1
10
94.8176803585105
20
10.5442707894495
30
0
41
1
10
94.8784505107536
20
10.5207377959397
30
0
41
1
10
95.0055562531096
20
10.4926481357987
30
0
41
1
10
95.0738692543027
20
10.4880672304189
30
0
41
1
10
95.1967860311645
20
10.4987734030435
30
0
41
1
10
95.2534861505842
20
10.5115673558293
30
0
41
1
10
95.3751063840161
20
10.5554156183373
30
0
41
1
10
95.4389253295513
20
10.5915502656506
30
0
41
1
10
95.5169903447578
20
10.6524788607277
30
0
41
1
10
95.5385801874554
20
10.6716276014958
30
0
41
1
10
95.5587909333877
20
10.6918536682707
30
0
0
SPLINE
5
F6
100
AcDbEntity
8
1
62
256
6
ByLayer
370
-1
48
1
60
0
100
AcDbSpline
70
4
71
3
72
16
73
12
40
0
40
0
40
0
40
0
40
0.0545731603590544
40
0.0545731603590544
40
0.277550284642473
40
0.277550284642473
40
0.502845012857412
40
0.502845012857412
40
0.742205832860081
40
0.742205832860081
40
1
40
1
40
1
40
1
41
1
10
96.7244484635715
20
9.27891728254991
30
0
41
1
10
96.7245553946569
20
9.28621194922667
30
0
41
1
10
96.7243873613774
20
9.29350910495239
30
0
41
1
10
96.7221549820171
20
9.33021924817587
30
0
41
1
10
96.7157026272843
20
9.35955690824477
30
0
41
1
10
96.694779885945
20
9.41366568192404
30
0
41
1
10
96.6799820527319
20
9.43908419494329
30
0
41
1
10
96.6435499131493
20
9.48439693595259
30
0
41
1
10
96.6211151212257
20
9.5044347291612
30
0
41
1
10
96.5708337855423
20
9.53709039823005
30
0
41
1
10
96.5421132656037
20
9.54944668928388
30
0
41
1
10
96.5128470683844
20
9.55687784283469
30
0
0
SPLINE
5
F7
100
AcDbEntity
8
1
62
256
6
ByLayer
370
-1
48
1
60
0
100
AcDbSpline
70
4
71
3
72
12
73
8
40
0
40
0
40
0
40
0
40
0.320646156792468
40
0.320646156792468
40
0.789530337346433
40
0.789530337346433
40
1
40
1
40
1
40
1
41
1
10
94.0589781736847
20
9.97734674526114
30
0
41
1
10
94.0800956862589
20
10.0249498209797
30
0
41
1
10
94.0956632994446
20
10.075170390011
30
0
41
1
10
94.1195943630397
20
10.1977735709432
30
0
41
1
10
94.1218708507232
20
10.2716957556858
30
0
41
1
10
94.1104337252492
20
10.373562058727
30
0
41
1
10
94.1047863228593
20
10.4048570562777
30
0
41
1
10
94.0972339245645
20
10.435368977044
30
0
0
SPLINE
5
F8
100
AcDbEntity
8
1
62
256
6
ByLayer
370
-1
48
1
60
0
100
AcDbSpline
70
4
71
3
72
18
73
14
40
0
40
0
40
0
40
0
40
0.207624331699128
40
0.207624331699128
40
0.382611245130208
40
0.382611245130208
40
0.559336748640885
40
0.559336748640885
40
0.712477422538992
40
0.712477422538992
40
0.914479900737178
40
0.914479900737178
40
1
40
1
40
1
40
1
41
1
10
96.0419633429616
20
10.4020427916954
30
0
41
1
10
96.0230005797513
20
10.3333021841499
30
0
41
1
10
96.0136871794758
20
10.2596071310242
30
0
41
1
10
96.0184167985479
20
10.1221294025989
30
0
41
1
10
96.0292376796862
20
10.0570599760231
30
0
41
1
10
96.0694432921883
20
9.93201344564827
30
0
41
1
10
96.0998004665585
20
9.87030313971766
30
0
41
1
10
96.170082263321
20
9.76940882827466
30
0
41
1
10
96.2089583041284
20
9.72705587297705
30
0
41
1
10
96.3057798241587
20
9.64499589079824
30
0
41
1
10
96.3673637450117
20
9.60882164795342
30
0
41
1
10
96.4575440705183
20
9.57283317744611
30
0
41
1
10
96.4850792217969
20
9.56392854129828
30
0
41
1
10
96.5128470683844
20
9.55687784283472
30
0
0
SPLINE
5
F9
100
AcDbEntity
8
1
62
256
6
ByLayer
370
-1
48
1
60
0
100
AcDbSpline
70
4
71
3
72
14
73
10
40
0
40
0
40
0
40
0
40
0.266479231593675
40
0.266479231593675
40
0.554997815982403
40
0.554997815982403
40
0.815945169240357
40
0.815945169240357
40
1
40
1
40
1
40
1
41
1
10
94.054067178147
20
8.1919585107787
30
0
41
1
10
94.0454960758172
20
8.16271375945018
30
0
41
1
10
94.0416798348128
20
8.13114543146492
30
0
41
1
10
94.0453719204672
20
8.06516622108811
30
0
41
1
10
94.0539802228282
20
8.02969020282799
30
0
41
1
10
94.0830877286169
20
7.96699432567033
30
0
41
1
10
94.1028702078927
20
7.93838402780241
30
0
41
1
10
94.1441024918463
20
7.89700417763066
30
0
41
1
10
94.1636925988964
20
7.88166575216641
30
0
41
1
10
94.1847127346074
20
7.86905769790789
30
0
0
SPLINE
5
FA
100
AcDbEntity
8
1
62
256
6
ByLayer
370
-1
48
1
60
0
100
AcDbSpline
70
4
71
3
72
16
73
12
40
0
40
0
40
0
40
0
40
0.0568311993975635
40
0.0568311993975635
40
0.279629223496029
40
0.279629223496029
40
0.504874650262382
40
0.504874650262382
40
0.744284018683726
40
0.744284018683726
40
1
40
1
40
1
40
1
41
1
10
93.3718091896046
20
9.32809640735562
30
0
41
1
10
93.3716977922621
20
9.32049705980339
30
0
41
1
10
93.3718845593413
20
9.3128777366332
30
0
41
1
10
93.3742486301813
20
9.27571650455366
30
0
41
1
10
93.3807837079228
20
9.24601589746442
30
0
41
1
10
93.4018479486527
20
9.19072395447225
30
0
41
1
10
93.4167106013986
20
9.16446905673712
30
0
41
1
10
93.4532556359898
20
9.1170684155698
30
0
41
1
10
93.4757408358573
20
9.09573482507548
30
0
41
1
10
93.5258230556394
20
9.06031791131505
30
0
41
1
10
93.5542346488584
20
9.04634862184844
30
0
41
1
10
93.5831834527248
20
9.03712345963902
30
0
0
SPLINE
5
FB
100
AcDbEntity
8
1
62
256
6
ByLayer
370
-1
48
1
60
0
100
AcDbSpline
70
4
71
3
72
18
73
14
40
0
40
0
40
0
40
0
40
0.212309742818671
40
0.212309742818671
40
0.386466904642825
40
0.386466904642825
40
0.562307681727803
40
0.562307681727803
40
0.715275050939666
40
0.715275050939666
40
0.918102419068314
40
0.918102419068314
40
1
40
1
40
1
40
1
41
1
10
95.5058515829617
20
7.88389093819058
30
0
41
1
10
95.4565508553426
20
7.93261516343287
30
0
41
1
10
95.3975604982151
20
7.97543590509599
30
0
41
1
10
95.2768093231076
20
8.03568541329724
30
0
41
1
10
95.2160136354351
20
8.05684380136637
30
0
41
1
10
95.0889583613234
20
8.08208318533173
30
0
41
1
10
95.0207295329542
20
8.08620390463852
30
0
41
1
10
94.897974995508
20
8.07667370510967
30
0
41
1
10
94.8413502021265
20
8.06522893951595
30
0
41
1
10
94.7198314594089
20
8.02573711424753
30
0
41
1
10
94.65606950795
20
7.99302164173071
30
0
41
1
10
94.5784365597119
20
7.93765906814536
30
0
41
1
10
94.5571656824651
20
7.92040632201969
30
0
41
1
10
94.5372395877225
20
7.90214763420485
30
0
0
SPLINE
5
FC
100
AcDbEntity
8
1
62
256
6
ByLayer
370
-1
48
1
60
0
100
AcDbSpline
70
4
71
3
72
18
73
14
40
0
40
0
40
0
40
0
40
0.146509736604608
40
0.146509736604608
40
0.333386325404394
40
0.333386325404394
40
0.490210632960265
40
0.490210632960265
40
0.647325244092505
40
0.647325244092505
40
0.802108540490341
40
0.802108540490341
40
1
40
1
40
1
40
1
41
1
10
94.054067178147
20
8.19195851077873
30
0
41
1
10
94.0674011163201
20
8.23745414145682
30
0
41
1
10
94.0759228535436
20
8.28536161039895
30
0
41
1
10
94.0826092871085
20
8.3972931249742
30
0
41
1
10
94.0771843783334
20
8.463561959212
30
0
41
1
10
94.0479976662299
20
8.58406416338414
30
0
41
1
10
94.0268566022157
20
8.63983433662764
30
0
41
1
10
93.9711416196116
20
8.74383945352014
30
0
41
1
10
93.93584906365
20
8.79332730508435
30
0
41
1
10
93.8575024375784
20
8.87895728752258
30
0
41
1
10
93.8137414167873
20
8.91635928975839
30
0
41
1
10
93.7096896611618
20
8.98680710077545
30
0
41
1
10
93.6468120272924
20
9.01684683873771
30
0
41
1
10
93.5831834527248
20
9.0371234596391
30
0
0
SPLINE
5
FD
100
AcDbEntity
8
1
62
256
6
ByLayer
370
-1
48
1
60
0
100
AcDbSpline
70
4
71
3
72
12
73
8
40
0
40
0
40
0
40
0
40
0.321744953705308
40
0.321744953705308
40
0.790679818368373
40
0.790679818368373
40
1
40
1
40
1
40
1
41
1
10
96.0367137444754
20
8.59725600729186
30
0
41
1
10
96.0155205809648
20
8.5501358988034
30
0
41
1
10
95.9999350934422
20
8.50101602386403
30
0
41
1
10
95.9761424262306
20
8.38245597642651
30
0
41
1
10
95.9739996064141
20
8.3120061516212
30
0
41
1
10
95.9856200118685
20
8.21600057008109
30
0
41
1
10
95.9912688930528
20
8.18680171036991
30
0
41
1
10
95.99879297063
20
8.15842459694176
30
0
0
SPLINE
5
FE
100
AcDbEntity
8
1
62
256
6
ByLayer
370
-1
48
1
60
0
100
AcDbSpline
70
4
71
3
72
14
73
10
40
0
40
0
40
0
40
0
40
0.283354615600401
40
0.283354615600401
40
0.569754302956654
40
0.569754302956654
40
0.82898140305916
40
0.82898140305916
40
1
40
1
40
1
40
1
41
1
10
94.5901789381471
20
10.7101103642836
30
0
41
1
10
94.5669562835438
20
10.7351693351537
30
0
41
1
10
94.5387628658347
20
10.7568470963251
30
0
41
1
10
94.4758847035049
20
10.788991024181
30
0
41
1
10
94.4401312888095
20
10.7997751912019
30
0
41
1
10
94.3704483087604
20
10.8064837151233
30
0
41
1
10
94.3356104379205
20
10.8037610375867
30
0
41
1
10
94.2807970801779
20
10.7890530556541
30
0
41
1
10
94.2593598544846
20
10.7804470461412
30
0
41
1
10
94.2393951241449
20
10.7694731842634
30
0
0
SPLINE
5
FF
100
AcDbEntity
8
1
62
256
6
ByLayer
370
-1
48
1
60
0
100
AcDbSpline
70
4
71
3
72
14
73
10
40
0
40
0
40
0
40
0
40
0.282071481669171
40
0.282071481669171
40
0.566816132590173
40
0.566816132590173
40
0.824447856558453
40
0.824447856558453
40
1
40
1
40
1
40
1
41
1
10
93.5946747962494
20
9.60043490568867
30
0
41
1
10
93.5620633664602
20
9.59356266218282
30
0
41
1
10
93.5298341583798
20
9.58063499342464
30
0
41
1
10
93.4716796634859
20
9.54336336152409
30
0
41
1
10
93.4449498623893
20
9.51828135584168
30
0
41
1
10
93.4049694230362
20
9.46197228582778
30
0
41
1
10
93.3901233304307
20
9.43066996083567
30
0
41
1
10
93.3754253883993
20
9.37530751944493
30
0
41
1
10
93.3721546488532
20
9.35166308171333
30
0
41
1
10
93.3718091896046
20
9.32809640735562
30
0
0
SPLINE
5
100
100
AcDbEntity
8
1
62
256
6
ByLayer
370
-1
48
1
60
0
100
AcDbSpline
70
4
71
3
72
16
73
12
40
0
40
0
40
0
40
0
40
0.0587773950386231
40
0.0587773950386231
40
0.279491988882905
40
0.279491988882905
40
0.502772554555626
40
0.502772554555626
40
0.740201758091747
40
0.740201758091747
40
1
40
1
40
1
40
1
41
1
10
95.8568625290312
20
7.83754050564229
30
0
41
1
10
95.8638221738469
20
7.84136596081376
30
0
41
1
10
95.8706319279615
20
7.84547029672208
30
0
41
1
10
95.9019299896306
20
7.86607605485136
30
0
41
1
10
95.9242882922223
20
7.88621972780874
30
0
41
1
10
95.9612612324581
20
7.9310418704523
30
0
41
1
10
95.9762718849904
20
7.95632664132833
30
0
41
1
10
95.9982709168182
20
8.00994951710373
30
0
41
1
10
96.0049957889834
20
8.0390397110672
30
0
41
1
10
96.0094850931238
20
8.09851938837556
30
0
41
1
10
96.0064569309175
20
8.12951991485156
30
0
41
1
10
95.9987929706299
20
8.15842459694173
30
0
0
SPLINE
5
101
100
AcDbEntity
8
1
62
256
6
ByLayer
370
-1
48
1
60
0
100
AcDbSpline
70
4
71
3
72
16
73
12
40
0
40
0
40
0
40
0
40
0.0707312659488468
40
0.0707312659488468
40
0.381751108875007
40
0.381751108875007
40
0.664108483269734
40
0.664108483269734
40
0.913097406117063
40
0.913097406117063
40
1
40
1
40
1
40
1
41
1
10
96.0419633429629
20
10.4020427916948
30
0
41
1
10
96.0442638041891
20
10.4103820353256
30
0
41
1
10
96.0462252482837
20
10.4188563474425
30
0
41
1
10
96.0548051001069
20
10.4647114028311
30
0
41
1
10
96.0549488563616
20
10.5047234133179
30
0
41
1
10
96.0402751439939
20
10.5785371859973
30
0
41
1
10
96.0265257972856
20
10.6137156436427
30
0
41
1
10
95.9892266202716
20
10.6725063214715
30
0
41
1
10
95.9664361932303
20
10.6978327400944
30
0
41
1
10
95.9311695036212
20
10.7253494349543
30
0
41
1
10
95.9215268502798
20
10.7319687453715
30
0
41
1
10
95.9115449185688
20
10.7379559919977
30
0
0
SPLINE
5
102
100
AcDbEntity
8
1
62
256
6
ByLayer
370
-1
48
1
60
0
100
AcDbSpline
70
4
71
3
72
12
73
8
40
0
40
0
40
0
40
0
40
0.495373130889284
40
0.495373130889284
40
0.900320932363741
40
0.900320932363741
40
1
40
1
40
1
40
1
41
1
10
96.5013520989498
20
8.99335866829836
30
0
41
1
10
96.4320186089663
20
8.97432484131602
30
0
41
1
10
96.3630403080421
20
8.94389729759405
30
0
41
1
10
96.2469972429772
20
8.8683209150829
30
0
41
1
10
96.1970070215287
20
8.8258959768375
30
0
41
1
10
96.142816357719
20
8.76504219724373
30
0
41
1
10
96.1324095788386
20
8.75253245099921
30
0
41
1
10
96.1224339789064
20
8.73966859179913
30
0
0
SPLINE
5
103
100
AcDbEntity
8
1
62
256
6
ByLayer
370
-1
48
1
60
0
100
AcDbSpline
70
4
71
3
72
14
73
10
40
0
40
0
40
0
40
0
40
0.278846195975386
40
0.278846195975386
40
0.565812091007108
40
0.565812091007108
40
0.825495144803634
40
0.825495144803634
40
1
40
1
40
1
40
1
41
1
10
95.5058515829616
20
7.88389093819058
30
0
41
1
10
95.5287414236741
20
7.86126876183536
30
0
41
1
10
95.5564337362642
20
7.84182858188484
30
0
41
1
10
95.6187196858903
20
7.81301770808628
30
0
41
1
10
95.6544926157567
20
7.80356687980711
30
0
41
1
10
95.724278088455
20
7.79874413637401
30
0
41
1
10
95.7591947237584
20
7.80210608006993
30
0
41
1
10
95.8145823108744
20
7.81745122250248
30
0
41
1
10
95.8364923718369
20
7.82634379586088
30
0
41
1
10
95.8568625290312
20
7.83754050564229
30
0
0
SPLINE
5
104
100
AcDbEntity
8
1
62
256
6
ByLayer
370
-1
48
1
60
0
100
AcDbSpline
70
4
71
3
72
16
73
12
40
0
40
0
40
0
40
0
40
0.0620063353282703
40
0.0620063353282703
40
0.282753434943097
40
0.282753434943097
40
0.506250339804138
40
0.506250339804138
40
0.744049703739374
40
0.744049703739374
40
1
40
1
40
1
40
1
41
1
10
94.2393951241449
20
10.7694731842634
30
0
41
1
10
94.2320584247785
20
10.7654404763773
30
0
41
1
10
94.2248875632879
20
10.7610769650167
30
0
41
1
10
94.1933293336731
20
10.7399200309633
30
0
41
1
10
94.171064991534
20
10.7192831857875
30
0
41
1
10
94.1342715586972
20
10.6730354460859
30
0
41
1
10
94.1193555050828
20
10.646792326219
30
0
41
1
10
94.0975470791718
20
10.5908457006631
30
0
41
1
10
94.0909264412513
20
10.5603397868371
30
0
41
1
10
94.0866881374565
20
10.4981386232609
30
0
41
1
10
94.0897069238573
20
10.4657782907773
30
0
41
1
10
94.0972339245645
20
10.435368977044
30
0
0
SPLINE
5
105
100
AcDbEntity
8
1
62
256
6
ByLayer
370
-1
48
1
60
0
100
AcDbSpline
70
4
71
3
72
14
73
10
40
0
40
0
40
0
40
0
40
0.278901186011697
40
0.278901186011697
40
0.564042846402238
40
0.564042846402238
40
0.821997220619088
40
0.821997220619088
40
1
40
1
40
1
40
1
41
1
10
96.5013520989498
20
8.99335866829827
30
0
41
1
10
96.5336340803651
20
9.00222090282747
30
0
41
1
10
96.5655349546578
20
9.01690365363945
30
0
41
1
10
96.623596038981
20
9.05723077869689
30
0
41
1
10
96.650480289247
20
9.08379604612529
30
0
41
1
10
96.6907528342671
20
9.14230441962158
30
0
41
1
10
96.7057424992609
20
9.1744135992181
30
0
41
1
10
96.7207359818262
20
9.23087484079889
30
0
41
1
10
96.7240981989394
20
9.25502279264975
30
0
41
1
10
96.7244484635715
20
9.27891728254991
30
0
0
SPLINE
5
106
100
AcDbEntity
8
1
62
256
6
ByLayer
370
-1
48
1
60
0
100
AcDbSpline
70
4
71
3
72
16
73
12
40
0
40
0
40
0
40
0
40
0.05051108371297
40
0.05051108371297
40
0.27357165935392
40
0.27357165935392
40
0.498716631651837
40
0.498716631651837
40
0.737738642831851
40
0.737738642831851
40
1
40
1
40
1
40
1
41
1
10
94.1847127346074
20
7.86905769790789
30
0
41
1
10
94.1905135205379
20
7.86557833770019
30
0
41
1
10
94.1964398466368
20
7.86229133780586
30
0
41
1
10
94.2288623086789
20
7.84571583696496
30
0
41
1
10
94.2576472937015
20
7.83608611995035
30
0
41
1
10
94.3155130212303
20
7.82570381726489
30
0
41
1
10
94.3453277863139
20
7.82488032921862
30
0
41
1
10
94.4038132966651
20
7.83158841670806
30
0
41
1
10
94.4330371364974
20
7.83969123400323
30
0
41
1
10
94.4885214452587
20
7.86424484911885
30
0
41
1
10
94.5149317487779
20
7.88170650550481
30
0
41
1
10
94.5372395877225
20
7.90214763420479
30
0
0
SPLINE
5
107
100
AcDbEntity
8
1
62
256
6
ByLayer
370
-1
48
1
60
0
100
AcDbSpline
70
4
71
3
72
12
73
8
40
0
40
0
40
0
40
0
40
0.493142180082964
40
0.493142180082964
40
0.898475624162129
40
0.898475624162129
40
1
40
1
40
1
40
1
41
1
10
93.5946747962494
20
9.60043490568867
30
0
41
1
10
93.66362017022
20
9.61496384237094
30
0
41
1
10
93.7322117101746
20
9.64101671276458
30
0
41
1
10
93.8479860568272
20
9.71010121245729
30
0
41
1
10
93.8980297172296
20
9.75021341501258
30
0
41
1
10
93.9525005631531
20
9.80959389896782
30
0
41
1
10
93.963102416547
20
9.822049182641
30
0
41
1
10
93.9732579392542
20
9.83493416075493
30
0
0
SPLINE
5
108
100
AcDbEntity
8
1
62
256
6
ByLayer
370
-1
48
1
60
0
100
AcDbSpline
70
4
71
3
72
16
73
12
40
0
40
0
40
0
40
0
40
0.141344803325056
40
0.141344803325056
40
0.363760442660901
40
0.363760442660901
40
0.593306015714757
40
0.593306015714757
40
0.840796075900982
40
0.840796075900982
40
1
40
1
40
1
40
1
41
1
10
95.9115449185688
20
10.7379559919977
30
0
41
1
10
95.8954284766892
20
10.7476227694375
30
0
41
1
10
95.8782735818959
20
10.7557164579501
30
0
41
1
10
95.8329905043849
20
10.7718388468756
30
0
41
1
10
95.8035959925815
20
10.7773176846105
30
0
41
1
10
95.7450892639817
20
10.7792523778007
30
0
41
1
10
95.7152787963321
20
10.7754653101796
30
0
41
1
10
95.6574419110949
20
10.7591494724526
30
0
41
1
10
95.6290049777172
20
10.7457893722533
30
0
41
1
10
95.5875679739
20
10.7180106830527
30
0
41
1
10
95.5724455321535
20
10.7055186179635
30
0
41
1
10
95.5587909333877
20
10.6918536682707
30
0
0
SPLINE
5
109
100
AcDbEntity
8
SK1
62
256
6
ByLayer
370
-1
48
1
60
0
100
AcDbSpline
70
4
71
3
72
8
73
4
40
0
40
0
40
0
40
0
40
1
40
1
40
1
40
1
41
1
10
-201.32
20
10.00875
30
0
41
1
10
-200.859655007734
20
10.00875
30
0
41
1
10
-200.133727170391
20
10.00875
30
0
41
1
10
-199.32
20
10.00875
30
0
0
SPLINE
5
10A
100
AcDbEntity
8
SK1
62
256
6
ByLayer
370
-1
48
1
60
0
100
AcDbSpline
70
4
71
3
72
10
73
6
40
0
40
0
40
0
40
0
40
0.5
40
0.5
40
1
40
1
40
1
40
1
41
1
10
-199.32
20
4.87661015076054
30
0
41
1
10
-199.931278087239
20
3.3108447581692
30
0
41
1
10
-200.311010085058
20
1.68546685393193
30
0
41
1
10
-200.311489681707
20
-1.6821913662468
30
0
41
1
10
-199.931860983986
20
-3.30935169049232
30
0
41
1
10
-199.32
20
-4.87661015076054
30
0
0
LINE
5
49
100
AcDbEntity
8
80
62
256
6
ByLayer
370
-1
48
1
60
0
100
AcDbLine
10
0
20
0
30
0
11
-10
21
0
31
0
39
0
210
0
220
0
230
1
0
LINE
5
4A
100
AcDbEntity
8
81
62
256
6
ByLayer
370
-1
48
1
60
0
100
AcDbLine
10
99.93
20
16.9
30
0
11
109.93
21
16.9
31
0
39
0
210
0
220
0
230
1
0
LINE
5
4B
100
AcDbEntity
8
SK1
62
256
6
ByLayer
370
-1
48
1
60
0
100
AcDbLine
10
-201.32
20
-10.49125
30
0
11
-199.32
21
-12.49125
31
0
39
0
210
0
220
0
230
1
0
LINE
5
4D
100
AcDbEntity
8
SK1
62
256
6
ByLayer
370
-1
48
1
60
0
100
AcDbLine
10
-199.32
20
-12.49125
30
0
11
0
21
-12.49125
31
0
39
0
210
0
220
0
230
1
0
LINE
5
4E
100
AcDbEntity
8
1
62
256
6
ByLayer
370
-1
48
1
60
0
100
AcDbLine
10
95.977445
20
8.335055
30
0
11
95.97616
21
8.261439
31
0
39
0
210
0
220
0
230
1
0
LINE
5
4F
100
AcDbEntity
8
1
62
256
6
ByLayer
370
-1
48
1
60
0
100
AcDbLine
10
94.078632
20
8.288315
30
0
11
94.07992
21
8.362074
31
0
39
0
210
0
220
0
230
1
0
LINE
5
50
100
AcDbEntity
8
1
62
256
6
ByLayer
370
-1
48
1
60
0
100
AcDbLine
10
96.015942
20
10.222252
30
0
11
96.014654
21
10.148495
31
0
39
0
210
0
220
0
230
1
0
LINE
5
51
100
AcDbEntity
8
1
62
256
6
ByLayer
370
-1
48
1
60
0
100
AcDbLine
10
97.67127
20
9.174085
30
0
11
97.672442
21
9.241245
31
0
39
0
210
0
220
0
230
1
0
LINE
5
52
100
AcDbEntity
8
1
62
256
6
ByLayer
370
-1
48
1
60
0
100
AcDbLine
10
92.423242
20
9.33287
30
0
11
92.422069
21
9.265711
31
0
39
0
210
0
220
0
230
1
0
LINE
5
53
100
AcDbEntity
8
1
62
256
6
ByLayer
370
-1
48
1
60
0
100
AcDbLine
10
94.117127
20
10.17537
30
0
11
94.118412
21
10.248986
31
0
39
0
210
0
220
0
230
1
0
LINE
5
54
100
AcDbEntity
8
1
62
256
6
ByLayer
370
-1
48
1
60
0
100
AcDbLine
10
68.772052
20
-12.41625
30
0
11
69.887515
21
-12.41625
31
0
39
0
210
0
220
0
230
1
0
LINE
5
55
100
AcDbEntity
8
1
62
256
6
ByLayer
370
-1
48
1
60
0
100
AcDbLine
10
68.697052
20
-12.49125
30
0
11
68.772052
21
-12.41625
31
0
39
0
210
0
220
0
230
1
0
LINE
5
56
100
AcDbEntity
8
1
62
256
6
ByLayer
370
-1
48
1
60
0
100
AcDbLine
10
0
20
-12.49125
30
0
11
68.697052
21
-12.49125
31
0
39
0
210
0
220
0
230
1
0
LINE
5
57
100
AcDbEntity
8
1
62
256
6
ByLayer
370
-1
48
1
60
0
100
AcDbLine
10
88.989932
20
0.392187
30
0
11
88.993933
21
0.621387
31
0
39
0
210
0
220
0
230
1
0
LINE
5
58
100
AcDbEntity
8
SK4
62
256
6
ByLayer
370
-1
48
0.05
60
0
100
AcDbLine
10
-206.32
20
0
30
0
11
104.126117
21
0
31
0
39
0
210
0
220
0
230
1
0
LINE
5
5A
100
AcDbEntity
8
4
62
256
6
ByLayer
370
-1
48
0.05
60
0
100
AcDbLine
10
0
20
0
30
0
11
104.126117
21
0
31
0
39
0
210
0
220
0
230
1
0
LINE
5
5C
100
AcDbEntity
8
1
62
256
6
ByLayer
370
-1
48
1
60
0
100
AcDbLine
10
75.133308
20
7.312635
30
0
11
83.184932
21
7.133244
31
0
39
0
210
0
220
0
230
1
0
LINE
5
5D
100
AcDbEntity
8
1
62
256
6
ByLayer
370
-1
48
1
60
0
100
AcDbLine
10
69.887515
20
-12.41625
30
0
11
71.640951
21
-11.725785
31
0
39
0
210
0
220
0
230
1
0
LINE
5
5E
100
AcDbEntity
8
1
62
256
6
ByLayer
370
-1
48
1
60
0
100
AcDbLine
10
86.269671
20
10.910152
30
0
11
86.398424
21
11.124057
31
0
39
0
210
0
220
0
230
1
0
LINE
5
5F
100
AcDbEntity
8
1
62
256
6
ByLayer
370
-1
48
1
60
0
100
AcDbLine
10
95.578579
20
15.045156
30
0
11
95.594326
21
15.947338
31
0
39
0
210
0
220
0
230
1
0
LINE
5
60
100
AcDbEntity
8
1
62
256
6
ByLayer
370
-1
48
1
60
0
100
AcDbLine
10
68.772052
20
4.681161
30
0
11
69.505802
21
4.681161
31
0
39
0
210
0
220
0
230
1
0
LINE
5
61
100
AcDbEntity
8
1
62
256
6
ByLayer
370
-1
48
1
60
0
100
AcDbLine
10
97.043738
20
15.855813
30
0
11
95.740702
21
15.747773
31
0
39
0
210
0
220
0
230
1
0
LINE
5
62
100
AcDbEntity
8
1
62
256
6
ByLayer
370
-1
48
1
60
0
100
AcDbLine
10
71.771854
20
7.900719
30
0
11
71.771854
21
5.761512
31
0
39
0
210
0
220
0
230
1
0
LINE
5
63
100
AcDbEntity
8
1
62
256
6
ByLayer
370
-1
48
1
60
0
100
AcDbLine
10
0
20
10.00875
30
0
11
0
21
4.87661
31
0
39
0
210
0
220
0
230
1
0
LINE
5
64
100
AcDbEntity
8
1
62
256
6
ByLayer
370
-1
48
1
60
0
100
AcDbLine
10
68.697052
20
-4.87661
30
0
11
68.697052
21
-12.49125
31
0
39
0
210
0
220
0
230
1
0
LINE
5
65
100
AcDbEntity
8
1
62
256
6
ByLayer
370
-1
48
1
60
0
100
AcDbLine
10
95.742996
20
15.879158
30
0
11
95.729899
21
15.128877
31
0
39
0
210
0
220
0
230
1
0
LINE
5
66
100
AcDbEntity
8
1
62
256
6
ByLayer
370
-1
48
1
60
0
100
AcDbLine
10
68.849183
20
10.84338
30
0
11
70.421456
21
12.415654
31
0
39
0
210
0
220
0
230
1
0
LINE
5
67
100
AcDbEntity
8
1
62
256
6
ByLayer
370
-1
48
1
60
0
100
AcDbLine
10
88.53529
20
11.845097
30
0
11
89.139727
21
11.48255
31
0
39
0
210
0
220
0
230
1
0
LINE
5
68
100
AcDbEntity
8
1
62
256
6
ByLayer
370
-1
48
1
60
0
100
AcDbLine
10
86.214618
20
10.810261
30
0
11
86.212325
21
10.678875
31
0
39
0
210
0
220
0
230
1
0
LINE
5
69
100
AcDbEntity
8
1
62
256
6
ByLayer
370
-1
48
1
60
0
100
AcDbLine
10
86.271394
20
11.281718
30
0
11
86.142641
21
11.067812
31
0
39
0
210
0
220
0
230
1
0
LINE
5
6A
100
AcDbEntity
8
1
62
256
6
ByLayer
370
-1
48
1
60
0
100
AcDbLine
10
88.810158
20
-4.964922
30
0
11
99.126117
21
-0.902721
31
0
39
0
210
0
220
0
230
1
0
LINE
5
6B
100
AcDbEntity
8
1
62
256
6
ByLayer
370
-1
48
1
60
0
100
AcDbLine
10
88.810158
20
-4.964922
30
0
11
90.382659
21
-0.802794
31
0
39
0
210
0
220
0
230
1
0
LINE
5
6C
100
AcDbEntity
8
1
62
256
6
ByLayer
370
-1
48
1
60
0
100
AcDbLine
10
68.697052
20
9.487018
30
0
11
68.697052
21
4.87661
31
0
39
0
210
0
220
0
230
1
0
LINE
5
6D
100
AcDbEntity
8
1
62
256
6
ByLayer
370
-1
48
1
60
0
100
AcDbLine
10
86.396131
20
10.992672
30
0
11
86.398424
21
11.124057
31
0
39
0
210
0
220
0
230
1
0
LINE
5
6E
100
AcDbEntity
8
1
62
256
6
ByLayer
370
-1
48
1
60
0
100
AcDbLine
10
0
20
-12.49125
30
0
11
0
21
-4.87661
31
0
39
0
210
0
220
0
230
1
0
LINE
5
6F
100
AcDbEntity
8
1
62
256
6
ByLayer
370
-1
48
1
60
0
100
AcDbLine
10
88.887251
20
-0.143565
30
0
11
86.760794
21
-5.771918
31
0
39
0
210
0
220
0
230
1
0
LINE
5
70
100
AcDbEntity
8
1
62
256
6
ByLayer
370
-1
48
1
60
0
100
AcDbLine
10
88.454422
20
11.504886
30
0
11
88.456715
21
11.636271
31
0
39
0
210
0
220
0
230
1
0
LINE
5
71
100
AcDbEntity
8
1
62
256
6
ByLayer
370
-1
48
1
60
0
100
AcDbLine
10
71.640951
20
1.797849
30
0
11
71.640951
21
-11.725785
31
0
39
0
210
0
220
0
230
1
0
LINE
5
72
100
AcDbEntity
8
1
62
256
6
ByLayer
370
-1
48
1
60
0
100
AcDbLine
10
83.077981
20
-7.22213
30
0
11
86.607999
21
-5.832085
31
0
39
0
210
0
220
0
230
1
0
LINE
5
73
100
AcDbEntity
8
1
62
256
6
ByLayer
370
-1
48
1
60
0
100
AcDbLine
10
0
20
-4.87661
30
0
11
0
21
4.87661
31
0
39
0
210
0
220
0
230
1
0
LINE
5
74
100
AcDbEntity
8
1
62
256
6
ByLayer
370
-1
48
1
60
0
100
AcDbLine
10
83.077981
20
-7.22213
30
0
11
71.771854
21
-11.674238
31
0
39
0
210
0
220
0
230
1
0
LINE
5
75
100
AcDbEntity
8
1
62
256
6
ByLayer
370
-1
48
1
60
0
100
AcDbLine
10
0
20
10.00875
30
0
11
67.896906
21
10.00875
31
0
39
0
210
0
220
0
230
1
0
LINE
5
76
100
AcDbEntity
8
1
62
256
6
ByLayer
370
-1
48
1
60
0
100
AcDbLine
10
98.889093
20
1.594122
30
0
11
99.126117
21
1.451954
31
0
39
0
210
0
220
0
230
1
0
LINE
5
77
100
AcDbEntity
8
1
62
256
6
ByLayer
370
-1
48
1
60
0
100
AcDbLine
10
86.142641
20
11.067812
30
0
11
86.269671
21
10.910152
31
0
39
0
210
0
220
0
230
1
0
LINE
5
78
100
AcDbEntity
8
1
62
256
6
ByLayer
370
-1
48
1
60
0
100
AcDbLine
10
95.742996
20
15.879158
30
0
11
95.594326
21
15.947338
31
0
39
0
210
0
220
0
230
1
0
LINE
5
79
100
AcDbEntity
8
1
62
256
6
ByLayer
370
-1
48
1
60
0
100
AcDbLine
10
68.772052
20
-12.41625
30
0
11
68.772052
21
-4.681161
31
0
39
0
210
0
220
0
230
1
0
LINE
5
7A
100
AcDbEntity
8
1
62
256
6
ByLayer
370
-1
48
1
60
0
100
AcDbLine
10
86.271394
20
11.281718
30
0
11
86.398424
21
11.124057
31
0
39
0
210
0
220
0
230
1
0
LINE
5
7B
100
AcDbEntity
8
1
62
256
6
ByLayer
370
-1
48
1
60
0
100
AcDbLine
10
88.810158
20
-4.964922
30
0
11
86.760794
21
-5.771918
31
0
39
0
210
0
220
0
230
1
0
LINE
5
7C
100
AcDbEntity
8
1
62
256
6
ByLayer
370
-1
48
1
60
0
100
AcDbLine
10
84.392179
20
6.56354
30
0
11
88.601607
21
1.693
31
0
39
0
210
0
220
0
230
1
0
LINE
5
7D
100
AcDbEntity
8
1
62
256
6
ByLayer
370
-1
48
1
60
0
100
AcDbLine
10
88.891403
20
0.094311
30
0
11
86.607999
21
-5.832085
31
0
39
0
210
0
220
0
230
1
0
LINE
5
7E
100
AcDbEntity
8
1
62
256
6
ByLayer
370
-1
48
1
60
0
100
AcDbLine
10
95.594326
20
15.947338
30
0
11
72.874473
21
14.063535
31
0
39
0
210
0
220
0
230
1
0
LINE
5
7F
100
AcDbEntity
8
1
62
256
6
ByLayer
370
-1
48
1
60
0
100
AcDbLine
10
88.802639
20
11.296022
30
0
11
88.454422
21
11.504886
31
0
39
0
210
0
220
0
230
1
0
LINE
5
80
100
AcDbEntity
8
1
62
256
6
ByLayer
370
-1
48
1
60
0
100
AcDbLine
10
83.17825
20
8.35328
30
0
11
75.123494
21
8.35328
31
0
39
0
210
0
220
0
230
1
0
LINE
5
81
100
AcDbEntity
8
1
62
256
6
ByLayer
370
-1
48
1
60
0
100
AcDbLine
10
86.267378
20
10.778766
30
0
11
86.269671
21
10.910152
31
0
39
0
210
0
220
0
230
1
0
LINE
5
82
100
AcDbEntity
8
1
62
256
6
ByLayer
370
-1
48
1
60
0
100
AcDbLine
10
99.126117
20
1.358932
30
0
11
98.687571
21
1.621975
31
0
39
0
210
0
220
0
230
1
0
LINE
5
83
100
AcDbEntity
8
1
62
256
6
ByLayer
370
-1
48
1
60
0
100
AcDbLine
10
69.505802
20
4.681161
30
0
11
69.505802
21
-4.681161
31
0
39
0
210
0
220
0
230
1
0
LINE
5
84
100
AcDbEntity
8
1
62
256
6
ByLayer
370
-1
48
1
60
0
100
AcDbLine
10
68.697052
20
4.87661
30
0
11
0
21
4.87661
31
0
39
0
210
0
220
0
230
1
0
LINE
5
85
100
AcDbEntity
8
1
62
256
6
ByLayer
370
-1
48
1
60
0
100
AcDbLine
10
86.267378
20
10.778766
30
0
11
86.396131
21
10.992672
31
0
39
0
210
0
220
0
230
1
0
LINE
5
86
100
AcDbEntity
8
1
62
256
6
ByLayer
370
-1
48
1
60
0
100
AcDbLine
10
88.917763
20
11.359731
30
0
11
88.456715
21
11.636271
31
0
39
0
210
0
220
0
230
1
0
LINE
5
87
100
AcDbEntity
8
1
62
256
6
ByLayer
370
-1
48
1
60
0
100
AcDbLine
10
69.505802
20
-4.681161
30
0
11
68.772052
21
-4.681161
31
0
39
0
210
0
220
0
230
1
0
LINE
5
88
100
AcDbEntity
8
1
62
256
6
ByLayer
370
-1
48
1
60
0
100
AcDbLine
10
88.891403
20
0.094311
30
0
11
88.887251
21
-0.143565
31
0
39
0
210
0
220
0
230
1
0
LINE
5
89
100
AcDbEntity
8
1
62
256
6
ByLayer
370
-1
48
1
60
0
100
AcDbLine
10
99.126117
20
1.358932
30
0
11
99.126117
21
1.451954
31
0
39
0
210
0
220
0
230
1
0
LINE
5
8A
100
AcDbEntity
8
1
62
256
6
ByLayer
370
-1
48
1
60
0
100
AcDbLine
10
71.771854
20
0.477477
30
0
11
71.771854
21
-11.674238
31
0
39
0
210
0
220
0
230
1
0
LINE
5
8B
100
AcDbEntity
8
1
62
256
6
ByLayer
370
-1
48
1
60
0
100
AcDbLine
10
70.190643
20
9.905797
30
0
11
68.849183
21
10.84338
31
0
39
0
210
0
220
0
230
1
0
LINE
5
8C
100
AcDbEntity
8
1
62
256
6
ByLayer
370
-1
48
1
60
0
100
AcDbLine
10
88.53529
20
11.845097
30
0
11
88.456715
21
11.636271
31
0
39
0
210
0
220
0
230
1
0
LINE
5
8D
100
AcDbEntity
8
1
62
256
6
ByLayer
370
-1
48
1
60
0
100
AcDbLine
10
89.803512
20
2.420124
30
0
11
85.593454
21
7.254558
31
0
39
0
210
0
220
0
230
1
0
LINE
5
8E
100
AcDbEntity
8
1
62
256
6
ByLayer
370
-1
48
1
60
0
100
AcDbLine
10
99.126117
20
-0.902721
30
0
11
99.126117
21
1.358932
31
0
39
0
210
0
220
0
230
1
0
LINE
5
8F
100
AcDbEntity
8
1
62
256
6
ByLayer
370
-1
48
1
60
0
100
AcDbLine
10
68.772052
20
9.431366
30
0
11
68.772052
21
4.681161
31
0
39
0
210
0
220
0
230
1
0
LINE
5
90
100
AcDbEntity
8
1
62
256
6
ByLayer
370
-1
48
1
60
0
100
AcDbLine
10
0
20
-4.87661
30
0
11
68.697052
21
-4.87661
31
0
39
0
210
0
220
0
230
1
0
LINE
5
91
100
AcDbEntity
8
1
62
256
6
ByLayer
370
-1
48
1
60
0
100
AcDbLine
10
68.849183
20
10.84338
30
0
11
68.014552
21
10.00875
31
0
39
0
210
0
220
0
230
1
0
LINE
5
92
100
AcDbEntity
8
1
62
256
6
ByLayer
370
-1
48
1
60
0
100
AcDbLine
10
86.607999
20
-5.832085
30
0
11
86.760794
21
-5.771918
31
0
39
0
210
0
220
0
230
1
0
LINE
5
93
100
AcDbEntity
8
1
62
256
6
ByLayer
370
-1
48
1
60
0
100
AcDbLine
10
71.640951
20
7.932324
30
0
11
71.640951
21
4.465517
31
0
39
0
210
0
220
0
230
1
0
LINE
5
94
100
AcDbEntity
8
1
62
256
6
ByLayer
370
-1
48
1
60
0
100
AcDbLine
10
95.997423
20
8.079933
30
0
11
95.998793
21
8.158425
31
0
39
0
210
0
220
0
230
1
0
LINE
5
95
100
AcDbEntity
8
1
62
256
6
ByLayer
370
-1
48
1
60
0
100
AcDbLine
10
96.511475
20
9.478282
30
0
11
96.512847
21
9.556878
31
0
39
0
210
0
220
0
230
1
0
LINE
5
96
100
AcDbEntity
8
1
62
256
6
ByLayer
370
-1
48
1
60
0
100
AcDbLine
10
95.557419
20
10.613258
30
0
11
95.558791
21
10.691854
31
0
39
0
210
0
220
0
230
1
0
LINE
5
97
100
AcDbEntity
8
1
62
256
6
ByLayer
370
-1
48
1
60
0
100
AcDbLine
10
94.588807
20
10.631515
30
0
11
94.590179
21
10.71011
31
0
39
0
210
0
220
0
230
1
0
LINE
5
98
100
AcDbEntity
8
1
62
256
6
ByLayer
370
-1
48
1
60
0
100
AcDbLine
10
93.593305
20
9.521943
30
0
11
93.594675
21
9.600435
31
0
39
0
210
0
220
0
230
1
0
LINE
5
99
100
AcDbEntity
8
1
62
256
6
ByLayer
370
-1
48
1
60
0
100
AcDbLine
10
94.052695
20
8.113363
30
0
11
94.054067
21
8.191959
31
0
39
0
210
0
220
0
230
1
0
LINE
5
9A
100
AcDbEntity
8
1
62
256
6
ByLayer
370
-1
48
1
60
0
100
AcDbLine
10
93.973258
20
9.834934
30
0
11
93.972055
21
9.766038
31
0
39
0
210
0
220
0
230
1
0
LINE
5
9B
100
AcDbEntity
8
1
62
256
6
ByLayer
370
-1
48
1
60
0
100
AcDbLine
10
94.057776
20
9.90845
30
0
11
94.058978
21
9.977347
31
0
39
0
210
0
220
0
230
1
0
LINE
5
9C
100
AcDbEntity
8
1
62
256
6
ByLayer
370
-1
48
1
60
0
100
AcDbLine
10
98.751033
20
16.800459
30
0
11
86.727598
21
10.147913
31
0
39
0
210
0
220
0
230
1
0
LINE
5
9D
100
AcDbEntity
8
1
62
256
6
ByLayer
370
-1
48
1
60
0
100
AcDbLine
10
99.690377
20
2.372729
30
0
11
99.929872
21
16.093382
31
0
39
0
210
0
220
0
230
1
0
LINE
5
9E
100
AcDbEntity
8
1
62
256
6
ByLayer
370
-1
48
1
60
0
100
AcDbLine
10
86.70364
20
8.775329
30
0
11
98.487579
21
1.707223
31
0
39
0
210
0
220
0
230
1
0
LINE
5
9F
100
AcDbEntity
8
SK1
62
256
6
ByLayer
370
-1
48
1
60
0
100
AcDbLine
10
-199.32
20
10.00875
30
0
11
0
21
10.00875
31
0
39
0
210
0
220
0
230
1
0
LINE
5
A0
100
AcDbEntity
8
SK1
62
256
6
ByLayer
370
-1
48
1
60
0
100
AcDbLine
10
-199.32
20
-4.87661
30
0
11
0
21
-4.87661
31
0
39
0
210
0
220
0
230
1
0
LINE
5
A1
100
AcDbEntity
8
SK1
62
256
6
ByLayer
370
-1
48
1
60
0
100
AcDbLine
10
-199.32
20
4.87661
30
0
11
-199.32
21
10.00875
31
0
39
0
210
0
220
0
230
1
0
LINE
5
A2
100
AcDbEntity
8
SK1
62
256
6
ByLayer
370
-1
48
1
60
0
100
AcDbLine
10
0
20
-12.49125
30
0
11
0
21
-4.87661
31
0
39
0
210
0
220
0
230
1
0
LINE
5
A3
100
AcDbEntity
8
SK1
62
256
6
ByLayer
370
-1
48
1
60
0
100
AcDbLine
10
0
20
10.00875
30
0
11
0
21
4.87661
31
0
39
0
210
0
220
0
230
1
0
LINE
5
A4
100
AcDbEntity
8
SK1
62
256
6
ByLayer
370
-1
48
1
60
0
100
AcDbLine
10
0
20
-4.87661
30
0
11
0
21
4.87661
31
0
39
0
210
0
220
0
230
1
0
LINE
5
A5
100
AcDbEntity
8
SK1
62
256
6
ByLayer
370
-1
48
1
60
0
100
AcDbLine
10
0
20
4.87661
30
0
11
-199.32
21
4.87661
31
0
39
0
210
0
220
0
230
1
0
LINE
5
A6
100
AcDbEntity
8
SK1
62
256
6
ByLayer
370
-1
48
1
60
0
100
AcDbLine
10
-199.32
20
-12.49125
30
0
11
-199.32
21
-4.87661
31
0
39
0
210
0
220
0
230
1
0
LINE
5
A7
100
AcDbEntity
8
SK1
62
256
6
ByLayer
370
-1
48
1
60
0
100
AcDbLine
10
-201.32
20
-10.49125
30
0
11
-201.32
21
10.00875
31
0
39
0
210
0
220
0
230
1
0
LINE
5
A8
100
AcDbEntity
8
2
62
256
6
ByLayer
370
-1
48
1
60
1
100
AcDbLine
10
99.93
20
0
30
0
11
99.931
21
0.001
31
0
39
0
210
0
220
0
230
1
0
MTEXT
5
10B
100
AcDbEntity
8
SK6
62
256
6
ByLayer
370
-1
48
1
60
0
100
AcDbMText
10
-47.32
20
-25.710464
30
0
210
0
220
0
230
1
1
\W00.790;\fsimplex.shx,bigfont.shx;A25T-STFCR 16HP 
40
3.5
41
0
44
1.084337
50
0
71
7
72
5
7
DEFAULT
0
DIMENSION
5
13E
100
AcDbEntity
8
2
62
256
6
ByLayer
370
-3
48
1
60
0
100
AcDbDimension
2
DimnDraft3D1
10
112.18
20
0
30
0
11
112.18
21
3.849342
31
0
70
32
71
5
72
1
41
1
210
0
220
0
230
1
3
Standard
100
AcDbAlignedDimension
13
101.93
23
16.9
33
0
14
101.93
24
0
34
0
50
90
100
AcDbRotatedDimension
1001
ACAD
1000
DSTYLE
1002
{
1070
    74
1070
     0
1070
   279
1070
     0
1070
   172
1070
     1
1070
   173
1070
     1
1070
   340
1005
10C
1070
    77
1070
     1
1070
    73
1070
     0
1070
   171
1070
     4
1070
   274
1070
     4
1070
   177
1070
     2
1070
   176
1070
     2
1070
   178
1070
     7
1070
    78
1070
     8
1070
    41
1041
3.175
1070
   147
1041
2.25
1070
    42
1041
2.0
1070
    44
1041
2.0
1070
   140
1041
4.5
1070
   343
1005
13F
1070
   344
1005
13F
1002
}
0
DIMENSION
5
154
100
AcDbEntity
8
SK2
62
256
6
ByLayer
370
-3
48
1
60
0
100
AcDbDimension
2
DimnDraft3D2
10
-211.07
20
12.49125
30
0
11
-211.07
21
-4.784211
31
0
70
32
71
5
72
1
41
1
210
0
220
0
230
1
3
Standard
100
AcDbAlignedDimension
13
-203.32
23
-12.49125
33
0
14
-203.32
24
12.49125
34
0
50
90
100
AcDbRotatedDimension
1001
ACAD
1000
DSTYLE
1002
{
1070
    74
1070
     0
1070
   279
1070
     0
1070
   172
1070
     1
1070
   173
1070
     1
1070
   340
1005
10C
1070
    77
1070
     1
1070
    73
1070
     0
1070
   171
1070
     4
1070
   274
1070
     4
1070
   177
1070
     2
1070
   176
1070
     2
1070
   178
1070
     7
1070
    78
1070
     8
1070
    41
1041
3.175
1070
   147
1041
2.25
1070
    42
1041
2.0
1070
    44
1041
2.0
1070
   140
1041
4.5
1070
   343
1005
13F
1070
   344
1005
13F
1002
}
0
DIMENSION
5
162
100
AcDbEntity
8
SK2
62
256
6
ByLayer
370
-3
48
1
60
0
100
AcDbDimension
2
DimnDraft3D3
10
-201.32
20
29.65
30
0
11
-57.510132
21
29.65
31
0
70
32
71
5
72
1
41
1
210
0
220
0
230
1
3
Standard
100
AcDbAlignedDimension
13
99.93
23
18.9
33
0
14
-201.32
24
14.49125
34
0
50
0
100
AcDbRotatedDimension
1001
ACAD
1000
DSTYLE
1002
{
1070
   279
1070
     0
1070
   172
1070
     1
1070
   173
1070
     1
1070
   340
1005
10C
1070
    77
1070
     1
1070
    73
1070
     0
1070
   171
1070
     4
1070
   274
1070
     4
1070
   177
1070
     2
1070
   176
1070
     2
1070
   178
1070
     7
1070
    78
1070
     8
1070
    41
1041
3.175
1070
   147
1041
2.25
1070
    42
1041
2.0
1070
    44
1041
2.0
1070
   140
1041
4.5
1070
   343
1005
13F
1070
   344
1005
13F
1002
}
0
DIMENSION
5
170
100
AcDbEntity
8
2
62
256
6
ByLayer
370
-3
48
1
60
0
100
AcDbDimension
2
DimnDraft3D4
10
148.561416
20
0
30
0
11
126.806164
21
-35.936736
31
0
70
34
71
5
72
1
41
1
210
0
220
0
230
1
3
Standard
100
AcDb2LineAngularDimension
13
99.615857
23
-1.097259
33
0
14
98.781126
24
-48.918955
34
0
15
101.93
25
0
35
0
16
129.372071
26
-30.260654
36
0
40
0
0
ENDSEC
0
SECTION
2
OBJECTS
0
DICTIONARY
5
1a1
330
0
100
AcDbDictionary
280
0
281
1
3
ACAD_GROUP
350
1a2
3
ACAD_MLINESTYLE
350
1a3
0
DICTIONARY
5
1a2
330
0
100
AcDbDictionary
280
0
281
1
0
DICTIONARY
5
1a3
330
0
100
AcDbDictionary
280
0
281
1
3
Standard
350
18
0
MLINESTYLE
5
18
330
1a3
100
AcDbMlineStyle
2
Standard
70
0
3

62
256
51
90
52
90
71
2
49
-0.5
62
256
6
ByLayer
49
0.5
62
256
6
ByLayer
0
RASTERVARIABLES
5
18f
330

100
AcDbRasterVariables
90
0
70
1
71
1
72
1
0
ENDSEC
0
EOF
