0
SECTION
2
HEADER
9
$ACADVER
1
AC1015
9
$DWGCODEPAGE
3
ANSI_1252
9
$HANDSEED
5
187
9
$ANGBASE
50
0
9
$ANGDIR
70
0
9
$ATTMODE
70
1
9
$AUNITS
70
0
9
$AUPREC
70
0
9
$CECOLOR
62
256
9
$CELTSCALE
40
1
9
$CELTYPE
6
ByLayer
9
$CELWEIGHT
370
-1
9
$CLAYER
8
0
9
$CMLJUST
70
0
9
$CMLSCALE
40
1
9
$CMLSTYLE
2
Standard
9
$DIMSTYLE
2
Standard
9
$TEXTSIZE
40
0.2
9
$TEXTSTYLE
7
Standard
9
$LUNITS
70
2
9
$LUPREC
70
4
9
$EXTNAMES
290
1
9
$INSUNITS
70
4
9
$LTSCALE
40
1
9
$LWDISPLAY
290
0
9
$PDMODE
70
0
9
$PDSIZE
40
0
9
$PLINEGEN
70
0
0
ENDSEC
0
SECTION
2
CLASSES
0
CLASS
1
RASTERVARIABLES
2
AcDbRasterVariables
3
ISM
90
0
280
0
281
0
0
ENDSEC
0
SECTION
2
TABLES
0
TABLE
2
VPORT
5
17d
100
AcDbSymbolTable
0
VPORT
5
1
100
AcDbSymbolTableRecord
100
AcDbViewportTableRecord
2
*Active
70
0
10
0
20
0
11
1
21
1
12
-1
22
1
13
0
23
0
14
0.5
24
0.5
15
10
25
10
16
0
26
0
36
1
17
0
27
0
37
0
0
ENDTAB
0
TABLE
2
LTYPE
5
17e
100
AcDbSymbolTable
0
LTYPE
5
14
100
AcDbSymbolTableRecord
100
AcDbLinetypeTableRecord
70
0
2
ByBlock
3

72
65
73
0
40
0
0
LTYPE
5
15
100
AcDbSymbolTableRecord
100
AcDbLinetypeTableRecord
70
0
2
ByLayer
3

72
65
73
0
40
0
0
LTYPE
5
16
100
AcDbSymbolTableRecord
100
AcDbLinetypeTableRecord
70
0
2
CONTINUOUS
3
Solid line
72
65
73
0
40
0
0
LTYPE
5
3B
100
AcDbSymbolTableRecord
100
AcDbLinetypeTableRecord
70
0
2
DASHED
3
__ __ __ __ __ __ __ __ __
72
65
73
2
40
25.72
49
12.86
74
0
49
-12.86
74
0
0
LTYPE
5
3C
100
AcDbSymbolTableRecord
100
AcDbLinetypeTableRecord
70
0
2
HIDDEN
3
_ _ _ _ _ _ _ _ _ _ _ _ _ _ _
72
65
73
2
40
0.5
49
0.25
74
0
49
-0.25
74
0
0
LTYPE
5
3D
100
AcDbSymbolTableRecord
100
AcDbLinetypeTableRecord
70
0
2
PHANTOM
3
____ _ _ ____ _ _ _____ _ _ ____
72
65
73
6
40
50.5
49
18
74
0
49
-6.5
74
0
49
6.5
74
0
49
-6.5
74
0
49
6.5
74
0
49
-6.5
74
0
0
LTYPE
5
3E
100
AcDbSymbolTableRecord
100
AcDbLinetypeTableRecord
70
0
2
CENTER
3
____ _ ____ _ ____ _ ____
72
65
73
4
40
47.5
49
22
74
0
49
-8.5
74
0
49
8.5
74
0
49
-8.5
74
0
0
LTYPE
5
3F
100
AcDbSymbolTableRecord
100
AcDbLinetypeTableRecord
70
0
2
DOT
3
.........................
72
65
73
2
40
10
49
0
74
0
49
-10
74
0
0
LTYPE
5
40
100
AcDbSymbolTableRecord
100
AcDbLinetypeTableRecord
70
0
2
DASHDOT
3
_._._._._._._._._._._._._._._._.
72
65
73
4
40
70
49
31
74
0
49
-13
74
0
49
13
74
0
49
-13
74
0
0
ENDTAB
0
TABLE
2
LAYER
5
17f
100
AcDbSymbolTable
0
LAYER
5
10
100
AcDbSymbolTableRecord
100
AcDbLayerTableRecord
2
0
70
0
62
7
6
CONTINUOUS
290
1
370
-3
390
0
0
LAYER
5
42
100
AcDbSymbolTableRecord
100
AcDbLayerTableRecord
2
80
70
0
62
-6
6
CONTINUOUS
290
1
370
-3
390
0
0
LAYER
5
44
100
AcDbSymbolTableRecord
100
AcDbLayerTableRecord
2
81
70
0
62
-3
6
CONTINUOUS
290
1
370
-3
390
0
0
LAYER
5
46
100
AcDbSymbolTableRecord
100
AcDbLayerTableRecord
2
1
70
0
62
4
6
CONTINUOUS
290
1
370
-3
390
0
0
LAYER
5
48
100
AcDbSymbolTableRecord
100
AcDbLayerTableRecord
2
2
70
0
62
7
6
CONTINUOUS
290
1
370
-3
390
0
0
LAYER
5
4E
100
AcDbSymbolTableRecord
100
AcDbLayerTableRecord
2
4
70
0
62
-2
6
CENTER
290
1
370
-3
390
0
0
LAYER
5
169
100
AcDbSymbolTableRecord
100
AcDbLayerTableRecord
2
SK4
70
0
62
2
6
CENTER
290
1
370
-3
390
0
0
LAYER
5
16a
100
AcDbSymbolTableRecord
100
AcDbLayerTableRecord
2
SK1
70
0
62
4
6
CONTINUOUS
290
1
370
-3
390
0
0
LAYER
5
16b
100
AcDbSymbolTableRecord
100
AcDbLayerTableRecord
2
SK6
70
0
62
5
6
CONTINUOUS
290
1
370
-3
390
0
0
LAYER
5
16c
100
AcDbSymbolTableRecord
100
AcDbLayerTableRecord
2
SK2
70
0
62
7
6
CONTINUOUS
290
1
370
-3
390
0
0
ENDTAB
0
TABLE
2
STYLE
5
180
100
AcDbSymbolTable
0
STYLE
5
11
100
AcDbSymbolTableRecord
100
AcDbTextStyleTableRecord
2
Standard
3
txt
70
0
71
0
40
0
41
1
42
0
50
0
0
STYLE
5
E5
100
AcDbSymbolTableRecord
100
AcDbTextStyleTableRecord
2
DEFAULT
3
simplex.shx
70
0
71
0
40
0
41
1
42
0
50
0
0
STYLE
5
108
100
AcDbSymbolTableRecord
100
AcDbTextStyleTableRecord
2
DWGDirectTextStyle
3
SIMPLEX
70
0
71
0
40
0
41
1
42
0
50
0
0
ENDTAB
0
TABLE
2
DIMSTYLE
5
181
100
AcDbSymbolTable
100
AcDbDimStyleTable
0
DIMSTYLE
105
27
100
AcDbSymbolTableRecord
100
AcDbDimStyleTableRecord
2
Standard
70
0
3
<>
41
0.18
42
0.0625
44
0.18
140
0.18
147
0.09
73
0
74
0
77
1
271
2
275
0
278
52
280
0
340
11
0
ENDTAB
0
TABLE
2
VIEW
5
182
100
AcDbSymbolTable
0
ENDTAB
0
TABLE
2
UCS
5
183
100
AcDbSymbolTable
0
ENDTAB
0
TABLE
2
APPID
5
184
100
AcDbSymbolTable
0
APPID
5
12
100
AcDbSymbolTableRecord
100
AcDbRegAppTableRecord
2
ACAD
70
0
0
ENDTAB
0
TABLE
2
BLOCK_RECORD
5
185
100
AcDbSymbolTable
0
BLOCK_RECORD
5
1F
100
AcDbSymbolTableRecord
100
AcDbBlockTableRecord
2
*Model_Space
340
0
70
0
0
BLOCK_RECORD
5
1B
100
AcDbSymbolTableRecord
100
AcDbBlockTableRecord
2
*Paper_Space
340
0
70
0
0
BLOCK_RECORD
5
23
100
AcDbSymbolTableRecord
100
AcDbBlockTableRecord
2
*Paper_Space0
340
0
70
0
0
BLOCK_RECORD
5
10A
100
AcDbSymbolTableRecord
100
AcDbBlockTableRecord
2
DimnDraft3D1
340
0
70
0
0
BLOCK_RECORD
5
118
100
AcDbSymbolTableRecord
100
AcDbBlockTableRecord
2
_CLOSED
340
0
70
0
0
BLOCK_RECORD
5
11F
100
AcDbSymbolTableRecord
100
AcDbBlockTableRecord
2
DimnDraft3D2
340
0
70
0
0
BLOCK_RECORD
5
12E
100
AcDbSymbolTableRecord
100
AcDbBlockTableRecord
2
DimnDraft3D3
340
0
70
0
0
BLOCK_RECORD
5
13C
100
AcDbSymbolTableRecord
100
AcDbBlockTableRecord
2
DimnDraft3D4
340
0
70
0
0
ENDTAB
0
ENDSEC
0
SECTION
2
BLOCKS
0
BLOCK
5
20
100
AcDbEntity
8
0
100
AcDbBlockBegin
2
*Model_Space
70
0
10
0
20
0
30
0
3
*Model_Space
0
ENDBLK
5
21
100
AcDbEntity
8
0
100
AcDbBlockEnd
0
BLOCK
5
1C
100
AcDbEntity
8
0
100
AcDbBlockBegin
2
*Paper_Space
70
0
10
0
20
0
30
0
3
*Paper_Space
0
ENDBLK
5
1D
100
AcDbEntity
8
0
100
AcDbBlockEnd
0
BLOCK
5
24
100
AcDbEntity
8
0
100
AcDbBlockBegin
2
*Paper_Space0
70
0
10
0
20
0
30
0
3
*Paper_Space0
0
ENDBLK
5
25
100
AcDbEntity
8
0
100
AcDbBlockEnd
0
BLOCK
5
115
100
AcDbEntity
8
0
100
AcDbBlockBegin
2
DimnDraft3D1
70
0
10
0
20
0
30
0
3
DimnDraft3D1
0
MTEXT
5
10B
100
AcDbEntity
8
2
62
256
6
ByLayer
370
-1
48
1
60
0
100
AcDbMText
10
111.055
20
-11.925658
30
0
210
0
220
0
230
1
1
\W01.000;\fsimplex.shx,bigfont.shx;17.0 
40
4.5
41
0
44
1.084337
50
90
71
7
72
5
7
DEFAULT
0
LINE
5
10C
100
AcDbEntity
8
2
62
256
6
ByLayer
370
-1
48
1
60
0
100
AcDbLine
10
101.93
20
-16.9
30
0
11
114.18
21
-16.9
31
0
39
0
210
0
220
0
230
1
0
LINE
5
10D
100
AcDbEntity
8
2
62
256
6
ByLayer
370
-1
48
1
60
0
100
AcDbLine
10
101.93
20
0
30
0
11
114.18
21
0
31
0
39
0
210
0
220
0
230
1
0
LINE
5
10E
100
AcDbEntity
8
2
62
256
6
ByLayer
370
-1
48
1
60
0
100
AcDbLine
10
112.18
20
-28.15
30
0
11
112.18
21
11.25
31
0
39
0
210
0
220
0
230
1
0
LINE
5
10F
100
AcDbEntity
8
2
62
256
6
ByLayer
370
-1
48
1
60
0
100
AcDbLine
10
112.18
20
-16.9
30
0
11
112.597997
21
-20.074998
31
0
39
0
210
0
220
0
230
1
0
LINE
5
110
100
AcDbEntity
8
2
62
256
6
ByLayer
370
-1
48
1
60
0
100
AcDbLine
10
112.18
20
-16.9
30
0
11
111.762003
21
-20.075002
31
0
39
0
210
0
220
0
230
1
0
LINE
5
111
100
AcDbEntity
8
2
62
256
6
ByLayer
370
-1
48
1
60
0
100
AcDbLine
10
112.597997
20
-20.074998
30
0
11
111.762003
21
-20.075002
31
0
39
0
210
0
220
0
230
1
0
LINE
5
112
100
AcDbEntity
8
2
62
256
6
ByLayer
370
-1
48
1
60
0
100
AcDbLine
10
112.18
20
0
30
0
11
111.762003
21
3.174998
31
0
39
0
210
0
220
0
230
1
0
LINE
5
113
100
AcDbEntity
8
2
62
256
6
ByLayer
370
-1
48
1
60
0
100
AcDbLine
10
112.18
20
0
30
0
11
112.597997
21
3.175002
31
0
39
0
210
0
220
0
230
1
0
LINE
5
114
100
AcDbEntity
8
2
62
256
6
ByLayer
370
-1
48
1
60
0
100
AcDbLine
10
111.762003
20
3.174998
30
0
11
112.597997
21
3.175002
31
0
39
0
210
0
220
0
230
1
0
ENDBLK
5
116
100
AcDbEntity
8
0
100
AcDbBlockEnd
0
BLOCK
5
119
100
AcDbEntity
8
0
100
AcDbBlockBegin
2
_CLOSED
70
0
10
0
20
0
30
0
3
_CLOSED
0
LINE
5
11B
100
AcDbEntity
8
0
62
256
6
ByLayer
370
-2
48
1
60
0
100
AcDbLine
10
-1
20
0.166667
30
0
11
0
21
0
31
0
39
0
210
0
220
0
230
1
0
LINE
5
11C
100
AcDbEntity
8
0
62
256
6
ByLayer
370
-2
48
1
60
0
100
AcDbLine
10
0
20
0
30
0
11
-1
21
-0.166667
31
0
39
0
210
0
220
0
230
1
0
LINE
5
11D
100
AcDbEntity
8
0
62
256
6
ByLayer
370
-2
48
1
60
0
100
AcDbLine
10
-1
20
0.166667
30
0
11
-1
21
-0.166667
31
0
39
0
210
0
220
0
230
1
0
LINE
5
11E
100
AcDbEntity
8
0
62
256
6
ByLayer
370
-2
48
1
60
0
100
AcDbLine
10
0
20
0
30
0
11
-1
21
0
31
0
39
0
210
0
220
0
230
1
0
ENDBLK
5
11A
100
AcDbEntity
8
0
100
AcDbBlockEnd
0
BLOCK
5
12B
100
AcDbEntity
8
0
100
AcDbBlockBegin
2
DimnDraft3D2
70
0
10
0
20
0
30
0
3
DimnDraft3D2
0
MTEXT
5
120
100
AcDbEntity
8
SK2
62
256
6
ByLayer
370
-1
48
1
60
0
100
AcDbMText
10
-212.195
20
-3.659211
30
0
210
0
220
0
230
1
1
\W01.000;\fsimplex.shx,bigfont.shx;%%c25 
40
4.5
41
0
44
1.084337
50
90
71
7
72
5
7
DEFAULT
0
LINE
5
122
100
AcDbEntity
8
SK2
62
256
6
ByLayer
370
-1
48
1
60
0
100
AcDbLine
10
-203.32
20
-12.49125
30
0
11
-213.07
21
-12.49125
31
0
39
0
210
0
220
0
230
1
0
LINE
5
123
100
AcDbEntity
8
SK2
62
256
6
ByLayer
370
-1
48
1
60
0
100
AcDbLine
10
-203.32
20
12.49125
30
0
11
-213.07
21
12.49125
31
0
39
0
210
0
220
0
230
1
0
LINE
5
124
100
AcDbEntity
8
SK2
62
256
6
ByLayer
370
-1
48
1
60
0
100
AcDbLine
10
-211.07
20
-12.49125
30
0
11
-211.07
21
12.49125
31
0
39
0
210
0
220
0
230
1
0
LINE
5
125
100
AcDbEntity
8
SK2
62
256
6
ByLayer
370
-1
48
1
60
0
100
AcDbLine
10
-211.07
20
-12.49125
30
0
11
-211.487997
21
-9.316252
31
0
39
0
210
0
220
0
230
1
0
LINE
5
126
100
AcDbEntity
8
SK2
62
256
6
ByLayer
370
-1
48
1
60
0
100
AcDbLine
10
-211.07
20
-12.49125
30
0
11
-210.652003
21
-9.316248
31
0
39
0
210
0
220
0
230
1
0
LINE
5
127
100
AcDbEntity
8
SK2
62
256
6
ByLayer
370
-1
48
1
60
0
100
AcDbLine
10
-211.487997
20
-9.316252
30
0
11
-210.652003
21
-9.316248
31
0
39
0
210
0
220
0
230
1
0
LINE
5
128
100
AcDbEntity
8
SK2
62
256
6
ByLayer
370
-1
48
1
60
0
100
AcDbLine
10
-211.07
20
12.49125
30
0
11
-210.652003
21
9.316252
31
0
39
0
210
0
220
0
230
1
0
LINE
5
129
100
AcDbEntity
8
SK2
62
256
6
ByLayer
370
-1
48
1
60
0
100
AcDbLine
10
-211.07
20
12.49125
30
0
11
-211.487997
21
9.316248
31
0
39
0
210
0
220
0
230
1
0
LINE
5
12A
100
AcDbEntity
8
SK2
62
256
6
ByLayer
370
-1
48
1
60
0
100
AcDbLine
10
-210.652003
20
9.316252
30
0
11
-211.487997
21
9.316248
31
0
39
0
210
0
220
0
230
1
0
ENDBLK
5
12C
100
AcDbEntity
8
0
100
AcDbBlockEnd
0
BLOCK
5
139
100
AcDbEntity
8
0
100
AcDbBlockBegin
2
DimnDraft3D3
70
0
10
0
20
0
30
0
3
DimnDraft3D3
0
MTEXT
5
12F
100
AcDbEntity
8
SK2
62
256
6
ByLayer
370
-1
48
1
60
0
100
AcDbMText
10
-56.385132
20
-33.025
30
0
210
0
220
0
230
1
1
\W01.000;\fsimplex.shx,bigfont.shx;300.0 
40
4.5
41
0
44
1.084337
50
0
71
7
72
5
7
DEFAULT
0
LINE
5
130
100
AcDbEntity
8
SK2
62
256
6
ByLayer
370
-1
48
1
60
0
100
AcDbLine
10
-201.32
20
-14.49125
30
0
11
-201.32
21
-36.15
31
0
39
0
210
0
220
0
230
1
0
LINE
5
131
100
AcDbEntity
8
SK2
62
256
6
ByLayer
370
-1
48
1
60
0
100
AcDbLine
10
99.93
20
-18.9
30
0
11
99.93
21
-36.15
31
0
39
0
210
0
220
0
230
1
0
LINE
5
132
100
AcDbEntity
8
SK2
62
256
6
ByLayer
370
-1
48
1
60
0
100
AcDbLine
10
-201.32
20
-34.15
30
0
11
99.93
21
-34.15
31
0
39
0
210
0
220
0
230
1
0
LINE
5
133
100
AcDbEntity
8
SK2
62
256
6
ByLayer
370
-1
48
1
60
0
100
AcDbLine
10
-201.32
20
-34.15
30
0
11
-198.145002
21
-33.732003
31
0
39
0
210
0
220
0
230
1
0
LINE
5
134
100
AcDbEntity
8
SK2
62
256
6
ByLayer
370
-1
48
1
60
0
100
AcDbLine
10
-201.32
20
-34.15
30
0
11
-198.144998
21
-34.567997
31
0
39
0
210
0
220
0
230
1
0
LINE
5
135
100
AcDbEntity
8
SK2
62
256
6
ByLayer
370
-1
48
1
60
0
100
AcDbLine
10
-198.145002
20
-33.732003
30
0
11
-198.144998
21
-34.567997
31
0
39
0
210
0
220
0
230
1
0
LINE
5
136
100
AcDbEntity
8
SK2
62
256
6
ByLayer
370
-1
48
1
60
0
100
AcDbLine
10
99.93
20
-34.15
30
0
11
96.755002
21
-34.567997
31
0
39
0
210
0
220
0
230
1
0
LINE
5
137
100
AcDbEntity
8
SK2
62
256
6
ByLayer
370
-1
48
1
60
0
100
AcDbLine
10
99.93
20
-34.15
30
0
11
96.754998
21
-33.732003
31
0
39
0
210
0
220
0
230
1
0
LINE
5
138
100
AcDbEntity
8
SK2
62
256
6
ByLayer
370
-1
48
1
60
0
100
AcDbLine
10
96.755002
20
-34.567997
30
0
11
96.754998
21
-33.732003
31
0
39
0
210
0
220
0
230
1
0
ENDBLK
5
13A
100
AcDbEntity
8
0
100
AcDbBlockEnd
0
BLOCK
5
147
100
AcDbEntity
8
0
100
AcDbBlockBegin
2
DimnDraft3D4
70
0
10
0
20
0
30
0
3
DimnDraft3D4
0
MTEXT
5
13D
100
AcDbEntity
8
2
62
256
6
ByLayer
370
-1
48
1
60
0
100
AcDbMText
10
123.665956
20
31.136179
30
0
210
0
220
0
230
1
1
\W01.000;\fsimplex.shx,bigfont.shx;91%%d0' 
40
4.5
41
0
44
1.084337
50
315.5
71
7
72
5
7
DEFAULT
0
LINE
5
13E
100
AcDbEntity
8
2
62
256
6
ByLayer
370
-1
48
1
60
0
100
AcDbLine
10
99.615857
20
1.097259
30
0
11
98.938198
21
39.920326
31
0
39
0
210
0
220
0
230
1
0
LINE
5
13F
100
AcDbEntity
8
2
62
256
6
ByLayer
370
-1
48
1
60
0
100
AcDbLine
10
101.93
20
0
30
0
11
139.561416
21
0
31
0
39
0
210
0
220
0
230
1
0
ARC
5
140
100
AcDbEntity
8
2
62
256
6
ByLayer
370
-1
48
1
60
0
100
AcDbCircle
39
0
10
99.635009
20
0
30
0
40
37.9264068640928
210
0
220
0
230
1
100
AcDbArc
50
0
51
91
0
LINE
5
141
100
AcDbEntity
8
2
62
256
6
ByLayer
370
-1
48
1
60
0
100
AcDbLine
10
98.973102
20
37.92063
30
0
11
102.149529
21
38.327629
31
0
39
0
210
0
220
0
230
1
0
LINE
5
142
100
AcDbEntity
8
2
62
256
6
ByLayer
370
-1
48
1
60
0
100
AcDbLine
10
98.973102
20
37.92063
30
0
11
102.146637
21
37.491641
31
0
39
0
210
0
220
0
230
1
0
LINE
5
143
100
AcDbEntity
8
2
62
256
6
ByLayer
370
-1
48
1
60
0
100
AcDbLine
10
102.149529
20
38.327629
30
0
11
102.146637
21
37.491641
31
0
39
0
210
0
220
0
230
1
0
LINE
5
144
100
AcDbEntity
8
2
62
256
6
ByLayer
370
-1
48
1
60
0
100
AcDbLine
10
137.561416
20
0
30
0
11
137.077106
21
3.165562
31
0
39
0
210
0
220
0
230
1
0
LINE
5
145
100
AcDbEntity
8
2
62
256
6
ByLayer
370
-1
48
1
60
0
100
AcDbLine
10
137.561416
20
0
30
0
11
137.912916
21
3.183049
31
0
39
0
210
0
220
0
230
1
0
LINE
5
146
100
AcDbEntity
8
2
62
256
6
ByLayer
370
-1
48
1
60
0
100
AcDbLine
10
137.077106
20
3.165562
30
0
11
137.912916
21
3.183049
31
0
39
0
210
0
220
0
230
1
0
ENDBLK
5
148
100
AcDbEntity
8
0
100
AcDbBlockEnd
0
ENDSEC
0
SECTION
2
ENTITIES
0
ELLIPSE
5
93
100
AcDbEntity
8
1
62
256
6
ByLayer
370
-1
48
1
60
0
100
AcDbEllipse
10
87.684198
20
-10.352839
30
0
11
-1.49977154273459
21
-0.0261786096559195
31
0
210
0
220
0
230
1
40
0.998215
41
0.523598775598334
42
2.09439510239321
0
ELLIPSE
5
94
100
AcDbEntity
8
1
62
256
6
ByLayer
370
-1
48
1
60
0
100
AcDbEllipse
10
95.398337
20
-0.014353
30
0
11
0.177505347461531
21
-16.1959803052264
31
0
210
0
220
0
230
-1
40
0.110787
41
-0.0962378512802778
42
-0.0128466361952193
0
ELLIPSE
5
95
100
AcDbEntity
8
1
62
256
6
ByLayer
370
-1
48
1
60
0
100
AcDbEllipse
10
87.557489
20
-10.237546
30
0
11
1.6495962288309
21
0.0287938092795103
31
0
210
0
220
0
230
1
40
0.998215
41
-2.71586023913422
42
-2.61803970333121
0
ELLIPSE
5
96
100
AcDbEntity
8
1
62
256
6
ByLayer
370
-1
48
1
60
0
100
AcDbEllipse
10
85.799909
20
-9.470405
30
0
11
-1.49977154273459
21
-0.0261786096559195
31
0
210
0
220
0
230
1
40
0.998215
41
-2.53086713423786
42
1.73238736940149
0
ELLIPSE
5
97
100
AcDbEntity
8
1
62
256
6
ByLayer
370
-1
48
1
60
0
100
AcDbEllipse
10
85.794943
20
-9.201698
30
0
11
1.49977154273459
21
0.0261786096558563
31
0
210
0
220
0
230
1
40
0.998215
41
-3.05766239653042
42
-0.777553605820883
0
ELLIPSE
5
98
100
AcDbEntity
8
1
62
256
6
ByLayer
370
-1
48
1
60
0
100
AcDbEllipse
10
87.686255
20
-10.45146
30
0
11
1.6495962288309
21
0.0287938092795103
31
0
210
0
220
0
230
1
40
0.998215
41
-2.61803970333133
42
-1.04721409243277
0
ELLIPSE
5
99
100
AcDbEntity
8
1
62
256
6
ByLayer
370
-1
48
1
60
0
100
AcDbEllipse
10
35.972509
20
-188.771865
30
0
11
99.7723423242056
21
371.697257331419
31
0
210
3.20474742746036E-31
220
1.38875090641594E-16
230
1
40
0.057416
41
1.03827567321054
42
1.06873357521306
0
ELLIPSE
5
9A
100
AcDbEntity
8
1
62
256
6
ByLayer
370
-1
48
1
60
0
100
AcDbEllipse
10
87.555446
20
-10.138934
30
0
11
-1.49977154273459
21
-0.0261786096559195
31
0
210
0
220
0
230
1
40
0.998215
41
0.44743597312701
42
0.523598775598334
0
ELLIPSE
5
9B
100
AcDbEntity
8
1
62
256
6
ByLayer
370
-1
48
1
60
0
100
AcDbEllipse
10
85.79562
20
-9.240516
30
0
11
-1.49977154273459
21
-0.0261786096559195
31
0
210
0
220
0
230
1
40
0.998215
41
1.83488092701652
42
2.38713854709767
0
ELLIPSE
5
9C
100
AcDbEntity
8
1
62
256
6
ByLayer
370
-1
48
1
60
0
100
AcDbEllipse
10
87.681905
20
-10.221454
30
0
11
-1.49977154273459
21
-0.0261786096559195
31
0
210
0
220
0
230
1
40
0.998215
41
0.523598775598299
42
2.09439510239323
0
ELLIPSE
5
9D
100
AcDbEntity
8
1
62
256
6
ByLayer
370
-1
48
1
60
0
100
AcDbEllipse
10
87.553152
20
-10.007548
30
0
11
-1.49977154273459
21
-0.0261786096559195
31
0
210
0
220
0
230
1
40
0.998215
41
0.447435973127011
42
0.523598775598299
0
ELLIPSE
5
9E
100
AcDbEntity
8
1
62
256
6
ByLayer
370
-1
48
1
60
0
100
AcDbEllipse
10
87.113147
20
-9.472648
30
0
11
0.793879069954097
21
0.0138572107111652
31
0
210
0
220
0
230
1
40
0.998215
41
2.09437856115693
42
-2.09440976290205
0
ELLIPSE
5
9F
100
AcDbEntity
8
1
62
256
6
ByLayer
370
-1
48
1
60
0
100
AcDbEllipse
10
95.047953
20
-9.278876
30
0
11
3.00559423705108
21
0.052462842555465
31
0
210
0
220
0
230
1
40
0.998215
41
0
42
6.28318530717959
0
ELLIPSE
5
A0
100
AcDbEntity
8
1
62
256
6
ByLayer
370
-1
48
1
60
0
100
AcDbEllipse
10
99.136996
20
-16.125944
30
0
11
0.793879069954048
21
0.0138572107111644
31
0
210
0
220
0
230
1
40
0.998215
41
-2.094409762902
42
-6.23469093858105E-05
0
ELLIPSE
5
A1
100
AcDbEntity
8
1
62
256
6
ByLayer
370
-1
48
1
60
0
100
AcDbEllipse
10
95.047792
20
-9.269679
30
0
11
-2.95004630732266
21
-0.0514932498355541
31
0
210
0
220
0
230
1
40
0.998215
41
0
42
6.28318530717959
0
ELLIPSE
5
A2
100
AcDbEntity
8
1
62
256
6
ByLayer
370
-1
48
1
60
0
100
AcDbEllipse
10
98.896647
20
-2.405276
30
0
11
0.793879069954097
21
0.0138572107111652
31
0
210
0
220
0
230
1
40
0.998215
41
0
42
2.09437856115701
0
ELLIPSE
5
A3
100
AcDbEntity
8
1
62
256
6
ByLayer
370
-1
48
1
60
0
100
AcDbEllipse
10
95.04893
20
-9.334623
30
0
11
3.07085757045556
21
0.053602018277469
31
0
210
0
220
0
230
1
40
0.998215
41
0
42
6.28318530717959
0
ELLIPSE
5
A4
100
AcDbEntity
8
1
62
256
6
ByLayer
370
-1
48
1
60
0
100
AcDbEllipse
10
95.047217
20
-9.236855
30
0
11
1.2063162442062
21
0.0210563283665273
31
0
210
0
220
0
230
1
40
0.998215
41
-1.56940107503498
42
-0.525041679963735
0
ELLIPSE
5
A5
100
AcDbEntity
8
1
62
256
6
ByLayer
370
-1
48
1
60
0
100
AcDbEllipse
10
95.759676
20
-10.403013
30
0
11
-0.291955526985666
21
-0.00509610267968565
31
0
210
0
220
0
230
1
40
0.998215
41
0.788200957014761
42
2.98175014838275
0
ELLIPSE
5
A6
100
AcDbEntity
8
1
62
256
6
ByLayer
370
-1
48
1
60
0
100
AcDbEllipse
10
95.082253
20
-11.10719
30
0
11
-0.685895518877285
21
-0.0119723508159738
31
0
210
0
220
0
230
1
40
0.998215
41
-2.35339169657497
42
-1.56940105295416
0
ELLIPSE
5
A7
100
AcDbEntity
8
1
62
256
6
ByLayer
370
-1
48
1
60
0
100
AcDbEllipse
10
95.04842
20
-9.305508
30
0
11
2.62460019978552
21
0.0458125668977484
31
0
210
0
220
0
230
1
40
0.998215
41
0
42
6.28318530717959
0
ELLIPSE
5
A8
100
AcDbEntity
8
1
62
256
6
ByLayer
370
-1
48
1
60
0
100
AcDbEllipse
10
95.048708
20
-9.321957
30
0
11
1.6762446609297
21
0.0292589593920288
31
0
210
0
220
0
230
1
40
0.998215
41
1.04997358571157
42
2.09437856115691
0
ELLIPSE
5
A9
100
AcDbEntity
8
1
62
256
6
ByLayer
370
-1
48
1
60
0
100
AcDbEllipse
10
93.662292
20
-9.238712
30
0
11
-0.291955526985666
21
-0.00509610267968565
31
0
210
0
220
0
230
1
40
0.998215
41
0.150858598832482
42
1.3148601105196
0
ELLIPSE
5
AA
100
AcDbEntity
8
1
62
256
6
ByLayer
370
-1
48
1
60
0
100
AcDbEllipse
10
95.048424
20
-9.305752
30
0
11
1.20631624420619
21
0.0210563283665271
31
0
210
0
220
0
230
1
40
0.998215
41
0.454516667042766
42
0.59258951216857
0
ELLIPSE
5
AB
100
AcDbEntity
8
1
62
256
6
ByLayer
370
-1
48
1
60
0
100
AcDbEllipse
10
96.430994
20
-9.198098
30
0
11
-0.291955526985666
21
-0.00509610267968565
31
0
210
0
220
0
230
1
40
0.998215
41
1.83260796053027
42
-3.14156601436007
0
ELLIPSE
5
AC
100
AcDbEntity
8
1
62
256
6
ByLayer
370
-1
48
1
60
0
100
AcDbEllipse
10
95.047217
20
-9.236855
30
0
11
-1.2063162442062
21
-0.0210563283665781
31
0
210
0
220
0
230
1
40
0.998215
41
2.62984715408866
42
-2.76082622423358
0
ELLIPSE
5
AD
100
AcDbEntity
8
1
62
256
6
ByLayer
370
-1
48
1
60
0
100
AcDbEllipse
10
95.048708
20
-9.321957
30
0
11
1.6762446609297
21
0.0292589593920288
31
0
210
0
220
0
230
1
40
0.998215
41
3.13873975343229
42
-2.0916190678782
0
ELLIPSE
5
AE
100
AcDbEntity
8
1
62
256
6
ByLayer
370
-1
48
1
60
0
100
AcDbEllipse
10
96.70055
20
-10.136522
30
0
11
-0.685895518877285
21
-0.0119723508159738
31
0
210
0
220
0
230
1
40
0.998215
41
-0.524994049439018
42
-2.70689952939409E-06
0
ELLIPSE
5
AF
100
AcDbEntity
8
1
62
256
6
ByLayer
370
-1
48
1
60
0
100
AcDbEllipse
10
94.378769
20
-10.42904
30
0
11
-0.291955526985666
21
-0.00509610267968565
31
0
210
0
220
0
230
1
40
0.998215
41
0.109844304921824
42
2.35618224425661
0
ELLIPSE
5
B0
100
AcDbEntity
8
1
62
256
6
ByLayer
370
-1
48
1
60
0
100
AcDbEllipse
10
95.047243
20
-9.238348
30
0
11
2.62460019978551
21
0.0458125668977483
31
0
210
0
220
0
230
1
40
0.998215
41
3.11706868305022
42
3.13463832927033
0
ELLIPSE
5
B1
100
AcDbEntity
8
1
62
256
6
ByLayer
370
-1
48
1
60
0
100
AcDbEllipse
10
95.047243
20
-9.238348
30
0
11
2.62460019978551
21
0.0458125668977483
31
0
210
0
220
0
230
1
40
0.998215
41
0.00703502960103923
42
3.11706868305021
0
ELLIPSE
5
B2
100
AcDbEntity
8
1
62
256
6
ByLayer
370
-1
48
1
60
0
100
AcDbEllipse
10
95.048708
20
-9.321957
30
0
11
1.6762446609297
21
0.0292589593920288
31
0
210
0
220
0
230
1
40
0.998215
41
-0.0028529001574686
42
1.04997358571157
0
ELLIPSE
5
B3
100
AcDbEntity
8
1
62
256
6
ByLayer
370
-1
48
1
60
0
100
AcDbEllipse
10
95.048708
20
-9.321957
30
0
11
1.79972585128148
21
0.0314143315870272
31
0
210
0
220
0
230
1
40
0.998215
41
0
42
6.28318530717959
0
ELLIPSE
5
B4
100
AcDbEntity
8
1
62
256
6
ByLayer
370
-1
48
1
60
0
100
AcDbEllipse
10
93.392737
20
-8.300287
30
0
11
-0.685895518877285
21
-0.0119723508159738
31
0
210
0
220
0
230
1
40
0.998215
41
3.14159039082652
42
-2.88259605940803
0
ELLIPSE
5
B5
100
AcDbEntity
8
1
62
256
6
ByLayer
370
-1
48
1
60
0
100
AcDbEllipse
10
95.047217
20
-9.236855
30
0
11
1.2063162442062
21
0.0210563283665273
31
0
210
0
220
0
230
1
40
0.998215
41
-2.68707598654738
42
-2.54900314142072
0
ELLIPSE
5
B6
100
AcDbEntity
8
1
62
256
6
ByLayer
370
-1
48
1
60
0
100
AcDbEllipse
10
95.048708
20
-9.321957
30
0
11
1.6762446609297
21
0.0292589593920288
31
0
210
0
220
0
230
1
40
0.998215
41
-2.0916190678782
42
-1.04721409243288
0
ELLIPSE
5
B7
100
AcDbEntity
8
1
62
256
6
ByLayer
370
-1
48
1
60
0
100
AcDbEllipse
10
93.431231
20
-10.187343
30
0
11
-0.685895518877285
21
-0.0119723508159738
31
0
210
0
220
0
230
1
40
0.998215
41
-3.14158407272281
42
-2.73960791920894
0
ELLIPSE
5
B8
100
AcDbEntity
8
1
62
256
6
ByLayer
370
-1
48
1
60
0
100
AcDbEllipse
10
96.70055
20
-10.136522
30
0
11
-0.685895518877285
21
-0.0119723508159738
31
0
210
0
220
0
230
1
40
0.998215
41
-1.30898469305985
42
-0.524994049439018
0
ELLIPSE
5
B9
100
AcDbEntity
8
1
62
256
6
ByLayer
370
-1
48
1
60
0
100
AcDbEllipse
10
95.048708
20
-9.321957
30
0
11
1.6762446609297
21
0.0292589593920288
31
0
210
0
220
0
230
1
40
0.998215
41
2.09437856115691
42
3.13873975343229
0
ELLIPSE
5
BA
100
AcDbEntity
8
1
62
256
6
ByLayer
370
-1
48
1
60
0
100
AcDbEllipse
10
93.431231
20
-10.187343
30
0
11
-0.685895518877285
21
-0.0119723508159738
31
0
210
0
220
0
230
1
40
0.998215
41
-2.49637983677401
42
-1.82673254307027
0
ELLIPSE
5
BB
100
AcDbEntity
8
1
62
256
6
ByLayer
370
-1
48
1
60
0
100
AcDbEllipse
10
96.662056
20
-8.249467
30
0
11
-0.685895518877285
21
-0.0119723508159738
31
0
210
0
220
0
230
1
40
0.998215
41
-0.267662559322854
42
8.16562131901004E-06
0
ELLIPSE
5
BC
100
AcDbEntity
8
1
62
256
6
ByLayer
370
-1
48
1
60
0
100
AcDbEllipse
10
95.047217
20
-9.236855
30
0
11
-1.2063162442062
21
-0.0210563283665781
31
0
210
0
220
0
230
1
40
0.998215
41
-0.372234360838046
42
0.440623324322628
0
ELLIPSE
5
BD
100
AcDbEntity
8
1
62
256
6
ByLayer
370
-1
48
1
60
0
100
AcDbEllipse
10
95.082253
20
-11.10719
30
0
11
-0.685895518877285
21
-0.0119723508159738
31
0
210
0
220
0
230
1
40
0.998215
41
-1.56940105295416
42
-0.785410409333385
0
ELLIPSE
5
BE
100
AcDbEntity
8
1
62
256
6
ByLayer
370
-1
48
1
60
0
100
AcDbEllipse
10
95.047217
20
-9.236855
30
0
11
-1.2063162442062
21
-0.0210563283665781
31
0
210
0
220
0
230
1
40
0.998215
41
0.592589512169114
42
1.57219157855485
0
ELLIPSE
5
BF
100
AcDbEntity
8
1
62
256
6
ByLayer
370
-1
48
1
60
0
100
AcDbEllipse
10
95.048708
20
-9.321957
30
0
11
1.6762446609297
21
0.0292589593920288
31
0
210
0
220
0
230
1
40
0.998215
41
-1.04721409243288
42
-0.0028529001574686
0
ELLIPSE
5
C0
100
AcDbEntity
8
1
62
256
6
ByLayer
370
-1
48
1
60
0
100
AcDbEllipse
10
95.047217
20
-9.236855
30
0
11
-1.2063162442062
21
-0.0210563283665781
31
0
210
0
220
0
230
1
40
0.998215
41
-1.37399024959078
42
-0.605268932913412
0
ELLIPSE
5
C1
100
AcDbEntity
8
1
62
256
6
ByLayer
370
-1
48
1
60
0
100
AcDbEllipse
10
95.047217
20
-9.236855
30
0
11
-1.2063162442062
21
-0.0210563283665781
31
0
210
0
220
0
230
1
40
0.998215
41
-2.49295470303139
42
-1.72714307950122
0
ELLIPSE
5
C2
100
AcDbEntity
8
1
62
256
6
ByLayer
370
-1
48
1
60
0
100
AcDbEllipse
10
95.048424
20
-9.305752
30
0
11
1.20631624420619
21
0.0210563283665271
31
0
210
0
220
0
230
1
40
0.998215
41
-2.68707598654709
42
-2.54900314142099
0
POINT
5
41
100
AcDbEntity
8
80
62
256
6
ByLayer
370
-1
48
1
60
0
100
AcDbPoint
10
0
20
0
30
0
39
0
210
0
220
0
230
1
50
360
0
POINT
5
43
100
AcDbEntity
8
81
62
256
6
ByLayer
370
-1
48
1
60
0
100
AcDbPoint
10
99.93
20
-16.9
30
0
39
0
210
0
220
0
230
1
50
360
0
POINT
5
45
100
AcDbEntity
8
1
62
256
6
ByLayer
370
-1
48
1
60
0
100
AcDbPoint
10
-201.32
20
0
30
0
39
0
210
0
220
0
230
1
50
360
0
POINT
5
47
100
AcDbEntity
8
2
62
256
6
ByLayer
370
-1
48
1
60
0
100
AcDbPoint
10
99.93
20
16.9
30
0
39
0
210
0
220
0
230
1
50
360
0
SPLINE
5
C3
100
AcDbEntity
8
1
62
256
6
ByLayer
370
-1
48
1
60
0
100
AcDbSpline
70
4
71
3
72
8
73
4
40
0
40
0
40
0
40
0
40
1
40
1
40
1
40
1
41
1
10
77.6838200505816
20
11.6660050299226
30
0
41
1
10
77.708807617008
20
11.6464887846616
30
0
41
1
10
77.7338077370409
20
11.6269157081662
30
0
41
1
10
77.7588200505819
20
11.6072866312403
30
0
0
SPLINE
5
C4
100
AcDbEntity
8
1
62
256
6
ByLayer
370
-1
48
1
60
0
100
AcDbSpline
70
4
71
3
72
8
73
4
40
0
40
0
40
0
40
0
40
1
40
1
40
1
40
1
41
1
10
80.601894191167
20
-12.4162386870127
30
0
41
1
10
80.2027993602618
20
-12.4162927879274
30
0
41
1
10
79.8045986899089
20
-12.4161793124011
30
0
41
1
10
79.4080948178016
20
-12.415524767802
30
0
0
SPLINE
5
C5
100
AcDbEntity
8
1
62
256
6
ByLayer
370
-1
48
1
60
0
100
AcDbSpline
70
4
71
3
72
8
73
4
40
0
40
0
40
0
40
0
40
1
40
1
40
1
40
1
41
1
10
65.2786253459749
20
-4.8766101507608
30
0
41
1
10
65.1545577435338
20
-6.95101092807062
30
0
41
1
10
65.5333638899215
20
-8.80733148440802
30
0
41
1
10
66.5926108789117
20
-10.0087500000005
30
0
0
SPLINE
5
C6
100
AcDbEntity
8
1
62
256
6
ByLayer
370
-1
48
1
60
0
100
AcDbSpline
70
4
71
3
72
8
73
4
40
0
40
0
40
0
40
0
40
1
40
1
40
1
40
1
41
1
10
97.0441163724553
20
-15.856025125722
30
0
41
1
10
96.6096462671488
20
-15.820033500488
30
0
41
1
10
96.1751764475254
20
-15.784038441581
30
0
41
1
10
95.7407069194114
20
-15.748039879951
30
0
0
SPLINE
5
C7
100
AcDbEntity
8
1
62
256
6
ByLayer
370
-1
48
1
60
0
100
AcDbSpline
70
4
71
3
72
8
73
4
40
0
40
0
40
0
40
0
40
1
40
1
40
1
40
1
41
1
10
77.7588200505819
20
11.6072866312403
30
0
41
1
10
78.3845633383441
20
11.7349292251406
30
0
41
1
10
79.0274683958482
20
11.8379894840982
30
0
41
1
10
79.6832878090269
20
11.9221060646248
30
0
0
SPLINE
5
C8
100
AcDbEntity
8
1
62
256
6
ByLayer
370
-1
48
1
60
0
100
AcDbSpline
70
4
71
3
72
8
73
4
40
0
40
0
40
0
40
0
40
1
40
1
40
1
40
1
41
1
10
86.2146184923048
20
-10.8102608050445
30
0
41
1
10
86.1662815025325
20
-10.8512318352399
30
0
41
1
10
86.1168535300346
20
-10.889836776276
30
0
41
1
10
86.0664116990907
20
-10.925908708509
30
0
0
SPLINE
5
C9
100
AcDbEntity
8
1
62
256
6
ByLayer
370
-1
48
1
60
0
100
AcDbSpline
70
4
71
3
72
28
73
24
40
-0.12500000000001
40
-0.12500000000001
40
0
40
0
40
0.124999999999989
40
0.124999999999989
40
0.187499999999987
40
0.187499999999987
40
0.249999999999985
40
0.249999999999985
40
0.374999999999982
40
0.374999999999982
40
0.499999999999979
40
0.499999999999979
40
0.624999999999976
40
0.624999999999976
40
0.687499999999974
40
0.687499999999974
40
0.718749999999977
40
0.718749999999977
40
0.749999999999979
40
0.749999999999979
40
0.87499999999999
40
0.87499999999999
40
1
40
1
40
1.12499999999999
40
1.12499999999999
41
1
10
76.5133630796162
20
-4.13134320357472
30
0
41
1
10
74.9835991440263
20
-3.42997233598723
30
0
41
1
10
74.1835944431239
20
-3.17653334945953
30
0
41
1
10
72.9828731977181
20
-3.35846984602128
30
0
41
1
10
72.5678969562674
20
-3.53439514031106
30
0
41
1
10
72.005657400058
20
-4.26697526595038
30
0
41
1
10
71.9309172483391
20
-4.78203047726791
30
0
41
1
10
72.2030042192695
20
-6.07867578741349
30
0
41
1
10
72.8373360322322
20
-6.66540152887532
30
0
41
1
10
74.2091394305531
20
-7.53669210276644
30
0
41
1
10
75.0035567498406
20
-7.83185075778997
30
0
41
1
10
76.6638675392237
20
-8.25018812291179
30
0
41
1
10
77.529155577466
20
-8.3852307778719
30
0
41
1
10
78.8939108415423
20
-8.39288716560537
30
0
41
1
10
79.3737589730673
20
-8.39392912031056
30
0
41
1
10
79.9977449927778
20
-8.07621534006873
30
0
41
1
10
80.1430289093774
20
-7.84462800149151
30
0
41
1
10
80.07491573553
20
-7.38578128736918
30
0
41
1
10
79.9536602232687
20
-7.18234002781753
30
0
41
1
10
79.3092694428337
20
-6.23594290532739
30
0
41
1
10
78.6126754485405
20
-5.65689331214426
30
0
41
1
10
77.2282282596158
20
-4.59064863458948
30
0
41
1
10
76.5133630796162
20
-4.13134320357472
30
0
41
1
10
74.9835991440263
20
-3.42997233598723
30
0
0
SPLINE
5
CA
100
AcDbEntity
8
1
62
256
6
ByLayer
370
-1
48
1
60
0
100
AcDbSpline
70
4
71
3
72
8
73
4
40
0
40
0
40
0
40
0
40
1
40
1
40
1
40
1
41
1
10
95.5988782049812
20
-16.2087439895301
30
0
41
1
10
91.627190084206
20
-15.8840551347888
30
0
41
1
10
87.6555038996505
20
-15.5593426966899
30
0
41
1
10
83.6838200499995
20
-15.2346018261389
30
0
0
SPLINE
5
CB
100
AcDbEntity
8
1
62
256
6
ByLayer
370
-1
48
1
60
0
100
AcDbSpline
70
4
71
3
72
8
73
4
40
0
40
0
40
0
40
0
40
1
40
1
40
1
40
1
41
1
10
80.6018941911667
20
-12.416238687013
30
0
41
1
10
81.2239902892767
20
-12.985593632399
30
0
41
1
10
81.8482943467994
20
-13.5558050185267
30
0
41
1
10
82.4738137254034
20
-14.1279403152926
30
0
0
SPLINE
5
CC
100
AcDbEntity
8
1
62
256
6
ByLayer
370
-1
48
1
60
0
100
AcDbSpline
70
4
71
3
72
10
73
6
40
0
40
0
40
0
40
0
40
0.5
40
0.5
40
1
40
1
40
1
40
1
41
1
10
77.683820050582
20
11.6660050299232
30
0
41
1
10
75.6547400310448
20
11.2449185603607
30
0
41
1
10
73.8362912757333
20
10.5663188151214
30
0
41
1
10
70.6461064954755
20
8.3286864799326
30
0
41
1
10
69.3100599054813
20
6.76597117821311
30
0
41
1
10
68.2412203526222
20
4.87661015076023
30
0
0
SPLINE
5
CD
100
AcDbEntity
8
1
62
256
6
ByLayer
370
-1
48
1
60
0
100
AcDbSpline
70
4
71
3
72
8
73
4
40
0
40
0
40
0
40
0
40
1
40
1
40
1
40
1
41
1
10
82.4738137254034
20
-14.1279403152926
30
0
41
1
10
82.8771361093168
20
-14.4968417110058
30
0
41
1
10
83.2804725013904
20
-14.8657278466359
30
0
41
1
10
83.6838200499995
20
-15.2346018261389
30
0
0
SPLINE
5
CE
100
AcDbEntity
8
SK1
62
256
6
ByLayer
370
-1
48
1
60
0
100
AcDbSpline
70
4
71
3
72
8
73
4
40
0
40
0
40
0
40
0
40
1
40
1
40
1
40
1
41
1
10
-201.32
20
-10.00875
30
0
41
1
10
-200.859655007734
20
-10.00875
30
0
41
1
10
-200.133727170391
20
-10.00875
30
0
41
1
10
-199.32
20
-10.00875
30
0
0
SPLINE
5
CF
100
AcDbEntity
8
1
62
256
6
ByLayer
370
-1
48
1
60
0
100
AcDbSpline
70
4
71
3
72
12
73
8
40
0
40
0
40
0
40
0
40
0.320646156791778
40
0.320646156791778
40
0.78953033734614
40
0.78953033734614
40
1
40
1
40
1
40
1
41
1
10
94.0589781736849
20
-9.97734674526222
30
0
41
1
10
94.080095686259
20
-10.0249498209806
30
0
41
1
10
94.0956632994447
20
-10.0751703900118
30
0
41
1
10
94.1195943630397
20
-10.1977735709438
30
0
41
1
10
94.1218708507233
20
-10.2716957556865
30
0
41
1
10
94.1104337252492
20
-10.3735620587276
30
0
41
1
10
94.1047863228594
20
-10.4048570562784
30
0
41
1
10
94.0972339245645
20
-10.4353689770447
30
0
0
SPLINE
5
D0
100
AcDbEntity
8
1
62
256
6
ByLayer
370
-1
48
1
60
0
100
AcDbSpline
70
4
71
3
72
16
73
12
40
0
40
0
40
0
40
0
40
0.0568311993976634
40
0.0568311993976634
40
0.279629223496139
40
0.279629223496139
40
0.504874650262471
40
0.504874650262471
40
0.744284018684004
40
0.744284018684004
40
1
40
1
40
1
40
1
41
1
10
93.3718091896047
20
-9.32809640735621
30
0
41
1
10
93.3716977922622
20
-9.32049705980398
30
0
41
1
10
93.3718845593414
20
-9.31287773663377
30
0
41
1
10
93.3742486301815
20
-9.27571650455423
30
0
41
1
10
93.3807837079229
20
-9.24601589746499
30
0
41
1
10
93.4018479486529
20
-9.19072395447282
30
0
41
1
10
93.4167106013987
20
-9.16446905673772
30
0
41
1
10
93.4532556359899
20
-9.1170684155704
30
0
41
1
10
93.4757408358574
20
-9.09573482507608
30
0
41
1
10
93.5258230556395
20
-9.06031791131568
30
0
41
1
10
93.5542346488585
20
-9.04634862184909
30
0
41
1
10
93.5831834527249
20
-9.03712345963967
30
0
0
SPLINE
5
D1
100
AcDbEntity
8
1
62
256
6
ByLayer
370
-1
48
1
60
0
100
AcDbSpline
70
4
71
3
72
16
73
12
40
0
40
0
40
0
40
0
40
0.05051108371297
40
0.05051108371297
40
0.273571659354067
40
0.273571659354067
40
0.49871663165169
40
0.49871663165169
40
0.737738642831851
40
0.737738642831851
40
1
40
1
40
1
40
1
41
1
10
94.1847127346074
20
-7.86905769790857
30
0
41
1
10
94.1905135205379
20
-7.86557833770087
30
0
41
1
10
94.1964398466368
20
-7.86229133780654
30
0
41
1
10
94.2288623086789
20
-7.84571583696564
30
0
41
1
10
94.2576472937016
20
-7.83608611995103
30
0
41
1
10
94.3155130212303
20
-7.82570381726561
30
0
41
1
10
94.3453277863139
20
-7.82488032921933
30
0
41
1
10
94.403813296665
20
-7.83158841670874
30
0
41
1
10
94.4330371364974
20
-7.83969123400391
30
0
41
1
10
94.4885214452587
20
-7.86424484911953
30
0
41
1
10
94.5149317487779
20
-7.88170650550549
30
0
41
1
10
94.5372395877225
20
-7.90214763420548
30
0
0
SPLINE
5
D2
100
AcDbEntity
8
1
62
256
6
ByLayer
370
-1
48
1
60
0
100
AcDbSpline
70
4
71
3
72
14
73
10
40
0
40
0
40
0
40
0
40
0.282071481669219
40
0.282071481669219
40
0.56681613259026
40
0.56681613259026
40
0.824447856558573
40
0.824447856558573
40
1
40
1
40
1
40
1
41
1
10
93.5946747962495
20
-9.6004349056893
30
0
41
1
10
93.5620633664602
20
-9.59356266218344
30
0
41
1
10
93.5298341583799
20
-9.58063499342524
30
0
41
1
10
93.471679663486
20
-9.54336336152468
30
0
41
1
10
93.4449498623893
20
-9.51828135584228
30
0
41
1
10
93.4049694230362
20
-9.46197228582835
30
0
41
1
10
93.3901233304308
20
-9.43066996083624
30
0
41
1
10
93.3754253883994
20
-9.3753075194455
30
0
41
1
10
93.3721546488533
20
-9.35166308171392
30
0
41
1
10
93.3718091896047
20
-9.32809640735621
30
0
0
SPLINE
5
D3
100
AcDbEntity
8
1
62
256
6
ByLayer
370
-1
48
1
60
0
100
AcDbSpline
70
4
71
3
72
14
73
10
40
0
40
0
40
0
40
0
40
0.278901186011696
40
0.278901186011696
40
0.564042846402235
40
0.564042846402235
40
0.821997220619089
40
0.821997220619089
40
1
40
1
40
1
40
1
41
1
10
96.5013520989498
20
-8.99335866829898
30
0
41
1
10
96.5336340803651
20
-9.00222090282816
30
0
41
1
10
96.5655349546578
20
-9.01690365364013
30
0
41
1
10
96.623596038981
20
-9.0572307786976
30
0
41
1
10
96.650480289247
20
-9.08379604612597
30
0
41
1
10
96.6907528342671
20
-9.14230441962226
30
0
41
1
10
96.7057424992609
20
-9.17441359921881
30
0
41
1
10
96.7207359818262
20
-9.2308748407996
30
0
41
1
10
96.7240981989394
20
-9.25502279265046
30
0
41
1
10
96.7244484635715
20
-9.27891728255062
30
0
0
SPLINE
5
D4
100
AcDbEntity
8
1
62
256
6
ByLayer
370
-1
48
1
60
0
100
AcDbSpline
70
4
71
3
72
18
73
14
40
0
40
0
40
0
40
0
40
0.210965823598891
40
0.210965823598891
40
0.385360648441841
40
0.385360648441841
40
0.561454900569867
40
0.561454900569867
40
0.714470859794331
40
0.714470859794331
40
0.917060813728945
40
0.917060813728945
40
1
40
1
40
1
40
1
41
1
10
94.5901789381471
20
-10.7101103642844
30
0
41
1
10
94.6390907119216
20
-10.657330923899
30
0
41
1
10
94.6975652979718
20
-10.6106261761962
30
0
41
1
10
94.8176803585105
20
-10.5442707894503
30
0
41
1
10
94.8784505107536
20
-10.5207377959405
30
0
41
1
10
95.0055562531096
20
-10.4926481357994
30
0
41
1
10
95.0738692543027
20
-10.4880672304196
30
0
41
1
10
95.1967860311645
20
-10.4987734030442
30
0
41
1
10
95.2534861505842
20
-10.51156735583
30
0
41
1
10
95.3751063840161
20
-10.555415618338
30
0
41
1
10
95.4389253295512
20
-10.5915502656512
30
0
41
1
10
95.5169903447577
20
-10.6524788607283
30
0
41
1
10
95.5385801874554
20
-10.6716276014965
30
0
41
1
10
95.5587909333877
20
-10.6918536682713
30
0
0
SPLINE
5
D5
100
AcDbEntity
8
1
62
256
6
ByLayer
370
-1
48
1
60
0
100
AcDbSpline
70
4
71
3
72
12
73
8
40
0
40
0
40
0
40
0
40
0.495373130888984
40
0.495373130888984
40
0.9003209323632
40
0.9003209323632
40
1
40
1
40
1
40
1
41
1
10
96.5013520989498
20
-8.99335866829898
30
0
41
1
10
96.4320186089663
20
-8.97432484131664
30
0
41
1
10
96.3630403080421
20
-8.94389729759467
30
0
41
1
10
96.2469972429772
20
-8.8683209150835
30
0
41
1
10
96.1970070215287
20
-8.8258959768381
30
0
41
1
10
96.142816357719
20
-8.76504219724424
30
0
41
1
10
96.1324095788385
20
-8.75253245099964
30
0
41
1
10
96.1224339789063
20
-8.73966859179947
30
0
0
SPLINE
5
D6
100
AcDbEntity
8
1
62
256
6
ByLayer
370
-1
48
1
60
0
100
AcDbSpline
70
4
71
3
72
14
73
10
40
0
40
0
40
0
40
0
40
0.266479231593741
40
0.266479231593741
40
0.554997815982502
40
0.554997815982502
40
0.815945169240518
40
0.815945169240518
40
1
40
1
40
1
40
1
41
1
10
94.054067178147
20
-8.19195851077939
30
0
41
1
10
94.0454960758172
20
-8.16271375945087
30
0
41
1
10
94.0416798348128
20
-8.1311454314656
30
0
41
1
10
94.0453719204672
20
-8.06516622108876
30
0
41
1
10
94.0539802228282
20
-8.02969020282865
30
0
41
1
10
94.083087728617
20
-7.96699432567101
30
0
41
1
10
94.1028702078928
20
-7.93838402780307
30
0
41
1
10
94.1441024918464
20
-7.89700417763135
30
0
41
1
10
94.1636925988965
20
-7.88166575216709
30
0
41
1
10
94.1847127346074
20
-7.86905769790857
30
0
0
SPLINE
5
D7
100
AcDbEntity
8
1
62
256
6
ByLayer
370
-1
48
1
60
0
100
AcDbSpline
70
4
71
3
72
16
73
12
40
0
40
0
40
0
40
0
40
0.141344803324913
40
0.141344803324913
40
0.363760442660793
40
0.363760442660793
40
0.593306015714685
40
0.593306015714685
40
0.840796075900765
40
0.840796075900765
40
1
40
1
40
1
40
1
41
1
10
95.9115449185688
20
-10.7379559919984
30
0
41
1
10
95.8954284766891
20
-10.7476227694383
30
0
41
1
10
95.8782735818959
20
-10.7557164579508
30
0
41
1
10
95.8329905043849
20
-10.7718388468764
30
0
41
1
10
95.8035959925815
20
-10.7773176846112
30
0
41
1
10
95.7450892639817
20
-10.7792523778015
30
0
41
1
10
95.7152787963321
20
-10.7754653101804
30
0
41
1
10
95.6574419110949
20
-10.7591494724534
30
0
41
1
10
95.6290049777172
20
-10.7457893722541
30
0
41
1
10
95.5875679739
20
-10.7180106830535
30
0
41
1
10
95.5724455321535
20
-10.7055186179643
30
0
41
1
10
95.5587909333877
20
-10.6918536682715
30
0
0
SPLINE
5
D8
100
AcDbEntity
8
1
62
256
6
ByLayer
370
-1
48
1
60
0
100
AcDbSpline
70
4
71
3
72
12
73
8
40
0
40
0
40
0
40
0
40
0.321744953705963
40
0.321744953705963
40
0.790679818368701
40
0.790679818368701
40
1
40
1
40
1
40
1
41
1
10
96.0367137444756
20
-8.59725600729288
30
0
41
1
10
96.015520580965
20
-8.55013589880429
30
0
41
1
10
95.9999350934423
20
-8.50101602386476
30
0
41
1
10
95.9761424262307
20
-8.38245597642711
30
0
41
1
10
95.9739996064142
20
-8.3120061516218
30
0
41
1
10
95.9856200118686
20
-8.21600057008172
30
0
41
1
10
95.9912688930529
20
-8.18680171037053
30
0
41
1
10
95.99879297063
20
-8.15842459694241
30
0
0
SPLINE
5
D9
100
AcDbEntity
8
1
62
256
6
ByLayer
370
-1
48
1
60
0
100
AcDbSpline
70
4
71
3
72
12
73
8
40
0
40
0
40
0
40
0
40
0.493142180083352
40
0.493142180083352
40
0.898475624162831
40
0.898475624162831
40
1
40
1
40
1
40
1
41
1
10
93.5946747962495
20
-9.6004349056893
30
0
41
1
10
93.66362017022
20
-9.61496384237159
30
0
41
1
10
93.7322117101747
20
-9.64101671276521
30
0
41
1
10
93.8479860568273
20
-9.71010121245791
30
0
41
1
10
93.8980297172297
20
-9.75021341501321
30
0
41
1
10
93.9525005631531
20
-9.80959389896836
30
0
41
1
10
93.9631024165469
20
-9.82204918264142
30
0
41
1
10
93.973257939254
20
-9.83493416075527
30
0
0
SPLINE
5
DA
100
AcDbEntity
8
1
62
256
6
ByLayer
370
-1
48
1
60
0
100
AcDbSpline
70
4
71
3
72
18
73
14
40
0
40
0
40
0
40
0
40
0.212309742818672
40
0.212309742818672
40
0.386466904642821
40
0.386466904642821
40
0.562307681727839
40
0.562307681727839
40
0.715275050939691
40
0.715275050939691
40
0.918102419068323
40
0.918102419068323
40
1
40
1
40
1
40
1
41
1
10
95.5058515829617
20
-7.8838909381912
30
0
41
1
10
95.4565508553426
20
-7.93261516343352
30
0
41
1
10
95.3975604982152
20
-7.97543590509665
30
0
41
1
10
95.2768093231077
20
-8.03568541329793
30
0
41
1
10
95.2160136354352
20
-8.05684380136705
30
0
41
1
10
95.0889583613234
20
-8.08208318533241
30
0
41
1
10
95.0207295329542
20
-8.08620390463921
30
0
41
1
10
94.897974995508
20
-8.07667370511035
30
0
41
1
10
94.8413502021265
20
-8.06522893951666
30
0
41
1
10
94.7198314594089
20
-8.02573711424822
30
0
41
1
10
94.65606950795
20
-7.99302164173139
30
0
41
1
10
94.5784365597119
20
-7.93765906814605
30
0
41
1
10
94.5571656824651
20
-7.92040632202037
30
0
41
1
10
94.5372395877225
20
-7.90214763420556
30
0
0
SPLINE
5
DB
100
AcDbEntity
8
1
62
256
6
ByLayer
370
-1
48
1
60
0
100
AcDbSpline
70
4
71
3
72
14
73
10
40
0
40
0
40
0
40
0
40
0.278846195975394
40
0.278846195975394
40
0.565812091007075
40
0.565812091007075
40
0.825495144803688
40
0.825495144803688
40
1
40
1
40
1
40
1
41
1
10
95.5058515829617
20
-7.88389093819123
30
0
41
1
10
95.5287414236742
20
-7.86126876183599
30
0
41
1
10
95.5564337362642
20
-7.84182858188547
30
0
41
1
10
95.6187196858903
20
-7.81301770808687
30
0
41
1
10
95.6544926157567
20
-7.8035668798077
30
0
41
1
10
95.7242780884551
20
-7.79874413637458
30
0
41
1
10
95.7591947237585
20
-7.8021060800705
30
0
41
1
10
95.8145823108745
20
-7.81745122250308
30
0
41
1
10
95.836492371837
20
-7.82634379586148
30
0
41
1
10
95.8568625290313
20
-7.83754050564289
30
0
0
SPLINE
5
DC
100
AcDbEntity
8
1
62
256
6
ByLayer
370
-1
48
1
60
0
100
AcDbSpline
70
4
71
3
72
14
73
10
40
0
40
0
40
0
40
0
40
0.28335461560044
40
0.28335461560044
40
0.569754302956727
40
0.569754302956727
40
0.828981403059268
40
0.828981403059268
40
1
40
1
40
1
40
1
41
1
10
94.5901789381471
20
-10.7101103642843
30
0
41
1
10
94.5669562835439
20
-10.7351693351544
30
0
41
1
10
94.5387628658347
20
-10.7568470963258
30
0
41
1
10
94.475884703505
20
-10.7889910241817
30
0
41
1
10
94.4401312888095
20
-10.7997751912025
30
0
41
1
10
94.3704483087604
20
-10.806483715124
30
0
41
1
10
94.3356104379206
20
-10.8037610375874
30
0
41
1
10
94.280797080178
20
-10.7890530556548
30
0
41
1
10
94.2593598544847
20
-10.7804470461418
30
0
41
1
10
94.2393951241451
20
-10.7694731842641
30
0
0
SPLINE
5
DD
100
AcDbEntity
8
1
62
256
6
ByLayer
370
-1
48
1
60
0
100
AcDbSpline
70
4
71
3
72
16
73
12
40
0
40
0
40
0
40
0
40
0.0587773950384502
40
0.0587773950384502
40
0.279491988882615
40
0.279491988882615
40
0.502772554555351
40
0.502772554555351
40
0.740201758091366
40
0.740201758091366
40
1
40
1
40
1
40
1
41
1
10
95.8568625290313
20
-7.83754050564289
30
0
41
1
10
95.8638221738469
20
-7.84136596081433
30
0
41
1
10
95.8706319279617
20
-7.84547029672265
30
0
41
1
10
95.9019299896306
20
-7.8660760548519
30
0
41
1
10
95.9242882922224
20
-7.88621972780928
30
0
41
1
10
95.9612612324581
20
-7.93104187045282
30
0
41
1
10
95.9762718849905
20
-7.95632664132887
30
0
41
1
10
95.9982709168183
20
-8.00994951710425
30
0
41
1
10
96.0049957889835
20
-8.03903971106772
30
0
41
1
10
96.0094850931239
20
-8.09851938837613
30
0
41
1
10
96.0064569309176
20
-8.12951991485218
30
0
41
1
10
95.99879297063
20
-8.15842459694241
30
0
0
SPLINE
5
DE
100
AcDbEntity
8
1
62
256
6
ByLayer
370
-1
48
1
60
0
100
AcDbSpline
70
4
71
3
72
16
73
12
40
0
40
0
40
0
40
0
40
0.0620063353283924
40
0.0620063353283924
40
0.282753434943185
40
0.282753434943185
40
0.506250339804194
40
0.506250339804194
40
0.744049703739396
40
0.744049703739396
40
1
40
1
40
1
40
1
41
1
10
94.2393951241451
20
-10.7694731842641
30
0
41
1
10
94.2320584247786
20
-10.765440476378
30
0
41
1
10
94.224887563288
20
-10.7610769650175
30
0
41
1
10
94.1933293336732
20
-10.739920030964
30
0
41
1
10
94.1710649915341
20
-10.7192831857881
30
0
41
1
10
94.1342715586972
20
-10.6730354460866
30
0
41
1
10
94.1193555050829
20
-10.6467923262197
30
0
41
1
10
94.0975470791718
20
-10.5908457006638
30
0
41
1
10
94.0909264412513
20
-10.5603397868377
30
0
41
1
10
94.0866881374566
20
-10.4981386232615
30
0
41
1
10
94.0897069238574
20
-10.4657782907781
30
0
41
1
10
94.0972339245646
20
-10.4353689770447
30
0
0
SPLINE
5
DF
100
AcDbEntity
8
1
62
256
6
ByLayer
370
-1
48
1
60
0
100
AcDbSpline
70
4
71
3
72
16
73
12
40
0
40
0
40
0
40
0
40
0.0707312659487899
40
0.0707312659487899
40
0.381751108874951
40
0.381751108874951
40
0.664108483269592
40
0.664108483269592
40
0.913097406116808
40
0.913097406116808
40
1
40
1
40
1
40
1
41
1
10
96.0419633429629
20
-10.4020427916955
30
0
41
1
10
96.0442638041891
20
-10.4103820353263
30
0
41
1
10
96.0462252482837
20
-10.4188563474432
30
0
41
1
10
96.0548051001069
20
-10.4647114028317
30
0
41
1
10
96.0549488563616
20
-10.5047234133186
30
0
41
1
10
96.0402751439939
20
-10.5785371859981
30
0
41
1
10
96.0265257972856
20
-10.6137156436434
30
0
41
1
10
95.9892266202716
20
-10.6725063214722
30
0
41
1
10
95.9664361932303
20
-10.6978327400951
30
0
41
1
10
95.9311695036212
20
-10.725349434955
30
0
41
1
10
95.9215268502798
20
-10.7319687453723
30
0
41
1
10
95.9115449185688
20
-10.7379559919984
30
0
0
SPLINE
5
E0
100
AcDbEntity
8
1
62
256
6
ByLayer
370
-1
48
1
60
0
100
AcDbSpline
70
4
71
3
72
18
73
14
40
0
40
0
40
0
40
0
40
0.146509736604639
40
0.146509736604639
40
0.333386325404416
40
0.333386325404416
40
0.490210632960278
40
0.490210632960278
40
0.647325244092521
40
0.647325244092521
40
0.802108540490334
40
0.802108540490334
40
1
40
1
40
1
40
1
41
1
10
94.0540671781471
20
-8.19195851077939
30
0
41
1
10
94.0674011163202
20
-8.23745414145748
30
0
41
1
10
94.0759228535437
20
-8.28536161039963
30
0
41
1
10
94.0826092871087
20
-8.39729312497488
30
0
41
1
10
94.0771843783335
20
-8.46356195921268
30
0
41
1
10
94.04799766623
20
-8.58406416338482
30
0
41
1
10
94.0268566022157
20
-8.63983433662833
30
0
41
1
10
93.9711416196117
20
-8.74383945352079
30
0
41
1
10
93.9358490636501
20
-8.79332730508503
30
0
41
1
10
93.8575024375785
20
-8.87895728752326
30
0
41
1
10
93.8137414167874
20
-8.91635928975907
30
0
41
1
10
93.7096896611619
20
-8.98680710077613
30
0
41
1
10
93.6468120272925
20
-9.01684683873839
30
0
41
1
10
93.5831834527249
20
-9.03712345963979
30
0
0
SPLINE
5
E1
100
AcDbEntity
8
1
62
256
6
ByLayer
370
-1
48
1
60
0
100
AcDbSpline
70
4
71
3
72
18
73
14
40
0
40
0
40
0
40
0
40
0.207624331699138
40
0.207624331699138
40
0.382611245130238
40
0.382611245130238
40
0.559336748640927
40
0.559336748640927
40
0.712477422539035
40
0.712477422539035
40
0.914479900737229
40
0.914479900737229
40
1
40
1
40
1
40
1
41
1
10
96.0419633429617
20
-10.4020427916961
30
0
41
1
10
96.0230005797514
20
-10.3333021841506
30
0
41
1
10
96.0136871794758
20
-10.2596071310248
30
0
41
1
10
96.0184167985481
20
-10.1221294025995
30
0
41
1
10
96.0292376796863
20
-10.0570599760238
30
0
41
1
10
96.0694432921885
20
-9.93201344564895
30
0
41
1
10
96.0998004665586
20
-9.87030313971832
30
0
41
1
10
96.1700822633212
20
-9.76940882827537
30
0
41
1
10
96.2089583041286
20
-9.72705587297776
30
0
41
1
10
96.3057798241588
20
-9.64499589079895
30
0
41
1
10
96.3673637450119
20
-9.60882164795416
30
0
41
1
10
96.4575440705185
20
-9.57283317744685
30
0
41
1
10
96.485079221797
20
-9.56392854129902
30
0
41
1
10
96.5128470683845
20
-9.55687784283546
30
0
0
SPLINE
5
E2
100
AcDbEntity
8
1
62
256
6
ByLayer
370
-1
48
1
60
0
100
AcDbSpline
70
4
71
3
72
16
73
12
40
0
40
0
40
0
40
0
40
0.0545731603590717
40
0.0545731603590717
40
0.27755028464256
40
0.27755028464256
40
0.502845012857568
40
0.502845012857568
40
0.742205832860312
40
0.742205832860312
40
1
40
1
40
1
40
1
41
1
10
96.7244484635715
20
-9.27891728255062
30
0
41
1
10
96.7245553946569
20
-9.28621194922738
30
0
41
1
10
96.7243873613774
20
-9.29350910495307
30
0
41
1
10
96.7221549820171
20
-9.33021924817658
30
0
41
1
10
96.7157026272843
20
-9.35955690824548
30
0
41
1
10
96.694779885945
20
-9.41366568192473
30
0
41
1
10
96.6799820527319
20
-9.43908419494397
30
0
41
1
10
96.6435499131493
20
-9.4843969359533
30
0
41
1
10
96.6211151212257
20
-9.50443472916191
30
0
41
1
10
96.5708337855423
20
-9.53709039823073
30
0
41
1
10
96.5421132656037
20
-9.54944668928454
30
0
41
1
10
96.5128470683845
20
-9.55687784283538
30
0
0
SPLINE
5
E3
100
AcDbEntity
8
SK1
62
256
6
ByLayer
370
-1
48
1
60
0
100
AcDbSpline
70
4
71
3
72
10
73
6
40
0
40
0
40
0
40
0
40
0.5
40
0.5
40
1
40
1
40
1
40
1
41
1
10
-199.32
20
-4.87661015076048
30
0
41
1
10
-199.931278087239
20
-3.31084475816917
30
0
41
1
10
-200.311010085058
20
-1.68546685393193
30
0
41
1
10
-200.311489681707
20
1.6821913662468
30
0
41
1
10
-199.931860983986
20
3.30935169049232
30
0
41
1
10
-199.32
20
4.87661015076051
30
0
0
LINE
5
49
100
AcDbEntity
8
80
62
256
6
ByLayer
370
-1
48
1
60
0
100
AcDbLine
10
0
20
0
30
0
11
-10
21
0
31
0
39
0
210
0
220
0
230
1
0
LINE
5
4A
100
AcDbEntity
8
81
62
256
6
ByLayer
370
-1
48
1
60
0
100
AcDbLine
10
99.93
20
-16.9
30
0
11
109.93
21
-16.9
31
0
39
0
210
0
220
0
230
1
0
LINE
5
4B
100
AcDbEntity
8
SK4
62
256
6
ByLayer
370
-1
48
0.05
60
0
100
AcDbLine
10
-206.32
20
0
30
0
11
104.126117
21
0
31
0
39
0
210
0
220
0
230
1
0
LINE
5
4D
100
AcDbEntity
8
4
62
256
6
ByLayer
370
-1
48
0.05
60
0
100
AcDbLine
10
0
20
0
30
0
11
104.126117
21
0
31
0
39
0
210
0
220
0
230
1
0
LINE
5
4F
100
AcDbEntity
8
1
62
256
6
ByLayer
370
-1
48
1
60
0
100
AcDbLine
10
77.68382
20
12.49125
30
0
11
0
21
12.49125
31
0
39
0
210
0
220
0
230
1
0
LINE
5
50
100
AcDbEntity
8
1
62
256
6
ByLayer
370
-1
48
1
60
0
100
AcDbLine
10
77.75882
20
12.41625
30
0
11
77.68382
21
12.49125
31
0
39
0
210
0
220
0
230
1
0
LINE
5
51
100
AcDbEntity
8
1
62
256
6
ByLayer
370
-1
48
1
60
0
100
AcDbLine
10
78.815527
20
12.41625
30
0
11
77.75882
21
12.41625
31
0
39
0
210
0
220
0
230
1
0
LINE
5
52
100
AcDbEntity
8
1
62
256
6
ByLayer
370
-1
48
1
60
0
100
AcDbLine
10
79.40882
20
-12.41625
30
0
11
80.469349
21
-12.41625
31
0
39
0
210
0
220
0
230
1
0
LINE
5
53
100
AcDbEntity
8
SK1
62
256
6
ByLayer
370
-1
48
1
60
0
100
AcDbLine
10
-199.32
20
12.49125
30
0
11
-201.32
21
10.49125
31
0
39
0
210
0
220
0
230
1
0
LINE
5
55
100
AcDbEntity
8
SK1
62
256
6
ByLayer
370
-1
48
1
60
0
100
AcDbLine
10
0
20
12.49125
30
0
11
-199.32
21
12.49125
31
0
39
0
210
0
220
0
230
1
0
LINE
5
56
100
AcDbEntity
8
1
62
256
6
ByLayer
370
-1
48
1
60
0
100
AcDbLine
10
95.97616
20
-8.261439
30
0
11
95.977445
21
-8.335055
31
0
39
0
210
0
220
0
230
1
0
LINE
5
57
100
AcDbEntity
8
1
62
256
6
ByLayer
370
-1
48
1
60
0
100
AcDbLine
10
94.07992
20
-8.362074
30
0
11
94.078632
21
-8.288315
31
0
39
0
210
0
220
0
230
1
0
LINE
5
58
100
AcDbEntity
8
1
62
256
6
ByLayer
370
-1
48
1
60
0
100
AcDbLine
10
96.014654
20
-10.148495
30
0
11
96.015942
21
-10.222252
31
0
39
0
210
0
220
0
230
1
0
LINE
5
59
100
AcDbEntity
8
1
62
256
6
ByLayer
370
-1
48
1
60
0
100
AcDbLine
10
92.422069
20
-9.265711
30
0
11
92.423242
21
-9.33287
31
0
39
0
210
0
220
0
230
1
0
LINE
5
5A
100
AcDbEntity
8
1
62
256
6
ByLayer
370
-1
48
1
60
0
100
AcDbLine
10
97.672442
20
-9.241245
30
0
11
97.67127
21
-9.174085
31
0
39
0
210
0
220
0
230
1
0
LINE
5
5B
100
AcDbEntity
8
1
62
256
6
ByLayer
370
-1
48
1
60
0
100
AcDbLine
10
94.118412
20
-10.248986
30
0
11
94.117127
21
-10.17537
31
0
39
0
210
0
220
0
230
1
0
LINE
5
5C
100
AcDbEntity
8
1
62
256
6
ByLayer
370
-1
48
1
60
0
100
AcDbLine
10
78.815527
20
12.41625
30
0
11
79.683288
21
11.922106
31
0
39
0
210
0
220
0
230
1
0
LINE
5
5D
100
AcDbEntity
8
1
62
256
6
ByLayer
370
-1
48
1
60
0
100
AcDbLine
10
88.535295
20
-11.845112
30
0
11
89.139749
21
-11.482556
31
0
39
0
210
0
220
0
230
1
0
LINE
5
5E
100
AcDbEntity
8
1
62
256
6
ByLayer
370
-1
48
1
60
0
100
AcDbLine
10
88.917763
20
-11.359731
30
0
11
88.456715
21
-11.636271
31
0
39
0
210
0
220
0
230
1
0
LINE
5
5F
100
AcDbEntity
8
1
62
256
6
ByLayer
370
-1
48
1
60
0
100
AcDbLine
10
0
20
-4.87661
30
0
11
0
21
-10.00875
31
0
39
0
210
0
220
0
230
1
0
LINE
5
60
100
AcDbEntity
8
1
62
256
6
ByLayer
370
-1
48
1
60
0
100
AcDbLine
10
88.535295
20
-11.845112
30
0
11
88.456715
21
-11.636271
31
0
39
0
210
0
220
0
230
1
0
LINE
5
61
100
AcDbEntity
8
1
62
256
6
ByLayer
370
-1
48
1
60
0
100
AcDbLine
10
66.592611
20
-10.00875
30
0
11
77.00132
21
-10.00875
31
0
39
0
210
0
220
0
230
1
0
LINE
5
62
100
AcDbEntity
8
1
62
256
6
ByLayer
370
-1
48
1
60
0
100
AcDbLine
10
86.271385
20
-11.281729
30
0
11
86.398424
21
-11.124057
31
0
39
0
210
0
220
0
230
1
0
LINE
5
63
100
AcDbEntity
8
1
62
256
6
ByLayer
370
-1
48
1
60
0
100
AcDbLine
10
86.396131
20
-10.992672
30
0
11
86.398424
21
-11.124057
31
0
39
0
210
0
220
0
230
1
0
LINE
5
64
100
AcDbEntity
8
1
62
256
6
ByLayer
370
-1
48
1
60
0
100
AcDbLine
10
98.889093
20
-1.594122
30
0
11
99.126117
21
-1.451954
31
0
39
0
210
0
220
0
230
1
0
LINE
5
65
100
AcDbEntity
8
1
62
256
6
ByLayer
370
-1
48
1
60
0
100
AcDbLine
10
88.16917
20
7.089846
30
0
11
99.126117
21
0.850445
31
0
39
0
210
0
220
0
230
1
0
LINE
5
66
100
AcDbEntity
8
1
62
256
6
ByLayer
370
-1
48
1
60
0
100
AcDbLine
10
79.408095
20
-12.415525
30
0
11
79.40882
21
-12.41625
31
0
39
0
210
0
220
0
230
1
0
LINE
5
67
100
AcDbEntity
8
1
62
256
6
ByLayer
370
-1
48
1
60
0
100
AcDbLine
10
77.75882
20
12.41625
30
0
11
77.75882
21
11.607287
31
0
39
0
210
0
220
0
230
1
0
LINE
5
68
100
AcDbEntity
8
1
62
256
6
ByLayer
370
-1
48
1
60
0
100
AcDbLine
10
86.271385
20
-11.281729
30
0
11
86.142632
21
-11.067824
31
0
39
0
210
0
220
0
230
1
0
LINE
5
69
100
AcDbEntity
8
1
62
256
6
ByLayer
370
-1
48
1
60
0
100
AcDbLine
10
95.747435
20
-16.1335
30
0
11
95.7299
21
-15.128885
31
0
39
0
210
0
220
0
230
1
0
LINE
5
6A
100
AcDbEntity
8
1
62
256
6
ByLayer
370
-1
48
1
60
0
100
AcDbLine
10
86.267378
20
-10.778766
30
0
11
86.269671
21
-10.910152
31
0
39
0
210
0
220
0
230
1
0
LINE
5
6B
100
AcDbEntity
8
1
62
256
6
ByLayer
370
-1
48
1
60
0
100
AcDbLine
10
86.269671
20
-10.910152
30
0
11
86.398424
21
-11.124057
31
0
39
0
210
0
220
0
230
1
0
LINE
5
6C
100
AcDbEntity
8
1
62
256
6
ByLayer
370
-1
48
1
60
0
100
AcDbLine
10
86.267378
20
-10.778766
30
0
11
86.396131
21
-10.992672
31
0
39
0
210
0
220
0
230
1
0
LINE
5
6D
100
AcDbEntity
8
1
62
256
6
ByLayer
370
-1
48
1
60
0
100
AcDbLine
10
88.454422
20
-11.504886
30
0
11
88.456715
21
-11.636271
31
0
39
0
210
0
220
0
230
1
0
LINE
5
6E
100
AcDbEntity
8
1
62
256
6
ByLayer
370
-1
48
1
60
0
100
AcDbLine
10
79.683288
20
11.922106
30
0
11
88.16917
21
7.089846
31
0
39
0
210
0
220
0
230
1
0
LINE
5
6F
100
AcDbEntity
8
1
62
256
6
ByLayer
370
-1
48
1
60
0
100
AcDbLine
10
0
20
4.87661
30
0
11
68.24122
21
4.87661
31
0
39
0
210
0
220
0
230
1
0
LINE
5
70
100
AcDbEntity
8
1
62
256
6
ByLayer
370
-1
48
1
60
0
100
AcDbLine
10
99.126117
20
-1.358925
30
0
11
99.126117
21
-1.451954
31
0
39
0
210
0
220
0
230
1
0
LINE
5
71
100
AcDbEntity
8
1
62
256
6
ByLayer
370
-1
48
1
60
0
100
AcDbLine
10
88.802639
20
-11.296022
30
0
11
88.454422
21
-11.504886
31
0
39
0
210
0
220
0
230
1
0
LINE
5
72
100
AcDbEntity
8
1
62
256
6
ByLayer
370
-1
48
1
60
0
100
AcDbLine
10
86.142632
20
-11.067824
30
0
11
86.269671
21
-10.910152
31
0
39
0
210
0
220
0
230
1
0
LINE
5
73
100
AcDbEntity
8
1
62
256
6
ByLayer
370
-1
48
1
60
0
100
AcDbLine
10
77.00132
20
-10.00875
30
0
11
79.408095
21
-12.415525
31
0
39
0
210
0
220
0
230
1
0
LINE
5
74
100
AcDbEntity
8
1
62
256
6
ByLayer
370
-1
48
1
60
0
100
AcDbLine
10
86.214618
20
-10.810261
30
0
11
86.212325
21
-10.678875
31
0
39
0
210
0
220
0
230
1
0
LINE
5
75
100
AcDbEntity
8
1
62
256
6
ByLayer
370
-1
48
1
60
0
100
AcDbLine
10
0
20
-10.00875
30
0
11
66.592611
21
-10.00875
31
0
39
0
210
0
220
0
230
1
0
LINE
5
76
100
AcDbEntity
8
1
62
256
6
ByLayer
370
-1
48
1
60
0
100
AcDbLine
10
95.578567
20
-15.045143
30
0
11
95.598878
21
-16.208744
31
0
39
0
210
0
220
0
230
1
0
LINE
5
77
100
AcDbEntity
8
1
62
256
6
ByLayer
370
-1
48
1
60
0
100
AcDbLine
10
99.126117
20
-1.358925
30
0
11
98.687571
21
-1.621968
31
0
39
0
210
0
220
0
230
1
0
LINE
5
78
100
AcDbEntity
8
1
62
256
6
ByLayer
370
-1
48
1
60
0
100
AcDbLine
10
99.126117
20
0.850445
30
0
11
99.126117
21
-1.358925
31
0
39
0
210
0
220
0
230
1
0
LINE
5
79
100
AcDbEntity
8
1
62
256
6
ByLayer
370
-1
48
1
60
0
100
AcDbLine
10
0
20
-4.87661
30
0
11
0
21
4.87661
31
0
39
0
210
0
220
0
230
1
0
LINE
5
7A
100
AcDbEntity
8
1
62
256
6
ByLayer
370
-1
48
1
60
0
100
AcDbLine
10
82.473814
20
-14.12794
30
0
11
88.16917
21
7.089846
31
0
39
0
210
0
220
0
230
1
0
LINE
5
7B
100
AcDbEntity
8
1
62
256
6
ByLayer
370
-1
48
1
60
0
100
AcDbLine
10
65.278625
20
-4.87661
30
0
11
0
21
-4.87661
31
0
39
0
210
0
220
0
230
1
0
LINE
5
7C
100
AcDbEntity
8
1
62
256
6
ByLayer
370
-1
48
1
60
0
100
AcDbLine
10
0
20
4.87661
30
0
11
0
21
12.49125
31
0
39
0
210
0
220
0
230
1
0
LINE
5
7D
100
AcDbEntity
8
1
62
256
6
ByLayer
370
-1
48
1
60
0
100
AcDbLine
10
77.68382
20
12.49125
30
0
11
77.68382
21
11.666005
31
0
39
0
210
0
220
0
230
1
0
LINE
5
7E
100
AcDbEntity
8
SK1
62
256
6
ByLayer
370
-1
48
1
60
0
100
AcDbLine
10
0
20
12.49125
30
0
11
0
21
4.87661
31
0
39
0
210
0
220
0
230
1
0
LINE
5
7F
100
AcDbEntity
8
SK1
62
256
6
ByLayer
370
-1
48
1
60
0
100
AcDbLine
10
0
20
-4.87661
30
0
11
0
21
-10.00875
31
0
39
0
210
0
220
0
230
1
0
LINE
5
80
100
AcDbEntity
8
SK1
62
256
6
ByLayer
370
-1
48
1
60
0
100
AcDbLine
10
0
20
-4.87661
30
0
11
-199.32
21
-4.87661
31
0
39
0
210
0
220
0
230
1
0
LINE
5
81
100
AcDbEntity
8
SK1
62
256
6
ByLayer
370
-1
48
1
60
0
100
AcDbLine
10
-199.32
20
-10.00875
30
0
11
0
21
-10.00875
31
0
39
0
210
0
220
0
230
1
0
LINE
5
82
100
AcDbEntity
8
SK1
62
256
6
ByLayer
370
-1
48
1
60
0
100
AcDbLine
10
-201.32
20
10.49125
30
0
11
-201.32
21
-10.00875
31
0
39
0
210
0
220
0
230
1
0
LINE
5
83
100
AcDbEntity
8
SK1
62
256
6
ByLayer
370
-1
48
1
60
0
100
AcDbLine
10
-199.32
20
-4.87661
30
0
11
-199.32
21
-10.00875
31
0
39
0
210
0
220
0
230
1
0
LINE
5
84
100
AcDbEntity
8
SK1
62
256
6
ByLayer
370
-1
48
1
60
0
100
AcDbLine
10
-199.32
20
12.49125
30
0
11
-199.32
21
4.87661
31
0
39
0
210
0
220
0
230
1
0
LINE
5
85
100
AcDbEntity
8
SK1
62
256
6
ByLayer
370
-1
48
1
60
0
100
AcDbLine
10
0
20
-4.87661
30
0
11
0
21
4.87661
31
0
39
0
210
0
220
0
230
1
0
LINE
5
86
100
AcDbEntity
8
1
62
256
6
ByLayer
370
-1
48
1
60
0
100
AcDbLine
10
99.690377
20
-2.372729
30
0
11
99.929872
21
-16.093382
31
0
39
0
210
0
220
0
230
1
0
LINE
5
87
100
AcDbEntity
8
1
62
256
6
ByLayer
370
-1
48
1
60
0
100
AcDbLine
10
86.70364
20
-8.775329
30
0
11
98.487579
21
-1.707223
31
0
39
0
210
0
220
0
230
1
0
LINE
5
88
100
AcDbEntity
8
1
62
256
6
ByLayer
370
-1
48
1
60
0
100
AcDbLine
10
98.751033
20
-16.800459
30
0
11
86.727598
21
-10.147913
31
0
39
0
210
0
220
0
230
1
0
LINE
5
89
100
AcDbEntity
8
1
62
256
6
ByLayer
370
-1
48
1
60
0
100
AcDbLine
10
96.511475
20
-9.478282
30
0
11
96.512847
21
-9.556878
31
0
39
0
210
0
220
0
230
1
0
LINE
5
8A
100
AcDbEntity
8
1
62
256
6
ByLayer
370
-1
48
1
60
0
100
AcDbLine
10
93.593305
20
-9.521943
30
0
11
93.594675
21
-9.600435
31
0
39
0
210
0
220
0
230
1
0
LINE
5
8B
100
AcDbEntity
8
1
62
256
6
ByLayer
370
-1
48
1
60
0
100
AcDbLine
10
93.973258
20
-9.834934
30
0
11
93.972055
21
-9.766038
31
0
39
0
210
0
220
0
230
1
0
LINE
5
8C
100
AcDbEntity
8
1
62
256
6
ByLayer
370
-1
48
1
60
0
100
AcDbLine
10
95.997423
20
-8.079933
30
0
11
95.998793
21
-8.158425
31
0
39
0
210
0
220
0
230
1
0
LINE
5
8D
100
AcDbEntity
8
1
62
256
6
ByLayer
370
-1
48
1
60
0
100
AcDbLine
10
94.057776
20
-9.90845
30
0
11
94.058978
21
-9.977347
31
0
39
0
210
0
220
0
230
1
0
LINE
5
8E
100
AcDbEntity
8
1
62
256
6
ByLayer
370
-1
48
1
60
0
100
AcDbLine
10
94.052695
20
-8.113363
30
0
11
94.054067
21
-8.191959
31
0
39
0
210
0
220
0
230
1
0
LINE
5
8F
100
AcDbEntity
8
1
62
256
6
ByLayer
370
-1
48
1
60
0
100
AcDbLine
10
95.557419
20
-10.613258
30
0
11
95.558791
21
-10.691854
31
0
39
0
210
0
220
0
230
1
0
LINE
5
90
100
AcDbEntity
8
1
62
256
6
ByLayer
370
-1
48
1
60
0
100
AcDbLine
10
94.588807
20
-10.631515
30
0
11
94.590179
21
-10.71011
31
0
39
0
210
0
220
0
230
1
0
LINE
5
91
100
AcDbEntity
8
SK1
62
256
6
ByLayer
370
-1
48
1
60
0
100
AcDbLine
10
-199.32
20
4.87661
30
0
11
0
21
4.87661
31
0
39
0
210
0
220
0
230
1
0
LINE
5
92
100
AcDbEntity
8
2
62
256
6
ByLayer
370
-1
48
1
60
1
100
AcDbLine
10
99.93
20
0
30
0
11
99.931
21
0.001
31
0
39
0
210
0
220
0
230
1
0
MTEXT
5
E4
100
AcDbEntity
8
SK6
62
256
6
ByLayer
370
-1
48
1
60
0
100
AcDbMText
10
-47.32
20
19.209787
30
0
210
0
220
0
230
1
1
\W00.787;\fsimplex.shx,bigfont.shx;A25T-STFCL 16 
40
3.5
41
0
44
1.084337
50
0
71
7
72
5
7
DEFAULT
0
DIMENSION
5
117
100
AcDbEntity
8
2
62
256
6
ByLayer
370
-3
48
1
60
0
100
AcDbDimension
2
DimnDraft3D1
10
112.18
20
0
30
0
11
112.18
21
-13.050658
31
0
70
32
71
5
72
1
41
1
210
0
220
0
230
1
3
Standard
100
AcDbAlignedDimension
13
101.93
23
-16.9
33
0
14
101.93
24
0
34
0
50
90
100
AcDbRotatedDimension
1001
ACAD
1000
DSTYLE
1002
{
1070
    74
1070
     0
1070
   279
1070
     0
1070
   172
1070
     1
1070
   173
1070
     1
1070
   340
1005
E5
1070
    77
1070
     1
1070
    73
1070
     0
1070
   171
1070
     4
1070
   274
1070
     4
1070
   177
1070
     2
1070
   176
1070
     2
1070
   178
1070
     7
1070
    78
1070
     8
1070
    41
1041
3.175
1070
   147
1041
2.25
1070
    42
1041
2.0
1070
    44
1041
2.0
1070
   140
1041
4.5
1070
   343
1005
118
1070
   344
1005
118
1002
}
0
DIMENSION
5
12D
100
AcDbEntity
8
SK2
62
256
6
ByLayer
370
-3
48
1
60
0
100
AcDbDimension
2
DimnDraft3D2
10
-211.07
20
12.49125
30
0
11
-211.07
21
-4.784211
31
0
70
32
71
5
72
1
41
1
210
0
220
0
230
1
3
Standard
100
AcDbAlignedDimension
13
-203.32
23
-12.49125
33
0
14
-203.32
24
12.49125
34
0
50
90
100
AcDbRotatedDimension
1001
ACAD
1000
DSTYLE
1002
{
1070
    74
1070
     0
1070
   279
1070
     0
1070
   172
1070
     1
1070
   173
1070
     1
1070
   340
1005
E5
1070
    77
1070
     1
1070
    73
1070
     0
1070
   171
1070
     4
1070
   274
1070
     4
1070
   177
1070
     2
1070
   176
1070
     2
1070
   178
1070
     7
1070
    78
1070
     8
1070
    41
1041
3.175
1070
   147
1041
2.25
1070
    42
1041
2.0
1070
    44
1041
2.0
1070
   140
1041
4.5
1070
   343
1005
118
1070
   344
1005
118
1002
}
0
DIMENSION
5
13B
100
AcDbEntity
8
SK2
62
256
6
ByLayer
370
-3
48
1
60
0
100
AcDbDimension
2
DimnDraft3D3
10
99.93
20
-34.15
30
0
11
-57.510132
21
-34.15
31
0
70
32
71
5
72
1
41
1
210
0
220
0
230
1
3
Standard
100
AcDbAlignedDimension
13
-201.32
23
-14.49125
33
0
14
99.93
24
-18.9
34
0
50
0
100
AcDbRotatedDimension
1001
ACAD
1000
DSTYLE
1002
{
1070
   279
1070
     0
1070
   172
1070
     1
1070
   173
1070
     1
1070
   340
1005
E5
1070
    77
1070
     1
1070
    73
1070
     0
1070
   171
1070
     4
1070
   274
1070
     4
1070
   177
1070
     2
1070
   176
1070
     2
1070
   178
1070
     7
1070
    78
1070
     8
1070
    41
1041
3.175
1070
   147
1041
2.25
1070
    42
1041
2.0
1070
    44
1041
2.0
1070
   140
1041
4.5
1070
   343
1005
118
1070
   344
1005
118
1002
}
0
DIMENSION
5
149
100
AcDbEntity
8
2
62
256
6
ByLayer
370
-3
48
1
60
0
100
AcDbDimension
2
DimnDraft3D4
10
139.561416
20
0
30
0
11
123.652072
21
32.727109
31
0
70
34
71
5
72
1
41
1
210
0
220
0
230
1
3
Standard
100
AcDb2LineAngularDimension
13
99.615857
23
1.097259
33
0
14
98.938198
24
39.920326
34
0
15
101.93
25
0
35
0
16
129.372071
26
30.260654
36
0
40
0
0
ENDSEC
0
SECTION
2
OBJECTS
0
DICTIONARY
5
17a
330
0
100
AcDbDictionary
280
0
281
1
3
ACAD_GROUP
350
17b
3
ACAD_MLINESTYLE
350
17c
0
DICTIONARY
5
17b
330
0
100
AcDbDictionary
280
0
281
1
0
DICTIONARY
5
17c
330
0
100
AcDbDictionary
280
0
281
1
3
Standard
350
18
0
MLINESTYLE
5
18
330
17c
100
AcDbMlineStyle
2
Standard
70
0
3

62
256
51
90
52
90
71
2
49
-0.5
62
256
6
ByLayer
49
0.5
62
256
6
ByLayer
0
RASTERVARIABLES
5
168
330

100
AcDbRasterVariables
90
0
70
1
71
1
72
1
0
ENDSEC
0
EOF
