0
SECTION
2
HEADER
9
$ACADVER
1
AC1015
9
$DWGCODEPAGE
3
ANSI_1252
9
$HANDSEED
5
16f
9
$ANGBASE
50
0
9
$ANGDIR
70
0
9
$ATTMODE
70
1
9
$AUNITS
70
0
9
$AUPREC
70
0
9
$CECOLOR
62
256
9
$CELTSCALE
40
1
9
$CELTYPE
6
ByLayer
9
$CELWEIGHT
370
-1
9
$CLAYER
8
0
9
$CMLJUST
70
0
9
$CMLSCALE
40
1
9
$CMLSTYLE
2
Standard
9
$DIMSTYLE
2
Standard
9
$TEXTSIZE
40
0.2
9
$TEXTSTYLE
7
Standard
9
$LUNITS
70
2
9
$LUPREC
70
4
9
$EXTNAMES
290
1
9
$INSUNITS
70
4
9
$LTSCALE
40
1
9
$LWDISPLAY
290
0
9
$PDMODE
70
0
9
$PDSIZE
40
0
9
$PLINEGEN
70
0
0
ENDSEC
0
SECTION
2
CLASSES
0
CLASS
1
RASTERVARIABLES
2
AcDbRasterVariables
3
ISM
90
0
280
0
281
0
0
ENDSEC
0
SECTION
2
TABLES
0
TABLE
2
VPORT
5
165
100
AcDbSymbolTable
0
VPORT
5
1
100
AcDbSymbolTableRecord
100
AcDbViewportTableRecord
2
*Active
70
0
10
0
20
0
11
1
21
1
12
-1
22
1
13
0
23
0
14
0.5
24
0.5
15
10
25
10
16
0
26
0
36
1
17
0
27
0
37
0
0
ENDTAB
0
TABLE
2
LTYPE
5
166
100
AcDbSymbolTable
0
LTYPE
5
14
100
AcDbSymbolTableRecord
100
AcDbLinetypeTableRecord
70
0
2
ByBlock
3

72
65
73
0
40
0
0
LTYPE
5
15
100
AcDbSymbolTableRecord
100
AcDbLinetypeTableRecord
70
0
2
ByLayer
3

72
65
73
0
40
0
0
LTYPE
5
16
100
AcDbSymbolTableRecord
100
AcDbLinetypeTableRecord
70
0
2
CONTINUOUS
3
Solid line
72
65
73
0
40
0
0
LTYPE
5
3B
100
AcDbSymbolTableRecord
100
AcDbLinetypeTableRecord
70
0
2
DASHED
3
__ __ __ __ __ __ __ __ __
72
65
73
2
40
25.72
49
12.86
74
0
49
-12.86
74
0
0
LTYPE
5
3C
100
AcDbSymbolTableRecord
100
AcDbLinetypeTableRecord
70
0
2
HIDDEN
3
_ _ _ _ _ _ _ _ _ _ _ _ _ _ _
72
65
73
2
40
0.5
49
0.25
74
0
49
-0.25
74
0
0
LTYPE
5
3D
100
AcDbSymbolTableRecord
100
AcDbLinetypeTableRecord
70
0
2
PHANTOM
3
____ _ _ ____ _ _ _____ _ _ ____
72
65
73
6
40
50.5
49
18
74
0
49
-6.5
74
0
49
6.5
74
0
49
-6.5
74
0
49
6.5
74
0
49
-6.5
74
0
0
LTYPE
5
3E
100
AcDbSymbolTableRecord
100
AcDbLinetypeTableRecord
70
0
2
CENTER
3
____ _ ____ _ ____ _ ____
72
65
73
4
40
47.5
49
22
74
0
49
-8.5
74
0
49
8.5
74
0
49
-8.5
74
0
0
LTYPE
5
3F
100
AcDbSymbolTableRecord
100
AcDbLinetypeTableRecord
70
0
2
DOT
3
.........................
72
65
73
2
40
10
49
0
74
0
49
-10
74
0
0
LTYPE
5
40
100
AcDbSymbolTableRecord
100
AcDbLinetypeTableRecord
70
0
2
DASHDOT
3
_._._._._._._._._._._._._._._._.
72
65
73
4
40
70
49
31
74
0
49
-13
74
0
49
13
74
0
49
-13
74
0
0
ENDTAB
0
TABLE
2
LAYER
5
167
100
AcDbSymbolTable
0
LAYER
5
10
100
AcDbSymbolTableRecord
100
AcDbLayerTableRecord
2
0
70
0
62
7
6
CONTINUOUS
290
1
370
-3
390
0
0
LAYER
5
42
100
AcDbSymbolTableRecord
100
AcDbLayerTableRecord
2
1
70
0
62
4
6
CONTINUOUS
290
1
370
-3
390
0
0
LAYER
5
44
100
AcDbSymbolTableRecord
100
AcDbLayerTableRecord
2
2
70
0
62
7
6
CONTINUOUS
290
1
370
-3
390
0
0
LAYER
5
46
100
AcDbSymbolTableRecord
100
AcDbLayerTableRecord
2
80
70
0
62
-6
6
CONTINUOUS
290
1
370
-3
390
0
0
LAYER
5
48
100
AcDbSymbolTableRecord
100
AcDbLayerTableRecord
2
81
70
0
62
-3
6
CONTINUOUS
290
1
370
-3
390
0
0
LAYER
5
56
100
AcDbSymbolTableRecord
100
AcDbLayerTableRecord
2
4
70
0
62
-2
6
CENTER
290
1
370
-3
390
0
0
LAYER
5
151
100
AcDbSymbolTableRecord
100
AcDbLayerTableRecord
2
SK1
70
0
62
4
6
CONTINUOUS
290
1
370
-3
390
0
0
LAYER
5
152
100
AcDbSymbolTableRecord
100
AcDbLayerTableRecord
2
SK4
70
0
62
2
6
CENTER
290
1
370
-3
390
0
0
LAYER
5
153
100
AcDbSymbolTableRecord
100
AcDbLayerTableRecord
2
SK6
70
0
62
5
6
CONTINUOUS
290
1
370
-3
390
0
0
LAYER
5
154
100
AcDbSymbolTableRecord
100
AcDbLayerTableRecord
2
SK2
70
0
62
7
6
CONTINUOUS
290
1
370
-3
390
0
0
ENDTAB
0
TABLE
2
STYLE
5
168
100
AcDbSymbolTable
0
STYLE
5
11
100
AcDbSymbolTableRecord
100
AcDbTextStyleTableRecord
2
Standard
3
txt
70
0
71
0
40
0
41
1
42
0
50
0
0
STYLE
5
CD
100
AcDbSymbolTableRecord
100
AcDbTextStyleTableRecord
2
DEFAULT
3
simplex.shx
70
0
71
0
40
0
41
1
42
0
50
0
0
STYLE
5
F0
100
AcDbSymbolTableRecord
100
AcDbTextStyleTableRecord
2
DWGDirectTextStyle
3
SIMPLEX
70
0
71
0
40
0
41
1
42
0
50
0
0
ENDTAB
0
TABLE
2
DIMSTYLE
5
169
100
AcDbSymbolTable
100
AcDbDimStyleTable
0
DIMSTYLE
105
27
100
AcDbSymbolTableRecord
100
AcDbDimStyleTableRecord
2
Standard
70
0
3
<>
41
0.18
42
0.0625
44
0.18
140
0.18
147
0.09
73
0
74
0
77
1
271
2
275
0
278
52
280
0
340
11
0
ENDTAB
0
TABLE
2
VIEW
5
16a
100
AcDbSymbolTable
0
ENDTAB
0
TABLE
2
UCS
5
16b
100
AcDbSymbolTable
0
ENDTAB
0
TABLE
2
APPID
5
16c
100
AcDbSymbolTable
0
APPID
5
12
100
AcDbSymbolTableRecord
100
AcDbRegAppTableRecord
2
ACAD
70
0
0
ENDTAB
0
TABLE
2
BLOCK_RECORD
5
16d
100
AcDbSymbolTable
0
BLOCK_RECORD
5
1F
100
AcDbSymbolTableRecord
100
AcDbBlockTableRecord
2
*Model_Space
340
0
70
0
0
BLOCK_RECORD
5
1B
100
AcDbSymbolTableRecord
100
AcDbBlockTableRecord
2
*Paper_Space
340
0
70
0
0
BLOCK_RECORD
5
23
100
AcDbSymbolTableRecord
100
AcDbBlockTableRecord
2
*Paper_Space0
340
0
70
0
0
BLOCK_RECORD
5
F2
100
AcDbSymbolTableRecord
100
AcDbBlockTableRecord
2
DimnDraft3D1
340
0
70
0
0
BLOCK_RECORD
5
100
100
AcDbSymbolTableRecord
100
AcDbBlockTableRecord
2
_CLOSED
340
0
70
0
0
BLOCK_RECORD
5
107
100
AcDbSymbolTableRecord
100
AcDbBlockTableRecord
2
DimnDraft3D2
340
0
70
0
0
BLOCK_RECORD
5
116
100
AcDbSymbolTableRecord
100
AcDbBlockTableRecord
2
DimnDraft3D3
340
0
70
0
0
BLOCK_RECORD
5
124
100
AcDbSymbolTableRecord
100
AcDbBlockTableRecord
2
DimnDraft3D4
340
0
70
0
0
ENDTAB
0
ENDSEC
0
SECTION
2
BLOCKS
0
BLOCK
5
20
100
AcDbEntity
8
0
100
AcDbBlockBegin
2
*Model_Space
70
0
10
0
20
0
30
0
3
*Model_Space
0
ENDBLK
5
21
100
AcDbEntity
8
0
100
AcDbBlockEnd
0
BLOCK
5
1C
100
AcDbEntity
8
0
100
AcDbBlockBegin
2
*Paper_Space
70
0
10
0
20
0
30
0
3
*Paper_Space
0
ENDBLK
5
1D
100
AcDbEntity
8
0
100
AcDbBlockEnd
0
BLOCK
5
24
100
AcDbEntity
8
0
100
AcDbBlockBegin
2
*Paper_Space0
70
0
10
0
20
0
30
0
3
*Paper_Space0
0
ENDBLK
5
25
100
AcDbEntity
8
0
100
AcDbBlockEnd
0
BLOCK
5
FD
100
AcDbEntity
8
0
100
AcDbBlockBegin
2
DimnDraft3D1
70
0
10
0
20
0
30
0
3
DimnDraft3D1
0
MTEXT
5
F3
100
AcDbEntity
8
2
62
256
6
ByLayer
370
-1
48
1
60
0
100
AcDbMText
10
111.055
20
-11.925658
30
0
210
0
220
0
230
1
1
\W01.000;\fsimplex.shx,bigfont.shx;17.0 
40
4.5
41
0
44
1.084337
50
90
71
7
72
5
7
DEFAULT
0
LINE
5
F4
100
AcDbEntity
8
2
62
256
6
ByLayer
370
-1
48
1
60
0
100
AcDbLine
10
101.93
20
-16.9
30
0
11
114.18
21
-16.9
31
0
39
0
210
0
220
0
230
1
0
LINE
5
F5
100
AcDbEntity
8
2
62
256
6
ByLayer
370
-1
48
1
60
0
100
AcDbLine
10
101.93
20
0
30
0
11
114.18
21
0
31
0
39
0
210
0
220
0
230
1
0
LINE
5
F6
100
AcDbEntity
8
2
62
256
6
ByLayer
370
-1
48
1
60
0
100
AcDbLine
10
112.18
20
-28.15
30
0
11
112.18
21
11.25
31
0
39
0
210
0
220
0
230
1
0
LINE
5
F7
100
AcDbEntity
8
2
62
256
6
ByLayer
370
-1
48
1
60
0
100
AcDbLine
10
112.18
20
-16.9
30
0
11
112.597997
21
-20.074998
31
0
39
0
210
0
220
0
230
1
0
LINE
5
F8
100
AcDbEntity
8
2
62
256
6
ByLayer
370
-1
48
1
60
0
100
AcDbLine
10
112.18
20
-16.9
30
0
11
111.762003
21
-20.075002
31
0
39
0
210
0
220
0
230
1
0
LINE
5
F9
100
AcDbEntity
8
2
62
256
6
ByLayer
370
-1
48
1
60
0
100
AcDbLine
10
112.597997
20
-20.074998
30
0
11
111.762003
21
-20.075002
31
0
39
0
210
0
220
0
230
1
0
LINE
5
FA
100
AcDbEntity
8
2
62
256
6
ByLayer
370
-1
48
1
60
0
100
AcDbLine
10
112.18
20
0
30
0
11
111.762003
21
3.174998
31
0
39
0
210
0
220
0
230
1
0
LINE
5
FB
100
AcDbEntity
8
2
62
256
6
ByLayer
370
-1
48
1
60
0
100
AcDbLine
10
112.18
20
0
30
0
11
112.597997
21
3.175002
31
0
39
0
210
0
220
0
230
1
0
LINE
5
FC
100
AcDbEntity
8
2
62
256
6
ByLayer
370
-1
48
1
60
0
100
AcDbLine
10
111.762003
20
3.174998
30
0
11
112.597997
21
3.175002
31
0
39
0
210
0
220
0
230
1
0
ENDBLK
5
FE
100
AcDbEntity
8
0
100
AcDbBlockEnd
0
BLOCK
5
101
100
AcDbEntity
8
0
100
AcDbBlockBegin
2
_CLOSED
70
0
10
0
20
0
30
0
3
_CLOSED
0
LINE
5
103
100
AcDbEntity
8
0
62
256
6
ByLayer
370
-2
48
1
60
0
100
AcDbLine
10
-1
20
0.166667
30
0
11
0
21
0
31
0
39
0
210
0
220
0
230
1
0
LINE
5
104
100
AcDbEntity
8
0
62
256
6
ByLayer
370
-2
48
1
60
0
100
AcDbLine
10
0
20
0
30
0
11
-1
21
-0.166667
31
0
39
0
210
0
220
0
230
1
0
LINE
5
105
100
AcDbEntity
8
0
62
256
6
ByLayer
370
-2
48
1
60
0
100
AcDbLine
10
-1
20
0.166667
30
0
11
-1
21
-0.166667
31
0
39
0
210
0
220
0
230
1
0
LINE
5
106
100
AcDbEntity
8
0
62
256
6
ByLayer
370
-2
48
1
60
0
100
AcDbLine
10
0
20
0
30
0
11
-1
21
0
31
0
39
0
210
0
220
0
230
1
0
ENDBLK
5
102
100
AcDbEntity
8
0
100
AcDbBlockEnd
0
BLOCK
5
113
100
AcDbEntity
8
0
100
AcDbBlockBegin
2
DimnDraft3D2
70
0
10
0
20
0
30
0
3
DimnDraft3D2
0
MTEXT
5
108
100
AcDbEntity
8
SK2
62
256
6
ByLayer
370
-1
48
1
60
0
100
AcDbMText
10
-212.195
20
-3.659211
30
0
210
0
220
0
230
1
1
\W01.000;\fsimplex.shx,bigfont.shx;%%c25 
40
4.5
41
0
44
1.084337
50
90
71
7
72
5
7
DEFAULT
0
LINE
5
10A
100
AcDbEntity
8
SK2
62
256
6
ByLayer
370
-1
48
1
60
0
100
AcDbLine
10
-203.32
20
-12.49125
30
0
11
-213.07
21
-12.49125
31
0
39
0
210
0
220
0
230
1
0
LINE
5
10B
100
AcDbEntity
8
SK2
62
256
6
ByLayer
370
-1
48
1
60
0
100
AcDbLine
10
-203.32
20
12.49125
30
0
11
-213.07
21
12.49125
31
0
39
0
210
0
220
0
230
1
0
LINE
5
10C
100
AcDbEntity
8
SK2
62
256
6
ByLayer
370
-1
48
1
60
0
100
AcDbLine
10
-211.07
20
-12.49125
30
0
11
-211.07
21
12.49125
31
0
39
0
210
0
220
0
230
1
0
LINE
5
10D
100
AcDbEntity
8
SK2
62
256
6
ByLayer
370
-1
48
1
60
0
100
AcDbLine
10
-211.07
20
-12.49125
30
0
11
-211.487997
21
-9.316252
31
0
39
0
210
0
220
0
230
1
0
LINE
5
10E
100
AcDbEntity
8
SK2
62
256
6
ByLayer
370
-1
48
1
60
0
100
AcDbLine
10
-211.07
20
-12.49125
30
0
11
-210.652003
21
-9.316248
31
0
39
0
210
0
220
0
230
1
0
LINE
5
10F
100
AcDbEntity
8
SK2
62
256
6
ByLayer
370
-1
48
1
60
0
100
AcDbLine
10
-211.487997
20
-9.316252
30
0
11
-210.652003
21
-9.316248
31
0
39
0
210
0
220
0
230
1
0
LINE
5
110
100
AcDbEntity
8
SK2
62
256
6
ByLayer
370
-1
48
1
60
0
100
AcDbLine
10
-211.07
20
12.49125
30
0
11
-210.652003
21
9.316252
31
0
39
0
210
0
220
0
230
1
0
LINE
5
111
100
AcDbEntity
8
SK2
62
256
6
ByLayer
370
-1
48
1
60
0
100
AcDbLine
10
-211.07
20
12.49125
30
0
11
-211.487997
21
9.316248
31
0
39
0
210
0
220
0
230
1
0
LINE
5
112
100
AcDbEntity
8
SK2
62
256
6
ByLayer
370
-1
48
1
60
0
100
AcDbLine
10
-210.652003
20
9.316252
30
0
11
-211.487997
21
9.316248
31
0
39
0
210
0
220
0
230
1
0
ENDBLK
5
114
100
AcDbEntity
8
0
100
AcDbBlockEnd
0
BLOCK
5
121
100
AcDbEntity
8
0
100
AcDbBlockBegin
2
DimnDraft3D3
70
0
10
0
20
0
30
0
3
DimnDraft3D3
0
MTEXT
5
117
100
AcDbEntity
8
SK2
62
256
6
ByLayer
370
-1
48
1
60
0
100
AcDbMText
10
-56.385132
20
-33.025
30
0
210
0
220
0
230
1
1
\W01.000;\fsimplex.shx,bigfont.shx;300.0 
40
4.5
41
0
44
1.084337
50
0
71
7
72
5
7
DEFAULT
0
LINE
5
118
100
AcDbEntity
8
SK2
62
256
6
ByLayer
370
-1
48
1
60
0
100
AcDbLine
10
-201.32
20
-14.49125
30
0
11
-201.32
21
-36.15
31
0
39
0
210
0
220
0
230
1
0
LINE
5
119
100
AcDbEntity
8
SK2
62
256
6
ByLayer
370
-1
48
1
60
0
100
AcDbLine
10
99.93
20
-18.9
30
0
11
99.93
21
-36.15
31
0
39
0
210
0
220
0
230
1
0
LINE
5
11A
100
AcDbEntity
8
SK2
62
256
6
ByLayer
370
-1
48
1
60
0
100
AcDbLine
10
-201.32
20
-34.15
30
0
11
99.93
21
-34.15
31
0
39
0
210
0
220
0
230
1
0
LINE
5
11B
100
AcDbEntity
8
SK2
62
256
6
ByLayer
370
-1
48
1
60
0
100
AcDbLine
10
-201.32
20
-34.15
30
0
11
-198.145002
21
-33.732003
31
0
39
0
210
0
220
0
230
1
0
LINE
5
11C
100
AcDbEntity
8
SK2
62
256
6
ByLayer
370
-1
48
1
60
0
100
AcDbLine
10
-201.32
20
-34.15
30
0
11
-198.144998
21
-34.567997
31
0
39
0
210
0
220
0
230
1
0
LINE
5
11D
100
AcDbEntity
8
SK2
62
256
6
ByLayer
370
-1
48
1
60
0
100
AcDbLine
10
-198.145002
20
-33.732003
30
0
11
-198.144998
21
-34.567997
31
0
39
0
210
0
220
0
230
1
0
LINE
5
11E
100
AcDbEntity
8
SK2
62
256
6
ByLayer
370
-1
48
1
60
0
100
AcDbLine
10
99.93
20
-34.15
30
0
11
96.755002
21
-34.567997
31
0
39
0
210
0
220
0
230
1
0
LINE
5
11F
100
AcDbEntity
8
SK2
62
256
6
ByLayer
370
-1
48
1
60
0
100
AcDbLine
10
99.93
20
-34.15
30
0
11
96.754998
21
-33.732003
31
0
39
0
210
0
220
0
230
1
0
LINE
5
120
100
AcDbEntity
8
SK2
62
256
6
ByLayer
370
-1
48
1
60
0
100
AcDbLine
10
96.755002
20
-34.567997
30
0
11
96.754998
21
-33.732003
31
0
39
0
210
0
220
0
230
1
0
ENDBLK
5
122
100
AcDbEntity
8
0
100
AcDbBlockEnd
0
BLOCK
5
12F
100
AcDbEntity
8
0
100
AcDbBlockBegin
2
DimnDraft3D4
70
0
10
0
20
0
30
0
3
DimnDraft3D4
0
MTEXT
5
125
100
AcDbEntity
8
2
62
256
6
ByLayer
370
-1
48
1
60
0
100
AcDbMText
10
138.559893
20
26.145115
30
0
210
0
220
0
230
1
1
\W01.000;\fsimplex.shx,bigfont.shx;62%%d27' 
40
4.5
41
0
44
1.084337
50
301.2290214
71
7
72
5
7
DEFAULT
0
LINE
5
126
100
AcDbEntity
8
2
62
256
6
ByLayer
370
-1
48
1
60
0
100
AcDbLine
10
105.941175
20
-5.373258
30
0
11
127.205211
21
35.401645
31
0
39
0
210
0
220
0
230
1
0
LINE
5
127
100
AcDbEntity
8
2
62
256
6
ByLayer
370
-1
48
1
60
0
100
AcDbLine
10
101.93
20
0
30
0
11
148.669725
21
0
31
0
39
0
210
0
220
0
230
1
0
ARC
5
128
100
AcDbEntity
8
2
62
256
6
ByLayer
370
-1
48
1
60
0
100
AcDbCircle
39
0
10
108.743319
20
0
30
0
40
37.9264068640929
210
0
220
0
230
1
100
AcDbArc
50
0
51
62.458043
0
LINE
5
129
100
AcDbEntity
8
2
62
256
6
ByLayer
370
-1
48
1
60
0
100
AcDbLine
10
126.280415
20
33.628301
30
0
11
129.265267
21
32.468132
31
0
39
0
210
0
220
0
230
1
0
LINE
5
12A
100
AcDbEntity
8
2
62
256
6
ByLayer
370
-1
48
1
60
0
100
AcDbLine
10
126.280415
20
33.628301
30
0
11
128.86329
21
31.735125
31
0
39
0
210
0
220
0
230
1
0
LINE
5
12B
100
AcDbEntity
8
2
62
256
6
ByLayer
370
-1
48
1
60
0
100
AcDbLine
10
129.265267
20
32.468132
30
0
11
128.86329
21
31.735125
31
0
39
0
210
0
220
0
230
1
0
LINE
5
12C
100
AcDbEntity
8
2
62
256
6
ByLayer
370
-1
48
1
60
0
100
AcDbLine
10
146.669725
20
0
30
0
11
146.185415
21
3.165562
31
0
39
0
210
0
220
0
230
1
0
LINE
5
12D
100
AcDbEntity
8
2
62
256
6
ByLayer
370
-1
48
1
60
0
100
AcDbLine
10
146.669725
20
0
30
0
11
147.021226
21
3.183049
31
0
39
0
210
0
220
0
230
1
0
LINE
5
12E
100
AcDbEntity
8
2
62
256
6
ByLayer
370
-1
48
1
60
0
100
AcDbLine
10
146.185415
20
3.165562
30
0
11
147.021226
21
3.183049
31
0
39
0
210
0
220
0
230
1
0
ENDBLK
5
130
100
AcDbEntity
8
0
100
AcDbBlockEnd
0
ENDSEC
0
SECTION
2
ENTITIES
0
ELLIPSE
5
81
100
AcDbEntity
8
1
62
256
6
ByLayer
370
-1
48
1
60
0
100
AcDbEllipse
10
106.206449
20
-9.834659
30
0
11
3.19144409657232
21
-0.247148675215139
31
0
210
0
220
0
230
-1
40
0.997972
41
-2.17944385574479
42
-1.87809420861134
0
ELLIPSE
5
82
100
AcDbEntity
8
1
62
256
6
ByLayer
370
-1
48
1
60
0
100
AcDbEllipse
10
95.52061
20
-3.344141
30
0
11
57.1880756302033
21
56.0642569049145
31
0
210
0
220
0
230
-1
40
0.008336
41
-1.69845070177926
42
-1.65457288096963
0
ELLIPSE
5
83
100
AcDbEntity
8
1
62
256
6
ByLayer
370
-1
48
1
60
0
100
AcDbEllipse
10
99.448341
20
1.931557
30
0
11
1.5
21
0
31
0
210
0
220
0
230
1
40
0.998215
41
-3.05765304662108
42
-2.31152448858993
0
ELLIPSE
5
84
100
AcDbEntity
8
1
62
256
6
ByLayer
370
-1
48
1
60
0
100
AcDbEllipse
10
99.448341
20
1.931557
30
0
11
1.5
21
0
31
0
210
0
220
0
230
1
40
0.998215
41
-0.829969326174482
42
-0.0838413409287139
0
ELLIPSE
5
85
100
AcDbEntity
8
1
62
256
6
ByLayer
370
-1
48
1
60
0
100
AcDbEllipse
10
98.970516
20
-0.158703
30
0
11
-1.625
21
1.98998532496136E-16
31
0
210
0
220
0
230
1
40
0.998215
41
-0.978329082231929
42
0.479965544298441
0
ELLIPSE
5
86
100
AcDbEntity
8
1
62
256
6
ByLayer
370
-1
48
1
60
0
100
AcDbEllipse
10
98.970516
20
-0.027298
30
0
11
-1.625
21
1.98998532496136E-16
31
0
210
0
220
0
230
1
40
0.998215
41
0.0404948306800545
42
0.479965544298441
0
ELLIPSE
5
87
100
AcDbEntity
8
1
62
256
6
ByLayer
370
-1
48
1
60
0
100
AcDbEllipse
10
99.448341
20
1.892733
30
0
11
1.5
21
0
31
0
210
0
220
0
230
1
40
0.998215
41
-2.74788581337144
42
-2.32394432845666
0
ELLIPSE
5
88
100
AcDbEntity
8
1
62
256
6
ByLayer
370
-1
48
1
60
0
100
AcDbEllipse
10
92.51642
20
-9.833266
30
0
11
3.19144420896068
21
-0.247147306586276
31
0
210
0
220
0
230
-1
40
0.997972
41
-1.20116729005496
42
-1.06804576299805
0
ELLIPSE
5
89
100
AcDbEntity
8
1
62
256
6
ByLayer
370
-1
48
1
60
0
100
AcDbEllipse
10
99.448341
20
1.680687
30
0
11
-1.5
21
1.83690953073357E-16
31
0
210
0
220
0
230
1
40
0.998215
41
2.39259169662641
42
0.290835473263249
0
ELLIPSE
5
8A
100
AcDbEntity
8
1
62
256
6
ByLayer
370
-1
48
1
60
0
100
AcDbEllipse
10
98.970516
20
-0.239345
30
0
11
1.77484750859772
21
0
31
0
210
0
220
0
230
1
40
0.998215
41
2.14174533126768
42
-2.66162710929135
0
ELLIPSE
5
8B
100
AcDbEntity
8
1
62
256
6
ByLayer
370
-1
48
1
60
0
100
AcDbEllipse
10
-37.55924
20
-499.118121
30
0
11
182.895499326425
21
681.356616556725
31
0
210
3.20474742746036E-31
220
1.38875090641594E-16
230
1
40
0.057694
41
0.753799647513385
42
0.774824019802462
0
ELLIPSE
5
8C
100
AcDbEntity
8
1
62
256
6
ByLayer
370
-1
48
1
60
0
100
AcDbEllipse
10
99.448341
20
-7.45788
30
0
11
2.94486584643909
21
0
31
0
210
0
220
0
230
1
40
0.998215
41
0
42
6.28318530717959
0
ELLIPSE
5
8D
100
AcDbEntity
8
1
62
256
6
ByLayer
370
-1
48
1
60
0
100
AcDbEllipse
10
103.922356
20
-7.527968
30
0
11
0.794000000000092
21
0
31
0
210
0
220
0
230
1
40
0.998215
41
-0.479965544298341
42
0.47996554429846
0
ELLIPSE
5
8E
100
AcDbEntity
8
1
62
256
6
ByLayer
370
-1
48
1
60
0
100
AcDbEllipse
10
94.974325
20
-7.527968
30
0
11
0.794000000000092
21
0
31
0
210
0
220
0
230
1
40
0.998215
41
2.66162710929142
42
-2.66162710929133
0
ELLIPSE
5
8F
100
AcDbEntity
8
1
62
256
6
ByLayer
370
-1
48
1
60
0
100
AcDbEllipse
10
99.448341
20
-7.527968
30
0
11
3.07132534818237
21
0
31
0
210
0
220
0
230
1
40
0.998215
41
0
42
6.28318530717959
0
ELLIPSE
5
90
100
AcDbEntity
8
1
62
256
6
ByLayer
370
-1
48
1
60
0
100
AcDbEllipse
10
99.448341
20
1.05119
30
0
11
0.794000000000024
21
0
31
0
210
0
220
0
230
1
40
0.998215
41
0.479965544298607
42
2.66162710929134
0
ELLIPSE
5
91
100
AcDbEntity
8
1
62
256
6
ByLayer
370
-1
48
1
60
0
100
AcDbEllipse
10
99.448341
20
-16.107127
30
0
11
0.794000000000024
21
0
31
0
210
0
220
0
230
1
40
0.998215
41
-2.66162710929132
42
-0.479965544298316
0
ELLIPSE
5
92
100
AcDbEntity
8
1
62
256
6
ByLayer
370
-1
48
1
60
0
100
AcDbEllipse
10
99.448341
20
-7.467044
30
0
11
2.99999999999998
21
0
31
0
210
0
220
0
230
1
40
0.998215
41
0
42
6.28318530717959
0
ELLIPSE
5
93
100
AcDbEntity
8
1
62
256
6
ByLayer
370
-1
48
1
60
0
100
AcDbEllipse
10
99.448341
20
-7.501596
30
0
11
1.2065
21
0
31
0
210
0
220
0
230
1
40
0.998215
41
-0.0690326334119477
42
0.0690326334118968
0
ELLIPSE
5
94
100
AcDbEntity
8
1
62
256
6
ByLayer
370
-1
48
1
60
0
100
AcDbEllipse
10
99.448341
20
-7.432689
30
0
11
1.2065
21
0
31
0
210
0
220
0
230
1
40
0.998215
41
-1.04859282503728
42
-0.147305894153946
0
ELLIPSE
5
95
100
AcDbEntity
8
1
62
256
6
ByLayer
370
-1
48
1
60
0
100
AcDbEllipse
10
98.251265
20
-8.12704
30
0
11
-0.292
21
3.57585055316134E-17
31
0
210
0
220
0
230
1
40
0.998215
41
0.0955156726183173
42
1.83258346865801
0
ELLIPSE
5
96
100
AcDbEntity
8
1
62
256
6
ByLayer
370
-1
48
1
60
0
100
AcDbEllipse
10
100.392303
20
-9.070032
30
0
11
-0.686
21
8.40079958722151E-17
31
0
210
0
220
0
230
1
40
0.998215
41
-1.83258346865804
42
-1.04859282503724
0
ELLIPSE
5
97
100
AcDbEntity
8
1
62
256
6
ByLayer
370
-1
48
1
60
0
100
AcDbEllipse
10
99.448341
20
-7.432689
30
0
11
-1.2065
21
1.4774875658867E-16
31
0
210
0
220
0
230
1
40
0.998215
41
1.04859282503728
42
2.09299982855251
0
ELLIPSE
5
98
100
AcDbEntity
8
1
62
256
6
ByLayer
370
-1
48
1
60
0
100
AcDbEllipse
10
97.563781
20
-7.432689
30
0
11
-0.686
21
8.40079958722151E-17
31
0
210
0
220
0
230
1
40
0.998215
41
-3.01997861237283
42
-2.35033131866855
0
ELLIPSE
5
99
100
AcDbEntity
8
1
62
256
6
ByLayer
370
-1
48
1
60
0
100
AcDbEllipse
10
99.448341
20
-8.814717
30
0
11
-0.292
21
3.57585055316134E-17
31
0
210
0
220
0
230
1
40
0.998215
41
0.264602181416602
42
2.87699047217313
0
ELLIPSE
5
9A
100
AcDbEntity
8
1
62
256
6
ByLayer
370
-1
48
1
60
0
100
AcDbEllipse
10
99.448341
20
-7.501352
30
0
11
2.625
21
0
31
0
210
0
220
0
230
1
40
0.998215
41
0
42
6.28318530717959
0
ELLIPSE
5
9B
100
AcDbEntity
8
1
62
256
6
ByLayer
370
-1
48
1
60
0
100
AcDbEllipse
10
99.448341
20
-7.434182
30
0
11
2.625
21
0
31
0
210
0
220
0
230
1
40
0.998215
41
0
42
3.14159246618975
0
ELLIPSE
5
9C
100
AcDbEntity
8
1
62
256
6
ByLayer
370
-1
48
1
60
0
100
AcDbEllipse
10
99.448341
20
-7.517803
30
0
11
1.8
21
0
31
0
210
0
220
0
230
1
40
0.998215
41
0
42
6.28318530717959
0
ELLIPSE
5
9D
100
AcDbEntity
8
1
62
256
6
ByLayer
370
-1
48
1
60
0
100
AcDbEllipse
10
99.448341
20
-7.517803
30
0
11
1.6765
21
0
31
0
210
0
220
0
230
1
40
0.998215
41
-0.526389323279677
42
0.526389323279626
0
ELLIPSE
5
9E
100
AcDbEntity
8
1
62
256
6
ByLayer
370
-1
48
1
60
0
100
AcDbEllipse
10
98.504378
20
-9.070032
30
0
11
-0.686
21
8.40079958722151E-17
31
0
210
0
220
0
230
1
40
0.998215
41
-2.87699047217334
42
-2.09299982855255
0
ELLIPSE
5
9F
100
AcDbEntity
8
1
62
256
6
ByLayer
370
-1
48
1
60
0
100
AcDbEllipse
10
99.448341
20
-7.517803
30
0
11
1.6765
21
0
31
0
210
0
220
0
230
1
40
0.998215
41
2.61520333031017
42
-2.61520333031012
0
ELLIPSE
5
A0
100
AcDbEntity
8
1
62
256
6
ByLayer
370
-1
48
1
60
0
100
AcDbEllipse
10
99.448341
20
-7.517803
30
0
11
1.6765
21
0
31
0
210
0
220
0
230
1
40
0.998215
41
0.526389323279626
42
1.5707963267949
0
ELLIPSE
5
A1
100
AcDbEntity
8
1
62
256
6
ByLayer
370
-1
48
1
60
0
100
AcDbEllipse
10
99.448341
20
-7.517803
30
0
11
1.6765
21
0
31
0
210
0
220
0
230
1
40
0.998215
41
1.5707963267949
42
2.61520333031017
0
ELLIPSE
5
A2
100
AcDbEntity
8
1
62
256
6
ByLayer
370
-1
48
1
60
0
100
AcDbEllipse
10
100.392303
20
-9.070032
30
0
11
-0.686
21
8.40079958722151E-17
31
0
210
0
220
0
230
1
40
0.998215
41
-1.04859282503724
42
-0.264602181416414
0
ELLIPSE
5
A3
100
AcDbEntity
8
1
62
256
6
ByLayer
370
-1
48
1
60
0
100
AcDbEllipse
10
99.448341
20
-7.432689
30
0
11
-1.2065
21
1.4774875658867E-16
31
0
210
0
220
0
230
1
40
0.998215
41
0.149723709391681
42
1.04859282503728
0
ELLIPSE
5
A4
100
AcDbEntity
8
1
62
256
6
ByLayer
370
-1
48
1
60
0
100
AcDbEllipse
10
99.448341
20
-7.432689
30
0
11
-1.2065
21
1.4774875658867E-16
31
0
210
0
220
0
230
1
40
0.998215
41
-1.93629017092103
42
-1.17529297037277
0
ELLIPSE
5
A5
100
AcDbEntity
8
1
62
256
6
ByLayer
370
-1
48
1
60
0
100
AcDbEllipse
10
99.448341
20
-7.501596
30
0
11
1.2065
21
0
31
0
210
0
220
0
230
1
40
0.998215
41
3.0725600201779
42
-3.07256002017785
0
ELLIPSE
5
A6
100
AcDbEntity
8
1
62
256
6
ByLayer
370
-1
48
1
60
0
100
AcDbEllipse
10
99.448341
20
-7.432689
30
0
11
-1.2065
21
1.4774875658867E-16
31
0
210
0
220
0
230
1
40
0.998215
41
-3.0725600201779
42
-2.25638717323614
0
ELLIPSE
5
A7
100
AcDbEntity
8
1
62
256
6
ByLayer
370
-1
48
1
60
0
100
AcDbEllipse
10
99.448341
20
-7.517803
30
0
11
1.6765
21
0
31
0
210
0
220
0
230
1
40
0.998215
41
-1.5707963267949
42
-0.526389323279677
0
ELLIPSE
5
A8
100
AcDbEntity
8
1
62
256
6
ByLayer
370
-1
48
1
60
0
100
AcDbEllipse
10
100.645416
20
-8.12704
30
0
11
-0.292
21
3.57585055316134E-17
31
0
210
0
220
0
230
1
40
0.998215
41
1.30900918493158
42
3.00962919092414
0
ELLIPSE
5
A9
100
AcDbEntity
8
1
62
256
6
ByLayer
370
-1
48
1
60
0
100
AcDbEllipse
10
99.448341
20
-7.517803
30
0
11
1.6765
21
0
31
0
210
0
220
0
230
1
40
0.998215
41
-2.61520333031012
42
-1.5707963267949
0
ELLIPSE
5
AA
100
AcDbEntity
8
1
62
256
6
ByLayer
370
-1
48
1
60
0
100
AcDbEllipse
10
101.3329
20
-7.432689
30
0
11
-0.686
21
8.40079958722151E-17
31
0
210
0
220
0
230
1
40
0.998215
41
-0.791261334921248
42
-0.12161404121696
0
ELLIPSE
5
AB
100
AcDbEntity
8
1
62
256
6
ByLayer
370
-1
48
1
60
0
100
AcDbEllipse
10
100.645416
20
-6.738337
30
0
11
-0.292
21
3.57585055316134E-17
31
0
210
0
220
0
230
1
40
0.998215
41
2.35033131866844
42
3.00842557244691
0
ELLIPSE
5
AC
100
AcDbEntity
8
1
62
256
6
ByLayer
370
-1
48
1
60
0
100
AcDbEllipse
10
98.251265
20
-6.738337
30
0
11
-0.292
21
3.57585055316134E-17
31
0
210
0
220
0
230
1
40
0.998215
41
0.126895798790206
42
0.791261334921364
0
ELLIPSE
5
AD
100
AcDbEntity
8
1
62
256
6
ByLayer
370
-1
48
1
60
0
100
AcDbEllipse
10
99.448341
20
-7.432689
30
0
11
-1.2065
21
1.4774875658867E-16
31
0
210
0
220
0
230
1
40
0.998215
41
-0.850782800366453
42
-0.0690326334118939
0
ELLIPSE
5
AE
100
AcDbEntity
8
1
62
256
6
ByLayer
370
-1
48
1
60
0
100
AcDbEllipse
10
98.504378
20
-9.070032
30
0
11
-0.686
21
8.40079958722151E-17
31
0
210
0
220
0
230
1
40
0.998215
41
-2.09299982855255
42
-1.30900918493167
0
POINT
5
41
100
AcDbEntity
8
1
62
256
6
ByLayer
370
-1
48
1
60
0
100
AcDbPoint
10
-201.32
20
0
30
0
39
0
210
0
220
0
230
1
50
360
0
POINT
5
43
100
AcDbEntity
8
2
62
256
6
ByLayer
370
-1
48
1
60
0
100
AcDbPoint
10
99.93
20
16.9
30
0
39
0
210
0
220
0
230
1
50
360
0
POINT
5
45
100
AcDbEntity
8
80
62
256
6
ByLayer
370
-1
48
1
60
0
100
AcDbPoint
10
0
20
0
30
0
39
0
210
0
220
0
230
1
50
360
0
POINT
5
47
100
AcDbEntity
8
81
62
256
6
ByLayer
370
-1
48
1
60
0
100
AcDbPoint
10
99.93
20
-16.9
30
0
39
0
210
0
220
0
230
1
50
360
0
SPLINE
5
AF
100
AcDbEntity
8
1
62
256
6
ByLayer
370
-1
48
1
60
0
100
AcDbSpline
70
4
71
3
72
8
73
4
40
0
40
0
40
0
40
0
40
1
40
1
40
1
40
1
41
1
10
93.5190398737612
20
12.3764609878773
30
0
41
1
10
93.5440386233255
20
12.3519879969338
30
0
41
1
10
93.5690386409742
20
12.327508411451
30
0
41
1
10
93.5940398737611
20
12.3030223300739
30
0
0
SPLINE
5
B0
100
AcDbEntity
8
1
62
256
6
ByLayer
370
-1
48
1
60
0
100
AcDbSpline
70
4
71
3
72
15
73
11
40
0
40
0
40
0
40
0
40
0.276477572035452
40
0.276477572035452
40
0.552921259607817
40
0.552921259607817
40
0.829720028892255
40
0.829720028892255
40
0.829720028892255
40
1
40
1
40
1
40
1
41
1
10
90.2695033422216
20
-7.56049518231356
30
0
41
1
10
90.525905222506
20
-7.30877972460533
30
0
41
1
10
90.8292439101471
20
-7.09782809215076
30
0
41
1
10
91.4793752443523
20
-6.79224116698342
30
0
41
1
10
91.8351512140433
20
-6.69336147678399
30
0
41
1
10
92.549964827876
20
-6.619920236902
30
0
41
1
10
92.9189144221075
20
-6.64452820946207
30
0
41
1
10
93.2684700178849
20
-6.72866318309255
30
0
41
1
10
93.4854271832032
20
-6.78088287461946
30
0
41
1
10
93.6980513731139
20
-6.85637034683265
30
0
41
1
10
93.8993793455493
20
-6.95268892576169
30
0
0
SPLINE
5
B1
100
AcDbEntity
8
1
62
256
6
ByLayer
370
-1
48
1
60
0
100
AcDbSpline
70
4
71
3
72
34
73
30
40
-0.12499999999999
40
-0.12499999999999
40
0
40
0
40
0.125000000000006
40
0.125000000000006
40
0.187500000000009
40
0.187500000000009
40
0.21875000000001
40
0.21875000000001
40
0.250000000000012
40
0.250000000000012
40
0.312500000000013
40
0.312500000000013
40
0.375000000000015
40
0.375000000000015
40
0.500000000000019
40
0.500000000000019
40
0.625000000000022
40
0.625000000000022
40
0.687500000000021
40
0.687500000000021
40
0.71875000000002
40
0.71875000000002
40
0.750000000000019
40
0.750000000000019
40
0.812500000000014
40
0.812500000000014
40
0.87500000000001
40
0.87500000000001
40
1
40
1
40
1.12500000000001
40
1.12500000000001
41
1
10
79.4585896847307
20
-4.62621114631105
30
0
41
1
10
77.7079341216414
20
-3.91738704209894
30
0
41
1
10
76.8060347931807
20
-3.65326333506252
30
0
41
1
10
75.4225939284248
20
-3.66354513507835
30
0
41
1
10
74.9367280589336
20
-3.73429591354031
30
0
41
1
10
74.3269360734527
20
-4.13787689014222
30
0
41
1
10
74.1445608673332
20
-4.33688915471134
30
0
41
1
10
73.9553542977162
20
-4.81957017114078
30
0
41
1
10
73.9524121966722
20
-5.09061348562531
30
0
41
1
10
74.1141184318428
20
-5.81089292597338
30
0
41
1
10
74.406699630944
20
-6.20184512857836
30
0
41
1
10
75.0565931922552
20
-6.85813040073367
30
0
41
1
10
75.4269579487356
20
-7.12686564743532
30
0
41
1
10
76.6193057761137
20
-7.83903757856143
30
0
41
1
10
77.4886683938624
20
-8.16999491778554
30
0
41
1
10
79.3159833939208
20
-8.67078714439918
30
0
41
1
10
80.2752422352089
20
-8.84391173744208
30
0
41
1
10
81.7531467260886
20
-8.89926001184193
30
0
41
1
10
82.2582154191368
20
-8.89626542211499
30
0
41
1
10
82.982855043336
20
-8.68551607682494
30
0
41
1
10
83.2460625089178
20
-8.56837188686404
30
0
41
1
10
83.4626483226211
20
-8.0969151168045
30
0
41
1
10
83.3641117239911
20
-7.81972535004618
30
0
41
1
10
82.9940095620718
20
-7.16567462261219
30
0
41
1
10
82.6256783120269
20
-6.81902039373932
30
0
41
1
10
81.8893481625614
20
-6.17825815868602
30
0
41
1
10
81.4998318376657
20
-5.8888087891435
30
0
41
1
10
80.2951167016308
20
-5.07963213969291
30
0
41
1
10
79.4585896847307
20
-4.62621114631105
30
0
41
1
10
77.7079341216414
20
-3.91738704209894
30
0
0
SPLINE
5
B2
100
AcDbEntity
8
1
62
256
6
ByLayer
370
-1
48
1
60
0
100
AcDbSpline
70
4
71
3
72
10
73
6
40
0
40
0
40
0
40
0
40
0.5
40
0.5
40
1
40
1
40
1
40
1
41
1
10
65.6264114556286
20
-4.87661015076082
30
0
41
1
10
65.7651781967575
20
-6.01143048882892
30
0
41
1
10
66.1359410416829
20
-7.05458628785399
30
0
41
1
10
67.2676254927809
20
-8.78258334757086
30
0
41
1
10
68.0106391242775
20
-9.46458119793741
30
0
41
1
10
68.8709259123023
20
-10.0087500000005
30
0
0
SPLINE
5
B3
100
AcDbEntity
8
1
62
256
6
ByLayer
370
-1
48
1
60
0
100
AcDbSpline
70
4
71
3
72
8
73
4
40
0
40
0
40
0
40
0
40
1
40
1
40
1
40
1
41
1
10
98.0631005596221
20
1.18693362151035
30
0
41
1
10
98.043552277438
20
1.20702567851691
30
0
41
1
10
98.0262355684418
20
1.22850573461415
30
0
41
1
10
98.0113337225494
20
1.25132547228054
30
0
0
SPLINE
5
B4
100
AcDbEntity
8
1
62
256
6
ByLayer
370
-1
48
1
60
0
100
AcDbSpline
70
4
71
3
72
12
73
8
40
0
40
0
40
0
40
0
40
0.5
40
0.5
40
0.75
40
0.75
40
1
40
1
40
1
40
1
41
1
10
93.5190398737611
20
12.3764609878785
30
0
41
1
10
88.7829897256349
20
12.2938558160546
30
0
41
1
10
84.2130572271865
20
12.1240705602283
30
0
41
1
10
77.8249298919221
20
10.7005101558271
30
0
41
1
10
75.8018819421021
20
10.0261539132609
30
0
41
1
10
72.0271482473192
20
7.98957968786104
30
0
41
1
10
70.3078110037119
20
6.63392120302029
30
0
41
1
10
68.8840299555387
20
4.87661015076009
30
0
0
SPLINE
5
B5
100
AcDbEntity
8
1
62
256
6
ByLayer
370
-1
48
1
60
0
100
AcDbSpline
70
4
71
3
72
8
73
4
40
0
40
0
40
0
40
0
40
1
40
1
40
1
40
1
41
1
10
93.5940398737611
20
12.3030223300738
30
0
41
1
10
93.9762253107673
20
12.3095480549557
30
0
41
1
10
94.3590853753093
20
12.3151148555668
30
0
41
1
10
94.7424188265165
20
12.3198773105726
30
0
0
SPLINE
5
B6
100
AcDbEntity
8
SK1
62
256
6
ByLayer
370
-1
48
1
60
0
100
AcDbSpline
70
4
71
3
72
10
73
6
40
0
40
0
40
0
40
0
40
0.5
40
0.5
40
1
40
1
40
1
40
1
41
1
10
-199.32
20
-4.87661015076048
30
0
41
1
10
-199.931278087239
20
-3.31084475816917
30
0
41
1
10
-200.311010085058
20
-1.68546685393193
30
0
41
1
10
-200.311489681707
20
1.6821913662468
30
0
41
1
10
-199.931860983986
20
3.30935169049232
30
0
41
1
10
-199.32
20
4.87661015076051
30
0
0
SPLINE
5
B7
100
AcDbEntity
8
1
62
256
6
ByLayer
370
-1
48
1
60
0
100
AcDbSpline
70
4
71
3
72
14
73
10
40
0
40
0
40
0
40
0
40
0.257316956269309
40
0.257316956269309
40
0.545158285746687
40
0.545158285746687
40
0.805343774211465
40
0.805343774211465
40
1
40
1
40
1
40
1
41
1
10
98.0460038884002
20
-7.0241525472388
30
0
41
1
10
98.0242102159339
20
-7.00360530934432
30
0
41
1
10
98.0052862311807
20
-6.9789406029283
30
0
41
1
10
97.9748740358553
20
-6.92088143508184
30
0
41
1
10
97.964120043135
20
-6.8858233888505
30
0
41
1
10
97.9573982453402
20
-6.81686999137239
30
0
41
1
10
97.9600710045648
20
-6.78213050513537
30
0
41
1
10
97.9754787432105
20
-6.72412919419216
30
0
41
1
10
97.9856452892295
20
-6.69959663639634
30
0
41
1
10
97.9987939132134
20
-6.67700901384958
30
0
0
SPLINE
5
B8
100
AcDbEntity
8
1
62
256
6
ByLayer
370
-1
48
1
60
0
100
AcDbSpline
70
4
71
3
72
14
73
10
40
0
40
0
40
0
40
0
40
0.283961749036853
40
0.283961749036853
40
0.570285189259309
40
0.570285189259309
40
0.829451094335729
40
0.829451094335729
40
1
40
1
40
1
40
1
41
1
10
100.569844717826
20
-6.53539731392902
30
0
41
1
10
100.602228789079
20
-6.52777437981487
30
0
41
1
10
100.637166218009
20
-6.52553635413634
30
0
41
1
10
100.706844890664
20
-6.53360582550286
30
0
41
1
10
100.742655498892
20
-6.54420435311727
30
0
41
1
10
100.805249145921
20
-6.57641579599891
30
0
41
1
10
100.833484409584
20
-6.59742813984667
30
0
41
1
10
100.872616808482
20
-6.63889627627827
30
0
41
1
10
100.886467737404
20
-6.6573914548546
30
0
41
1
10
100.897887438887
20
-6.67700901384956
30
0
0
SPLINE
5
B9
100
AcDbEntity
8
1
62
256
6
ByLayer
370
-1
48
1
60
0
100
AcDbSpline
70
4
71
3
72
16
73
12
40
0
40
0
40
0
40
0
40
0.0624381308004967
40
0.0624381308004967
40
0.283176804509787
40
0.283176804509787
40
0.506689877746734
40
0.506689877746734
40
0.744525276457915
40
0.744525276457915
40
1
40
1
40
1
40
1
41
1
10
97.9987939132134
20
-8.35859791901126
30
0
41
1
10
97.9945567072762
20
-8.35131895138085
30
0
41
1
10
97.9906314241047
20
-8.34383747177444
30
0
41
1
10
97.9744465895143
20
-8.30940260179656
30
0
41
1
10
97.9659250874216
20
-8.28023495813503
30
0
41
1
10
97.9579606744688
20
-8.22158490125713
30
0
41
1
10
97.9585083548712
20
-8.19136023141112
30
0
41
1
10
97.9681592493322
20
-8.13204439277678
30
0
41
1
10
97.9778977434465
20
-8.10240236021076
30
0
41
1
10
98.0055793064158
20
-8.04676544813267
30
0
41
1
10
98.0243781356719
20
-8.02051428650896
30
0
41
1
10
98.0460038884003
20
-7.99823225590768
30
0
0
SPLINE
5
BA
100
AcDbEntity
8
1
62
256
6
ByLayer
370
-1
48
1
60
0
100
AcDbSpline
70
4
71
3
72
18
73
14
40
0
40
0
40
0
40
0
40
0.212491310236417
40
0.212491310236417
40
0.386617575419597
40
0.386617575419597
40
0.562425340507685
40
0.562425340507685
40
0.715387118728935
40
0.715387118728935
40
0.918247542725937
40
0.918247542725937
40
1
40
1
40
1
40
1
41
1
10
98.3268366342744
20
-8.4871952493487
30
0
41
1
10
98.3953917627518
20
-8.4666613490937
30
0
41
1
10
98.4691556505397
20
-8.45641485376669
30
0
41
1
10
98.6053185226789
20
-8.46123984712995
30
0
41
1
10
98.6688919159706
20
-8.47230097386745
30
0
41
1
10
98.7914351365204
20
-8.51361385682975
30
0
41
1
10
98.8521082117293
20
-8.5448592664367
30
0
41
1
10
98.9520449296475
20
-8.61741260995444
30
0
41
1
10
98.9943088983059
20
-8.65766999243124
30
0
41
1
10
99.0769439703593
20
-8.75824922994872
30
0
41
1
10
99.1138225779923
20
-8.82239917809227
30
0
41
1
10
99.1503900052497
20
-8.91487215454961
30
0
41
1
10
99.1592851843145
20
-8.94210675899149
30
0
41
1
10
99.1665032639199
20
-8.96955342448123
30
0
0
SPLINE
5
BB
100
AcDbEntity
8
1
62
256
6
ByLayer
370
-1
48
1
60
0
100
AcDbSpline
70
4
71
3
72
16
73
12
40
0
40
0
40
0
40
0
40
0.0620393275788695
40
0.0620393275788695
40
0.28491889396209
40
0.28491889396209
40
0.510542617547663
40
0.510542617547663
40
0.750580338324486
40
0.750580338324486
40
1
40
1
40
1
40
1
41
1
10
99.4483406760503
20
-5.84429671279435
30
0
41
1
10
99.4566414371655
20
-5.84429671279435
30
0
41
1
10
99.4649514110255
20
-5.84464086112692
30
0
41
1
10
99.5027035097645
20
-5.84777083707212
30
0
41
1
10
99.5320856562389
20
-5.85472449313423
30
0
41
1
10
99.586364161198
20
-5.87628375929515
30
0
41
1
10
99.611900740347
20
-5.89123548270828
30
0
41
1
10
99.6575141499191
20
-5.9276368814877
30
0
41
1
10
99.6777295053842
20
-5.94987231757406
30
0
41
1
10
99.7101828547966
20
-5.99850350461153
30
0
41
1
10
99.7224725458283
20
-6.02556411016911
30
0
41
1
10
99.7301780881808
20
-6.05303913879646
30
0
0
SPLINE
5
BC
100
AcDbEntity
8
1
62
256
6
ByLayer
370
-1
48
1
60
0
100
AcDbSpline
70
4
71
3
72
18
73
14
40
0
40
0
40
0
40
0
40
0.212077939306813
40
0.212077939306813
40
0.386277180669023
40
0.386277180669023
40
0.562162788938154
40
0.562162788938154
40
0.715139313179672
40
0.715139313179672
40
0.917926548134207
40
0.917926548134207
40
1
40
1
40
1
40
1
41
1
10
99.7301780881807
20
-8.96955342448155
30
0
41
1
10
99.7487031978989
20
-8.89911190576859
30
0
41
1
10
99.7786040134598
20
-8.82940391566606
30
0
41
1
10
99.8536689939821
20
-8.71286634328769
30
0
41
1
10
99.896135567267
20
-8.66295875938127
30
0
41
1
10
99.9945877163044
20
-8.57722130179516
30
0
41
1
10
100.052284384107
20
-8.54042327686454
30
0
41
1
10
100.164764763495
20
-8.49089018837384
30
0
41
1
10
100.220254578968
20
-8.47496556659746
30
0
41
1
10
100.34690707541
20
-8.45525428823998
30
0
41
1
10
100.419444513782
20
-8.45650381905347
30
0
41
1
10
100.515631555711
20
-8.47273940198616
30
0
41
1
10
100.543080058832
20
-8.47917859398899
30
0
41
1
10
100.569844717826
20
-8.4871952493487
30
0
0
SPLINE
5
BD
100
AcDbEntity
8
1
62
256
6
ByLayer
370
-1
48
1
60
0
100
AcDbSpline
70
4
71
3
72
12
73
8
40
0
40
0
40
0
40
0
40
0.322038032643017
40
0.322038032643017
40
0.791348107792849
40
0.791348107792849
40
1
40
1
40
1
40
1
41
1
10
100.651967026946
20
-7.41852237793293
30
0
41
1
10
100.658283324008
20
-7.36727394941917
30
0
41
1
10
100.670600170026
20
-7.31723775377
30
0
41
1
10
100.71246200826
20
-7.20366011738756
30
0
41
1
10
100.747857695958
20
-7.14240602132153
30
0
41
1
10
100.808759635737
20
-7.06647138874871
30
0
41
1
10
100.829120686482
20
-7.04447643851648
30
0
41
1
10
100.8506774637
20
-7.02415254723877
30
0
0
SPLINE
5
BE
100
AcDbEntity
8
1
62
256
6
ByLayer
370
-1
48
1
60
0
100
AcDbSpline
70
4
71
3
72
14
73
10
40
0
40
0
40
0
40
0
40
0.283961749036763
40
0.283961749036763
40
0.570285189259278
40
0.570285189259278
40
0.829451094335754
40
0.829451094335754
40
1
40
1
40
1
40
1
41
1
10
98.3268366342745
20
-8.48719524934876
30
0
41
1
10
98.2944525630217
20
-8.49689505305011
30
0
41
1
10
98.2595151340914
20
-8.50111054735794
30
0
41
1
10
98.1898364614362
20
-8.49650769589439
30
0
41
1
10
98.1540258532083
20
-8.48744669123687
30
0
41
1
10
98.0914322061799
20
-8.45748049272615
30
0
41
1
10
98.063196942517
20
-8.43727287735459
30
0
41
1
10
98.0240645436185
20
-8.39655683048733
30
0
41
1
10
98.0102136146969
20
-8.37821547800621
30
0
41
1
10
97.9987939132134
20
-8.35859791901126
30
0
0
SPLINE
5
BF
100
AcDbEntity
8
1
62
256
6
ByLayer
370
-1
48
1
60
0
100
AcDbSpline
70
4
71
3
72
14
73
10
40
0
40
0
40
0
40
0
40
0.282570466285794
40
0.282570466285794
40
0.569068632820392
40
0.569068632820392
40
0.828374842928198
40
0.828374842928198
40
1
40
1
40
1
40
1
41
1
10
99.7301780881807
20
-8.96955342448155
30
0
41
1
10
99.7214529342804
20
-9.00273072281226
30
0
41
1
10
99.7067983335103
20
-9.03533472387264
30
0
41
1
10
99.6664985327515
20
-9.0939597602401
30
0
41
1
10
99.640025822552
20
-9.12075538727473
30
0
41
1
10
99.5816877875654
20
-9.16039571950142
30
0
41
1
10
99.5496582200273
20
-9.17487048419341
30
0
41
1
10
99.4942717895705
20
-9.18849671075338
30
0
41
1
10
99.4712132021841
20
-9.19131022006638
30
0
41
1
10
99.4483406760503
20
-9.19131022006638
30
0
0
SPLINE
5
C0
100
AcDbEntity
8
1
62
256
6
ByLayer
370
-1
48
1
60
0
100
AcDbSpline
70
4
71
3
72
16
73
12
40
0
40
0
40
0
40
0
40
0.0624059981242283
40
0.0624059981242283
40
0.283031072591542
40
0.283031072591542
40
0.506429118791018
40
0.506429118791018
40
0.74414211973404
40
0.74414211973404
40
1
40
1
40
1
40
1
41
1
10
100.897887438887
20
-6.67700901384956
30
0
41
1
10
100.902124644824
20
-6.68428798147997
30
0
41
1
10
100.906049927996
20
-6.6917485990235
30
0
41
1
10
100.922234762586
20
-6.72599594990268
30
0
41
1
10
100.930756264679
20
-6.75475317399463
30
0
41
1
10
100.938720677632
20
-6.81211855997876
30
0
41
1
10
100.938172997229
20
-6.841447608105
30
0
41
1
10
100.928522102768
20
-6.8985452230834
30
0
41
1
10
100.918783608654
20
-6.92681402821381
30
0
41
1
10
100.891102045685
20
-6.97932396574194
30
0
41
1
10
100.872303216429
20
-7.00376362533299
30
0
41
1
10
100.8506774637
20
-7.0241525472388
30
0
0
SPLINE
5
C1
100
AcDbEntity
8
1
62
256
6
ByLayer
370
-1
48
1
60
0
100
AcDbSpline
70
4
71
3
72
12
73
8
40
0
40
0
40
0
40
0
40
0.495447747571169
40
0.495447747571169
40
0.900382671304421
40
0.900382671304421
40
1
40
1
40
1
40
1
41
1
10
100.8506774637
20
-7.99823225590768
30
0
41
1
10
100.799948689007
20
-7.94596401237945
30
0
41
1
10
100.755464027503
20
-7.88412472289289
30
0
41
1
10
100.693450577079
20
-7.7592543159349
30
0
41
1
10
100.671925691311
20
-7.69703490590453
30
0
41
1
10
100.656464880716
20
-7.61691060137684
30
0
41
1
10
100.653932603774
20
-7.60082850106755
30
0
41
1
10
100.651967026946
20
-7.58466868048117
30
0
0
SPLINE
5
C2
100
AcDbEntity
8
1
62
256
6
ByLayer
370
-1
48
1
60
0
100
AcDbSpline
70
4
71
3
72
12
73
8
40
0
40
0
40
0
40
0
40
0.495447747571311
40
0.495447747571311
40
0.900382671304501
40
0.900382671304501
40
1
40
1
40
1
40
1
41
1
10
98.0460038884003
20
-7.02415254723877
30
0
41
1
10
98.0967326630937
20
-7.07198001658031
30
0
41
1
10
98.1412173245972
20
-7.12961621884108
30
0
41
1
10
98.2032307750213
20
-7.2483355900772
30
0
41
1
10
98.2247556607901
20
-7.3082894840642
30
0
41
1
10
98.2402164713851
20
-7.38676425522488
30
0
41
1
10
98.242748748327
20
-7.40257431175797
30
0
41
1
10
98.2447143251543
20
-7.41852237793293
30
0
0
SPLINE
5
C3
100
AcDbEntity
8
1
62
256
6
ByLayer
370
-1
48
1
60
0
100
AcDbSpline
70
4
71
3
72
18
73
14
40
0
40
0
40
0
40
0
40
0.21207793930746
40
0.21207793930746
40
0.386277180669563
40
0.386277180669563
40
0.562162788938588
40
0.562162788938588
40
0.715139313180042
40
0.715139313180042
40
0.917926548134594
40
0.917926548134594
40
1
40
1
40
1
40
1
41
1
10
99.1665032639199
20
-6.05303913879618
30
0
41
1
10
99.1479781542017
20
-6.11909262297047
30
0
41
1
10
99.1180773386407
20
-6.18465615325533
30
0
41
1
10
99.043012358118
20
-6.29513166208031
30
0
41
1
10
99.0005457848332
20
-6.3428112891329
30
0
41
1
10
98.9020936357958
20
-6.42596896604812
30
0
41
1
10
98.844396967993
20
-6.46243191985897
30
0
41
1
10
98.7319165886053
20
-6.51331232796565
30
0
41
1
10
98.6764267731321
20
-6.53065966050843
30
0
41
1
10
98.5497742766903
20
-6.5549021213904
30
0
41
1
10
98.4772368383184
20
-6.55719722587182
30
0
41
1
10
98.3810497963897
20
-6.54646523030064
30
0
41
1
10
98.3536012932684
20
-6.54169748633498
30
0
41
1
10
98.3268366342745
20
-6.53539731392905
30
0
0
SPLINE
5
C4
100
AcDbEntity
8
1
62
256
6
ByLayer
370
-1
48
1
60
0
100
AcDbSpline
70
4
71
3
72
14
73
10
40
0
40
0
40
0
40
0
40
0.282570466285879
40
0.282570466285879
40
0.569068632820419
40
0.569068632820419
40
0.828374842928208
40
0.828374842928208
40
1
40
1
40
1
40
1
41
1
10
99.16650326392
20
-6.05303913879618
30
0
41
1
10
99.1752284178202
20
-6.02192856380762
30
0
41
1
10
99.1898830185903
20
-5.99129271778375
30
0
41
1
10
99.2301828193491
20
-5.93613135518311
30
0
41
1
10
99.2566555295486
20
-5.91087686399615
30
0
41
1
10
99.3149935645352
20
-5.87348852825127
30
0
41
1
10
99.3470231320733
20
-5.85982178748577
30
0
41
1
10
99.4024095625302
20
-5.84695442225029
30
0
41
1
10
99.4254681499165
20
-5.84429671279435
30
0
41
1
10
99.4483406760503
20
-5.84429671279435
30
0
0
SPLINE
5
C5
100
AcDbEntity
8
1
62
256
6
ByLayer
370
-1
48
1
60
0
100
AcDbSpline
70
4
71
3
72
14
73
10
40
0
40
0
40
0
40
0
40
0.268774777421543
40
0.268774777421543
40
0.562355793970853
40
0.562355793970853
40
0.820752281324317
40
0.820752281324317
40
1
40
1
40
1
40
1
41
1
10
100.850677463701
20
-7.99823225590723
30
0
41
1
10
100.873387190526
20
-8.02163115602517
30
0
41
1
10
100.892988547784
20
-8.04943368597236
30
0
41
1
10
100.923517925723
20
-8.11332798924937
30
0
41
1
10
100.93387420088
20
-8.15106902107792
30
0
41
1
10
100.939076786227
20
-8.22325583184727
30
0
41
1
10
100.935646698269
20
-8.25865253368789
30
0
41
1
10
100.91960513783
20
-8.31512663940546
30
0
41
1
10
100.910013733206
20
-8.33776652560459
30
0
41
1
10
100.897887438887
20
-8.35859791901126
30
0
0
SPLINE
5
C6
100
AcDbEntity
8
1
62
256
6
ByLayer
370
-1
48
1
60
0
100
AcDbSpline
70
4
71
3
72
16
73
12
40
0
40
0
40
0
40
0
40
0.0532314783974775
40
0.0532314783974775
40
0.276251694953532
40
0.276251694953532
40
0.501512171112994
40
0.501512171112994
40
0.740777201102547
40
0.740777201102547
40
1
40
1
40
1
40
1
41
1
10
100.897887438887
20
-8.35859791901126
30
0
41
1
10
100.894305587937
20
-8.36475107217581
30
0
41
1
10
100.890494610894
20
-8.37077062242392
30
0
41
1
10
100.869756319113
20
-8.40097631500575
30
0
41
1
10
100.84902704892
20
-8.4228245861413
30
0
41
1
10
100.802924502372
20
-8.45845237569068
30
0
41
1
10
100.776933562509
20
-8.47262120876977
30
0
41
1
10
100.721826467449
20
-8.49268327483438
30
0
41
1
10
100.69193756366
20
-8.49828852724389
30
0
41
1
10
100.631041866982
20
-8.50034269214399
30
0
41
1
10
100.599404004929
20
-8.49604896265146
30
0
41
1
10
100.569844717826
20
-8.48719524934876
30
0
0
SPLINE
5
C7
100
AcDbEntity
8
1
62
256
6
ByLayer
370
-1
48
1
60
0
100
AcDbSpline
70
4
71
3
72
12
73
8
40
0
40
0
40
0
40
0
40
0.322038032643042
40
0.322038032643042
40
0.79134810779288
40
0.79134810779288
40
1
40
1
40
1
40
1
41
1
10
98.2447143251543
20
-7.58466868048117
30
0
41
1
10
98.2383980280924
20
-7.63659757273868
30
0
41
1
10
98.2260811820742
20
-7.68795519880507
30
0
41
1
10
98.1842193438409
20
-7.80584763811865
30
0
41
1
10
98.1488236561429
20
-7.87062448636726
30
0
41
1
10
98.087921716364
20
-7.95219118241781
30
0
41
1
10
98.0675606656188
20
-7.97602129401972
30
0
41
1
10
98.0460038884003
20
-7.99823225590771
30
0
0
SPLINE
5
C8
100
AcDbEntity
8
1
62
256
6
ByLayer
370
-1
48
1
60
0
100
AcDbSpline
70
4
71
3
72
16
73
12
40
0
40
0
40
0
40
0
40
0.0390321966038739
40
0.0390321966038739
40
0.262296958279359
40
0.262296958279359
40
0.486983262356874
40
0.486983262356874
40
0.725005633010932
40
0.725005633010932
40
1
40
1
40
1
40
1
41
1
10
97.9987939132134
20
-6.67700901384958
30
0
41
1
10
98.0014250862797
20
-6.67248900140191
30
0
41
1
10
98.0041793715451
20
-6.66803370302893
30
0
41
1
10
98.0233136968975
20
-6.63883968301229
30
0
41
1
10
98.0436626541729
20
-6.61616981781424
30
0
41
1
10
98.0891182903703
20
-6.57843574337048
30
0
41
1
10
98.1148204404475
20
-6.56292218740504
30
0
41
1
10
98.1694381787761
20
-6.53970852318074
30
0
41
1
10
98.199126650774
20
-6.53220734764423
30
0
41
1
10
98.261830903719
20
-6.52568424800668
30
0
41
1
10
98.2955174067744
20
-6.52802503495039
30
0
41
1
10
98.3268366342744
20
-6.535397313929
30
0
0
SPLINE
5
C9
100
AcDbEntity
8
1
62
256
6
ByLayer
370
-1
48
1
60
0
100
AcDbSpline
70
4
71
3
72
16
73
12
40
0
40
0
40
0
40
0
40
0.0620393275788703
40
0.0620393275788703
40
0.284918893962095
40
0.284918893962095
40
0.510542617547673
40
0.510542617547673
40
0.750580338324501
40
0.750580338324501
40
1
40
1
40
1
40
1
41
1
10
99.4483406760503
20
-9.19131022006638
30
0
41
1
10
99.4400399149351
20
-9.19131022006638
30
0
41
1
10
99.4317299410751
20
-9.19094586363462
30
0
41
1
10
99.3939778423361
20
-9.18763195003103
30
0
41
1
10
99.3645956958617
20
-9.18027009764745
30
0
41
1
10
99.3103171909026
20
-9.15743031983976
30
0
41
1
10
99.2847806117536
20
-9.14158507290904
30
0
41
1
10
99.2391672021816
20
-9.10296957706922
30
0
41
1
10
99.2189518467165
20
-9.07936304057452
30
0
41
1
10
99.1864984973039
20
-9.02766008497713
30
0
41
1
10
99.1742088062723
20
-8.99885366151477
30
0
41
1
10
99.1665032639199
20
-8.96955342448123
30
0
0
SPLINE
5
CA
100
AcDbEntity
8
1
62
256
6
ByLayer
370
-1
48
1
60
0
100
AcDbSpline
70
4
71
3
72
18
73
14
40
0
40
0
40
0
40
0
40
0.212491310234895
40
0.212491310234895
40
0.386617575418289
40
0.386617575418289
40
0.562425340506617
40
0.562425340506617
40
0.715387118727943
40
0.715387118727943
40
0.918247542724727
40
0.918247542724727
40
1
40
1
40
1
40
1
41
1
10
100.569844717826
20
-6.53539731392905
30
0
41
1
10
100.501289589349
20
-6.55153460634941
30
0
41
1
10
100.427525701562
20
-6.55762881798876
30
0
41
1
10
100.291362829423
20
-6.54674212997787
30
0
41
1
10
100.227789436131
20
-6.53345728491817
30
0
41
1
10
100.105246215582
20
-6.48957292792537
30
0
41
1
10
100.044573140372
20
-6.45799650768183
30
0
41
1
10
99.944636422454
20
-6.38679583468041
30
0
41
1
10
99.9023724537955
20
-6.3479633527636
30
0
41
1
10
99.8197373817419
20
-6.25192014343901
30
0
41
1
10
99.7828587741089
20
-6.19131797403102
30
0
41
1
10
99.7462913468511
20
-6.10434561893712
30
0
41
1
10
99.7373961677862
20
-6.07877606096554
30
0
41
1
10
99.7301780881808
20
-6.05303913879649
30
0
0
SPLINE
5
CB
100
AcDbEntity
8
SK1
62
256
6
ByLayer
370
-1
48
1
60
0
100
AcDbSpline
70
4
71
3
72
8
73
4
40
0
40
0
40
0
40
0
40
1
40
1
40
1
40
1
41
1
10
-201.32
20
-10.00875
30
0
41
1
10
-200.859655007734
20
-10.00875
30
0
41
1
10
-200.133727170391
20
-10.00875
30
0
41
1
10
-199.32
20
-10.00875
30
0
0
LINE
5
49
100
AcDbEntity
8
80
62
256
6
ByLayer
370
-1
48
1
60
0
100
AcDbLine
10
0
20
0
30
0
11
-10
21
0
31
0
39
0
210
0
220
0
230
1
0
LINE
5
4A
100
AcDbEntity
8
81
62
256
6
ByLayer
370
-1
48
1
60
0
100
AcDbLine
10
99.93
20
-16.9
30
0
11
109.93
21
-16.9
31
0
39
0
210
0
220
0
230
1
0
LINE
5
4B
100
AcDbEntity
8
1
62
256
6
ByLayer
370
-1
48
1
60
0
100
AcDbLine
10
96.823341
20
-7.434182
30
0
11
96.823341
21
-7.501352
31
0
39
0
210
0
220
0
230
1
0
LINE
5
4C
100
AcDbEntity
8
1
62
256
6
ByLayer
370
-1
48
1
60
0
100
AcDbLine
10
102.073341
20
-7.501352
30
0
11
102.073341
21
-7.434182
31
0
39
0
210
0
220
0
230
1
0
LINE
5
4D
100
AcDbEntity
8
1
62
256
6
ByLayer
370
-1
48
1
60
0
100
AcDbLine
10
93.51904
20
12.49125
30
0
11
0
21
12.49125
31
0
39
0
210
0
220
0
230
1
0
LINE
5
4E
100
AcDbEntity
8
1
62
256
6
ByLayer
370
-1
48
1
60
0
100
AcDbLine
10
93.59404
20
12.41625
30
0
11
93.51904
21
12.49125
31
0
39
0
210
0
220
0
230
1
0
LINE
5
4F
100
AcDbEntity
8
1
62
256
6
ByLayer
370
-1
48
1
60
0
100
AcDbLine
10
94.6168
20
12.41625
30
0
11
93.59404
21
12.41625
31
0
39
0
210
0
220
0
230
1
0
LINE
5
50
100
AcDbEntity
8
SK1
62
256
6
ByLayer
370
-1
48
1
60
0
100
AcDbLine
10
-199.32
20
12.49125
30
0
11
-201.32
21
10.49125
31
0
39
0
210
0
220
0
230
1
0
LINE
5
52
100
AcDbEntity
8
SK1
62
256
6
ByLayer
370
-1
48
1
60
0
100
AcDbLine
10
0
20
12.49125
30
0
11
-199.32
21
12.49125
31
0
39
0
210
0
220
0
230
1
0
LINE
5
53
100
AcDbEntity
8
SK4
62
256
6
ByLayer
370
-1
48
0.05
60
0
100
AcDbLine
10
-206.32
20
0
30
0
11
110.476181
21
0
31
0
39
0
210
0
220
0
230
1
0
LINE
5
55
100
AcDbEntity
8
4
62
256
6
ByLayer
370
-1
48
0.05
60
0
100
AcDbLine
10
0
20
0
30
0
11
110.476181
21
0
31
0
39
0
210
0
220
0
230
1
0
LINE
5
57
100
AcDbEntity
8
1
62
256
6
ByLayer
370
-1
48
1
60
0
100
AcDbLine
10
93.59404
20
12.41625
30
0
11
93.59404
21
12.303022
31
0
39
0
210
0
220
0
230
1
0
LINE
5
58
100
AcDbEntity
8
1
62
256
6
ByLayer
370
-1
48
1
60
0
100
AcDbLine
10
65.626411
20
-4.87661
30
0
11
0
21
-4.87661
31
0
39
0
210
0
220
0
230
1
0
LINE
5
59
100
AcDbEntity
8
1
62
256
6
ByLayer
370
-1
48
1
60
0
100
AcDbLine
10
105.476181
20
-6.724131
30
0
11
105.476181
21
4.08511
31
0
39
0
210
0
220
0
230
1
0
LINE
5
5A
100
AcDbEntity
8
1
62
256
6
ByLayer
370
-1
48
1
60
0
100
AcDbLine
10
0
20
-4.87661
30
0
11
0
21
-10.00875
31
0
39
0
210
0
220
0
230
1
0
LINE
5
5B
100
AcDbEntity
8
1
62
256
6
ByLayer
370
-1
48
1
60
0
100
AcDbLine
10
97.529123
20
-0.7763
30
0
11
97.529123
21
-0.907705
31
0
39
0
210
0
220
0
230
1
0
LINE
5
5C
100
AcDbEntity
8
1
62
256
6
ByLayer
370
-1
48
1
60
0
100
AcDbLine
10
98.333217
20
9.565075
30
0
11
105.476181
21
4.08511
31
0
39
0
210
0
220
0
230
1
0
LINE
5
5D
100
AcDbEntity
8
1
62
256
6
ByLayer
370
-1
48
1
60
0
100
AcDbLine
10
0
20
-10.00875
30
0
11
68.870926
21
-10.00875
31
0
39
0
210
0
220
0
230
1
0
LINE
5
5E
100
AcDbEntity
8
1
62
256
6
ByLayer
370
-1
48
1
60
0
100
AcDbLine
10
97.530382
20
-0.910119
30
0
11
97.529123
21
-0.907705
31
0
39
0
210
0
220
0
230
1
0
LINE
5
5F
100
AcDbEntity
8
1
62
256
6
ByLayer
370
-1
48
1
60
0
100
AcDbLine
10
97.564646
20
-0.844416
30
0
11
97.529123
21
-0.7763
31
0
39
0
210
0
220
0
230
1
0
LINE
5
60
100
AcDbEntity
8
1
62
256
6
ByLayer
370
-1
48
1
60
0
100
AcDbLine
10
0
20
4.87661
30
0
11
0
21
12.49125
31
0
39
0
210
0
220
0
230
1
0
LINE
5
61
100
AcDbEntity
8
1
62
256
6
ByLayer
370
-1
48
1
60
0
100
AcDbLine
10
93.51904
20
12.49125
30
0
11
93.51904
21
12.376461
31
0
39
0
210
0
220
0
230
1
0
LINE
5
62
100
AcDbEntity
8
1
62
256
6
ByLayer
370
-1
48
1
60
0
100
AcDbLine
10
98.063101
20
1.186934
30
0
11
98.063101
21
1.318339
31
0
39
0
210
0
220
0
230
1
0
LINE
5
63
100
AcDbEntity
8
1
62
256
6
ByLayer
370
-1
48
1
60
0
100
AcDbLine
10
0
20
-4.87661
30
0
11
0
21
4.87661
31
0
39
0
210
0
220
0
230
1
0
LINE
5
64
100
AcDbEntity
8
1
62
256
6
ByLayer
370
-1
48
1
60
0
100
AcDbLine
10
0
20
4.87661
30
0
11
68.88403
21
4.87661
31
0
39
0
210
0
220
0
230
1
0
LINE
5
65
100
AcDbEntity
8
1
62
256
6
ByLayer
370
-1
48
1
60
0
100
AcDbLine
10
97.396207
20
-1.057415
30
0
11
97.424886
21
-1.112408
31
0
39
0
210
0
220
0
230
1
0
LINE
5
66
100
AcDbEntity
8
1
62
256
6
ByLayer
370
-1
48
1
60
0
100
AcDbLine
10
94.742419
20
12.319877
30
0
11
98.333217
21
9.565075
31
0
39
0
210
0
220
0
230
1
0
LINE
5
67
100
AcDbEntity
8
1
62
256
6
ByLayer
370
-1
48
1
60
0
100
AcDbLine
10
93.899379
20
-6.952689
30
0
11
98.333217
21
9.565075
31
0
39
0
210
0
220
0
230
1
0
LINE
5
68
100
AcDbEntity
8
1
62
256
6
ByLayer
370
-1
48
1
60
0
100
AcDbLine
10
94.6168
20
12.41625
30
0
11
94.742419
21
12.319877
31
0
39
0
210
0
220
0
230
1
0
LINE
5
69
100
AcDbEntity
8
1
62
256
6
ByLayer
370
-1
48
1
60
0
100
AcDbLine
10
68.870926
20
-10.00875
30
0
11
87.776587
21
-10.00875
31
0
39
0
210
0
220
0
230
1
0
LINE
5
6A
100
AcDbEntity
8
1
62
256
6
ByLayer
370
-1
48
1
60
0
100
AcDbLine
10
97.396207
20
-1.057415
30
0
11
97.529123
21
-0.907705
31
0
39
0
210
0
220
0
230
1
0
LINE
5
6B
100
AcDbEntity
8
SK1
62
256
6
ByLayer
370
-1
48
1
60
0
100
AcDbLine
10
-201.32
20
10.49125
30
0
11
-201.32
21
-10.00875
31
0
39
0
210
0
220
0
230
1
0
LINE
5
6C
100
AcDbEntity
8
SK1
62
256
6
ByLayer
370
-1
48
1
60
0
100
AcDbLine
10
-199.32
20
-4.87661
30
0
11
-199.32
21
-10.00875
31
0
39
0
210
0
220
0
230
1
0
LINE
5
6D
100
AcDbEntity
8
SK1
62
256
6
ByLayer
370
-1
48
1
60
0
100
AcDbLine
10
-199.32
20
12.49125
30
0
11
-199.32
21
4.87661
31
0
39
0
210
0
220
0
230
1
0
LINE
5
6E
100
AcDbEntity
8
SK1
62
256
6
ByLayer
370
-1
48
1
60
0
100
AcDbLine
10
0
20
-4.87661
30
0
11
0
21
-10.00875
31
0
39
0
210
0
220
0
230
1
0
LINE
5
6F
100
AcDbEntity
8
SK1
62
256
6
ByLayer
370
-1
48
1
60
0
100
AcDbLine
10
0
20
-4.87661
30
0
11
-199.32
21
-4.87661
31
0
39
0
210
0
220
0
230
1
0
LINE
5
70
100
AcDbEntity
8
SK1
62
256
6
ByLayer
370
-1
48
1
60
0
100
AcDbLine
10
0
20
12.49125
30
0
11
0
21
4.87661
31
0
39
0
210
0
220
0
230
1
0
LINE
5
71
100
AcDbEntity
8
SK1
62
256
6
ByLayer
370
-1
48
1
60
0
100
AcDbLine
10
0
20
-4.87661
30
0
11
0
21
4.87661
31
0
39
0
210
0
220
0
230
1
0
LINE
5
72
100
AcDbEntity
8
SK1
62
256
6
ByLayer
370
-1
48
1
60
0
100
AcDbLine
10
-199.32
20
4.87661
30
0
11
0
21
4.87661
31
0
39
0
210
0
220
0
230
1
0
LINE
5
73
100
AcDbEntity
8
1
62
256
6
ByLayer
370
-1
48
1
60
0
100
AcDbLine
10
104.626643
20
-7.893942
30
0
11
100.152627
21
-16.473101
31
0
39
0
210
0
220
0
230
1
0
LINE
5
74
100
AcDbEntity
8
1
62
256
6
ByLayer
370
-1
48
1
60
0
100
AcDbLine
10
100.152627
20
1.417164
30
0
11
104.626643
21
-7.161994
31
0
39
0
210
0
220
0
230
1
0
LINE
5
75
100
AcDbEntity
8
1
62
256
6
ByLayer
370
-1
48
1
60
0
100
AcDbLine
10
98.744054
20
-16.473101
30
0
11
94.270039
21
-7.893942
31
0
39
0
210
0
220
0
230
1
0
LINE
5
76
100
AcDbEntity
8
1
62
256
6
ByLayer
370
-1
48
1
60
0
100
AcDbLine
10
94.270039
20
-7.161994
30
0
11
98.744054
21
1.417164
31
0
39
0
210
0
220
0
230
1
0
LINE
5
77
100
AcDbEntity
8
1
62
256
6
ByLayer
370
-1
48
1
60
0
100
AcDbLine
10
99.730178
20
-8.890946
30
0
11
99.730178
21
-8.969553
31
0
39
0
210
0
220
0
230
1
0
LINE
5
78
100
AcDbEntity
8
1
62
256
6
ByLayer
370
-1
48
1
60
0
100
AcDbLine
10
98.046004
20
-6.945649
30
0
11
98.046004
21
-7.024153
31
0
39
0
210
0
220
0
230
1
0
LINE
5
79
100
AcDbEntity
8
1
62
256
6
ByLayer
370
-1
48
1
60
0
100
AcDbLine
10
99.166503
20
-8.890946
30
0
11
99.166503
21
-8.969553
31
0
39
0
210
0
220
0
230
1
0
LINE
5
7A
100
AcDbEntity
8
1
62
256
6
ByLayer
370
-1
48
1
60
0
100
AcDbLine
10
98.244714
20
-7.418522
30
0
11
98.244714
21
-7.349615
31
0
39
0
210
0
220
0
230
1
0
LINE
5
7B
100
AcDbEntity
8
1
62
256
6
ByLayer
370
-1
48
1
60
0
100
AcDbLine
10
100.569845
20
-8.408588
30
0
11
100.569845
21
-8.487195
31
0
39
0
210
0
220
0
230
1
0
LINE
5
7C
100
AcDbEntity
8
1
62
256
6
ByLayer
370
-1
48
1
60
0
100
AcDbLine
10
100.850677
20
-6.945649
30
0
11
100.850677
21
-7.024153
31
0
39
0
210
0
220
0
230
1
0
LINE
5
7D
100
AcDbEntity
8
1
62
256
6
ByLayer
370
-1
48
1
60
0
100
AcDbLine
10
100.651967
20
-7.349615
30
0
11
100.651967
21
-7.418522
31
0
39
0
210
0
220
0
230
1
0
LINE
5
7E
100
AcDbEntity
8
1
62
256
6
ByLayer
370
-1
48
1
60
0
100
AcDbLine
10
98.326837
20
-8.408588
30
0
11
98.326837
21
-8.487195
31
0
39
0
210
0
220
0
230
1
0
LINE
5
7F
100
AcDbEntity
8
SK1
62
256
6
ByLayer
370
-1
48
1
60
0
100
AcDbLine
10
-199.32
20
-10.00875
30
0
11
0
21
-10.00875
31
0
39
0
210
0
220
0
230
1
0
LINE
5
80
100
AcDbEntity
8
2
62
256
6
ByLayer
370
-1
48
1
60
1
100
AcDbLine
10
99.93
20
0
30
0
11
99.931
21
0.001
31
0
39
0
210
0
220
0
230
1
0
MTEXT
5
CC
100
AcDbEntity
8
SK6
62
256
6
ByLayer
370
-1
48
1
60
0
100
AcDbMText
10
-47.046909
20
19.411875
30
0
210
0
220
0
230
1
1
\W00.783;\fsimplex.shx,bigfont.shx;A25T-SDXCL 11 
40
3.5
41
0
44
1.084337
50
0
71
7
72
5
7
DEFAULT
0
DIMENSION
5
FF
100
AcDbEntity
8
2
62
256
6
ByLayer
370
-3
48
1
60
0
100
AcDbDimension
2
DimnDraft3D1
10
112.18
20
0
30
0
11
112.18
21
-13.050658
31
0
70
32
71
5
72
1
41
1
210
0
220
0
230
1
3
Standard
100
AcDbAlignedDimension
13
101.93
23
-16.9
33
0
14
101.93
24
0
34
0
50
90
100
AcDbRotatedDimension
1001
ACAD
1000
DSTYLE
1002
{
1070
    74
1070
     0
1070
   279
1070
     0
1070
   172
1070
     1
1070
   173
1070
     1
1070
   340
1005
CD
1070
    77
1070
     1
1070
    73
1070
     0
1070
   171
1070
     4
1070
   274
1070
     4
1070
   177
1070
     2
1070
   176
1070
     2
1070
   178
1070
     7
1070
    78
1070
     8
1070
    41
1041
3.175
1070
   147
1041
2.25
1070
    42
1041
2.0
1070
    44
1041
2.0
1070
   140
1041
4.5
1070
   343
1005
100
1070
   344
1005
100
1002
}
0
DIMENSION
5
115
100
AcDbEntity
8
SK2
62
256
6
ByLayer
370
-3
48
1
60
0
100
AcDbDimension
2
DimnDraft3D2
10
-211.07
20
12.49125
30
0
11
-211.07
21
-4.784211
31
0
70
32
71
5
72
1
41
1
210
0
220
0
230
1
3
Standard
100
AcDbAlignedDimension
13
-203.32
23
-12.49125
33
0
14
-203.32
24
12.49125
34
0
50
90
100
AcDbRotatedDimension
1001
ACAD
1000
DSTYLE
1002
{
1070
    74
1070
     0
1070
   279
1070
     0
1070
   172
1070
     1
1070
   173
1070
     1
1070
   340
1005
CD
1070
    77
1070
     1
1070
    73
1070
     0
1070
   171
1070
     4
1070
   274
1070
     4
1070
   177
1070
     2
1070
   176
1070
     2
1070
   178
1070
     7
1070
    78
1070
     8
1070
    41
1041
3.175
1070
   147
1041
2.25
1070
    42
1041
2.0
1070
    44
1041
2.0
1070
   140
1041
4.5
1070
   343
1005
100
1070
   344
1005
100
1002
}
0
DIMENSION
5
123
100
AcDbEntity
8
SK2
62
256
6
ByLayer
370
-3
48
1
60
0
100
AcDbDimension
2
DimnDraft3D3
10
99.93
20
-34.15
30
0
11
-57.510132
21
-34.15
31
0
70
32
71
5
72
1
41
1
210
0
220
0
230
1
3
Standard
100
AcDbAlignedDimension
13
-201.32
23
-14.49125
33
0
14
99.93
24
-18.9
34
0
50
0
100
AcDbRotatedDimension
1001
ACAD
1000
DSTYLE
1002
{
1070
   279
1070
     0
1070
   172
1070
     1
1070
   173
1070
     1
1070
   340
1005
CD
1070
    77
1070
     1
1070
    73
1070
     0
1070
   171
1070
     4
1070
   274
1070
     4
1070
   177
1070
     2
1070
   176
1070
     2
1070
   178
1070
     7
1070
    78
1070
     8
1070
    41
1041
3.175
1070
   147
1041
2.25
1070
    42
1041
2.0
1070
    44
1041
2.0
1070
   140
1041
4.5
1070
   343
1005
100
1070
   344
1005
100
1002
}
0
DIMENSION
5
131
100
AcDbEntity
8
2
62
256
6
ByLayer
370
-3
48
1
60
0
100
AcDbDimension
2
DimnDraft3D4
10
148.669725
20
0
30
0
11
138.938615
21
27.690372
31
0
70
34
71
5
72
1
41
1
210
0
220
0
230
1
3
Standard
100
AcDb2LineAngularDimension
13
105.941175
23
-5.373258
33
0
14
127.205211
24
35.401645
34
0
15
101.93
25
0
35
0
16
145.022214
26
21.996403
36
0
40
0
0
ENDSEC
0
SECTION
2
OBJECTS
0
DICTIONARY
5
162
330
0
100
AcDbDictionary
280
0
281
1
3
ACAD_GROUP
350
163
3
ACAD_MLINESTYLE
350
164
0
DICTIONARY
5
163
330
0
100
AcDbDictionary
280
0
281
1
0
DICTIONARY
5
164
330
0
100
AcDbDictionary
280
0
281
1
3
Standard
350
18
0
MLINESTYLE
5
18
330
164
100
AcDbMlineStyle
2
Standard
70
0
3

62
256
51
90
52
90
71
2
49
-0.5
62
256
6
ByLayer
49
0.5
62
256
6
ByLayer
0
RASTERVARIABLES
5
150
330

100
AcDbRasterVariables
90
0
70
1
71
1
72
1
0
ENDSEC
0
EOF
