  0
SECTION
  2
HEADER
  9
$ACADVER
  1
AC1015
  9
$ACADMAINTVER
 70
    20
  9
$DWGCODEPAGE
  3
ANSI_1252
  9
$INSBASE
 10
0.0
 20
0.0
 30
0.0
  9
$EXTMIN
 10
-272.3838138286897
 20
-29.46706655587064
 30
0.0
  9
$EXTMAX
 10
111.2455330293103
 20
52.4052764646484
 30
0.0
  9
$LIMMIN
 10
0.0
 20
0.0
  9
$LIMMAX
 10
420.0
 20
297.0
  9
$ORTHOMODE
 70
     0
  9
$REGENMODE
 70
     1
  9
$FILLMODE
 70
     1
  9
$QTEXTMODE
 70
     0
  9
$MIRRTEXT
 70
     0
  9
$LTSCALE
 40
15.0
  9
$ATTMODE
 70
     2
  9
$TEXTSIZE
 40
2.5
  9
$TRACEWID
 40
1.0
  9
$TEXTSTYLE
  7
STANDARD
  9
$CLAYER
  8
0
  9
$CELTYPE
  6
ByLayer
  9
$CECOLOR
 62
   256
  9
$CELTSCALE
 40
1.0
  9
$DISPSILH
 70
     0
  9
$DIMSCALE
 40
1.0
  9
$DIMASZ
 40
3.5
  9
$DIMEXO
 40
1.0
  9
$DIMDLI
 40
10.0
  9
$DIMRND
 40
0.0
  9
$DIMDLE
 40
0.0
  9
$DIMEXE
 40
1.0
  9
$DIMTP
 40
0.1
  9
$DIMTM
 40
0.1
  9
$DIMTXT
 40
3.5
  9
$DIMCEN
 40
0.0
  9
$DIMTSZ
 40
0.0
  9
$DIMTOL
 70
     0
  9
$DIMLIM
 70
     0
  9
$DIMTIH
 70
     0
  9
$DIMTOH
 70
     0
  9
$DIMSE1
 70
     0
  9
$DIMSE2
 70
     0
  9
$DIMTAD
 70
     1
  9
$DIMZIN
 70
     8
  9
$DIMBLK
  1

  9
$DIMASO
 70
     1
  9
$DIMSHO
 70
     1
  9
$DIMPOST
  1

  9
$DIMAPOST
  1
"
  9
$DIMALT
 70
     0
  9
$DIMALTD
 70
     2
  9
$DIMALTF
 40
0.0393701
  9
$DIMLFAC
 40
1.0
  9
$DIMTOFL
 70
     1
  9
$DIMTVP
 40
0.0
  9
$DIMTIX
 70
     0
  9
$DIMSOXD
 70
     0
  9
$DIMSAH
 70
     0
  9
$DIMBLK1
  1

  9
$DIMBLK2
  1

  9
$DIMSTYLE
  2
AM_DIN
  9
$DIMCLRD
 70
   256
  9
$DIMCLRE
 70
   256
  9
$DIMCLRT
 70
   140
  9
$DIMTFAC
 40
0.71
  9
$DIMGAP
 40
1.5
  9
$DIMJUST
 70
     0
  9
$DIMSD1
 70
     0
  9
$DIMSD2
 70
     0
  9
$DIMTOLJ
 70
     1
  9
$DIMTZIN
 70
     0
  9
$DIMALTZ
 70
     0
  9
$DIMALTTZ
 70
     0
  9
$DIMUPT
 70
     0
  9
$DIMDEC
 70
     4
  9
$DIMTDEC
 70
     4
  9
$DIMALTU
 70
     2
  9
$DIMALTTD
 70
     2
  9
$DIMTXSTY
  7
STANDARD
  9
$DIMAUNIT
 70
     0
  9
$DIMADEC
 70
     0
  9
$DIMALTRND
 40
0.0
  9
$DIMAZIN
 70
     0
  9
$DIMDSEP
 70
    46
  9
$DIMATFIT
 70
     3
  9
$DIMFRAC
 70
     0
  9
$DIMLDRBLK
  1

  9
$DIMLUNIT
 70
     2
  9
$DIMLWD
 70
    -2
  9
$DIMLWE
 70
    -2
  9
$DIMTMOVE
 70
     0
  9
$LUNITS
 70
     2
  9
$LUPREC
 70
     2
  9
$SKETCHINC
 40
1.0
  9
$FILLETRAD
 40
2.5
  9
$AUNITS
 70
     0
  9
$AUPREC
 70
     0
  9
$MENU
  1
.
  9
$ELEVATION
 40
0.0
  9
$PELEVATION
 40
0.0
  9
$THICKNESS
 40
0.0
  9
$LIMCHECK
 70
     0
  9
$CHAMFERA
 40
2.5
  9
$CHAMFERB
 40
2.5
  9
$CHAMFERC
 40
0.0
  9
$CHAMFERD
 40
0.0
  9
$SKPOLY
 70
     0
  9
$TDCREATE
 40
2455672.497120949
  9
$TDUCREATE
 40
2455672.455454283
  9
$TDUPDATE
 40
2457718.702989178
  9
$TDUUPDATE
 40
2457718.661322512
  9
$TDINDWG
 40
0.2336373380
  9
$TDUSRTIMER
 40
0.2336369676
  9
$USRTIMER
 70
     1
  9
$ANGBASE
 50
0.0
  9
$ANGDIR
 70
     0
  9
$PDMODE
 70
     0
  9
$PDSIZE
 40
0.0
  9
$PLINEWID
 40
0.0
  9
$SPLFRAME
 70
     0
  9
$SPLINETYPE
 70
     6
  9
$SPLINESEGS
 70
     8
  9
$HANDSEED
  5
24D6
  9
$SURFTAB1
 70
     6
  9
$SURFTAB2
 70
     6
  9
$SURFTYPE
 70
     6
  9
$SURFU
 70
     6
  9
$SURFV
 70
     6
  9
$UCSBASE
  2

  9
$UCSNAME
  2

  9
$UCSORG
 10
0.0
 20
0.0
 30
0.0
  9
$UCSXDIR
 10
1.0
 20
0.0
 30
0.0
  9
$UCSYDIR
 10
0.0
 20
1.0
 30
0.0
  9
$UCSORTHOREF
  2

  9
$UCSORTHOVIEW
 70
     0
  9
$UCSORGTOP
 10
0.0
 20
0.0
 30
0.0
  9
$UCSORGBOTTOM
 10
0.0
 20
0.0
 30
0.0
  9
$UCSORGLEFT
 10
0.0
 20
0.0
 30
0.0
  9
$UCSORGRIGHT
 10
0.0
 20
0.0
 30
0.0
  9
$UCSORGFRONT
 10
0.0
 20
0.0
 30
0.0
  9
$UCSORGBACK
 10
0.0
 20
0.0
 30
0.0
  9
$PUCSBASE
  2

  9
$PUCSNAME
  2

  9
$PUCSORG
 10
0.0
 20
0.0
 30
0.0
  9
$PUCSXDIR
 10
1.0
 20
0.0
 30
0.0
  9
$PUCSYDIR
 10
0.0
 20
1.0
 30
0.0
  9
$PUCSORTHOREF
  2

  9
$PUCSORTHOVIEW
 70
     0
  9
$PUCSORGTOP
 10
0.0
 20
0.0
 30
0.0
  9
$PUCSORGBOTTOM
 10
0.0
 20
0.0
 30
0.0
  9
$PUCSORGLEFT
 10
0.0
 20
0.0
 30
0.0
  9
$PUCSORGRIGHT
 10
0.0
 20
0.0
 30
0.0
  9
$PUCSORGFRONT
 10
0.0
 20
0.0
 30
0.0
  9
$PUCSORGBACK
 10
0.0
 20
0.0
 30
0.0
  9
$USERI1
 70
     0
  9
$USERI2
 70
     0
  9
$USERI3
 70
     0
  9
$USERI4
 70
     0
  9
$USERI5
 70
     0
  9
$USERR1
 40
0.0
  9
$USERR2
 40
0.0
  9
$USERR3
 40
0.0
  9
$USERR4
 40
0.0
  9
$USERR5
 40
0.0
  9
$WORLDVIEW
 70
     1
  9
$SHADEDGE
 70
     3
  9
$SHADEDIF
 70
    70
  9
$TILEMODE
 70
     1
  9
$MAXACTVP
 70
    64
  9
$PINSBASE
 10
0.0
 20
0.0
 30
0.0
  9
$PLIMCHECK
 70
     0
  9
$PEXTMIN
 10
1.131083300733189
 20
0.7885833800308344
 30
0.0
  9
$PEXTMAX
 10
10.17974970659872
 20
7.097250420277513
 30
0.0
  9
$PLIMMIN
 10
-0.1912502979669045
 20
-0.1912499975970411
  9
$PLIMMAX
 10
11.503750057671
 20
8.072082940049059
  9
$UNITMODE
 70
     0
  9
$VISRETAIN
 70
     1
  9
$PLINEGEN
 70
     0
  9
$PSLTSCALE
 70
     1
  9
$TREEDEPTH
 70
  3020
  9
$CMLSTYLE
  2
Standard
  9
$CMLJUST
 70
     0
  9
$CMLSCALE
 40
1.0
  9
$PROXYGRAPHICS
 70
     1
  9
$MEASUREMENT
 70
     0
  9
$CELWEIGHT
370
    -1
  9
$ENDCAPS
280
     0
  9
$JOINSTYLE
280
     0
  9
$LWDISPLAY
290
     0
  9
$INSUNITS
 70
     0
  9
$HYPERLINKBASE
  1

  9
$STYLESHEET
  1

  9
$XEDIT
290
     1
  9
$CEPSNTYPE
380
     0
  9
$PSTYLEMODE
290
     1
  9
$FINGERPRINTGUID
  2
{ADDB4DA4-63F2-4FC9-B10D-A9C169351040}
  9
$VERSIONGUID
  2
{CFBE29D4-1986-45B2-A845-89BC01EA0292}
  9
$EXTNAMES
290
     1
  9
$PSVPSCALE
 40
0.0
  9
$OLESTARTUP
290
     0
  0
ENDSEC
  0
SECTION
  2
CLASSES
  0
CLASS
  1
ACDBDICTIONARYWDFLT
  2
AcDbDictionaryWithDefault
  3
ObjectDBX Classes
 90
        0
280
     0
281
     0
  0
CLASS
  1
MATERIAL
  2
AcDbMaterial
  3
ObjectDBX Classes
 90
     1153
280
     0
281
     0
  0
CLASS
  1
VISUALSTYLE
  2
AcDbVisualStyle
  3
ObjectDBX Classes
 90
     4095
280
     0
281
     0
  0
CLASS
  1
SCALE
  2
AcDbScale
  3
ObjectDBX Classes
 90
     1153
280
     0
281
     0
  0
CLASS
  1
TABLESTYLE
  2
AcDbTableStyle
  3
ObjectDBX Classes
 90
     4095
280
     0
281
     0
  0
CLASS
  1
MLEADERSTYLE
  2
AcDbMLeaderStyle
  3
ACDB_MLEADERSTYLE_CLASS
 90
     4095
280
     0
281
     0
  0
CLASS
  1
DICTIONARYVAR
  2
AcDbDictionaryVar
  3
ObjectDBX Classes
 90
        0
280
     0
281
     0
  0
CLASS
  1
CELLSTYLEMAP
  2
AcDbCellStyleMap
  3
ObjectDBX Classes
 90
     1152
280
     0
281
     0
  0
CLASS
  1
ACDBPLACEHOLDER
  2
AcDbPlaceHolder
  3
ObjectDBX Classes
 90
        0
280
     0
281
     0
  0
CLASS
  1
LAYOUT
  2
AcDbLayout
  3
ObjectDBX Classes
 90
        0
280
     0
281
     0
  0
ENDSEC
  0
SECTION
  2
TABLES
  0
TABLE
  2
VPORT
  5
2189
330
0
100
AcDbSymbolTable
 70
     1
  0
VPORT
  5
21FB
330
2189
100
AcDbSymbolTableRecord
100
AcDbViewportTableRecord
  2
*ACTIVE
 70
     0
 10
0.0
 20
0.0
 11
1.0
 21
1.0
 12
25.059336327334
 22
-22.50339357754914
 13
0.0
 23
0.0
 14
2.5
 24
2.5
 15
10.0
 25
10.0
 16
0.0
 26
0.0
 36
271.8911082557244
 17
-7.077914484763256
 27
5.165508186469383
 37
0.0
 40
71.3921391773734
 41
2.145220588235293
 42
50.0
 43
0.0
 44
0.0
 50
0.0
 51
0.0
 71
     0
 72
   100
 73
     1
 74
     3
 75
     0
 76
     0
 77
     0
 78
     0
281
     0
 65
     1
110
0.0
120
0.0
130
0.0
111
1.0
121
0.0
131
0.0
112
0.0
122
1.0
132
0.0
 79
     0
146
0.0
  0
ENDTAB
  0
TABLE
  2
LTYPE
  5
2186
330
0
100
AcDbSymbolTable
 70
     4
  0
LTYPE
  5
21E6
330
2186
100
AcDbSymbolTableRecord
100
AcDbLinetypeTableRecord
  2
ByBlock
 70
     0
  3

 72
    65
 73
     0
 40
0.0
  0
LTYPE
  5
21E7
330
2186
100
AcDbSymbolTableRecord
100
AcDbLinetypeTableRecord
  2
ByLayer
 70
     0
  3

 72
    65
 73
     0
 40
0.0
  0
LTYPE
  5
21E8
330
2186
100
AcDbSymbolTableRecord
100
AcDbLinetypeTableRecord
  2
CONTINUOUS
 70
     0
  3
Solid line
 72
    65
 73
     0
 40
0.0
  0
LTYPE
  5
21FC
330
2186
100
AcDbSymbolTableRecord
100
AcDbLinetypeTableRecord
  2
CENTER
 70
     0
  3
__ . __
 72
    65
 73
     4
 40
7.0
 49
4.0
 74
     0
 49
-1.0
 74
     0
 49
1.0
 74
     0
 49
-1.0
 74
     0
  0
LTYPE
  5
21FD
330
2186
100
AcDbSymbolTableRecord
100
AcDbLinetypeTableRecord
  2
DASHED
 70
     0
  3
- - - - - - - - - - - - - - - - - - - -
 72
    65
 73
     2
 40
0.2
 49
0.1
 74
     0
 49
-0.1
 74
     0
  0
LTYPE
  5
21FE
330
2186
100
AcDbSymbolTableRecord
100
AcDbLinetypeTableRecord
  2
CENTER2
 70
     0
  3
Center (.5x) ___ _ ___ _ ___ _ ___ _ ___ _ ___
 72
    65
 73
     4
 40
1.125
 49
0.75
 74
     0
 49
-0.125
 74
     0
 49
0.125
 74
     0
 49
-0.125
 74
     0
  0
ENDTAB
  0
TABLE
  2
LAYER
  5
2183
330
0
100
AcDbSymbolTable
 70
    12
  0
LAYER
  5
21E0
102
{ACAD_XDICTIONARY
360
22F6
102
}
330
2183
100
AcDbSymbolTableRecord
100
AcDbLayerTableRecord
  2
0
 70
     0
 62
     7
  6
CONTINUOUS
370
    -3
390
2190
  0
LAYER
  5
21FF
102
{ACAD_XDICTIONARY
360
22F8
102
}
330
2183
100
AcDbSymbolTableRecord
100
AcDbLayerTableRecord
  2
1
 70
     0
 62
     4
  6
CONTINUOUS
370
    -3
390
2190
  0
LAYER
  5
2200
330
2183
100
AcDbSymbolTableRecord
100
AcDbLayerTableRecord
  2
DEFPOINTS
 70
     0
 62
     7
  6
CONTINUOUS
290
     0
370
    -3
390
2190
  0
LAYER
  5
2201
102
{ACAD_XDICTIONARY
360
22FA
102
}
330
2183
100
AcDbSymbolTableRecord
100
AcDbLayerTableRecord
  2
80
 70
     0
 62
     6
  6
CONTINUOUS
370
    -3
390
2190
  0
LAYER
  5
2202
102
{ACAD_XDICTIONARY
360
22FC
102
}
330
2183
100
AcDbSymbolTableRecord
100
AcDbLayerTableRecord
  2
81
 70
     0
 62
     3
  6
CONTINUOUS
370
    -3
390
2190
  0
LAYER
  5
2203
102
{ACAD_XDICTIONARY
360
22FE
102
}
330
2183
100
AcDbSymbolTableRecord
100
AcDbLayerTableRecord
  2
SK4
 70
     0
 62
     2
  6
CENTER
370
    -3
390
2190
  0
LAYER
  5
2204
102
{ACAD_XDICTIONARY
360
2300
102
}
330
2183
100
AcDbSymbolTableRecord
100
AcDbLayerTableRecord
  2
SK3
 70
     0
 62
     1
  6
DASHED
370
    -3
390
2190
  0
LAYER
  5
2205
102
{ACAD_XDICTIONARY
360
2302
102
}
330
2183
100
AcDbSymbolTableRecord
100
AcDbLayerTableRecord
  2
SK2
 70
     0
 62
   255
  6
CONTINUOUS
370
    -3
390
2190
  0
LAYER
  5
2206
102
{ACAD_XDICTIONARY
360
2304
102
}
330
2183
100
AcDbSymbolTableRecord
100
AcDbLayerTableRecord
  2
SK6
 70
     0
 62
     5
  6
CONTINUOUS
370
    -3
390
2190
  0
LAYER
  5
2207
102
{ACAD_XDICTIONARY
360
2306
102
}
330
2183
100
AcDbSymbolTableRecord
100
AcDbLayerTableRecord
  2
2
 70
     0
 62
     7
  6
CONTINUOUS
370
    -3
390
2190
  0
LAYER
  5
2208
102
{ACAD_XDICTIONARY
360
2308
102
}
330
2183
100
AcDbSymbolTableRecord
100
AcDbLayerTableRecord
  2
4
 70
     0
 62
     2
  6
CENTER
370
    -3
390
2190
  0
LAYER
  5
2209
102
{ACAD_XDICTIONARY
360
230A
102
}
330
2183
100
AcDbSymbolTableRecord
100
AcDbLayerTableRecord
  2
6
 70
     0
 62
     5
  6
CONTINUOUS
370
    -3
390
2190
  0
ENDTAB
  0
TABLE
  2
STYLE
  5
2184
330
0
100
AcDbSymbolTable
 70
     4
  0
STYLE
  5
21E1
330
2184
100
AcDbSymbolTableRecord
100
AcDbTextStyleTableRecord
  2
STANDARD
 70
     0
 40
0.0
 41
1.0
 50
0.0
 71
     0
 42
2.5
  3
ISOCP.SHX
  4

  0
STYLE
  5
21E5
330
2184
100
AcDbSymbolTableRecord
100
AcDbTextStyleTableRecord
  2
ANNOTATIVE
 70
     0
 40
0.0
 41
1.0
 50
0.0
 71
     0
 42
0.2
  3
txt
  4

1001
ACADANNOTATIVE
1000
AnnotativeData
1002
{
1070
     1
1070
     1
1002
}
  0
STYLE
  5
220A
330
2184
100
AcDbSymbolTableRecord
100
AcDbTextStyleTableRecord
  2
TEXTSTYLE_2
 70
     0
 40
0.0
 41
0.72
 50
0.0
 71
     0
 42
0.2
  3
SIMPLEX.SHX
  4

  0
STYLE
  5
220B
330
2184
100
AcDbSymbolTableRecord
100
AcDbTextStyleTableRecord
  2
TEXTSTYLE_3
 70
     0
 40
0.0
 41
0.72
 50
0.0
 71
     0
 42
0.2
  3
gdt
  4

  0
ENDTAB
  0
TABLE
  2
VIEW
  5
2187
330
0
100
AcDbSymbolTable
 70
     0
  0
ENDTAB
  0
TABLE
  2
UCS
  5
2188
330
0
100
AcDbSymbolTable
 70
     0
  0
ENDTAB
  0
TABLE
  2
APPID
  5
218A
330
0
100
AcDbSymbolTable
 70
    28
  0
APPID
  5
21E2
330
218A
100
AcDbSymbolTableRecord
100
AcDbRegAppTableRecord
  2
ACAD
 70
     0
  0
APPID
  5
21E9
330
218A
100
AcDbSymbolTableRecord
100
AcDbRegAppTableRecord
  2
ACADANNOTATIVE
 70
     0
  0
APPID
  5
220C
330
218A
100
AcDbSymbolTableRecord
100
AcDbRegAppTableRecord
  2
MCAD_NO_VIS
 70
     0
  0
APPID
  5
220D
330
218A
100
AcDbSymbolTableRecord
100
AcDbRegAppTableRecord
  2
ACAD_TEMP_GRAPHIC
 70
     0
  0
APPID
  5
220E
330
218A
100
AcDbSymbolTableRecord
100
AcDbRegAppTableRecord
  2
ACATTRIBSERVICES
 70
     0
  0
APPID
  5
220F
330
218A
100
AcDbSymbolTableRecord
100
AcDbRegAppTableRecord
  2
AD_DRAW
 70
     0
  0
APPID
  5
2210
330
218A
100
AcDbSymbolTableRecord
100
AcDbRegAppTableRecord
  2
DESIGNERASSEMBLIES
 70
     0
  0
APPID
  5
2211
330
218A
100
AcDbSymbolTableRecord
100
AcDbRegAppTableRecord
  2
ACADM_DIM_EDIT
 70
     0
  0
APPID
  5
2212
330
218A
100
AcDbSymbolTableRecord
100
AcDbRegAppTableRecord
  2
AMDT_DM_ADJ
 70
     0
  0
APPID
  5
2213
330
218A
100
AcDbSymbolTableRecord
100
AcDbRegAppTableRecord
  2
ACAD_DSTYLE_DIMARC_LENGTH_
 70
     0
  0
APPID
  5
2214
330
218A
100
AcDbSymbolTableRecord
100
AcDbRegAppTableRecord
  2
ACAD_DSTYLE_DIMJOGGED_JOGA
 70
     0
  0
APPID
  5
2215
330
218A
100
AcDbSymbolTableRecord
100
AcDbRegAppTableRecord
  2
ACAECLAYERSTANDARD
 70
     0
  0
APPID
  5
2216
330
218A
100
AcDbSymbolTableRecord
100
AcDbRegAppTableRecord
  2
ACAD_MLEADERVER
 70
     0
  0
APPID
  5
2217
330
218A
100
AcDbSymbolTableRecord
100
AcDbRegAppTableRecord
  2
ACAD_DSTYLE_DIMJAG
 70
     0
  0
APPID
  5
2218
330
218A
100
AcDbSymbolTableRecord
100
AcDbRegAppTableRecord
  2
ACAD_DSTYLE_DIMBREAK
 70
     0
  0
APPID
  5
2219
330
218A
100
AcDbSymbolTableRecord
100
AcDbRegAppTableRecord
  2
ACAD_EXEMPT_FROM_CAD_STANDARDS
 70
     0
  0
APPID
  5
221A
330
218A
100
AcDbSymbolTableRecord
100
AcDbRegAppTableRecord
  2
GENIUS_GENREC_14
 70
     0
  0
APPID
  5
221B
330
218A
100
AcDbSymbolTableRecord
100
AcDbRegAppTableRecord
  2
GENIUS_GENODEF_13
 70
     0
  0
APPID
  5
221C
330
218A
100
AcDbSymbolTableRecord
100
AcDbRegAppTableRecord
  2
GENIUS_GENOBJ-N-REC_13
 70
     0
  0
APPID
  5
221D
330
218A
100
AcDbSymbolTableRecord
100
AcDbRegAppTableRecord
  2
ACAUTHENVIRON
 70
     0
  0
APPID
  5
221E
330
218A
100
AcDbSymbolTableRecord
100
AcDbRegAppTableRecord
  2
ACDBDYNAMICBLOCKTRUENAME
 70
     0
  0
APPID
  5
221F
330
218A
100
AcDbSymbolTableRecord
100
AcDbRegAppTableRecord
  2
ACDBDYNAMICBLOCKGUID
 70
     0
  0
APPID
  5
2220
330
218A
100
AcDbSymbolTableRecord
100
AcDbRegAppTableRecord
  2
ACDBBLOCKREPETAG
 70
     0
  0
APPID
  5
2221
330
218A
100
AcDbSymbolTableRecord
100
AcDbRegAppTableRecord
  2
ACADANNOPO
 70
     0
  0
APPID
  5
2222
330
218A
100
AcDbSymbolTableRecord
100
AcDbRegAppTableRecord
  2
ACDBBLOCKREPBTAG
 70
     0
  0
APPID
  5
2223
330
218A
100
AcDbSymbolTableRecord
100
AcDbRegAppTableRecord
  2
ACCMTRANSPARENCY
 70
     0
  0
APPID
  5
2224
330
218A
100
AcDbSymbolTableRecord
100
AcDbRegAppTableRecord
  2
ACAD_PSEXT
 70
     0
  0
APPID
  5
230E
330
218A
100
AcDbSymbolTableRecord
100
AcDbRegAppTableRecord
  2
DCO15
 70
     0
  0
ENDTAB
  0
TABLE
  2
DIMSTYLE
  5
218B
330
0
100
AcDbSymbolTable
 70
     5
100
AcDbDimStyleTable
 71
     2
340
21E3
340
2225
  0
DIMSTYLE
105
21E3
102
{ACAD_REACTORS
330
1DB0
330
1DB1
330
1DB2
330
1DB3
330
1DB4
330
1DB5
330
1DB6
330
22CE
102
}
330
218B
100
AcDbSymbolTableRecord
100
AcDbDimStyleTableRecord
  2
STANDARD
 70
     0
 41
3.5
 47
0.005
 48
0.005
 71
     1
 73
     0
 74
     0
 77
     1
 78
     8
140
3.5
178
     5
271
     2
272
     2
279
     2
284
     8
285
     8
286
     8
340
21E1
  0
DIMSTYLE
105
21E4
330
218B
100
AcDbSymbolTableRecord
100
AcDbDimStyleTableRecord
  2
ANNOTATIVE
 70
     0
271
     2
272
     2
279
     2
284
     8
285
     8
286
     8
340
21E1
1001
ACADANNOTATIVE
1000
AnnotativeData
1002
{
1070
     1
1070
     1
1002
}
  0
DIMSTYLE
105
2225
330
218B
100
AcDbSymbolTableRecord
100
AcDbDimStyleTableRecord
  2
AM_DIN
 70
     0
  4
"
 41
3.5
 42
1.0
 43
10.0
 44
1.0
 47
0.1
 48
0.1
 73
     0
 74
     0
 77
     1
 78
     8
140
3.5
141
0.0
143
0.0393701
146
0.71
147
1.5
172
     1
176
   256
177
   256
178
   140
271
     2
272
     2
279
     2
284
     8
285
     8
286
     8
340
21E1
  0
DIMSTYLE
105
2226
330
218B
100
AcDbSymbolTableRecord
100
AcDbDimStyleTableRecord
  2
DIMSTYLE_1
 70
     0
 41
3.5
 47
0.2
 48
0.2
 73
     0
 74
     0
 77
     1
 78
     8
140
3.5
271
     2
272
     2
279
     2
284
     8
285
     8
286
     8
340
21E1
  0
DIMSTYLE
105
2227
330
218B
100
AcDbSymbolTableRecord
100
AcDbDimStyleTableRecord
  2
DIMSTYLE_2
 70
     0
 41
3.5
 47
0.3
 48
0.3
 73
     0
 74
     0
 77
     1
 78
     8
140
3.5
271
     2
272
     2
279
     2
284
     8
285
     8
286
     8
340
21E1
  0
ENDTAB
  0
TABLE
  2
BLOCK_RECORD
  5
2182
330
0
100
AcDbSymbolTable
 70
    55
  0
BLOCK_RECORD
  5
21F7
330
2182
100
AcDbSymbolTableRecord
100
AcDbBlockTableRecord
  2
*Model_Space
340
21FA
  0
BLOCK_RECORD
  5
21F3
330
2182
100
AcDbSymbolTableRecord
100
AcDbBlockTableRecord
  2
*Paper_Space
340
21F6
  0
BLOCK_RECORD
  5
222C
330
2182
100
AcDbSymbolTableRecord
100
AcDbBlockTableRecord
  2
$MODEL_SPACE
340
0
  0
BLOCK_RECORD
  5
222E
330
2182
100
AcDbSymbolTableRecord
100
AcDbBlockTableRecord
  2
$PAPER_SPACE
340
0
  0
BLOCK_RECORD
  5
2230
330
2182
100
AcDbSymbolTableRecord
100
AcDbBlockTableRecord
  2
*D2
340
0
  0
BLOCK_RECORD
  5
2232
330
2182
100
AcDbSymbolTableRecord
100
AcDbBlockTableRecord
  2
*U3
340
0
102
{BLKREFS
331
1965
102
}
  0
BLOCK_RECORD
  5
2234
330
2182
100
AcDbSymbolTableRecord
100
AcDbBlockTableRecord
  2
*D4
340
0
  0
BLOCK_RECORD
  5
2236
330
2182
100
AcDbSymbolTableRecord
100
AcDbBlockTableRecord
  2
*U5
340
0
102
{BLKREFS
331
196E
102
}
  0
BLOCK_RECORD
  5
2238
330
2182
100
AcDbSymbolTableRecord
100
AcDbBlockTableRecord
  2
*D6
340
0
  0
BLOCK_RECORD
  5
223A
330
2182
100
AcDbSymbolTableRecord
100
AcDbBlockTableRecord
  2
*U7
340
0
102
{BLKREFS
331
19BD
102
}
  0
BLOCK_RECORD
  5
223C
330
2182
100
AcDbSymbolTableRecord
100
AcDbBlockTableRecord
  2
*D8
340
0
  0
BLOCK_RECORD
  5
223E
330
2182
100
AcDbSymbolTableRecord
100
AcDbBlockTableRecord
  2
*U9
340
0
102
{BLKREFS
331
1980
102
}
  0
BLOCK_RECORD
  5
2240
330
2182
100
AcDbSymbolTableRecord
100
AcDbBlockTableRecord
  2
*D10
340
0
  0
BLOCK_RECORD
  5
2242
330
2182
100
AcDbSymbolTableRecord
100
AcDbBlockTableRecord
  2
*U11
340
0
102
{BLKREFS
331
1989
102
}
  0
BLOCK_RECORD
  5
2244
330
2182
100
AcDbSymbolTableRecord
100
AcDbBlockTableRecord
  2
*D12
340
0
  0
BLOCK_RECORD
  5
2246
330
2182
100
AcDbSymbolTableRecord
100
AcDbBlockTableRecord
  2
*U13
340
0
102
{BLKREFS
331
1992
102
}
  0
BLOCK_RECORD
  5
2248
330
2182
100
AcDbSymbolTableRecord
100
AcDbBlockTableRecord
  2
*D14
340
0
  0
BLOCK_RECORD
  5
224A
330
2182
100
AcDbSymbolTableRecord
100
AcDbBlockTableRecord
  2
*U15
340
0
102
{BLKREFS
331
195C
102
}
  0
BLOCK_RECORD
  5
224C
330
2182
100
AcDbSymbolTableRecord
100
AcDbBlockTableRecord
  2
_FILLED
340
0
102
{BLKREFS
331
1CCB
331
1CCC
331
1CD5
331
1CD6
331
1CDF
331
1CE0
331
1CE9
331
1CEA
331
1CF3
331
1CF4
331
1CFD
331
1CFE
331
1D07
331
1D08
331
1F5D
331
1F5E
331
1F54
331
1F55
331
1F4B
331
1F4C
331
1F78
331
1F79
331
1F39
331
1F3A
331
1F66
331
1F67
331
1F6F
331
1F70
102
}
  0
BLOCK_RECORD
  5
224E
330
2182
100
AcDbSymbolTableRecord
100
AcDbBlockTableRecord
  2
*D17
340
0
  0
BLOCK_RECORD
  5
2250
330
2182
100
AcDbSymbolTableRecord
100
AcDbBlockTableRecord
  2
*U18
340
0
102
{BLKREFS
331
1CC6
102
}
  0
BLOCK_RECORD
  5
2252
330
2182
100
AcDbSymbolTableRecord
100
AcDbBlockTableRecord
  2
*D19
340
0
  0
BLOCK_RECORD
  5
2254
330
2182
100
AcDbSymbolTableRecord
100
AcDbBlockTableRecord
  2
*U20
340
0
102
{BLKREFS
331
1CD0
102
}
  0
BLOCK_RECORD
  5
2256
330
2182
100
AcDbSymbolTableRecord
100
AcDbBlockTableRecord
  2
*D21
340
0
  0
BLOCK_RECORD
  5
2258
330
2182
100
AcDbSymbolTableRecord
100
AcDbBlockTableRecord
  2
*U22
340
0
102
{BLKREFS
331
1CDA
102
}
  0
BLOCK_RECORD
  5
225A
330
2182
100
AcDbSymbolTableRecord
100
AcDbBlockTableRecord
  2
*D23
340
0
  0
BLOCK_RECORD
  5
225C
330
2182
100
AcDbSymbolTableRecord
100
AcDbBlockTableRecord
  2
*U24
340
0
102
{BLKREFS
331
1CE4
102
}
  0
BLOCK_RECORD
  5
225E
330
2182
100
AcDbSymbolTableRecord
100
AcDbBlockTableRecord
  2
*D25
340
0
  0
BLOCK_RECORD
  5
2260
330
2182
100
AcDbSymbolTableRecord
100
AcDbBlockTableRecord
  2
*U26
340
0
102
{BLKREFS
331
1CEE
102
}
  0
BLOCK_RECORD
  5
2262
330
2182
100
AcDbSymbolTableRecord
100
AcDbBlockTableRecord
  2
*D27
340
0
  0
BLOCK_RECORD
  5
2264
330
2182
100
AcDbSymbolTableRecord
100
AcDbBlockTableRecord
  2
*U28
340
0
102
{BLKREFS
331
1CF8
102
}
  0
BLOCK_RECORD
  5
2266
330
2182
100
AcDbSymbolTableRecord
100
AcDbBlockTableRecord
  2
*D29
340
0
  0
BLOCK_RECORD
  5
2268
330
2182
100
AcDbSymbolTableRecord
100
AcDbBlockTableRecord
  2
*U30
340
0
102
{BLKREFS
331
1D02
102
}
  0
BLOCK_RECORD
  5
226A
330
2182
100
AcDbSymbolTableRecord
100
AcDbBlockTableRecord
  2
*D31
340
0
  0
BLOCK_RECORD
  5
226C
330
2182
100
AcDbSymbolTableRecord
100
AcDbBlockTableRecord
  2
*U32
340
0
102
{BLKREFS
331
1F5F
102
}
  0
BLOCK_RECORD
  5
226E
330
2182
100
AcDbSymbolTableRecord
100
AcDbBlockTableRecord
  2
*D33
340
0
  0
BLOCK_RECORD
  5
2270
330
2182
100
AcDbSymbolTableRecord
100
AcDbBlockTableRecord
  2
*U34
340
0
102
{BLKREFS
331
1F56
102
}
  0
BLOCK_RECORD
  5
2272
330
2182
100
AcDbSymbolTableRecord
100
AcDbBlockTableRecord
  2
*D35
340
0
  0
BLOCK_RECORD
  5
2274
330
2182
100
AcDbSymbolTableRecord
100
AcDbBlockTableRecord
  2
*U36
340
0
102
{BLKREFS
331
1F4D
102
}
  0
BLOCK_RECORD
  5
2276
330
2182
100
AcDbSymbolTableRecord
100
AcDbBlockTableRecord
  2
*D37
340
0
  0
BLOCK_RECORD
  5
2278
330
2182
100
AcDbSymbolTableRecord
100
AcDbBlockTableRecord
  2
*U38
340
0
102
{BLKREFS
331
1F7A
102
}
  0
BLOCK_RECORD
  5
227A
330
2182
100
AcDbSymbolTableRecord
100
AcDbBlockTableRecord
  2
*D39
340
0
  0
BLOCK_RECORD
  5
227C
330
2182
100
AcDbSymbolTableRecord
100
AcDbBlockTableRecord
  2
*U40
340
0
102
{BLKREFS
331
1F3B
102
}
  0
BLOCK_RECORD
  5
227E
330
2182
100
AcDbSymbolTableRecord
100
AcDbBlockTableRecord
  2
*D41
340
0
  0
BLOCK_RECORD
  5
2280
330
2182
100
AcDbSymbolTableRecord
100
AcDbBlockTableRecord
  2
*U42
340
0
102
{BLKREFS
331
1F68
102
}
  0
BLOCK_RECORD
  5
2282
330
2182
100
AcDbSymbolTableRecord
100
AcDbBlockTableRecord
  2
*D43
340
0
  0
BLOCK_RECORD
  5
2284
330
2182
100
AcDbSymbolTableRecord
100
AcDbBlockTableRecord
  2
*U44
340
0
102
{BLKREFS
331
1F71
102
}
  0
BLOCK_RECORD
  5
2286
330
2182
100
AcDbSymbolTableRecord
100
AcDbBlockTableRecord
  2
*U45
340
0
  0
BLOCK_RECORD
  5
2288
330
2182
100
AcDbSymbolTableRecord
100
AcDbBlockTableRecord
  2
*U46
340
0
  0
BLOCK_RECORD
  5
228D
330
2182
100
AcDbSymbolTableRecord
100
AcDbBlockTableRecord
  2
*D47
340
0
  0
BLOCK_RECORD
  5
229A
330
2182
100
AcDbSymbolTableRecord
100
AcDbBlockTableRecord
  2
*D48
340
0
  0
BLOCK_RECORD
  5
22A7
330
2182
100
AcDbSymbolTableRecord
100
AcDbBlockTableRecord
  2
*D49
340
0
  0
BLOCK_RECORD
  5
22B4
330
2182
100
AcDbSymbolTableRecord
100
AcDbBlockTableRecord
  2
*D50
340
0
  0
BLOCK_RECORD
  5
22C1
330
2182
100
AcDbSymbolTableRecord
100
AcDbBlockTableRecord
  2
*D51
340
0
  0
BLOCK_RECORD
  5
22CF
330
2182
100
AcDbSymbolTableRecord
100
AcDbBlockTableRecord
  2
*D52
340
0
  0
BLOCK_RECORD
  5
2357
330
2182
100
AcDbSymbolTableRecord
100
AcDbBlockTableRecord
  2
*D53
340
0
  0
BLOCK_RECORD
  5
2364
330
2182
100
AcDbSymbolTableRecord
100
AcDbBlockTableRecord
  2
*D54
340
0
  0
ENDTAB
  0
ENDSEC
  0
SECTION
  2
BLOCKS
  0
BLOCK
  5
21F8
330
21F7
100
AcDbEntity
  8
0
100
AcDbBlockBegin
  2
*Model_Space
 70
     0
 10
0.0
 20
0.0
 30
0.0
  3
*Model_Space
  1

  0
ENDBLK
  5
21F9
330
21F7
100
AcDbEntity
  8
0
100
AcDbBlockEnd
  0
BLOCK
  5
21F4
330
21F3
100
AcDbEntity
 67
     1
  8
0
100
AcDbBlockBegin
  2
*Paper_Space
 70
     0
 10
0.0
 20
0.0
 30
0.0
  3
*Paper_Space
  1

  0
ENDBLK
  5
21F5
330
21F3
100
AcDbEntity
 67
     1
  8
0
100
AcDbBlockEnd
  0
BLOCK
  5
222D
330
222C
100
AcDbEntity
  8
0
100
AcDbBlockBegin
  2
$MODEL_SPACE
 70
     0
 10
0.0
 20
0.0
 30
0.0
  3
$MODEL_SPACE
  1

  0
ENDBLK
  5
20AC
330
222C
100
AcDbEntity
  8
0
100
AcDbBlockEnd
  0
BLOCK
  5
222F
330
222E
100
AcDbEntity
  8
0
100
AcDbBlockBegin
  2
$PAPER_SPACE
 70
     0
 10
0.0
 20
0.0
 30
0.0
  3
$PAPER_SPACE
  1

  0
ENDBLK
  5
20A8
330
222E
100
AcDbEntity
  8
0
100
AcDbBlockEnd
  0
BLOCK
  5
2231
330
2230
100
AcDbEntity
  8
0
100
AcDbBlockBegin
  2
*D2
 70
     1
 10
0.0
 20
0.0
 30
0.0
  3
*D2
  1

  0
LINE
  5
1962
330
2230
100
AcDbEntity
  8
2
 62
     0
100
AcDbLine
 10
0.0
 20
15.47474753889992
 30
0.0
 11
0.0000000000000018
 21
44.22528291250108
 31
0.0
  0
LINE
  5
1963
330
2230
100
AcDbEntity
  8
2
 62
     0
100
AcDbLine
 10
60.0
 20
11.5625
 30
0.0
 11
60.0
 21
44.22528291250108
 31
0.0
  0
LINE
  5
1964
330
2230
100
AcDbEntity
  8
2
 62
     0
100
AcDbLine
 10
3.5
 20
44.04528291250108
 30
0.0
 11
56.5
 21
44.04528291250108
 31
0.0
  0
INSERT
  5
1965
330
2230
100
AcDbEntity
  8
0
100
AcDbBlockReference
  2
*U3
 10
0.0
 20
0.0
 30
0.0
  0
SOLID
  5
1966
330
2230
100
AcDbEntity
  8
2
 62
     0
100
AcDbTrace
 10
3.5
 20
44.62861624583442
 30
0.0
 11
3.5
 21
43.46194957916774
 31
0.0
 12
0.0000000000000018
 22
44.04528291250108
 32
0.0
 13
0.0000000000000018
 23
44.04528291250108
 33
0.0
  0
SOLID
  5
1967
330
2230
100
AcDbEntity
  8
2
 62
     0
100
AcDbTrace
 10
56.5
 20
44.62861624583442
 30
0.0
 11
56.5
 21
43.46194957916774
 31
0.0
 12
60.0
 22
44.04528291250108
 32
0.0
 13
60.0
 23
44.04528291250108
 33
0.0
  0
POINT
  5
1968
330
2230
100
AcDbEntity
  8
DEFPOINTS
 62
     0
100
AcDbPoint
 10
0.0
 20
15.41224753889992
 30
0.0
  0
POINT
  5
1969
330
2230
100
AcDbEntity
  8
DEFPOINTS
 62
     0
100
AcDbPoint
 10
60.0
 20
11.5
 30
0.0
  0
POINT
  5
196A
330
2230
100
AcDbEntity
  8
DEFPOINTS
 62
     0
100
AcDbPoint
 10
60.0
 20
44.04528291250108
 30
0.0
  0
ENDBLK
  5
1875
330
2230
100
AcDbEntity
  8
0
100
AcDbBlockEnd
  0
BLOCK
  5
2233
330
2232
100
AcDbEntity
  8
0
100
AcDbBlockBegin
  2
*U3
 70
     1
 10
0.0
 20
0.0
 30
0.0
  3
*U3
  1

  0
TEXT
  5
1A69
330
2232
100
AcDbEntity
  8
2
100
AcDbText
 10
26.57647811243656
 20
44.86565621357089
 30
0.0
 40
3.5
  1
60
100
AcDbText
  0
ENDBLK
  5
1A6B
330
2232
100
AcDbEntity
  8
0
100
AcDbBlockEnd
  0
BLOCK
  5
2235
330
2234
100
AcDbEntity
  8
0
100
AcDbBlockBegin
  2
*D4
 70
     1
 10
0.0
 20
0.0
 30
0.0
  3
*D4
  1

  0
LINE
  5
196B
330
2234
100
AcDbEntity
  8
SK2
 62
     0
100
AcDbLine
 10
-48.39999999999964
 20
10.37868783880026
 30
0.0
 11
-48.39999999999964
 21
44.2331845337
 31
0.0
  0
LINE
  5
196C
330
2234
100
AcDbEntity
  8
SK2
 62
     0
100
AcDbLine
 10
0.0
 20
15.47474753889992
 30
0.0
 11
0.0000000000000018
 21
44.2331845337
 31
0.0
  0
LINE
  5
196D
330
2234
100
AcDbEntity
  8
SK2
 62
     0
100
AcDbLine
 10
-44.89999999999962
 20
44.05318453369999
 30
0.0
 11
-3.499999999999996
 21
44.05318453369999
 31
0.0
  0
INSERT
  5
196E
330
2234
100
AcDbEntity
  8
0
100
AcDbBlockReference
  2
*U5
 10
0.0
 20
0.0
 30
0.0
  0
SOLID
  5
196F
330
2234
100
AcDbEntity
  8
SK2
 62
     0
100
AcDbTrace
 10
-44.89999999999962
 20
44.63651786703334
 30
0.0
 11
-44.89999999999962
 21
43.46985120036666
 31
0.0
 12
-48.39999999999964
 22
44.05318453369999
 32
0.0
 13
-48.39999999999964
 23
44.05318453369999
 33
0.0
  0
SOLID
  5
1970
330
2234
100
AcDbEntity
  8
SK2
 62
     0
100
AcDbTrace
 10
-3.499999999999996
 20
44.63651786703334
 30
0.0
 11
-3.499999999999996
 21
43.46985120036666
 31
0.0
 12
0.0000000000000018
 22
44.05318453369999
 32
0.0
 13
0.0000000000000018
 23
44.05318453369999
 33
0.0
  0
POINT
  5
1971
330
2234
100
AcDbEntity
  8
DEFPOINTS
 62
     0
100
AcDbPoint
 10
-48.39999999999964
 20
10.31618783880026
 30
0.0
  0
POINT
  5
1972
330
2234
100
AcDbEntity
  8
DEFPOINTS
 62
     0
100
AcDbPoint
 10
0.0
 20
15.41224753889992
 30
0.0
  0
POINT
  5
1973
330
2234
100
AcDbEntity
  8
DEFPOINTS
 62
     0
100
AcDbPoint
 10
0.0000000000000018
 20
44.05318453369999
 30
0.0
  0
ENDBLK
  5
18D4
330
2234
100
AcDbEntity
  8
0
100
AcDbBlockEnd
  0
BLOCK
  5
2237
330
2236
100
AcDbEntity
  8
0
100
AcDbBlockBegin
  2
*U5
 70
     1
 10
0.0
 20
0.0
 30
0.0
  3
*U5
  1

  0
TEXT
  5
1A6D
330
2236
100
AcDbEntity
  8
SK2
100
AcDbText
 10
-31.73018861516793
 20
44.99203433457181
 30
0.0
 40
3.5
  1
48.4
100
AcDbText
  0
ENDBLK
  5
1A6F
330
2236
100
AcDbEntity
  8
0
100
AcDbBlockEnd
  0
BLOCK
  5
2239
330
2238
100
AcDbEntity
  8
0
100
AcDbBlockBegin
  2
*D6
 70
     1
 10
0.0
 20
0.0
 30
0.0
  3
*D6
  1

  0
LINE
  5
19BA
330
2238
100
AcDbEntity
  8
2
 62
     0
100
AcDbLine
 10
0.0
 20
15.47474753889992
 30
0.0
 11
0.0000000000000013
 21
36.11458243420105
 31
0.0
  0
LINE
  5
19BB
330
2238
100
AcDbEntity
  8
2
 62
     0
100
AcDbLine
 10
22.0
 20
23.962500000001
 30
0.0
 11
22.0
 21
36.11458243420105
 31
0.0
  0
LINE
  5
19BC
330
2238
100
AcDbEntity
  8
2
 62
     0
100
AcDbLine
 10
3.5
 20
35.93458243420105
 30
0.0
 11
18.5
 21
35.93458243420105
 31
0.0
  0
INSERT
  5
19BD
330
2238
100
AcDbEntity
  8
0
100
AcDbBlockReference
  2
*U7
 10
0.0
 20
0.0
 30
0.0
  0
SOLID
  5
19BE
330
2238
100
AcDbEntity
  8
2
 62
     0
100
AcDbTrace
 10
3.5
 20
36.51791576753439
 30
0.0
 11
3.5
 21
35.35124910086771
 31
0.0
 12
0.0000000000000013
 22
35.93458243420105
 32
0.0
 13
0.0000000000000013
 23
35.93458243420105
 33
0.0
  0
SOLID
  5
19BF
330
2238
100
AcDbEntity
  8
2
 62
     0
100
AcDbTrace
 10
18.5
 20
36.51791576753439
 30
0.0
 11
18.5
 21
35.35124910086771
 31
0.0
 12
22.0
 22
35.93458243420105
 32
0.0
 13
22.0
 23
35.93458243420105
 33
0.0
  0
POINT
  5
19C0
330
2238
100
AcDbEntity
  8
DEFPOINTS
 62
     0
100
AcDbPoint
 10
0.0
 20
15.41224753889992
 30
0.0
  0
POINT
  5
19C1
330
2238
100
AcDbEntity
  8
DEFPOINTS
 62
     0
100
AcDbPoint
 10
22.0
 20
23.900000000001
 30
0.0
  0
POINT
  5
19C2
330
2238
100
AcDbEntity
  8
DEFPOINTS
 62
     0
100
AcDbPoint
 10
22.0
 20
35.93458243420105
 30
0.0
  0
ENDBLK
  5
18E0
330
2238
100
AcDbEntity
  8
0
100
AcDbBlockEnd
  0
BLOCK
  5
223B
330
223A
100
AcDbEntity
  8
0
100
AcDbBlockBegin
  2
*U7
 70
     1
 10
0.0
 20
0.0
 30
0.0
  3
*U7
  1

  0
TEXT
  5
1A7F
330
223A
100
AcDbEntity
  8
2
100
AcDbText
 10
7.729649161784447
 20
36.72992496952907
 30
0.0
 40
3.5
  1
22
100
AcDbText
  0
ENDBLK
  5
1A81
330
223A
100
AcDbEntity
  8
0
100
AcDbBlockEnd
  0
BLOCK
  5
223D
330
223C
100
AcDbEntity
  8
0
100
AcDbBlockBegin
  2
*D8
 70
     1
 10
0.0
 20
0.0
 30
0.0
  3
*D8
  1

  0
LINE
  5
197D
330
223C
100
AcDbEntity
  8
SK2
 62
     0
100
AcDbLine
 10
1.037499999999909
 20
-22.99999999999863
 30
0.0
 11
-71.73780759629966
 21
-22.99999999999863
 31
0.0
  0
LINE
  5
197E
330
223C
100
AcDbEntity
  8
SK2
 62
     0
100
AcDbLine
 10
1.037499999999909
 20
23.00000000000137
 30
0.0
 11
-71.73780759629966
 21
23.00000000000137
 31
0.0
  0
LINE
  5
197F
330
223C
100
AcDbEntity
  8
SK2
 62
     0
100
AcDbLine
 10
-71.55780759629966
 20
-19.49999999999862
 30
0.0
 11
-71.55780759629966
 21
19.50000000000137
 31
0.0
  0
INSERT
  5
1980
330
223C
100
AcDbEntity
  8
0
100
AcDbBlockReference
  2
*U9
 10
0.0
 20
0.0
 30
0.0
  0
SOLID
  5
1981
330
223C
100
AcDbEntity
  8
SK2
 62
     0
100
AcDbTrace
 10
-72.14114092963298
 20
-19.49999999999861
 30
0.0
 11
-70.97447426296631
 21
-19.49999999999862
 31
0.0
 12
-71.55780759629966
 22
-22.99999999999863
 32
0.0
 13
-71.55780759629966
 23
-22.99999999999863
 33
0.0
  0
SOLID
  5
1982
330
223C
100
AcDbEntity
  8
SK2
 62
     0
100
AcDbTrace
 10
-72.14114092963298
 20
19.50000000000137
 30
0.0
 11
-70.97447426296631
 21
19.50000000000137
 31
0.0
 12
-71.55780759629966
 22
23.00000000000137
 32
0.0
 13
-71.55780759629966
 23
23.00000000000137
 33
0.0
  0
POINT
  5
1983
330
223C
100
AcDbEntity
  8
DEFPOINTS
 62
     0
100
AcDbPoint
 10
1.099999999999909
 20
-22.99999999999863
 30
0.0
  0
POINT
  5
1984
330
223C
100
AcDbEntity
  8
DEFPOINTS
 62
     0
100
AcDbPoint
 10
1.099999999999909
 20
23.00000000000137
 30
0.0
  0
POINT
  5
1985
330
223C
100
AcDbEntity
  8
DEFPOINTS
 62
     0
100
AcDbPoint
 10
-71.55780759629966
 20
23.00000000000137
 30
0.0
  0
ENDBLK
  5
18EC
330
223C
100
AcDbEntity
  8
0
100
AcDbBlockEnd
  0
BLOCK
  5
223F
330
223E
100
AcDbEntity
  8
0
100
AcDbBlockBegin
  2
*U9
 70
     1
 10
0.0
 20
0.0
 30
0.0
  3
*U9
  1

  0
TEXT
  5
1A71
330
223E
100
AcDbEntity
  8
SK2
100
AcDbText
 10
-72.26342445040393
 20
-5.551610435369664
 30
0.0
 40
3.5
  1
\U+220546
 50
90.0
100
AcDbText
  0
ENDBLK
  5
1A73
330
223E
100
AcDbEntity
  8
0
100
AcDbBlockEnd
  0
BLOCK
  5
2241
330
2240
100
AcDbEntity
  8
0
100
AcDbBlockBegin
  2
*D10
 70
     1
 10
0.0
 20
0.0
 30
0.0
  3
*D10
  1

  0
LINE
  5
1986
330
2240
100
AcDbEntity
  8
SK2
 62
     0
100
AcDbLine
 10
-1.5625
 20
15.87500000000136
 30
0.0
 11
-62.40446057479953
 21
15.87500000000138
 31
0.0
  0
LINE
  5
1987
330
2240
100
AcDbEntity
  8
SK2
 62
     0
100
AcDbLine
 10
-2.462500000000087
 20
-15.875
 30
0.0
 11
-62.40446057479953
 21
-15.87499999999998
 31
0.0
  0
LINE
  5
1988
330
2240
100
AcDbEntity
  8
SK2
 62
     0
100
AcDbLine
 10
-62.22446057479952
 20
12.37500000000138
 30
0.0
 11
-62.22446057479952
 21
-12.37499999999998
 31
0.0
  0
INSERT
  5
1989
330
2240
100
AcDbEntity
  8
0
100
AcDbBlockReference
  2
*U11
 10
0.0
 20
0.0
 30
0.0
  0
SOLID
  5
198A
330
2240
100
AcDbEntity
  8
SK2
 62
     0
100
AcDbTrace
 10
-62.80779390813286
 20
12.37500000000138
 30
0.0
 11
-61.64112724146621
 21
12.37500000000138
 31
0.0
 12
-62.22446057479952
 22
15.87500000000138
 32
0.0
 13
-62.22446057479952
 23
15.87500000000138
 33
0.0
  0
SOLID
  5
198B
330
2240
100
AcDbEntity
  8
SK2
 62
     0
100
AcDbTrace
 10
-62.80779390813286
 20
-12.37499999999998
 30
0.0
 11
-61.64112724146621
 21
-12.37499999999998
 31
0.0
 12
-62.22446057479952
 22
-15.87499999999998
 32
0.0
 13
-62.22446057479952
 23
-15.87499999999998
 33
0.0
  0
POINT
  5
198C
330
2240
100
AcDbEntity
  8
DEFPOINTS
 62
     0
100
AcDbPoint
 10
-1.5
 20
15.87500000000136
 30
0.0
  0
POINT
  5
198D
330
2240
100
AcDbEntity
  8
DEFPOINTS
 62
     0
100
AcDbPoint
 10
-2.400000000000087
 20
-15.875
 30
0.0
  0
POINT
  5
198E
330
2240
100
AcDbEntity
  8
DEFPOINTS
 62
     0
100
AcDbPoint
 10
-62.22446057479952
 20
-15.87499999999998
 30
0.0
  0
ENDBLK
  5
18F8
330
2240
100
AcDbEntity
  8
0
100
AcDbBlockEnd
  0
BLOCK
  5
2243
330
2242
100
AcDbEntity
  8
0
100
AcDbBlockBegin
  2
*U11
 70
     1
 10
0.0
 20
0.0
 30
0.0
  3
*U11
  1

  0
TEXT
  5
1A75
330
2242
100
AcDbEntity
  8
SK2
100
AcDbText
 10
-62.89373359312481
 20
-8.412806503916682
 30
0.0
 40
3.5
  1
\U+220531.75
 50
90.0
100
AcDbText
  0
ENDBLK
  5
1A77
330
2242
100
AcDbEntity
  8
0
100
AcDbBlockEnd
  0
BLOCK
  5
2245
330
2244
100
AcDbEntity
  8
0
100
AcDbBlockBegin
  2
*D12
 70
     1
 10
0.0
 20
0.0
 30
0.0
  3
*D12
  1

  0
LINE
  5
198F
330
2244
100
AcDbEntity
  8
SK2
 62
     0
100
AcDbLine
 10
-42.40949999999964
 20
-5.999999999998633
 30
0.0
 11
-55.42437952949961
 21
-5.999999999998633
 31
0.0
  0
LINE
  5
1990
330
2244
100
AcDbEntity
  8
SK2
 62
     0
100
AcDbLine
 10
-42.40949999999964
 20
6.0
 30
0.0
 11
-55.42437952949961
 21
6.0
 31
0.0
  0
LINE
  5
1991
330
2244
100
AcDbEntity
  8
SK2
 62
     0
100
AcDbLine
 10
-55.24437952949959
 20
-2.499999999998629
 30
0.0
 11
-55.24437952949959
 21
2.500000000000003
 31
0.0
  0
INSERT
  5
1992
330
2244
100
AcDbEntity
  8
0
100
AcDbBlockReference
  2
*U13
 10
0.0
 20
0.0
 30
0.0
  0
SOLID
  5
1993
330
2244
100
AcDbEntity
  8
SK2
 62
     0
100
AcDbTrace
 10
-55.82771286283294
 20
-2.499999999998629
 30
0.0
 11
-54.66104619616626
 21
-2.499999999998629
 31
0.0
 12
-55.24437952949959
 22
-5.999999999998633
 32
0.0
 13
-55.24437952949959
 23
-5.999999999998633
 33
0.0
  0
SOLID
  5
1994
330
2244
100
AcDbEntity
  8
SK2
 62
     0
100
AcDbTrace
 10
-55.82771286283294
 20
2.500000000000003
 30
0.0
 11
-54.66104619616626
 21
2.500000000000003
 31
0.0
 12
-55.24437952949959
 22
6.0
 32
0.0
 13
-55.24437952949959
 23
6.0
 33
0.0
  0
POINT
  5
1995
330
2244
100
AcDbEntity
  8
DEFPOINTS
 62
     0
100
AcDbPoint
 10
-42.34699999999963
 20
-5.999999999998633
 30
0.0
  0
POINT
  5
1996
330
2244
100
AcDbEntity
  8
DEFPOINTS
 62
     0
100
AcDbPoint
 10
-42.34699999999963
 20
6.0
 30
0.0
  0
POINT
  5
1997
330
2244
100
AcDbEntity
  8
DEFPOINTS
 62
     0
100
AcDbPoint
 10
-55.24437952949959
 20
6.0
 30
0.0
  0
ENDBLK
  5
1904
330
2244
100
AcDbEntity
  8
0
100
AcDbBlockEnd
  0
BLOCK
  5
2247
330
2246
100
AcDbEntity
  8
0
100
AcDbBlockBegin
  2
*U13
 70
     1
 10
0.0
 20
0.0
 30
0.0
  3
*U13
  1

  0
TEXT
  5
1A79
330
2246
100
AcDbEntity
  8
SK2
100
AcDbText
 10
-56.22137771621806
 20
-4.122943178965763
 30
0.0
 40
3.5
  1
M12
 50
90.0
100
AcDbText
  0
ENDBLK
  5
1A7B
330
2246
100
AcDbEntity
  8
0
100
AcDbBlockEnd
  0
BLOCK
  5
2249
330
2248
100
AcDbEntity
  8
0
100
AcDbBlockBegin
  2
*D14
 70
     1
 10
0.0
 20
0.0
 30
0.0
  3
*D14
  1

  0
LINE
  5
1959
330
2248
100
AcDbEntity
  8
SK2
 62
     0
100
AcDbLine
 10
57.52149999999982
 20
-17.0
 30
0.0
 11
75.05248683719099
 21
-17.0
 31
0.0
  0
LINE
  5
195A
330
2248
100
AcDbEntity
  8
SK2
 62
     0
100
AcDbLine
 10
57.52149999999982
 20
17.0
 30
0.0
 11
75.05248683719099
 21
17.0
 31
0.0
  0
LINE
  5
195B
330
2248
100
AcDbEntity
  8
SK2
 62
     0
100
AcDbLine
 10
74.87248683719098
 20
-13.5
 30
0.0
 11
74.87248683719098
 21
13.5
 31
0.0
  0
INSERT
  5
195C
330
2248
100
AcDbEntity
  8
0
100
AcDbBlockReference
  2
*U15
 10
0.0
 20
0.0
 30
0.0
  0
SOLID
  5
195D
330
2248
100
AcDbEntity
  8
SK2
 62
     0
100
AcDbTrace
 10
74.28915350385766
 20
-13.5
 30
0.0
 11
75.45582017052431
 21
-13.5
 31
0.0
 12
74.87248683719098
 22
-17.0
 32
0.0
 13
74.87248683719098
 23
-17.0
 33
0.0
  0
SOLID
  5
195E
330
2248
100
AcDbEntity
  8
SK2
 62
     0
100
AcDbTrace
 10
74.28915350385766
 20
13.5
 30
0.0
 11
75.45582017052431
 21
13.5
 31
0.0
 12
74.87248683719098
 22
17.0
 32
0.0
 13
74.87248683719098
 23
17.0
 33
0.0
  0
POINT
  5
195F
330
2248
100
AcDbEntity
  8
DEFPOINTS
 62
     0
100
AcDbPoint
 10
57.45899999999982
 20
-17.0
 30
0.0
  0
POINT
  5
1960
330
2248
100
AcDbEntity
  8
DEFPOINTS
 62
     0
100
AcDbPoint
 10
57.45899999999982
 20
17.0
 30
0.0
  0
POINT
  5
1961
330
2248
100
AcDbEntity
  8
DEFPOINTS
 62
     0
100
AcDbPoint
 10
74.87248683719098
 20
17.0
 30
0.0
  0
ENDBLK
  5
1910
330
2248
100
AcDbEntity
  8
0
100
AcDbBlockEnd
  0
BLOCK
  5
224B
330
224A
100
AcDbEntity
  8
0
100
AcDbBlockBegin
  2
*U15
 70
     1
 10
0.0
 20
0.0
 30
0.0
  3
*U15
  1

  0
TEXT
  5
1A65
330
224A
100
AcDbEntity
  8
SK2
100
AcDbText
 10
74.20886536071794
 20
-5.288761393091768
 30
0.0
 40
3.5
  1
\U+220534
 50
90.0
100
AcDbText
  0
ENDBLK
  5
1A67
330
224A
100
AcDbEntity
  8
0
100
AcDbBlockEnd
  0
BLOCK
  5
224D
330
224C
100
AcDbEntity
  8
0
100
AcDbBlockBegin
  2
_FILLED
 70
     0
 10
0.0
 20
0.0
 30
0.0
  3
_FILLED
  1

  0
SOLID
  5
1CC2
330
224C
100
AcDbEntity
  8
0
  6
ByBlock
 62
     0
100
AcDbTrace
 10
0.0
 20
0.0
 30
0.0
 11
-1.0
 21
0.125
 31
0.0
 12
-1.0
 22
-0.125
 32
0.0
 13
-1.0
 23
-0.125
 33
0.0
  0
ENDBLK
  5
1CC3
330
224C
100
AcDbEntity
  8
0
  6
ByBlock
 62
     0
100
AcDbBlockEnd
  0
BLOCK
  5
224F
330
224E
100
AcDbEntity
  8
1
  6
Continuous
 62
     2
100
AcDbBlockBegin
  2
*D17
 70
     1
 10
0.0
 20
0.0
 30
0.0
  3
*D17
  1

  0
INSERT
  5
1CC6
330
224E
100
AcDbEntity
  8
0
100
AcDbBlockReference
  2
*U18
 10
0.0
 20
0.0
 30
0.0
  0
LINE
  5
1CC7
330
224E
100
AcDbEntity
  8
1
  6
Continuous
 62
     2
100
AcDbLine
 10
29.1731329048
 20
23.6755226667
 30
0.0
 11
16.5538942408
 21
23.6755226667
 31
0.0
  0
LINE
  5
1CC8
330
224E
100
AcDbEntity
  8
1
  6
Continuous
 62
     2
100
AcDbLine
 10
29.1731329048
 20
35.6755226667
 30
0.0
 11
16.5538942408
 21
35.6755226667
 31
0.0
  0
LINE
  5
1CC9
330
224E
100
AcDbEntity
  8
1
  6
Continuous
 62
     2
100
AcDbLine
 10
18.0538942408
 20
23.6755226667
 30
0.0
 11
18.0538942408
 21
29.6755226667
 31
0.0
  0
LINE
  5
1CCA
330
224E
100
AcDbEntity
  8
1
  6
Continuous
 62
     2
100
AcDbLine
 10
18.0538942408
 20
35.6755226667
 30
0.0
 11
18.0538942408
 21
29.6755226667
 31
0.0
  0
INSERT
  5
1CCB
330
224E
100
AcDbEntity
  8
1
  6
Continuous
 62
     2
100
AcDbBlockReference
  2
_FILLED
 10
18.0538942408
 20
23.6755226667
 30
0.0
 41
3.5
 42
3.5
 43
3.5
 50
270.0
  0
INSERT
  5
1CCC
330
224E
100
AcDbEntity
  8
1
  6
Continuous
 62
     2
100
AcDbBlockReference
  2
_FILLED
 10
18.0538942408
 20
35.6755226667
 30
0.0
 41
3.5
 42
3.5
 43
3.5
 50
90.0
  0
ENDBLK
  5
1CCD
330
224E
100
AcDbEntity
  8
0
  6
ByBlock
 62
     0
100
AcDbBlockEnd
  0
BLOCK
  5
2251
330
2250
100
AcDbEntity
  8
0
100
AcDbBlockBegin
  2
*U18
 70
     1
 10
0.0
 20
0.0
 30
0.0
  3
*U18
  1

  0
TEXT
  5
1FF0
330
2250
100
AcDbEntity
  8
1
 62
     2
100
AcDbText
 10
17.1788942408
 20
27.2949576839
 30
0.0
 40
3.5
  1
M12
 50
90.0
 41
0.72
  7
TEXTSTYLE_2
100
AcDbText
  0
ENDBLK
  5
1FF2
330
2250
100
AcDbEntity
  8
0
100
AcDbBlockEnd
  0
BLOCK
  5
2253
330
2252
100
AcDbEntity
  8
1
  6
Continuous
 62
     2
100
AcDbBlockBegin
  2
*D19
 70
     1
 10
0.0
 20
0.0
 30
0.0
  3
*D19
  1

  0
INSERT
  5
1CD0
330
2252
100
AcDbEntity
  8
0
100
AcDbBlockReference
  2
*U20
 10
0.0
 20
0.0
 30
0.0
  0
LINE
  5
1CD1
330
2252
100
AcDbEntity
  8
1
  6
Continuous
 62
     2
100
AcDbLine
 10
70.02013290479999
 20
45.55052266669997
 30
0.0
 11
8.486487886999999
 21
45.55052266669997
 31
0.0
  0
LINE
  5
1CD2
330
2252
100
AcDbEntity
  8
1
  6
Continuous
 62
     2
100
AcDbLine
 10
69.1201329048
 20
13.8005226667
 30
0.0
 11
8.486487886999999
 21
13.8005226667
 31
0.0
  0
LINE
  5
1CD3
330
2252
100
AcDbEntity
  8
1
  6
Continuous
 62
     2
100
AcDbLine
 10
9.986487887
 20
45.55052266669997
 30
0.0
 11
9.986487887
 21
29.6755226667
 31
0.0
  0
LINE
  5
1CD4
330
2252
100
AcDbEntity
  8
1
  6
Continuous
 62
     2
100
AcDbLine
 10
9.986487887
 20
13.8005226667
 30
0.0
 11
9.986487887
 21
29.6755226667
 31
0.0
  0
INSERT
  5
1CD5
330
2252
100
AcDbEntity
  8
1
  6
Continuous
 62
     2
100
AcDbBlockReference
  2
_FILLED
 10
9.986487887
 20
45.55052266669997
 30
0.0
 41
3.5
 42
3.5
 43
3.5
 50
90.0
  0
INSERT
  5
1CD6
330
2252
100
AcDbEntity
  8
1
  6
Continuous
 62
     2
100
AcDbBlockReference
  2
_FILLED
 10
9.986487887
 20
13.8005226667
 30
0.0
 41
3.5
 42
3.5
 43
3.5
 50
270.0
  0
ENDBLK
  5
1CD7
330
2252
100
AcDbEntity
  8
0
  6
ByBlock
 62
     0
100
AcDbBlockEnd
  0
BLOCK
  5
2255
330
2254
100
AcDbEntity
  8
0
100
AcDbBlockBegin
  2
*U20
 70
     1
 10
0.0
 20
0.0
 30
0.0
  3
*U20
  1

  0
TEXT
  5
1FF4
330
2254
100
AcDbEntity
  8
1
 62
     2
100
AcDbText
 10
9.944821220333334
 20
25.1246373648
 30
0.0
 40
3.5
  1
n
 50
90.0
 41
0.72
  7
TEXTSTYLE_3
100
AcDbText
  0
TEXT
  5
1FF5
330
2254
100
AcDbEntity
  8
1
 62
     2
100
AcDbText
 10
9.944821220333334
 20
28.0046373648
 30
0.0
 40
3.5
  1
31.75
 50
90.0
 41
0.72
  7
TEXTSTYLE_3
100
AcDbText
  0
ENDBLK
  5
1FF7
330
2254
100
AcDbEntity
  8
0
100
AcDbBlockEnd
  0
BLOCK
  5
2257
330
2256
100
AcDbEntity
  8
1
  6
Continuous
 62
     2
100
AcDbBlockBegin
  2
*D21
 70
     1
 10
0.0
 20
0.0
 30
0.0
  3
*D21
  1

  0
INSERT
  5
1CDA
330
2256
100
AcDbEntity
  8
0
100
AcDbBlockReference
  2
*U22
 10
0.0
 20
0.0
 30
0.0
  0
LINE
  5
1CDB
330
2256
100
AcDbEntity
  8
1
  6
Continuous
 62
     2
100
AcDbLine
 10
72.6201329048
 20
6.675522666699999
 30
0.0
 11
0.0
 21
6.675522666699999
 31
0.0
  0
LINE
  5
1CDC
330
2256
100
AcDbEntity
  8
1
  6
Continuous
 62
     2
100
AcDbLine
 10
72.6201329048
 20
52.6755226667
 30
0.0
 11
0.0
 21
52.6755226667
 31
0.0
  0
LINE
  5
1CDD
330
2256
100
AcDbEntity
  8
1
  6
Continuous
 62
     2
100
AcDbLine
 10
1.5
 20
6.675522666699999
 30
0.0
 11
1.5
 21
29.6755226667
 31
0.0
  0
LINE
  5
1CDE
330
2256
100
AcDbEntity
  8
1
  6
Continuous
 62
     2
100
AcDbLine
 10
1.5
 20
52.6755226667
 30
0.0
 11
1.5
 21
29.6755226667
 31
0.0
  0
INSERT
  5
1CDF
330
2256
100
AcDbEntity
  8
1
  6
Continuous
 62
     2
100
AcDbBlockReference
  2
_FILLED
 10
1.5
 20
6.675522666699999
 30
0.0
 41
3.5
 42
3.5
 43
3.5
 50
270.0
  0
INSERT
  5
1CE0
330
2256
100
AcDbEntity
  8
1
  6
Continuous
 62
     2
100
AcDbBlockReference
  2
_FILLED
 10
1.5
 20
52.6755226667
 30
0.0
 41
3.5
 42
3.5
 43
3.5
 50
90.0
  0
ENDBLK
  5
1CE1
330
2256
100
AcDbEntity
  8
0
  6
ByBlock
 62
     0
100
AcDbBlockEnd
  0
BLOCK
  5
2259
330
2258
100
AcDbEntity
  8
0
100
AcDbBlockBegin
  2
*U22
 70
     1
 10
0.0
 20
0.0
 30
0.0
  3
*U22
  1

  0
TEXT
  5
1FF9
330
2258
100
AcDbEntity
  8
1
 62
     2
100
AcDbText
 10
1.458333333333333
 20
26.6956207107
 30
0.0
 40
3.5
  1
n
 50
90.0
 41
0.72
  7
TEXTSTYLE_3
100
AcDbText
  0
TEXT
  5
1FFA
330
2258
100
AcDbEntity
  8
1
 62
     2
100
AcDbText
 10
1.458333333333333
 20
29.5756207107
 30
0.0
 40
3.5
  1
46
 50
90.0
 41
0.72
  7
TEXTSTYLE_3
100
AcDbText
  0
ENDBLK
  5
1FFC
330
2258
100
AcDbEntity
  8
0
100
AcDbBlockEnd
  0
BLOCK
  5
225B
330
225A
100
AcDbEntity
  8
1
  6
Continuous
 62
     2
100
AcDbBlockBegin
  2
*D23
 70
     1
 10
0.0
 20
0.0
 30
0.0
  3
*D23
  1

  0
INSERT
  5
1CE4
330
225A
100
AcDbEntity
  8
0
100
AcDbBlockReference
  2
*U24
 10
0.0
 20
0.0
 30
0.0
  0
LINE
  5
1CE5
330
225A
100
AcDbEntity
  8
1
  6
Continuous
 62
     2
100
AcDbLine
 10
71.52013290479998
 20
45.0877702056
 30
0.0
 11
71.52013290479998
 21
64.4851051009
 31
0.0
  0
LINE
  5
1CE6
330
225A
100
AcDbEntity
  8
1
  6
Continuous
 62
     2
100
AcDbLine
 10
93.5201329048
 20
53.5755226667
 30
0.0
 11
93.5201329048
 21
64.4851051009
 31
0.0
  0
LINE
  5
1CE7
330
225A
100
AcDbEntity
  8
1
  6
Continuous
 62
     2
100
AcDbLine
 10
71.52013290479998
 20
62.9851051009
 30
0.0
 11
82.52013290479998
 21
62.9851051009
 31
0.0
  0
LINE
  5
1CE8
330
225A
100
AcDbEntity
  8
1
  6
Continuous
 62
     2
100
AcDbLine
 10
93.5201329048
 20
62.9851051009
 30
0.0
 11
82.52013290479998
 21
62.9851051009
 31
0.0
  0
INSERT
  5
1CE9
330
225A
100
AcDbEntity
  8
1
  6
Continuous
 62
     2
100
AcDbBlockReference
  2
_FILLED
 10
71.52013290479998
 20
62.9851051009
 30
0.0
 41
3.5
 42
3.5
 43
3.5
 50
180.0
  0
INSERT
  5
1CEA
330
225A
100
AcDbEntity
  8
1
  6
Continuous
 62
     2
100
AcDbBlockReference
  2
_FILLED
 10
93.5201329048
 20
62.9851051009
 30
0.0
 41
3.5
 42
3.5
 43
3.5
  0
ENDBLK
  5
1CEB
330
225A
100
AcDbEntity
  8
0
  6
ByBlock
 62
     0
100
AcDbBlockEnd
  0
BLOCK
  5
225D
330
225C
100
AcDbEntity
  8
0
100
AcDbBlockBegin
  2
*U24
 70
     1
 10
0.0
 20
0.0
 30
0.0
  3
*U24
  1

  0
TEXT
  5
1FFE
330
225C
100
AcDbEntity
  8
1
 62
     2
100
AcDbText
 10
81.65105511590001
 20
63.8601051009
 30
0.0
 40
3.5
  1
22
 41
0.72
  7
TEXTSTYLE_2
100
AcDbText
  0
ENDBLK
  5
2000
330
225C
100
AcDbEntity
  8
0
100
AcDbBlockEnd
  0
BLOCK
  5
225F
330
225E
100
AcDbEntity
  8
1
  6
Continuous
 62
     2
100
AcDbBlockBegin
  2
*D25
 70
     1
 10
0.0
 20
0.0
 30
0.0
  3
*D25
  1

  0
INSERT
  5
1CEE
330
225E
100
AcDbEntity
  8
0
100
AcDbBlockReference
  2
*U26
 10
0.0
 20
0.0
 30
0.0
  0
LINE
  5
1CEF
330
225E
100
AcDbEntity
  8
1
  6
Continuous
 62
     2
100
AcDbLine
 10
23.1201329048
 20
39.9917105056
 30
0.0
 11
23.1201329048
 21
72.60370720049998
 31
0.0
  0
LINE
  5
1CF0
330
225E
100
AcDbEntity
  8
1
  6
Continuous
 62
     2
100
AcDbLine
 10
71.52013290479998
 20
45.0877702056
 30
0.0
 11
71.52013290479998
 21
72.60370720049998
 31
0.0
  0
LINE
  5
1CF1
330
225E
100
AcDbEntity
  8
1
  6
Continuous
 62
     2
100
AcDbLine
 10
23.1201329048
 20
71.10370720049998
 30
0.0
 11
47.3201329048
 21
71.10370720049998
 31
0.0
  0
LINE
  5
1CF2
330
225E
100
AcDbEntity
  8
1
  6
Continuous
 62
     2
100
AcDbLine
 10
71.52013290479998
 20
71.10370720049998
 30
0.0
 11
47.3201329048
 21
71.10370720049998
 31
0.0
  0
INSERT
  5
1CF3
330
225E
100
AcDbEntity
  8
1
  6
Continuous
 62
     2
100
AcDbBlockReference
  2
_FILLED
 10
23.1201329048
 20
71.10370720049998
 30
0.0
 41
3.5
 42
3.5
 43
3.5
 50
180.0
  0
INSERT
  5
1CF4
330
225E
100
AcDbEntity
  8
1
  6
Continuous
 62
     2
100
AcDbBlockReference
  2
_FILLED
 10
71.52013290479998
 20
71.10370720049998
 30
0.0
 41
3.5
 42
3.5
 43
3.5
  0
ENDBLK
  5
1CF5
330
225E
100
AcDbEntity
  8
0
  6
ByBlock
 62
     0
100
AcDbBlockEnd
  0
BLOCK
  5
2261
330
2260
100
AcDbEntity
  8
0
100
AcDbBlockBegin
  2
*U26
 70
     1
 10
0.0
 20
0.0
 30
0.0
  3
*U26
  1

  0
TEXT
  5
2002
330
2260
100
AcDbEntity
  8
1
 62
     2
100
AcDbText
 10
45.4916770235
 20
71.9787072005
 30
0.0
 40
3.5
  1
48.4
 41
0.72
  7
TEXTSTYLE_2
100
AcDbText
  0
ENDBLK
  5
2004
330
2260
100
AcDbEntity
  8
0
100
AcDbBlockEnd
  0
BLOCK
  5
2263
330
2262
100
AcDbEntity
  8
1
  6
Continuous
 62
     2
100
AcDbBlockBegin
  2
*D27
 70
     1
 10
0.0
 20
0.0
 30
0.0
  3
*D27
  1

  0
INSERT
  5
1CF8
330
2262
100
AcDbEntity
  8
0
100
AcDbBlockReference
  2
*U28
 10
0.0
 20
0.0
 30
0.0
  0
LINE
  5
1CF9
330
2262
100
AcDbEntity
  8
1
  6
Continuous
 62
     2
100
AcDbLine
 10
170.9991329048
 20
43.67552266669997
 30
0.0
 11
184.2293468581
 21
43.67552266669997
 31
0.0
  0
LINE
  5
1CFA
330
2262
100
AcDbEntity
  8
1
  6
Continuous
 62
     2
100
AcDbLine
 10
170.9991329048
 20
15.6755226667
 30
0.0
 11
184.2293468581
 21
15.6755226667
 31
0.0
  0
LINE
  5
1CFB
330
2262
100
AcDbEntity
  8
1
  6
Continuous
 62
     2
100
AcDbLine
 10
182.7293468581
 20
43.67552266669997
 30
0.0
 11
182.7293468581
 21
29.6755226667
 31
0.0
  0
LINE
  5
1CFC
330
2262
100
AcDbEntity
  8
1
  6
Continuous
 62
     2
100
AcDbLine
 10
182.7293468581
 20
15.6755226667
 30
0.0
 11
182.7293468581
 21
29.6755226667
 31
0.0
  0
INSERT
  5
1CFD
330
2262
100
AcDbEntity
  8
1
  6
Continuous
 62
     2
100
AcDbBlockReference
  2
_FILLED
 10
182.7293468581
 20
43.67552266669997
 30
0.0
 41
3.5
 42
3.5
 43
3.5
 50
90.0
  0
INSERT
  5
1CFE
330
2262
100
AcDbEntity
  8
1
  6
Continuous
 62
     2
100
AcDbBlockReference
  2
_FILLED
 10
182.7293468581
 20
15.6755226667
 30
0.0
 41
3.5
 42
3.5
 43
3.5
 50
270.0
  0
ENDBLK
  5
1CFF
330
2262
100
AcDbEntity
  8
0
  6
ByBlock
 62
     0
100
AcDbBlockEnd
  0
BLOCK
  5
2265
330
2264
100
AcDbEntity
  8
0
100
AcDbBlockBegin
  2
*U28
 70
     1
 10
0.0
 20
0.0
 30
0.0
  3
*U28
  1

  0
TEXT
  5
2006
330
2264
100
AcDbEntity
  8
1
 62
     2
100
AcDbText
 10
182.6876801914333
 20
26.2773178879
 30
0.0
 40
3.5
  1
n
 50
90.0
 41
0.72
  7
TEXTSTYLE_3
100
AcDbText
  0
TEXT
  5
2007
330
2264
100
AcDbEntity
  8
1
 62
     2
100
AcDbText
 10
182.6876801914333
 20
29.15731788789999
 30
0.0
 40
3.5
  1
28
 50
90.0
 41
0.72
  7
TEXTSTYLE_3
100
AcDbText
  0
ENDBLK
  5
2009
330
2264
100
AcDbEntity
  8
0
100
AcDbBlockEnd
  0
BLOCK
  5
2267
330
2266
100
AcDbEntity
  8
1
  6
Continuous
 62
     2
100
AcDbBlockBegin
  2
*D29
 70
     1
 10
0.0
 20
0.0
 30
0.0
  3
*D29
  1

  0
INSERT
  5
1D02
330
2266
100
AcDbEntity
  8
0
100
AcDbBlockReference
  2
*U30
 10
0.0
 20
0.0
 30
0.0
  0
LINE
  5
1D03
330
2266
100
AcDbEntity
  8
1
  6
Continuous
 62
     2
100
AcDbLine
 10
71.52013290479998
 20
45.0877702056
 30
0.0
 11
71.52013290479998
 21
72.66142149879998
 31
0.0
  0
LINE
  5
1D04
330
2266
100
AcDbEntity
  8
1
  6
Continuous
 62
     2
100
AcDbLine
 10
171.5201329048
 20
41.67552266669999
 30
0.0
 11
171.5201329048
 21
72.66142149879998
 31
0.0
  0
LINE
  5
1D05
330
2266
100
AcDbEntity
  8
1
  6
Continuous
 62
     2
100
AcDbLine
 10
71.52013290479998
 20
71.16142149879998
 30
0.0
 11
121.5201329048
 21
71.16142149879998
 31
0.0
  0
LINE
  5
1D06
330
2266
100
AcDbEntity
  8
1
  6
Continuous
 62
     2
100
AcDbLine
 10
171.5201329048
 20
71.16142149879998
 30
0.0
 11
121.5201329048
 21
71.16142149879998
 31
0.0
  0
INSERT
  5
1D07
330
2266
100
AcDbEntity
  8
1
  6
Continuous
 62
     2
100
AcDbBlockReference
  2
_FILLED
 10
71.52013290479998
 20
71.16142149879998
 30
0.0
 41
3.5
 42
3.5
 43
3.5
 50
180.0
  0
INSERT
  5
1D08
330
2266
100
AcDbEntity
  8
1
  6
Continuous
 62
     2
100
AcDbBlockReference
  2
_FILLED
 10
171.5201329048
 20
71.16142149879998
 30
0.0
 41
3.5
 42
3.5
 43
3.5
  0
ENDBLK
  5
1D09
330
2266
100
AcDbEntity
  8
0
  6
ByBlock
 62
     0
100
AcDbBlockEnd
  0
BLOCK
  5
2269
330
2268
100
AcDbEntity
  8
0
100
AcDbBlockBegin
  2
*U30
 70
     1
 10
0.0
 20
0.0
 30
0.0
  3
*U30
  1

  0
TEXT
  5
200B
330
2268
100
AcDbEntity
  8
1
 62
     2
100
AcDbText
 10
122.1099589869
 20
72.0364214988
 30
0.0
 40
3.5
  1
100
 41
0.72
  7
TEXTSTYLE_2
100
AcDbText
  0
ENDBLK
  5
200D
330
2268
100
AcDbEntity
  8
0
100
AcDbBlockEnd
  0
BLOCK
  5
226B
330
226A
100
AcDbEntity
  8
0
100
AcDbBlockBegin
  2
*D31
 70
     1
 10
0.0
 20
0.0
 30
0.0
  3
*D31
  1

  0
LINE
  5
1F5A
330
226A
100
AcDbEntity
  8
SK2
  6
Continuous
 62
     0
100
AcDbLine
 10
-241.6605062323897
 20
0.7179996797925236
 30
0.0
 11
-254.6753857618897
 21
0.7179996797925271
 31
0.0
  0
LINE
  5
1F5B
330
226A
100
AcDbEntity
  8
SK2
  6
Continuous
 62
     0
100
AcDbLine
 10
-241.6605062323897
 20
12.71799967979252
 30
0.0
 11
-254.6753857618897
 21
12.71799967979252
 31
0.0
  0
LINE
  5
1F5C
330
226A
100
AcDbEntity
  8
SK2
  6
Continuous
 62
     0
100
AcDbLine
 10
-254.4953857618897
 20
4.217999679792526
 30
0.0
 11
-254.4953857618897
 21
9.217999679792523
 31
0.0
  0
INSERT
  5
1F5D
330
226A
100
AcDbEntity
  8
SK2
  6
Continuous
 62
     0
100
AcDbBlockReference
  2
_FILLED
 10
-254.4953857618897
 20
0.7179996797925271
 30
0.0
 41
3.5
 42
3.5
 43
3.5
 50
270.0
  0
INSERT
  5
1F5E
330
226A
100
AcDbEntity
  8
SK2
  6
Continuous
 62
     0
100
AcDbBlockReference
  2
_FILLED
 10
-254.4953857618897
 20
12.71799967979252
 30
0.0
 41
3.5
 42
3.5
 43
3.5
 50
90.0
  0
INSERT
  5
1F5F
330
226A
100
AcDbEntity
  8
0
100
AcDbBlockReference
  2
*U32
 10
0.0
 20
0.0
 30
0.0
  0
POINT
  5
1F60
330
226A
100
AcDbEntity
  8
DEFPOINTS
  6
Continuous
 62
     0
100
AcDbPoint
 10
-241.5980062323897
 20
0.7179996797925236
 30
0.0
  0
POINT
  5
1F61
330
226A
100
AcDbEntity
  8
DEFPOINTS
  6
Continuous
 62
     0
100
AcDbPoint
 10
-241.5980062323897
 20
12.71799967979252
 30
0.0
  0
POINT
  5
1F62
330
226A
100
AcDbEntity
  8
DEFPOINTS
  6
Continuous
 62
     0
100
AcDbPoint
 10
-254.4953857618897
 20
12.71799967979252
 30
0.0
  0
ENDBLK
  5
1E50
330
226A
100
AcDbEntity
  8
0
100
AcDbBlockEnd
  0
BLOCK
  5
226D
330
226C
100
AcDbEntity
  8
0
100
AcDbBlockBegin
  2
*U32
 70
     1
 10
0.0
 20
0.0
 30
0.0
  3
*U32
  1

  0
TEXT
  5
2023
330
226C
100
AcDbEntity
  8
SK2
 62
     0
100
AcDbText
 10
-254.5853857618897
 20
2.647781002792521
 30
0.0
 40
3.5
  1
M12
 50
90.0
 41
0.72
  7
TEXTSTYLE_2
100
AcDbText
  0
ENDBLK
  5
2025
330
226C
100
AcDbEntity
  8
0
100
AcDbBlockEnd
  0
BLOCK
  5
226F
330
226E
100
AcDbEntity
  8
0
100
AcDbBlockBegin
  2
*D33
 70
     1
 10
0.0
 20
0.0
 30
0.0
  3
*D33
  1

  0
LINE
  5
1F51
330
226E
100
AcDbEntity
  8
SK2
  6
Continuous
 62
     0
100
AcDbLine
 10
-200.8135062323897
 20
22.59299967979252
 30
0.0
 11
-261.6554668071897
 21
22.59299967979254
 31
0.0
  0
LINE
  5
1F52
330
226E
100
AcDbEntity
  8
SK2
  6
Continuous
 62
     0
100
AcDbLine
 10
-201.7135062323897
 20
-9.157000320207474
 30
0.0
 11
-261.6554668071897
 21
-9.157000320207457
 31
0.0
  0
LINE
  5
1F53
330
226E
100
AcDbEntity
  8
SK2
  6
Continuous
 62
     0
100
AcDbLine
 10
-261.4754668071896
 20
19.09299967979253
 30
0.0
 11
-261.4754668071896
 21
-5.657000320207457
 31
0.0
  0
INSERT
  5
1F54
330
226E
100
AcDbEntity
  8
SK2
  6
Continuous
 62
     0
100
AcDbBlockReference
  2
_FILLED
 10
-261.4754668071896
 20
22.59299967979254
 30
0.0
 41
3.5
 42
3.5
 43
3.5
 50
90.0
  0
INSERT
  5
1F55
330
226E
100
AcDbEntity
  8
SK2
  6
Continuous
 62
     0
100
AcDbBlockReference
  2
_FILLED
 10
-261.4754668071896
 20
-9.157000320207457
 30
0.0
 41
3.5
 42
3.5
 43
3.5
 50
270.0
  0
INSERT
  5
1F56
330
226E
100
AcDbEntity
  8
0
100
AcDbBlockReference
  2
*U34
 10
0.0
 20
0.0
 30
0.0
  0
POINT
  5
1F57
330
226E
100
AcDbEntity
  8
DEFPOINTS
  6
Continuous
 62
     0
100
AcDbPoint
 10
-200.7510062323897
 20
22.59299967979252
 30
0.0
  0
POINT
  5
1F58
330
226E
100
AcDbEntity
  8
DEFPOINTS
  6
Continuous
 62
     0
100
AcDbPoint
 10
-201.6510062323897
 20
-9.157000320207474
 30
0.0
  0
POINT
  5
1F59
330
226E
100
AcDbEntity
  8
DEFPOINTS
  6
Continuous
 62
     0
100
AcDbPoint
 10
-261.4754668071896
 20
-9.157000320207457
 30
0.0
  0
ENDBLK
  5
1E5C
330
226E
100
AcDbEntity
  8
0
100
AcDbBlockEnd
  0
BLOCK
  5
2271
330
2270
100
AcDbEntity
  8
0
100
AcDbBlockBegin
  2
*U34
 70
     1
 10
0.0
 20
0.0
 30
0.0
  3
*U34
  1

  0
TEXT
  5
201F
330
2270
100
AcDbEntity
  8
SK2
 62
     0
100
AcDbText
 10
-261.5654668071897
 20
-1.481971220007475
 30
0.0
 40
3.5
  1
\U+220531.75
 50
90.0
 41
0.72
  7
TEXTSTYLE_2
100
AcDbText
  0
ENDBLK
  5
2021
330
2270
100
AcDbEntity
  8
0
100
AcDbBlockEnd
  0
BLOCK
  5
2273
330
2272
100
AcDbEntity
  8
0
100
AcDbBlockBegin
  2
*D35
 70
     1
 10
0.0
 20
0.0
 30
0.0
  3
*D35
  1

  0
LINE
  5
1F48
330
2272
100
AcDbEntity
  8
SK2
  6
Continuous
 62
     0
100
AcDbLine
 10
-198.2135062323897
 20
-16.28200032020748
 30
0.0
 11
-270.9888138286897
 21
-16.28200032020746
 31
0.0
  0
LINE
  5
1F49
330
2272
100
AcDbEntity
  8
SK2
  6
Continuous
 62
     0
100
AcDbLine
 10
-198.2135062323897
 20
29.71799967979252
 30
0.0
 11
-270.9888138286897
 21
29.71799967979254
 31
0.0
  0
LINE
  5
1F4A
330
2272
100
AcDbEntity
  8
SK2
  6
Continuous
 62
     0
100
AcDbLine
 10
-270.8088138286897
 20
-12.78200032020746
 30
0.0
 11
-270.8088138286897
 21
26.21799967979254
 31
0.0
  0
INSERT
  5
1F4B
330
2272
100
AcDbEntity
  8
SK2
  6
Continuous
 62
     0
100
AcDbBlockReference
  2
_FILLED
 10
-270.8088138286897
 20
-16.28200032020746
 30
0.0
 41
3.5
 42
3.5
 43
3.5
 50
270.0
  0
INSERT
  5
1F4C
330
2272
100
AcDbEntity
  8
SK2
  6
Continuous
 62
     0
100
AcDbBlockReference
  2
_FILLED
 10
-270.8088138286897
 20
29.71799967979254
 30
0.0
 41
3.5
 42
3.5
 43
3.5
 50
90.0
  0
INSERT
  5
1F4D
330
2272
100
AcDbEntity
  8
0
100
AcDbBlockReference
  2
*U36
 10
0.0
 20
0.0
 30
0.0
  0
POINT
  5
1F4E
330
2272
100
AcDbEntity
  8
DEFPOINTS
  6
Continuous
 62
     0
100
AcDbPoint
 10
-198.1510062323897
 20
-16.28200032020748
 30
0.0
  0
POINT
  5
1F4F
330
2272
100
AcDbEntity
  8
DEFPOINTS
  6
Continuous
 62
     0
100
AcDbPoint
 10
-198.1510062323897
 20
29.71799967979252
 30
0.0
  0
POINT
  5
1F50
330
2272
100
AcDbEntity
  8
DEFPOINTS
  6
Continuous
 62
     0
100
AcDbPoint
 10
-270.8088138286897
 20
29.71799967979254
 30
0.0
  0
ENDBLK
  5
1E68
330
2272
100
AcDbEntity
  8
0
100
AcDbBlockEnd
  0
BLOCK
  5
2275
330
2274
100
AcDbEntity
  8
0
100
AcDbBlockBegin
  2
*U36
 70
     1
 10
0.0
 20
0.0
 30
0.0
  3
*U36
  1

  0
TEXT
  5
201B
330
2274
100
AcDbEntity
  8
SK2
 62
     0
100
AcDbText
 10
-270.8988138286897
 20
2.07866582009252
 30
0.0
 40
3.5
  1
\U+220546
 50
90.0
 41
0.72
  7
TEXTSTYLE_2
100
AcDbText
  0
ENDBLK
  5
201D
330
2274
100
AcDbEntity
  8
0
100
AcDbBlockEnd
  0
BLOCK
  5
2277
330
2276
100
AcDbEntity
  8
0
100
AcDbBlockBegin
  2
*D37
 70
     1
 10
0.0
 20
0.0
 30
0.0
  3
*D37
  1

  0
LINE
  5
1F75
330
2276
100
AcDbEntity
  8
2
  6
Continuous
 62
     0
100
AcDbLine
 10
-199.2510062323896
 20
22.19274721869252
 30
0.0
 11
-199.2510062323896
 21
42.83258211399252
 31
0.0
  0
LINE
  5
1F76
330
2276
100
AcDbEntity
  8
2
  6
Continuous
 62
     0
100
AcDbLine
 10
-177.2510062323896
 20
30.68049967979253
 30
0.0
 11
-177.2510062323896
 21
42.83258211399252
 31
0.0
  0
LINE
  5
1F77
330
2276
100
AcDbEntity
  8
2
  6
Continuous
 62
     0
100
AcDbLine
 10
-195.7510062323897
 20
42.65258211399252
 30
0.0
 11
-180.7510062323896
 21
42.65258211399252
 31
0.0
  0
INSERT
  5
1F78
330
2276
100
AcDbEntity
  8
2
  6
Continuous
 62
     0
100
AcDbBlockReference
  2
_FILLED
 10
-199.2510062323896
 20
42.65258211399252
 30
0.0
 41
3.5
 42
3.5
 43
3.5
 50
180.0
  0
INSERT
  5
1F79
330
2276
100
AcDbEntity
  8
2
  6
Continuous
 62
     0
100
AcDbBlockReference
  2
_FILLED
 10
-177.2510062323896
 20
42.65258211399252
 30
0.0
 41
3.5
 42
3.5
 43
3.5
  0
INSERT
  5
1F7A
330
2276
100
AcDbEntity
  8
0
100
AcDbBlockReference
  2
*U38
 10
0.0
 20
0.0
 30
0.0
  0
POINT
  5
1F7B
330
2276
100
AcDbEntity
  8
DEFPOINTS
  6
Continuous
 62
     0
100
AcDbPoint
 10
-199.2510062323896
 20
22.13024721869253
 30
0.0
  0
POINT
  5
1F7C
330
2276
100
AcDbEntity
  8
DEFPOINTS
  6
Continuous
 62
     0
100
AcDbPoint
 10
-177.2510062323896
 20
30.61799967979253
 30
0.0
  0
POINT
  5
1F7D
330
2276
100
AcDbEntity
  8
DEFPOINTS
  6
Continuous
 62
     0
100
AcDbPoint
 10
-177.2510062323896
 20
42.65258211399252
 30
0.0
  0
ENDBLK
  5
1E74
330
2276
100
AcDbEntity
  8
0
100
AcDbBlockEnd
  0
BLOCK
  5
2279
330
2278
100
AcDbEntity
  8
0
100
AcDbBlockBegin
  2
*U38
 70
     1
 10
0.0
 20
0.0
 30
0.0
  3
*U38
  1

  0
TEXT
  5
202F
330
2278
100
AcDbEntity
  8
2
 62
     0
100
AcDbText
 10
-191.6400840212897
 20
42.74258211399252
 30
0.0
 40
3.5
  1
22
 41
0.72
  7
TEXTSTYLE_2
100
AcDbText
  0
ENDBLK
  5
2031
330
2278
100
AcDbEntity
  8
0
100
AcDbBlockEnd
  0
BLOCK
  5
227B
330
227A
100
AcDbEntity
  8
0
100
AcDbBlockBegin
  2
*D39
 70
     1
 10
0.0
 20
0.0
 30
0.0
  3
*D39
  1

  0
LINE
  5
1F36
330
227A
100
AcDbEntity
  8
SK2
  6
Continuous
 62
     0
100
AcDbLine
 10
-247.6510062323897
 20
17.09668751869252
 30
0.0
 11
-247.6510062323897
 21
50.95118421359252
 31
0.0
  0
LINE
  5
1F37
330
227A
100
AcDbEntity
  8
SK2
  6
Continuous
 62
     0
100
AcDbLine
 10
-199.2510062323896
 20
22.19274721869252
 30
0.0
 11
-199.2510062323896
 21
50.95118421359252
 31
0.0
  0
LINE
  5
1F38
330
227A
100
AcDbEntity
  8
SK2
  6
Continuous
 62
     0
100
AcDbLine
 10
-244.1510062323897
 20
50.77118421359251
 30
0.0
 11
-202.7510062323897
 21
50.77118421359251
 31
0.0
  0
INSERT
  5
1F39
330
227A
100
AcDbEntity
  8
SK2
  6
Continuous
 62
     0
100
AcDbBlockReference
  2
_FILLED
 10
-247.6510062323897
 20
50.77118421359251
 30
0.0
 41
3.5
 42
3.5
 43
3.5
 50
180.0
  0
INSERT
  5
1F3A
330
227A
100
AcDbEntity
  8
SK2
  6
Continuous
 62
     0
100
AcDbBlockReference
  2
_FILLED
 10
-199.2510062323896
 20
50.77118421359251
 30
0.0
 41
3.5
 42
3.5
 43
3.5
  0
INSERT
  5
1F3B
330
227A
100
AcDbEntity
  8
0
100
AcDbBlockReference
  2
*U40
 10
0.0
 20
0.0
 30
0.0
  0
POINT
  5
1F3C
330
227A
100
AcDbEntity
  8
DEFPOINTS
  6
Continuous
 62
     0
100
AcDbPoint
 10
-247.6510062323897
 20
17.03418751869252
 30
0.0
  0
POINT
  5
1F3D
330
227A
100
AcDbEntity
  8
DEFPOINTS
  6
Continuous
 62
     0
100
AcDbPoint
 10
-199.2510062323896
 20
22.13024721869253
 30
0.0
  0
POINT
  5
1F3E
330
227A
100
AcDbEntity
  8
DEFPOINTS
  6
Continuous
 62
     0
100
AcDbPoint
 10
-199.2510062323896
 20
50.77118421359251
 30
0.0
  0
ENDBLK
  5
1E80
330
227A
100
AcDbEntity
  8
0
100
AcDbBlockEnd
  0
BLOCK
  5
227D
330
227C
100
AcDbEntity
  8
0
100
AcDbBlockBegin
  2
*U40
 70
     1
 10
0.0
 20
0.0
 30
0.0
  3
*U40
  1

  0
TEXT
  5
2017
330
227C
100
AcDbEntity
  8
SK2
 62
     0
100
AcDbText
 10
-230.3194621136897
 20
50.86118421359252
 30
0.0
 40
3.5
  1
48.4
 41
0.72
  7
TEXTSTYLE_2
100
AcDbText
  0
ENDBLK
  5
2019
330
227C
100
AcDbEntity
  8
0
100
AcDbBlockEnd
  0
BLOCK
  5
227F
330
227E
100
AcDbEntity
  8
0
100
AcDbBlockBegin
  2
*D41
 70
     1
 10
0.0
 20
0.0
 30
0.0
  3
*D41
  1

  0
LINE
  5
1F63
330
227E
100
AcDbEntity
  8
SK2
  6
Continuous
 62
     0
100
AcDbLine
 10
-99.70950623238971
 20
20.71799967979252
 30
0.0
 11
-89.3994669706897
 21
20.71799967979252
 31
0.0
  0
LINE
  5
1F64
330
227E
100
AcDbEntity
  8
SK2
  6
Continuous
 62
     0
100
AcDbLine
 10
-99.70950623238971
 20
-7.282000320207473
 30
0.0
 11
-89.3994669706897
 21
-7.28200032020748
 31
0.0
  0
LINE
  5
1F65
330
227E
100
AcDbEntity
  8
SK2
  6
Continuous
 62
     0
100
AcDbLine
 10
-89.57946697068967
 20
17.21799967979252
 30
0.0
 11
-89.57946697068967
 21
-3.782000320207477
 31
0.0
  0
INSERT
  5
1F66
330
227E
100
AcDbEntity
  8
SK2
  6
Continuous
 62
     0
100
AcDbBlockReference
  2
_FILLED
 10
-89.57946697068967
 20
20.71799967979252
 30
0.0
 41
3.5
 42
3.5
 43
3.5
 50
90.0
  0
INSERT
  5
1F67
330
227E
100
AcDbEntity
  8
SK2
  6
Continuous
 62
     0
100
AcDbBlockReference
  2
_FILLED
 10
-89.57946697068967
 20
-7.28200032020748
 30
0.0
 41
3.5
 42
3.5
 43
3.5
 50
270.0
  0
INSERT
  5
1F68
330
227E
100
AcDbEntity
  8
0
100
AcDbBlockReference
  2
*U42
 10
0.0
 20
0.0
 30
0.0
  0
POINT
  5
1F69
330
227E
100
AcDbEntity
  8
DEFPOINTS
  6
Continuous
 62
     0
100
AcDbPoint
 10
-99.77200623238971
 20
20.71799967979252
 30
0.0
  0
POINT
  5
1F6A
330
227E
100
AcDbEntity
  8
DEFPOINTS
  6
Continuous
 62
     0
100
AcDbPoint
 10
-99.77200623238971
 20
-7.282000320207473
 30
0.0
  0
POINT
  5
1F6B
330
227E
100
AcDbEntity
  8
DEFPOINTS
  6
Continuous
 62
     0
100
AcDbPoint
 10
-89.57946697068967
 20
-7.28200032020748
 30
0.0
  0
ENDBLK
  5
1E8C
330
227E
100
AcDbEntity
  8
0
100
AcDbBlockEnd
  0
BLOCK
  5
2281
330
2280
100
AcDbEntity
  8
0
100
AcDbBlockBegin
  2
*U42
 70
     1
 10
0.0
 20
0.0
 30
0.0
  3
*U42
  1

  0
TEXT
  5
2027
330
2280
100
AcDbEntity
  8
SK2
 62
     0
100
AcDbText
 10
-89.66946697068967
 20
1.600362997392519
 30
0.0
 40
3.5
  1
\U+220528
 50
90.0
 41
0.72
  7
TEXTSTYLE_2
100
AcDbText
  0
ENDBLK
  5
2029
330
2280
100
AcDbEntity
  8
0
100
AcDbBlockEnd
  0
BLOCK
  5
2283
330
2282
100
AcDbEntity
  8
0
100
AcDbBlockBegin
  2
*D43
 70
     1
 10
0.0
 20
0.0
 30
0.0
  3
*D43
  1

  0
LINE
  5
1F6C
330
2282
100
AcDbEntity
  8
2
  6
Continuous
 62
     0
100
AcDbLine
 10
-199.2510062323896
 20
22.19274721869252
 30
0.0
 11
-199.2510062323896
 21
51.00889851189251
 31
0.0
  0
LINE
  5
1F6D
330
2282
100
AcDbEntity
  8
2
  6
Continuous
 62
     0
100
AcDbLine
 10
-99.25100623238972
 20
18.78049967979252
 30
0.0
 11
-99.25100623238972
 21
51.00889851189251
 31
0.0
  0
LINE
  5
1F6E
330
2282
100
AcDbEntity
  8
2
  6
Continuous
 62
     0
100
AcDbLine
 10
-195.7510062323897
 20
50.82889851189252
 30
0.0
 11
-102.7510062323897
 21
50.82889851189252
 31
0.0
  0
INSERT
  5
1F6F
330
2282
100
AcDbEntity
  8
2
  6
Continuous
 62
     0
100
AcDbBlockReference
  2
_FILLED
 10
-199.2510062323896
 20
50.82889851189252
 30
0.0
 41
3.5
 42
3.5
 43
3.5
 50
180.0
  0
INSERT
  5
1F70
330
2282
100
AcDbEntity
  8
2
  6
Continuous
 62
     0
100
AcDbBlockReference
  2
_FILLED
 10
-99.25100623238972
 20
50.82889851189252
 30
0.0
 41
3.5
 42
3.5
 43
3.5
  0
INSERT
  5
1F71
330
2282
100
AcDbEntity
  8
0
100
AcDbBlockReference
  2
*U44
 10
0.0
 20
0.0
 30
0.0
  0
POINT
  5
1F72
330
2282
100
AcDbEntity
  8
DEFPOINTS
  6
Continuous
 62
     0
100
AcDbPoint
 10
-199.2510062323896
 20
22.13024721869253
 30
0.0
  0
POINT
  5
1F73
330
2282
100
AcDbEntity
  8
DEFPOINTS
  6
Continuous
 62
     0
100
AcDbPoint
 10
-99.25100623238972
 20
18.71799967979252
 30
0.0
  0
POINT
  5
1F74
330
2282
100
AcDbEntity
  8
DEFPOINTS
  6
Continuous
 62
     0
100
AcDbPoint
 10
-99.25100623238972
 20
50.82889851189252
 30
0.0
  0
ENDBLK
  5
1E98
330
2282
100
AcDbEntity
  8
0
100
AcDbBlockEnd
  0
BLOCK
  5
2285
330
2284
100
AcDbEntity
  8
0
100
AcDbBlockBegin
  2
*U44
 70
     1
 10
0.0
 20
0.0
 30
0.0
  3
*U44
  1

  0
TEXT
  5
202B
330
2284
100
AcDbEntity
  8
2
 62
     0
100
AcDbText
 10
-152.4411801502897
 20
50.91889851189252
 30
0.0
 40
3.5
  1
100
 41
0.72
  7
TEXTSTYLE_2
100
AcDbText
  0
ENDBLK
  5
202D
330
2284
100
AcDbEntity
  8
0
100
AcDbBlockEnd
  0
BLOCK
  5
2287
330
2286
100
AcDbEntity
  8
0
100
AcDbBlockBegin
  2
*U45
 70
     1
 10
0.0
 20
0.0
 30
0.0
  3
*U45
  1

  0
TEXT
  5
200F
330
2286
100
AcDbEntity
  8
1
 62
     3
100
AcDbText
 10
37.67087741693563
 20
36.58460732551585
 30
0.0
 40
3.5
  1
JIS B 6339 BT30
 41
0.72
  7
TEXTSTYLE_2
100
AcDbText
  0
ENDBLK
  5
2011
330
2286
100
AcDbEntity
  8
0
100
AcDbBlockEnd
  0
BLOCK
  5
2289
330
2288
100
AcDbEntity
  8
0
100
AcDbBlockBegin
  2
*U46
 70
     1
 10
0.0
 20
0.0
 30
0.0
  3
*U46
  1

  0
TEXT
  5
2013
330
2288
100
AcDbEntity
  8
1
 62
     3
100
AcDbText
 10
32.24787262883563
 20
-0.0000000173841386
 30
0.0
 40
3.5
  1
A214-30 16 100
 41
0.72
  7
TEXTSTYLE_2
100
AcDbText
  0
ENDBLK
  5
2015
330
2288
100
AcDbEntity
  8
0
100
AcDbBlockEnd
  0
BLOCK
  5
228E
330
228D
100
AcDbEntity
  8
0
100
AcDbBlockBegin
  2
*D47
 70
     1
 10
0.0
 20
0.0
 30
0.0
  3
*D47
  1

  0
LINE
  5
247C
330
228D
100
AcDbEntity
  8
SK2
  6
Continuous
 62
     0
370
    -2
100
AcDbLine
 10
-48.40100623238967
 20
10.37668751869251
 30
0.0
 11
-48.40100623238967
 21
44.2311842135925
 31
0.0
  0
LINE
  5
247D
330
228D
100
AcDbEntity
  8
SK2
  6
Continuous
 62
     0
370
    -2
100
AcDbLine
 10
-0.0010062323896136
 20
15.47274721869252
 30
0.0
 11
-0.0010062323896119
 21
44.2311842135925
 31
0.0
  0
LINE
  5
247E
330
228D
100
AcDbEntity
  8
SK2
  6
Continuous
 62
     0
370
    -2
100
AcDbLine
 10
-44.90100623238967
 20
44.0511842135925
 30
0.0
 11
-31.28446211368969
 21
44.0511842135925
 31
0.0
  0
LINE
  5
247F
330
228D
100
AcDbEntity
  8
SK2
  6
Continuous
 62
     0
370
    -2
100
AcDbLine
 10
-3.501006232389611
 20
44.0511842135925
 30
0.0
 11
-23.05446211368969
 21
44.0511842135925
 31
0.0
  0
MTEXT
  5
2480
330
228D
100
AcDbEntity
  8
SK2
  6
Continuous
 62
     5
100
AcDbMText
 10
-27.16946211368969
 20
44.0511842135925
 30
0.0
 40
3.5
 41
0.0
 71
     5
 72
     1
  1
\A1;48.4
 73
     1
 44
1.0
1001
ACAD
1000
MTEXTBEGIN
1070
    73
1070
     1
1070
    44
1040
1.0
1070
    74
1070
     0
1000
MTEXTEND
  0
SOLID
  5
2481
330
228D
100
AcDbEntity
  8
SK2
  6
Continuous
 62
     0
100
AcDbTrace
 10
-44.90100623238967
 20
44.63451754692584
 30
0.0
 11
-44.90100623238967
 21
43.46785088025916
 31
0.0
 12
-48.40100623238967
 22
44.0511842135925
 32
0.0
 13
-48.40100623238967
 23
44.0511842135925
 33
0.0
  0
SOLID
  5
2482
330
228D
100
AcDbEntity
  8
SK2
  6
Continuous
 62
     0
100
AcDbTrace
 10
-3.501006232389611
 20
44.63451754692584
 30
0.0
 11
-3.501006232389611
 21
43.46785088025916
 31
0.0
 12
-0.0010062323896119
 22
44.0511842135925
 32
0.0
 13
-0.0010062323896119
 23
44.0511842135925
 33
0.0
  0
POINT
  5
2483
330
228D
100
AcDbEntity
  8
DEFPOINTS
  6
Continuous
 62
     0
100
AcDbPoint
 10
-48.40100623238967
 20
10.31418751869251
 30
0.0
  0
POINT
  5
2484
330
228D
100
AcDbEntity
  8
DEFPOINTS
  6
Continuous
 62
     0
100
AcDbPoint
 10
-0.0010062323896136
 20
15.41024721869252
 30
0.0
  0
POINT
  5
2485
330
228D
100
AcDbEntity
  8
DEFPOINTS
  6
Continuous
 62
     0
100
AcDbPoint
 10
-0.0010062323896119
 20
44.0511842135925
 30
0.0
  0
ENDBLK
  5
228F
330
228D
100
AcDbEntity
  8
0
100
AcDbBlockEnd
  0
BLOCK
  5
229B
330
229A
100
AcDbEntity
  8
0
100
AcDbBlockBegin
  2
*D48
 70
     1
 10
0.0
 20
0.0
 30
0.0
  3
*D48
  1

  0
LINE
  5
2468
330
229A
100
AcDbEntity
  8
SK2
  6
Continuous
 62
     0
370
    -2
100
AcDbLine
 10
1.036493767610323
 20
-23.00200032020749
 30
0.0
 11
-71.73881382868967
 21
-23.00200032020747
 31
0.0
  0
LINE
  5
2469
330
229A
100
AcDbEntity
  8
SK2
  6
Continuous
 62
     0
370
    -2
100
AcDbLine
 10
1.036493767610323
 20
22.99799967979251
 30
0.0
 11
-71.73881382868967
 21
22.99799967979253
 31
0.0
  0
LINE
  5
246A
330
229A
100
AcDbEntity
  8
SK2
  6
Continuous
 62
     0
370
    -2
100
AcDbLine
 10
-71.55881382868966
 20
-19.50200032020747
 30
0.0
 11
-71.55881382868966
 21
-5.373145203529526
 31
0.0
  0
LINE
  5
246B
330
229A
100
AcDbEntity
  8
SK2
  6
Continuous
 62
     0
370
    -2
100
AcDbLine
 10
-71.55881382868966
 20
19.49799967979252
 30
0.0
 11
-71.55881382868966
 21
2.330476843714569
 31
0.0
  0
MTEXT
  5
246C
330
229A
100
AcDbEntity
  8
SK2
  6
Continuous
 62
     5
100
AcDbMText
 10
-71.55881382868966
 20
-1.52133417990749
 30
0.0
 40
3.5
 41
0.0
 71
     5
 72
     1
  1
\A1;%%c46
 11
0.0000000000000001
 21
1.0
 31
0.0
 73
     1
 44
1.0
1001
ACAD
1000
MTEXTBEGIN
1070
    73
1070
     1
1070
    44
1040
1.0
1070
    74
1070
     0
1000
MTEXTEND
  0
SOLID
  5
246D
330
229A
100
AcDbEntity
  8
SK2
  6
Continuous
 62
     0
100
AcDbTrace
 10
-72.14214716202299
 20
-19.50200032020747
 30
0.0
 11
-70.97548049535634
 21
-19.50200032020747
 31
0.0
 12
-71.55881382868966
 22
-23.00200032020747
 32
0.0
 13
-71.55881382868966
 23
-23.00200032020747
 33
0.0
  0
SOLID
  5
246E
330
229A
100
AcDbEntity
  8
SK2
  6
Continuous
 62
     0
100
AcDbTrace
 10
-72.14214716202299
 20
19.49799967979253
 30
0.0
 11
-70.97548049535634
 21
19.49799967979252
 31
0.0
 12
-71.55881382868966
 22
22.99799967979253
 32
0.0
 13
-71.55881382868966
 23
22.99799967979253
 33
0.0
  0
POINT
  5
246F
330
229A
100
AcDbEntity
  8
DEFPOINTS
  6
Continuous
 62
     0
100
AcDbPoint
 10
1.098993767610323
 20
-23.00200032020749
 30
0.0
  0
POINT
  5
2470
330
229A
100
AcDbEntity
  8
DEFPOINTS
  6
Continuous
 62
     0
100
AcDbPoint
 10
1.098993767610323
 20
22.99799967979251
 30
0.0
  0
POINT
  5
2471
330
229A
100
AcDbEntity
  8
DEFPOINTS
  6
Continuous
 62
     0
100
AcDbPoint
 10
-71.55881382868966
 20
22.99799967979253
 30
0.0
  0
ENDBLK
  5
229C
330
229A
100
AcDbEntity
  8
0
100
AcDbBlockEnd
  0
BLOCK
  5
22A8
330
22A7
100
AcDbEntity
  8
0
100
AcDbBlockBegin
  2
*D49
 70
     1
 10
0.0
 20
0.0
 30
0.0
  3
*D49
  1

  0
LINE
  5
245E
330
22A7
100
AcDbEntity
  8
SK2
  6
Continuous
 62
     0
370
    -2
100
AcDbLine
 10
-1.56350623238967
 20
15.87299967979251
 30
0.0
 11
-62.40546680718961
 21
15.87299967979253
 31
0.0
  0
LINE
  5
245F
330
22A7
100
AcDbEntity
  8
SK2
  6
Continuous
 62
     0
370
    -2
100
AcDbLine
 10
-2.463506232389676
 20
-15.87700032020748
 30
0.0
 11
-62.4054668071896
 21
-15.87700032020747
 31
0.0
  0
LINE
  5
2460
330
22A7
100
AcDbEntity
  8
SK2
  6
Continuous
 62
     0
370
    -2
100
AcDbLine
 10
-62.2254668071896
 20
12.37299967979253
 30
0.0
 11
-62.2254668071896
 21
4.025516153407812
 31
0.0
  0
LINE
  5
2461
330
22A7
100
AcDbEntity
  8
SK2
  6
Continuous
 62
     0
370
    -2
100
AcDbLine
 10
-62.2254668071896
 20
-12.37700032020747
 30
0.0
 11
-62.2254668071896
 21
-8.549458593422771
 31
0.0
  0
MTEXT
  5
2462
330
22A7
100
AcDbEntity
  8
SK2
  6
Continuous
 62
     5
100
AcDbMText
 10
-62.2254668071896
 20
-2.261971220007489
 30
0.0
 40
3.5
 41
0.0
 71
     5
 72
     1
  1
\A1;%%c31.75
 11
0.0000000000000001
 21
1.0
 31
0.0
 73
     1
 44
1.0
1001
ACAD
1000
MTEXTBEGIN
1070
    73
1070
     1
1070
    44
1040
1.0
1070
    74
1070
     0
1000
MTEXTEND
  0
SOLID
  5
2463
330
22A7
100
AcDbEntity
  8
SK2
  6
Continuous
 62
     0
100
AcDbTrace
 10
-62.80880014052294
 20
12.37299967979253
 30
0.0
 11
-61.64213347385627
 21
12.37299967979253
 31
0.0
 12
-62.2254668071896
 22
15.87299967979253
 32
0.0
 13
-62.2254668071896
 23
15.87299967979253
 33
0.0
  0
SOLID
  5
2464
330
22A7
100
AcDbEntity
  8
SK2
  6
Continuous
 62
     0
100
AcDbTrace
 10
-62.80880014052294
 20
-12.37700032020747
 30
0.0
 11
-61.64213347385627
 21
-12.37700032020747
 31
0.0
 12
-62.2254668071896
 22
-15.87700032020747
 32
0.0
 13
-62.2254668071896
 23
-15.87700032020747
 33
0.0
  0
POINT
  5
2465
330
22A7
100
AcDbEntity
  8
DEFPOINTS
  6
Continuous
 62
     0
100
AcDbPoint
 10
-1.50100623238967
 20
15.87299967979251
 30
0.0
  0
POINT
  5
2466
330
22A7
100
AcDbEntity
  8
DEFPOINTS
  6
Continuous
 62
     0
100
AcDbPoint
 10
-2.401006232389676
 20
-15.87700032020748
 30
0.0
  0
POINT
  5
2467
330
22A7
100
AcDbEntity
  8
DEFPOINTS
  6
Continuous
 62
     0
100
AcDbPoint
 10
-62.2254668071896
 20
-15.87700032020747
 30
0.0
  0
ENDBLK
  5
22A9
330
22A7
100
AcDbEntity
  8
0
100
AcDbBlockEnd
  0
BLOCK
  5
22B5
330
22B4
100
AcDbEntity
  8
0
100
AcDbBlockBegin
  2
*D50
 70
     1
 10
0.0
 20
0.0
 30
0.0
  3
*D50
  1

  0
LINE
  5
2454
330
22B4
100
AcDbEntity
  8
SK2
  6
Continuous
 62
     0
370
    -2
100
AcDbLine
 10
-42.41050623238968
 20
-6.002000320207487
 30
0.0
 11
-55.42538576188968
 21
-6.002000320207484
 31
0.0
  0
LINE
  5
2455
330
22B4
100
AcDbEntity
  8
SK2
  6
Continuous
 62
     0
370
    -2
100
AcDbLine
 10
-42.41050623238968
 20
5.997999679792506
 30
0.0
 11
-55.42538576188968
 21
5.99799967979251
 31
0.0
  0
LINE
  5
2456
330
22B4
100
AcDbEntity
  8
SK2
  6
Continuous
 62
     0
370
    -2
100
AcDbLine
 10
-55.24538576188968
 20
-9.502000320207484
 30
0.0
 11
-55.24538576188968
 21
-13.00200032020748
 31
0.0
  0
LINE
  5
2457
330
22B4
100
AcDbEntity
  8
SK2
  6
Continuous
 62
     0
370
    -2
100
AcDbLine
 10
-55.24538576188968
 20
9.49799967979251
 30
0.0
 11
-55.24538576188968
 21
12.99799967979251
 31
0.0
  0
MTEXT
  5
2458
330
22B4
100
AcDbEntity
  8
SK2
  6
Continuous
 62
     5
100
AcDbMText
 10
-55.24538576188968
 20
-0.8322189972074934
 30
0.0
 40
3.5
 41
0.0
 71
     5
 72
     1
  1
\A1;M12
 11
0.0000000000000001
 21
1.0
 31
0.0
 73
     1
 44
1.0
1001
ACAD
1000
MTEXTBEGIN
1070
    73
1070
     1
1070
    44
1040
1.0
1070
    74
1070
     0
1000
MTEXTEND
  0
SOLID
  5
2459
330
22B4
100
AcDbEntity
  8
SK2
  6
Continuous
 62
     0
100
AcDbTrace
 10
-55.82871909522301
 20
-9.502000320207484
 30
0.0
 11
-54.66205242855634
 21
-9.502000320207484
 31
0.0
 12
-55.24538576188968
 22
-6.002000320207484
 32
0.0
 13
-55.24538576188968
 23
-6.002000320207484
 33
0.0
  0
SOLID
  5
245A
330
22B4
100
AcDbEntity
  8
SK2
  6
Continuous
 62
     0
100
AcDbTrace
 10
-55.82871909522301
 20
9.49799967979251
 30
0.0
 11
-54.66205242855634
 21
9.49799967979251
 31
0.0
 12
-55.24538576188968
 22
5.99799967979251
 32
0.0
 13
-55.24538576188968
 23
5.99799967979251
 33
0.0
  0
POINT
  5
245B
330
22B4
100
AcDbEntity
  8
DEFPOINTS
  6
Continuous
 62
     0
100
AcDbPoint
 10
-42.34800623238967
 20
-6.002000320207487
 30
0.0
  0
POINT
  5
245C
330
22B4
100
AcDbEntity
  8
DEFPOINTS
  6
Continuous
 62
     0
100
AcDbPoint
 10
-42.34800623238967
 20
5.997999679792506
 30
0.0
  0
POINT
  5
245D
330
22B4
100
AcDbEntity
  8
DEFPOINTS
  6
Continuous
 62
     0
100
AcDbPoint
 10
-55.24538576188968
 20
5.99799967979251
 30
0.0
  0
ENDBLK
  5
22B6
330
22B4
100
AcDbEntity
  8
0
100
AcDbBlockEnd
  0
BLOCK
  5
22C2
330
22C1
100
AcDbEntity
  8
0
100
AcDbBlockBegin
  2
*D51
 70
     1
 10
0.0
 20
0.0
 30
0.0
  3
*D51
  1

  0
LINE
  5
2486
330
22C1
100
AcDbEntity
  8
SK2
  6
Continuous
 62
     0
370
    -2
100
AcDbLine
 10
99.54049376761028
 20
13.99799967979251
 30
0.0
 11
109.8505330293103
 21
13.99799967979251
 31
0.0
  0
LINE
  5
2487
330
22C1
100
AcDbEntity
  8
SK2
  6
Continuous
 62
     0
370
    -2
100
AcDbLine
 10
99.54049376761028
 20
-14.00200032020748
 30
0.0
 11
109.8505330293103
 21
-14.00200032020748
 31
0.0
  0
LINE
  5
2488
330
22C1
100
AcDbEntity
  8
SK2
  6
Continuous
 62
     0
370
    -2
100
AcDbLine
 10
109.6705330293103
 20
10.4979996797925
 30
0.0
 11
109.6705330293103
 21
1.65036299739249
 31
0.0
  0
LINE
  5
2489
330
22C1
100
AcDbEntity
  8
SK2
  6
Continuous
 62
     0
370
    -2
100
AcDbLine
 10
109.6705330293103
 20
-10.50200032020748
 30
0.0
 11
109.6705330293103
 21
-5.52963700260751
 31
0.0
  0
MTEXT
  5
248A
330
22C1
100
AcDbEntity
  8
SK2
  6
Continuous
 62
     5
100
AcDbMText
 10
109.6705330293103
 20
-1.939637002607492
 30
0.0
 40
3.5
 41
0.0
 71
     5
 72
     1
  1
\A1;%%c28
 11
0.0000000000000001
 21
1.0
 31
0.0
 73
     1
 44
1.0
1001
ACAD
1000
MTEXTBEGIN
1070
    73
1070
     1
1070
    44
1040
1.0
1070
    74
1070
     0
1000
MTEXTEND
  0
SOLID
  5
248B
330
22C1
100
AcDbEntity
  8
SK2
  6
Continuous
 62
     0
100
AcDbTrace
 10
109.087199695977
 20
10.4979996797925
 30
0.0
 11
110.2538663626436
 21
10.4979996797925
 31
0.0
 12
109.6705330293103
 22
13.99799967979251
 32
0.0
 13
109.6705330293103
 23
13.99799967979251
 33
0.0
  0
SOLID
  5
248C
330
22C1
100
AcDbEntity
  8
SK2
  6
Continuous
 62
     0
100
AcDbTrace
 10
109.087199695977
 20
-10.50200032020748
 30
0.0
 11
110.2538663626436
 21
-10.50200032020748
 31
0.0
 12
109.6705330293103
 22
-14.00200032020748
 32
0.0
 13
109.6705330293103
 23
-14.00200032020748
 33
0.0
  0
POINT
  5
248D
330
22C1
100
AcDbEntity
  8
DEFPOINTS
  6
Continuous
 62
     0
100
AcDbPoint
 10
99.47799376761029
 20
13.99799967979251
 30
0.0
  0
POINT
  5
248E
330
22C1
100
AcDbEntity
  8
DEFPOINTS
  6
Continuous
 62
     0
100
AcDbPoint
 10
99.47799376761029
 20
-14.00200032020748
 30
0.0
  0
POINT
  5
248F
330
22C1
100
AcDbEntity
  8
DEFPOINTS
  6
Continuous
 62
     0
100
AcDbPoint
 10
109.6705330293103
 20
-14.00200032020748
 30
0.0
  0
ENDBLK
  5
22C3
330
22C1
100
AcDbEntity
  8
0
100
AcDbBlockEnd
  0
BLOCK
  5
22D0
330
22CF
100
AcDbEntity
  8
0
100
AcDbBlockBegin
  2
*D52
 70
     1
 10
0.0
 20
0.0
 30
0.0
  3
*D52
  1

  0
LINE
  5
249A
330
22CF
100
AcDbEntity
  8
2
 62
     0
370
    -2
100
AcDbLine
 10
89.73899376761272
 20
-0.0645003202074842
 30
0.0
 11
89.73899376761272
 21
-28.60621381128495
 31
0.0
  0
LINE
  5
249B
330
22CF
100
AcDbEntity
  8
2
 62
     0
370
    -2
100
AcDbLine
 10
-0.0010062323896136
 20
-0.676478903494651
 30
0.0
 11
-0.0010062323896153
 21
-28.60621381128495
 31
0.0
  0
LINE
  5
249C
330
22CF
100
AcDbEntity
  8
2
 62
     0
370
    -2
100
AcDbLine
 10
86.2389937676127
 20
-28.42621381128495
 30
0.0
 11
3.498993767610384
 21
-28.42621381128495
 31
0.0
  0
SOLID
  5
249D
330
22CF
100
AcDbEntity
  8
2
 62
     0
100
AcDbTrace
 10
86.2389937676127
 20
-27.84288047795162
 30
0.0
 11
86.2389937676127
 21
-29.00954714461829
 31
0.0
 12
89.73899376761272
 22
-28.42621381128495
 32
0.0
 13
89.73899376761272
 23
-28.42621381128495
 33
0.0
  0
SOLID
  5
249E
330
22CF
100
AcDbEntity
  8
2
 62
     0
100
AcDbTrace
 10
3.498993767610384
 20
-27.84288047795162
 30
0.0
 11
3.498993767610384
 21
-29.00954714461829
 31
0.0
 12
-0.0010062323896153
 22
-28.42621381128495
 32
0.0
 13
-0.0010062323896153
 23
-28.42621381128495
 33
0.0
  0
MTEXT
  5
249F
330
22CF
100
AcDbEntity
  8
2
 62
     5
100
AcDbMText
 10
44.86899376761154
 20
-26.58621381128495
 30
0.0
 40
3.5
 41
0.0
 71
     5
 72
     1
  1
\A1;89.74
 73
     1
 44
1.0
1001
ACAD
1000
MTEXTBEGIN
1070
    73
1070
     1
1070
    44
1040
1.0
1070
    74
1070
     0
1000
MTEXTEND
  0
POINT
  5
24A0
330
22CF
100
AcDbEntity
  8
DEFPOINTS
 62
     0
100
AcDbPoint
 10
89.73899376761272
 20
-0.0020003202074842
 30
0.0
  0
POINT
  5
24A1
330
22CF
100
AcDbEntity
  8
DEFPOINTS
 62
     0
100
AcDbPoint
 10
-0.0010062323896136
 20
-0.613978903494651
 30
0.0
  0
POINT
  5
24A2
330
22CF
100
AcDbEntity
  8
DEFPOINTS
 62
     0
100
AcDbPoint
 10
-0.0010062323896153
 20
-28.42621381128495
 30
0.0
  0
ENDBLK
  5
22D1
330
22CF
100
AcDbEntity
  8
0
100
AcDbBlockEnd
  0
BLOCK
  5
2358
330
2357
100
AcDbEntity
  8
0
100
AcDbBlockBegin
  2
*D53
 70
     1
 10
0.0
 20
0.0
 30
0.0
  3
*D53
  1

  0
LINE
  5
2490
330
2357
100
AcDbEntity
  8
2
  6
Continuous
 62
     0
370
    -2
100
AcDbLine
 10
-0.0010062323896136
 20
15.47274721869252
 30
0.0
 11
-0.0010062323896118
 21
44.2888985118925
 31
0.0
  0
LINE
  5
2491
330
2357
100
AcDbEntity
  8
2
  6
Continuous
 62
     0
370
    -2
100
AcDbLine
 10
99.99899376761028
 20
12.06049967979251
 30
0.0
 11
99.99899376761028
 21
44.28889851189249
 31
0.0
  0
LINE
  5
2492
330
2357
100
AcDbEntity
  8
2
  6
Continuous
 62
     0
370
    -2
100
AcDbLine
 10
3.498993767610388
 20
44.1088985118925
 30
0.0
 11
46.91744189695441
 21
44.1088985118925
 31
0.0
  0
LINE
  5
2493
330
2357
100
AcDbEntity
  8
2
  6
Continuous
 62
     0
370
    -2
100
AcDbLine
 10
96.49899376761029
 20
44.1088985118925
 30
0.0
 11
52.70019780246622
 21
44.1088985118925
 31
0.0
  0
MTEXT
  5
2494
330
2357
100
AcDbEntity
  8
2
  6
Continuous
 62
     5
100
AcDbMText
 10
49.80881984971031
 20
44.1088985118925
 30
0.0
 40
3.5
 41
0.0
 71
     5
 72
     1
  1
\A1;100
 73
     1
 44
1.0
1001
ACAD
1000
MTEXTBEGIN
1070
    73
1070
     1
1070
    44
1040
1.0
1070
    74
1070
     0
1000
MTEXTEND
  0
SOLID
  5
2495
330
2357
100
AcDbEntity
  8
2
  6
Continuous
 62
     0
100
AcDbTrace
 10
3.498993767610388
 20
44.69223184522584
 30
0.0
 11
3.498993767610388
 21
43.52556517855917
 31
0.0
 12
-0.0010062323896119
 22
44.1088985118925
 32
0.0
 13
-0.0010062323896119
 23
44.1088985118925
 33
0.0
  0
SOLID
  5
2496
330
2357
100
AcDbEntity
  8
2
  6
Continuous
 62
     0
100
AcDbTrace
 10
96.49899376761029
 20
44.69223184522584
 30
0.0
 11
96.49899376761029
 21
43.52556517855917
 31
0.0
 12
99.99899376761028
 22
44.1088985118925
 32
0.0
 13
99.99899376761028
 23
44.1088985118925
 33
0.0
  0
POINT
  5
2497
330
2357
100
AcDbEntity
  8
DEFPOINTS
  6
Continuous
 62
     0
100
AcDbPoint
 10
-0.0010062323896136
 20
15.41024721869252
 30
0.0
  0
POINT
  5
2498
330
2357
100
AcDbEntity
  8
DEFPOINTS
  6
Continuous
 62
     0
100
AcDbPoint
 10
99.99899376761028
 20
11.99799967979251
 30
0.0
  0
POINT
  5
2499
330
2357
100
AcDbEntity
  8
DEFPOINTS
  6
Continuous
 62
     0
100
AcDbPoint
 10
99.99899376761028
 20
44.1088985118925
 30
0.0
  0
ENDBLK
  5
2359
330
2357
100
AcDbEntity
  8
0
100
AcDbBlockEnd
  0
BLOCK
  5
2365
330
2364
100
AcDbEntity
  8
0
100
AcDbBlockBegin
  2
*D54
 70
     1
 10
0.0
 20
0.0
 30
0.0
  3
*D54
  1

  0
LINE
  5
2472
330
2364
100
AcDbEntity
  8
2
  6
Continuous
 62
     0
370
    -2
100
AcDbLine
 10
-0.0010062323896136
 20
15.47274721869252
 30
0.0
 11
-0.0010062323896123
 21
36.11258211399251
 31
0.0
  0
LINE
  5
2473
330
2364
100
AcDbEntity
  8
2
  6
Continuous
 62
     0
370
    -2
100
AcDbLine
 10
21.99899376761039
 20
23.96049967979252
 30
0.0
 11
21.99899376761039
 21
36.11258211399251
 31
0.0
  0
LINE
  5
2474
330
2364
100
AcDbEntity
  8
2
  6
Continuous
 62
     0
370
    -2
100
AcDbLine
 10
3.498993767610387
 20
35.93258211399251
 30
0.0
 11
7.485373655875694
 21
35.93258211399251
 31
0.0
  0
LINE
  5
2475
330
2364
100
AcDbEntity
  8
2
  6
Continuous
 62
     0
370
    -2
100
AcDbLine
 10
18.49899376761038
 20
35.93258211399251
 30
0.0
 11
11.81445830154498
 21
35.93258211399251
 31
0.0
  0
MTEXT
  5
2476
330
2364
100
AcDbEntity
  8
2
  6
Continuous
 62
     5
100
AcDbMText
 10
9.649915978710339
 20
35.93258211399251
 30
0.0
 40
3.5
 41
0.0
 71
     5
 72
     1
  1
\A1;22
 73
     1
 44
1.0
1001
ACAD
1000
MTEXTBEGIN
1070
    73
1070
     1
1070
    44
1040
1.0
1070
    74
1070
     0
1000
MTEXTEND
  0
SOLID
  5
2477
330
2364
100
AcDbEntity
  8
2
  6
Continuous
 62
     0
100
AcDbTrace
 10
3.498993767610387
 20
36.51591544732585
 30
0.0
 11
3.498993767610387
 21
35.34924878065917
 31
0.0
 12
-0.0010062323896124
 22
35.93258211399251
 32
0.0
 13
-0.0010062323896124
 23
35.93258211399251
 33
0.0
  0
SOLID
  5
2478
330
2364
100
AcDbEntity
  8
2
  6
Continuous
 62
     0
100
AcDbTrace
 10
18.49899376761038
 20
36.51591544732585
 30
0.0
 11
18.49899376761038
 21
35.34924878065917
 31
0.0
 12
21.99899376761039
 22
35.93258211399251
 32
0.0
 13
21.99899376761039
 23
35.93258211399251
 33
0.0
  0
POINT
  5
2479
330
2364
100
AcDbEntity
  8
DEFPOINTS
  6
Continuous
 62
     0
100
AcDbPoint
 10
-0.0010062323896136
 20
15.41024721869252
 30
0.0
  0
POINT
  5
247A
330
2364
100
AcDbEntity
  8
DEFPOINTS
  6
Continuous
 62
     0
100
AcDbPoint
 10
21.99899376761039
 20
23.89799967979252
 30
0.0
  0
POINT
  5
247B
330
2364
100
AcDbEntity
  8
DEFPOINTS
  6
Continuous
 62
     0
100
AcDbPoint
 10
21.99899376761039
 20
35.93258211399251
 30
0.0
  0
ENDBLK
  5
2366
330
2364
100
AcDbEntity
  8
0
100
AcDbBlockEnd
  0
ENDSEC
  0
SECTION
  2
ENTITIES
  0
DIMENSION
  5
1DB0
330
21F7
100
AcDbEntity
  8
SK2
  6
Continuous
 62
     7
100
AcDbDimension
  2
*D50
 10
-55.24538576188968
 20
5.99799967979251
 30
0.0
 11
-55.24538576188968
 21
-0.8322189972074934
 31
0.0
 70
   160
  1
M12
 71
     5
 42
11.99999999999999
  3
STANDARD
100
AcDbAlignedDimension
 13
-42.34800623238967
 23
-6.002000320207487
 33
0.0
 14
-42.34800623238967
 24
5.997999679792506
 34
0.0
 50
90.0
100
AcDbRotatedDimension
  0
DIMENSION
  5
1DB1
330
21F7
100
AcDbEntity
  8
SK2
  6
Continuous
 62
     7
100
AcDbDimension
  2
*D49
 10
-62.2254668071896
 20
-15.87700032020747
 30
0.0
 11
-62.2254668071896
 21
-2.261971220007489
 31
0.0
 70
   160
  1
%%c31.75
 71
     5
 42
31.75
  3
STANDARD
100
AcDbAlignedDimension
 13
-1.50100623238967
 23
15.87299967979251
 33
0.0
 14
-2.401006232389676
 24
-15.87700032020748
 34
0.0
 50
270.0
100
AcDbRotatedDimension
  0
DIMENSION
  5
1DB2
330
21F7
100
AcDbEntity
  8
SK2
  6
Continuous
 62
     7
100
AcDbDimension
  2
*D48
 10
-71.55881382868966
 20
22.99799967979253
 30
0.0
 11
-71.55881382868966
 21
-1.52133417990749
 31
0.0
 70
   160
  1
%%c46
 71
     5
 42
46.0
  3
STANDARD
100
AcDbAlignedDimension
 13
1.098993767610323
 23
-23.00200032020749
 33
0.0
 14
1.098993767610323
 24
22.99799967979251
 34
0.0
 50
90.0
100
AcDbRotatedDimension
  0
DIMENSION
  5
1DB3
330
21F7
100
AcDbEntity
  8
2
  6
Continuous
 62
     7
100
AcDbDimension
  2
*D54
 10
21.99899376761039
 20
35.93258211399251
 30
0.0
 11
9.649915978710339
 21
35.93258211399251
 31
0.0
 70
   160
  1
22
 71
     5
 42
22.0
  3
STANDARD
100
AcDbAlignedDimension
 13
-0.0010062323896136
 23
15.41024721869252
 33
0.0
 14
21.99899376761039
 24
23.89799967979252
 34
0.0
100
AcDbRotatedDimension
  0
DIMENSION
  5
1DB4
330
21F7
100
AcDbEntity
  8
SK2
  6
Continuous
 62
     7
100
AcDbDimension
  2
*D47
 10
-0.0010062323896119
 20
44.0511842135925
 30
0.0
 11
-27.16946211368969
 21
44.0511842135925
 31
0.0
 70
   160
  1
48.4
 71
     5
 42
48.40000000000006
  3
STANDARD
100
AcDbAlignedDimension
 13
-48.40100623238967
 23
10.31418751869251
 33
0.0
 14
-0.0010062323896136
 24
15.41024721869252
 34
0.0
100
AcDbRotatedDimension
  0
DIMENSION
  5
1DB5
330
21F7
100
AcDbEntity
  8
SK2
  6
Continuous
 62
     7
100
AcDbDimension
  2
*D51
 10
109.6705330293103
 20
-14.00200032020748
 30
0.0
 11
109.6705330293103
 21
-1.939637002607492
 31
0.0
 70
   160
  1
%%c28
 71
     5
 42
27.99999999999999
  3
STANDARD
100
AcDbAlignedDimension
 13
99.47799376761029
 23
13.99799967979251
 33
0.0
 14
99.47799376761029
 24
-14.00200032020748
 34
0.0
 50
270.0
100
AcDbRotatedDimension
  0
DIMENSION
  5
1DB6
330
21F7
100
AcDbEntity
  8
2
  6
Continuous
 62
     7
100
AcDbDimension
  2
*D53
 10
99.99899376761028
 20
44.1088985118925
 30
0.0
 11
49.80881984971031
 21
44.1088985118925
 31
0.0
 70
   160
  1
100
 71
     5
 42
99.99999999999991
  3
STANDARD
100
AcDbAlignedDimension
 13
-0.0010062323896136
 23
15.41024721869252
 33
0.0
 14
99.99899376761028
 24
11.99799967979251
 34
0.0
100
AcDbRotatedDimension
  0
LINE
  5
1DBA
330
21F7
100
AcDbEntity
  8
1
  6
Continuous
100
AcDbLine
 10
-48.40100623238967
 20
-8.818188159007487
 30
0.0
 11
-48.40100623238967
 21
8.814187518692509
 31
0.0
  0
LINE
  5
1DBB
330
21F7
100
AcDbEntity
  8
SK3
  6
DASHED
100
AcDbLine
 10
-48.10100623238966
 20
-6.484000320207487
 30
0.0
 11
-48.10100623238966
 21
6.479999679792507
 31
0.0
  0
LINE
  5
1DBC
330
21F7
100
AcDbEntity
  8
SK3
  6
DASHED
100
AcDbLine
 10
-47.6991704449897
 20
-6.252000320207487
 30
0.0
 11
-47.6991704449897
 21
6.247999679792506
 31
0.0
  0
LINE
  5
1DBD
330
21F7
100
AcDbEntity
  8
SK3
  6
DASHED
100
AcDbLine
 10
-44.20100623238968
 20
-6.252000320207487
 30
0.0
 11
-44.20100623238968
 21
6.247999679792506
 31
0.0
  0
LINE
  5
1DBE
330
21F7
100
AcDbEntity
  8
SK3
  6
DASHED
100
AcDbLine
 10
-43.45459607078967
 20
6.072845556892508
 30
0.0
 11
-43.45459607078967
 21
-6.227154443107489
 31
0.0
  0
LINE
  5
1DBF
330
21F7
100
AcDbEntity
  8
SK3
  6
DASHED
100
AcDbLine
 10
-41.20100623238968
 20
-6.152000320207486
 30
0.0
 11
-41.20100623238968
 21
6.147999679792507
 31
0.0
  0
LINE
  5
1DC0
330
21F7
100
AcDbEntity
  8
SK3
  6
DASHED
100
AcDbLine
 10
-40.20100623238969
 20
-5.05500032020749
 30
0.0
 11
-40.20100623238969
 21
5.050999679792507
 31
0.0
  0
LINE
  5
1DC1
330
21F7
100
AcDbEntity
  8
SK3
  6
DASHED
100
AcDbLine
 10
-48.40100623238967
 20
6.999614922092508
 30
0.0
 11
-48.10100623238966
 21
6.479999679792507
 31
0.0
  0
LINE
  5
1DC2
330
21F7
100
AcDbEntity
  8
SK3
  6
DASHED
100
AcDbLine
 10
-48.10100623238966
 20
-6.484000320207487
 30
0.0
 11
-48.40100623238967
 21
-7.003615562407491
 31
0.0
  0
LINE
  5
1DC3
330
21F7
100
AcDbEntity
  8
SK3
  6
DASHED
100
AcDbLine
 10
-24.40100623228969
 20
5.997999679792506
 30
0.0
 11
-24.40100623228969
 21
-6.002000320207487
 31
0.0
  0
LINE
  5
1DC4
330
21F7
100
AcDbEntity
  8
SK3
  6
DASHED
100
AcDbLine
 10
-41.20100623238968
 20
6.050999679792507
 30
0.0
 11
-40.20100623238969
 21
5.050999679792507
 31
0.0
  0
LINE
  5
1DC6
330
21F7
100
AcDbEntity
  8
SK3
  6
DASHED
100
AcDbLine
 10
-14.40100623238967
 20
-5.05500032020749
 30
0.0
 11
-14.40100623238967
 21
5.050999679792507
 31
0.0
  0
LINE
  5
1DC7
330
21F7
100
AcDbEntity
  8
SK3
  6
DASHED
100
AcDbLine
 10
-14.22606910078968
 20
-4.752000320207488
 30
0.0
 11
-14.22606910078968
 21
4.747999679792497
 31
0.0
  0
LINE
  5
1DC8
330
21F7
100
AcDbEntity
  8
SK3
  6
DASHED
100
AcDbLine
 10
-41.20100623238968
 20
-6.055000320207488
 30
0.0
 11
-40.20100623238969
 21
-5.05500032020749
 31
0.0
  0
LINE
  5
1DC9
330
21F7
100
AcDbEntity
  8
SK3
  6
DASHED
100
AcDbLine
 10
-48.10100623238966
 20
6.479999679792507
 30
0.0
 11
-47.6991704449897
 21
6.247999679792506
 31
0.0
  0
LINE
  5
1DCA
330
21F7
100
AcDbEntity
  8
SK3
  6
DASHED
100
AcDbLine
 10
-14.22606910078968
 20
4.747999679792497
 30
0.0
 11
-14.40100623238967
 21
5.050999679792507
 31
0.0
  0
LINE
  5
1DCB
330
21F7
100
AcDbEntity
  8
1
  6
Continuous
100
AcDbLine
 10
2.598993767610323
 20
-23.00200032020749
 30
0.0
 11
9.598993767610323
 21
-23.00200032020749
 31
0.0
  0
LINE
  5
1DCC
330
21F7
100
AcDbEntity
  8
1
  6
Continuous
100
AcDbLine
 10
17.59899376761032
 20
-23.00200032020749
 30
0.0
 11
21.39899376761039
 21
-23.00200032020749
 31
0.0
  0
LINE
  5
1DCD
330
21F7
100
AcDbEntity
  8
1
  6
Continuous
100
AcDbLine
 10
11.59899376761032
 20
-19.00200032020749
 30
0.0
 11
15.59899376761041
 21
-19.00200032020749
 31
0.0
  0
LINE
  5
1DCE
330
21F7
100
AcDbEntity
  8
1
  6
Continuous
100
AcDbLine
 10
-48.40100623238967
 20
-8.818188159007487
 30
0.0
 11
-1.646434407889671
 21
-15.63702576610749
 31
0.0
  0
LINE
  5
1DCF
330
21F7
100
AcDbEntity
  8
1
  6
CENTER
100
AcDbLine
 10
-1.646434407889671
 20
-15.63702576610749
 30
0.0
 11
-0.0010062323896136
 21
-15.87700032020748
 31
0.0
  0
LINE
  5
1DD0
330
21F7
100
AcDbEntity
  8
SK3
  6
DASHED
100
AcDbLine
 10
-43.5308959992897
 20
-6.431555816007486
 30
0.0
 11
-44.20100623238968
 21
-6.252000320207487
 31
0.0
  0
LINE
  5
1DD1
330
21F7
100
AcDbEntity
  8
1
  6
Continuous
100
AcDbLine
 10
-1.646434407889671
 20
-15.63702576610749
 30
0.0
 11
-1.646434407889671
 21
15.63302512579252
 31
0.0
  0
LINE
  5
1DD2
330
21F7
100
AcDbEntity
  8
1
  6
Continuous
100
AcDbLine
 10
-0.6760062323896819
 20
-15.01604847190749
 30
0.0
 11
-0.6760062323896819
 21
15.28395152809251
 31
0.0
  0
LINE
  5
1DD3
330
21F7
100
AcDbEntity
  8
SK4
  6
CENTER
100
AcDbLine
 10
-0.0010062323896136
 20
-17.50539812240748
 30
0.0
 11
-0.0010062323896136
 21
17.89460187759251
 31
0.0
  0
LINE
  5
1DD4
330
21F7
100
AcDbEntity
  8
1
  6
Continuous
100
AcDbLine
 10
1.998993767610386
 20
-22.40200032020749
 30
0.0
 11
1.998993767610386
 21
-8.552000320207485
 31
0.0
  0
LINE
  5
1DD5
330
21F7
100
AcDbEntity
  8
1
  6
Continuous
100
AcDbLine
 10
1.998993767610386
 20
8.547999679792507
 30
0.0
 11
1.998993767610386
 21
22.39799967979251
 31
0.0
  0
LINE
  5
1DD6
330
21F7
100
AcDbEntity
  8
SK3
  6
DASHED
100
AcDbLine
 10
-14.22606910078968
 20
-4.752000320207488
 30
0.0
 11
-14.40100623238967
 21
-5.05500032020749
 31
0.0
  0
LINE
  5
1DD7
330
21F7
100
AcDbEntity
  8
SK3
  6
DASHED
100
AcDbLine
 10
-47.6991704449897
 20
-6.252000320207487
 30
0.0
 11
-48.10100623238966
 21
-6.484000320207487
 31
0.0
  0
LINE
  5
1DD8
330
21F7
100
AcDbEntity
  8
1
  6
Continuous
100
AcDbLine
 10
72.39917068781029
 20
-14.00191186480748
 30
0.0
 11
71.98499376761039
 21
-14.00200032020748
 31
0.0
  0
LINE
  5
1DD9
330
21F7
100
AcDbEntity
  8
1
  6
Continuous
100
AcDbLine
 10
75.3988168475103
 20
-11.00208877560748
 30
0.0
 11
75.8129937676103
 21
-11.00200032020748
 31
0.0
  0
LINE
  5
1DDA
330
21F7
100
AcDbEntity
  8
1
  6
Continuous
100
AcDbLine
 10
-0.9010062323896761
 20
-15.87700032020748
 30
0.0
 11
-0.0010062323896136
 21
-15.87700032020748
 31
0.0
  0
LINE
  5
1DDB
330
21F7
100
AcDbEntity
  8
1
  6
Continuous
100
AcDbLine
 10
0.9989937676103863
 20
-15.37700032020748
 30
0.0
 11
-0.544353734789695
 21
-15.37700032020748
 31
0.0
  0
LINE
  5
1DDC
330
21F7
100
AcDbEntity
  8
1
  6
Continuous
100
AcDbLine
 10
71.98499376761039
 20
-14.00200032020748
 30
0.0
 11
27.99899376761039
 21
-14.00200032020748
 31
0.0
  0
LINE
  5
1DDD
330
21F7
100
AcDbEntity
  8
1
  6
Continuous
100
AcDbLine
 10
83.9989937676103
 20
-14.00200032020748
 30
0.0
 11
97.9779937676103
 21
-14.00200032020748
 31
0.0
  0
LINE
  5
1DDE
330
21F7
100
AcDbEntity
  8
1
  6
Continuous
100
AcDbLine
 10
90.9989937676103
 20
-13.98000032020748
 30
0.0
 11
97.99099376761031
 21
-13.98000032020748
 31
0.0
  0
LINE
  5
1DDF
330
21F7
100
AcDbEntity
  8
1
  6
Continuous
100
AcDbLine
 10
82.99899376761031
 20
-11.00200032020748
 30
0.0
 11
75.8129937676103
 21
-11.00200032020748
 31
0.0
  0
LINE
  5
1DE0
330
21F7
100
AcDbEntity
  8
1
  6
Continuous
100
AcDbLine
 10
-0.8031727798896781
 20
-15.41107449390749
 30
0.0
 11
-1.646434407889671
 21
-15.63702576610749
 31
0.0
  0
LINE
  5
1DE1
330
21F7
100
AcDbEntity
  8
1
  6
Continuous
100
AcDbLine
 10
77.3989937676103
 20
-10.00200032020748
 30
0.0
 11
82.99899376761031
 21
-10.00200032020748
 31
0.0
  0
LINE
  5
1DE2
330
21F7
100
AcDbEntity
  8
1
  6
Continuous
100
AcDbLine
 10
1.998993767610386
 20
-9.052000320207485
 30
0.0
 11
9.598993767610323
 21
-9.052000320207485
 31
0.0
  0
LINE
  5
1DE3
330
21F7
100
AcDbEntity
  8
1
  6
Continuous
100
AcDbLine
 10
2.498993767610329
 20
-8.052000320207486
 30
0.0
 11
10.9489937676104
 21
-8.052000320207486
 31
0.0
  0
LINE
  5
1DE4
330
21F7
100
AcDbEntity
  8
1
  6
Continuous
100
AcDbLine
 10
90.9989937676103
 20
-7.675000320207489
 30
0.0
 11
98.4989937676103
 21
-7.675000320207489
 31
0.0
  0
LINE
  5
1DE5
330
21F7
100
AcDbEntity
  8
SK3
  6
DASHED
100
AcDbLine
 10
-41.50100623238967
 20
-6.452000320207487
 30
0.0
 11
-43.37560457228969
 21
-6.452000320207487
 31
0.0
  0
LINE
  5
1DE6
330
21F7
100
AcDbEntity
  8
1
  6
Continuous
100
AcDbLine
 10
90.9989937676103
 20
-6.307000320207487
 30
0.0
 11
98.4989937676103
 21
-6.307000320207487
 31
0.0
  0
LINE
  5
1DE7
330
21F7
100
AcDbEntity
  8
SK3
  6
DASHED
100
AcDbLine
 10
-47.6991704449897
 20
-6.252000320207487
 30
0.0
 11
-44.20100623238968
 21
-6.252000320207487
 31
0.0
  0
LINE
  5
1DE8
330
21F7
100
AcDbEntity
  8
SK3
  6
DASHED
100
AcDbLine
 10
-24.40100623228969
 20
-6.002000320207487
 30
0.0
 11
-40.84800623238968
 21
-6.002000320207487
 31
0.0
  0
LINE
  5
1DE9
330
21F7
100
AcDbEntity
  8
SK3
  6
DASHED
100
AcDbLine
 10
69.83100978791028
 20
-5.252000320207491
 30
0.0
 11
67.3989937676103
 21
-5.252000320207491
 31
0.0
  0
LINE
  5
1DEA
330
21F7
100
AcDbEntity
  8
SK3
  6
DASHED
100
AcDbLine
 10
-14.40100623238967
 20
-5.05500032020749
 30
0.0
 11
-40.20100623238969
 21
-5.05500032020749
 31
0.0
  0
LINE
  5
1DEB
330
21F7
100
AcDbEntity
  8
SK3
  6
DASHED
100
AcDbLine
 10
67.11031863311029
 20
-4.752000320207488
 30
0.0
 11
-14.22606910078968
 21
-4.752000320207488
 31
0.0
  0
LINE
  5
1DEC
330
21F7
100
AcDbEntity
  8
1
  6
Continuous
100
AcDbLine
 10
1.998993767610386
 20
8.547999679792507
 30
0.0
 11
2.498993767610329
 21
8.047999679792507
 31
0.0
  0
LINE
  5
1DED
330
21F7
100
AcDbEntity
  8
1
  6
Continuous
100
AcDbLine
 10
17.59899376761032
 20
-23.00200032020749
 30
0.0
 11
15.59899376761041
 21
-19.53789870500748
 31
0.0
  0
LINE
  5
1DEE
330
21F7
100
AcDbEntity
  8
1
  6
Continuous
100
AcDbLine
 10
9.598993767610323
 20
-9.052000320207485
 30
0.0
 11
9.598993767610323
 21
-23.00200032020749
 31
0.0
  0
LINE
  5
1DEF
330
21F7
100
AcDbEntity
  8
1
  6
Continuous
100
AcDbLine
 10
9.598993767610323
 20
9.047999679792507
 30
0.0
 11
9.598993767610323
 21
22.99799967979251
 31
0.0
  0
LINE
  5
1DF0
330
21F7
100
AcDbEntity
  8
1
  6
Continuous
100
AcDbLine
 10
11.59899376761032
 20
-19.53789870500748
 30
0.0
 11
11.59899376761032
 21
-8.025715170507485
 31
0.0
  0
LINE
  5
1DF1
330
21F7
100
AcDbEntity
  8
1
  6
Continuous
100
AcDbLine
 10
11.59899376761032
 20
8.021714530192511
 30
0.0
 11
11.59899376761032
 21
19.53389806469251
 31
0.0
  0
LINE
  5
1DF2
330
21F7
100
AcDbEntity
  8
1
  6
Continuous
100
AcDbLine
 10
15.59899376761041
 20
19.53389806469251
 30
0.0
 11
17.59899376761032
 21
22.99799967979251
 31
0.0
  0
LINE
  5
1DF3
330
21F7
100
AcDbEntity
  8
SK3
  6
DASHED
100
AcDbLine
 10
89.39899376761031
 20
7.997881663392508
 30
0.0
 11
69.83100978791028
 21
5.247999679792506
 31
0.0
  0
LINE
  5
1DF4
330
21F7
100
AcDbEntity
  8
SK4
  6
CENTER
100
AcDbLine
 10
102.6799937676103
 20
-0.0020003202074886
 30
0.0
 11
-53.93600623238967
 21
-0.0020003202074886
 31
0.0
  0
LINE
  5
1DF5
330
21F7
100
AcDbEntity
  8
SK3
  6
DASHED
100
AcDbLine
 10
89.39899376761031
 20
-8.001882303707484
 30
0.0
 11
69.83100978791028
 21
-5.252000320207491
 31
0.0
  0
LINE
  5
1DF6
330
21F7
100
AcDbEntity
  8
1
  6
Continuous
100
AcDbLine
 10
17.02164349851031
 20
-5.286451592207492
 30
0.0
 11
17.59899376761032
 21
-6.140404021507487
 31
0.0
  0
LINE
  5
1DF7
330
21F7
100
AcDbEntity
  8
1
  6
Continuous
100
AcDbLine
 10
10.17634403681029
 20
8.047999679792507
 30
0.0
 11
9.598993767610323
 21
9.047999679792507
 31
0.0
  0
LINE
  5
1DF8
330
21F7
100
AcDbEntity
  8
1
  6
Continuous
100
AcDbLine
 10
15.59899376761041
 20
-19.53789870500748
 30
0.0
 11
15.59899376761041
 21
-6.573149382607491
 31
0.0
  0
LINE
  5
1DF9
330
21F7
100
AcDbEntity
  8
1
  6
Continuous
100
AcDbLine
 10
15.59899376761041
 20
6.569148742192506
 30
0.0
 11
15.59899376761041
 21
19.53389806469251
 31
0.0
  0
LINE
  5
1DFA
330
21F7
100
AcDbEntity
  8
1
  6
Continuous
100
AcDbLine
 10
17.59899376761032
 20
-6.140404021507487
 30
0.0
 11
17.59899376761032
 21
-23.00200032020749
 31
0.0
  0
LINE
  5
1DFB
330
21F7
100
AcDbEntity
  8
1
  6
Continuous
100
AcDbLine
 10
17.59899376761032
 20
6.136403381092508
 30
0.0
 11
17.59899376761032
 21
22.99799967979251
 31
0.0
  0
LINE
  5
1DFC
330
21F7
100
AcDbEntity
  8
1
  6
Continuous
100
AcDbLine
 10
10.17634403681029
 20
-8.052000320207486
 30
0.0
 11
9.598993767610323
 21
-9.052000320207485
 31
0.0
  0
LINE
  5
1DFD
330
21F7
100
AcDbEntity
  8
1
  6
Continuous
100
AcDbLine
 10
17.02164349851031
 20
5.282450951892506
 30
0.0
 11
17.59899376761032
 21
6.136403381092508
 31
0.0
  0
LINE
  5
1DFE
330
21F7
100
AcDbEntity
  8
1
  6
Continuous
100
AcDbLine
 10
1.998993767610386
 20
-8.552000320207485
 30
0.0
 11
2.498993767610329
 21
-8.052000320207486
 31
0.0
  0
LINE
  5
1DFF
330
21F7
100
AcDbEntity
  8
SK3
  6
DASHED
100
AcDbLine
 10
67.11031863311029
 20
4.747999679792497
 30
0.0
 11
-14.22606910078968
 21
4.747999679792497
 31
0.0
  0
LINE
  5
1E00
330
21F7
100
AcDbEntity
  8
SK3
  6
DASHED
100
AcDbLine
 10
-14.40100623238967
 20
5.050999679792507
 30
0.0
 11
-40.20100623238969
 21
5.050999679792507
 31
0.0
  0
LINE
  5
1E01
330
21F7
100
AcDbEntity
  8
SK3
  6
DASHED
100
AcDbLine
 10
69.83100978791028
 20
5.247999679792506
 30
0.0
 11
67.3989937676103
 21
5.247999679792506
 31
0.0
  0
LINE
  5
1E02
330
21F7
100
AcDbEntity
  8
SK3
  6
DASHED
100
AcDbLine
 10
-24.40100623228969
 20
5.997999679792506
 30
0.0
 11
-40.84800623238968
 21
5.997999679792506
 31
0.0
  0
LINE
  5
1E03
330
21F7
100
AcDbEntity
  8
SK3
  6
DASHED
100
AcDbLine
 10
-44.20100623238968
 20
6.247999679792506
 30
0.0
 11
-47.6991704449897
 21
6.247999679792506
 31
0.0
  0
LINE
  5
1E04
330
21F7
100
AcDbEntity
  8
1
  6
Continuous
100
AcDbLine
 10
98.4989937676103
 20
6.302999679792517
 30
0.0
 11
90.9989937676103
 21
6.302999679792517
 31
0.0
  0
LINE
  5
1E05
330
21F7
100
AcDbEntity
  8
SK3
  6
DASHED
100
AcDbLine
 10
-43.37560457228969
 20
6.447999679792507
 30
0.0
 11
-41.50100623238967
 21
6.447999679792507
 31
0.0
  0
LINE
  5
1E06
330
21F7
100
AcDbEntity
  8
1
  6
Continuous
100
AcDbLine
 10
90.9989937676103
 20
7.670999679792506
 30
0.0
 11
98.4989937676103
 21
7.670999679792506
 31
0.0
  0
LINE
  5
1E07
330
21F7
100
AcDbEntity
  8
1
  6
Continuous
100
AcDbLine
 10
2.498993767610329
 20
8.047999679792507
 30
0.0
 11
10.9489937676104
 21
8.047999679792507
 31
0.0
  0
LINE
  5
1E08
330
21F7
100
AcDbEntity
  8
1
  6
Continuous
100
AcDbLine
 10
11.59899376761032
 20
19.53389806469251
 30
0.0
 11
9.598993767610323
 21
22.99799967979251
 31
0.0
  0
LINE
  5
1E09
330
21F7
100
AcDbEntity
  8
1
  6
Continuous
100
AcDbLine
 10
21.99899376761039
 20
-22.40200032020749
 30
0.0
 11
21.99899376761039
 21
22.39799967979251
 31
0.0
  0
LINE
  5
1E0A
330
21F7
100
AcDbEntity
  8
1
  6
Continuous
100
AcDbLine
 10
9.598993767610323
 20
-23.00200032020749
 30
0.0
 11
11.59899376761032
 21
-19.53789870500748
 31
0.0
  0
LINE
  5
1E0B
330
21F7
100
AcDbEntity
  8
1
  6
Continuous
100
AcDbLine
 10
1.998993767610386
 20
9.047999679792507
 30
0.0
 11
9.598993767610323
 21
9.047999679792507
 31
0.0
  0
LINE
  5
1E0C
330
21F7
100
AcDbEntity
  8
1
  6
Continuous
100
AcDbLine
 10
82.99899376761031
 20
9.99799967979251
 30
0.0
 11
77.3989937676103
 21
9.99799967979251
 31
0.0
  0
LINE
  5
1E0D
330
21F7
100
AcDbEntity
  8
1
  6
Continuous
100
AcDbLine
 10
82.99899376761031
 20
10.99799967979251
 30
0.0
 11
75.8129937676103
 21
10.99799967979251
 31
0.0
  0
LINE
  5
1E0E
330
21F7
100
AcDbEntity
  8
1
  6
Continuous
100
AcDbLine
 10
90.9989937676103
 20
13.97599967979251
 30
0.0
 11
97.99099376761031
 21
13.97599967979251
 31
0.0
  0
LINE
  5
1E0F
330
21F7
100
AcDbEntity
  8
1
  6
Continuous
100
AcDbLine
 10
97.9779937676103
 20
13.99799967979251
 30
0.0
 11
83.9989937676103
 21
13.99799967979251
 31
0.0
  0
LINE
  5
1E10
330
21F7
100
AcDbEntity
  8
1
  6
Continuous
100
AcDbLine
 10
71.98499376761039
 20
13.99799967979251
 30
0.0
 11
27.99899376761039
 21
13.99799967979251
 31
0.0
  0
LINE
  5
1E11
330
21F7
100
AcDbEntity
  8
1
  6
Continuous
100
AcDbLine
 10
-0.544353734789695
 20
15.37299967979251
 30
0.0
 11
0.9989937676103863
 21
15.37299967979251
 31
0.0
  0
LINE
  5
1E12
330
21F7
100
AcDbEntity
  8
1
  6
Continuous
100
AcDbLine
 10
-1.646434407889671
 20
15.63302512579252
 30
0.0
 11
-0.8031727798896781
 21
15.40707385349251
 31
0.0
  0
LINE
  5
1E13
330
21F7
100
AcDbEntity
  8
1
  6
CENTER
100
AcDbLine
 10
-0.0010062323896136
 20
15.87299967979251
 30
0.0
 11
-1.646434407889671
 21
15.63302512579252
 31
0.0
  0
LINE
  5
1E14
330
21F7
100
AcDbEntity
  8
1
  6
Continuous
100
AcDbLine
 10
-48.40100623238967
 20
8.814187518692509
 30
0.0
 11
-1.646434407889671
 21
15.63302512579252
 31
0.0
  0
LINE
  5
1E15
330
21F7
100
AcDbEntity
  8
1
  6
Continuous
100
AcDbLine
 10
15.59899376761041
 20
18.99799967979251
 30
0.0
 11
11.59899376761032
 21
18.99799967979251
 31
0.0
  0
LINE
  5
1E16
330
21F7
100
AcDbEntity
  8
SK3
  6
DASHED
100
AcDbLine
 10
-44.20100623238968
 20
6.247999679792506
 30
0.0
 11
-43.5308959992897
 21
6.427555175592509
 31
0.0
  0
LINE
  5
1E17
330
21F7
100
AcDbEntity
  8
1
  6
Continuous
100
AcDbLine
 10
21.39899376761039
 20
22.99799967979251
 30
0.0
 11
17.59899376761032
 21
22.99799967979251
 31
0.0
  0
LINE
  5
1E18
330
21F7
100
AcDbEntity
  8
1
  6
Continuous
100
AcDbLine
 10
9.598993767610323
 20
22.99799967979251
 30
0.0
 11
2.598993767610323
 21
22.99799967979251
 31
0.0
  0
LINE
  5
1E1A
330
21F7
100
AcDbEntity
  8
SK3
  6
DASHED
100
AcDbLine
 10
67.11031863311029
 20
-4.752000320207488
 30
0.0
 11
67.3989937676103
 21
-5.252000320207491
 31
0.0
  0
LINE
  5
1E1B
330
21F7
100
AcDbEntity
  8
SK3
  6
DASHED
100
AcDbLine
 10
67.11031863311029
 20
4.747999679792497
 30
0.0
 11
67.3989937676103
 21
5.247999679792506
 31
0.0
  0
LINE
  5
1E1C
330
21F7
100
AcDbEntity
  8
1
  6
Continuous
100
AcDbLine
 10
75.1059937676103
 20
11.29099967979251
 30
0.0
 11
72.69199376761029
 21
13.70499967979251
 31
0.0
  0
LINE
  5
1E1D
330
21F7
100
AcDbEntity
  8
SK3
  6
DASHED
100
AcDbLine
 10
67.11031863311029
 20
-4.752000320207488
 30
0.0
 11
67.11031863311029
 21
4.747999679792497
 31
0.0
  0
LINE
  5
1E1E
330
21F7
100
AcDbEntity
  8
SK3
  6
DASHED
100
AcDbLine
 10
67.3989937676103
 20
-5.252000320207491
 30
0.0
 11
67.3989937676103
 21
5.247999679792506
 31
0.0
  0
LINE
  5
1E1F
330
21F7
100
AcDbEntity
  8
SK3
  6
DASHED
100
AcDbLine
 10
69.83100978791028
 20
-5.252000320207491
 30
0.0
 11
69.83100978791028
 21
5.247999679792506
 31
0.0
  0
LINE
  5
1E20
330
21F7
100
AcDbEntity
  8
1
  6
Continuous
100
AcDbLine
 10
72.39917068781029
 20
13.44699365079252
 30
0.0
 11
72.39917068781029
 21
-13.45300634920749
 31
0.0
  0
LINE
  5
1E21
330
21F7
100
AcDbEntity
  8
1
  6
Continuous
100
AcDbLine
 10
72.39917068781029
 20
-14.00191186480748
 30
0.0
 11
72.69199376761029
 21
-13.70900032020748
 31
0.0
  0
LINE
  5
1E22
330
21F7
100
AcDbEntity
  8
1
  6
Continuous
100
AcDbLine
 10
75.3988168475103
 20
-11.00208877560748
 30
0.0
 11
75.1059937676103
 21
-11.29500032020748
 31
0.0
  0
LINE
  5
1E23
330
21F7
100
AcDbEntity
  8
1
  6
Continuous
100
AcDbLine
 10
75.1059937676103
 20
-11.29500032020748
 30
0.0
 11
72.69199376761029
 21
-13.70900032020748
 31
0.0
  0
LINE
  5
1E24
330
21F7
100
AcDbEntity
  8
1
  6
Continuous
100
AcDbLine
 10
75.3988168475103
 20
-10.32905424340748
 30
0.0
 11
75.3988168475103
 21
10.67094575659251
 31
0.0
  0
LINE
  5
1E25
330
21F7
100
AcDbEntity
  8
1
  6
Continuous
100
AcDbLine
 10
77.3989937676103
 20
-11.00200032020748
 30
0.0
 11
77.3989937676103
 21
10.99799967979251
 31
0.0
  0
LINE
  5
1E26
330
21F7
100
AcDbEntity
  8
1
  6
Continuous
100
AcDbLine
 10
82.99899376761031
 20
12.99799967979251
 30
0.0
 11
82.99899376761031
 21
-13.00200032020748
 31
0.0
  0
LINE
  5
1E27
330
21F7
100
AcDbEntity
  8
SK3
  6
DASHED
100
AcDbLine
 10
89.39899376761031
 20
-14.00200032020748
 30
0.0
 11
89.39899376761031
 21
13.97599967979251
 31
0.0
  0
LINE
  5
1E28
330
21F7
100
AcDbEntity
  8
1
  6
Continuous
100
AcDbLine
 10
90.9989937676103
 20
6.302999679792517
 30
0.0
 11
90.9989937676103
 21
-6.307000320207487
 31
0.0
  0
LINE
  5
1E29
330
21F7
100
AcDbEntity
  8
1
  6
Continuous
100
AcDbLine
 10
90.9989937676103
 20
-7.675000320207489
 30
0.0
 11
90.9989937676103
 21
-13.98000032020748
 31
0.0
  0
LINE
  5
1E2A
330
21F7
100
AcDbEntity
  8
1
  6
Continuous
100
AcDbLine
 10
90.9989937676103
 20
7.670999679792506
 30
0.0
 11
90.9989937676103
 21
13.97599967979251
 31
0.0
  0
LINE
  5
1E2B
330
21F7
100
AcDbEntity
  8
1
  6
Continuous
100
AcDbLine
 10
99.99899376761028
 20
10.49799967979251
 30
0.0
 11
97.9779937676103
 21
13.99799967979251
 31
0.0
  0
LINE
  5
1E2C
330
21F7
100
AcDbEntity
  8
1
  6
Continuous
100
AcDbLine
 10
98.4989937676103
 20
7.670999679792506
 30
0.0
 11
98.4989937676103
 21
6.302999679792517
 31
0.0
  0
LINE
  5
1E2D
330
21F7
100
AcDbEntity
  8
1
  6
Continuous
100
AcDbLine
 10
98.4989937676103
 20
-7.675000320207489
 30
0.0
 11
98.4989937676103
 21
-6.307000320207487
 31
0.0
  0
LINE
  5
1E2E
330
21F7
100
AcDbEntity
  8
1
  6
Continuous
100
AcDbLine
 10
99.99899376761028
 20
-10.50200032020748
 30
0.0
 11
99.99899376761028
 21
10.49799967979251
 31
0.0
  0
LINE
  5
1E2F
330
21F7
100
AcDbEntity
  8
1
  6
Continuous
100
AcDbLine
 10
97.9779937676103
 20
-14.00200032020748
 30
0.0
 11
99.99899376761028
 21
-10.50200032020748
 31
0.0
  0
ARC
  5
1E31
330
21F7
100
AcDbEntity
  8
1
  6
Continuous
100
AcDbCircle
 10
41.05899376761039
 20
-0.0020003202074886
 30
0.0
 40
57.785
100
AcDbArc
 50
353.7359309999999
 51
6.264094999999948
  0
ARC
  5
1E32
330
21F7
100
AcDbEntity
  8
1
  6
Continuous
100
AcDbCircle
 10
36.78559194701032
 20
-0.0020003202074886
 30
0.0
 40
35.8219194474
100
AcDbArc
 50
166.1913140411997
 51
193.8086859588
  0
ARC
  5
1E33
330
21F7
100
AcDbEntity
  8
1
  6
Continuous
100
AcDbCircle
 10
103.4999937676102
 20
-0.0020003202074886
 30
0.0
 40
14.001
100
AcDbArc
 50
153.2354739999998
 51
206.7645570000003
  0
ARC
  5
1E34
330
21F7
100
AcDbEntity
  8
1
  6
Continuous
100
AcDbCircle
 10
10.9489937676104
 20
-0.0020003202074886
 30
0.0
 40
9.05
100
AcDbArc
 50
317.2908791045987
 51
42.70912089540133
  0
ARC
  5
1E35
330
21F7
100
AcDbEntity
  8
1
  6
Continuous
100
AcDbCircle
 10
89.85399376761039
 20
-10.15100032020749
 30
0.0
 40
8.993
100
AcDbArc
 50
334.7998999999999
 51
15.98211699999986
  0
ARC
  5
1E36
330
21F7
100
AcDbEntity
  8
1
  6
Continuous
100
AcDbCircle
 10
89.85399376761039
 20
10.1469996797925
 30
0.0
 40
8.993
100
AcDbArc
 50
344.0178830000002
 51
25.20010000000024
  0
ARC
  5
1E37
330
21F7
100
AcDbEntity
  8
1
  6
Continuous
100
AcDbCircle
 10
10.9489937676104
 20
-0.0020003202074886
 30
0.0
 40
8.05
100
AcDbArc
 50
270.0
 51
90.0
  0
ARC
  5
1E38
330
21F7
100
AcDbEntity
  8
1
  6
Continuous
100
AcDbCircle
 10
27.99899376761039
 20
19.99799967979251
 30
0.0
 40
6.0
100
AcDbArc
 50
180.0
 51
270.0
  0
ARC
  5
1E39
330
21F7
100
AcDbEntity
  8
1
  6
Continuous
100
AcDbCircle
 10
27.99899376761039
 20
-20.0020003202075
 30
0.0
 40
6.0
100
AcDbArc
 50
90.0
 51
180.0
  0
ARC
  5
1E3A
330
21F7
100
AcDbEntity
  8
1
  6
Continuous
100
AcDbCircle
 10
71.98478019861031
 20
12.99799970259251
 30
0.0
 40
1.0
100
AcDbArc
 50
44.99134648949959
 51
89.9877633947006
  0
ARC
  5
1E3B
330
21F7
100
AcDbEntity
  8
1
  6
Continuous
100
AcDbCircle
 10
75.81320733671031
 20
11.99799965699251
 30
0.0
 40
1.0
100
AcDbArc
 50
224.9913464894996
 51
269.9877633947983
  0
ARC
  5
1E3C
330
21F7
100
AcDbEntity
  8
1
  6
Continuous
100
AcDbCircle
 10
75.81320733671031
 20
-12.00200029740749
 30
0.0
 40
1.0
100
AcDbArc
 50
90.01223660519844
 51
135.0086535105002
  0
ARC
  5
1E3D
330
21F7
100
AcDbEntity
  8
1
  6
Continuous
100
AcDbCircle
 10
71.98478019861031
 20
-13.00200034300748
 30
0.0
 40
1.0
100
AcDbArc
 50
270.0122366052994
 51
315.0086535105003
  0
ARC
  5
1E3E
330
21F7
100
AcDbEntity
  8
1
  6
Continuous
100
AcDbCircle
 10
-47.40100623238967
 20
-7.953452221507488
 30
0.0
 40
1.0
100
AcDbArc
 50
180.0
 51
261.7023000000991
  0
ARC
  5
1E3F
330
21F7
100
AcDbEntity
  8
1
  6
Continuous
100
AcDbCircle
 10
-47.40100623238967
 20
7.949451581092509
 30
0.0
 40
1.0
100
AcDbArc
 50
98.2976999999996
 51
180.0
  0
ARC
  5
1E40
330
21F7
100
AcDbEntity
  8
1
  6
Continuous
100
AcDbCircle
 10
0.9989937676103863
 20
-16.37700032020748
 30
0.0
 40
1.0
100
AcDbArc
 50
0.0
 51
90.0
  0
ARC
  5
1E41
330
21F7
100
AcDbEntity
  8
1
  6
Continuous
100
AcDbCircle
 10
-0.544353734789695
 20
-16.37700032020748
 30
0.0
 40
1.0
100
AcDbArc
 50
90.0
 51
105.0000000000012
  0
ARC
  5
1E42
330
21F7
100
AcDbEntity
  8
1
  6
Continuous
100
AcDbCircle
 10
-0.544353734789695
 20
16.37299967979251
 30
0.0
 40
1.0
100
AcDbArc
 50
254.9999999999988
 51
270.0
  0
ARC
  5
1E43
330
21F7
100
AcDbEntity
  8
1
  6
Continuous
100
AcDbCircle
 10
0.9989937676103863
 20
16.37299967979251
 30
0.0
 40
1.0
100
AcDbArc
 50
270.0
 51
0.0
  0
ARC
  5
1E44
330
21F7
100
AcDbEntity
  8
1
  6
Continuous
100
AcDbCircle
 10
83.9989937676103
 20
12.99799967979251
 30
0.0
 40
1.0
100
AcDbArc
 50
90.0
 51
180.0
  0
ARC
  5
1E45
330
21F7
100
AcDbEntity
  8
1
  6
Continuous
100
AcDbCircle
 10
83.9989937676103
 20
-13.00200032020748
 30
0.0
 40
1.0
100
AcDbArc
 50
179.9999849999999
 51
269.9999689999988
  0
ARC
  5
1E46
330
21F7
100
AcDbEntity
  8
SK3
  6
DASHED
100
AcDbCircle
 10
-43.37560457228969
 20
5.847999679792506
 30
0.0
 40
0.6
100
AcDbArc
 50
90.00000000010096
 51
105.0000000000012
  0
ARC
  5
1E47
330
21F7
100
AcDbEntity
  8
SK3
  6
DASHED
100
AcDbCircle
 10
-43.37560457228969
 20
-5.852000320207489
 30
0.0
 40
0.6
100
AcDbArc
 50
254.9999999999988
 51
269.999999999899
  0
ARC
  5
1E48
330
21F7
100
AcDbEntity
  8
1
  6
Continuous
100
AcDbCircle
 10
2.598993767610323
 20
-22.40200032020749
 30
0.0
 40
0.6
100
AcDbArc
 50
180.0
 51
270.0
  0
ARC
  5
1E49
330
21F7
100
AcDbEntity
  8
1
  6
Continuous
100
AcDbCircle
 10
21.39899376761039
 20
-22.40200032020749
 30
0.0
 40
0.6
100
AcDbArc
 50
270.0
 51
0.0
  0
ARC
  5
1E4A
330
21F7
100
AcDbEntity
  8
1
  6
Continuous
100
AcDbCircle
 10
21.39899376761039
 20
22.39799967979251
 30
0.0
 40
0.6
100
AcDbArc
 50
0.0
 51
90.0
  0
ARC
  5
1E4B
330
21F7
100
AcDbEntity
  8
1
  6
Continuous
100
AcDbCircle
 10
2.598993767610323
 20
22.39799967979251
 30
0.0
 40
0.6
100
AcDbArc
 50
90.0
 51
180.0
  0
ARC
  5
1E4C
330
21F7
100
AcDbEntity
  8
SK3
  6
DASHED
100
AcDbCircle
 10
-41.50100623238967
 20
6.147999679792507
 30
0.0
 40
0.3
100
AcDbArc
 50
0.0
 51
90.0
  0
ARC
  5
1E4D
330
21F7
100
AcDbEntity
  8
SK3
  6
DASHED
100
AcDbCircle
 10
-41.50100623238967
 20
-6.152000320207486
 30
0.0
 40
0.3
100
AcDbArc
 50
270.0
 51
0.0
  0
TEXT
  5
1EE6
330
21F7
100
AcDbEntity
  8
SK6
100
AcDbText
 10
-41.57241618520709
 20
-29.46706655587064
 30
0.0
 40
3.5
  1
A214-30 16 100
 41
0.72
  7
TEXTSTYLE_2
100
AcDbText
  0
TEXT
  5
1EEC
330
21F7
100
AcDbEntity
  8
SK6
100
AcDbText
 10
-35.9874734153791
 20
6.81666595868497
 30
0.0
 40
3.5
  1
JIS B 6339 BT30
 41
0.72
  7
TEXTSTYLE_2
100
AcDbText
  0
LINE
  5
1F84
330
21F7
100
AcDbEntity
  8
4
100
AcDbLine
 10
-53.93600623238967
 20
-0.0020003202074886
 30
0.0
 11
103.4999937676102
 21
-0.0020003202074886
 31
0.0
  0
POINT
  5
1F93
330
21F7
100
AcDbEntity
  8
81
  6
CENTER
100
AcDbPoint
 10
99.99899376761028
 20
-0.0020003202074842
 30
0.0
1001
ACDBBLOCKREPETAG
1070
     1
1071
      156
1005
1F93
  0
LINE
  5
1F94
330
21F7
100
AcDbEntity
  8
81
100
AcDbLine
 10
89.73899376761272
 20
-0.0020003202074842
 30
0.0
 11
99.73899376761272
 21
-0.0020003202074842
 31
0.0
1001
ACDBBLOCKREPETAG
1070
     1
1071
      157
1005
1F94
  0
POINT
  5
1F95
330
21F7
100
AcDbEntity
  8
80
  6
CENTER
100
AcDbPoint
 10
-0.0010062323896136
 20
-0.0020003202074842
 30
0.0
1001
ACDBBLOCKREPETAG
1070
     1
1071
      158
1005
1F95
  0
LINE
  5
1F96
330
21F7
100
AcDbEntity
  8
80
100
AcDbLine
 10
-0.0010062323896136
 20
-0.0020003202074842
 30
0.0
 11
-10.00099527495288
 21
-0.0020003202074886
 31
0.0
1001
ACDBBLOCKREPETAG
1070
     1
1071
      159
1005
1F96
  0
DIMENSION
  5
22CE
330
21F7
100
AcDbEntity
  8
2
 62
     7
100
AcDbDimension
  2
*D52
 10
-0.0010062323896153
 20
-28.42621381128495
 30
0.0
 11
44.86899376761154
 21
-26.58621381128495
 31
0.0
 70
    32
 71
     5
 42
89.74000000000232
  3
STANDARD
100
AcDbAlignedDimension
 13
89.73899376761272
 23
-0.0020003202074842
 33
0.0
 14
-0.0010062323896136
 24
-0.613978903494651
 34
0.0
100
AcDbRotatedDimension
1001
ACAD
1000
DSTYLE
1002
{
1070
   147
1040
0.09
1070
    72
1070
     0
1070
    71
1070
     0
1002
}
  0
VIEWPORT
  5
19A4
102
{ACAD_XDICTIONARY
360
24A7
102
}
330
21F3
100
AcDbEntity
 67
     1
  8
0
100
AcDbViewport
 10
5.656249879852054
 20
3.940416471226006
 30
0.0
 40
20.37689369710756
 41
8.742606248029574
 68
     1
 69
     1
 12
5.656249879852054
 22
3.940416471226006
 13
0.0
 23
0.0
 14
10.0
 24
10.0
 15
10.0
 25
10.0
 16
0.0
 26
0.0
 36
1.0
 17
0.0
 27
0.0
 37
0.0
 42
50.0
 43
0.0
 44
0.0
 45
8.742606248029574
 50
0.0
 51
0.0
 72
   100
 90
   819232
  1

281
     0
 71
     0
 74
     0
110
0.0
120
0.0
130
0.0
111
1.0
121
0.0
131
0.0
112
0.0
122
1.0
132
0.0
 79
     0
146
0.0
  0
VIEWPORT
  5
19A9
102
{ACAD_XDICTIONARY
360
24A9
102
}
330
21F3
100
AcDbEntity
 67
     1
  8
0
100
AcDbViewport
 10
5.655416503665952
 20
3.942916900154171
 30
0.0
 40
9.048666405865523
 41
6.308667040246676
 68
     2
 69
     2
 12
-0.1538021399398133
 22
7.989341809812112
 13
0.0
 23
0.0
 14
10.0
 24
10.0
 15
10.0
 25
10.0
 16
0.0
 26
0.0
 36
1.0
 17
0.0
 27
0.0
 37
0.0
 42
50.0
 43
0.0
 44
0.0
 45
106.374553117978
 50
0.0
 51
0.0
 72
   100
 90
   819232
  1

281
     0
 71
     0
 74
     0
110
0.0
120
0.0
130
0.0
111
1.0
121
0.0
131
0.0
112
0.0
122
1.0
132
0.0
 79
     0
146
0.0
  0
ENDSEC
  0
SECTION
  2
OBJECTS
  0
DICTIONARY
  5
218D
330
0
100
AcDbDictionary
281
     1
  3
ACAD_COLOR
350
21EE
  3
ACAD_GROUP
350
218E
  3
ACAD_LAYOUT
350
21ED
  3
ACAD_MATERIAL
350
2191
  3
ACAD_MLEADERSTYLE
350
21F1
  3
ACAD_MLINESTYLE
350
21EA
  3
ACAD_PLOTSETTINGS
350
21EC
  3
ACAD_PLOTSTYLENAME
350
218F
  3
ACAD_SCALELIST
350
21BE
  3
ACAD_TABLESTYLE
350
21EF
  3
ACAD_VISUALSTYLE
350
21AA
  3
ACDB_RECOMPOSE_DATA
350
24A5
  3
AcDbVariableDictionary
350
2310
  3
ASE_INDEX_DICTIONARY
350
230D
  3
DWGPROPS
350
24A6
  0
DICTIONARY
  5
22F6
330
21E0
100
AcDbDictionary
280
     1
281
     1
  3
ADSK_XREC_LAYER_RECONCILED
360
22F7
  0
DICTIONARY
  5
22F8
330
21FF
100
AcDbDictionary
280
     1
281
     1
  3
ADSK_XREC_LAYER_RECONCILED
360
22F9
  0
DICTIONARY
  5
22FA
330
2201
100
AcDbDictionary
280
     1
281
     1
  3
ADSK_XREC_LAYER_RECONCILED
360
22FB
  0
DICTIONARY
  5
22FC
330
2202
100
AcDbDictionary
280
     1
281
     1
  3
ADSK_XREC_LAYER_RECONCILED
360
22FD
  0
DICTIONARY
  5
22FE
330
2203
100
AcDbDictionary
280
     1
281
     1
  3
ADSK_XREC_LAYER_RECONCILED
360
22FF
  0
DICTIONARY
  5
2300
330
2204
100
AcDbDictionary
280
     1
281
     1
  3
ADSK_XREC_LAYER_RECONCILED
360
2301
  0
DICTIONARY
  5
2302
330
2205
100
AcDbDictionary
280
     1
281
     1
  3
ADSK_XREC_LAYER_RECONCILED
360
2303
  0
DICTIONARY
  5
2304
330
2206
100
AcDbDictionary
280
     1
281
     1
  3
ADSK_XREC_LAYER_RECONCILED
360
2305
  0
DICTIONARY
  5
2306
330
2207
100
AcDbDictionary
280
     1
281
     1
  3
ADSK_XREC_LAYER_RECONCILED
360
2307
  0
DICTIONARY
  5
2308
330
2208
100
AcDbDictionary
280
     1
281
     1
  3
ADSK_XREC_LAYER_RECONCILED
360
2309
  0
DICTIONARY
  5
230A
330
2209
100
AcDbDictionary
280
     1
281
     1
  3
ADSK_XREC_LAYER_RECONCILED
360
230B
  0
DICTIONARY
  5
24A7
330
19A4
100
AcDbDictionary
280
     1
281
     1
  3
ACAD_XREC_ROUNDTRIP
360
24A8
  0
DICTIONARY
  5
24A9
330
19A9
100
AcDbDictionary
280
     1
281
     1
  3
ACAD_XREC_ROUNDTRIP
360
24AA
  0
DICTIONARY
  5
21EE
102
{ACAD_REACTORS
330
218D
102
}
330
218D
100
AcDbDictionary
281
     1
  0
DICTIONARY
  5
218E
102
{ACAD_REACTORS
330
218D
102
}
330
218D
100
AcDbDictionary
281
     1
  0
DICTIONARY
  5
21ED
102
{ACAD_REACTORS
330
218D
102
}
330
218D
100
AcDbDictionary
281
     1
  3
Layout1
350
21F6
  3
Model
350
21FA
  0
DICTIONARY
  5
2191
102
{ACAD_REACTORS
330
218D
102
}
330
218D
100
AcDbDictionary
281
     1
  3
ByBlock
350
219A
  3
ByLayer
350
2192
  3
Global
350
21A2
  0
DICTIONARY
  5
21F1
102
{ACAD_REACTORS
330
218D
102
}
330
218D
100
AcDbDictionary
281
     1
  3
Standard
350
21F2
  0
DICTIONARY
  5
21EA
102
{ACAD_REACTORS
330
218D
102
}
330
218D
100
AcDbDictionary
281
     1
  3
Standard
350
21EB
  0
DICTIONARY
  5
21EC
102
{ACAD_REACTORS
330
218D
102
}
330
218D
100
AcDbDictionary
281
     1
  0
ACDBDICTIONARYWDFLT
  5
218F
102
{ACAD_REACTORS
330
218D
102
}
330
218D
100
AcDbDictionary
281
     1
  3
Normal
350
2190
100
AcDbDictionaryWithDefault
340
2190
  0
DICTIONARY
  5
21BE
102
{ACAD_REACTORS
330
218D
102
}
330
218D
100
AcDbDictionary
281
     1
  3
A0
350
21BF
  3
A1
350
21C0
  3
A2
350
21C1
  3
A3
350
21C2
  3
A4
350
21C3
  3
A5
350
21C4
  3
A6
350
21C5
  3
A7
350
21C6
  3
A8
350
21C7
  3
A9
350
21C8
  3
B0
350
21C9
  3
B1
350
21CA
  3
B2
350
21CB
  3
B3
350
21CC
  3
B4
350
21CD
  3
B5
350
21CE
  3
B6
350
21CF
  3
B7
350
21D0
  3
B8
350
21D1
  3
B9
350
21D2
  3
C0
350
21D3
  3
C1
350
21D4
  3
C2
350
21D5
  3
C3
350
21D6
  3
C4
350
21D7
  3
C5
350
21D8
  3
C6
350
21D9
  3
C7
350
21DA
  3
C8
350
21DB
  3
C9
350
21DC
  3
D0
350
21DD
  3
D1
350
21DE
  3
D2
350
21DF
  0
DICTIONARY
  5
21EF
102
{ACAD_REACTORS
330
218D
102
}
330
218D
100
AcDbDictionary
281
     1
  3
Standard
350
21F0
  0
DICTIONARY
  5
21AA
102
{ACAD_REACTORS
330
218D
102
}
330
218D
100
AcDbDictionary
281
     1
  3
2dWireframe
350
21B0
  3
3D Hidden
350
21B2
  3
3dWireframe
350
21B1
  3
Basic
350
21AF
  3
Brighten
350
21B6
  3
ColorChange
350
21BA
  3
Conceptual
350
21B3
  3
Dim
350
21B5
  3
EdgeColorOff
350
21BD
  3
Facepattern
350
21B9
  3
Flat
350
21AB
  3
FlatWithEdges
350
21AC
  3
Gouraud
350
21AD
  3
GouraudWithEdges
350
21AE
  3
JitterOff
350
21BB
  3
Linepattern
350
21B8
  3
OverhangOff
350
21BC
  3
Realistic
350
21B4
  3
Thicken
350
21B7
  0
XRECORD
  5
24A5
102
{ACAD_REACTORS
330
218D
102
}
330
218D
100
AcDbXrecord
280
     1
 90
        1
330
21F0
  0
DICTIONARY
  5
2310
102
{ACAD_REACTORS
330
218D
102
}
330
218D
100
AcDbDictionary
281
     1
  3
CANNOSCALE
350
2313
  3
CMLEADERSTYLE
350
2312
  3
CTABLESTYLE
350
2311
  3
DIMASSOC
350
2316
  3
INDEXCTL
350
2315
  3
SORTENTS
350
2314
  3
XCLIPFRAME
350
24A3
  0
DICTIONARY
  5
230D
102
{ACAD_REACTORS
330
218D
102
}
330
218D
100
AcDbDictionary
281
     1
  3
ASEBlockHierarchyIndexRecord
350
230F
1001
DCO15
1040
1892198576.734
  0
XRECORD
  5
24A6
102
{ACAD_REACTORS
330
218D
102
}
330
218D
100
AcDbXrecord
280
     1
  1
DWGPROPS COOKIE
  2

  3

  4

  6

  7

  8
Konstruktion
  9

300
=
301
=
302
=
303
=
304
=
305
=
306
=
307
=
308
=
309
=
 40
0.2336360763888889
 41
2455672.497120949
 42
2457718.702989178
  1

 90
        0
  0
XRECORD
  5
22F7
102
{ACAD_REACTORS
330
22F6
102
}
330
22F6
100
AcDbXrecord
280
     1
290
     1
  0
XRECORD
  5
22F9
102
{ACAD_REACTORS
330
22F8
102
}
330
22F8
100
AcDbXrecord
280
     1
290
     1
  0
XRECORD
  5
22FB
102
{ACAD_REACTORS
330
22FA
102
}
330
22FA
100
AcDbXrecord
280
     1
290
     1
  0
XRECORD
  5
22FD
102
{ACAD_REACTORS
330
22FC
102
}
330
22FC
100
AcDbXrecord
280
     1
290
     1
  0
XRECORD
  5
22FF
102
{ACAD_REACTORS
330
22FE
102
}
330
22FE
100
AcDbXrecord
280
     1
290
     1
  0
XRECORD
  5
2301
102
{ACAD_REACTORS
330
2300
102
}
330
2300
100
AcDbXrecord
280
     1
290
     1
  0
XRECORD
  5
2303
102
{ACAD_REACTORS
330
2302
102
}
330
2302
100
AcDbXrecord
280
     1
290
     1
  0
XRECORD
  5
2305
102
{ACAD_REACTORS
330
2304
102
}
330
2304
100
AcDbXrecord
280
     1
290
     1
  0
XRECORD
  5
2307
102
{ACAD_REACTORS
330
2306
102
}
330
2306
100
AcDbXrecord
280
     1
290
     1
  0
XRECORD
  5
2309
102
{ACAD_REACTORS
330
2308
102
}
330
2308
100
AcDbXrecord
280
     1
290
     1
  0
XRECORD
  5
230B
102
{ACAD_REACTORS
330
230A
102
}
330
230A
100
AcDbXrecord
280
     1
290
     1
  0
XRECORD
  5
24A8
102
{ACAD_REACTORS
330
24A7
102
}
330
24A7
100
AcDbXrecord
280
     1
102
SHADEPLOT
 70
     0
  0
XRECORD
  5
24AA
102
{ACAD_REACTORS
330
24A9
102
}
330
24A9
100
AcDbXrecord
280
     1
102
SHADEPLOT
 70
     0
  0
LAYOUT
  5
21F6
102
{ACAD_XDICTIONARY
360
24D2
102
}
102
{ACAD_REACTORS
330
21ED
102
}
330
21ED
100
AcDbPlotSettings
  1

  2
HP Color LaserJet 5550 PCL 6
  4

  6

 40
0.0
 41
0.0
 42
0.0
 43
0.0
 44
0.0
 45
0.0
 46
0.0
 47
0.0
 48
0.0
 49
0.0
140
0.0
141
0.0
142
1.0
143
1.0
 70
   688
 72
     0
 73
     0
 74
     5
  7

 75
    16
147
1.0
148
0.0
149
0.0
100
AcDbLayout
  1
Layout1
 70
     1
 71
     1
 10
-0.1912502979669045
 20
-0.1912499975970411
 11
11.503750057671
 21
8.072082940049059
 12
0.0
 22
0.0
 32
0.0
 14
1.131083300733189
 24
0.7885833800308344
 34
0.0
 15
10.17974970659872
 25
7.097250420277513
 35
0.0
146
0.0
 13
0.0
 23
0.0
 33
0.0
 16
1.0
 26
0.0
 36
0.0
 17
0.0
 27
1.0
 37
0.0
 76
     0
330
21F3
331
19A4
  0
LAYOUT
  5
21FA
102
{ACAD_XDICTIONARY
360
24D4
102
}
102
{ACAD_REACTORS
330
21ED
102
}
330
21ED
100
AcDbPlotSettings
  1

  2
HP Color LaserJet 5550 PCL 6
  4

  6

 40
0.0
 41
0.0
 42
0.0
 43
0.0
 44
0.0
 45
0.0
 46
0.0
 47
0.0
 48
0.0
 49
0.0
140
0.0
141
0.0
142
1.0
143
1.0
 70
  1712
 72
     0
 73
     0
 74
     0
  7

 75
     0
147
1.0
148
0.0
149
0.0
100
AcDbLayout
  1
Model
 70
     1
 71
     0
 10
0.0
 20
0.0
 11
12.0
 21
9.0
 12
0.0
 22
0.0
 32
0.0
 14
0.0
 24
0.0
 34
0.0
 15
0.0
 25
0.0
 35
0.0
146
0.0
 13
0.0
 23
0.0
 33
0.0
 16
1.0
 26
0.0
 36
0.0
 17
0.0
 27
1.0
 37
0.0
 76
     0
330
21F7
331
21FB
  0
MATERIAL
  5
219A
102
{ACAD_XDICTIONARY
360
219B
102
}
102
{ACAD_REACTORS
330
2191
102
}
330
2191
100
AcDbMaterial
  1
ByBlock
 72
     0
 43
0.0208333333333333
 43
0.0
 43
0.0
 43
0.0
 43
0.0
 43
0.0208333333333333
 43
0.0
 43
0.0
 43
0.0
 43
0.0
 43
1.0
 43
0.0
 43
0.0
 43
0.0
 43
0.0
 43
1.0
 77
     0
 47
0.0208333333333333
 47
0.0
 47
0.0
 47
0.0
 47
0.0
 47
0.0208333333333333
 47
0.0
 47
0.0
 47
0.0
 47
0.0
 47
1.0
 47
0.0
 47
0.0
 47
0.0
 47
0.0
 47
1.0
171
     0
 49
0.0208333333333333
 49
0.0
 49
0.0
 49
0.0
 49
0.0
 49
0.0208333333333333
 49
0.0
 49
0.0
 49
0.0
 49
0.0
 49
1.0
 49
0.0
 49
0.0
 49
0.0
 49
0.0
 49
1.0
175
     0
142
0.0208333333333333
142
0.0
142
0.0
142
0.0
142
0.0
142
0.0208333333333333
142
0.0
142
0.0
142
0.0
142
0.0
142
1.0
142
0.0
142
0.0
142
0.0
142
0.0
142
1.0
179
     0
144
0.0208333333333333
144
0.0
144
0.0
144
0.0
144
0.0
144
0.0208333333333333
144
0.0
144
0.0
144
0.0
144
0.0
144
1.0
144
0.0
144
0.0
144
0.0
144
0.0
144
1.0
147
0.0208333333333333
147
0.0
147
0.0
147
0.0
147
0.0
147
0.0208333333333333
147
0.0
147
0.0
147
0.0
147
0.0
147
1.0
147
0.0
147
0.0
147
0.0
147
0.0
147
1.0
  0
MATERIAL
  5
2192
102
{ACAD_XDICTIONARY
360
2193
102
}
102
{ACAD_REACTORS
330
2191
102
}
330
2191
100
AcDbMaterial
  1
ByLayer
 72
     0
 43
0.0208333333333333
 43
0.0
 43
0.0
 43
0.0
 43
0.0
 43
0.0208333333333333
 43
0.0
 43
0.0
 43
0.0
 43
0.0
 43
1.0
 43
0.0
 43
0.0
 43
0.0
 43
0.0
 43
1.0
 77
     0
 47
0.0208333333333333
 47
0.0
 47
0.0
 47
0.0
 47
0.0
 47
0.0208333333333333
 47
0.0
 47
0.0
 47
0.0
 47
0.0
 47
1.0
 47
0.0
 47
0.0
 47
0.0
 47
0.0
 47
1.0
171
     0
 49
0.0208333333333333
 49
0.0
 49
0.0
 49
0.0
 49
0.0
 49
0.0208333333333333
 49
0.0
 49
0.0
 49
0.0
 49
0.0
 49
1.0
 49
0.0
 49
0.0
 49
0.0
 49
0.0
 49
1.0
175
     0
142
0.0208333333333333
142
0.0
142
0.0
142
0.0
142
0.0
142
0.0208333333333333
142
0.0
142
0.0
142
0.0
142
0.0
142
1.0
142
0.0
142
0.0
142
0.0
142
0.0
142
1.0
179
     0
144
0.0208333333333333
144
0.0
144
0.0
144
0.0
144
0.0
144
0.0208333333333333
144
0.0
144
0.0
144
0.0
144
0.0
144
1.0
144
0.0
144
0.0
144
0.0
144
0.0
144
1.0
147
0.0208333333333333
147
0.0
147
0.0
147
0.0
147
0.0
147
0.0208333333333333
147
0.0
147
0.0
147
0.0
147
0.0
147
1.0
147
0.0
147
0.0
147
0.0
147
0.0
147
1.0
  0
MATERIAL
  5
21A2
102
{ACAD_XDICTIONARY
360
21A3
102
}
102
{ACAD_REACTORS
330
2191
102
}
330
2191
100
AcDbMaterial
  1
Global
 72
     0
 43
0.0208333333333333
 43
0.0
 43
0.0
 43
0.0
 43
0.0
 43
0.0208333333333333
 43
0.0
 43
0.0
 43
0.0
 43
0.0
 43
1.0
 43
0.0
 43
0.0
 43
0.0
 43
0.0
 43
1.0
 77
     0
 47
0.0208333333333333
 47
0.0
 47
0.0
 47
0.0
 47
0.0
 47
0.0208333333333333
 47
0.0
 47
0.0
 47
0.0
 47
0.0
 47
1.0
 47
0.0
 47
0.0
 47
0.0
 47
0.0
 47
1.0
171
     0
 49
0.0208333333333333
 49
0.0
 49
0.0
 49
0.0
 49
0.0
 49
0.0208333333333333
 49
0.0
 49
0.0
 49
0.0
 49
0.0
 49
1.0
 49
0.0
 49
0.0
 49
0.0
 49
0.0
 49
1.0
175
     0
142
0.0208333333333333
142
0.0
142
0.0
142
0.0
142
0.0
142
0.0208333333333333
142
0.0
142
0.0
142
0.0
142
0.0
142
1.0
142
0.0
142
0.0
142
0.0
142
0.0
142
1.0
179
     0
144
0.0208333333333333
144
0.0
144
0.0
144
0.0
144
0.0
144
0.0208333333333333
144
0.0
144
0.0
144
0.0
144
0.0
144
1.0
144
0.0
144
0.0
144
0.0
144
0.0
144
1.0
147
0.0208333333333333
147
0.0
147
0.0
147
0.0
147
0.0
147
0.0208333333333333
147
0.0
147
0.0
147
0.0
147
0.0
147
1.0
147
0.0
147
0.0
147
0.0
147
0.0
147
1.0
  0
MLEADERSTYLE
  5
21F2
102
{ACAD_REACTORS
330
21F1
102
}
330
21F1
100
AcDbMLeaderStyle
170
     2
171
     1
172
     0
 90
        2
 40
0.0
 41
0.0
173
     1
 91
-1056964608
340
21E6
 92
       -2
290
     1
 42
0.09
291
     1
 43
0.36
  3
Standard
 44
0.18
300

342
21E1
174
     1
178
     6
175
     1
176
     0
 93
-1056964608
 45
0.18
292
     0
297
     0
 46
0.18
 94
-1056964608
 47
1.0
 49
1.0
140
1.0
293
     1
141
0.0
294
     1
177
     0
142
1.0
295
     0
296
     0
143
0.125
1001
ACAD_MLEADERVER
1070
     2
  0
MLINESTYLE
  5
21EB
102
{ACAD_REACTORS
330
21EA
102
}
330
21EA
100
AcDbMlineStyle
  2
STANDARD
 70
     0
  3

 62
   256
 51
90.0
 52
90.0
 71
     2
 49
0.5
 62
   256
  6
BYLAYER
 49
-0.5
 62
   256
  6
BYLAYER
  0
ACDBPLACEHOLDER
  5
2190
102
{ACAD_REACTORS
330
218F
102
}
330
218F
  0
SCALE
  5
21BF
102
{ACAD_REACTORS
330
21BE
102
}
330
21BE
100
AcDbScale
 70
     0
300
1:1
140
1.0
141
1.0
290
     1
  0
SCALE
  5
21C0
102
{ACAD_REACTORS
330
21BE
102
}
330
21BE
100
AcDbScale
 70
     0
300
1:2
140
1.0
141
2.0
290
     0
  0
SCALE
  5
21C1
102
{ACAD_REACTORS
330
21BE
102
}
330
21BE
100
AcDbScale
 70
     0
300
1:4
140
1.0
141
4.0
290
     0
  0
SCALE
  5
21C2
102
{ACAD_REACTORS
330
21BE
102
}
330
21BE
100
AcDbScale
 70
     0
300
1:5
140
1.0
141
5.0
290
     0
  0
SCALE
  5
21C3
102
{ACAD_REACTORS
330
21BE
102
}
330
21BE
100
AcDbScale
 70
     0
300
1:8
140
1.0
141
8.0
290
     0
  0
SCALE
  5
21C4
102
{ACAD_REACTORS
330
21BE
102
}
330
21BE
100
AcDbScale
 70
     0
300
1:10
140
1.0
141
10.0
290
     0
  0
SCALE
  5
21C5
102
{ACAD_REACTORS
330
21BE
102
}
330
21BE
100
AcDbScale
 70
     0
300
1:16
140
1.0
141
16.0
290
     0
  0
SCALE
  5
21C6
102
{ACAD_REACTORS
330
21BE
102
}
330
21BE
100
AcDbScale
 70
     0
300
1:20
140
1.0
141
20.0
290
     0
  0
SCALE
  5
21C7
102
{ACAD_REACTORS
330
21BE
102
}
330
21BE
100
AcDbScale
 70
     0
300
1:30
140
1.0
141
30.0
290
     0
  0
SCALE
  5
21C8
102
{ACAD_REACTORS
330
21BE
102
}
330
21BE
100
AcDbScale
 70
     0
300
1:40
140
1.0
141
40.0
290
     0
  0
SCALE
  5
21C9
102
{ACAD_REACTORS
330
21BE
102
}
330
21BE
100
AcDbScale
 70
     0
300
1:50
140
1.0
141
50.0
290
     0
  0
SCALE
  5
21CA
102
{ACAD_REACTORS
330
21BE
102
}
330
21BE
100
AcDbScale
 70
     0
300
1:100
140
1.0
141
100.0
290
     0
  0
SCALE
  5
21CB
102
{ACAD_REACTORS
330
21BE
102
}
330
21BE
100
AcDbScale
 70
     0
300
2:1
140
2.0
141
1.0
290
     0
  0
SCALE
  5
21CC
102
{ACAD_REACTORS
330
21BE
102
}
330
21BE
100
AcDbScale
 70
     0
300
4:1
140
4.0
141
1.0
290
     0
  0
SCALE
  5
21CD
102
{ACAD_REACTORS
330
21BE
102
}
330
21BE
100
AcDbScale
 70
     0
300
8:1
140
8.0
141
1.0
290
     0
  0
SCALE
  5
21CE
102
{ACAD_REACTORS
330
21BE
102
}
330
21BE
100
AcDbScale
 70
     0
300
10:1
140
10.0
141
1.0
290
     0
  0
SCALE
  5
21CF
102
{ACAD_REACTORS
330
21BE
102
}
330
21BE
100
AcDbScale
 70
     0
300
100:1
140
100.0
141
1.0
290
     0
  0
SCALE
  5
21D0
102
{ACAD_REACTORS
330
21BE
102
}
330
21BE
100
AcDbScale
 70
     0
300
1/128" = 1'-0"
140
0.0078125
141
12.0
290
     0
  0
SCALE
  5
21D1
102
{ACAD_REACTORS
330
21BE
102
}
330
21BE
100
AcDbScale
 70
     0
300
1/64" = 1'-0"
140
0.015625
141
12.0
290
     0
  0
SCALE
  5
21D2
102
{ACAD_REACTORS
330
21BE
102
}
330
21BE
100
AcDbScale
 70
     0
300
1/32" = 1'-0"
140
0.03125
141
12.0
290
     0
  0
SCALE
  5
21D3
102
{ACAD_REACTORS
330
21BE
102
}
330
21BE
100
AcDbScale
 70
     0
300
1/16" = 1'-0"
140
0.0625
141
12.0
290
     0
  0
SCALE
  5
21D4
102
{ACAD_REACTORS
330
21BE
102
}
330
21BE
100
AcDbScale
 70
     0
300
3/32" = 1'-0"
140
0.09375
141
12.0
290
     0
  0
SCALE
  5
21D5
102
{ACAD_REACTORS
330
21BE
102
}
330
21BE
100
AcDbScale
 70
     0
300
1/8" = 1'-0"
140
0.125
141
12.0
290
     0
  0
SCALE
  5
21D6
102
{ACAD_REACTORS
330
21BE
102
}
330
21BE
100
AcDbScale
 70
     0
300
3/16" = 1'-0"
140
0.1875
141
12.0
290
     0
  0
SCALE
  5
21D7
102
{ACAD_REACTORS
330
21BE
102
}
330
21BE
100
AcDbScale
 70
     0
300
1/4" = 1'-0"
140
0.25
141
12.0
290
     0
  0
SCALE
  5
21D8
102
{ACAD_REACTORS
330
21BE
102
}
330
21BE
100
AcDbScale
 70
     0
300
3/8" = 1'-0"
140
0.375
141
12.0
290
     0
  0
SCALE
  5
21D9
102
{ACAD_REACTORS
330
21BE
102
}
330
21BE
100
AcDbScale
 70
     0
300
1/2" = 1'-0"
140
0.5
141
12.0
290
     0
  0
SCALE
  5
21DA
102
{ACAD_REACTORS
330
21BE
102
}
330
21BE
100
AcDbScale
 70
     0
300
3/4" = 1'-0"
140
0.75
141
12.0
290
     0
  0
SCALE
  5
21DB
102
{ACAD_REACTORS
330
21BE
102
}
330
21BE
100
AcDbScale
 70
     0
300
1" = 1'-0"
140
1.0
141
12.0
290
     0
  0
SCALE
  5
21DC
102
{ACAD_REACTORS
330
21BE
102
}
330
21BE
100
AcDbScale
 70
     0
300
1-1/2" = 1'-0"
140
1.5
141
12.0
290
     0
  0
SCALE
  5
21DD
102
{ACAD_REACTORS
330
21BE
102
}
330
21BE
100
AcDbScale
 70
     0
300
3" = 1'-0"
140
3.0
141
12.0
290
     0
  0
SCALE
  5
21DE
102
{ACAD_REACTORS
330
21BE
102
}
330
21BE
100
AcDbScale
 70
     0
300
6" = 1'-0"
140
6.0
141
12.0
290
     0
  0
SCALE
  5
21DF
102
{ACAD_REACTORS
330
21BE
102
}
330
21BE
100
AcDbScale
 70
     0
300
1'-0" = 1'-0"
140
12.0
141
12.0
290
     0
  0
TABLESTYLE
  5
21F0
102
{ACAD_XDICTIONARY
360
2318
102
}
102
{ACAD_REACTORS
330
21EF
102
}
330
21EF
100
AcDbTableStyle
  3
Standard
 70
     0
 71
     0
 40
0.06
 41
0.06
280
     0
281
     0
  7
STANDARD
140
0.18
170
     2
 62
     0
 63
     7
283
     0
274
    -2
284
     1
 64
     0
275
    -2
285
     1
 65
     0
276
    -2
286
     1
 66
     0
277
    -2
287
     1
 67
     0
278
    -2
288
     1
 68
     0
279
    -2
289
     1
 69
     0
  7
STANDARD
140
0.25
170
     5
 62
     0
 63
     7
283
     0
274
    -2
284
     1
 64
     0
275
    -2
285
     1
 65
     0
276
    -2
286
     1
 66
     0
277
    -2
287
     1
 67
     0
278
    -2
288
     1
 68
     0
279
    -2
289
     1
 69
     0
  7
STANDARD
140
0.18
170
     5
 62
     0
 63
     7
283
     0
274
    -2
284
     1
 64
     0
275
    -2
285
     1
 65
     0
276
    -2
286
     1
 66
     0
277
    -2
287
     1
 67
     0
278
    -2
288
     1
 68
     0
279
    -2
289
     1
 69
     0
  0
VISUALSTYLE
  5
21B0
102
{ACAD_XDICTIONARY
360
24B5
102
}
102
{ACAD_REACTORS
330
21AA
102
}
330
21AA
100
AcDbVisualStyle
  2

 70
     4
 71
     0
 72
     2
 73
     0
 90
        0
 40
-0.6
 41
-30.0
 62
     5
 63
     7
 74
     1
 91
        4
 64
     7
 65
   257
 75
     1
175
     1
 42
1.0
 92
        0
 66
   257
 43
1.0
 76
     1
 77
     6
 78
     2
 67
     7
 79
     5
170
     0
171
     0
290
     0
174
     0
 93
        1
 44
0.0
173
     0
291
     0
 45
0.0
1001
ACAD
1000
AcDbSavedByObjectVersion
1070
     0
  0
VISUALSTYLE
  5
21B2
102
{ACAD_XDICTIONARY
360
24B9
102
}
102
{ACAD_REACTORS
330
21AA
102
}
330
21AA
100
AcDbVisualStyle
  2

 70
     6
 71
     1
 72
     2
 73
     2
 90
        0
 40
-0.6
 41
-30.0
 62
     5
 63
     7
 74
     2
 91
        2
 64
     7
 65
   257
 75
     2
175
     1
 42
179.0
 92
        0
 66
   257
 43
1.0
 76
     1
 77
     6
 78
     2
 67
     7
 79
     3
170
     0
171
     0
290
     0
174
     0
 93
        1
 44
0.0
173
     0
291
     0
 45
0.0
1001
ACAD
1000
AcDbSavedByObjectVersion
1070
     0
  0
VISUALSTYLE
  5
21B1
102
{ACAD_XDICTIONARY
360
24B7
102
}
102
{ACAD_REACTORS
330
21AA
102
}
330
21AA
100
AcDbVisualStyle
  2

 70
     5
 71
     0
 72
     2
 73
     0
 90
        0
 40
-0.6
 41
-30.0
 62
     5
 63
     7
 74
     1
 91
        4
 64
     7
 65
   257
 75
     1
175
     1
 42
1.0
 92
        0
 66
   257
 43
1.0
 76
     1
 77
     6
 78
     2
 67
     7
 79
     5
170
     0
171
     0
290
     0
174
     0
 93
        1
 44
0.0
173
     0
291
     0
 45
0.0
1001
ACAD
1000
AcDbSavedByObjectVersion
1070
     0
  0
VISUALSTYLE
  5
21AF
102
{ACAD_XDICTIONARY
360
24B3
102
}
102
{ACAD_REACTORS
330
21AA
102
}
330
21AA
100
AcDbVisualStyle
  2

 70
     7
 71
     1
 72
     0
 73
     1
 90
        0
 40
-0.6
 41
-30.0
 62
     5
 63
     7
 74
     0
 91
        4
 64
     7
 65
   257
 75
     1
175
     1
 42
1.0
 92
        8
 66
     7
 43
1.0
 76
     1
 77
     6
 78
     2
 67
     7
 79
     5
170
     0
171
     0
290
     0
174
     0
 93
        1
 44
0.0
173
     0
291
     1
 45
0.0
1001
ACAD
1000
AcDbSavedByObjectVersion
1070
     0
  0
VISUALSTYLE
  5
21B6
102
{ACAD_XDICTIONARY
360
24C1
102
}
102
{ACAD_REACTORS
330
21AA
102
}
330
21AA
100
AcDbVisualStyle
  2

 70
    12
 71
     2
 72
     2
 73
     0
 90
        0
 40
-0.6
 41
-30.0
 62
     5
 63
     7
 74
     1
 91
        4
 64
     7
 65
   257
 75
     1
175
     1
 42
1.0
 92
        8
 66
     7
 43
1.0
 76
     1
 77
     6
 78
     2
 67
     7
 79
     5
170
     0
171
     0
290
     0
174
     0
 93
        1
 44
50.0
173
     0
291
     1
 45
0.0
1001
ACAD
1000
AcDbSavedByObjectVersion
1070
     0
  0
VISUALSTYLE
  5
21BA
102
{ACAD_XDICTIONARY
360
24C9
102
}
102
{ACAD_REACTORS
330
21AA
102
}
330
21AA
100
AcDbVisualStyle
  2

 70
    16
 71
     2
 72
     2
 73
     3
 90
        0
 40
-0.6
 41
-30.0
 62
     5
 63
     8
 74
     1
 91
        4
 64
     7
 65
   257
 75
     1
175
     1
 42
1.0
 92
        8
 66
     8
 43
1.0
 76
     1
 77
     6
 78
     2
 67
     7
 79
     5
170
     0
171
     0
290
     0
174
     0
 93
        1
 44
0.0
173
     0
291
     1
 45
0.0
1001
ACAD
1000
AcDbSavedByObjectVersion
1070
     0
  0
VISUALSTYLE
  5
21B3
102
{ACAD_XDICTIONARY
360
24BB
102
}
102
{ACAD_REACTORS
330
21AA
102
}
330
21AA
100
AcDbVisualStyle
  2

 70
     9
 71
     3
 72
     2
 73
     0
 90
        0
 40
-0.6
 41
-30.0
 62
     5
 63
     7
 74
     2
 91
        2
 64
     7
 65
   257
 75
     1
175
     1
 42
179.0
 92
        8
 66
     7
 43
1.0
 76
     1
 77
     6
 78
     2
 67
     7
 79
     3
170
     0
171
     0
290
     0
174
     0
 93
        1
 44
0.0
173
     0
291
     0
 45
0.0
1001
ACAD
1000
AcDbSavedByObjectVersion
1070
     0
  0
VISUALSTYLE
  5
21B5
102
{ACAD_XDICTIONARY
360
24BF
102
}
102
{ACAD_REACTORS
330
21AA
102
}
330
21AA
100
AcDbVisualStyle
  2

 70
    11
 71
     2
 72
     2
 73
     0
 90
        0
 40
-0.6
 41
-30.0
 62
     5
 63
     7
 74
     1
 91
        4
 64
     7
 65
   257
 75
     1
175
     1
 42
1.0
 92
        8
 66
     7
 43
1.0
 76
     1
 77
     6
 78
     2
 67
     7
 79
     5
170
     0
171
     0
290
     0
174
     0
 93
        1
 44
-50.0
173
     0
291
     1
 45
0.0
1001
ACAD
1000
AcDbSavedByObjectVersion
1070
     0
  0
VISUALSTYLE
  5
21BD
102
{ACAD_XDICTIONARY
360
24CF
102
}
102
{ACAD_REACTORS
330
21AA
102
}
330
21AA
100
AcDbVisualStyle
  2

 70
    22
 71
     2
 72
     2
 73
     0
 90
        0
 40
-0.6
 41
-30.0
 62
     5
 63
     7
 74
     1
 91
        4
 64
     7
 65
   257
 75
     1
175
     1
 42
1.0
 92
        8
 66
     7
 43
1.0
 76
     1
 77
     6
 78
     2
 67
     7
 79
     5
170
     0
171
     0
290
     0
174
     0
 93
        1
 44
0.0
173
     0
291
     1
 45
0.0
1001
ACAD
1000
AcDbSavedByObjectVersion
1070
     0
  0
VISUALSTYLE
  5
21B9
102
{ACAD_XDICTIONARY
360
24C7
102
}
102
{ACAD_REACTORS
330
21AA
102
}
330
21AA
100
AcDbVisualStyle
  2

 70
    15
 71
     2
 72
     2
 73
     0
 90
        0
 40
-0.6
 41
-30.0
 62
     5
 63
     7
 74
     1
 91
        4
 64
     7
 65
   257
 75
     1
175
     1
 42
1.0
 92
        8
 66
     7
 43
1.0
 76
     1
 77
     6
 78
     2
 67
     7
 79
     5
170
     0
171
     0
290
     0
174
     0
 93
        1
 44
0.0
173
     0
291
     1
 45
0.0
1001
ACAD
1000
AcDbSavedByObjectVersion
1070
     0
  0
VISUALSTYLE
  5
21AB
102
{ACAD_XDICTIONARY
360
24AB
102
}
102
{ACAD_REACTORS
330
21AA
102
}
330
21AA
100
AcDbVisualStyle
  2

 70
     0
 71
     2
 72
     1
 73
     1
 90
        2
 40
-0.6
 41
30.0
 62
     5
 63
     7
 74
     0
 91
        4
 64
     7
 65
   257
 75
     1
175
     1
 42
1.0
 92
        8
 66
     7
 43
1.0
 76
     1
 77
     6
 78
     2
 67
     7
 79
     5
170
     0
171
     0
290
     0
174
     0
 93
       13
 44
0.0
173
     0
291
     1
 45
0.0
1001
ACAD
1000
AcDbSavedByObjectVersion
1070
     0
  0
VISUALSTYLE
  5
21AC
102
{ACAD_XDICTIONARY
360
24AD
102
}
102
{ACAD_REACTORS
330
21AA
102
}
330
21AA
100
AcDbVisualStyle
  2

 70
     1
 71
     2
 72
     1
 73
     1
 90
        2
 40
-0.6
 41
30.0
 62
     5
 63
     7
 74
     1
 91
        4
 64
     7
 65
   257
 75
     1
175
     1
 42
1.0
 92
        0
 66
   257
 43
1.0
 76
     1
 77
     6
 78
     2
 67
     7
 79
     5
170
     0
171
     0
290
     0
174
     0
 93
       13
 44
0.0
173
     0
291
     1
 45
0.0
1001
ACAD
1000
AcDbSavedByObjectVersion
1070
     0
  0
VISUALSTYLE
  5
21AD
102
{ACAD_XDICTIONARY
360
24AF
102
}
102
{ACAD_REACTORS
330
21AA
102
}
330
21AA
100
AcDbVisualStyle
  2

 70
     2
 71
     2
 72
     2
 73
     1
 90
        2
 40
-0.6
 41
30.0
 62
     5
 63
     7
 74
     0
 91
        4
 64
     7
 65
   257
 75
     1
175
     1
 42
1.0
 92
        0
 66
     7
 43
1.0
 76
     1
 77
     6
 78
     2
 67
     7
 79
     5
170
     0
171
     0
290
     0
174
     0
 93
       13
 44
0.0
173
     0
291
     1
 45
0.0
1001
ACAD
1000
AcDbSavedByObjectVersion
1070
     0
  0
VISUALSTYLE
  5
21AE
102
{ACAD_XDICTIONARY
360
24B1
102
}
102
{ACAD_REACTORS
330
21AA
102
}
330
21AA
100
AcDbVisualStyle
  2

 70
     3
 71
     2
 72
     2
 73
     1
 90
        2
 40
-0.6
 41
30.0
 62
     5
 63
     7
 74
     1
 91
        4
 64
     7
 65
   257
 75
     1
175
     1
 42
1.0
 92
        0
 66
   257
 43
1.0
 76
     1
 77
     6
 78
     2
 67
     7
 79
     5
170
     0
171
     0
290
     0
174
     0
 93
       13
 44
0.0
173
     0
291
     1
 45
0.0
1001
ACAD
1000
AcDbSavedByObjectVersion
1070
     0
  0
VISUALSTYLE
  5
21BB
102
{ACAD_XDICTIONARY
360
24CB
102
}
102
{ACAD_REACTORS
330
21AA
102
}
330
21AA
100
AcDbVisualStyle
  2

 70
    20
 71
     2
 72
     2
 73
     0
 90
        0
 40
-0.6
 41
-30.0
 62
     5
 63
     7
 74
     1
 91
        4
 64
     7
 65
   257
 75
     1
175
     1
 42
1.0
 92
       10
 66
     7
 43
1.0
 76
     1
 77
     6
 78
     2
 67
     7
 79
     5
170
     0
171
     0
290
     0
174
     0
 93
        1
 44
0.0
173
     0
291
     1
 45
0.0
1001
ACAD
1000
AcDbSavedByObjectVersion
1070
     0
  0
VISUALSTYLE
  5
21B8
102
{ACAD_XDICTIONARY
360
24C5
102
}
102
{ACAD_REACTORS
330
21AA
102
}
330
21AA
100
AcDbVisualStyle
  2

 70
    14
 71
     2
 72
     2
 73
     0
 90
        0
 40
-0.6
 41
-30.0
 62
     5
 63
     7
 74
     1
 91
        4
 64
     7
 65
   257
 75
     7
175
     7
 42
1.0
 92
        8
 66
     7
 43
1.0
 76
     1
 77
     6
 78
     2
 67
     7
 79
     5
170
     0
171
     0
290
     0
174
     0
 93
        1
 44
0.0
173
     0
291
     1
 45
0.0
1001
ACAD
1000
AcDbSavedByObjectVersion
1070
     0
  0
VISUALSTYLE
  5
21BC
102
{ACAD_XDICTIONARY
360
24CD
102
}
102
{ACAD_REACTORS
330
21AA
102
}
330
21AA
100
AcDbVisualStyle
  2

 70
    21
 71
     2
 72
     2
 73
     0
 90
        0
 40
-0.6
 41
-30.0
 62
     5
 63
     7
 74
     1
 91
        4
 64
     7
 65
   257
 75
     1
175
     1
 42
1.0
 92
        9
 66
     7
 43
1.0
 76
     1
 77
     6
 78
     2
 67
     7
 79
     5
170
     0
171
     0
290
     0
174
     0
 93
        1
 44
0.0
173
     0
291
     1
 45
0.0
1001
ACAD
1000
AcDbSavedByObjectVersion
1070
     0
  0
VISUALSTYLE
  5
21B4
102
{ACAD_XDICTIONARY
360
24BD
102
}
102
{ACAD_REACTORS
330
21AA
102
}
330
21AA
100
AcDbVisualStyle
  2

 70
     8
 71
     2
 72
     2
 73
     0
 90
        0
 40
-0.6
 41
-30.0
 62
     5
 63
     7
 74
     1
 91
        0
 64
     7
 65
   257
 75
     1
175
     1
 42
1.0
 92
        8
 66
     8
 43
1.0
 76
     1
 77
     6
 78
     2
 67
     7
 79
     5
170
     0
171
     0
290
     0
174
     0
 93
       13
 44
0.0
173
     0
291
     0
 45
0.0
1001
ACAD
1000
AcDbSavedByObjectVersion
1070
     0
  0
VISUALSTYLE
  5
21B7
102
{ACAD_XDICTIONARY
360
24C3
102
}
102
{ACAD_REACTORS
330
21AA
102
}
330
21AA
100
AcDbVisualStyle
  2

 70
    13
 71
     2
 72
     2
 73
     0
 90
        0
 40
-0.6
 41
-30.0
 62
     5
 63
     7
 74
     1
 91
        4
 64
     7
 65
   257
 75
     1
175
     1
 42
1.0
 92
       12
 66
     7
 43
1.0
 76
     1
 77
     6
 78
     2
 67
     7
 79
     5
170
     0
171
     0
290
     0
174
     0
 93
        1
 44
0.0
173
     0
291
     1
 45
0.0
1001
ACAD
1000
AcDbSavedByObjectVersion
1070
     0
  0
DICTIONARYVAR
  5
2313
102
{ACAD_REACTORS
330
2310
102
}
330
2310
100
DictionaryVariables
280
     0
  1
1:1
  0
DICTIONARYVAR
  5
2312
102
{ACAD_REACTORS
330
2310
102
}
330
2310
100
DictionaryVariables
280
     0
  1
STANDARD
  0
DICTIONARYVAR
  5
2311
102
{ACAD_REACTORS
330
2310
102
}
330
2310
100
DictionaryVariables
280
     0
  1
STANDARD
  0
DICTIONARYVAR
  5
2316
102
{ACAD_REACTORS
330
2310
102
}
330
2310
100
DictionaryVariables
280
     0
  1
1
  0
DICTIONARYVAR
  5
2315
102
{ACAD_REACTORS
330
2310
102
}
330
2310
100
DictionaryVariables
280
     0
  1
0
  0
DICTIONARYVAR
  5
2314
102
{ACAD_REACTORS
330
2310
102
}
330
2310
100
DictionaryVariables
280
     0
  1
127
  0
DICTIONARYVAR
  5
24A3
102
{ACAD_REACTORS
330
2310
102
}
330
2310
100
DictionaryVariables
280
     0
  1
2
  0
XRECORD
  5
230F
102
{ACAD_REACTORS
330
230D
102
}
330
230D
100
AcDbXrecord
280
     1
330
1965
330
196E
330
19BD
330
1980
330
1989
330
1992
330
195C
330
1CC6
330
1CCB
330
1CCC
330
1CD0
330
1CD5
330
1CD6
330
1CDA
330
1CDF
330
1CE0
330
1CE4
330
1CE9
330
1CEA
330
1CEE
330
1CF3
330
1CF4
330
1CF8
330
1CFD
330
1CFE
330
1D02
330
1D07
330
1D08
330
1F5D
330
1F5E
330
1F5F
330
1F54
330
1F55
330
1F56
330
1F4B
330
1F4C
330
1F4D
330
1F78
330
1F79
330
1F7A
330
1F39
330
1F3A
330
1F3B
330
1F68
330
1F66
330
1F67
330
1F70
330
1F71
330
1F6F
  0
DICTIONARY
  5
24D2
330
21F6
100
AcDbDictionary
280
     1
281
     1
  3
ACAD_XREC_ROUNDTRIP
360
24D3
  0
DICTIONARY
  5
24D4
330
21FA
100
AcDbDictionary
280
     1
281
     1
  3
ACAD_XREC_ROUNDTRIP
360
24D5
  0
DICTIONARY
  5
219B
330
219A
100
AcDbDictionary
280
     1
281
     1
  3
ACAD_XREC_ROUNDTRIP
360
2321
  3
BUMPTILE
360
219D
  3
DIFFUSETILE
360
219C
  3
OPACITYTILE
360
21A0
  3
REFLECTIONTILE
360
219F
  3
REFRACTIONTILE
360
21A1
  3
SPECULARTILE
360
219E
  0
DICTIONARY
  5
2193
330
2192
100
AcDbDictionary
280
     1
281
     1
  3
ACAD_XREC_ROUNDTRIP
360
2320
  3
BUMPTILE
360
2195
  3
DIFFUSETILE
360
2194
  3
OPACITYTILE
360
2198
  3
REFLECTIONTILE
360
2197
  3
REFRACTIONTILE
360
2199
  3
SPECULARTILE
360
2196
  0
DICTIONARY
  5
21A3
330
21A2
100
AcDbDictionary
280
     1
281
     1
  3
ACAD_XREC_ROUNDTRIP
360
2322
  3
BUMPTILE
360
21A5
  3
DIFFUSETILE
360
21A4
  3
OPACITYTILE
360
21A8
  3
REFLECTIONTILE
360
21A7
  3
REFRACTIONTILE
360
21A9
  3
SPECULARTILE
360
21A6
  0
DICTIONARY
  5
2318
330
21F0
100
AcDbDictionary
280
     1
281
     1
  3
ACAD_ROUNDTRIP_2008_TABLESTYLE_CELLSTYLEMAP
360
24A4
  3
ACAD_XREC_ROUNDTRIP
360
24D1
  0
DICTIONARY
  5
24B5
330
21B0
100
AcDbDictionary
280
     1
281
     1
  3
ACAD_XREC_ROUNDTRIP
360
24B6
  0
DICTIONARY
  5
24B9
330
21B2
100
AcDbDictionary
280
     1
281
     1
  3
ACAD_XREC_ROUNDTRIP
360
24BA
  0
DICTIONARY
  5
24B7
330
21B1
100
AcDbDictionary
280
     1
281
     1
  3
ACAD_XREC_ROUNDTRIP
360
24B8
  0
DICTIONARY
  5
24B3
330
21AF
100
AcDbDictionary
280
     1
281
     1
  3
ACAD_XREC_ROUNDTRIP
360
24B4
  0
DICTIONARY
  5
24C1
330
21B6
100
AcDbDictionary
280
     1
281
     1
  3
ACAD_XREC_ROUNDTRIP
360
24C2
  0
DICTIONARY
  5
24C9
330
21BA
100
AcDbDictionary
280
     1
281
     1
  3
ACAD_XREC_ROUNDTRIP
360
24CA
  0
DICTIONARY
  5
24BB
330
21B3
100
AcDbDictionary
280
     1
281
     1
  3
ACAD_XREC_ROUNDTRIP
360
24BC
  0
DICTIONARY
  5
24BF
330
21B5
100
AcDbDictionary
280
     1
281
     1
  3
ACAD_XREC_ROUNDTRIP
360
24C0
  0
DICTIONARY
  5
24CF
330
21BD
100
AcDbDictionary
280
     1
281
     1
  3
ACAD_XREC_ROUNDTRIP
360
24D0
  0
DICTIONARY
  5
24C7
330
21B9
100
AcDbDictionary
280
     1
281
     1
  3
ACAD_XREC_ROUNDTRIP
360
24C8
  0
DICTIONARY
  5
24AB
330
21AB
100
AcDbDictionary
280
     1
281
     1
  3
ACAD_XREC_ROUNDTRIP
360
24AC
  0
DICTIONARY
  5
24AD
330
21AC
100
AcDbDictionary
280
     1
281
     1
  3
ACAD_XREC_ROUNDTRIP
360
24AE
  0
DICTIONARY
  5
24AF
330
21AD
100
AcDbDictionary
280
     1
281
     1
  3
ACAD_XREC_ROUNDTRIP
360
24B0
  0
DICTIONARY
  5
24B1
330
21AE
100
AcDbDictionary
280
     1
281
     1
  3
ACAD_XREC_ROUNDTRIP
360
24B2
  0
DICTIONARY
  5
24CB
330
21BB
100
AcDbDictionary
280
     1
281
     1
  3
ACAD_XREC_ROUNDTRIP
360
24CC
  0
DICTIONARY
  5
24C5
330
21B8
100
AcDbDictionary
280
     1
281
     1
  3
ACAD_XREC_ROUNDTRIP
360
24C6
  0
DICTIONARY
  5
24CD
330
21BC
100
AcDbDictionary
280
     1
281
     1
  3
ACAD_XREC_ROUNDTRIP
360
24CE
  0
DICTIONARY
  5
24BD
330
21B4
100
AcDbDictionary
280
     1
281
     1
  3
ACAD_XREC_ROUNDTRIP
360
24BE
  0
DICTIONARY
  5
24C3
330
21B7
100
AcDbDictionary
280
     1
281
     1
  3
ACAD_XREC_ROUNDTRIP
360
24C4
  0
XRECORD
  5
24D3
102
{ACAD_REACTORS
330
24D2
102
}
330
24D2
100
AcDbXrecord
280
     1
102
SHADEPLOT
 70
     0
102
SHADEPLOTRESLEVEL
 70
     2
102
SHADEPLOTCUSTOMDPI
 70
   300
  0
XRECORD
  5
24D5
102
{ACAD_REACTORS
330
24D4
102
}
330
24D4
100
AcDbXrecord
280
     1
102
SHADEPLOT
 70
     0
102
SHADEPLOTRESLEVEL
 70
     2
102
SHADEPLOTCUSTOMDPI
 70
   300
  0
XRECORD
  5
2321
102
{ACAD_REACTORS
330
219B
102
}
330
219B
100
AcDbXrecord
280
     1
102
MATERIAL
148
0.0
149
0.0
149
0.0
 93
        0
 94
      127
282
     0
 72
     0
 77
     0
171
     0
175
     0
179
     0
273
     0
  0
XRECORD
  5
219D
102
{ACAD_REACTORS
330
219B
102
}
330
219B
100
AcDbXrecord
280
     1
270
     1
271
     1
  0
XRECORD
  5
219C
102
{ACAD_REACTORS
330
219B
102
}
330
219B
100
AcDbXrecord
280
     1
270
     1
271
     1
  0
XRECORD
  5
21A0
102
{ACAD_REACTORS
330
219B
102
}
330
219B
100
AcDbXrecord
280
     1
270
     1
271
     1
  0
XRECORD
  5
219F
102
{ACAD_REACTORS
330
219B
102
}
330
219B
100
AcDbXrecord
280
     1
270
     1
271
     1
  0
XRECORD
  5
21A1
102
{ACAD_REACTORS
330
219B
102
}
330
219B
100
AcDbXrecord
280
     1
270
     1
271
     1
  0
XRECORD
  5
219E
102
{ACAD_REACTORS
330
219B
102
}
330
219B
100
AcDbXrecord
280
     1
270
     1
271
     1
  0
XRECORD
  5
2320
102
{ACAD_REACTORS
330
2193
102
}
330
2193
100
AcDbXrecord
280
     1
102
MATERIAL
148
0.0
149
0.0
149
0.0
 93
        0
 94
      127
282
     0
 72
     0
 77
     0
171
     0
175
     0
179
     0
273
     0
  0
XRECORD
  5
2195
102
{ACAD_REACTORS
330
2193
102
}
330
2193
100
AcDbXrecord
280
     1
270
     1
271
     1
  0
XRECORD
  5
2194
102
{ACAD_REACTORS
330
2193
102
}
330
2193
100
AcDbXrecord
280
     1
270
     1
271
     1
  0
XRECORD
  5
2198
102
{ACAD_REACTORS
330
2193
102
}
330
2193
100
AcDbXrecord
280
     1
270
     1
271
     1
  0
XRECORD
  5
2197
102
{ACAD_REACTORS
330
2193
102
}
330
2193
100
AcDbXrecord
280
     1
270
     1
271
     1
  0
XRECORD
  5
2199
102
{ACAD_REACTORS
330
2193
102
}
330
2193
100
AcDbXrecord
280
     1
270
     1
271
     1
  0
XRECORD
  5
2196
102
{ACAD_REACTORS
330
2193
102
}
330
2193
100
AcDbXrecord
280
     1
270
     1
271
     1
  0
XRECORD
  5
2322
102
{ACAD_REACTORS
330
21A3
102
}
330
21A3
100
AcDbXrecord
280
     1
102
MATERIAL
148
0.0
149
0.0
149
0.0
 93
        0
 94
      127
282
     0
 72
     0
 77
     0
171
     0
175
     0
179
     0
273
     0
  0
XRECORD
  5
21A5
102
{ACAD_REACTORS
330
21A3
102
}
330
21A3
100
AcDbXrecord
280
     1
270
     1
271
     1
  0
XRECORD
  5
21A4
102
{ACAD_REACTORS
330
21A3
102
}
330
21A3
100
AcDbXrecord
280
     1
270
     1
271
     1
  0
XRECORD
  5
21A8
102
{ACAD_REACTORS
330
21A3
102
}
330
21A3
100
AcDbXrecord
280
     1
270
     1
271
     1
  0
XRECORD
  5
21A7
102
{ACAD_REACTORS
330
21A3
102
}
330
21A3
100
AcDbXrecord
280
     1
270
     1
271
     1
  0
XRECORD
  5
21A9
102
{ACAD_REACTORS
330
21A3
102
}
330
21A3
100
AcDbXrecord
280
     1
270
     1
271
     1
  0
XRECORD
  5
21A6
102
{ACAD_REACTORS
330
21A3
102
}
330
21A3
100
AcDbXrecord
280
     1
270
     1
271
     1
  0
CELLSTYLEMAP
  5
24A4
102
{ACAD_REACTORS
330
2318
102
}
330
2318
100
AcDbCellStyleMap
 90
        3
300
CELLSTYLE
  1
TABLEFORMAT_BEGIN
 90
        5
170
     1
 91
        0
 92
    32768
 62
   257
 93
        1
300
CONTENTFORMAT
  1
CONTENTFORMAT_BEGIN
 90
        0
 91
        0
 92
      512
 93
        0
300

 40
0.0
140
1.0
 94
        5
 62
     0
340
21E1
144
0.25
309
CONTENTFORMAT_END
171
     1
301
MARGIN
  1
CELLMARGIN_BEGIN
 40
0.06
 40
0.06
 40
0.06
 40
0.06
 40
0.18
 40
0.18
309
CELLMARGIN_END
 94
        6
 95
        1
302
GRIDFORMAT
  1
GRIDFORMAT_BEGIN
 90
        0
 91
        1
 62
     0
 92
       -2
340
0
 93
        0
 40
0.045
309
GRIDFORMAT_END
 95
        2
302
GRIDFORMAT
  1
GRIDFORMAT_BEGIN
 90
        0
 91
        1
 62
     0
 92
       -2
340
0
 93
        0
 40
0.045
309
GRIDFORMAT_END
 95
        4
302
GRIDFORMAT
  1
GRIDFORMAT_BEGIN
 90
        0
 91
        1
 62
     0
 92
       -2
340
0
 93
        0
 40
0.045
309
GRIDFORMAT_END
 95
        8
302
GRIDFORMAT
  1
GRIDFORMAT_BEGIN
 90
        0
 91
        1
 62
     0
 92
       -2
340
0
 93
        0
 40
0.045
309
GRIDFORMAT_END
 95
       16
302
GRIDFORMAT
  1
GRIDFORMAT_BEGIN
 90
        0
 91
        1
 62
     0
 92
       -2
340
0
 93
        0
 40
0.045
309
GRIDFORMAT_END
 95
       32
302
GRIDFORMAT
  1
GRIDFORMAT_BEGIN
 90
        0
 91
        1
 62
     0
 92
       -2
340
0
 93
        0
 40
0.045
309
GRIDFORMAT_END
309
TABLEFORMAT_END
  1
CELLSTYLE_BEGIN
 90
        1
 91
        1
300
_TITLE
309
CELLSTYLE_END
300
CELLSTYLE
  1
TABLEFORMAT_BEGIN
 90
        5
170
     1
 91
        0
 92
        0
 62
   257
 93
        1
300
CONTENTFORMAT
  1
CONTENTFORMAT_BEGIN
 90
        0
 91
        0
 92
      512
 93
        0
300

 40
0.0
140
1.0
 94
        5
 62
     0
340
21E1
144
0.18
309
CONTENTFORMAT_END
171
     1
301
MARGIN
  1
CELLMARGIN_BEGIN
 40
0.06
 40
0.06
 40
0.06
 40
0.06
 40
0.18
 40
0.18
309
CELLMARGIN_END
 94
        6
 95
        1
302
GRIDFORMAT
  1
GRIDFORMAT_BEGIN
 90
        0
 91
        1
 62
     0
 92
       -2
340
0
 93
        0
 40
0.045
309
GRIDFORMAT_END
 95
        2
302
GRIDFORMAT
  1
GRIDFORMAT_BEGIN
 90
        0
 91
        1
 62
     0
 92
       -2
340
0
 93
        0
 40
0.045
309
GRIDFORMAT_END
 95
        4
302
GRIDFORMAT
  1
GRIDFORMAT_BEGIN
 90
        0
 91
        1
 62
     0
 92
       -2
340
0
 93
        0
 40
0.045
309
GRIDFORMAT_END
 95
        8
302
GRIDFORMAT
  1
GRIDFORMAT_BEGIN
 90
        0
 91
        1
 62
     0
 92
       -2
340
0
 93
        0
 40
0.045
309
GRIDFORMAT_END
 95
       16
302
GRIDFORMAT
  1
GRIDFORMAT_BEGIN
 90
        0
 91
        1
 62
     0
 92
       -2
340
0
 93
        0
 40
0.045
309
GRIDFORMAT_END
 95
       32
302
GRIDFORMAT
  1
GRIDFORMAT_BEGIN
 90
        0
 91
        1
 62
     0
 92
       -2
340
0
 93
        0
 40
0.045
309
GRIDFORMAT_END
309
TABLEFORMAT_END
  1
CELLSTYLE_BEGIN
 90
        2
 91
        1
300
_HEADER
309
CELLSTYLE_END
300
CELLSTYLE
  1
TABLEFORMAT_BEGIN
 90
        5
170
     1
 91
        0
 92
        0
 62
   257
 93
        1
300
CONTENTFORMAT
  1
CONTENTFORMAT_BEGIN
 90
        0
 91
        0
 92
      512
 93
        0
300

 40
0.0
140
1.0
 94
        2
 62
     0
340
21E1
144
0.18
309
CONTENTFORMAT_END
171
     1
301
MARGIN
  1
CELLMARGIN_BEGIN
 40
0.06
 40
0.06
 40
0.06
 40
0.06
 40
0.18
 40
0.18
309
CELLMARGIN_END
 94
        6
 95
        1
302
GRIDFORMAT
  1
GRIDFORMAT_BEGIN
 90
        0
 91
        1
 62
     0
 92
       -2
340
0
 93
        0
 40
0.045
309
GRIDFORMAT_END
 95
        2
302
GRIDFORMAT
  1
GRIDFORMAT_BEGIN
 90
        0
 91
        1
 62
     0
 92
       -2
340
0
 93
        0
 40
0.045
309
GRIDFORMAT_END
 95
        4
302
GRIDFORMAT
  1
GRIDFORMAT_BEGIN
 90
        0
 91
        1
 62
     0
 92
       -2
340
0
 93
        0
 40
0.045
309
GRIDFORMAT_END
 95
        8
302
GRIDFORMAT
  1
GRIDFORMAT_BEGIN
 90
        0
 91
        1
 62
     0
 92
       -2
340
0
 93
        0
 40
0.045
309
GRIDFORMAT_END
 95
       16
302
GRIDFORMAT
  1
GRIDFORMAT_BEGIN
 90
        0
 91
        1
 62
     0
 92
       -2
340
0
 93
        0
 40
0.045
309
GRIDFORMAT_END
 95
       32
302
GRIDFORMAT
  1
GRIDFORMAT_BEGIN
 90
        0
 91
        1
 62
     0
 92
       -2
340
0
 93
        0
 40
0.045
309
GRIDFORMAT_END
309
TABLEFORMAT_END
  1
CELLSTYLE_BEGIN
 90
        3
 91
        2
300
_DATA
309
CELLSTYLE_END
  0
XRECORD
  5
24D1
102
{ACAD_REACTORS
330
2318
102
}
330
2318
100
AcDbXrecord
280
     1
102
ACAD_ROUNDTRIP_PRE2007_TABLESTYLE
 90
      512
 91
        0
  1

 92
      512
 93
        0
  2

 94
      512
 95
        0
  3

  0
XRECORD
  5
24B6
102
{ACAD_REACTORS
330
24B5
102
}
330
24B5
100
AcDbXrecord
280
     1
102
RTVSPropertyOp0
 70
     1
102
RTVSPropertyOp1
 70
     1
102
RTVSPropertyOp2
 70
     1
102
RTVSPropertyOp3
 70
     1
102
RTVSPropertyOp4
 70
     1
102
RTVSPropertyOp5
 70
     1
102
RTVSPropertyOp6
 70
     1
102
RTVSPropertyOp7
 70
     1
102
RTVSPropertyOp8
 70
     1
102
RTVSPropertyOp9
 70
     1
102
RTVSPropertyOp10
 70
     1
102
RTVSPropertyOp11
 70
     1
102
RTVSPropertyOp12
 70
     1
102
RTVSPropertyOp13
 70
     1
102
RTVSPropertyOp14
 70
     1
102
RTVSPropertyOp15
 70
     1
102
RTVSPropertyOp16
 70
     1
102
RTVSPropertyOp17
 70
     1
102
RTVSPropertyOp18
 70
     1
102
RTVSPropertyOp19
 70
     1
102
RTVSPropertyOp20
 70
     1
102
RTVSPropertyOp21
 70
     1
102
RTVSPropertyOp22
 70
     1
102
RTVSPropertyOp23
 70
     1
102
RTVSPropertyOp24
 70
     1
102
RTVSPropertyOp25
 70
     1
102
RTVSPropertyOp26
 70
     1
102
RTVSPropertyOp27
 70
     1
  0
XRECORD
  5
24BA
102
{ACAD_REACTORS
330
24B9
102
}
330
24B9
100
AcDbXrecord
280
     1
102
RTVSPropertyOp0
 70
     1
102
RTVSPropertyOp1
 70
     1
102
RTVSPropertyOp2
 70
     1
102
RTVSPropertyOp3
 70
     1
102
RTVSPropertyOp4
 70
     1
102
RTVSPropertyOp5
 70
     1
102
RTVSPropertyOp6
 70
     1
102
RTVSPropertyOp7
 70
     1
102
RTVSPropertyOp8
 70
     1
102
RTVSPropertyOp9
 70
     1
102
RTVSPropertyOp10
 70
     1
102
RTVSPropertyOp11
 70
     1
102
RTVSPropertyOp12
 70
     1
102
RTVSPropertyOp13
 70
     1
102
RTVSPropertyOp14
 70
     1
102
RTVSPropertyOp15
 70
     1
102
RTVSPropertyOp16
 70
     1
102
RTVSPropertyOp17
 70
     1
102
RTVSPropertyOp18
 70
     1
102
RTVSPropertyOp19
 70
     1
102
RTVSPropertyOp20
 70
     1
102
RTVSPropertyOp21
 70
     1
102
RTVSPropertyOp22
 70
     1
102
RTVSPropertyOp23
 70
     1
102
RTVSPropertyOp24
 70
     1
102
RTVSPropertyOp25
 70
     1
102
RTVSPropertyOp26
 70
     1
102
RTVSPropertyOp27
 70
     1
  0
XRECORD
  5
24B8
102
{ACAD_REACTORS
330
24B7
102
}
330
24B7
100
AcDbXrecord
280
     1
102
RTVSPropertyOp0
 70
     1
102
RTVSPropertyOp1
 70
     1
102
RTVSPropertyOp2
 70
     1
102
RTVSPropertyOp3
 70
     1
102
RTVSPropertyOp4
 70
     1
102
RTVSPropertyOp5
 70
     1
102
RTVSPropertyOp6
 70
     1
102
RTVSPropertyOp7
 70
     1
102
RTVSPropertyOp8
 70
     1
102
RTVSPropertyOp9
 70
     1
102
RTVSPropertyOp10
 70
     1
102
RTVSPropertyOp11
 70
     1
102
RTVSPropertyOp12
 70
     1
102
RTVSPropertyOp13
 70
     1
102
RTVSPropertyOp14
 70
     1
102
RTVSPropertyOp15
 70
     1
102
RTVSPropertyOp16
 70
     1
102
RTVSPropertyOp17
 70
     1
102
RTVSPropertyOp18
 70
     1
102
RTVSPropertyOp19
 70
     1
102
RTVSPropertyOp20
 70
     1
102
RTVSPropertyOp21
 70
     1
102
RTVSPropertyOp22
 70
     1
102
RTVSPropertyOp23
 70
     1
102
RTVSPropertyOp24
 70
     1
102
RTVSPropertyOp25
 70
     1
102
RTVSPropertyOp26
 70
     1
102
RTVSPropertyOp27
 70
     1
  0
XRECORD
  5
24B4
102
{ACAD_REACTORS
330
24B3
102
}
330
24B3
100
AcDbXrecord
280
     1
102
RTVSPropertyOp0
 70
     1
102
RTVSPropertyOp1
 70
     1
102
RTVSPropertyOp2
 70
     1
102
RTVSPropertyOp3
 70
     1
102
RTVSPropertyOp4
 70
     1
102
RTVSPropertyOp5
 70
     1
102
RTVSPropertyOp6
 70
     1
102
RTVSPropertyOp7
 70
     1
102
RTVSPropertyOp8
 70
     1
102
RTVSPropertyOp9
 70
     1
102
RTVSPropertyOp10
 70
     1
102
RTVSPropertyOp11
 70
     1
102
RTVSPropertyOp12
 70
     1
102
RTVSPropertyOp13
 70
     1
102
RTVSPropertyOp14
 70
     1
102
RTVSPropertyOp15
 70
     1
102
RTVSPropertyOp16
 70
     1
102
RTVSPropertyOp17
 70
     1
102
RTVSPropertyOp18
 70
     1
102
RTVSPropertyOp19
 70
     1
102
RTVSPropertyOp20
 70
     1
102
RTVSPropertyOp21
 70
     1
102
RTVSPropertyOp22
 70
     1
102
RTVSPropertyOp23
 70
     1
102
RTVSPropertyOp24
 70
     1
102
RTVSPropertyOp25
 70
     1
102
RTVSPropertyOp26
 70
     1
102
RTVSPropertyOp27
 70
     1
  0
XRECORD
  5
24C2
102
{ACAD_REACTORS
330
24C1
102
}
330
24C1
100
AcDbXrecord
280
     1
102
RTVSPropertyOp0
 70
     1
102
RTVSPropertyOp1
 70
     1
102
RTVSPropertyOp2
 70
     1
102
RTVSPropertyOp3
 70
     1
102
RTVSPropertyOp4
 70
     1
102
RTVSPropertyOp5
 70
     1
102
RTVSPropertyOp6
 70
     1
102
RTVSPropertyOp7
 70
     1
102
RTVSPropertyOp8
 70
     1
102
RTVSPropertyOp9
 70
     1
102
RTVSPropertyOp10
 70
     1
102
RTVSPropertyOp11
 70
     1
102
RTVSPropertyOp12
 70
     1
102
RTVSPropertyOp13
 70
     1
102
RTVSPropertyOp14
 70
     1
102
RTVSPropertyOp15
 70
     1
102
RTVSPropertyOp16
 70
     1
102
RTVSPropertyOp17
 70
     1
102
RTVSPropertyOp18
 70
     1
102
RTVSPropertyOp19
 70
     1
102
RTVSPropertyOp20
 70
     1
102
RTVSPropertyOp21
 70
     1
102
RTVSPropertyOp22
 70
     1
102
RTVSPropertyOp23
 70
     1
102
RTVSPropertyOp24
 70
     1
102
RTVSPropertyOp25
 70
     1
102
RTVSPropertyOp26
 70
     1
102
RTVSPropertyOp27
 70
     1
  0
XRECORD
  5
24CA
102
{ACAD_REACTORS
330
24C9
102
}
330
24C9
100
AcDbXrecord
280
     1
102
RTVSPropertyOp0
 70
     1
102
RTVSPropertyOp1
 70
     1
102
RTVSPropertyOp2
 70
     1
102
RTVSPropertyOp3
 70
     1
102
RTVSPropertyOp4
 70
     1
102
RTVSPropertyOp5
 70
     1
102
RTVSPropertyOp6
 70
     1
102
RTVSPropertyOp7
 70
     1
102
RTVSPropertyOp8
 70
     1
102
RTVSPropertyOp9
 70
     1
102
RTVSPropertyOp10
 70
     1
102
RTVSPropertyOp11
 70
     1
102
RTVSPropertyOp12
 70
     1
102
RTVSPropertyOp13
 70
     1
102
RTVSPropertyOp14
 70
     1
102
RTVSPropertyOp15
 70
     1
102
RTVSPropertyOp16
 70
     1
102
RTVSPropertyOp17
 70
     1
102
RTVSPropertyOp18
 70
     1
102
RTVSPropertyOp19
 70
     1
102
RTVSPropertyOp20
 70
     1
102
RTVSPropertyOp21
 70
     1
102
RTVSPropertyOp22
 70
     1
102
RTVSPropertyOp23
 70
     1
102
RTVSPropertyOp24
 70
     1
102
RTVSPropertyOp25
 70
     1
102
RTVSPropertyOp26
 70
     1
102
RTVSPropertyOp27
 70
     1
  0
XRECORD
  5
24BC
102
{ACAD_REACTORS
330
24BB
102
}
330
24BB
100
AcDbXrecord
280
     1
102
RTVSPropertyOp0
 70
     1
102
RTVSPropertyOp1
 70
     1
102
RTVSPropertyOp2
 70
     1
102
RTVSPropertyOp3
 70
     1
102
RTVSPropertyOp4
 70
     1
102
RTVSPropertyOp5
 70
     1
102
RTVSPropertyOp6
 70
     1
102
RTVSPropertyOp7
 70
     1
102
RTVSPropertyOp8
 70
     1
102
RTVSPropertyOp9
 70
     1
102
RTVSPropertyOp10
 70
     1
102
RTVSPropertyOp11
 70
     1
102
RTVSPropertyOp12
 70
     1
102
RTVSPropertyOp13
 70
     1
102
RTVSPropertyOp14
 70
     1
102
RTVSPropertyOp15
 70
     1
102
RTVSPropertyOp16
 70
     1
102
RTVSPropertyOp17
 70
     1
102
RTVSPropertyOp18
 70
     1
102
RTVSPropertyOp19
 70
     1
102
RTVSPropertyOp20
 70
     1
102
RTVSPropertyOp21
 70
     1
102
RTVSPropertyOp22
 70
     1
102
RTVSPropertyOp23
 70
     1
102
RTVSPropertyOp24
 70
     1
102
RTVSPropertyOp25
 70
     1
102
RTVSPropertyOp26
 70
     1
102
RTVSPropertyOp27
 70
     1
  0
XRECORD
  5
24C0
102
{ACAD_REACTORS
330
24BF
102
}
330
24BF
100
AcDbXrecord
280
     1
102
RTVSPropertyOp0
 70
     1
102
RTVSPropertyOp1
 70
     1
102
RTVSPropertyOp2
 70
     1
102
RTVSPropertyOp3
 70
     1
102
RTVSPropertyOp4
 70
     1
102
RTVSPropertyOp5
 70
     1
102
RTVSPropertyOp6
 70
     1
102
RTVSPropertyOp7
 70
     1
102
RTVSPropertyOp8
 70
     1
102
RTVSPropertyOp9
 70
     1
102
RTVSPropertyOp10
 70
     1
102
RTVSPropertyOp11
 70
     1
102
RTVSPropertyOp12
 70
     1
102
RTVSPropertyOp13
 70
     1
102
RTVSPropertyOp14
 70
     1
102
RTVSPropertyOp15
 70
     1
102
RTVSPropertyOp16
 70
     1
102
RTVSPropertyOp17
 70
     1
102
RTVSPropertyOp18
 70
     1
102
RTVSPropertyOp19
 70
     1
102
RTVSPropertyOp20
 70
     1
102
RTVSPropertyOp21
 70
     1
102
RTVSPropertyOp22
 70
     1
102
RTVSPropertyOp23
 70
     1
102
RTVSPropertyOp24
 70
     1
102
RTVSPropertyOp25
 70
     1
102
RTVSPropertyOp26
 70
     1
102
RTVSPropertyOp27
 70
     1
  0
XRECORD
  5
24D0
102
{ACAD_REACTORS
330
24CF
102
}
330
24CF
100
AcDbXrecord
280
     1
102
RTVSPropertyOp0
 70
     0
102
RTVSPropertyOp1
 70
     0
102
RTVSPropertyOp2
 70
     0
102
RTVSPropertyOp3
 70
     0
102
RTVSPropertyOp4
 70
     0
102
RTVSPropertyOp5
 70
     0
102
RTVSPropertyOp6
 70
     0
102
RTVSPropertyOp7
 70
     0
102
RTVSPropertyOp8
 70
     0
102
RTVSPropertyOp9
 70
     0
102
RTVSPropertyOp10
 70
     0
102
RTVSPropertyOp11
 70
     0
102
RTVSPropertyOp12
 70
     0
102
RTVSPropertyOp13
 70
     0
102
RTVSPropertyOp14
 70
     2
102
RTVSPropertyOp15
 70
     0
102
RTVSPropertyOp16
 70
     0
102
RTVSPropertyOp17
 70
     0
102
RTVSPropertyOp18
 70
     0
102
RTVSPropertyOp19
 70
     0
102
RTVSPropertyOp20
 70
     0
102
RTVSPropertyOp21
 70
     0
102
RTVSPropertyOp22
 70
     0
102
RTVSPropertyOp23
 70
     0
102
RTVSPropertyOp24
 70
     0
102
RTVSPropertyOp25
 70
     0
102
RTVSPropertyOp26
 70
     0
102
RTVSPropertyOp27
 70
     0
  0
XRECORD
  5
24C8
102
{ACAD_REACTORS
330
24C7
102
}
330
24C7
100
AcDbXrecord
280
     1
102
RTVSPropertyOp0
 70
     1
102
RTVSPropertyOp1
 70
     1
102
RTVSPropertyOp2
 70
     1
102
RTVSPropertyOp3
 70
     1
102
RTVSPropertyOp4
 70
     1
102
RTVSPropertyOp5
 70
     1
102
RTVSPropertyOp6
 70
     1
102
RTVSPropertyOp7
 70
     1
102
RTVSPropertyOp8
 70
     1
102
RTVSPropertyOp9
 70
     1
102
RTVSPropertyOp10
 70
     1
102
RTVSPropertyOp11
 70
     1
102
RTVSPropertyOp12
 70
     1
102
RTVSPropertyOp13
 70
     1
102
RTVSPropertyOp14
 70
     1
102
RTVSPropertyOp15
 70
     1
102
RTVSPropertyOp16
 70
     1
102
RTVSPropertyOp17
 70
     1
102
RTVSPropertyOp18
 70
     1
102
RTVSPropertyOp19
 70
     1
102
RTVSPropertyOp20
 70
     1
102
RTVSPropertyOp21
 70
     1
102
RTVSPropertyOp22
 70
     1
102
RTVSPropertyOp23
 70
     1
102
RTVSPropertyOp24
 70
     1
102
RTVSPropertyOp25
 70
     1
102
RTVSPropertyOp26
 70
     1
102
RTVSPropertyOp27
 70
     1
  0
XRECORD
  5
24AC
102
{ACAD_REACTORS
330
24AB
102
}
330
24AB
100
AcDbXrecord
280
     1
102
RTVSPropertyOp0
 70
     1
102
RTVSPropertyOp1
 70
     1
102
RTVSPropertyOp2
 70
     1
102
RTVSPropertyOp3
 70
     1
102
RTVSPropertyOp4
 70
     1
102
RTVSPropertyOp5
 70
     1
102
RTVSPropertyOp6
 70
     1
102
RTVSPropertyOp7
 70
     1
102
RTVSPropertyOp8
 70
     1
102
RTVSPropertyOp9
 70
     1
102
RTVSPropertyOp10
 70
     1
102
RTVSPropertyOp11
 70
     1
102
RTVSPropertyOp12
 70
     1
102
RTVSPropertyOp13
 70
     1
102
RTVSPropertyOp14
 70
     1
102
RTVSPropertyOp15
 70
     1
102
RTVSPropertyOp16
 70
     1
102
RTVSPropertyOp17
 70
     1
102
RTVSPropertyOp18
 70
     1
102
RTVSPropertyOp19
 70
     1
102
RTVSPropertyOp20
 70
     1
102
RTVSPropertyOp21
 70
     1
102
RTVSPropertyOp22
 70
     1
102
RTVSPropertyOp23
 70
     1
102
RTVSPropertyOp24
 70
     1
102
RTVSPropertyOp25
 70
     1
102
RTVSPropertyOp26
 70
     1
102
RTVSPropertyOp27
 70
     1
  0
XRECORD
  5
24AE
102
{ACAD_REACTORS
330
24AD
102
}
330
24AD
100
AcDbXrecord
280
     1
102
RTVSPropertyOp0
 70
     1
102
RTVSPropertyOp1
 70
     1
102
RTVSPropertyOp2
 70
     1
102
RTVSPropertyOp3
 70
     1
102
RTVSPropertyOp4
 70
     1
102
RTVSPropertyOp5
 70
     1
102
RTVSPropertyOp6
 70
     1
102
RTVSPropertyOp7
 70
     1
102
RTVSPropertyOp8
 70
     1
102
RTVSPropertyOp9
 70
     1
102
RTVSPropertyOp10
 70
     1
102
RTVSPropertyOp11
 70
     1
102
RTVSPropertyOp12
 70
     1
102
RTVSPropertyOp13
 70
     1
102
RTVSPropertyOp14
 70
     1
102
RTVSPropertyOp15
 70
     1
102
RTVSPropertyOp16
 70
     1
102
RTVSPropertyOp17
 70
     1
102
RTVSPropertyOp18
 70
     1
102
RTVSPropertyOp19
 70
     1
102
RTVSPropertyOp20
 70
     1
102
RTVSPropertyOp21
 70
     1
102
RTVSPropertyOp22
 70
     1
102
RTVSPropertyOp23
 70
     1
102
RTVSPropertyOp24
 70
     1
102
RTVSPropertyOp25
 70
     1
102
RTVSPropertyOp26
 70
     1
102
RTVSPropertyOp27
 70
     1
  0
XRECORD
  5
24B0
102
{ACAD_REACTORS
330
24AF
102
}
330
24AF
100
AcDbXrecord
280
     1
102
RTVSPropertyOp0
 70
     1
102
RTVSPropertyOp1
 70
     1
102
RTVSPropertyOp2
 70
     1
102
RTVSPropertyOp3
 70
     1
102
RTVSPropertyOp4
 70
     1
102
RTVSPropertyOp5
 70
     1
102
RTVSPropertyOp6
 70
     1
102
RTVSPropertyOp7
 70
     1
102
RTVSPropertyOp8
 70
     1
102
RTVSPropertyOp9
 70
     1
102
RTVSPropertyOp10
 70
     1
102
RTVSPropertyOp11
 70
     1
102
RTVSPropertyOp12
 70
     1
102
RTVSPropertyOp13
 70
     1
102
RTVSPropertyOp14
 70
     1
102
RTVSPropertyOp15
 70
     1
102
RTVSPropertyOp16
 70
     1
102
RTVSPropertyOp17
 70
     1
102
RTVSPropertyOp18
 70
     1
102
RTVSPropertyOp19
 70
     1
102
RTVSPropertyOp20
 70
     1
102
RTVSPropertyOp21
 70
     1
102
RTVSPropertyOp22
 70
     1
102
RTVSPropertyOp23
 70
     1
102
RTVSPropertyOp24
 70
     1
102
RTVSPropertyOp25
 70
     1
102
RTVSPropertyOp26
 70
     1
102
RTVSPropertyOp27
 70
     1
  0
XRECORD
  5
24B2
102
{ACAD_REACTORS
330
24B1
102
}
330
24B1
100
AcDbXrecord
280
     1
102
RTVSPropertyOp0
 70
     1
102
RTVSPropertyOp1
 70
     1
102
RTVSPropertyOp2
 70
     1
102
RTVSPropertyOp3
 70
     1
102
RTVSPropertyOp4
 70
     1
102
RTVSPropertyOp5
 70
     1
102
RTVSPropertyOp6
 70
     1
102
RTVSPropertyOp7
 70
     1
102
RTVSPropertyOp8
 70
     1
102
RTVSPropertyOp9
 70
     1
102
RTVSPropertyOp10
 70
     1
102
RTVSPropertyOp11
 70
     1
102
RTVSPropertyOp12
 70
     1
102
RTVSPropertyOp13
 70
     1
102
RTVSPropertyOp14
 70
     1
102
RTVSPropertyOp15
 70
     1
102
RTVSPropertyOp16
 70
     1
102
RTVSPropertyOp17
 70
     1
102
RTVSPropertyOp18
 70
     1
102
RTVSPropertyOp19
 70
     1
102
RTVSPropertyOp20
 70
     1
102
RTVSPropertyOp21
 70
     1
102
RTVSPropertyOp22
 70
     1
102
RTVSPropertyOp23
 70
     1
102
RTVSPropertyOp24
 70
     1
102
RTVSPropertyOp25
 70
     1
102
RTVSPropertyOp26
 70
     1
102
RTVSPropertyOp27
 70
     1
  0
XRECORD
  5
24CC
102
{ACAD_REACTORS
330
24CB
102
}
330
24CB
100
AcDbXrecord
280
     1
102
RTVSPropertyOp0
 70
     0
102
RTVSPropertyOp1
 70
     0
102
RTVSPropertyOp2
 70
     0
102
RTVSPropertyOp3
 70
     0
102
RTVSPropertyOp4
 70
     0
102
RTVSPropertyOp5
 70
     0
102
RTVSPropertyOp6
 70
     0
102
RTVSPropertyOp7
 70
     0
102
RTVSPropertyOp8
 70
     0
102
RTVSPropertyOp9
 70
     0
102
RTVSPropertyOp10
 70
     0
102
RTVSPropertyOp11
 70
     0
102
RTVSPropertyOp12
 70
     0
102
RTVSPropertyOp13
 70
     0
102
RTVSPropertyOp14
 70
     2
102
RTVSPropertyOp15
 70
     0
102
RTVSPropertyOp16
 70
     0
102
RTVSPropertyOp17
 70
     0
102
RTVSPropertyOp18
 70
     0
102
RTVSPropertyOp19
 70
     0
102
RTVSPropertyOp20
 70
     0
102
RTVSPropertyOp21
 70
     0
102
RTVSPropertyOp22
 70
     0
102
RTVSPropertyOp23
 70
     0
102
RTVSPropertyOp24
 70
     0
102
RTVSPropertyOp25
 70
     0
102
RTVSPropertyOp26
 70
     0
102
RTVSPropertyOp27
 70
     0
  0
XRECORD
  5
24C6
102
{ACAD_REACTORS
330
24C5
102
}
330
24C5
100
AcDbXrecord
280
     1
102
RTVSPropertyOp0
 70
     1
102
RTVSPropertyOp1
 70
     1
102
RTVSPropertyOp2
 70
     1
102
RTVSPropertyOp3
 70
     1
102
RTVSPropertyOp4
 70
     1
102
RTVSPropertyOp5
 70
     1
102
RTVSPropertyOp6
 70
     1
102
RTVSPropertyOp7
 70
     1
102
RTVSPropertyOp8
 70
     1
102
RTVSPropertyOp9
 70
     1
102
RTVSPropertyOp10
 70
     1
102
RTVSPropertyOp11
 70
     1
102
RTVSPropertyOp12
 70
     1
102
RTVSPropertyOp13
 70
     1
102
RTVSPropertyOp14
 70
     1
102
RTVSPropertyOp15
 70
     1
102
RTVSPropertyOp16
 70
     1
102
RTVSPropertyOp17
 70
     1
102
RTVSPropertyOp18
 70
     1
102
RTVSPropertyOp19
 70
     1
102
RTVSPropertyOp20
 70
     1
102
RTVSPropertyOp21
 70
     1
102
RTVSPropertyOp22
 70
     1
102
RTVSPropertyOp23
 70
     1
102
RTVSPropertyOp24
 70
     1
102
RTVSPropertyOp25
 70
     1
102
RTVSPropertyOp26
 70
     1
102
RTVSPropertyOp27
 70
     1
  0
XRECORD
  5
24CE
102
{ACAD_REACTORS
330
24CD
102
}
330
24CD
100
AcDbXrecord
280
     1
102
RTVSPropertyOp0
 70
     0
102
RTVSPropertyOp1
 70
     0
102
RTVSPropertyOp2
 70
     0
102
RTVSPropertyOp3
 70
     0
102
RTVSPropertyOp4
 70
     0
102
RTVSPropertyOp5
 70
     0
102
RTVSPropertyOp6
 70
     0
102
RTVSPropertyOp7
 70
     0
102
RTVSPropertyOp8
 70
     0
102
RTVSPropertyOp9
 70
     0
102
RTVSPropertyOp10
 70
     0
102
RTVSPropertyOp11
 70
     0
102
RTVSPropertyOp12
 70
     0
102
RTVSPropertyOp13
 70
     0
102
RTVSPropertyOp14
 70
     2
102
RTVSPropertyOp15
 70
     0
102
RTVSPropertyOp16
 70
     0
102
RTVSPropertyOp17
 70
     0
102
RTVSPropertyOp18
 70
     0
102
RTVSPropertyOp19
 70
     0
102
RTVSPropertyOp20
 70
     0
102
RTVSPropertyOp21
 70
     0
102
RTVSPropertyOp22
 70
     0
102
RTVSPropertyOp23
 70
     0
102
RTVSPropertyOp24
 70
     0
102
RTVSPropertyOp25
 70
     0
102
RTVSPropertyOp26
 70
     0
102
RTVSPropertyOp27
 70
     0
  0
XRECORD
  5
24BE
102
{ACAD_REACTORS
330
24BD
102
}
330
24BD
100
AcDbXrecord
280
     1
102
RTVSPropertyOp0
 70
     1
102
RTVSPropertyOp1
 70
     1
102
RTVSPropertyOp2
 70
     1
102
RTVSPropertyOp3
 70
     1
102
RTVSPropertyOp4
 70
     1
102
RTVSPropertyOp5
 70
     1
102
RTVSPropertyOp6
 70
     1
102
RTVSPropertyOp7
 70
     1
102
RTVSPropertyOp8
 70
     1
102
RTVSPropertyOp9
 70
     1
102
RTVSPropertyOp10
 70
     1
102
RTVSPropertyOp11
 70
     1
102
RTVSPropertyOp12
 70
     1
102
RTVSPropertyOp13
 70
     1
102
RTVSPropertyOp14
 70
     1
102
RTVSPropertyOp15
 70
     1
102
RTVSPropertyOp16
 70
     1
102
RTVSPropertyOp17
 70
     1
102
RTVSPropertyOp18
 70
     1
102
RTVSPropertyOp19
 70
     1
102
RTVSPropertyOp20
 70
     1
102
RTVSPropertyOp21
 70
     1
102
RTVSPropertyOp22
 70
     1
102
RTVSPropertyOp23
 70
     1
102
RTVSPropertyOp24
 70
     1
102
RTVSPropertyOp25
 70
     1
102
RTVSPropertyOp26
 70
     1
102
RTVSPropertyOp27
 70
     1
  0
XRECORD
  5
24C4
102
{ACAD_REACTORS
330
24C3
102
}
330
24C3
100
AcDbXrecord
280
     1
102
RTVSPropertyOp0
 70
     1
102
RTVSPropertyOp1
 70
     1
102
RTVSPropertyOp2
 70
     1
102
RTVSPropertyOp3
 70
     1
102
RTVSPropertyOp4
 70
     1
102
RTVSPropertyOp5
 70
     1
102
RTVSPropertyOp6
 70
     1
102
RTVSPropertyOp7
 70
     1
102
RTVSPropertyOp8
 70
     1
102
RTVSPropertyOp9
 70
     1
102
RTVSPropertyOp10
 70
     1
102
RTVSPropertyOp11
 70
     1
102
RTVSPropertyOp12
 70
     1
102
RTVSPropertyOp13
 70
     1
102
RTVSPropertyOp14
 70
     1
102
RTVSPropertyOp15
 70
     1
102
RTVSPropertyOp16
 70
     1
102
RTVSPropertyOp17
 70
     1
102
RTVSPropertyOp18
 70
     1
102
RTVSPropertyOp19
 70
     1
102
RTVSPropertyOp20
 70
     1
102
RTVSPropertyOp21
 70
     1
102
RTVSPropertyOp22
 70
     1
102
RTVSPropertyOp23
 70
     1
102
RTVSPropertyOp24
 70
     1
102
RTVSPropertyOp25
 70
     1
102
RTVSPropertyOp26
 70
     1
102
RTVSPropertyOp27
 70
     1
  0
ENDSEC
  0
EOF
