0
SECTION
2
HEADER
9
$ACADVER
1
AC1015
9
$DWGCODEPAGE
3
ANSI_1252
9
$HANDSEED
5
17f
9
$ANGBASE
50
0
9
$ANGDIR
70
0
9
$ATTMODE
70
1
9
$AUNITS
70
0
9
$AUPREC
70
0
9
$CECOLOR
62
256
9
$CELTSCALE
40
1
9
$CELTYPE
6
ByLayer
9
$CELWEIGHT
370
-1
9
$CLAYER
8
0
9
$CMLJUST
70
0
9
$CMLSCALE
40
1
9
$CMLSTYLE
2
Standard
9
$DIMSTYLE
2
Standard
9
$TEXTSIZE
40
0.2
9
$TEXTSTYLE
7
Standard
9
$LUNITS
70
2
9
$LUPREC
70
4
9
$EXTNAMES
290
1
9
$INSUNITS
70
4
9
$LTSCALE
40
1
9
$LWDISPLAY
290
0
9
$PDMODE
70
0
9
$PDSIZE
40
0
9
$PLINEGEN
70
0
0
ENDSEC
0
SECTION
2
CLASSES
0
CLASS
1
RASTERVARIABLES
2
AcDbRasterVariables
3
ISM
90
0
280
0
281
0
0
ENDSEC
0
SECTION
2
TABLES
0
TABLE
2
VPORT
5
175
100
AcDbSymbolTable
0
VPORT
5
1
100
AcDbSymbolTableRecord
100
AcDbViewportTableRecord
2
*Active
70
0
10
0
20
0
11
1
21
1
12
-1
22
1
13
0
23
0
14
0.5
24
0.5
15
10
25
10
16
0
26
0
36
1
17
0
27
0
37
0
0
ENDTAB
0
TABLE
2
LTYPE
5
176
100
AcDbSymbolTable
0
LTYPE
5
14
100
AcDbSymbolTableRecord
100
AcDbLinetypeTableRecord
70
0
2
ByBlock
3

72
65
73
0
40
0
0
LTYPE
5
15
100
AcDbSymbolTableRecord
100
AcDbLinetypeTableRecord
70
0
2
ByLayer
3

72
65
73
0
40
0
0
LTYPE
5
16
100
AcDbSymbolTableRecord
100
AcDbLinetypeTableRecord
70
0
2
CONTINUOUS
3
Solid line
72
65
73
0
40
0
0
LTYPE
5
3B
100
AcDbSymbolTableRecord
100
AcDbLinetypeTableRecord
70
0
2
DASHED
3
__ __ __ __ __ __ __ __ __
72
65
73
2
40
25.72
49
12.86
74
0
49
-12.86
74
0
0
LTYPE
5
3C
100
AcDbSymbolTableRecord
100
AcDbLinetypeTableRecord
70
0
2
HIDDEN
3
_ _ _ _ _ _ _ _ _ _ _ _ _ _ _
72
65
73
2
40
0.5
49
0.25
74
0
49
-0.25
74
0
0
LTYPE
5
3D
100
AcDbSymbolTableRecord
100
AcDbLinetypeTableRecord
70
0
2
PHANTOM
3
____ _ _ ____ _ _ _____ _ _ ____
72
65
73
6
40
50.5
49
18
74
0
49
-6.5
74
0
49
6.5
74
0
49
-6.5
74
0
49
6.5
74
0
49
-6.5
74
0
0
LTYPE
5
3E
100
AcDbSymbolTableRecord
100
AcDbLinetypeTableRecord
70
0
2
CENTER
3
____ _ ____ _ ____ _ ____
72
65
73
4
40
47.5
49
22
74
0
49
-8.5
74
0
49
8.5
74
0
49
-8.5
74
0
0
LTYPE
5
3F
100
AcDbSymbolTableRecord
100
AcDbLinetypeTableRecord
70
0
2
DOT
3
.........................
72
65
73
2
40
10
49
0
74
0
49
-10
74
0
0
LTYPE
5
40
100
AcDbSymbolTableRecord
100
AcDbLinetypeTableRecord
70
0
2
DASHDOT
3
_._._._._._._._._._._._._._._._.
72
65
73
4
40
70
49
31
74
0
49
-13
74
0
49
13
74
0
49
-13
74
0
0
ENDTAB
0
TABLE
2
LAYER
5
177
100
AcDbSymbolTable
0
LAYER
5
10
100
AcDbSymbolTableRecord
100
AcDbLayerTableRecord
2
0
70
0
62
7
6
CONTINUOUS
290
1
370
-3
390
0
0
LAYER
5
42
100
AcDbSymbolTableRecord
100
AcDbLayerTableRecord
2
80
70
0
62
-6
6
CONTINUOUS
290
1
370
-3
390
0
0
LAYER
5
44
100
AcDbSymbolTableRecord
100
AcDbLayerTableRecord
2
81
70
0
62
-3
6
CONTINUOUS
290
1
370
-3
390
0
0
LAYER
5
46
100
AcDbSymbolTableRecord
100
AcDbLayerTableRecord
2
1
70
0
62
4
6
CONTINUOUS
290
1
370
-3
390
0
0
LAYER
5
48
100
AcDbSymbolTableRecord
100
AcDbLayerTableRecord
2
2
70
0
62
7
6
CONTINUOUS
290
1
370
-3
390
0
0
LAYER
5
5C
100
AcDbSymbolTableRecord
100
AcDbLayerTableRecord
2
4
70
0
62
-2
6
CENTER
290
1
370
-3
390
0
0
LAYER
5
161
100
AcDbSymbolTableRecord
100
AcDbLayerTableRecord
2
SK1
70
0
62
4
6
CONTINUOUS
290
1
370
-3
390
0
0
LAYER
5
162
100
AcDbSymbolTableRecord
100
AcDbLayerTableRecord
2
SK4
70
0
62
2
6
CENTER
290
1
370
-3
390
0
0
LAYER
5
163
100
AcDbSymbolTableRecord
100
AcDbLayerTableRecord
2
SK6
70
0
62
5
6
CONTINUOUS
290
1
370
-3
390
0
0
LAYER
5
164
100
AcDbSymbolTableRecord
100
AcDbLayerTableRecord
2
SK2
70
0
62
7
6
CONTINUOUS
290
1
370
-3
390
0
0
ENDTAB
0
TABLE
2
STYLE
5
178
100
AcDbSymbolTable
0
STYLE
5
11
100
AcDbSymbolTableRecord
100
AcDbTextStyleTableRecord
2
Standard
3
txt
70
0
71
0
40
0
41
1
42
0
50
0
0
STYLE
5
DD
100
AcDbSymbolTableRecord
100
AcDbTextStyleTableRecord
2
DEFAULT
3
simplex.shx
70
0
71
0
40
0
41
1
42
0
50
0
0
STYLE
5
100
100
AcDbSymbolTableRecord
100
AcDbTextStyleTableRecord
2
DWGDirectTextStyle
3
SIMPLEX
70
0
71
0
40
0
41
1
42
0
50
0
0
ENDTAB
0
TABLE
2
DIMSTYLE
5
179
100
AcDbSymbolTable
100
AcDbDimStyleTable
0
DIMSTYLE
105
27
100
AcDbSymbolTableRecord
100
AcDbDimStyleTableRecord
2
Standard
70
0
3
<>
41
0.18
42
0.0625
44
0.18
140
0.18
147
0.09
73
0
74
0
77
1
271
2
275
0
278
52
280
0
340
11
0
ENDTAB
0
TABLE
2
VIEW
5
17a
100
AcDbSymbolTable
0
ENDTAB
0
TABLE
2
UCS
5
17b
100
AcDbSymbolTable
0
ENDTAB
0
TABLE
2
APPID
5
17c
100
AcDbSymbolTable
0
APPID
5
12
100
AcDbSymbolTableRecord
100
AcDbRegAppTableRecord
2
ACAD
70
0
0
ENDTAB
0
TABLE
2
BLOCK_RECORD
5
17d
100
AcDbSymbolTable
0
BLOCK_RECORD
5
1F
100
AcDbSymbolTableRecord
100
AcDbBlockTableRecord
2
*Model_Space
340
0
70
0
0
BLOCK_RECORD
5
1B
100
AcDbSymbolTableRecord
100
AcDbBlockTableRecord
2
*Paper_Space
340
0
70
0
0
BLOCK_RECORD
5
23
100
AcDbSymbolTableRecord
100
AcDbBlockTableRecord
2
*Paper_Space0
340
0
70
0
0
BLOCK_RECORD
5
102
100
AcDbSymbolTableRecord
100
AcDbBlockTableRecord
2
DimnDraft3D1
340
0
70
0
0
BLOCK_RECORD
5
110
100
AcDbSymbolTableRecord
100
AcDbBlockTableRecord
2
_CLOSED
340
0
70
0
0
BLOCK_RECORD
5
117
100
AcDbSymbolTableRecord
100
AcDbBlockTableRecord
2
DimnDraft3D2
340
0
70
0
0
BLOCK_RECORD
5
126
100
AcDbSymbolTableRecord
100
AcDbBlockTableRecord
2
DimnDraft3D3
340
0
70
0
0
BLOCK_RECORD
5
134
100
AcDbSymbolTableRecord
100
AcDbBlockTableRecord
2
DimnDraft3D4
340
0
70
0
0
ENDTAB
0
ENDSEC
0
SECTION
2
BLOCKS
0
BLOCK
5
20
100
AcDbEntity
8
0
100
AcDbBlockBegin
2
*Model_Space
70
0
10
0
20
0
30
0
3
*Model_Space
0
ENDBLK
5
21
100
AcDbEntity
8
0
100
AcDbBlockEnd
0
BLOCK
5
1C
100
AcDbEntity
8
0
100
AcDbBlockBegin
2
*Paper_Space
70
0
10
0
20
0
30
0
3
*Paper_Space
0
ENDBLK
5
1D
100
AcDbEntity
8
0
100
AcDbBlockEnd
0
BLOCK
5
24
100
AcDbEntity
8
0
100
AcDbBlockBegin
2
*Paper_Space0
70
0
10
0
20
0
30
0
3
*Paper_Space0
0
ENDBLK
5
25
100
AcDbEntity
8
0
100
AcDbBlockEnd
0
BLOCK
5
10D
100
AcDbEntity
8
0
100
AcDbBlockBegin
2
DimnDraft3D1
70
0
10
0
20
0
30
0
3
DimnDraft3D1
0
MTEXT
5
103
100
AcDbEntity
8
2
62
256
6
ByLayer
370
-1
48
1
60
0
100
AcDbMText
10
91.055
20
3.974342
30
0
210
0
220
0
230
1
1
\W01.000;\fsimplex.shx,bigfont.shx;15.0 
40
4.5
41
0
44
1.084337
50
90
71
7
72
5
7
DEFAULT
0
LINE
5
104
100
AcDbEntity
8
2
62
256
6
ByLayer
370
-1
48
1
60
0
100
AcDbLine
10
81.93
20
14.9
30
0
11
94.18
21
14.9
31
0
39
0
210
0
220
0
230
1
0
LINE
5
105
100
AcDbEntity
8
2
62
256
6
ByLayer
370
-1
48
1
60
0
100
AcDbLine
10
81.93
20
0
30
0
11
94.18
21
0
31
0
39
0
210
0
220
0
230
1
0
LINE
5
106
100
AcDbEntity
8
2
62
256
6
ByLayer
370
-1
48
1
60
0
100
AcDbLine
10
92.18
20
26.15
30
0
11
92.18
21
-11.25
31
0
39
0
210
0
220
0
230
1
0
LINE
5
107
100
AcDbEntity
8
2
62
256
6
ByLayer
370
-1
48
1
60
0
100
AcDbLine
10
92.18
20
14.9
30
0
11
91.762003
21
18.074998
31
0
39
0
210
0
220
0
230
1
0
LINE
5
108
100
AcDbEntity
8
2
62
256
6
ByLayer
370
-1
48
1
60
0
100
AcDbLine
10
92.18
20
14.9
30
0
11
92.597997
21
18.075002
31
0
39
0
210
0
220
0
230
1
0
LINE
5
109
100
AcDbEntity
8
2
62
256
6
ByLayer
370
-1
48
1
60
0
100
AcDbLine
10
91.762003
20
18.074998
30
0
11
92.597997
21
18.075002
31
0
39
0
210
0
220
0
230
1
0
LINE
5
10A
100
AcDbEntity
8
2
62
256
6
ByLayer
370
-1
48
1
60
0
100
AcDbLine
10
92.18
20
0
30
0
11
92.597997
21
-3.174998
31
0
39
0
210
0
220
0
230
1
0
LINE
5
10B
100
AcDbEntity
8
2
62
256
6
ByLayer
370
-1
48
1
60
0
100
AcDbLine
10
92.18
20
0
30
0
11
91.762003
21
-3.175002
31
0
39
0
210
0
220
0
230
1
0
LINE
5
10C
100
AcDbEntity
8
2
62
256
6
ByLayer
370
-1
48
1
60
0
100
AcDbLine
10
92.597997
20
-3.174998
30
0
11
91.762003
21
-3.175002
31
0
39
0
210
0
220
0
230
1
0
ENDBLK
5
10E
100
AcDbEntity
8
0
100
AcDbBlockEnd
0
BLOCK
5
111
100
AcDbEntity
8
0
100
AcDbBlockBegin
2
_CLOSED
70
0
10
0
20
0
30
0
3
_CLOSED
0
LINE
5
113
100
AcDbEntity
8
0
62
256
6
ByLayer
370
-2
48
1
60
0
100
AcDbLine
10
-1
20
0.166667
30
0
11
0
21
0
31
0
39
0
210
0
220
0
230
1
0
LINE
5
114
100
AcDbEntity
8
0
62
256
6
ByLayer
370
-2
48
1
60
0
100
AcDbLine
10
0
20
0
30
0
11
-1
21
-0.166667
31
0
39
0
210
0
220
0
230
1
0
LINE
5
115
100
AcDbEntity
8
0
62
256
6
ByLayer
370
-2
48
1
60
0
100
AcDbLine
10
-1
20
0.166667
30
0
11
-1
21
-0.166667
31
0
39
0
210
0
220
0
230
1
0
LINE
5
116
100
AcDbEntity
8
0
62
256
6
ByLayer
370
-2
48
1
60
0
100
AcDbLine
10
0
20
0
30
0
11
-1
21
0
31
0
39
0
210
0
220
0
230
1
0
ENDBLK
5
112
100
AcDbEntity
8
0
100
AcDbBlockEnd
0
BLOCK
5
123
100
AcDbEntity
8
0
100
AcDbBlockBegin
2
DimnDraft3D2
70
0
10
0
20
0
30
0
3
DimnDraft3D2
0
MTEXT
5
118
100
AcDbEntity
8
SK2
62
256
6
ByLayer
370
-1
48
1
60
0
100
AcDbMText
10
-182.195
20
-3.659211
30
0
210
0
220
0
230
1
1
\W01.000;\fsimplex.shx,bigfont.shx;%%c20 
40
4.5
41
0
44
1.084337
50
90
71
7
72
5
7
DEFAULT
0
LINE
5
11A
100
AcDbEntity
8
SK2
62
256
6
ByLayer
370
-1
48
1
60
0
100
AcDbLine
10
-173.32
20
-9.99125
30
0
11
-183.07
21
-9.99125
31
0
39
0
210
0
220
0
230
1
0
LINE
5
11B
100
AcDbEntity
8
SK2
62
256
6
ByLayer
370
-1
48
1
60
0
100
AcDbLine
10
-173.32
20
9.99125
30
0
11
-183.07
21
9.99125
31
0
39
0
210
0
220
0
230
1
0
LINE
5
11C
100
AcDbEntity
8
SK2
62
256
6
ByLayer
370
-1
48
1
60
0
100
AcDbLine
10
-181.07
20
-9.99125
30
0
11
-181.07
21
9.99125
31
0
39
0
210
0
220
0
230
1
0
LINE
5
11D
100
AcDbEntity
8
SK2
62
256
6
ByLayer
370
-1
48
1
60
0
100
AcDbLine
10
-181.07
20
-9.99125
30
0
11
-181.487997
21
-6.816252
31
0
39
0
210
0
220
0
230
1
0
LINE
5
11E
100
AcDbEntity
8
SK2
62
256
6
ByLayer
370
-1
48
1
60
0
100
AcDbLine
10
-181.07
20
-9.99125
30
0
11
-180.652003
21
-6.816248
31
0
39
0
210
0
220
0
230
1
0
LINE
5
11F
100
AcDbEntity
8
SK2
62
256
6
ByLayer
370
-1
48
1
60
0
100
AcDbLine
10
-181.487997
20
-6.816252
30
0
11
-180.652003
21
-6.816248
31
0
39
0
210
0
220
0
230
1
0
LINE
5
120
100
AcDbEntity
8
SK2
62
256
6
ByLayer
370
-1
48
1
60
0
100
AcDbLine
10
-181.07
20
9.99125
30
0
11
-180.652003
21
6.816252
31
0
39
0
210
0
220
0
230
1
0
LINE
5
121
100
AcDbEntity
8
SK2
62
256
6
ByLayer
370
-1
48
1
60
0
100
AcDbLine
10
-181.07
20
9.99125
30
0
11
-181.487997
21
6.816248
31
0
39
0
210
0
220
0
230
1
0
LINE
5
122
100
AcDbEntity
8
SK2
62
256
6
ByLayer
370
-1
48
1
60
0
100
AcDbLine
10
-180.652003
20
6.816252
30
0
11
-181.487997
21
6.816248
31
0
39
0
210
0
220
0
230
1
0
ENDBLK
5
124
100
AcDbEntity
8
0
100
AcDbBlockEnd
0
BLOCK
5
131
100
AcDbEntity
8
0
100
AcDbBlockBegin
2
DimnDraft3D3
70
0
10
0
20
0
30
0
3
DimnDraft3D3
0
MTEXT
5
127
100
AcDbEntity
8
SK2
62
256
6
ByLayer
370
-1
48
1
60
0
100
AcDbMText
10
-51.385132
20
28.775
30
0
210
0
220
0
230
1
1
\W01.000;\fsimplex.shx,bigfont.shx;250.0 
40
4.5
41
0
44
1.084337
50
0
71
7
72
5
7
DEFAULT
0
LINE
5
128
100
AcDbEntity
8
SK2
62
256
6
ByLayer
370
-1
48
1
60
0
100
AcDbLine
10
79.93
20
16.9
30
0
11
79.93
21
29.65
31
0
39
0
210
0
220
0
230
1
0
LINE
5
129
100
AcDbEntity
8
SK2
62
256
6
ByLayer
370
-1
48
1
60
0
100
AcDbLine
10
-171.32
20
11.99125
30
0
11
-171.32
21
29.65
31
0
39
0
210
0
220
0
230
1
0
LINE
5
12A
100
AcDbEntity
8
SK2
62
256
6
ByLayer
370
-1
48
1
60
0
100
AcDbLine
10
79.93
20
27.65
30
0
11
-171.32
21
27.65
31
0
39
0
210
0
220
0
230
1
0
LINE
5
12B
100
AcDbEntity
8
SK2
62
256
6
ByLayer
370
-1
48
1
60
0
100
AcDbLine
10
79.93
20
27.65
30
0
11
76.755002
21
27.232003
31
0
39
0
210
0
220
0
230
1
0
LINE
5
12C
100
AcDbEntity
8
SK2
62
256
6
ByLayer
370
-1
48
1
60
0
100
AcDbLine
10
79.93
20
27.65
30
0
11
76.754998
21
28.067997
31
0
39
0
210
0
220
0
230
1
0
LINE
5
12D
100
AcDbEntity
8
SK2
62
256
6
ByLayer
370
-1
48
1
60
0
100
AcDbLine
10
76.755002
20
27.232003
30
0
11
76.754998
21
28.067997
31
0
39
0
210
0
220
0
230
1
0
LINE
5
12E
100
AcDbEntity
8
SK2
62
256
6
ByLayer
370
-1
48
1
60
0
100
AcDbLine
10
-171.32
20
27.65
30
0
11
-168.145002
21
28.067997
31
0
39
0
210
0
220
0
230
1
0
LINE
5
12F
100
AcDbEntity
8
SK2
62
256
6
ByLayer
370
-1
48
1
60
0
100
AcDbLine
10
-171.32
20
27.65
30
0
11
-168.144998
21
27.232003
31
0
39
0
210
0
220
0
230
1
0
LINE
5
130
100
AcDbEntity
8
SK2
62
256
6
ByLayer
370
-1
48
1
60
0
100
AcDbLine
10
-168.145002
20
28.067997
30
0
11
-168.144998
21
27.232003
31
0
39
0
210
0
220
0
230
1
0
ENDBLK
5
132
100
AcDbEntity
8
0
100
AcDbBlockEnd
0
BLOCK
5
13F
100
AcDbEntity
8
0
100
AcDbBlockBegin
2
DimnDraft3D4
70
0
10
0
20
0
30
0
3
DimnDraft3D4
0
MTEXT
5
135
100
AcDbEntity
8
2
62
256
6
ByLayer
370
-1
48
1
60
0
100
AcDbMText
10
95.873386
20
-41.659383
30
0
210
0
220
0
230
1
1
\W01.000;\fsimplex.shx,bigfont.shx;107%%d30' 
40
4.5
41
0
44
1.084337
50
36.25
71
7
72
5
7
DEFAULT
0
LINE
5
136
100
AcDbEntity
8
2
62
256
6
ByLayer
370
-1
48
1
60
0
100
AcDbLine
10
76.020825
20
2.50168
30
0
11
60.519594
21
-46.661944
31
0
39
0
210
0
220
0
230
1
0
LINE
5
137
100
AcDbEntity
8
2
62
256
6
ByLayer
370
-1
48
1
60
0
100
AcDbLine
10
81.93
20
0
30
0
11
124.158455
21
0
31
0
39
0
210
0
220
0
230
1
0
ARC
5
138
100
AcDbEntity
8
2
62
256
6
ByLayer
370
-1
48
1
60
0
100
AcDbCircle
39
0
10
75.232048
20
0
30
0
40
46.9264068782928
210
0
220
0
230
1
100
AcDbArc
50
252.5
51
0
0
LINE
5
139
100
AcDbEntity
8
2
62
256
6
ByLayer
370
-1
48
1
60
0
100
AcDbLine
10
61.121005
20
-44.75451
30
0
11
64.283701
21
-45.257198
31
0
39
0
210
0
220
0
230
1
0
LINE
5
13A
100
AcDbEntity
8
2
62
256
6
ByLayer
370
-1
48
1
60
0
100
AcDbLine
10
61.121005
20
-44.75451
30
0
11
64.045832
21
-46.058636
31
0
39
0
210
0
220
0
230
1
0
LINE
5
13B
100
AcDbEntity
8
2
62
256
6
ByLayer
370
-1
48
1
60
0
100
AcDbLine
10
64.283701
20
-45.257198
30
0
11
64.045832
21
-46.058636
31
0
39
0
210
0
220
0
230
1
0
LINE
5
13C
100
AcDbEntity
8
2
62
256
6
ByLayer
370
-1
48
1
60
0
100
AcDbLine
10
122.158455
20
0
30
0
11
122.52271
21
-3.181612
31
0
39
0
210
0
220
0
230
1
0
LINE
5
13D
100
AcDbEntity
8
2
62
256
6
ByLayer
370
-1
48
1
60
0
100
AcDbLine
10
122.158455
20
0
30
0
11
121.686837
21
-3.16748
31
0
39
0
210
0
220
0
230
1
0
LINE
5
13E
100
AcDbEntity
8
2
62
256
6
ByLayer
370
-1
48
1
60
0
100
AcDbLine
10
122.52271
20
-3.181612
30
0
11
121.686837
21
-3.16748
31
0
39
0
210
0
220
0
230
1
0
ENDBLK
5
140
100
AcDbEntity
8
0
100
AcDbBlockEnd
0
ENDSEC
0
SECTION
2
ENTITIES
0
ELLIPSE
5
8E
100
AcDbEntity
8
1
62
256
6
ByLayer
370
-1
48
1
60
0
100
AcDbEllipse
10
68.229703
20
-0.470083
30
0
11
1.43057542612234
21
-0.451058699256408
31
0
210
0
220
0
230
1
40
0.996195
41
1.35283016684199
42
2.3840224914464
0
ELLIPSE
5
8F
100
AcDbEntity
8
1
62
256
6
ByLayer
370
-1
48
1
60
0
100
AcDbEllipse
10
68.229703
20
-0.470083
30
0
11
1.43057542612234
21
-0.451058699256408
31
0
210
0
220
0
230
1
40
0.996195
41
0.190506219572873
42
0.303540850216463
0
ELLIPSE
5
90
100
AcDbEntity
8
1
62
256
6
ByLayer
370
-1
48
1
60
0
100
AcDbEllipse
10
70.937968
20
8.890298
30
0
11
0.953716950748229
21
-0.300705799504272
31
0
210
0
220
0
230
1
40
0.996195
41
-2.21607580794248
42
-1.87622894589387
0
ELLIPSE
5
91
100
AcDbEntity
8
1
62
256
6
ByLayer
370
-1
48
1
60
0
100
AcDbEllipse
10
64.325437
20
9.543324
30
0
11
15.1666323922892
21
-0.00222774557887448
31
0
210
0
220
0
230
-1
40
0.080321
41
1.59610302947608
42
1.88829337766858
0
ELLIPSE
5
92
100
AcDbEntity
8
1
62
256
6
ByLayer
370
-1
48
1
60
0
100
AcDbEllipse
10
68.307018
20
-0.224874
30
0
11
-1.43057542612234
21
0.451058699256398
31
0
210
0
220
0
230
1
40
0.996195
41
2.88876858954604
42
-2.96162262860129
0
ELLIPSE
5
93
100
AcDbEntity
8
1
62
256
6
ByLayer
370
-1
48
1
60
0
100
AcDbEllipse
10
68.30702
20
-0.224866
30
0
11
-1.43057542612234
21
0.451058699256398
31
0
210
0
220
0
230
1
40
0.996195
41
-1.03001670246278
42
2.88876858954607
0
ELLIPSE
5
94
100
AcDbEntity
8
1
62
256
6
ByLayer
370
-1
48
1
60
0
100
AcDbEllipse
10
68.542321
20
0.521412
30
0
11
0.0615082514473997
21
-2.76543863455721
31
0
210
0
220
0
230
-1
40
0.460969
41
-1.19897564343918
42
-1.12590623075606
0
ELLIPSE
5
95
100
AcDbEntity
8
1
62
256
6
ByLayer
370
-1
48
1
60
0
100
AcDbEllipse
10
68.221841
20
-0.49502
30
0
11
1.43057542612234
21
-0.451058699256408
31
0
210
0
220
0
230
1
40
0.996195
41
0.0948996669413886
42
0.306527475639302
0
ELLIPSE
5
96
100
AcDbEntity
8
1
62
256
6
ByLayer
370
-1
48
1
60
0
100
AcDbEllipse
10
68.221841
20
-0.49502
30
0
11
1.43057542612234
21
-0.451058699256408
31
0
210
0
220
0
230
1
40
0.996195
41
1.35291124294474
42
3.046720868994
0
ELLIPSE
5
97
100
AcDbEntity
8
1
62
256
6
ByLayer
370
-1
48
1
60
0
100
AcDbEllipse
10
68.221841
20
-0.49502
30
0
11
1.43057542612234
21
-0.451058699256408
31
0
210
0
220
0
230
1
40
0.996195
41
0.306527475639302
42
0.316087100456728
0
ELLIPSE
5
98
100
AcDbEntity
8
1
62
256
6
ByLayer
370
-1
48
1
60
0
100
AcDbEllipse
10
70.534285
20
11.254733
30
0
11
-3.05189424239435
21
0.962258558413655
31
0
210
0
220
0
230
1
40
0.996195
41
1.87513725501314
42
2.11331098204643
0
ELLIPSE
5
99
100
AcDbEntity
8
1
62
256
6
ByLayer
370
-1
48
1
60
0
100
AcDbEllipse
10
79.687292
20
4.860609
30
0
11
-3.05189424239428
21
0.962258558413636
31
0
210
0
220
0
230
1
40
0.996195
41
0.35809372562327
42
0.488979867887296
0
ELLIPSE
5
9A
100
AcDbEntity
8
1
62
256
6
ByLayer
370
-1
48
1
60
0
100
AcDbEllipse
10
42.050353
20
92.464213
30
0
11
51.6703240695507
21
-192.347154946471
31
-5.0094201209507E-14
210
2.46519032881566E-32
220
2.60436403249364E-16
230
-1
40
0.073557
41
1.06328573270573
42
1.11473212077158
0
ELLIPSE
5
9B
100
AcDbEntity
8
1
62
256
6
ByLayer
370
-1
48
1
60
0
100
AcDbEllipse
10
68.674219
20
0.93974
30
0
11
1.79745684606952
21
0.830968793771412
31
0
210
0
220
0
230
-1
40
0.243742
41
-2.16568365715775
42
-1.89323711676179
0
ELLIPSE
5
9C
100
AcDbEntity
8
1
62
256
6
ByLayer
370
-1
48
1
60
0
100
AcDbEllipse
10
74.244254
20
6.968591
30
0
11
-1.81653460596243
21
0.572751161216701
31
0
210
0
220
0
230
1
40
0.996195
41
0
42
6.28318530717959
0
ELLIPSE
5
9D
100
AcDbEntity
8
1
62
256
6
ByLayer
370
-1
48
1
60
0
100
AcDbEllipse
10
74.223617
20
6.903139
30
0
11
-1.71803967789303
21
0.541695829685699
31
0
210
0
220
0
230
1
40
0.996195
41
0
42
6.28318530717959
0
ELLIPSE
5
9E
100
AcDbEntity
8
1
62
256
6
ByLayer
370
-1
48
1
60
0
100
AcDbEllipse
10
74.230167
20
6.923913
30
0
11
1.79415300365672
21
-0.565694269116552
31
0
210
0
220
0
230
1
40
0.996195
41
-0.522432966402125
42
-9.47863674532173E-16
0
ELLIPSE
5
9F
100
AcDbEntity
8
1
62
256
6
ByLayer
370
-1
48
1
60
0
100
AcDbEllipse
10
74.230167
20
6.923913
30
0
11
1.79415300365672
21
-0.565694269116552
31
0
210
0
220
0
230
1
40
0.996195
41
0
42
0.306527802733999
0
ELLIPSE
5
A0
100
AcDbEntity
8
1
62
256
6
ByLayer
370
-1
48
1
60
0
100
AcDbEllipse
10
74.230167
20
6.923913
30
0
11
1.79415300365672
21
-0.565694269116552
31
0
210
0
220
0
230
1
40
0.996195
41
0.306527629820088
42
-2.61915177720925
0
ELLIPSE
5
A1
100
AcDbEntity
8
1
62
256
6
ByLayer
370
-1
48
1
60
0
100
AcDbEllipse
10
71.857107
20
8.636209
30
0
11
0.378506414828241
21
-0.11934261417827
31
0
210
0
220
0
230
1
40
0.996195
41
2.53072741539166
42
3.14159265358972
0
ELLIPSE
5
A2
100
AcDbEntity
8
1
62
256
6
ByLayer
370
-1
48
1
60
0
100
AcDbEllipse
10
76.631401
20
5.300973
30
0
11
0.378506414828241
21
-0.11934261417827
31
0
210
0
220
0
230
1
40
0.996195
41
-0.610865238198129
42
0
0
ELLIPSE
5
A3
100
AcDbEntity
8
1
62
256
6
ByLayer
370
-1
48
1
60
0
100
AcDbEllipse
10
73.37108
20
6.958391
30
0
11
-0.176437635888422
21
0.0556305729082893
31
0
210
0
220
0
230
1
40
0.996195
41
-1.08251881899101
42
-0.270221623240314
0
ELLIPSE
5
A4
100
AcDbEntity
8
1
62
256
6
ByLayer
370
-1
48
1
60
0
100
AcDbEllipse
10
73.858415
20
7.652758
30
0
11
-0.176437635888422
21
0.0556305729082893
31
0
210
0
220
0
230
1
40
0.996195
41
-2.12795888797774
42
-0.219154064291058
0
ELLIPSE
5
A5
100
AcDbEntity
8
1
62
256
6
ByLayer
370
-1
48
1
60
0
100
AcDbEllipse
10
74.318862
20
8.045723
30
0
11
-0.402468553215753
21
0.1268978473908
31
0
210
0
220
0
230
1
40
0.996195
41
1.01363376561162
42
1.7885334934642
0
ELLIPSE
5
A6
100
AcDbEntity
8
1
62
256
6
ByLayer
370
-1
48
1
60
0
100
AcDbEllipse
10
74.70431
20
7.577702
30
0
11
-0.176437635888422
21
0.0556305729082893
31
0
210
0
220
0
230
1
40
0.996195
41
-3.08233826949044
42
-0.578159432272732
0
ELLIPSE
5
A7
100
AcDbEntity
8
1
62
256
6
ByLayer
370
-1
48
1
60
0
100
AcDbEllipse
10
75.27696
20
7.376413
30
0
11
-0.402468553215753
21
0.1268978473908
31
0
210
0
220
0
230
1
40
0.996195
41
1.0037986285663E-05
42
0.742193921927496
0
ELLIPSE
5
A8
100
AcDbEntity
8
1
62
256
6
ByLayer
370
-1
48
1
60
0
100
AcDbEllipse
10
75.064315
20
6.810339
30
0
11
-0.176437635888422
21
0.0556305729082893
31
0
210
0
220
0
230
1
40
0.996195
41
-2.90428089205524
42
-1.6244990038098
0
ELLIPSE
5
A9
100
AcDbEntity
8
1
62
256
6
ByLayer
370
-1
48
1
60
0
100
AcDbEllipse
10
74.217697
20
6.884365
30
0
11
-0.713380279159671
21
0.22492793802919
31
0
210
0
220
0
230
1
40
0.996195
41
2.0392709157929
42
2.75372420940654
0
ELLIPSE
5
AA
100
AcDbEntity
8
1
62
256
6
ByLayer
370
-1
48
1
60
0
100
AcDbEllipse
10
74.239563
20
6.953713
30
0
11
0.713380279159668
21
-0.224927938029193
31
0
210
0
220
0
230
1
40
0.996195
41
2.79842868257326
42
2.87389138640827
0
ELLIPSE
5
AB
100
AcDbEntity
8
1
62
256
6
ByLayer
370
-1
48
1
60
0
100
AcDbEllipse
10
74.243906
20
6.967487
30
0
11
0.987097044024429
21
-0.311230502486926
31
0
210
0
220
0
230
1
40
0.996195
41
-1.87622894589384
42
-0.829889374357065
0
ELLIPSE
5
AC
100
AcDbEntity
8
1
62
256
6
ByLayer
370
-1
48
1
60
0
100
AcDbEllipse
10
75.175298
20
6.215403
30
0
11
-0.402468553215753
21
0.1268978473908
31
0
210
0
220
0
230
1
40
0.996195
41
1.00340492165526E-05
42
0.471653580792899
0
ELLIPSE
5
AD
100
AcDbEntity
8
1
62
256
6
ByLayer
370
-1
48
1
60
0
100
AcDbEllipse
10
74.243906
20
6.967487
30
0
11
0.987097044024429
21
-0.311230502486926
31
0
210
0
220
0
230
1
40
0.996195
41
-2.92256851743064
42
-1.87622894589384
0
ELLIPSE
5
AE
100
AcDbEntity
8
1
62
256
6
ByLayer
370
-1
48
1
60
0
100
AcDbEllipse
10
74.217697
20
6.884365
30
0
11
-0.713380279159671
21
0.22492793802919
31
0
210
0
220
0
230
1
40
0.996195
41
0.875831152277954
42
1.5482183936437
0
ELLIPSE
5
AF
100
AcDbEntity
8
1
62
256
6
ByLayer
370
-1
48
1
60
0
100
AcDbEllipse
10
74.239563
20
6.953713
30
0
11
0.713380279159668
21
-0.224927938029193
31
0
210
0
220
0
230
1
40
0.996195
41
-0.343163971014649
42
-0.267701267183193
0
ELLIPSE
5
B0
100
AcDbEntity
8
1
62
256
6
ByLayer
370
-1
48
1
60
0
100
AcDbEllipse
10
74.217697
20
6.884365
30
0
11
0.713380279159674
21
-0.224927938029196
31
0
210
0
220
0
230
1
40
0.996195
41
0.742193921927541
42
1.78853349346422
0
ELLIPSE
5
B1
100
AcDbEntity
8
1
62
256
6
ByLayer
370
-1
48
1
60
0
100
AcDbEllipse
10
74.217697
20
6.884365
30
0
11
-0.713380279159671
21
0.22492793802919
31
0
210
0
220
0
230
1
40
0.996195
41
-1.35305916012558
42
-0.343163971016563
0
ELLIPSE
5
B2
100
AcDbEntity
8
1
62
256
6
ByLayer
370
-1
48
1
60
0
100
AcDbEllipse
10
74.243906
20
6.967487
30
0
11
0.987097044024429
21
-0.311230502486926
31
0
210
0
220
0
230
1
40
0.996195
41
-0.829889374357065
42
0.219024136159161
0
ELLIPSE
5
B3
100
AcDbEntity
8
1
62
256
6
ByLayer
370
-1
48
1
60
0
100
AcDbEllipse
10
74.318862
20
8.045723
30
0
11
-0.402468553215753
21
0.1268978473908
31
0
210
0
220
0
230
1
40
0.996195
41
1.7885334934642
42
2.56343322131673
0
ELLIPSE
5
B4
100
AcDbEntity
8
1
62
256
6
ByLayer
370
-1
48
1
60
0
100
AcDbEllipse
10
74.243906
20
6.967487
30
0
11
0.987097044024429
21
-0.311230502486926
31
0
210
0
220
0
230
1
40
0.996195
41
2.31170327923251
42
-2.92256851743064
0
ELLIPSE
5
B5
100
AcDbEntity
8
1
62
256
6
ByLayer
370
-1
48
1
60
0
100
AcDbEllipse
10
74.243906
20
6.967487
30
0
11
0.987097044024429
21
-0.311230502486926
31
0
210
0
220
0
230
1
40
0.996195
41
0.219024136159161
42
1.26536370769572
0
ELLIPSE
5
B6
100
AcDbEntity
8
1
62
256
6
ByLayer
370
-1
48
1
60
0
100
AcDbEllipse
10
74.217697
20
6.884365
30
0
11
-0.713380279159671
21
0.22492793802919
31
0
210
0
220
0
230
1
40
0.996195
41
-0.26770126718153
42
0.494359953998404
0
ELLIPSE
5
B7
100
AcDbEntity
8
1
62
256
6
ByLayer
370
-1
48
1
60
0
100
AcDbEllipse
10
74.243906
20
6.967487
30
0
11
0.987097044024429
21
-0.311230502486926
31
0
210
0
220
0
230
1
40
0.996195
41
1.26536370769572
42
2.31170327923251
0
ELLIPSE
5
B8
100
AcDbEntity
8
1
62
256
6
ByLayer
370
-1
48
1
60
0
100
AcDbEllipse
10
74.217697
20
6.884365
30
0
11
-0.713380279159671
21
0.22492793802919
31
0
210
0
220
0
230
1
40
0.996195
41
2.98947723679886
42
-2.39939873166226
0
ELLIPSE
5
B9
100
AcDbEntity
8
1
62
256
6
ByLayer
370
-1
48
1
60
0
100
AcDbEllipse
10
75.27696
20
7.376413
30
0
11
-0.402468553215753
21
0.1268978473908
31
0
210
0
220
0
230
1
40
0.996195
41
0.742193921927496
42
1.51709364978001
0
ELLIPSE
5
BA
100
AcDbEntity
8
1
62
256
6
ByLayer
370
-1
48
1
60
0
100
AcDbEllipse
10
74.243906
20
6.967487
30
0
11
1.2398320359727
21
-0.390917539355556
31
0
210
0
220
0
230
1
40
0.996195
41
0
42
6.28318530717959
0
ELLIPSE
5
BB
100
AcDbEntity
8
1
62
256
6
ByLayer
370
-1
48
1
60
0
100
AcDbEllipse
10
74.239347
20
6.95303
30
0
11
1.64516174004069
21
-0.518717504144869
31
0
210
0
220
0
230
1
40
0.996195
41
0
42
6.28318530717959
0
ELLIPSE
5
BC
100
AcDbEntity
8
1
62
256
6
ByLayer
370
-1
48
1
60
0
100
AcDbEllipse
10
74.220318
20
6.892677
30
0
11
1.64516174004067
21
-0.518717504144864
31
0
210
0
220
0
230
1
40
0.996195
41
3.141547441092
42
0
0
ELLIPSE
5
BD
100
AcDbEntity
8
1
62
256
6
ByLayer
370
-1
48
1
60
0
100
AcDbEllipse
10
68.955246
20
-0.567317
30
0
11
0.378506414828234
21
-0.119342614178268
31
0
210
0
220
0
230
1
40
0.996195
41
-3.14159265358969
42
-0.610865238198101
0
ELLIPSE
5
BE
100
AcDbEntity
8
1
62
256
6
ByLayer
370
-1
48
1
60
0
100
AcDbEllipse
10
79.533261
20
14.504498
30
0
11
0.378506414828234
21
-0.119342614178268
31
0
210
0
220
0
230
1
40
0.996195
41
0
42
2.53072741539163
0
POINT
5
41
100
AcDbEntity
8
80
62
256
6
ByLayer
370
-1
48
1
60
0
100
AcDbPoint
10
0
20
0
30
0
39
0
210
0
220
0
230
1
50
360
0
POINT
5
43
100
AcDbEntity
8
81
62
256
6
ByLayer
370
-1
48
1
60
0
100
AcDbPoint
10
79.93
20
14.9
30
0
39
0
210
0
220
0
230
1
50
360
0
POINT
5
45
100
AcDbEntity
8
1
62
256
6
ByLayer
370
-1
48
1
60
0
100
AcDbPoint
10
-171.32
20
0
30
0
39
0
210
0
220
0
230
1
50
360
0
POINT
5
47
100
AcDbEntity
8
2
62
256
6
ByLayer
370
-1
48
1
60
0
100
AcDbPoint
10
79.93
20
14.9
30
0
39
0
210
0
220
0
230
1
50
360
0
POINT
5
49
100
AcDbEntity
8
2
62
256
6
ByLayer
370
-1
48
1
60
0
100
AcDbPoint
10
79.551327
20
13.823949
30
0
39
0
210
0
220
0
230
1
50
360
0
SPLINE
5
BF
100
AcDbEntity
8
1
62
256
6
ByLayer
370
-1
48
1
60
0
100
AcDbSpline
70
4
71
3
72
8
73
4
40
0
40
0
40
0
40
0
40
1
40
1
40
1
40
1
41
1
10
52.1044054829997
20
4.33878745302164
30
0
41
1
10
51.9955360537098
20
6.1207602829318
30
0
41
1
10
52.3775089951882
20
7.63607051181907
30
0
41
1
10
53.4544197269435
20
8.50874999999994
30
0
0
SPLINE
5
C0
100
AcDbEntity
8
1
62
256
6
ByLayer
370
-1
48
1
60
0
100
AcDbSpline
70
4
71
3
72
10
73
6
40
0
40
0
40
0
40
0
40
0.539614333243578
40
0.539614333243578
40
1
40
1
40
1
40
1
41
1
10
58.8021958829794
20
8.50874999999999
30
0
41
1
10
58.9400547099061
20
8.46915895789579
30
0
41
1
10
59.0806774787787
20
8.43884114893498
30
0
41
1
10
59.3442137350773
20
8.40055569294688
30
0
41
1
10
59.4672387066638
20
8.38997727683326
30
0
41
1
10
59.59040107492
20
8.38670835740169
30
0
0
SPLINE
5
C1
100
AcDbEntity
8
1
62
256
6
ByLayer
370
-1
48
1
60
0
100
AcDbSpline
70
4
71
3
72
8
73
4
40
0
40
0
40
0
40
0
40
1
40
1
40
1
40
1
41
1
10
60.1746426849999
20
-8.77166432422692
30
0
41
1
10
60.1996178798599
20
-8.75518063727574
30
0
41
1
10
60.2246177821121
20
-8.73858474723355
30
0
41
1
10
60.2496426849999
20
-8.72187795314193
30
0
0
SPLINE
5
C2
100
AcDbEntity
8
1
62
256
6
ByLayer
370
-1
48
1
60
0
100
AcDbSpline
70
4
71
3
72
8
73
4
40
0
40
0
40
0
40
0
40
1
40
1
40
1
40
1
41
1
10
60.2496426849999
20
-8.72187795314184
30
0
41
1
10
60.6090345762699
20
-8.83976487897667
30
0
41
1
10
60.9767885232184
20
-8.94187994532754
30
0
41
1
10
61.3530773413545
20
-9.03112984818964
30
0
0
SPLINE
5
C3
100
AcDbEntity
8
1
62
256
6
ByLayer
370
-1
48
1
60
0
100
AcDbSpline
70
4
71
3
72
8
73
4
40
0
40
0
40
0
40
0
40
1
40
1
40
1
40
1
41
1
10
60.2496426849902
20
-9.51745604883612
30
0
41
1
10
60.2250556625437
20
-9.52829249768487
30
0
41
1
10
60.2000454861258
20
-9.53931544680529
30
0
41
1
10
60.1746426849993
20
-9.5505114407741
30
0
0
SPLINE
5
C4
100
AcDbEntity
8
1
62
256
6
ByLayer
370
-1
48
1
60
0
100
AcDbSpline
70
4
71
3
72
28
73
24
40
-0.124999999999992
40
-0.124999999999992
40
0
40
0
40
0.125000000000003
40
0.125000000000003
40
0.187500000000005
40
0.187500000000005
40
0.250000000000007
40
0.250000000000007
40
0.37500000000001
40
0.37500000000001
40
0.500000000000014
40
0.500000000000014
40
0.625000000000017
40
0.625000000000017
40
0.687500000000019
40
0.687500000000019
40
0.718750000000018
40
0.718750000000018
40
0.750000000000016
40
0.750000000000016
40
0.875000000000008
40
0.875000000000008
40
1
40
1
40
1.125
40
1.125
41
1
10
59.4419111717773
20
3.2784393608911
30
0
41
1
10
58.4203912304682
20
2.77191606812221
30
0
41
1
10
57.8871468547828
20
2.59385138986812
30
0
41
1
10
57.068756721448
20
2.73186626364216
30
0
41
1
10
56.7946143235055
20
2.85842431379555
30
0
41
1
10
56.3923932453693
20
3.35190821280688
30
0
41
1
10
56.3025808423272
20
3.69654734542507
30
0
41
1
10
56.3603686920025
20
4.62170253238835
30
0
41
1
10
56.7313802603449
20
5.08625827915125
30
0
41
1
10
57.5921215437986
20
5.75549300282307
30
0
41
1
10
58.1152769126758
20
5.98241962521689
30
0
41
1
10
59.2242874091992
20
6.29644624536868
30
0
41
1
10
59.8220159681943
20
6.3943957638393
30
0
41
1
10
60.753197610897
20
6.38501441501322
30
0
41
1
10
61.0783851337316
20
6.36959110245718
30
0
41
1
10
61.5099471645942
20
6.1546496755837
30
0
41
1
10
61.6369974621963
20
6.02344151142296
30
0
41
1
10
61.6812276886164
20
5.7019653327857
30
0
41
1
10
61.625514457711
20
5.54334778285116
30
0
41
1
10
61.2861441666869
20
4.83183073104141
30
0
41
1
10
60.8211272386861
20
4.39957884220649
30
0
41
1
10
59.9163534833829
20
3.61355874819188
30
0
41
1
10
59.4419111717773
20
3.2784393608911
30
0
41
1
10
58.4203912304682
20
2.77191606812221
30
0
0
SPLINE
5
C5
100
AcDbEntity
8
1
62
256
6
ByLayer
370
-1
48
1
60
0
100
AcDbSpline
70
4
71
3
72
10
73
6
40
0
40
0
40
0
40
0
40
0.5
40
0.5
40
1
40
1
40
1
40
1
41
1
10
60.1746426849998
20
-8.7716643242276
30
0
41
1
10
59.028254139123
20
-8.38754763259573
30
0
41
1
10
58.0200487946669
20
-7.85783720584692
30
0
41
1
10
56.2210994246068
20
-6.381534392416
30
0
41
1
10
55.4480266873928
20
-5.43676850615748
30
0
41
1
10
54.7970455933045
20
-4.33878745302212
30
0
0
SPLINE
5
C6
100
AcDbEntity
8
SK1
62
256
6
ByLayer
370
-1
48
1
60
0
100
AcDbSpline
70
4
71
3
72
8
73
4
40
0
40
0
40
0
40
0
40
1
40
1
40
1
40
1
41
1
10
-170.802499986183
20
8.50874999999999
30
0
41
1
10
-170.802576023436
20
8.50874999999999
30
0
41
1
10
-170.174914121567
20
8.50874999999999
30
0
41
1
10
-169.32
20
8.50874999999999
30
0
0
SPLINE
5
C7
100
AcDbEntity
8
SK1
62
256
6
ByLayer
370
-1
48
1
60
0
100
AcDbSpline
70
4
71
3
72
10
73
6
40
0
40
0
40
0
40
0
40
0.5
40
0.5
40
1
40
1
40
1
40
1
41
1
10
-169.32
20
4.33878745302189
30
0
41
1
10
-169.919233025873
20
2.95888879825199
30
0
41
1
10
-170.310991214146
20
1.50358877622818
30
0
41
1
10
-170.311508518976
20
-1.50048916054567
30
0
41
1
10
-169.920392105394
20
-2.95621969924952
30
0
41
1
10
-169.32
20
-4.33878745302189
30
0
0
SPLINE
5
C8
100
AcDbEntity
8
1
62
256
6
ByLayer
370
-1
48
1
60
0
100
AcDbSpline
70
4
71
3
72
18
73
14
40
0
40
0
40
0
40
0
40
0.204794030363377
40
0.204794030363377
40
0.381904278291734
40
0.381904278291734
40
0.560753247315999
40
0.560753247315999
40
0.715971800842711
40
0.715971800842711
40
0.920686660884014
40
0.920686660884014
40
1
40
1
40
1
40
1
41
1
10
74.0231765537106
20
7.84999834182071
30
0
41
1
10
74.0497062180604
20
7.81669158902852
30
0
41
1
10
74.0818675773731
20
7.78651837251613
30
0
41
1
10
74.1504266380803
20
7.74071659346041
30
0
41
1
10
74.1865094604394
20
7.72324431779867
30
0
41
1
10
74.2631572012037
20
7.69995055816276
30
0
41
1
10
74.3049438283904
20
7.69402819770374
30
0
41
1
10
74.3811441216516
20
7.69529029533069
30
0
41
1
10
74.416710523053
20
7.70080146973848
30
0
41
1
10
74.4936940788868
20
7.72285240333522
30
0
41
1
10
74.5347233372797
20
7.74256725366189
30
0
41
1
10
74.5849602899715
20
7.77650748198593
30
0
41
1
10
74.5984645078699
20
7.78683550381143
30
0
41
1
10
74.6112613302342
20
7.79781759518059
30
0
0
SPLINE
5
C9
100
AcDbEntity
8
1
62
256
6
ByLayer
370
-1
48
1
60
0
100
AcDbSpline
70
4
71
3
72
16
73
12
40
0
40
0
40
0
40
0
40
0.222985769661473
40
0.222985769661473
40
0.448297795656267
40
0.448297795656267
40
0.68486987904239
40
0.68486987904239
40
0.942599910836932
40
0.942599910836932
40
1
40
1
40
1
40
1
41
1
10
75.2747868546724
20
6.87734895423773
30
0
41
1
10
75.2763744086416
20
6.8958501523131
30
0
41
1
10
75.2750513714255
20
6.91473231214442
30
0
41
1
10
75.2669149397843
20
6.95042671257406
30
0
41
1
10
75.2599495291467
20
6.9676754196837
30
0
41
1
10
75.2412555895458
20
6.99912460664575
30
0
41
1
10
75.2290880681014
20
7.01353445139893
30
0
41
1
10
75.2005215959853
20
7.03838590927072
30
0
41
1
10
75.1834985407314
20
7.04868541858622
30
0
41
1
10
75.1616934093582
20
7.05753399086837
30
0
41
1
10
75.1576414207375
20
7.05901061600625
30
0
41
1
10
75.1535517057937
20
7.06033878424518
30
0
0
SPLINE
5
CA
100
AcDbEntity
8
1
62
256
6
ByLayer
370
-1
48
1
60
0
100
AcDbSpline
70
4
71
3
72
14
73
10
40
0
40
0
40
0
40
0
40
0.0093875603838055
40
0.0093875603838055
40
0.349291601702476
40
0.349291601702476
40
0.786065066329941
40
0.786065066329941
40
1
40
1
40
1
40
1
41
1
10
73.6431695820849
20
7.40464327162414
30
0
41
1
10
73.6436876308538
20
7.4055005250512
30
0
41
1
10
73.6442026265761
20
7.40635972588291
30
0
41
1
10
73.6630176550262
20
7.43800853033665
30
0
41
1
10
73.6774523615264
20
7.47161901998163
30
0
41
1
10
73.7001073408452
20
7.54873738968664
30
0
41
1
10
73.7059044665492
20
7.59358532500977
30
0
41
1
10
73.7052699302358
20
7.65805994572253
30
0
41
1
10
73.7035660465548
20
7.67920030267993
30
0
41
1
10
73.7004799275728
20
7.69989956484969
30
0
0
SPLINE
5
CB
100
AcDbEntity
8
1
62
256
6
ByLayer
370
-1
48
1
60
0
100
AcDbSpline
70
4
71
3
72
18
73
14
40
0
40
0
40
0
40
0
40
0.206371293723699
40
0.206371293723699
40
0.383203612309145
40
0.383203612309145
40
0.561756292942502
40
0.561756292942502
40
0.716916440611298
40
0.716916440611298
40
0.921907716844711
40
0.921907716844711
40
1
40
1
40
1
40
1
41
1
10
74.9032681227588
20
7.59382695174767
30
0
41
1
10
74.8888400221755
20
7.55262662002238
30
0
41
1
10
74.8799759792037
20
7.50815156444989
30
0
41
1
10
74.8766693950226
20
7.42384916613503
30
0
41
1
10
74.8804122461817
20
7.38330876849724
30
0
41
1
10
74.8996598295763
20
7.30482958855808
30
0
41
1
10
74.9156844489444
20
7.26579711186511
30
0
41
1
10
74.9547503515154
20
7.20125287790913
30
0
41
1
10
74.9770156911589
20
7.17383454381934
30
0
41
1
10
75.0335933931888
20
7.11996551255572
30
0
41
1
10
75.0703448474684
20
7.09559875570903
30
0
41
1
10
75.1232771207173
20
7.07115530398122
30
0
41
1
10
75.1383175778066
20
7.06528619139189
30
0
41
1
10
75.1535517057937
20
7.06033878424523
30
0
0
SPLINE
5
CC
100
AcDbEntity
8
1
62
256
6
ByLayer
370
-1
48
1
60
0
100
AcDbSpline
70
4
71
3
72
14
73
10
40
0
40
0
40
0
40
0
40
0.259398896919074
40
0.259398896919074
40
0.549757697290275
40
0.549757697290275
40
0.812558054387139
40
0.812558054387139
40
1
40
1
40
1
40
1
41
1
10
73.5809812512977
20
6.32984928388538
30
0
41
1
10
73.5748616954663
20
6.31253923067453
30
0
41
1
10
73.5714625532696
20
6.29367063723424
30
0
41
1
10
73.5711911656392
20
6.25297387021169
30
0
41
1
10
73.5751951880957
20
6.23040582573114
30
0
41
1
10
73.5909913117414
20
6.18980824883465
30
0
41
1
10
73.6022838774533
20
6.1709491428727
30
0
41
1
10
73.6266587741491
20
6.14290954181593
30
0
41
1
10
73.6385088094354
20
6.13224067266847
30
0
41
1
10
73.6513835537712
20
6.12324661003601
30
0
0
SPLINE
5
CD
100
AcDbEntity
8
1
62
256
6
ByLayer
370
-1
48
1
60
0
100
AcDbSpline
70
4
71
3
72
16
73
12
40
0
40
0
40
0
40
0
40
0.0599722207545998
40
0.0599722207545998
40
0.284635156527165
40
0.284635156527165
40
0.511888817843404
40
0.511888817843404
40
0.753389063554404
40
0.753389063554404
40
1
40
1
40
1
40
1
41
1
10
73.213024452506
20
7.05762428997093
30
0
41
1
10
73.2125942194922
20
7.05261039667437
30
0
41
1
10
73.2123674761838
20
7.04756515336362
30
0
41
1
10
73.2122621104297
20
7.02375049853541
30
0
41
1
10
73.2150887747866
20
7.00466184359081
30
0
41
1
10
73.2259252851991
20
6.96866428877345
30
0
41
1
10
73.2341186203742
20
6.95132036777622
30
0
41
1
10
73.2549926173324
20
6.91951679019911
30
0
41
1
10
73.2681675543229
20
6.90489666709442
30
0
41
1
10
73.2973776998729
20
6.88051091627091
30
0
41
1
10
73.3137748848554
20
6.87056490399763
30
0
41
1
10
73.3306976682635
20
6.86333745138765
30
0
0
SPLINE
5
CE
100
AcDbEntity
8
1
62
256
6
ByLayer
370
-1
48
1
60
0
100
AcDbSpline
70
4
71
3
72
18
73
14
40
0
40
0
40
0
40
0
40
0.20997125978888
40
0.20997125978888
40
0.386143370431198
40
0.386143370431198
40
0.563993238085564
40
0.563993238085564
40
0.719003882457692
40
0.719003882457692
40
0.924607733036358
40
0.924607733036358
40
1
40
1
40
1
40
1
41
1
10
74.4610728203459
20
6.07367789381246
30
0
41
1
10
74.4327159580405
20
6.1041772398282
30
0
41
1
10
74.3984854477555
20
6.13160478139267
30
0
41
1
10
74.327077001312
20
6.17230125920059
30
0
41
1
10
74.2903991007392
20
6.18752553312467
30
0
41
1
10
74.2132318850242
20
6.20797023063741
30
0
41
1
10
74.1715433986801
20
6.21330119340053
30
0
41
1
10
74.0960011229593
20
6.21277031554581
30
0
41
1
10
74.0609244154214
20
6.20829755081527
30
0
41
1
10
73.9851867152032
20
6.18971438111603
30
0
41
1
10
73.9450811181525
20
6.17274084156259
30
0
41
1
10
73.8970886131168
20
6.14349823531524
30
0
41
1
10
73.8847151165429
20
6.1349568336654
30
0
41
1
10
73.872988043822
20
6.12585864045241
30
0
0
SPLINE
5
CF
100
AcDbEntity
8
1
62
256
6
ByLayer
370
-1
48
1
60
0
100
AcDbSpline
70
4
71
3
72
20
73
16
40
0
40
0
40
0
40
0
40
0.0964394157962303
40
0.0964394157962303
40
0.295357556175134
40
0.295357556175134
40
0.457983177909086
40
0.457983177909086
40
0.621287440584286
40
0.621287440584286
40
0.776185928075976
40
0.776185928075976
40
0.998066199621243
40
0.998066199621243
40
1
40
1
40
1
40
1
41
1
10
73.5809812512977
20
6.32984928388535
30
0
41
1
10
73.587214904532
20
6.34748207818538
30
0
41
1
10
73.5922313694717
20
6.36580698584936
30
0
41
1
10
73.6034230502369
20
6.4234177790895
30
0
41
1
10
73.6052651920213
20
6.46522007048821
30
0
41
1
10
73.5961280000561
20
6.54229607070039
30
0
41
1
10
73.5872304532493
20
6.57822405993281
30
0
41
1
10
73.5602714123599
20
6.64706649878158
30
0
41
1
10
73.5417946721505
20
6.68083824557667
30
0
41
1
10
73.4995494961253
20
6.7395879199612
30
0
41
1
10
73.4756602531401
20
6.76565089856325
30
0
41
1
10
73.4138731328766
20
6.81979962368226
30
0
41
1
10
73.3733429282303
20
6.84498844333928
30
0
41
1
10
73.3314314211747
20
6.8630234855579
30
0
41
1
10
73.3310646074778
20
6.86318073746432
30
0
41
1
10
73.3306976682635
20
6.86333745138768
30
0
0
SPLINE
5
D0
100
AcDbEntity
8
1
62
256
6
ByLayer
370
-1
48
1
60
0
100
AcDbSpline
70
4
71
3
72
14
73
10
40
0
40
0
40
0
40
0
40
0.0486700747428528
40
0.0486700747428528
40
0.385450734979045
40
0.385450734979045
40
0.832326324378359
40
0.832326324378359
40
1
40
1
40
1
40
1
41
1
10
74.835956340031
20
6.50278345046277
30
0
41
1
10
74.8332948296464
20
6.49840404072924
30
0
41
1
10
74.8307187822934
20
6.49398563557628
30
0
41
1
10
74.8111697910653
20
6.45900715082311
30
0
41
1
10
74.7982317194368
20
6.42662381780215
30
0
41
1
10
74.7786822859082
20
6.35235283094465
30
0
41
1
10
74.7750308841722
20
6.30955174536854
30
0
41
1
10
74.7789312513571
20
6.25365979091211
30
0
41
1
10
74.7809142090357
20
6.23854296193414
30
0
41
1
10
74.7837520789986
20
6.2237215881577
30
0
0
SPLINE
5
D1
100
AcDbEntity
8
1
62
256
6
ByLayer
370
-1
48
1
60
0
100
AcDbSpline
70
4
71
3
72
14
73
10
40
0
40
0
40
0
40
0
40
0.272963362060669
40
0.272963362060669
40
0.561623906431657
40
0.561623906431657
40
0.82304415077839
40
0.82304415077839
40
1
40
1
40
1
40
1
41
1
10
74.0231765537107
20
7.84999834182074
30
0
41
1
10
74.0102306346094
20
7.86625133776852
30
0
41
1
10
73.9942842610229
20
7.88070567354234
30
0
41
1
10
73.9572644995217
20
7.90392319743125
30
0
41
1
10
73.9353435446423
20
7.91263573506609
30
0
41
1
10
73.8918580347531
20
7.92049160997354
30
0
41
1
10
73.869792384345
20
7.92054069136339
30
0
41
1
10
73.8341666600379
20
7.91389692581095
30
0
41
1
10
73.8198660610162
20
7.90934034763583
30
0
41
1
10
73.8064268601063
20
7.90311858614604
30
0
0
SPLINE
5
D2
100
AcDbEntity
8
1
62
256
6
ByLayer
370
-1
48
1
60
0
100
AcDbSpline
70
4
71
3
72
14
73
10
40
0
40
0
40
0
40
0
40
0.276782676854275
40
0.276782676854275
40
0.564403872662646
40
0.564403872662646
40
0.82490502176984
40
0.82490502176984
40
1
40
1
40
1
40
1
41
1
10
73.3616735007707
20
7.21715986292131
30
0
41
1
10
73.3416675191054
20
7.21432737383378
30
0
41
1
10
73.321678170705
20
7.20787283929607
30
0
41
1
10
73.2843924434706
20
7.18759081340198
30
0
41
1
10
73.2666713178269
20
7.17312909353581
30
0
41
1
10
73.2393535583929
20
7.13966522092505
30
0
41
1
10
73.2287655680022
20
7.12069023776652
30
0
41
1
10
73.2173065400045
20
7.08674877240307
30
0
41
1
10
73.2142784880227
20
7.07223869674931
30
0
41
1
10
73.213024452506
20
7.05762428997093
30
0
0
SPLINE
5
D3
100
AcDbEntity
8
1
62
256
6
ByLayer
370
-1
48
1
60
0
100
AcDbSpline
70
4
71
3
72
16
73
12
40
0
40
0
40
0
40
0
40
0.173135099103038
40
0.173135099103038
40
0.396915178467875
40
0.396915178467875
40
0.629409538331278
40
0.629409538331278
40
0.881039249514606
40
0.881039249514606
40
1
40
1
40
1
40
1
41
1
10
74.6813844470721
20
6.03185465806263
30
0
41
1
10
74.6945358223501
20
6.03794316888946
30
0
41
1
10
74.7070361895588
20
6.04558805782992
30
0
41
1
10
74.7328194793599
20
6.06575630052151
30
0
41
1
10
74.7455734693914
20
6.07932941020513
30
0
41
1
10
74.7662451967054
20
6.10912658281393
30
0
41
1
10
74.7742306579137
20
6.12579920701995
30
0
41
1
10
74.7849187581306
20
6.16090857815027
30
0
41
1
10
74.7872871417014
20
6.17981118581781
30
0
41
1
10
74.786339985928
20
6.20671727465947
30
0
41
1
10
74.7853610708746
20
6.21531828909642
30
0
41
1
10
74.7837520789987
20
6.2237215881577
30
0
0
SPLINE
5
D4
100
AcDbEntity
8
1
62
256
6
ByLayer
370
-1
48
1
60
0
100
AcDbSpline
70
4
71
3
72
14
73
10
40
0
40
0
40
0
40
0
40
0.296478111464602
40
0.296478111464602
40
0.5900655245342
40
0.5900655245342
40
0.848468453349172
40
0.848468453349172
40
1
40
1
40
1
40
1
41
1
10
74.9032681227589
20
7.59382695174764
30
0
41
1
10
74.9108346875107
20
7.61543374440865
30
0
41
1
10
74.9148301017717
20
7.63902545927419
30
0
41
1
10
74.9140153623348
20
7.68602180577517
30
0
41
1
10
74.909207698843
20
7.71018619946773
30
0
41
1
10
74.8917954739366
20
7.75206104307506
30
0
41
1
10
74.8798982833771
20
7.77081056848854
30
0
41
1
10
74.8565805735295
20
7.79596209627621
30
0
41
1
10
74.8468613839561
20
7.80443788930947
30
0
41
1
10
74.8364277534073
20
7.81172663417254
30
0
0
SPLINE
5
D5
100
AcDbEntity
8
1
62
256
6
ByLayer
370
-1
48
1
60
0
100
AcDbSpline
70
4
71
3
72
12
73
8
40
0
40
0
40
0
40
0
40
0.459228006696365
40
0.459228006696365
40
0.841506800190504
40
0.841506800190504
40
1
40
1
40
1
40
1
41
1
10
75.1225585057936
20
6.70646129008452
30
0
41
1
10
75.079733035978
20
6.69687508225982
30
0
41
1
10
75.0367453828447
20
6.68060054801373
30
0
41
1
10
74.9629284634884
20
6.63858694302607
30
0
41
1
10
74.9304830301071
20
6.61433643513703
30
0
41
1
10
74.8900568355445
20
6.57436894637794
30
0
41
1
10
74.8787595130917
20
6.56187066657191
30
0
41
1
10
74.8682632268919
20
6.54881509478759
30
0
0
SPLINE
5
D6
100
AcDbEntity
8
1
62
256
6
ByLayer
370
-1
48
1
60
0
100
AcDbSpline
70
4
71
3
72
16
73
12
40
0
40
0
40
0
40
0
40
0.111620240067871
40
0.111620240067871
40
0.419598925028039
40
0.419598925028039
40
0.698426837363529
40
0.698426837363529
40
0.94525605134768
40
0.94525605134768
40
1
40
1
40
1
40
1
41
1
10
74.4610728203439
20
6.07367789381118
30
0
41
1
10
74.4666162288893
20
6.06771565675143
30
0
41
1
10
74.4726330695019
20
6.06205754056558
30
0
41
1
10
74.4966829613905
20
6.04236764343159
30
0
41
1
10
74.5179643395161
20
6.03060044525739
30
0
41
1
10
74.5619859079004
20
6.01652427622378
30
0
41
1
10
74.5850993266831
20
6.01325067274314
30
0
41
1
10
74.6284157699155
20
6.01501582377483
30
0
41
1
10
74.6492783014194
20
6.01919559058433
30
0
41
1
10
74.6729194504274
20
6.02812127112929
30
0
41
1
10
74.677191613649
20
6.02991355980092
30
0
41
1
10
74.6813844470721
20
6.03185465806263
30
0
0
SPLINE
5
D7
100
AcDbEntity
8
1
62
256
6
ByLayer
370
-1
48
1
60
0
100
AcDbSpline
70
4
71
3
72
16
73
12
40
0
40
0
40
0
40
0
40
0.0585411973786247
40
0.0585411973786247
40
0.282589289736026
40
0.282589289736026
40
0.50914961295465
40
0.50914961295465
40
0.749858286053854
40
0.749858286053854
40
1
40
1
40
1
40
1
41
1
10
73.8064268601063
20
7.90311858614604
30
0
41
1
10
73.8019474175035
20
7.90104480038534
30
0
41
1
10
73.7975451084939
20
7.89878152130598
30
0
41
1
10
73.7769081296261
20
7.88707424035707
30
0
41
1
10
73.7618261867072
20
7.87503897585751
30
0
41
1
10
73.7362965842443
20
7.84740679619875
30
0
41
1
10
73.725566770577
20
7.83142964181073
30
0
41
1
10
73.7089920672495
20
7.79687922750404
30
0
41
1
10
73.7032684515903
20
7.77778224153454
30
0
41
1
10
73.6975156149387
20
7.7390722706819
30
0
41
1
10
73.6976276508724
20
7.71903039666248
30
0
41
1
10
73.7004799275728
20
7.69989956484969
30
0
0
SPLINE
5
D8
100
AcDbEntity
8
1
62
256
6
ByLayer
370
-1
48
1
60
0
100
AcDbSpline
70
4
71
3
72
16
73
12
40
0
40
0
40
0
40
0
40
0.187452806481992
40
0.187452806481992
40
0.486151295012084
40
0.486151295012084
40
0.756101880422446
40
0.756101880422446
40
0.996622614086697
40
0.996622614086697
40
1
40
1
40
1
40
1
41
1
10
75.1225585057954
20
6.70646129008298
30
0
41
1
10
75.1365073599121
20
6.7095836519631
30
0
41
1
10
75.1503905534036
20
6.7143011857369
30
0
41
1
10
75.1848071033458
20
6.73051167717853
30
0
41
1
10
75.2050093220183
20
6.74473318726828
30
0
41
1
10
75.237206088418
20
6.77814003830619
30
0
41
1
10
75.2502668331252
20
6.79725996177137
30
0
41
1
10
75.2675955883989
20
6.8362875930267
30
0
41
1
10
75.2728959140102
20
6.85644933301541
30
0
41
1
10
75.2747370851179
20
6.87677688848754
30
0
41
1
10
75.2747623093784
20
6.87706290579266
30
0
41
1
10
75.2747868546724
20
6.87734895423773
30
0
0
SPLINE
5
D9
100
AcDbEntity
8
1
62
256
6
ByLayer
370
-1
48
1
60
0
100
AcDbSpline
70
4
71
3
72
16
73
12
40
0
40
0
40
0
40
0
40
0.0489896025881229
40
0.0489896025881229
40
0.273851193967851
40
0.273851193967851
40
0.500681541695327
40
0.500681541695327
40
0.741252041701077
40
0.741252041701077
40
1
40
1
40
1
40
1
41
1
10
73.6513835537712
20
6.12324661003601
30
0
41
1
10
73.6547685205884
20
6.12088193367663
30
0
41
1
10
73.6582334072185
20
6.11862320063176
30
0
41
1
10
73.6778363015935
20
6.10672040069355
30
0
41
1
10
73.6955687457781
20
6.09926036360744
30
0
41
1
10
73.7315654834543
20
6.08988547595803
30
0
41
1
10
73.7502890510822
20
6.08788650184181
30
0
41
1
10
73.7873242617101
20
6.08917038408086
30
0
41
1
10
73.806007855526
20
6.09277721607302
30
0
41
1
10
73.8414505014163
20
6.1052121813108
30
0
41
1
10
73.8583996729266
20
6.11454057155069
30
0
41
1
10
73.8729880438221
20
6.12585864045226
30
0
0
SPLINE
5
DA
100
AcDbEntity
8
1
62
256
6
ByLayer
370
-1
48
1
60
0
100
AcDbSpline
70
4
71
3
72
12
73
8
40
0
40
0
40
0
40
0
40
0.396609916559392
40
0.396609916559392
40
0.789893543412778
40
0.789893543412778
40
1
40
1
40
1
40
1
41
1
10
73.3616735007709
20
7.21715986291954
30
0
41
1
10
73.3976867276003
20
7.22225869154525
30
0
41
1
10
73.4337942531047
20
7.23247829903158
30
0
41
1
10
73.5025449426924
20
7.26364611326329
30
0
41
1
10
73.5359907025074
20
7.2849832760476
30
0
41
1
10
73.581889168015
20
7.32573824423318
30
0
41
1
10
73.5970458781601
20
7.34156072715808
30
0
41
1
10
73.6108626952224
20
7.35861162729719
30
0
0
SPLINE
5
DB
100
AcDbEntity
8
1
62
256
6
ByLayer
370
-1
48
1
60
0
100
AcDbSpline
70
4
71
3
72
16
73
12
40
0
40
0
40
0
40
0
40
0.0821682052509604
40
0.0821682052509604
40
0.306467751590543
40
0.306467751590543
40
0.53459919354264
40
0.53459919354264
40
0.777982336097463
40
0.777982336097463
40
1
40
1
40
1
40
1
41
1
10
74.8364277534073
20
7.81172663417254
30
0
41
1
10
74.8307674115931
20
7.81568084619192
30
0
41
1
10
74.8248690167239
20
7.81931032053905
30
0
41
1
10
74.8023177902762
20
7.83144272445904
30
0
41
1
10
74.784253332607
20
7.83770671436383
30
0
41
1
10
74.7476102577118
20
7.84435250778481
30
0
41
1
10
74.7285654686627
20
7.84473186439337
30
0
41
1
10
74.6909132373825
20
7.83983895945786
30
0
41
1
10
74.6719465424028
20
7.83414645819002
30
0
41
1
10
74.6389032934581
20
7.81855423411929
30
0
41
1
10
74.6242359245784
20
7.80895224849618
30
0
41
1
10
74.6112613302341
20
7.79781759518067
30
0
0
LINE
5
4A
100
AcDbEntity
8
1
62
256
6
ByLayer
370
-1
48
1
60
0
100
AcDbLine
10
76.873264
20
4.986937
30
0
11
69.197109
21
-0.881353
31
0
39
0
210
0
220
0
230
1
0
LINE
5
4B
100
AcDbEntity
8
1
62
256
6
ByLayer
370
-1
48
1
60
0
100
AcDbLine
10
68.57674
20
-0.447974
30
0
11
71.4786
21
8.755551
31
0
39
0
210
0
220
0
230
1
0
LINE
5
4C
100
AcDbEntity
8
80
62
256
6
ByLayer
370
-1
48
1
60
0
100
AcDbLine
10
0
20
0
30
0
11
-10
21
0
31
0
39
0
210
0
220
0
230
1
0
LINE
5
4D
100
AcDbEntity
8
1
62
256
6
ByLayer
370
-1
48
1
60
0
100
AcDbLine
10
79.911768
20
14.385156
30
0
11
77.009907
21
5.181631
31
0
39
0
210
0
220
0
230
1
0
LINE
5
4E
100
AcDbEntity
8
1
62
256
6
ByLayer
370
-1
48
1
60
0
100
AcDbLine
10
74.795168
20
6.41315
30
0
11
74.772829
21
6.3423
31
0
39
0
210
0
220
0
230
1
0
LINE
5
4F
100
AcDbEntity
8
1
62
256
6
ByLayer
370
-1
48
1
60
0
100
AcDbLine
10
75.86548
20
6.373959
30
0
11
75.884509
21
6.434312
31
0
39
0
210
0
220
0
230
1
0
LINE
5
50
100
AcDbEntity
8
1
62
256
6
ByLayer
370
-1
48
1
60
0
100
AcDbLine
10
72.594186
20
7.471747
30
0
11
72.575156
21
7.411394
31
0
39
0
210
0
220
0
230
1
0
LINE
5
51
100
AcDbEntity
8
1
62
256
6
ByLayer
370
-1
48
1
60
0
100
AcDbLine
10
74.898756
20
7.580268
30
0
11
74.874492
21
7.503311
31
0
39
0
210
0
220
0
230
1
0
LINE
5
52
100
AcDbEntity
8
1
62
256
6
ByLayer
370
-1
48
1
60
0
100
AcDbLine
10
73.662566
20
7.426429
30
0
11
73.684883
21
7.497212
31
0
39
0
210
0
220
0
230
1
0
LINE
5
53
100
AcDbEntity
8
1
62
256
6
ByLayer
370
-1
48
1
60
0
100
AcDbLine
10
0
20
-9.99125
30
0
11
59.174643
21
-9.99125
31
0
39
0
210
0
220
0
230
1
0
LINE
5
54
100
AcDbEntity
8
SK1
62
256
6
ByLayer
370
-1
48
1
60
0
100
AcDbLine
10
-169.32
20
-9.99125
30
0
11
0
21
-9.99125
31
0
39
0
210
0
220
0
230
1
0
LINE
5
56
100
AcDbEntity
8
SK1
62
256
6
ByLayer
370
-1
48
1
60
0
100
AcDbLine
10
-170.8025
20
8.50875
30
0
11
-171.32
21
7.99125
31
0
39
0
210
0
220
0
230
1
0
LINE
5
57
100
AcDbEntity
8
SK1
62
256
6
ByLayer
370
-1
48
1
60
0
100
AcDbLine
10
-171.32
20
-7.99125
30
0
11
-169.32
21
-9.99125
31
0
39
0
210
0
220
0
230
1
0
LINE
5
58
100
AcDbEntity
8
81
62
256
6
ByLayer
370
-1
48
1
60
0
100
AcDbLine
10
79.93
20
14.9
30
0
11
89.93
21
14.9
31
0
39
0
210
0
220
0
230
1
0
LINE
5
59
100
AcDbEntity
8
SK4
62
256
6
ByLayer
370
-1
48
0.05
60
0
100
AcDbLine
10
-176.32
20
0
30
0
11
84.551327
21
0
31
0
39
0
210
0
220
0
230
1
0
LINE
5
5B
100
AcDbEntity
8
4
62
256
6
ByLayer
370
-1
48
0.05
60
0
100
AcDbLine
10
0
20
0
30
0
11
84.551327
21
0
31
0
39
0
210
0
220
0
230
1
0
LINE
5
5D
100
AcDbEntity
8
1
62
256
6
ByLayer
370
-1
48
1
60
0
100
AcDbLine
10
0
20
-4.338787
30
0
11
54.797046
21
-4.338787
31
0
39
0
210
0
220
0
230
1
0
LINE
5
5E
100
AcDbEntity
8
1
62
256
6
ByLayer
370
-1
48
1
60
0
100
AcDbLine
10
0
20
8.50875
30
0
11
0
21
4.338787
31
0
39
0
210
0
220
0
230
1
0
LINE
5
5F
100
AcDbEntity
8
1
62
256
6
ByLayer
370
-1
48
1
60
0
100
AcDbLine
10
69.830778
20
3.529324
30
0
11
69.463383
21
2.38165
31
0
39
0
210
0
220
0
230
1
0
LINE
5
60
100
AcDbEntity
8
1
62
256
6
ByLayer
370
-1
48
1
60
0
100
AcDbLine
10
76.169717
20
4.019875
30
0
11
76.407697
21
3.853626
31
0
39
0
210
0
220
0
230
1
0
LINE
5
61
100
AcDbEntity
8
1
62
256
6
ByLayer
370
-1
48
1
60
0
100
AcDbLine
10
68.976812
20
2.009681
30
0
11
68.976809
21
2.009672
31
0
39
0
210
0
220
0
230
1
0
LINE
5
62
100
AcDbEntity
8
1
62
256
6
ByLayer
370
-1
48
1
60
0
100
AcDbLine
10
71.101725
20
7.560271
30
0
11
70.817282
21
7.758978
31
0
39
0
210
0
220
0
230
1
0
LINE
5
63
100
AcDbEntity
8
1
62
256
6
ByLayer
370
-1
48
1
60
0
100
AcDbLine
10
76.169714
20
4.019866
30
0
11
75.876349
21
4.224806
31
0
39
0
210
0
220
0
230
1
0
LINE
5
64
100
AcDbEntity
8
1
62
256
6
ByLayer
370
-1
48
1
60
0
100
AcDbLine
10
70.125053
20
8.312094
30
0
11
63.941482
21
8.325574
31
0
39
0
210
0
220
0
230
1
0
LINE
5
65
100
AcDbEntity
8
1
62
256
6
ByLayer
370
-1
48
1
60
0
100
AcDbLine
10
0
20
-4.338787
30
0
11
0
21
4.338787
31
0
39
0
210
0
220
0
230
1
0
LINE
5
66
100
AcDbEntity
8
1
62
256
6
ByLayer
370
-1
48
1
60
0
100
AcDbLine
10
67.955778
20
1.229118
30
0
11
67.912532
21
1.091958
31
0
39
0
210
0
220
0
230
1
0
LINE
5
67
100
AcDbEntity
8
1
62
256
6
ByLayer
370
-1
48
1
60
0
100
AcDbLine
10
69.427417
20
2.250062
30
0
11
67.912532
21
1.091958
31
0
39
0
210
0
220
0
230
1
0
LINE
5
68
100
AcDbEntity
8
1
62
256
6
ByLayer
370
-1
48
1
60
0
100
AcDbLine
10
52.104405
20
4.338787
30
0
11
0
21
4.338787
31
0
39
0
210
0
220
0
230
1
0
LINE
5
69
100
AcDbEntity
8
1
62
256
6
ByLayer
370
-1
48
1
60
0
100
AcDbLine
10
69.463383
20
2.38165
30
0
11
69.468861
21
2.381471
31
0
39
0
210
0
220
0
230
1
0
LINE
5
6A
100
AcDbEntity
8
1
62
256
6
ByLayer
370
-1
48
1
60
0
100
AcDbLine
10
68.976809
20
2.009672
30
0
11
70.817285
21
7.758986
31
0
39
0
210
0
220
0
230
1
0
LINE
5
6B
100
AcDbEntity
8
1
62
256
6
ByLayer
370
-1
48
1
60
0
100
AcDbLine
10
61.353077
20
-9.03113
30
0
11
67.836422
21
-6.17367
31
0
39
0
210
0
220
0
230
1
0
LINE
5
6C
100
AcDbEntity
8
1
62
256
6
ByLayer
370
-1
48
1
60
0
100
AcDbLine
10
60.174643
20
-8.771664
30
0
11
60.174643
21
-9.550511
31
0
39
0
210
0
220
0
230
1
0
LINE
5
6D
100
AcDbEntity
8
1
62
256
6
ByLayer
370
-1
48
1
60
0
100
AcDbLine
10
69.463383
20
2.38165
30
0
11
68.976809
21
2.009672
31
0
39
0
210
0
220
0
230
1
0
LINE
5
6E
100
AcDbEntity
8
1
62
256
6
ByLayer
370
-1
48
1
60
0
100
AcDbLine
10
76.407697
20
3.853626
30
0
11
74.119182
21
-3.404615
31
0
39
0
210
0
220
0
230
1
0
LINE
5
6F
100
AcDbEntity
8
1
62
256
6
ByLayer
370
-1
48
1
60
0
100
AcDbLine
10
76.169717
20
4.019875
30
0
11
69.579719
21
-1.018066
31
0
39
0
210
0
220
0
230
1
0
LINE
5
70
100
AcDbEntity
8
1
62
256
6
ByLayer
370
-1
48
1
60
0
100
AcDbLine
10
70.817285
20
7.758986
30
0
11
70.817282
21
7.758978
31
0
39
0
210
0
220
0
230
1
0
LINE
5
71
100
AcDbEntity
8
1
62
256
6
ByLayer
370
-1
48
1
60
0
100
AcDbLine
10
0
20
8.50875
30
0
11
53.45442
21
8.50875
31
0
39
0
210
0
220
0
230
1
0
LINE
5
72
100
AcDbEntity
8
1
62
256
6
ByLayer
370
-1
48
1
60
0
100
AcDbLine
10
70.534285
20
8.065815
30
0
11
70.377578
21
8.066157
31
0
39
0
210
0
220
0
230
1
0
LINE
5
73
100
AcDbEntity
8
1
62
256
6
ByLayer
370
-1
48
1
60
0
100
AcDbLine
10
0
20
-9.99125
30
0
11
0
21
-4.338787
31
0
39
0
210
0
220
0
230
1
0
LINE
5
74
100
AcDbEntity
8
1
62
256
6
ByLayer
370
-1
48
1
60
0
100
AcDbLine
10
76.542764
20
4.282005
30
0
11
76.407698
21
3.853629
31
0
39
0
210
0
220
0
230
1
0
LINE
5
75
100
AcDbEntity
8
1
62
256
6
ByLayer
370
-1
48
1
60
0
100
AcDbLine
10
59.174643
20
-9.99125
30
0
11
60.174643
21
-9.550511
31
0
39
0
210
0
220
0
230
1
0
LINE
5
76
100
AcDbEntity
8
1
62
256
6
ByLayer
370
-1
48
1
60
0
100
AcDbLine
10
67.955778
20
1.229118
30
0
11
68.976806
21
2.009676
31
0
39
0
210
0
220
0
230
1
0
LINE
5
77
100
AcDbEntity
8
1
62
256
6
ByLayer
370
-1
48
1
60
0
100
AcDbLine
10
53.45442
20
8.50875
30
0
11
58.802196
21
8.50875
31
0
39
0
210
0
220
0
230
1
0
LINE
5
78
100
AcDbEntity
8
1
62
256
6
ByLayer
370
-1
48
1
60
0
100
AcDbLine
10
70.817282
20
7.758978
30
0
11
68.976809
21
2.009672
31
0
39
0
210
0
220
0
230
1
0
LINE
5
79
100
AcDbEntity
8
1
62
256
6
ByLayer
370
-1
48
1
60
0
100
AcDbLine
10
63.941482
20
8.325574
30
0
11
67.836422
21
-6.17367
31
0
39
0
210
0
220
0
230
1
0
LINE
5
7A
100
AcDbEntity
8
1
62
256
6
ByLayer
370
-1
48
1
60
0
100
AcDbLine
10
61.353077
20
-9.03113
30
0
11
60.249643
21
-9.517456
31
0
39
0
210
0
220
0
230
1
0
LINE
5
7B
100
AcDbEntity
8
1
62
256
6
ByLayer
370
-1
48
1
60
0
100
AcDbLine
10
67.836422
20
-6.17367
30
0
11
74.119182
21
-3.404615
31
0
39
0
210
0
220
0
230
1
0
LINE
5
7C
100
AcDbEntity
8
1
62
256
6
ByLayer
370
-1
48
1
60
0
100
AcDbLine
10
60.249643
20
-8.721878
30
0
11
60.249643
21
-9.517456
31
0
39
0
210
0
220
0
230
1
0
LINE
5
7D
100
AcDbEntity
8
1
62
256
6
ByLayer
370
-1
48
1
60
0
100
AcDbLine
10
70.365483
20
8.074607
30
0
11
70.817285
21
7.758986
31
0
39
0
210
0
220
0
230
1
0
LINE
5
7E
100
AcDbEntity
8
SK1
62
256
6
ByLayer
370
-1
48
1
60
0
100
AcDbLine
10
-169.32
20
-4.338787
30
0
11
0
21
-4.338787
31
0
39
0
210
0
220
0
230
1
0
LINE
5
7F
100
AcDbEntity
8
SK1
62
256
6
ByLayer
370
-1
48
1
60
0
100
AcDbLine
10
0
20
-4.338787
30
0
11
0
21
4.338787
31
0
39
0
210
0
220
0
230
1
0
LINE
5
80
100
AcDbEntity
8
SK1
62
256
6
ByLayer
370
-1
48
1
60
0
100
AcDbLine
10
-169.32
20
4.338787
30
0
11
-169.32
21
8.50875
31
0
39
0
210
0
220
0
230
1
0
LINE
5
81
100
AcDbEntity
8
SK1
62
256
6
ByLayer
370
-1
48
1
60
0
100
AcDbLine
10
-169.32
20
8.50875
30
0
11
0
21
8.50875
31
0
39
0
210
0
220
0
230
1
0
LINE
5
82
100
AcDbEntity
8
1
62
256
6
ByLayer
370
-1
48
1
60
0
100
AcDbLine
10
74.759333
20
6.146276
30
0
11
74.783752
21
6.223722
31
0
39
0
210
0
220
0
230
1
0
LINE
5
83
100
AcDbEntity
8
1
62
256
6
ByLayer
370
-1
48
1
60
0
100
AcDbLine
10
75.129124
20
6.982865
30
0
11
75.153552
21
7.060339
31
0
39
0
210
0
220
0
230
1
0
LINE
5
84
100
AcDbEntity
8
1
62
256
6
ByLayer
370
-1
48
1
60
0
100
AcDbLine
10
74.586834
20
7.720344
30
0
11
74.611261
21
7.797818
31
0
39
0
210
0
220
0
230
1
0
LINE
5
85
100
AcDbEntity
8
1
62
256
6
ByLayer
370
-1
48
1
60
0
100
AcDbLine
10
73.998749
20
7.772525
30
0
11
74.023177
21
7.849998
31
0
39
0
210
0
220
0
230
1
0
LINE
5
86
100
AcDbEntity
8
1
62
256
6
ByLayer
370
-1
48
1
60
0
100
AcDbLine
10
73.337255
20
7.139714
30
0
11
73.361674
21
7.21716
31
0
39
0
210
0
220
0
230
1
0
LINE
5
87
100
AcDbEntity
8
1
62
256
6
ByLayer
370
-1
48
1
60
0
100
AcDbLine
10
71.615244
20
8.950245
30
0
11
79.291399
21
14.818534
31
0
39
0
210
0
220
0
230
1
0
LINE
5
88
100
AcDbEntity
8
SK1
62
256
6
ByLayer
370
-1
48
1
60
0
100
AcDbLine
10
0
20
4.338787
30
0
11
-169.32
21
4.338787
31
0
39
0
210
0
220
0
230
1
0
LINE
5
89
100
AcDbEntity
8
SK1
62
256
6
ByLayer
370
-1
48
1
60
0
100
AcDbLine
10
0
20
-9.99125
30
0
11
0
21
-4.338787
31
0
39
0
210
0
220
0
230
1
0
LINE
5
8A
100
AcDbEntity
8
SK1
62
256
6
ByLayer
370
-1
48
1
60
0
100
AcDbLine
10
0
20
8.50875
30
0
11
0
21
4.338787
31
0
39
0
210
0
220
0
230
1
0
LINE
5
8B
100
AcDbEntity
8
SK1
62
256
6
ByLayer
370
-1
48
1
60
0
100
AcDbLine
10
-169.32
20
-9.99125
30
0
11
-169.32
21
-4.338787
31
0
39
0
210
0
220
0
230
1
0
LINE
5
8C
100
AcDbEntity
8
SK1
62
256
6
ByLayer
370
-1
48
1
60
0
100
AcDbLine
10
-171.32
20
-7.99125
30
0
11
-171.32
21
7.99125
31
0
39
0
210
0
220
0
230
1
0
LINE
5
8D
100
AcDbEntity
8
2
62
256
6
ByLayer
370
-1
48
1
60
1
100
AcDbLine
10
79.93
20
0
30
0
11
79.931
21
0.001
31
0
39
0
210
0
220
0
230
1
0
MTEXT
5
DC
100
AcDbEntity
8
SK6
62
256
6
ByLayer
370
-1
48
1
60
0
100
AcDbMText
10
-42.32
20
-23.320625
30
0
210
0
220
0
230
1
1
\W00.761;\fsimplex.shx,bigfont.shx;A20S-SVQBR 11-EB1 
40
3.5
41
0
44
1.084337
50
0
71
7
72
5
7
DEFAULT
0
DIMENSION
5
10F
100
AcDbEntity
8
2
62
256
6
ByLayer
370
-3
48
1
60
0
100
AcDbDimension
2
DimnDraft3D1
10
92.18
20
0
30
0
11
92.18
21
2.849342
31
0
70
32
71
5
72
1
41
1
210
0
220
0
230
1
3
Standard
100
AcDbAlignedDimension
13
81.93
23
14.9
33
0
14
81.93
24
0
34
0
50
90
100
AcDbRotatedDimension
1001
ACAD
1000
DSTYLE
1002
{
1070
    74
1070
     0
1070
   279
1070
     0
1070
   172
1070
     1
1070
   173
1070
     1
1070
   340
1005
DD
1070
    77
1070
     1
1070
    73
1070
     0
1070
   171
1070
     4
1070
   274
1070
     4
1070
   177
1070
     2
1070
   176
1070
     2
1070
   178
1070
     7
1070
    78
1070
     8
1070
    41
1041
3.175
1070
   147
1041
2.25
1070
    42
1041
2.0
1070
    44
1041
2.0
1070
   140
1041
4.5
1070
   343
1005
110
1070
   344
1005
110
1002
}
0
DIMENSION
5
125
100
AcDbEntity
8
SK2
62
256
6
ByLayer
370
-3
48
1
60
0
100
AcDbDimension
2
DimnDraft3D2
10
-181.07
20
9.99125
30
0
11
-181.07
21
-4.784211
31
0
70
32
71
5
72
1
41
1
210
0
220
0
230
1
3
Standard
100
AcDbAlignedDimension
13
-173.32
23
-9.99125
33
0
14
-173.32
24
9.99125
34
0
50
90
100
AcDbRotatedDimension
1001
ACAD
1000
DSTYLE
1002
{
1070
    74
1070
     0
1070
   279
1070
     0
1070
   172
1070
     1
1070
   173
1070
     1
1070
   340
1005
DD
1070
    77
1070
     1
1070
    73
1070
     0
1070
   171
1070
     4
1070
   274
1070
     4
1070
   177
1070
     2
1070
   176
1070
     2
1070
   178
1070
     7
1070
    78
1070
     8
1070
    41
1041
3.175
1070
   147
1041
2.25
1070
    42
1041
2.0
1070
    44
1041
2.0
1070
   140
1041
4.5
1070
   343
1005
110
1070
   344
1005
110
1002
}
0
DIMENSION
5
133
100
AcDbEntity
8
SK2
62
256
6
ByLayer
370
-3
48
1
60
0
100
AcDbDimension
2
DimnDraft3D3
10
-171.32
20
27.65
30
0
11
-52.510132
21
27.65
31
0
70
32
71
5
72
1
41
1
210
0
220
0
230
1
3
Standard
100
AcDbAlignedDimension
13
79.93
23
16.9
33
0
14
-171.32
24
11.99125
34
0
50
0
100
AcDbRotatedDimension
1001
ACAD
1000
DSTYLE
1002
{
1070
   279
1070
     0
1070
   172
1070
     1
1070
   173
1070
     1
1070
   340
1005
DD
1070
    77
1070
     1
1070
    73
1070
     0
1070
   171
1070
     4
1070
   274
1070
     4
1070
   177
1070
     2
1070
   176
1070
     2
1070
   178
1070
     7
1070
    78
1070
     8
1070
    41
1041
3.175
1070
   147
1041
2.25
1070
    42
1041
2.0
1070
    44
1041
2.0
1070
   140
1041
4.5
1070
   343
1005
110
1070
   344
1005
110
1002
}
0
DIMENSION
5
141
100
AcDbEntity
8
2
62
256
6
ByLayer
370
-3
48
1
60
0
100
AcDbDimension
2
DimnDraft3D4
10
124.158455
20
0
30
0
11
94.300912
21
-41.417356
31
0
70
34
71
5
72
1
41
1
210
0
220
0
230
1
3
Standard
100
AcDb2LineAngularDimension
13
76.020825
23
2.50168
33
0
14
60.519594
24
-46.661944
34
0
15
81.93
25
0
35
0
16
100.319192
26
-34.214547
36
0
40
0
0
ENDSEC
0
SECTION
2
OBJECTS
0
DICTIONARY
5
172
330
0
100
AcDbDictionary
280
0
281
1
3
ACAD_GROUP
350
173
3
ACAD_MLINESTYLE
350
174
0
DICTIONARY
5
173
330
0
100
AcDbDictionary
280
0
281
1
0
DICTIONARY
5
174
330
0
100
AcDbDictionary
280
0
281
1
3
Standard
350
18
0
MLINESTYLE
5
18
330
174
100
AcDbMlineStyle
2
Standard
70
0
3

62
256
51
90
52
90
71
2
49
-0.5
62
256
6
ByLayer
49
0.5
62
256
6
ByLayer
0
RASTERVARIABLES
5
160
330

100
AcDbRasterVariables
90
0
70
1
71
1
72
1
0
ENDSEC
0
EOF
