0
SECTION
2
HEADER
9
$ACADVER
1
AC1015
9
$DWGCODEPAGE
3
ANSI_1252
9
$HANDSEED
5
184
9
$ANGBASE
50
0
9
$ANGDIR
70
0
9
$ATTMODE
70
1
9
$AUNITS
70
0
9
$AUPREC
70
0
9
$CECOLOR
62
256
9
$CELTSCALE
40
1
9
$CELTYPE
6
ByLayer
9
$CELWEIGHT
370
-1
9
$CLAYER
8
0
9
$CMLJUST
70
0
9
$CMLSCALE
40
1
9
$CMLSTYLE
2
Standard
9
$DIMSTYLE
2
Standard
9
$TEXTSIZE
40
0.2
9
$TEXTSTYLE
7
Standard
9
$LUNITS
70
2
9
$LUPREC
70
4
9
$EXTNAMES
290
1
9
$INSUNITS
70
4
9
$LTSCALE
40
1
9
$LWDISPLAY
290
0
9
$PDMODE
70
0
9
$PDSIZE
40
0
9
$PLINEGEN
70
0
0
ENDSEC
0
SECTION
2
CLASSES
0
CLASS
1
RASTERVARIABLES
2
AcDbRasterVariables
3
ISM
90
0
280
0
281
0
0
ENDSEC
0
SECTION
2
TABLES
0
TABLE
2
VPORT
5
17a
100
AcDbSymbolTable
0
VPORT
5
1
100
AcDbSymbolTableRecord
100
AcDbViewportTableRecord
2
*Active
70
0
10
0
20
0
11
1
21
1
12
-1
22
1
13
0
23
0
14
0.5
24
0.5
15
10
25
10
16
0
26
0
36
1
17
0
27
0
37
0
0
ENDTAB
0
TABLE
2
LTYPE
5
17b
100
AcDbSymbolTable
0
LTYPE
5
14
100
AcDbSymbolTableRecord
100
AcDbLinetypeTableRecord
70
0
2
ByBlock
3

72
65
73
0
40
0
0
LTYPE
5
15
100
AcDbSymbolTableRecord
100
AcDbLinetypeTableRecord
70
0
2
ByLayer
3

72
65
73
0
40
0
0
LTYPE
5
16
100
AcDbSymbolTableRecord
100
AcDbLinetypeTableRecord
70
0
2
CONTINUOUS
3
Solid line
72
65
73
0
40
0
0
LTYPE
5
3B
100
AcDbSymbolTableRecord
100
AcDbLinetypeTableRecord
70
0
2
DASHED
3
__ __ __ __ __ __ __ __ __
72
65
73
2
40
25.72
49
12.86
74
0
49
-12.86
74
0
0
LTYPE
5
3C
100
AcDbSymbolTableRecord
100
AcDbLinetypeTableRecord
70
0
2
HIDDEN
3
_ _ _ _ _ _ _ _ _ _ _ _ _ _ _
72
65
73
2
40
0.5
49
0.25
74
0
49
-0.25
74
0
0
LTYPE
5
3D
100
AcDbSymbolTableRecord
100
AcDbLinetypeTableRecord
70
0
2
PHANTOM
3
____ _ _ ____ _ _ _____ _ _ ____
72
65
73
6
40
50.5
49
18
74
0
49
-6.5
74
0
49
6.5
74
0
49
-6.5
74
0
49
6.5
74
0
49
-6.5
74
0
0
LTYPE
5
3E
100
AcDbSymbolTableRecord
100
AcDbLinetypeTableRecord
70
0
2
CENTER
3
____ _ ____ _ ____ _ ____
72
65
73
4
40
47.5
49
22
74
0
49
-8.5
74
0
49
8.5
74
0
49
-8.5
74
0
0
LTYPE
5
3F
100
AcDbSymbolTableRecord
100
AcDbLinetypeTableRecord
70
0
2
DOT
3
.........................
72
65
73
2
40
10
49
0
74
0
49
-10
74
0
0
LTYPE
5
40
100
AcDbSymbolTableRecord
100
AcDbLinetypeTableRecord
70
0
2
DASHDOT
3
_._._._._._._._._._._._._._._._.
72
65
73
4
40
70
49
31
74
0
49
-13
74
0
49
13
74
0
49
-13
74
0
0
ENDTAB
0
TABLE
2
LAYER
5
17c
100
AcDbSymbolTable
0
LAYER
5
10
100
AcDbSymbolTableRecord
100
AcDbLayerTableRecord
2
0
70
0
62
7
6
CONTINUOUS
290
1
370
-3
390
0
0
LAYER
5
42
100
AcDbSymbolTableRecord
100
AcDbLayerTableRecord
2
80
70
0
62
-6
6
CONTINUOUS
290
1
370
-3
390
0
0
LAYER
5
44
100
AcDbSymbolTableRecord
100
AcDbLayerTableRecord
2
81
70
0
62
-3
6
CONTINUOUS
290
1
370
-3
390
0
0
LAYER
5
46
100
AcDbSymbolTableRecord
100
AcDbLayerTableRecord
2
1
70
0
62
4
6
CONTINUOUS
290
1
370
-3
390
0
0
LAYER
5
48
100
AcDbSymbolTableRecord
100
AcDbLayerTableRecord
2
2
70
0
62
7
6
CONTINUOUS
290
1
370
-3
390
0
0
LAYER
5
4F
100
AcDbSymbolTableRecord
100
AcDbLayerTableRecord
2
4
70
0
62
-2
6
CENTER
290
1
370
-3
390
0
0
LAYER
5
166
100
AcDbSymbolTableRecord
100
AcDbLayerTableRecord
2
SK4
70
0
62
2
6
CENTER
290
1
370
-3
390
0
0
LAYER
5
167
100
AcDbSymbolTableRecord
100
AcDbLayerTableRecord
2
SK1
70
0
62
4
6
CONTINUOUS
290
1
370
-3
390
0
0
LAYER
5
168
100
AcDbSymbolTableRecord
100
AcDbLayerTableRecord
2
SK6
70
0
62
5
6
CONTINUOUS
290
1
370
-3
390
0
0
LAYER
5
169
100
AcDbSymbolTableRecord
100
AcDbLayerTableRecord
2
SK2
70
0
62
7
6
CONTINUOUS
290
1
370
-3
390
0
0
ENDTAB
0
TABLE
2
STYLE
5
17d
100
AcDbSymbolTable
0
STYLE
5
11
100
AcDbSymbolTableRecord
100
AcDbTextStyleTableRecord
2
Standard
3
txt
70
0
71
0
40
0
41
1
42
0
50
0
0
STYLE
5
E2
100
AcDbSymbolTableRecord
100
AcDbTextStyleTableRecord
2
DEFAULT
3
simplex.shx
70
0
71
0
40
0
41
1
42
0
50
0
0
STYLE
5
105
100
AcDbSymbolTableRecord
100
AcDbTextStyleTableRecord
2
DWGDirectTextStyle
3
SIMPLEX
70
0
71
0
40
0
41
1
42
0
50
0
0
ENDTAB
0
TABLE
2
DIMSTYLE
5
17e
100
AcDbSymbolTable
100
AcDbDimStyleTable
0
DIMSTYLE
105
27
100
AcDbSymbolTableRecord
100
AcDbDimStyleTableRecord
2
Standard
70
0
3
<>
41
0.18
42
0.0625
44
0.18
140
0.18
147
0.09
73
0
74
0
77
1
271
2
275
0
278
52
280
0
340
11
0
ENDTAB
0
TABLE
2
VIEW
5
17f
100
AcDbSymbolTable
0
ENDTAB
0
TABLE
2
UCS
5
180
100
AcDbSymbolTable
0
ENDTAB
0
TABLE
2
APPID
5
181
100
AcDbSymbolTable
0
APPID
5
12
100
AcDbSymbolTableRecord
100
AcDbRegAppTableRecord
2
ACAD
70
0
0
ENDTAB
0
TABLE
2
BLOCK_RECORD
5
182
100
AcDbSymbolTable
0
BLOCK_RECORD
5
1F
100
AcDbSymbolTableRecord
100
AcDbBlockTableRecord
2
*Model_Space
340
0
70
0
0
BLOCK_RECORD
5
1B
100
AcDbSymbolTableRecord
100
AcDbBlockTableRecord
2
*Paper_Space
340
0
70
0
0
BLOCK_RECORD
5
23
100
AcDbSymbolTableRecord
100
AcDbBlockTableRecord
2
*Paper_Space0
340
0
70
0
0
BLOCK_RECORD
5
107
100
AcDbSymbolTableRecord
100
AcDbBlockTableRecord
2
DimnDraft3D1
340
0
70
0
0
BLOCK_RECORD
5
115
100
AcDbSymbolTableRecord
100
AcDbBlockTableRecord
2
_CLOSED
340
0
70
0
0
BLOCK_RECORD
5
11C
100
AcDbSymbolTableRecord
100
AcDbBlockTableRecord
2
DimnDraft3D2
340
0
70
0
0
BLOCK_RECORD
5
12B
100
AcDbSymbolTableRecord
100
AcDbBlockTableRecord
2
DimnDraft3D3
340
0
70
0
0
BLOCK_RECORD
5
139
100
AcDbSymbolTableRecord
100
AcDbBlockTableRecord
2
DimnDraft3D4
340
0
70
0
0
ENDTAB
0
ENDSEC
0
SECTION
2
BLOCKS
0
BLOCK
5
20
100
AcDbEntity
8
0
100
AcDbBlockBegin
2
*Model_Space
70
0
10
0
20
0
30
0
3
*Model_Space
0
ENDBLK
5
21
100
AcDbEntity
8
0
100
AcDbBlockEnd
0
BLOCK
5
1C
100
AcDbEntity
8
0
100
AcDbBlockBegin
2
*Paper_Space
70
0
10
0
20
0
30
0
3
*Paper_Space
0
ENDBLK
5
1D
100
AcDbEntity
8
0
100
AcDbBlockEnd
0
BLOCK
5
24
100
AcDbEntity
8
0
100
AcDbBlockBegin
2
*Paper_Space0
70
0
10
0
20
0
30
0
3
*Paper_Space0
0
ENDBLK
5
25
100
AcDbEntity
8
0
100
AcDbBlockEnd
0
BLOCK
5
112
100
AcDbEntity
8
0
100
AcDbBlockBegin
2
DimnDraft3D1
70
0
10
0
20
0
30
0
3
DimnDraft3D1
0
MTEXT
5
108
100
AcDbEntity
8
2
62
256
6
ByLayer
370
-1
48
1
60
0
100
AcDbMText
10
91.055
20
-10.925658
30
0
210
0
220
0
230
1
1
\W01.000;\fsimplex.shx,bigfont.shx;15.0 
40
4.5
41
0
44
1.084337
50
90
71
7
72
5
7
DEFAULT
0
LINE
5
109
100
AcDbEntity
8
2
62
256
6
ByLayer
370
-1
48
1
60
0
100
AcDbLine
10
81.93
20
-14.9
30
0
11
94.18
21
-14.9
31
0
39
0
210
0
220
0
230
1
0
LINE
5
10A
100
AcDbEntity
8
2
62
256
6
ByLayer
370
-1
48
1
60
0
100
AcDbLine
10
81.93
20
0
30
0
11
94.18
21
0
31
0
39
0
210
0
220
0
230
1
0
LINE
5
10B
100
AcDbEntity
8
2
62
256
6
ByLayer
370
-1
48
1
60
0
100
AcDbLine
10
92.18
20
-26.15
30
0
11
92.18
21
11.25
31
0
39
0
210
0
220
0
230
1
0
LINE
5
10C
100
AcDbEntity
8
2
62
256
6
ByLayer
370
-1
48
1
60
0
100
AcDbLine
10
92.18
20
-14.9
30
0
11
92.597997
21
-18.074998
31
0
39
0
210
0
220
0
230
1
0
LINE
5
10D
100
AcDbEntity
8
2
62
256
6
ByLayer
370
-1
48
1
60
0
100
AcDbLine
10
92.18
20
-14.9
30
0
11
91.762003
21
-18.075002
31
0
39
0
210
0
220
0
230
1
0
LINE
5
10E
100
AcDbEntity
8
2
62
256
6
ByLayer
370
-1
48
1
60
0
100
AcDbLine
10
92.597997
20
-18.074998
30
0
11
91.762003
21
-18.075002
31
0
39
0
210
0
220
0
230
1
0
LINE
5
10F
100
AcDbEntity
8
2
62
256
6
ByLayer
370
-1
48
1
60
0
100
AcDbLine
10
92.18
20
0
30
0
11
91.762003
21
3.174998
31
0
39
0
210
0
220
0
230
1
0
LINE
5
110
100
AcDbEntity
8
2
62
256
6
ByLayer
370
-1
48
1
60
0
100
AcDbLine
10
92.18
20
0
30
0
11
92.597997
21
3.175002
31
0
39
0
210
0
220
0
230
1
0
LINE
5
111
100
AcDbEntity
8
2
62
256
6
ByLayer
370
-1
48
1
60
0
100
AcDbLine
10
91.762003
20
3.174998
30
0
11
92.597997
21
3.175002
31
0
39
0
210
0
220
0
230
1
0
ENDBLK
5
113
100
AcDbEntity
8
0
100
AcDbBlockEnd
0
BLOCK
5
116
100
AcDbEntity
8
0
100
AcDbBlockBegin
2
_CLOSED
70
0
10
0
20
0
30
0
3
_CLOSED
0
LINE
5
118
100
AcDbEntity
8
0
62
256
6
ByLayer
370
-2
48
1
60
0
100
AcDbLine
10
-1
20
0.166667
30
0
11
0
21
0
31
0
39
0
210
0
220
0
230
1
0
LINE
5
119
100
AcDbEntity
8
0
62
256
6
ByLayer
370
-2
48
1
60
0
100
AcDbLine
10
0
20
0
30
0
11
-1
21
-0.166667
31
0
39
0
210
0
220
0
230
1
0
LINE
5
11A
100
AcDbEntity
8
0
62
256
6
ByLayer
370
-2
48
1
60
0
100
AcDbLine
10
-1
20
0.166667
30
0
11
-1
21
-0.166667
31
0
39
0
210
0
220
0
230
1
0
LINE
5
11B
100
AcDbEntity
8
0
62
256
6
ByLayer
370
-2
48
1
60
0
100
AcDbLine
10
0
20
0
30
0
11
-1
21
0
31
0
39
0
210
0
220
0
230
1
0
ENDBLK
5
117
100
AcDbEntity
8
0
100
AcDbBlockEnd
0
BLOCK
5
128
100
AcDbEntity
8
0
100
AcDbBlockBegin
2
DimnDraft3D2
70
0
10
0
20
0
30
0
3
DimnDraft3D2
0
MTEXT
5
11D
100
AcDbEntity
8
SK2
62
256
6
ByLayer
370
-1
48
1
60
0
100
AcDbMText
10
-182.195
20
-3.659211
30
0
210
0
220
0
230
1
1
\W01.000;\fsimplex.shx,bigfont.shx;%%c20 
40
4.5
41
0
44
1.084337
50
90
71
7
72
5
7
DEFAULT
0
LINE
5
11F
100
AcDbEntity
8
SK2
62
256
6
ByLayer
370
-1
48
1
60
0
100
AcDbLine
10
-173.32
20
-9.99125
30
0
11
-183.07
21
-9.99125
31
0
39
0
210
0
220
0
230
1
0
LINE
5
120
100
AcDbEntity
8
SK2
62
256
6
ByLayer
370
-1
48
1
60
0
100
AcDbLine
10
-173.32
20
9.99125
30
0
11
-183.07
21
9.99125
31
0
39
0
210
0
220
0
230
1
0
LINE
5
121
100
AcDbEntity
8
SK2
62
256
6
ByLayer
370
-1
48
1
60
0
100
AcDbLine
10
-181.07
20
-9.99125
30
0
11
-181.07
21
9.99125
31
0
39
0
210
0
220
0
230
1
0
LINE
5
122
100
AcDbEntity
8
SK2
62
256
6
ByLayer
370
-1
48
1
60
0
100
AcDbLine
10
-181.07
20
-9.99125
30
0
11
-181.487997
21
-6.816252
31
0
39
0
210
0
220
0
230
1
0
LINE
5
123
100
AcDbEntity
8
SK2
62
256
6
ByLayer
370
-1
48
1
60
0
100
AcDbLine
10
-181.07
20
-9.99125
30
0
11
-180.652003
21
-6.816248
31
0
39
0
210
0
220
0
230
1
0
LINE
5
124
100
AcDbEntity
8
SK2
62
256
6
ByLayer
370
-1
48
1
60
0
100
AcDbLine
10
-181.487997
20
-6.816252
30
0
11
-180.652003
21
-6.816248
31
0
39
0
210
0
220
0
230
1
0
LINE
5
125
100
AcDbEntity
8
SK2
62
256
6
ByLayer
370
-1
48
1
60
0
100
AcDbLine
10
-181.07
20
9.99125
30
0
11
-180.652003
21
6.816252
31
0
39
0
210
0
220
0
230
1
0
LINE
5
126
100
AcDbEntity
8
SK2
62
256
6
ByLayer
370
-1
48
1
60
0
100
AcDbLine
10
-181.07
20
9.99125
30
0
11
-181.487997
21
6.816248
31
0
39
0
210
0
220
0
230
1
0
LINE
5
127
100
AcDbEntity
8
SK2
62
256
6
ByLayer
370
-1
48
1
60
0
100
AcDbLine
10
-180.652003
20
6.816252
30
0
11
-181.487997
21
6.816248
31
0
39
0
210
0
220
0
230
1
0
ENDBLK
5
129
100
AcDbEntity
8
0
100
AcDbBlockEnd
0
BLOCK
5
136
100
AcDbEntity
8
0
100
AcDbBlockBegin
2
DimnDraft3D3
70
0
10
0
20
0
30
0
3
DimnDraft3D3
0
MTEXT
5
12C
100
AcDbEntity
8
SK2
62
256
6
ByLayer
370
-1
48
1
60
0
100
AcDbMText
10
-51.385132
20
-31.025
30
0
210
0
220
0
230
1
1
\W01.000;\fsimplex.shx,bigfont.shx;250.0 
40
4.5
41
0
44
1.084337
50
0
71
7
72
5
7
DEFAULT
0
LINE
5
12D
100
AcDbEntity
8
SK2
62
256
6
ByLayer
370
-1
48
1
60
0
100
AcDbLine
10
-171.32
20
-11.99125
30
0
11
-171.32
21
-34.15
31
0
39
0
210
0
220
0
230
1
0
LINE
5
12E
100
AcDbEntity
8
SK2
62
256
6
ByLayer
370
-1
48
1
60
0
100
AcDbLine
10
79.93
20
-16.9
30
0
11
79.93
21
-34.15
31
0
39
0
210
0
220
0
230
1
0
LINE
5
12F
100
AcDbEntity
8
SK2
62
256
6
ByLayer
370
-1
48
1
60
0
100
AcDbLine
10
-171.32
20
-32.15
30
0
11
79.93
21
-32.15
31
0
39
0
210
0
220
0
230
1
0
LINE
5
130
100
AcDbEntity
8
SK2
62
256
6
ByLayer
370
-1
48
1
60
0
100
AcDbLine
10
-171.32
20
-32.15
30
0
11
-168.145002
21
-31.732003
31
0
39
0
210
0
220
0
230
1
0
LINE
5
131
100
AcDbEntity
8
SK2
62
256
6
ByLayer
370
-1
48
1
60
0
100
AcDbLine
10
-171.32
20
-32.15
30
0
11
-168.144998
21
-32.567997
31
0
39
0
210
0
220
0
230
1
0
LINE
5
132
100
AcDbEntity
8
SK2
62
256
6
ByLayer
370
-1
48
1
60
0
100
AcDbLine
10
-168.145002
20
-31.732003
30
0
11
-168.144998
21
-32.567997
31
0
39
0
210
0
220
0
230
1
0
LINE
5
133
100
AcDbEntity
8
SK2
62
256
6
ByLayer
370
-1
48
1
60
0
100
AcDbLine
10
79.93
20
-32.15
30
0
11
76.755002
21
-32.567997
31
0
39
0
210
0
220
0
230
1
0
LINE
5
134
100
AcDbEntity
8
SK2
62
256
6
ByLayer
370
-1
48
1
60
0
100
AcDbLine
10
79.93
20
-32.15
30
0
11
76.754998
21
-31.732003
31
0
39
0
210
0
220
0
230
1
0
LINE
5
135
100
AcDbEntity
8
SK2
62
256
6
ByLayer
370
-1
48
1
60
0
100
AcDbLine
10
76.755002
20
-32.567997
30
0
11
76.754998
21
-31.732003
31
0
39
0
210
0
220
0
230
1
0
ENDBLK
5
137
100
AcDbEntity
8
0
100
AcDbBlockEnd
0
BLOCK
5
144
100
AcDbEntity
8
0
100
AcDbBlockBegin
2
DimnDraft3D4
70
0
10
0
20
0
30
0
3
DimnDraft3D4
0
MTEXT
5
13A
100
AcDbEntity
8
2
62
256
6
ByLayer
370
-1
48
1
60
0
100
AcDbMText
10
91.882045
20
36.215882
30
0
210
0
220
0
230
1
1
\W01.000;\fsimplex.shx,bigfont.shx;107%%d30' 
40
4.5
41
0
44
1.084337
50
323.75
71
7
72
5
7
DEFAULT
0
LINE
5
13B
100
AcDbEntity
8
2
62
256
6
ByLayer
370
-1
48
1
60
0
100
AcDbLine
10
76.020825
20
-2.50168
30
0
11
63.225946
21
38.078491
31
0
39
0
210
0
220
0
230
1
0
LINE
5
13C
100
AcDbEntity
8
2
62
256
6
ByLayer
370
-1
48
1
60
0
100
AcDbLine
10
81.93
20
0
30
0
11
115.158455
21
0
31
0
39
0
210
0
220
0
230
1
0
ARC
5
13D
100
AcDbEntity
8
2
62
256
6
ByLayer
370
-1
48
1
60
0
100
AcDbCircle
39
0
10
75.232048
20
0
30
0
40
37.9264068640929
210
0
220
0
230
1
100
AcDbArc
50
0
51
107.5
0
LINE
5
13E
100
AcDbEntity
8
2
62
256
6
ByLayer
370
-1
48
1
60
0
100
AcDbLine
10
63.827358
20
36.171057
30
0
11
66.757385
21
37.463449
31
0
39
0
210
0
220
0
230
1
0
LINE
5
13F
100
AcDbEntity
8
2
62
256
6
ByLayer
370
-1
48
1
60
0
100
AcDbLine
10
63.827358
20
36.171057
30
0
11
66.992045
21
36.661066
31
0
39
0
210
0
220
0
230
1
0
LINE
5
140
100
AcDbEntity
8
2
62
256
6
ByLayer
370
-1
48
1
60
0
100
AcDbLine
10
66.757385
20
37.463449
30
0
11
66.992045
21
36.661066
31
0
39
0
210
0
220
0
230
1
0
LINE
5
141
100
AcDbEntity
8
2
62
256
6
ByLayer
370
-1
48
1
60
0
100
AcDbLine
10
113.158455
20
0
30
0
11
112.674145
21
3.165562
31
0
39
0
210
0
220
0
230
1
0
LINE
5
142
100
AcDbEntity
8
2
62
256
6
ByLayer
370
-1
48
1
60
0
100
AcDbLine
10
113.158455
20
0
30
0
11
113.509955
21
3.183049
31
0
39
0
210
0
220
0
230
1
0
LINE
5
143
100
AcDbEntity
8
2
62
256
6
ByLayer
370
-1
48
1
60
0
100
AcDbLine
10
112.674145
20
3.165562
30
0
11
113.509955
21
3.183049
31
0
39
0
210
0
220
0
230
1
0
ENDBLK
5
145
100
AcDbEntity
8
0
100
AcDbBlockEnd
0
ENDSEC
0
SECTION
2
ENTITIES
0
ELLIPSE
5
8E
100
AcDbEntity
8
1
62
256
6
ByLayer
370
-1
48
1
60
0
100
AcDbEllipse
10
68.663324
20
-0.605438
30
0
11
1.70437358423789
21
-0.632345507149626
31
0
210
0
220
0
230
-1
40
0.390518
41
1.31661025739619
42
1.45856482052598
0
ELLIPSE
5
8F
100
AcDbEntity
8
1
62
256
6
ByLayer
370
-1
48
1
60
0
100
AcDbEllipse
10
68.338622
20
0.424385
30
0
11
0.198650369685775
21
2.04043103549484
31
0
210
0
220
0
230
-1
40
0.671671
41
2.61717014501944
42
2.76940566528603
0
ELLIPSE
5
90
100
AcDbEntity
8
1
62
256
6
ByLayer
370
-1
48
1
60
0
100
AcDbEllipse
10
69.525294
20
-10.876812
30
0
11
3.73477618842242
21
2.04033415221042
31
0
210
0
220
0
230
-1
40
0.550985
41
-1.1583829796811
42
-1.11495934164783
0
ELLIPSE
5
91
100
AcDbEntity
8
1
62
256
6
ByLayer
370
-1
48
1
60
0
100
AcDbEllipse
10
64.631443
20
-9.518097
30
0
11
15.6548175610933
21
0.00247536161660624
31
0
210
0
220
0
230
-1
40
0.083318
41
-1.90704548165287
42
-1.59704597024095
0
ELLIPSE
5
92
100
AcDbEntity
8
1
62
256
6
ByLayer
370
-1
48
1
60
0
100
AcDbEllipse
10
68.703433
20
-0.732672
30
0
11
0.132066322833215
21
2.41609534069762
31
0
210
0
220
0
230
-1
40
0.545014
41
1.08519310082569
42
1.09281813617144
0
ELLIPSE
5
93
100
AcDbEntity
8
1
62
256
6
ByLayer
370
-1
48
1
60
0
100
AcDbEllipse
10
80.748653
20
-4.651964
30
0
11
4.00561119314249
21
1.26296435791791
31
0
210
0
220
0
230
1
40
0.995905
41
2.76134144689685
42
2.8566954659384
0
ELLIPSE
5
94
100
AcDbEntity
8
1
62
256
6
ByLayer
370
-1
48
1
60
0
100
AcDbEllipse
10
41.450548
20
-95.794207
30
0
11
51.4229929344998
21
191.389324308876
31
0
210
6.16297582203916E-31
220
2.60436403249364E-16
230
1
40
0.076304
41
1.0408341306505
42
1.09320362754155
0
ELLIPSE
5
95
100
AcDbEntity
8
1
62
256
6
ByLayer
370
-1
48
1
60
0
100
AcDbEllipse
10
69.332641
20
-0.574027
30
0
11
1.11621231019426
21
0.351940389536059
31
0
210
0
220
0
230
1
40
0.995905
41
0.610865238197996
42
0.75569590171027
0
ELLIPSE
5
96
100
AcDbEntity
8
1
62
256
6
ByLayer
370
-1
48
1
60
0
100
AcDbEllipse
10
68.414399
20
0.184051
30
0
11
1.43057542612234
21
0.451058699256405
31
0
210
0
220
0
230
1
40
0.995905
41
-3.06276961560365
42
-1.41402263890932
0
ELLIPSE
5
97
100
AcDbEntity
8
1
62
256
6
ByLayer
370
-1
48
1
60
0
100
AcDbEllipse
10
68.414399
20
0.184051
30
0
11
1.43057542612234
21
0.451058699256405
31
0
210
0
220
0
230
1
40
0.995905
41
-0.205196554894115
42
-0.0788455334863313
0
ELLIPSE
5
98
100
AcDbEntity
8
1
62
256
6
ByLayer
370
-1
48
1
60
0
100
AcDbEllipse
10
68.485084
20
-0.040133
30
0
11
1.43057542612234
21
0.451058699256405
31
0
210
0
220
0
230
1
40
0.995905
41
0.0236359421491369
42
-1.76353194713156
0
ELLIPSE
5
99
100
AcDbEntity
8
1
62
256
6
ByLayer
370
-1
48
1
60
0
100
AcDbEllipse
10
68.426633
20
0.145252
30
0
11
1.43057542612234
21
0.451058699256405
31
0
210
0
220
0
230
1
40
0.995905
41
-1.75325099187447
42
-1.41403888443298
0
ELLIPSE
5
9A
100
AcDbEntity
8
1
62
256
6
ByLayer
370
-1
48
1
60
0
100
AcDbEllipse
10
68.426633
20
0.145252
30
0
11
1.43057542612234
21
0.451058699256405
31
0
210
0
220
0
230
1
40
0.995905
41
-0.183551888756143
42
-0.0651088929907533
0
ELLIPSE
5
9B
100
AcDbEntity
8
1
62
256
6
ByLayer
370
-1
48
1
60
0
100
AcDbEllipse
10
69.942395
20
-12.199683
30
0
11
4.00561119314254
21
1.26296435791793
31
0
210
0
220
0
230
1
40
0.995905
41
0.933016038470513
42
1.18020483330899
0
ELLIPSE
5
9C
100
AcDbEntity
8
1
62
256
6
ByLayer
370
-1
48
1
60
0
100
AcDbEllipse
10
74.226546
20
-6.912499
30
0
11
1.78821928265298
21
0.563823374070521
31
0
210
0
220
0
230
1
40
0.995905
41
2.83498150800631
42
-9.51285829819884E-16
0
ELLIPSE
5
9D
100
AcDbEntity
8
1
62
256
6
ByLayer
370
-1
48
1
60
0
100
AcDbEllipse
10
74.226546
20
-6.912499
30
0
11
1.78821928265298
21
0.563823374070521
31
0
210
0
220
0
230
1
40
0.995905
41
0
42
0.486738799010331
0
ELLIPSE
5
9E
100
AcDbEntity
8
1
62
256
6
ByLayer
370
-1
48
1
60
0
100
AcDbEllipse
10
74.226546
20
-6.912499
30
0
11
1.78821928265298
21
0.563823374070521
31
0
210
0
220
0
230
1
40
0.995905
41
2.65473226184459
42
2.83498097268091
0
ELLIPSE
5
9F
100
AcDbEntity
8
1
62
256
6
ByLayer
370
-1
48
1
60
0
100
AcDbEllipse
10
74.222355
20
-6.89921
30
0
11
1.73992504334093
21
0.5485962589056
31
0
210
0
220
0
230
1
40
0.995905
41
0
42
6.28318530717959
0
ELLIPSE
5
A0
100
AcDbEntity
8
1
62
256
6
ByLayer
370
-1
48
1
60
0
100
AcDbEllipse
10
68.892328
20
0.767212
30
0
11
-0.180039806508033
21
-0.0567663329419877
31
0
210
0
220
0
230
1
40
0.995905
41
-1.84079020578943
42
-1.30079864325503
0
ELLIPSE
5
A1
100
AcDbEntity
8
1
62
256
6
ByLayer
370
-1
48
1
60
0
100
AcDbEllipse
10
68.95703
20
0.562005
30
0
11
-0.378625629447114
21
-0.119380202403215
31
0
210
0
220
0
230
1
40
0.995905
41
-2.53072741539173
42
-1.44613567288992E-13
0
ELLIPSE
5
A2
100
AcDbEntity
8
1
62
256
6
ByLayer
370
-1
48
1
60
0
100
AcDbEllipse
10
74.245032
20
-6.97113
30
0
11
1.81653460596242
21
0.572751161216704
31
0
210
0
220
0
230
1
40
0.995905
41
0
42
6.28318530717959
0
ELLIPSE
5
A3
100
AcDbEntity
8
1
62
256
6
ByLayer
370
-1
48
1
60
0
100
AcDbEllipse
10
76.632148
20
-5.303829
30
0
11
-0.378625629447144
21
-0.119380202403224
31
0
210
0
220
0
230
1
40
0.995905
41
3.14159265358979
42
-2.53072741539195
0
ELLIPSE
5
A4
100
AcDbEntity
8
1
62
256
6
ByLayer
370
-1
48
1
60
0
100
AcDbEllipse
10
79.533034
20
-14.504264
30
0
11
-0.378625629447146
21
-0.119380202403225
31
0
210
0
220
0
230
1
40
0.995905
41
0.610865238197995
42
3.14159265358947
0
ELLIPSE
5
A5
100
AcDbEntity
8
1
62
256
6
ByLayer
370
-1
48
1
60
0
100
AcDbEllipse
10
71.857916
20
-8.63843
30
0
11
-0.378625629447116
21
-0.119380202403215
31
0
210
0
220
0
230
1
40
0.995905
41
0
42
0.610865238198003
0
ELLIPSE
5
A6
100
AcDbEntity
8
1
62
256
6
ByLayer
370
-1
48
1
60
0
100
AcDbEllipse
10
74.242455
20
-6.962956
30
0
11
0.987097044024434
21
0.311230502486925
31
0
210
0
220
0
230
1
40
0.995905
41
-0.219024136159216
42
0.829889374357258
0
ELLIPSE
5
A7
100
AcDbEntity
8
1
62
256
6
ByLayer
370
-1
48
1
60
0
100
AcDbEllipse
10
75.1729
20
-6.20787
30
0
11
-0.402468553215753
21
-0.1268978473908
31
0
210
0
220
0
230
1
40
0.995905
41
-0.471653580792956
42
-1.11056464749314E-05
0
ELLIPSE
5
A8
100
AcDbEntity
8
1
62
256
6
ByLayer
370
-1
48
1
60
0
100
AcDbEllipse
10
74.316335
20
-8.037777
30
0
11
-0.402468553215753
21
-0.1268978473908
31
0
210
0
220
0
230
1
40
0.995905
41
-1.78853349346434
42
-1.01363376561194
0
ELLIPSE
5
A9
100
AcDbEntity
8
1
62
256
6
ByLayer
370
-1
48
1
60
0
100
AcDbEllipse
10
73.855932
20
-7.644955
30
0
11
-0.176437635888422
21
-0.0556305729082891
31
0
210
0
220
0
230
1
40
0.995905
41
0.227926690360961
42
2.12795888797783
0
ELLIPSE
5
AA
100
AcDbEntity
8
1
62
256
6
ByLayer
370
-1
48
1
60
0
100
AcDbEllipse
10
74.215269
20
-6.876735
30
0
11
-0.713380279159685
21
-0.224927938029194
31
0
210
0
220
0
230
1
40
0.995905
41
-2.75372455468833
42
-2.04722453672273
0
ELLIPSE
5
AB
100
AcDbEntity
8
1
62
256
6
ByLayer
370
-1
48
1
60
0
100
AcDbEllipse
10
74.215269
20
-6.876735
30
0
11
-0.713380279159685
21
-0.224927938029194
31
0
210
0
220
0
230
1
40
0.995905
41
-0.489372711433773
42
0.267701267181632
0
ELLIPSE
5
AC
100
AcDbEntity
8
1
62
256
6
ByLayer
370
-1
48
1
60
0
100
AcDbEllipse
10
74.215269
20
-6.876735
30
0
11
0.713380279159687
21
0.224927938029198
31
0
210
0
220
0
230
1
40
0.995905
41
-1.78853349346421
42
-0.74219392192753
0
ELLIPSE
5
AD
100
AcDbEntity
8
1
62
256
6
ByLayer
370
-1
48
1
60
0
100
AcDbEllipse
10
74.242455
20
-6.962956
30
0
11
0.987097044024434
21
0.311230502486925
31
0
210
0
220
0
230
1
40
0.995905
41
-1.26536370769584
42
-0.219024136159216
0
ELLIPSE
5
AE
100
AcDbEntity
8
1
62
256
6
ByLayer
370
-1
48
1
60
0
100
AcDbEllipse
10
74.701811
20
-7.569848
30
0
11
-0.176437635888422
21
-0.0556305729082891
31
0
210
0
220
0
230
1
40
0.995905
41
0.578159432272987
42
3.08233923165129
0
ELLIPSE
5
AF
100
AcDbEntity
8
1
62
256
6
ByLayer
370
-1
48
1
60
0
100
AcDbEllipse
10
74.242455
20
-6.962956
30
0
11
0.987097044024434
21
0.311230502486925
31
0
210
0
220
0
230
1
40
0.995905
41
-2.31170327923248
42
-1.26536370769584
0
ELLIPSE
5
B0
100
AcDbEntity
8
1
62
256
6
ByLayer
370
-1
48
1
60
0
100
AcDbEllipse
10
74.242455
20
-6.962956
30
0
11
0.987097044024434
21
0.311230502486925
31
0
210
0
220
0
230
1
40
0.995905
41
0.829889374357258
42
1.87622894589401
0
ELLIPSE
5
B1
100
AcDbEntity
8
1
62
256
6
ByLayer
370
-1
48
1
60
0
100
AcDbEllipse
10
74.242455
20
-6.962956
30
0
11
1.23983203597269
21
0.390917539355547
31
0
210
0
220
0
230
1
40
0.995905
41
0
42
6.28318530717959
0
ELLIPSE
5
B2
100
AcDbEntity
8
1
62
256
6
ByLayer
370
-1
48
1
60
0
100
AcDbEllipse
10
74.217988
20
-6.885357
30
0
11
1.64516174004071
21
0.51871750414487
31
0
210
0
220
0
230
1
40
0.995905
41
2.83498111233096
42
-3.14150638543846
0
ELLIPSE
5
B3
100
AcDbEntity
8
1
62
256
6
ByLayer
370
-1
48
1
60
0
100
AcDbEllipse
10
74.217988
20
-6.885357
30
0
11
1.64516174004071
21
0.51871750414487
31
0
210
0
220
0
230
1
40
0.995905
41
0
42
2.83498145775696
0
ELLIPSE
5
B4
100
AcDbEntity
8
1
62
256
6
ByLayer
370
-1
48
1
60
0
100
AcDbEllipse
10
74.23795
20
-6.948669
30
0
11
0.713380279159684
21
0.224927938029197
31
0
210
0
220
0
230
1
40
0.995905
41
-2.87389138640814
42
-2.79842868257329
0
ELLIPSE
5
B5
100
AcDbEntity
8
1
62
256
6
ByLayer
370
-1
48
1
60
0
100
AcDbEllipse
10
73.368668
20
-6.950812
30
0
11
-0.176437635888422
21
-0.0556305729082891
31
0
210
0
220
0
230
1
40
0.995905
41
0.279158557245103
42
1.08251881899067
0
ELLIPSE
5
B6
100
AcDbEntity
8
1
62
256
6
ByLayer
370
-1
48
1
60
0
100
AcDbEllipse
10
75.274463
20
-7.368564
30
0
11
-0.402468553215753
21
-0.1268978473908
31
0
210
0
220
0
230
1
40
0.995905
41
-0.742193921927589
42
-1.05993938433905E-05
0
ELLIPSE
5
B7
100
AcDbEntity
8
1
62
256
6
ByLayer
370
-1
48
1
60
0
100
AcDbEllipse
10
74.215269
20
-6.876735
30
0
11
-0.713380279159685
21
-0.224927938029194
31
0
210
0
220
0
230
1
40
0.995905
41
0.343163971016468
42
1.35305916012554
0
ELLIPSE
5
B8
100
AcDbEntity
8
1
62
256
6
ByLayer
370
-1
48
1
60
0
100
AcDbEllipse
10
74.215269
20
-6.876735
30
0
11
-0.713380279159685
21
-0.224927938029194
31
0
210
0
220
0
230
1
40
0.995905
41
2.39939873166224
42
-2.99383156808784
0
ELLIPSE
5
B9
100
AcDbEntity
8
1
62
256
6
ByLayer
370
-1
48
1
60
0
100
AcDbEllipse
10
74.316335
20
-8.037777
30
0
11
-0.402468553215753
21
-0.1268978473908
31
0
210
0
220
0
230
1
40
0.995905
41
-2.5634332213168
42
-1.78853349346434
0
ELLIPSE
5
BA
100
AcDbEntity
8
1
62
256
6
ByLayer
370
-1
48
1
60
0
100
AcDbEllipse
10
74.242455
20
-6.962956
30
0
11
0.987097044024434
21
0.311230502486925
31
0
210
0
220
0
230
1
40
0.995905
41
2.92256851743064
42
-2.31170327923248
0
ELLIPSE
5
BB
100
AcDbEntity
8
1
62
256
6
ByLayer
370
-1
48
1
60
0
100
AcDbEllipse
10
74.215269
20
-6.876735
30
0
11
-0.713380279159685
21
-0.224927938029194
31
0
210
0
220
0
230
1
40
0.995905
41
-1.54313431157851
42
-0.878022220169204
0
ELLIPSE
5
BC
100
AcDbEntity
8
1
62
256
6
ByLayer
370
-1
48
1
60
0
100
AcDbEllipse
10
74.23795
20
-6.948669
30
0
11
0.713380279159684
21
0.224927938029197
31
0
210
0
220
0
230
1
40
0.995905
41
0.267701267182091
42
0.343163971015901
0
ELLIPSE
5
BD
100
AcDbEntity
8
1
62
256
6
ByLayer
370
-1
48
1
60
0
100
AcDbEllipse
10
74.242455
20
-6.962956
30
0
11
0.987097044024434
21
0.311230502486925
31
0
210
0
220
0
230
1
40
0.995905
41
1.87622894589401
42
2.92256851743064
0
ELLIPSE
5
BE
100
AcDbEntity
8
1
62
256
6
ByLayer
370
-1
48
1
60
0
100
AcDbEllipse
10
74.237726
20
-6.94796
30
0
11
1.64516174004069
21
0.518717504144864
31
0
210
0
220
0
230
1
40
0.995905
41
0
42
6.28318530717959
0
ELLIPSE
5
BF
100
AcDbEntity
8
1
62
256
6
ByLayer
370
-1
48
1
60
0
100
AcDbEllipse
10
75.274463
20
-7.368564
30
0
11
-0.402468553215753
21
-0.1268978473908
31
0
210
0
220
0
230
1
40
0.995905
41
-1.51709364978008
42
-0.742193921927589
0
ELLIPSE
5
C0
100
AcDbEntity
8
1
62
256
6
ByLayer
370
-1
48
1
60
0
100
AcDbEllipse
10
75.06187
20
-6.802657
30
0
11
-0.176437635888422
21
-0.0556305729082891
31
0
210
0
220
0
230
1
40
0.995905
41
1.62449900381011
42
2.89574829709569
0
POINT
5
41
100
AcDbEntity
8
80
62
256
6
ByLayer
370
-1
48
1
60
0
100
AcDbPoint
10
0
20
0
30
0
39
0
210
0
220
0
230
1
50
360
0
POINT
5
43
100
AcDbEntity
8
81
62
256
6
ByLayer
370
-1
48
1
60
0
100
AcDbPoint
10
79.93
20
-14.9
30
0
39
0
210
0
220
0
230
1
50
360
0
POINT
5
45
100
AcDbEntity
8
1
62
256
6
ByLayer
370
-1
48
1
60
0
100
AcDbPoint
10
-171.32
20
0
30
0
39
0
210
0
220
0
230
1
50
360
0
POINT
5
47
100
AcDbEntity
8
2
62
256
6
ByLayer
370
-1
48
1
60
0
100
AcDbPoint
10
79.93
20
14.9
30
0
39
0
210
0
220
0
230
1
50
360
0
POINT
5
49
100
AcDbEntity
8
2
62
256
6
ByLayer
370
-1
48
1
60
0
100
AcDbPoint
10
79.634183
20
14.086806
30
0
39
0
210
0
220
0
230
1
50
360
0
SPLINE
5
C1
100
AcDbEntity
8
1
62
256
6
ByLayer
370
-1
48
1
60
0
100
AcDbSpline
70
4
71
3
72
8
73
4
40
0
40
0
40
0
40
0
40
1
40
1
40
1
40
1
41
1
10
60.1406382649997
20
8.60455494421984
30
0
41
1
10
60.5486322681182
20
8.74686301288685
30
0
41
1
10
60.9674162184276
20
8.86838185297802
30
0
41
1
10
61.3972607015928
20
8.97325413208588
30
0
0
SPLINE
5
C2
100
AcDbEntity
8
1
62
256
6
ByLayer
370
-1
48
1
60
0
100
AcDbSpline
70
4
71
3
72
8
73
4
40
0
40
0
40
0
40
0
40
1
40
1
40
1
40
1
41
1
10
58.2510363045442
20
-8.5087500000005
30
0
41
1
10
58.6438674342992
20
-8.37458272812432
30
0
41
1
10
59.0480859743656
20
-8.29986092264639
30
0
41
1
10
59.4659622975033
20
-8.28762556438798
30
0
0
SPLINE
5
C3
100
AcDbEntity
8
1
62
256
6
ByLayer
370
-1
48
1
60
0
100
AcDbSpline
70
4
71
3
72
8
73
4
40
0
40
0
40
0
40
0
40
1
40
1
40
1
40
1
41
1
10
52.1170305157204
20
-4.33878745302215
30
0
41
1
10
52.0252966470088
20
-6.13347666860309
30
0
41
1
10
52.4506423757193
20
-7.64257643215279
30
0
41
1
10
53.5591885783653
20
-8.50875000000048
30
0
0
SPLINE
5
C4
100
AcDbEntity
8
1
62
256
6
ByLayer
370
-1
48
1
60
0
100
AcDbSpline
70
4
71
3
72
8
73
4
40
0
40
0
40
0
40
0
40
1
40
1
40
1
40
1
41
1
10
69.9394464992162
20
0.300287467410357
30
0
41
1
10
69.9362366922946
20
0.323956266637111
30
0
41
1
10
69.9319014762111
20
0.347310752534184
30
0
41
1
10
69.9264453405488
20
0.370348973587426
30
0
0
SPLINE
5
C5
100
AcDbEntity
8
1
62
256
6
ByLayer
370
-1
48
1
60
0
100
AcDbSpline
70
4
71
3
72
8
73
4
40
0
40
0
40
0
40
0
40
1
40
1
40
1
40
1
41
1
10
69.9124360798075
20
0.421154296030807
30
0
41
1
10
69.9099723628347
20
0.428964762253656
30
0
41
1
10
69.9073747792773
20
0.436737172042001
30
0
41
1
10
69.9046435152556
20
0.444471444493871
30
0
0
SPLINE
5
C6
100
AcDbEntity
8
1
62
256
6
ByLayer
370
-1
48
1
60
0
100
AcDbSpline
70
4
71
3
72
8
73
4
40
0
40
0
40
0
40
0
40
1
40
1
40
1
40
1
41
1
10
60.1406382649895
20
9.52190061442928
30
0
41
1
10
60.1160625609696
20
9.53263046706354
30
0
41
1
10
60.0910521089428
20
9.5435501324512
30
0
41
1
10
60.0656382649992
20
9.55464592039539
30
0
0
SPLINE
5
C7
100
AcDbEntity
8
1
62
256
6
ByLayer
370
-1
48
1
60
0
100
AcDbSpline
70
4
71
3
72
28
73
24
40
-0.125000000000005
40
-0.125000000000005
40
0
40
0
40
0.124999999999998
40
0.124999999999998
40
0.187499999999997
40
0.187499999999997
40
0.249999999999996
40
0.249999999999996
40
0.374999999999994
40
0.374999999999994
40
0.499999999999993
40
0.499999999999993
40
0.624999999999992
40
0.624999999999992
40
0.687499999999991
40
0.687499999999991
40
0.71874999999999
40
0.71874999999999
40
0.74999999999999
40
0.74999999999999
40
0.874999999999995
40
0.874999999999995
40
1
40
1
40
1.125
40
1.125
41
1
10
59.6587119144666
20
-3.38840556559705
30
0
41
1
10
58.614373675695
20
-2.87029787946372
30
0
41
1
10
58.069269453938
20
-2.68492074087101
30
0
41
1
10
57.229905054725
20
-2.81085681211829
30
0
41
1
10
56.946277318094
20
-2.93427617373945
30
0
41
1
10
56.533236152324
20
-3.4272633653741
30
0
41
1
10
56.4416161141015
20
-3.77893211335191
30
0
41
1
10
56.5155760077239
20
-4.72375923022327
30
0
41
1
10
56.9040009569933
20
-5.18312456123144
30
0
41
1
10
57.789772119982
20
-5.85610457809045
30
0
41
1
10
58.3250467302422
20
-6.08664765726311
30
0
41
1
10
59.4581295115798
20
-6.40975905787337
30
0
41
1
10
60.0725048626433
20
-6.51352051139989
30
0
41
1
10
61.019978325925
20
-6.51420466141002
30
0
41
1
10
61.3502510174678
20
-6.50347843965559
30
0
41
1
10
61.7933488603188
20
-6.29396393350763
30
0
41
1
10
61.9253454920946
20
-6.16255286218379
30
0
41
1
10
61.9657366687886
20
-5.83438415422356
30
0
41
1
10
61.9050876765198
20
-5.67516520435717
30
0
41
1
10
61.5461100427576
20
-4.95647182896963
30
0
41
1
10
61.0697854635852
20
-4.52159281512115
30
0
41
1
10
60.1440160990855
20
-3.72838862522016
30
0
41
1
10
59.6587119144666
20
-3.38840556559705
30
0
41
1
10
58.614373675695
20
-2.87029787946372
30
0
0
SPLINE
5
C8
100
AcDbEntity
8
1
62
256
6
ByLayer
370
-1
48
1
60
0
100
AcDbSpline
70
4
71
3
72
8
73
4
40
0
40
0
40
0
40
0
40
1
40
1
40
1
40
1
41
1
10
60.0656382649998
20
8.65303906557239
30
0
41
1
10
60.0906140505094
20
8.63698980135175
30
0
41
1
10
60.1156144102516
20
8.62082770899744
30
0
41
1
10
60.1406382649997
20
8.60455494421987
30
0
0
SPLINE
5
C9
100
AcDbEntity
8
1
62
256
6
ByLayer
370
-1
48
1
60
0
100
AcDbSpline
70
4
71
3
72
8
73
4
40
0
40
0
40
0
40
0
40
1
40
1
40
1
40
1
41
1
10
69.9296480049936
20
0.331364320761566
30
0
41
1
10
69.9192329097062
20
0.376772543350341
30
0
41
1
10
69.9078700750529
20
0.421914146774782
30
0
41
1
10
69.8955637964081
20
0.466789614044075
30
0
0
SPLINE
5
CA
100
AcDbEntity
8
1
62
256
6
ByLayer
370
-1
48
1
60
0
100
AcDbSpline
70
4
71
3
72
10
73
6
40
0
40
0
40
0
40
0
40
0.5
40
0.5
40
1
40
1
40
1
40
1
41
1
10
60.0656382649997
20
8.65303906557313
30
0
41
1
10
58.96658779459
20
8.26182782527712
30
0
41
1
10
57.993534003779
20
7.73395489528312
30
0
41
1
10
56.2481669790514
20
6.29871451529718
30
0
41
1
10
55.4864237640791
20
5.38734240216871
30
0
41
1
10
54.8443464186743
20
4.33878745302161
30
0
0
SPLINE
5
CB
100
AcDbEntity
8
1
62
256
6
ByLayer
370
-1
48
1
60
0
100
AcDbSpline
70
4
71
3
72
18
73
14
40
0
40
0
40
0
40
0
40
0.209850305710359
40
0.209850305710359
40
0.386042181548316
40
0.386042181548316
40
0.563913203461462
40
0.563913203461462
40
0.718926947593041
40
0.718926947593041
40
0.92450825584499
40
0.92450825584499
40
1
40
1
40
1
40
1
41
1
10
74.4596235945145
20
-6.06915321351295
30
0
41
1
10
74.4312594737673
20
-6.0995608331163
30
0
41
1
10
74.3970304965817
20
-6.12690515184769
30
0
41
1
10
74.32561900109
20
-6.16750132575035
30
0
41
1
10
74.2889292405915
20
-6.18269628760191
30
0
41
1
10
74.2117449609811
20
-6.20311451702258
30
0
41
1
10
74.1700509621746
20
-6.20844875314052
30
0
41
1
10
74.0945106228855
20
-6.20795507735886
30
0
41
1
10
74.0594399449901
20
-6.20351319334779
30
0
41
1
10
73.9837280629831
20
-6.18502303765419
30
0
41
1
10
73.9436435050045
20
-6.16812065255539
30
0
41
1
10
73.8956637071671
20
-6.13897419076787
30
0
41
1
10
73.8832826754438
20
-6.13045041827544
30
0
41
1
10
73.8715499289389
20
-6.12136919957885
30
0
0
SPLINE
5
CC
100
AcDbEntity
8
1
62
256
6
ByLayer
370
-1
48
1
60
0
100
AcDbSpline
70
4
71
3
72
16
73
12
40
0
40
0
40
0
40
0
40
0.183873367295622
40
0.183873367295622
40
0.483004950056771
40
0.483004950056771
40
0.753349574979514
40
0.753349574979514
40
0.994131352213835
40
0.994131352213835
40
1
40
1
40
1
40
1
41
1
10
75.1210387940194
20
-6.70171305693316
30
0
41
1
10
75.1347289091286
20
-6.70479626386609
30
0
41
1
10
75.1483537894491
20
-6.70941240849544
30
0
41
1
10
75.1826104214502
20
-6.72540887476512
30
0
41
1
10
75.2028969789328
20
-6.73958420058787
30
0
41
1
10
75.2352691326085
20
-6.77293048650458
30
0
41
1
10
75.248422465469
20
-6.79203314097714
30
0
41
1
10
75.265917372792
20
-6.83104911148044
30
0
41
1
10
75.2712965586713
20
-6.85121295410025
30
0
41
1
10
75.2732289051491
20
-6.87176273328177
30
0
41
1
10
75.273273548337
20
-6.87225938498602
30
0
41
1
10
75.2733161417721
20
-6.87275612566205
30
0
0
SPLINE
5
CD
100
AcDbEntity
8
1
62
256
6
ByLayer
370
-1
48
1
60
0
100
AcDbSpline
70
4
71
3
72
14
73
10
40
0
40
0
40
0
40
0
40
0.0078161817444666
40
0.0078161817444666
40
0.347859868676802
40
0.347859868676802
40
0.784219418156715
40
0.784219418156715
40
1
40
1
40
1
40
1
41
1
10
73.6415346079101
20
-7.39952947284382
30
0
41
1
10
73.6419659954514
20
-7.40024328908751
30
0
41
1
10
73.6423952672076
20
-7.4009584613932
30
0
41
1
10
73.6611689920146
20
-7.43245004283256
30
0
41
1
10
73.6756527158261
20
-7.46607299799447
30
0
41
1
10
73.6983962843673
20
-7.54319756600853
30
0
41
1
10
73.7042522680016
20
-7.5880471247599
30
0
41
1
10
73.703716962048
20
-7.65275024354082
30
0
41
1
10
73.702018690532
20
-7.67410269058931
30
0
41
1
10
73.6989147636654
20
-7.69500717595093
30
0
0
SPLINE
5
CE
100
AcDbEntity
8
1
62
256
6
ByLayer
370
-1
48
1
60
0
100
AcDbSpline
70
4
71
3
72
16
73
12
40
0
40
0
40
0
40
0
40
0.22056269564243
40
0.22056269564243
40
0.445810546791169
40
0.445810546791169
40
0.682196661244951
40
0.682196661244951
40
0.939646544280057
40
0.939646544280057
40
1
40
1
40
1
40
1
41
1
10
75.2733161417721
20
-6.87275612566205
30
0
41
1
10
75.2748848949901
20
-6.89105151632731
30
0
41
1
10
75.2736063146784
20
-6.9097132591767
30
0
41
1
10
75.265625500652
20
-6.94522304555667
30
0
41
1
10
75.258713664132
20
-6.96248098827272
30
0
41
1
10
75.2401183635299
20
-6.99395049015359
30
0
41
1
10
75.2279986964372
20
-7.00837423065383
30
0
41
1
10
75.1995202307626
20
-7.03326053018193
30
0
41
1
10
75.1825381146276
20
-7.04358399460881
30
0
41
1
10
75.1605632326365
20
-7.05255350800945
30
0
41
1
10
75.1563034046539
20
-7.05410653366468
30
0
41
1
10
75.1520019958003
20
-7.05549540889919
30
0
0
SPLINE
5
CF
100
AcDbEntity
8
1
62
256
6
ByLayer
370
-1
48
1
60
0
100
AcDbSpline
70
4
71
3
72
14
73
10
40
0
40
0
40
0
40
0
40
0.258396186029138
40
0.258396186029138
40
0.548880466307926
40
0.548880466307926
40
0.811783753551857
40
0.811783753551857
40
1
40
1
40
1
40
1
41
1
10
73.5795338033639
20
-6.32533024235647
30
0
41
1
10
73.5734491713242
20
-6.30812286977544
30
0
41
1
10
73.5700634947854
20
-6.28936886644712
30
0
41
1
10
73.5697606382657
20
-6.24881222315986
30
0
41
1
10
73.5737477451062
20
-6.22626586556834
30
0
41
1
10
73.5895159060154
20
-6.1856887724287
30
0
41
1
10
73.6007964106962
20
-6.16683055394876
30
0
41
1
10
73.6251939607374
20
-6.13873373380437
30
0
41
1
10
73.6370902948162
20
-6.12801834564365
30
0
41
1
10
73.6500184085194
20
-6.11898859926626
30
0
0
SPLINE
5
D0
100
AcDbEntity
8
1
62
256
6
ByLayer
370
-1
48
1
60
0
100
AcDbSpline
70
4
71
3
72
12
73
8
40
0
40
0
40
0
40
0
40
0.459052452643313
40
0.459052452643313
40
0.841360686931682
40
0.841360686931682
40
1
40
1
40
1
40
1
41
1
10
75.1210387940168
20
-6.70171305693461
30
0
41
1
10
75.0782096941131
20
-6.69206733980667
30
0
41
1
10
75.0352206563974
20
-6.67574429430803
30
0
41
1
10
74.9613882223412
20
-6.63366852042233
30
0
41
1
10
74.9289297913556
20
-6.60939374175786
30
0
41
1
10
74.8884819240621
20
-6.56940279810439
30
0
41
1
10
74.877172939907
20
-6.55689183774504
30
0
41
1
10
74.8666674088658
20
-6.54382548344407
30
0
0
SPLINE
5
D1
100
AcDbEntity
8
1
62
256
6
ByLayer
370
-1
48
1
60
0
100
AcDbSpline
70
4
71
3
72
14
73
10
40
0
40
0
40
0
40
0
40
0.276507675575975
40
0.276507675575975
40
0.564163278927841
40
0.564163278927841
40
0.824692087119226
40
0.824692087119226
40
1
40
1
40
1
40
1
41
1
10
73.3601575003551
20
-7.21242340069725
30
0
41
1
10
73.3401825746527
20
-7.20962936874227
30
0
41
1
10
73.3202243568433
20
-7.20322004998113
30
0
41
1
10
73.2829690639942
20
-7.18302618812496
30
0
41
1
10
73.2652511624078
20
-7.16860038476577
30
0
41
1
10
73.2379356075504
20
-7.13519161992005
30
0
41
1
10
73.2273469198667
20
-7.11623792782689
30
0
41
1
10
73.2158790551707
20
-7.08230474588621
30
0
41
1
10
73.2128472169935
20
-7.06778384671156
30
0
41
1
10
73.2115929156188
20
-7.05315571183459
30
0
0
SPLINE
5
D2
100
AcDbEntity
8
1
62
256
6
ByLayer
370
-1
48
1
60
0
100
AcDbSpline
70
4
71
3
72
16
73
12
40
0
40
0
40
0
40
0
40
0.103829215900602
40
0.103829215900602
40
0.412635223008182
40
0.412635223008182
40
0.692319276675556
40
0.692319276675556
40
0.939773817207287
40
0.939773817207287
40
1
40
1
40
1
40
1
41
1
10
74.4596235945127
20
-6.06915321351181
30
0
41
1
10
74.4647866659401
20
-6.06361816755188
30
0
41
1
10
74.4703587230907
20
-6.05834679351423
30
0
41
1
10
74.4938045300884
20
-6.03884220081102
30
0
41
1
10
74.5150130675591
20
-6.02690429596254
30
0
41
1
10
74.5589922517504
20
-6.01247976797171
30
0
41
1
10
74.5821296647727
20
-6.00902762304534
30
0
41
1
10
74.625555357278
20
-6.01048035139078
30
0
41
1
10
74.6464975070786
20
-6.01451595592948
30
0
41
1
10
74.6706835666703
20
-6.02344762731684
30
0
41
1
10
74.6753899479983
20
-6.02540155877941
30
0
41
1
10
74.6799998415534
20
-6.02753492721141
30
0
0
SPLINE
5
D3
100
AcDbEntity
8
1
62
256
6
ByLayer
370
-1
48
1
60
0
100
AcDbSpline
70
4
71
3
72
16
73
12
40
0
40
0
40
0
40
0
40
0.0482723589292446
40
0.0482723589292446
40
0.273143644567202
40
0.273143644567202
40
0.499942899898001
40
0.499942899898001
40
0.740448834464206
40
0.740448834464206
40
1
40
1
40
1
40
1
41
1
10
73.6500184085194
20
-6.11898859926626
30
0
41
1
10
73.6533542528949
20
-6.11665865157579
30
0
41
1
10
73.6567675998708
20
-6.11443137292875
30
0
41
1
10
73.6763089726281
20
-6.10254014713854
30
0
41
1
10
73.6940348992649
20
-6.09505711852933
30
0
41
1
10
73.7300188876439
20
-6.08562853924585
30
0
41
1
10
73.7487360599367
20
-6.08359711430987
30
0
41
1
10
73.7857588520538
20
-6.0848078362292
30
0
41
1
10
73.804436683465
20
-6.08837192167061
30
0
41
1
10
73.8399308925041
20
-6.10073506211594
30
0
41
1
10
73.8569286805118
20
-6.11005226244666
30
0
41
1
10
73.871549928939
20
-6.12136919957874
30
0
0
SPLINE
5
D4
100
AcDbEntity
8
1
62
256
6
ByLayer
370
-1
48
1
60
0
100
AcDbSpline
70
4
71
3
72
14
73
10
40
0
40
0
40
0
40
0
40
0.0485551936950664
40
0.0485551936950664
40
0.385330318939898
40
0.385330318939898
40
0.832159632854776
40
0.832159632854776
40
1
40
1
40
1
40
1
41
1
10
74.8343652099886
20
-6.49780870750593
30
0
41
1
10
74.8317106034013
20
-6.49344178779921
30
0
41
1
10
74.8291411502748
20
-6.48903632364897
30
0
41
1
10
74.8096015355712
20
-6.45409142984994
30
0
41
1
10
74.7966705360084
20
-6.42174052416965
30
0
41
1
10
74.7771451491465
20
-6.34756634360315
30
0
41
1
10
74.7735117436715
20
-6.30483639676726
30
0
41
1
10
74.7774392445189
20
-6.2490345299521
30
0
41
1
10
74.7794321540017
20
-6.23393368000384
30
0
41
1
10
74.7822815307162
20
-6.21912928168314
30
0
0
SPLINE
5
D5
100
AcDbEntity
8
1
62
256
6
ByLayer
370
-1
48
1
60
0
100
AcDbSpline
70
4
71
3
72
14
73
10
40
0
40
0
40
0
40
0
40
0.279815820444236
40
0.279815820444236
40
0.575266153291779
40
0.575266153291779
40
0.835357033315524
40
0.835357033315524
40
1
40
1
40
1
40
1
41
1
10
74.9016805060895
20
-7.58886335178485
30
0
41
1
10
74.9088331656698
20
-7.60929094509311
30
0
41
1
10
74.912805517397
20
-7.6314609215184
30
0
41
1
10
74.9129690039886
20
-7.67725640644059
30
0
41
1
10
74.9086376307498
20
-7.70164829592414
30
0
41
1
10
74.8919755159234
20
-7.74410199779814
30
0
41
1
10
74.8803768483841
20
-7.76319594175223
30
0
41
1
10
74.8567128660799
20
-7.78968541751661
30
0
41
1
10
74.8462214309089
20
-7.79900916117288
30
0
41
1
10
74.8348906488714
20
-7.80692323823044
30
0
0
SPLINE
5
D6
100
AcDbEntity
8
1
62
256
6
ByLayer
370
-1
48
1
60
0
100
AcDbSpline
70
4
71
3
72
18
73
14
40
0
40
0
40
0
40
0
40
0.204492908485488
40
0.204492908485488
40
0.381656358939113
40
0.381656358939113
40
0.560562032125367
40
0.560562032125367
40
0.715791949205237
40
0.715791949205237
40
0.920454214055039
40
0.920454214055039
40
1
40
1
40
1
40
1
41
1
10
74.0215907149386
20
-7.84504038062846
30
0
41
1
10
74.0480623623784
20
-7.81172232512091
30
0
41
1
10
74.0801489629426
20
-7.78153178670971
30
0
41
1
10
74.1486083689546
20
-7.73564061866085
30
0
41
1
10
74.1846802556548
20
-7.71811283721505
30
0
41
1
10
74.2613240779114
20
-7.69473725865129
30
0
41
1
10
74.3031188384834
20
-7.68878851491928
30
0
41
1
10
74.3793404078964
20
-7.69003941018531
30
0
41
1
10
74.414918592243
20
-7.69555798952149
30
0
41
1
10
74.491922162826
20
-7.71764446757857
30
0
41
1
10
74.5329644349598
20
-7.73738998263917
30
0
41
1
10
74.5832704693415
20
-7.77140984807943
30
0
41
1
10
74.596823138016
20
-7.78178790985197
30
0
41
1
10
74.6096643805138
20
-7.79282439456244
30
0
0
SPLINE
5
D7
100
AcDbEntity
8
1
62
256
6
ByLayer
370
-1
48
1
60
0
100
AcDbSpline
70
4
71
3
72
16
73
12
40
0
40
0
40
0
40
0
40
0.167919871521784
40
0.167919871521784
40
0.391641276175495
40
0.391641276175495
40
0.623805580616631
40
0.623805580616631
40
0.874890630033085
40
0.874890630033085
40
1
40
1
40
1
40
1
41
1
10
74.6799998415534
20
-6.02753492721141
30
0
41
1
10
74.692755956677
20
-6.03343820740525
30
0
41
1
10
74.704896670559
20
-6.04080025567222
30
0
41
1
10
74.7304879336272
20
-6.06051817231142
30
0
41
1
10
74.7433413747495
20
-6.07399434289874
30
0
41
1
10
74.7642150147773
20
-6.1036112484453
30
0
41
1
10
74.7723123848592
20
-6.12019711517544
30
0
41
1
10
74.7832372337577
20
-6.15514823552141
30
0
41
1
10
74.7857389415609
20
-6.17397981955287
30
0
41
1
10
74.7849790644491
20
-6.2012745293637
30
0
41
1
10
74.7839785857947
20
-6.2103119570985
30
0
41
1
10
74.7822815307161
20
-6.21912928168314
30
0
0
SPLINE
5
D8
100
AcDbEntity
8
1
62
256
6
ByLayer
370
-1
48
1
60
0
100
AcDbSpline
70
4
71
3
72
16
73
12
40
0
40
0
40
0
40
0
40
0.0582338193387426
40
0.0582338193387426
40
0.282288091704255
40
0.282288091704255
40
0.508837238583348
40
0.508837238583348
40
0.74952066242035
40
0.74952066242035
40
1
40
1
40
1
40
1
41
1
10
73.8049092158374
20
-7.89837691028529
30
0
41
1
10
73.8004534585797
20
-7.89631487311226
30
0
41
1
10
73.7960739736311
20
-7.89406508383072
30
0
41
1
10
73.7754547741059
20
-7.88238125300083
30
0
41
1
10
73.7603665634192
20
-7.87034980555038
30
0
41
1
10
73.7348220673148
20
-7.84271656740648
30
0
41
1
10
73.7240830282563
20
-7.82673467757749
30
0
41
1
10
73.7074871299953
20
-7.79216682472529
30
0
41
1
10
73.7017507866072
20
-7.77305648754225
30
0
41
1
10
73.695965622907
20
-7.73428295849894
30
0
41
1
10
73.6960666142213
20
-7.71418903845026
30
0
41
1
10
73.6989147636654
20
-7.69500717595096
30
0
0
SPLINE
5
D9
100
AcDbEntity
8
1
62
256
6
ByLayer
370
-1
48
1
60
0
100
AcDbSpline
70
4
71
3
72
18
73
14
40
0
40
0
40
0
40
0
40
0.206118183328002
40
0.206118183328002
40
0.382995021669318
40
0.382995021669318
40
0.561595170262888
40
0.561595170262888
40
0.716764566579533
40
0.716764566579533
40
0.921711383014014
40
0.921711383014014
40
1
40
1
40
1
40
1
41
1
10
74.9016805060892
20
-7.58886335178494
30
0
41
1
10
74.887252666456
20
-7.54765825359266
30
0
41
1
10
74.8783766392028
20
-7.50319175909931
30
0
41
1
10
74.875016522678
20
-7.41886795587737
30
0
41
1
10
74.8787369415558
20
-7.37829227301958
30
0
41
1
10
74.8979544538289
20
-7.29976517432411
30
0
41
1
10
74.9139718548205
20
-7.2607197050456
30
0
41
1
10
74.953038325397
20
-7.19618662066705
30
0
41
1
10
74.9753076132681
20
-7.168787058552
30
0
41
1
10
75.0318946436391
20
-7.11498796144826
30
0
41
1
10
75.068652124544
20
-7.09067488433104
30
0
41
1
10
75.1216357281925
20
-7.06628996500714
30
0
41
1
10
75.1367215076949
20
-7.06042930200798
30
0
41
1
10
75.1520019958003
20
-7.05549540889922
30
0
0
SPLINE
5
DA
100
AcDbEntity
8
1
62
256
6
ByLayer
370
-1
48
1
60
0
100
AcDbSpline
70
4
71
3
72
16
73
12
40
0
40
0
40
0
40
0
40
0.0597740598594099
40
0.0597740598594099
40
0.284440882233666
40
0.284440882233666
40
0.511687252252536
40
0.511687252252536
40
0.753171143615255
40
0.753171143615255
40
1
40
1
40
1
40
1
41
1
10
73.2115929156188
20
-7.05315571183459
30
0
41
1
10
73.2111645245625
20
-7.04815965404649
30
0
41
1
10
73.2109381872107
20
-7.0431321553402
30
0
41
1
10
73.2108276461666
20
-7.01933740644793
30
0
41
1
10
73.2136488177296
20
-7.00024577985909
30
0
41
1
10
73.224472411935
20
-6.96423302405782
30
0
41
1
10
73.2326578943809
20
-6.94687645205883
30
0
41
1
10
73.2535140636487
20
-6.91503865435897
30
0
41
1
10
73.2666785759383
20
-6.90039585416051
30
0
41
1
10
73.2958809349093
20
-6.87594535677519
30
0
41
1
10
73.3122837710337
20
-6.86596104690381
30
0
41
1
10
73.3292123136529
20
-6.85869818524225
30
0
0
SPLINE
5
DB
100
AcDbEntity
8
1
62
256
6
ByLayer
370
-1
48
1
60
0
100
AcDbSpline
70
4
71
3
72
12
73
8
40
0
40
0
40
0
40
0
40
0.394035322892259
40
0.394035322892259
40
0.787792402799452
40
0.787792402799452
40
1
40
1
40
1
40
1
41
1
10
73.3601575003553
20
-7.21242340069532
30
0
41
1
10
73.3959183123657
20
-7.21742551449447
30
0
41
1
10
73.4317698244789
20
-7.22748307511492
30
0
41
1
10
73.5003398334561
20
-7.25831710115599
30
0
41
1
10
73.5338362351429
20
-7.27956282420519
30
0
41
1
10
73.579964987661
20
-7.3203499163848
30
0
41
1
10
73.5952816546314
20
-7.33630257357694
30
0
41
1
10
73.6092324090324
20
-7.35351269690503
30
0
0
SPLINE
5
DC
100
AcDbEntity
8
1
62
256
6
ByLayer
370
-1
48
1
60
0
100
AcDbSpline
70
4
71
3
72
20
73
16
40
0
40
0
40
0
40
0
40
0.0911549364459485
40
0.0911549364459485
40
0.291252789111612
40
0.291252789111612
40
0.454375591859064
40
0.454375591859064
40
0.618222811663779
40
0.618222811663779
40
0.772983306497166
40
0.772983306497166
40
0.99398165236161
40
0.99398165236161
40
1
40
1
40
1
40
1
41
1
10
73.579533803364
20
-6.32533024235639
30
0
41
1
10
73.5854167354534
20
-6.34196720637854
30
0
41
1
10
73.5902112916529
20
-6.35922127932432
30
0
41
1
10
73.6016560679425
20
-6.41574105033013
30
0
41
1
10
73.6037928223837
20
-6.45762734412961
30
0
41
1
10
73.595098202183
20
-6.53488898399419
30
0
41
1
10
73.58639833073
20
-6.57089487721134
30
0
41
1
10
73.5597544384389
20
-6.64001769666893
30
0
41
1
10
73.5413913990113
20
-6.67399975017847
30
0
41
1
10
73.499356325481
20
-6.73306871859074
30
0
41
1
10
73.475595040936
20
-6.7592694277883
30
0
41
1
10
73.4141911132371
20
-6.81369126693502
30
0
41
1
10
73.3739284590239
20
-6.83908055945017
30
0
41
1
10
73.3314936650374
20
-6.85771369081124
30
0
41
1
10
73.3303535930012
20
-6.8582085415552
30
0
41
1
10
73.3292123136529
20
-6.85869818524225
30
0
0
SPLINE
5
DD
100
AcDbEntity
8
1
62
256
6
ByLayer
370
-1
48
1
60
0
100
AcDbSpline
70
4
71
3
72
16
73
12
40
0
40
0
40
0
40
0
40
0.0699583224962319
40
0.0699583224962319
40
0.294440343452919
40
0.294440343452919
40
0.522073920043858
40
0.522073920043858
40
0.764408756820922
40
0.764408756820922
40
1
40
1
40
1
40
1
41
1
10
74.8348906488714
20
-7.80692323823044
30
0
41
1
10
74.8300665236066
20
-7.81029268783723
30
0
41
1
10
74.8250707321774
20
-7.81342543514052
30
0
41
1
10
74.8035979262737
20
-7.82545216484354
30
0
41
1
10
74.7856122020208
20
-7.83202659829499
30
0
41
1
10
74.7490712083845
20
-7.83926106789062
30
0
41
1
10
74.7300496627229
20
-7.83994384861202
30
0
41
1
10
74.6923884058785
20
-7.8356506125277
30
0
41
1
10
74.673379181242
20
-7.83027292435293
30
0
41
1
10
74.6391266264713
20
-7.81477592633144
30
0
41
1
10
74.6234367886984
20
-7.80466117533973
30
0
41
1
10
74.6096643805138
20
-7.79282439456242
30
0
0
SPLINE
5
DE
100
AcDbEntity
8
1
62
256
6
ByLayer
370
-1
48
1
60
0
100
AcDbSpline
70
4
71
3
72
14
73
10
40
0
40
0
40
0
40
0
40
0.272533876151972
40
0.272533876151972
40
0.561248201524361
40
0.561248201524361
40
0.822711786115032
40
0.822711786115032
40
1
40
1
40
1
40
1
41
1
10
74.0215907149387
20
-7.84504038062852
30
0
41
1
10
74.0086743719075
20
-7.86129729984913
30
0
41
1
10
73.9927672591626
20
-7.87576010936064
30
0
41
1
10
73.9558034164984
20
-7.89903476244848
30
0
41
1
10
73.9338919052379
20
-7.90778547055592
30
0
41
1
10
73.8904168747272
20
-7.91570383818956
30
0
41
1
10
73.8683531053222
20
-7.91577926397761
30
0
41
1
10
73.8327002880679
20
-7.90916437885573
30
0
41
1
10
73.8183726817441
20
-7.9046075385649
30
0
41
1
10
73.8049092158374
20
-7.89837691028529
30
0
0
SPLINE
5
DF
100
AcDbEntity
8
SK1
62
256
6
ByLayer
370
-1
48
1
60
0
100
AcDbSpline
70
4
71
3
72
10
73
6
40
0
40
0
40
0
40
0
40
0.5
40
0.5
40
1
40
1
40
1
40
1
41
1
10
-169.32
20
-4.33878745302189
30
0
41
1
10
-169.919233025873
20
-2.95888879825199
30
0
41
1
10
-170.310991214146
20
-1.50358877622818
30
0
41
1
10
-170.311508518976
20
1.50048916054567
30
0
41
1
10
-169.920392105394
20
2.95621969924952
30
0
41
1
10
-169.32
20
4.33878745302189
30
0
0
SPLINE
5
E0
100
AcDbEntity
8
SK1
62
256
6
ByLayer
370
-1
48
1
60
0
100
AcDbSpline
70
4
71
3
72
8
73
4
40
0
40
0
40
0
40
0
40
1
40
1
40
1
40
1
41
1
10
-170.802499986183
20
-8.50874999999999
30
0
41
1
10
-170.802576023436
20
-8.50874999999999
30
0
41
1
10
-170.174914121567
20
-8.50874999999999
30
0
41
1
10
-169.32
20
-8.50874999999999
30
0
0
LINE
5
4A
100
AcDbEntity
8
80
62
256
6
ByLayer
370
-1
48
1
60
0
100
AcDbLine
10
0
20
0
30
0
11
-10
21
0
31
0
39
0
210
0
220
0
230
1
0
LINE
5
4B
100
AcDbEntity
8
81
62
256
6
ByLayer
370
-1
48
1
60
0
100
AcDbLine
10
79.93
20
-14.9
30
0
11
89.93
21
-14.9
31
0
39
0
210
0
220
0
230
1
0
LINE
5
4C
100
AcDbEntity
8
SK4
62
256
6
ByLayer
370
-1
48
0.05
60
0
100
AcDbLine
10
-176.32
20
0
30
0
11
84.634183
21
0
31
0
39
0
210
0
220
0
230
1
0
LINE
5
4E
100
AcDbEntity
8
4
62
256
6
ByLayer
370
-1
48
0.05
60
0
100
AcDbLine
10
0
20
0
30
0
11
84.634183
21
0
31
0
39
0
210
0
220
0
230
1
0
LINE
5
50
100
AcDbEntity
8
1
62
256
6
ByLayer
370
-1
48
1
60
0
100
AcDbLine
10
59.065638
20
9.99125
30
0
11
0
21
9.99125
31
0
39
0
210
0
220
0
230
1
0
LINE
5
51
100
AcDbEntity
8
SK1
62
256
6
ByLayer
370
-1
48
1
60
0
100
AcDbLine
10
-169.32
20
9.99125
30
0
11
-171.32
21
7.99125
31
0
39
0
210
0
220
0
230
1
0
LINE
5
53
100
AcDbEntity
8
SK1
62
256
6
ByLayer
370
-1
48
1
60
0
100
AcDbLine
10
-171.32
20
-7.99125
30
0
11
-170.8025
21
-8.50875
31
0
39
0
210
0
220
0
230
1
0
LINE
5
54
100
AcDbEntity
8
SK1
62
256
6
ByLayer
370
-1
48
1
60
0
100
AcDbLine
10
0
20
9.99125
30
0
11
-169.32
21
9.99125
31
0
39
0
210
0
220
0
230
1
0
LINE
5
55
100
AcDbEntity
8
1
62
256
6
ByLayer
370
-1
48
1
60
0
100
AcDbLine
10
74.770431
20
-6.334767
30
0
11
74.793603
21
-6.408258
31
0
39
0
210
0
220
0
230
1
0
LINE
5
56
100
AcDbEntity
8
1
62
256
6
ByLayer
370
-1
48
1
60
0
100
AcDbLine
10
72.572826
20
-7.404074
30
0
11
72.592565
21
-7.466677
31
0
39
0
210
0
220
0
230
1
0
LINE
5
57
100
AcDbEntity
8
1
62
256
6
ByLayer
370
-1
48
1
60
0
100
AcDbLine
10
75.882888
20
-6.429242
30
0
11
75.863149
21
-6.366639
31
0
39
0
210
0
220
0
230
1
0
LINE
5
58
100
AcDbEntity
8
1
62
256
6
ByLayer
370
-1
48
1
60
0
100
AcDbLine
10
74.871995
20
-7.495462
30
0
11
74.897164
21
-7.575289
31
0
39
0
210
0
220
0
230
1
0
LINE
5
59
100
AcDbEntity
8
1
62
256
6
ByLayer
370
-1
48
1
60
0
100
AcDbLine
10
73.683256
20
-7.492121
30
0
11
73.660107
21
-7.418702
31
0
39
0
210
0
220
0
230
1
0
LINE
5
5A
100
AcDbEntity
8
1
62
256
6
ByLayer
370
-1
48
1
60
0
100
AcDbLine
10
68.943434
20
0.957261
30
0
11
68.885863
21
0.955159
31
0
39
0
210
0
220
0
230
1
0
LINE
5
5B
100
AcDbEntity
8
1
62
256
6
ByLayer
370
-1
48
1
60
0
100
AcDbLine
10
68.789821
20
0.924877
30
0
11
68.741457
21
0.893578
31
0
39
0
210
0
220
0
230
1
0
LINE
5
5C
100
AcDbEntity
8
1
62
256
6
ByLayer
370
-1
48
1
60
0
100
AcDbLine
10
0
20
-8.50875
30
0
11
53.559189
21
-8.50875
31
0
39
0
210
0
220
0
230
1
0
LINE
5
5D
100
AcDbEntity
8
1
62
256
6
ByLayer
370
-1
48
1
60
0
100
AcDbLine
10
76.385344
20
-3.782805
30
0
11
76.562322
21
-4.344107
31
0
39
0
210
0
220
0
230
1
0
LINE
5
5E
100
AcDbEntity
8
1
62
256
6
ByLayer
370
-1
48
1
60
0
100
AcDbLine
10
0
20
4.338787
30
0
11
54.844346
21
4.338787
31
0
39
0
210
0
220
0
230
1
0
LINE
5
5F
100
AcDbEntity
8
1
62
256
6
ByLayer
370
-1
48
1
60
0
100
AcDbLine
10
60.065638
20
8.653039
30
0
11
60.065638
21
9.554646
31
0
39
0
210
0
220
0
230
1
0
LINE
5
60
100
AcDbEntity
8
1
62
256
6
ByLayer
370
-1
48
1
60
0
100
AcDbLine
10
69.260273
20
-1.719993
30
0
11
68.852895
21
-1.408648
31
0
39
0
210
0
220
0
230
1
0
LINE
5
61
100
AcDbEntity
8
1
62
256
6
ByLayer
370
-1
48
1
60
0
100
AcDbLine
10
61.397261
20
8.973254
30
0
11
60.140638
21
9.521901
31
0
39
0
210
0
220
0
230
1
0
LINE
5
62
100
AcDbEntity
8
1
62
256
6
ByLayer
370
-1
48
1
60
0
100
AcDbLine
10
75.819325
20
-4.060518
30
0
11
70.045951
21
0.351877
31
0
39
0
210
0
220
0
230
1
0
LINE
5
63
100
AcDbEntity
8
1
62
256
6
ByLayer
370
-1
48
1
60
0
100
AcDbLine
10
76.35495
20
-3.686407
30
0
11
74.113965
21
3.421089
31
0
39
0
210
0
220
0
230
1
0
LINE
5
64
100
AcDbEntity
8
1
62
256
6
ByLayer
370
-1
48
1
60
0
100
AcDbLine
10
70.045951
20
0.351877
30
0
11
69.947361
21
0.304121
31
0
39
0
210
0
220
0
230
1
0
LINE
5
65
100
AcDbEntity
8
1
62
256
6
ByLayer
370
-1
48
1
60
0
100
AcDbLine
10
0
20
4.338787
30
0
11
0
21
9.99125
31
0
39
0
210
0
220
0
230
1
0
LINE
5
66
100
AcDbEntity
8
1
62
256
6
ByLayer
370
-1
48
1
60
0
100
AcDbLine
10
53.559189
20
-8.50875
30
0
11
58.251036
21
-8.50875
31
0
39
0
210
0
220
0
230
1
0
LINE
5
67
100
AcDbEntity
8
1
62
256
6
ByLayer
370
-1
48
1
60
0
100
AcDbLine
10
60.140638
20
8.604555
30
0
11
60.140638
21
9.521901
31
0
39
0
210
0
220
0
230
1
0
LINE
5
68
100
AcDbEntity
8
1
62
256
6
ByLayer
370
-1
48
1
60
0
100
AcDbLine
10
70.996438
20
-7.429103
30
0
11
71.059653
21
-7.426892
31
0
39
0
210
0
220
0
230
1
0
LINE
5
69
100
AcDbEntity
8
1
62
256
6
ByLayer
370
-1
48
1
60
0
100
AcDbLine
10
76.35495
20
-3.686407
30
0
11
76.385341
21
-3.782793
31
0
39
0
210
0
220
0
230
1
0
LINE
5
6A
100
AcDbEntity
8
1
62
256
6
ByLayer
370
-1
48
1
60
0
100
AcDbLine
10
61.397261
20
8.973254
30
0
11
68.057091
21
6.065545
31
0
39
0
210
0
220
0
230
1
0
LINE
5
6B
100
AcDbEntity
8
1
62
256
6
ByLayer
370
-1
48
1
60
0
100
AcDbLine
10
70.15999
20
-8.13094
30
0
11
71.079192
21
-7.488916
31
0
39
0
210
0
220
0
230
1
0
LINE
5
6C
100
AcDbEntity
8
1
62
256
6
ByLayer
370
-1
48
1
60
0
100
AcDbLine
10
64.22035
20
-8.214279
30
0
11
68.057091
21
6.065545
31
0
39
0
210
0
220
0
230
1
0
LINE
5
6D
100
AcDbEntity
8
1
62
256
6
ByLayer
370
-1
48
1
60
0
100
AcDbLine
10
68.651959
20
-1.524868
30
0
11
69.253543
21
-1.984638
31
0
39
0
210
0
220
0
230
1
0
LINE
5
6E
100
AcDbEntity
8
1
62
256
6
ByLayer
370
-1
48
1
60
0
100
AcDbLine
10
76.35495
20
-3.686407
30
0
11
75.819325
21
-4.060518
31
0
39
0
210
0
220
0
230
1
0
LINE
5
6F
100
AcDbEntity
8
1
62
256
6
ByLayer
370
-1
48
1
60
0
100
AcDbLine
10
75.819325
20
-4.060518
30
0
11
75.797607
21
-4.167023
31
0
39
0
210
0
220
0
230
1
0
LINE
5
70
100
AcDbEntity
8
1
62
256
6
ByLayer
370
-1
48
1
60
0
100
AcDbLine
10
52.117031
20
-4.338787
30
0
11
0
21
-4.338787
31
0
39
0
210
0
220
0
230
1
0
LINE
5
71
100
AcDbEntity
8
1
62
256
6
ByLayer
370
-1
48
1
60
0
100
AcDbLine
10
69.253543
20
-1.984638
30
0
11
70.996438
21
-7.429103
31
0
39
0
210
0
220
0
230
1
0
LINE
5
72
100
AcDbEntity
8
1
62
256
6
ByLayer
370
-1
48
1
60
0
100
AcDbLine
10
70.996438
20
-7.429103
30
0
11
69.891327
21
-8.200977
31
0
39
0
210
0
220
0
230
1
0
LINE
5
73
100
AcDbEntity
8
1
62
256
6
ByLayer
370
-1
48
1
60
0
100
AcDbLine
10
69.891327
20
-8.200977
30
0
11
69.992337
21
-8.173732
31
0
39
0
210
0
220
0
230
1
0
LINE
5
74
100
AcDbEntity
8
1
62
256
6
ByLayer
370
-1
48
1
60
0
100
AcDbLine
10
69.253543
20
-1.984638
30
0
11
69.315699
21
-1.89578
31
0
39
0
210
0
220
0
230
1
0
LINE
5
75
100
AcDbEntity
8
1
62
256
6
ByLayer
370
-1
48
1
60
0
100
AcDbLine
10
0
20
-4.338787
30
0
11
0
21
-8.50875
31
0
39
0
210
0
220
0
230
1
0
LINE
5
76
100
AcDbEntity
8
1
62
256
6
ByLayer
370
-1
48
1
60
0
100
AcDbLine
10
68.057091
20
6.065545
30
0
11
74.113965
21
3.421089
31
0
39
0
210
0
220
0
230
1
0
LINE
5
77
100
AcDbEntity
8
1
62
256
6
ByLayer
370
-1
48
1
60
0
100
AcDbLine
10
69.891327
20
-8.200977
30
0
11
64.22035
21
-8.214279
31
0
39
0
210
0
220
0
230
1
0
LINE
5
78
100
AcDbEntity
8
1
62
256
6
ByLayer
370
-1
48
1
60
0
100
AcDbLine
10
59.065638
20
9.99125
30
0
11
60.065638
21
9.554646
31
0
39
0
210
0
220
0
230
1
0
LINE
5
79
100
AcDbEntity
8
1
62
256
6
ByLayer
370
-1
48
1
60
0
100
AcDbLine
10
75.815573
20
-4.180752
30
0
11
76.385341
21
-3.782793
31
0
39
0
210
0
220
0
230
1
0
LINE
5
7A
100
AcDbEntity
8
1
62
256
6
ByLayer
370
-1
48
1
60
0
100
AcDbLine
10
0
20
-4.338787
30
0
11
0
21
4.338787
31
0
39
0
210
0
220
0
230
1
0
LINE
5
7B
100
AcDbEntity
8
SK1
62
256
6
ByLayer
370
-1
48
1
60
0
100
AcDbLine
10
0
20
-4.338787
30
0
11
0
21
4.338787
31
0
39
0
210
0
220
0
230
1
0
LINE
5
7C
100
AcDbEntity
8
SK1
62
256
6
ByLayer
370
-1
48
1
60
0
100
AcDbLine
10
0
20
-4.338787
30
0
11
-169.32
21
-4.338787
31
0
39
0
210
0
220
0
230
1
0
LINE
5
7D
100
AcDbEntity
8
SK1
62
256
6
ByLayer
370
-1
48
1
60
0
100
AcDbLine
10
0
20
-4.338787
30
0
11
0
21
-8.50875
31
0
39
0
210
0
220
0
230
1
0
LINE
5
7E
100
AcDbEntity
8
1
62
256
6
ByLayer
370
-1
48
1
60
0
100
AcDbLine
10
71.615957
20
-8.952502
30
0
11
79.291075
21
-14.818336
31
0
39
0
210
0
220
0
230
1
0
LINE
5
7F
100
AcDbEntity
8
1
62
256
6
ByLayer
370
-1
48
1
60
0
100
AcDbLine
10
68.578404
20
0.442625
30
0
11
71.47929
21
-8.75781
31
0
39
0
210
0
220
0
230
1
0
LINE
5
80
100
AcDbEntity
8
1
62
256
6
ByLayer
370
-1
48
1
60
0
100
AcDbLine
10
76.874106
20
-4.989757
30
0
11
69.198988
21
0.876077
31
0
39
0
210
0
220
0
230
1
0
LINE
5
81
100
AcDbEntity
8
1
62
256
6
ByLayer
370
-1
48
1
60
0
100
AcDbLine
10
79.911659
20
-14.384884
30
0
11
77.010773
21
-5.184449
31
0
39
0
210
0
220
0
230
1
0
LINE
5
82
100
AcDbEntity
8
1
62
256
6
ByLayer
370
-1
48
1
60
0
100
AcDbLine
10
75.126664
20
-6.975133
30
0
11
75.152002
21
-7.055495
31
0
39
0
210
0
220
0
230
1
0
LINE
5
83
100
AcDbEntity
8
1
62
256
6
ByLayer
370
-1
48
1
60
0
100
AcDbLine
10
74.584326
20
-7.712462
30
0
11
74.609664
21
-7.792824
31
0
39
0
210
0
220
0
230
1
0
LINE
5
84
100
AcDbEntity
8
1
62
256
6
ByLayer
370
-1
48
1
60
0
100
AcDbLine
10
73.334828
20
-7.13209
30
0
11
73.360158
21
-7.212423
31
0
39
0
210
0
220
0
230
1
0
LINE
5
85
100
AcDbEntity
8
1
62
256
6
ByLayer
370
-1
48
1
60
0
100
AcDbLine
10
73.996253
20
-7.764678
30
0
11
74.021591
21
-7.84504
31
0
39
0
210
0
220
0
230
1
0
LINE
5
86
100
AcDbEntity
8
1
62
256
6
ByLayer
370
-1
48
1
60
0
100
AcDbLine
10
74.756952
20
-6.138796
30
0
11
74.782282
21
-6.219129
31
0
39
0
210
0
220
0
230
1
0
LINE
5
87
100
AcDbEntity
8
SK1
62
256
6
ByLayer
370
-1
48
1
60
0
100
AcDbLine
10
-169.32
20
4.338787
30
0
11
0
21
4.338787
31
0
39
0
210
0
220
0
230
1
0
LINE
5
88
100
AcDbEntity
8
SK1
62
256
6
ByLayer
370
-1
48
1
60
0
100
AcDbLine
10
-171.32
20
7.99125
30
0
11
-171.32
21
-7.99125
31
0
39
0
210
0
220
0
230
1
0
LINE
5
89
100
AcDbEntity
8
SK1
62
256
6
ByLayer
370
-1
48
1
60
0
100
AcDbLine
10
-169.32
20
-4.338787
30
0
11
-169.32
21
-8.50875
31
0
39
0
210
0
220
0
230
1
0
LINE
5
8A
100
AcDbEntity
8
SK1
62
256
6
ByLayer
370
-1
48
1
60
0
100
AcDbLine
10
-169.32
20
9.99125
30
0
11
-169.32
21
4.338787
31
0
39
0
210
0
220
0
230
1
0
LINE
5
8B
100
AcDbEntity
8
SK1
62
256
6
ByLayer
370
-1
48
1
60
0
100
AcDbLine
10
-169.32
20
-8.50875
30
0
11
0
21
-8.50875
31
0
39
0
210
0
220
0
230
1
0
LINE
5
8C
100
AcDbEntity
8
SK1
62
256
6
ByLayer
370
-1
48
1
60
0
100
AcDbLine
10
0
20
9.99125
30
0
11
0
21
4.338787
31
0
39
0
210
0
220
0
230
1
0
LINE
5
8D
100
AcDbEntity
8
2
62
256
6
ByLayer
370
-1
48
1
60
1
100
AcDbLine
10
79.93
20
0
30
0
11
79.931
21
0.001
31
0
39
0
210
0
220
0
230
1
0
MTEXT
5
E1
100
AcDbEntity
8
SK6
62
256
6
ByLayer
370
-1
48
1
60
0
100
AcDbMText
10
-42.32
20
16.661875
30
0
210
0
220
0
230
1
1
\W00.757;\fsimplex.shx,bigfont.shx;A20S-SVQBL 11-E 
40
3.5
41
0
44
1.084337
50
0
71
7
72
5
7
DEFAULT
0
DIMENSION
5
114
100
AcDbEntity
8
2
62
256
6
ByLayer
370
-3
48
1
60
0
100
AcDbDimension
2
DimnDraft3D1
10
92.18
20
0
30
0
11
92.18
21
-12.050658
31
0
70
32
71
5
72
1
41
1
210
0
220
0
230
1
3
Standard
100
AcDbAlignedDimension
13
81.93
23
-14.9
33
0
14
81.93
24
0
34
0
50
90
100
AcDbRotatedDimension
1001
ACAD
1000
DSTYLE
1002
{
1070
    74
1070
     0
1070
   279
1070
     0
1070
   172
1070
     1
1070
   173
1070
     1
1070
   340
1005
E2
1070
    77
1070
     1
1070
    73
1070
     0
1070
   171
1070
     4
1070
   274
1070
     4
1070
   177
1070
     2
1070
   176
1070
     2
1070
   178
1070
     7
1070
    78
1070
     8
1070
    41
1041
3.175
1070
   147
1041
2.25
1070
    42
1041
2.0
1070
    44
1041
2.0
1070
   140
1041
4.5
1070
   343
1005
115
1070
   344
1005
115
1002
}
0
DIMENSION
5
12A
100
AcDbEntity
8
SK2
62
256
6
ByLayer
370
-3
48
1
60
0
100
AcDbDimension
2
DimnDraft3D2
10
-181.07
20
9.99125
30
0
11
-181.07
21
-4.784211
31
0
70
32
71
5
72
1
41
1
210
0
220
0
230
1
3
Standard
100
AcDbAlignedDimension
13
-173.32
23
-9.99125
33
0
14
-173.32
24
9.99125
34
0
50
90
100
AcDbRotatedDimension
1001
ACAD
1000
DSTYLE
1002
{
1070
    74
1070
     0
1070
   279
1070
     0
1070
   172
1070
     1
1070
   173
1070
     1
1070
   340
1005
E2
1070
    77
1070
     1
1070
    73
1070
     0
1070
   171
1070
     4
1070
   274
1070
     4
1070
   177
1070
     2
1070
   176
1070
     2
1070
   178
1070
     7
1070
    78
1070
     8
1070
    41
1041
3.175
1070
   147
1041
2.25
1070
    42
1041
2.0
1070
    44
1041
2.0
1070
   140
1041
4.5
1070
   343
1005
115
1070
   344
1005
115
1002
}
0
DIMENSION
5
138
100
AcDbEntity
8
SK2
62
256
6
ByLayer
370
-3
48
1
60
0
100
AcDbDimension
2
DimnDraft3D3
10
79.93
20
-32.15
30
0
11
-52.510132
21
-32.15
31
0
70
32
71
5
72
1
41
1
210
0
220
0
230
1
3
Standard
100
AcDbAlignedDimension
13
-171.32
23
-11.99125
33
0
14
79.93
24
-16.9
34
0
50
0
100
AcDbRotatedDimension
1001
ACAD
1000
DSTYLE
1002
{
1070
   279
1070
     0
1070
   172
1070
     1
1070
   173
1070
     1
1070
   340
1005
E2
1070
    77
1070
     1
1070
    73
1070
     0
1070
   171
1070
     4
1070
   274
1070
     4
1070
   177
1070
     2
1070
   176
1070
     2
1070
   178
1070
     7
1070
    78
1070
     8
1070
    41
1041
3.175
1070
   147
1041
2.25
1070
    42
1041
2.0
1070
    44
1041
2.0
1070
   140
1041
4.5
1070
   343
1005
115
1070
   344
1005
115
1002
}
0
DIMENSION
5
146
100
AcDbEntity
8
2
62
256
6
ByLayer
370
-3
48
1
60
0
100
AcDbDimension
2
DimnDraft3D4
10
115.158455
20
0
30
0
11
91.640019
21
37.788356
31
0
70
34
71
5
72
1
41
1
210
0
220
0
230
1
3
Standard
100
AcDb2LineAngularDimension
13
76.020825
23
-2.50168
33
0
14
63.225946
24
38.078491
34
0
15
81.93
25
0
35
0
16
100.319192
26
34.214547
36
0
40
0
0
ENDSEC
0
SECTION
2
OBJECTS
0
DICTIONARY
5
177
330
0
100
AcDbDictionary
280
0
281
1
3
ACAD_GROUP
350
178
3
ACAD_MLINESTYLE
350
179
0
DICTIONARY
5
178
330
0
100
AcDbDictionary
280
0
281
1
0
DICTIONARY
5
179
330
0
100
AcDbDictionary
280
0
281
1
3
Standard
350
18
0
MLINESTYLE
5
18
330
179
100
AcDbMlineStyle
2
Standard
70
0
3

62
256
51
90
52
90
71
2
49
-0.5
62
256
6
ByLayer
49
0.5
62
256
6
ByLayer
0
RASTERVARIABLES
5
165
330

100
AcDbRasterVariables
90
0
70
1
71
1
72
1
0
ENDSEC
0
EOF
