0
SECTION
2
HEADER
9
$ACADVER
1
AC1015
9
$DWGCODEPAGE
3
ANSI_1252
9
$HANDSEED
5
184
9
$ANGBASE
50
0
9
$ANGDIR
70
0
9
$ATTMODE
70
1
9
$AUNITS
70
0
9
$AUPREC
70
0
9
$CECOLOR
62
256
9
$CELTSCALE
40
1
9
$CELTYPE
6
ByLayer
9
$CELWEIGHT
370
-1
9
$CLAYER
8
0
9
$CMLJUST
70
0
9
$CMLSCALE
40
1
9
$CMLSTYLE
2
Standard
9
$DIMSTYLE
2
Standard
9
$TEXTSIZE
40
0.2
9
$TEXTSTYLE
7
Standard
9
$LUNITS
70
2
9
$LUPREC
70
4
9
$EXTNAMES
290
1
9
$INSUNITS
70
4
9
$LTSCALE
40
1
9
$LWDISPLAY
290
0
9
$PDMODE
70
0
9
$PDSIZE
40
0
9
$PLINEGEN
70
0
0
ENDSEC
0
SECTION
2
CLASSES
0
CLASS
1
RASTERVARIABLES
2
AcDbRasterVariables
3
ISM
90
0
280
0
281
0
0
ENDSEC
0
SECTION
2
TABLES
0
TABLE
2
VPORT
5
17a
100
AcDbSymbolTable
0
VPORT
5
1
100
AcDbSymbolTableRecord
100
AcDbViewportTableRecord
2
*Active
70
0
10
0
20
0
11
1
21
1
12
-1
22
1
13
0
23
0
14
0.5
24
0.5
15
10
25
10
16
0
26
0
36
1
17
0
27
0
37
0
0
ENDTAB
0
TABLE
2
LTYPE
5
17b
100
AcDbSymbolTable
0
LTYPE
5
14
100
AcDbSymbolTableRecord
100
AcDbLinetypeTableRecord
70
0
2
ByBlock
3

72
65
73
0
40
0
0
LTYPE
5
15
100
AcDbSymbolTableRecord
100
AcDbLinetypeTableRecord
70
0
2
ByLayer
3

72
65
73
0
40
0
0
LTYPE
5
16
100
AcDbSymbolTableRecord
100
AcDbLinetypeTableRecord
70
0
2
CONTINUOUS
3
Solid line
72
65
73
0
40
0
0
LTYPE
5
3B
100
AcDbSymbolTableRecord
100
AcDbLinetypeTableRecord
70
0
2
DASHED
3
__ __ __ __ __ __ __ __ __
72
65
73
2
40
25.72
49
12.86
74
0
49
-12.86
74
0
0
LTYPE
5
3C
100
AcDbSymbolTableRecord
100
AcDbLinetypeTableRecord
70
0
2
HIDDEN
3
_ _ _ _ _ _ _ _ _ _ _ _ _ _ _
72
65
73
2
40
0.5
49
0.25
74
0
49
-0.25
74
0
0
LTYPE
5
3D
100
AcDbSymbolTableRecord
100
AcDbLinetypeTableRecord
70
0
2
PHANTOM
3
____ _ _ ____ _ _ _____ _ _ ____
72
65
73
6
40
50.5
49
18
74
0
49
-6.5
74
0
49
6.5
74
0
49
-6.5
74
0
49
6.5
74
0
49
-6.5
74
0
0
LTYPE
5
3E
100
AcDbSymbolTableRecord
100
AcDbLinetypeTableRecord
70
0
2
CENTER
3
____ _ ____ _ ____ _ ____
72
65
73
4
40
47.5
49
22
74
0
49
-8.5
74
0
49
8.5
74
0
49
-8.5
74
0
0
LTYPE
5
3F
100
AcDbSymbolTableRecord
100
AcDbLinetypeTableRecord
70
0
2
DOT
3
.........................
72
65
73
2
40
10
49
0
74
0
49
-10
74
0
0
LTYPE
5
40
100
AcDbSymbolTableRecord
100
AcDbLinetypeTableRecord
70
0
2
DASHDOT
3
_._._._._._._._._._._._._._._._.
72
65
73
4
40
70
49
31
74
0
49
-13
74
0
49
13
74
0
49
-13
74
0
0
ENDTAB
0
TABLE
2
LAYER
5
17c
100
AcDbSymbolTable
0
LAYER
5
10
100
AcDbSymbolTableRecord
100
AcDbLayerTableRecord
2
0
70
0
62
7
6
CONTINUOUS
290
1
370
-3
390
0
0
LAYER
5
42
100
AcDbSymbolTableRecord
100
AcDbLayerTableRecord
2
80
70
0
62
-6
6
CONTINUOUS
290
1
370
-3
390
0
0
LAYER
5
44
100
AcDbSymbolTableRecord
100
AcDbLayerTableRecord
2
81
70
0
62
-3
6
CONTINUOUS
290
1
370
-3
390
0
0
LAYER
5
46
100
AcDbSymbolTableRecord
100
AcDbLayerTableRecord
2
1
70
0
62
4
6
CONTINUOUS
290
1
370
-3
390
0
0
LAYER
5
48
100
AcDbSymbolTableRecord
100
AcDbLayerTableRecord
2
2
70
0
62
7
6
CONTINUOUS
290
1
370
-3
390
0
0
LAYER
5
5D
100
AcDbSymbolTableRecord
100
AcDbLayerTableRecord
2
4
70
0
62
-2
6
CENTER
290
1
370
-3
390
0
0
LAYER
5
166
100
AcDbSymbolTableRecord
100
AcDbLayerTableRecord
2
SK1
70
0
62
4
6
CONTINUOUS
290
1
370
-3
390
0
0
LAYER
5
167
100
AcDbSymbolTableRecord
100
AcDbLayerTableRecord
2
SK4
70
0
62
2
6
CENTER
290
1
370
-3
390
0
0
LAYER
5
168
100
AcDbSymbolTableRecord
100
AcDbLayerTableRecord
2
SK6
70
0
62
5
6
CONTINUOUS
290
1
370
-3
390
0
0
LAYER
5
169
100
AcDbSymbolTableRecord
100
AcDbLayerTableRecord
2
SK2
70
0
62
7
6
CONTINUOUS
290
1
370
-3
390
0
0
ENDTAB
0
TABLE
2
STYLE
5
17d
100
AcDbSymbolTable
0
STYLE
5
11
100
AcDbSymbolTableRecord
100
AcDbTextStyleTableRecord
2
Standard
3
txt
70
0
71
0
40
0
41
1
42
0
50
0
0
STYLE
5
E2
100
AcDbSymbolTableRecord
100
AcDbTextStyleTableRecord
2
DEFAULT
3
simplex.shx
70
0
71
0
40
0
41
1
42
0
50
0
0
STYLE
5
105
100
AcDbSymbolTableRecord
100
AcDbTextStyleTableRecord
2
DWGDirectTextStyle
3
SIMPLEX
70
0
71
0
40
0
41
1
42
0
50
0
0
ENDTAB
0
TABLE
2
DIMSTYLE
5
17e
100
AcDbSymbolTable
100
AcDbDimStyleTable
0
DIMSTYLE
105
27
100
AcDbSymbolTableRecord
100
AcDbDimStyleTableRecord
2
Standard
70
0
3
<>
41
0.18
42
0.0625
44
0.18
140
0.18
147
0.09
73
0
74
0
77
1
271
2
275
0
278
52
280
0
340
11
0
ENDTAB
0
TABLE
2
VIEW
5
17f
100
AcDbSymbolTable
0
ENDTAB
0
TABLE
2
UCS
5
180
100
AcDbSymbolTable
0
ENDTAB
0
TABLE
2
APPID
5
181
100
AcDbSymbolTable
0
APPID
5
12
100
AcDbSymbolTableRecord
100
AcDbRegAppTableRecord
2
ACAD
70
0
0
ENDTAB
0
TABLE
2
BLOCK_RECORD
5
182
100
AcDbSymbolTable
0
BLOCK_RECORD
5
1F
100
AcDbSymbolTableRecord
100
AcDbBlockTableRecord
2
*Model_Space
340
0
70
0
0
BLOCK_RECORD
5
1B
100
AcDbSymbolTableRecord
100
AcDbBlockTableRecord
2
*Paper_Space
340
0
70
0
0
BLOCK_RECORD
5
23
100
AcDbSymbolTableRecord
100
AcDbBlockTableRecord
2
*Paper_Space0
340
0
70
0
0
BLOCK_RECORD
5
107
100
AcDbSymbolTableRecord
100
AcDbBlockTableRecord
2
DimnDraft3D1
340
0
70
0
0
BLOCK_RECORD
5
115
100
AcDbSymbolTableRecord
100
AcDbBlockTableRecord
2
_CLOSED
340
0
70
0
0
BLOCK_RECORD
5
11C
100
AcDbSymbolTableRecord
100
AcDbBlockTableRecord
2
DimnDraft3D2
340
0
70
0
0
BLOCK_RECORD
5
12B
100
AcDbSymbolTableRecord
100
AcDbBlockTableRecord
2
DimnDraft3D3
340
0
70
0
0
BLOCK_RECORD
5
139
100
AcDbSymbolTableRecord
100
AcDbBlockTableRecord
2
DimnDraft3D4
340
0
70
0
0
ENDTAB
0
ENDSEC
0
SECTION
2
BLOCKS
0
BLOCK
5
20
100
AcDbEntity
8
0
100
AcDbBlockBegin
2
*Model_Space
70
0
10
0
20
0
30
0
3
*Model_Space
0
ENDBLK
5
21
100
AcDbEntity
8
0
100
AcDbBlockEnd
0
BLOCK
5
1C
100
AcDbEntity
8
0
100
AcDbBlockBegin
2
*Paper_Space
70
0
10
0
20
0
30
0
3
*Paper_Space
0
ENDBLK
5
1D
100
AcDbEntity
8
0
100
AcDbBlockEnd
0
BLOCK
5
24
100
AcDbEntity
8
0
100
AcDbBlockBegin
2
*Paper_Space0
70
0
10
0
20
0
30
0
3
*Paper_Space0
0
ENDBLK
5
25
100
AcDbEntity
8
0
100
AcDbBlockEnd
0
BLOCK
5
112
100
AcDbEntity
8
0
100
AcDbBlockBegin
2
DimnDraft3D1
70
0
10
0
20
0
30
0
3
DimnDraft3D1
0
MTEXT
5
108
100
AcDbEntity
8
2
62
256
6
ByLayer
370
-1
48
1
60
0
100
AcDbMText
10
91.055
20
-31.231316
30
0
210
0
220
0
230
1
1
\W01.000;\fsimplex.shx,bigfont.shx;13.0 
40
4.5
41
0
44
1.084337
50
90
71
7
72
5
7
DEFAULT
0
LINE
5
109
100
AcDbEntity
8
2
62
256
6
ByLayer
370
-1
48
1
60
0
100
AcDbLine
10
81.93
20
-12.9
30
0
11
94.18
21
-12.9
31
0
39
0
210
0
220
0
230
1
0
LINE
5
10A
100
AcDbEntity
8
2
62
256
6
ByLayer
370
-1
48
1
60
0
100
AcDbLine
10
81.93
20
0
30
0
11
94.18
21
0
31
0
39
0
210
0
220
0
230
1
0
LINE
5
10B
100
AcDbEntity
8
2
62
256
6
ByLayer
370
-1
48
1
60
0
100
AcDbLine
10
92.18
20
0
30
0
11
92.18
21
-32.356316
31
0
39
0
210
0
220
0
230
1
0
LINE
5
10C
100
AcDbEntity
8
2
62
256
6
ByLayer
370
-1
48
1
60
0
100
AcDbLine
10
92.18
20
-12.9
30
0
11
91.762003
21
-9.725002
31
0
39
0
210
0
220
0
230
1
0
LINE
5
10D
100
AcDbEntity
8
2
62
256
6
ByLayer
370
-1
48
1
60
0
100
AcDbLine
10
92.18
20
-12.9
30
0
11
92.597997
21
-9.724998
31
0
39
0
210
0
220
0
230
1
0
LINE
5
10E
100
AcDbEntity
8
2
62
256
6
ByLayer
370
-1
48
1
60
0
100
AcDbLine
10
91.762003
20
-9.725002
30
0
11
92.597997
21
-9.724998
31
0
39
0
210
0
220
0
230
1
0
LINE
5
10F
100
AcDbEntity
8
2
62
256
6
ByLayer
370
-1
48
1
60
0
100
AcDbLine
10
92.18
20
0
30
0
11
92.597997
21
-3.174998
31
0
39
0
210
0
220
0
230
1
0
LINE
5
110
100
AcDbEntity
8
2
62
256
6
ByLayer
370
-1
48
1
60
0
100
AcDbLine
10
92.18
20
0
30
0
11
91.762003
21
-3.175002
31
0
39
0
210
0
220
0
230
1
0
LINE
5
111
100
AcDbEntity
8
2
62
256
6
ByLayer
370
-1
48
1
60
0
100
AcDbLine
10
92.597997
20
-3.174998
30
0
11
91.762003
21
-3.175002
31
0
39
0
210
0
220
0
230
1
0
ENDBLK
5
113
100
AcDbEntity
8
0
100
AcDbBlockEnd
0
BLOCK
5
116
100
AcDbEntity
8
0
100
AcDbBlockBegin
2
_CLOSED
70
0
10
0
20
0
30
0
3
_CLOSED
0
LINE
5
118
100
AcDbEntity
8
0
62
256
6
ByLayer
370
-2
48
1
60
0
100
AcDbLine
10
-1
20
0.166667
30
0
11
0
21
0
31
0
39
0
210
0
220
0
230
1
0
LINE
5
119
100
AcDbEntity
8
0
62
256
6
ByLayer
370
-2
48
1
60
0
100
AcDbLine
10
0
20
0
30
0
11
-1
21
-0.166667
31
0
39
0
210
0
220
0
230
1
0
LINE
5
11A
100
AcDbEntity
8
0
62
256
6
ByLayer
370
-2
48
1
60
0
100
AcDbLine
10
-1
20
0.166667
30
0
11
-1
21
-0.166667
31
0
39
0
210
0
220
0
230
1
0
LINE
5
11B
100
AcDbEntity
8
0
62
256
6
ByLayer
370
-2
48
1
60
0
100
AcDbLine
10
0
20
0
30
0
11
-1
21
0
31
0
39
0
210
0
220
0
230
1
0
ENDBLK
5
117
100
AcDbEntity
8
0
100
AcDbBlockEnd
0
BLOCK
5
128
100
AcDbEntity
8
0
100
AcDbBlockBegin
2
DimnDraft3D2
70
0
10
0
20
0
30
0
3
DimnDraft3D2
0
MTEXT
5
11D
100
AcDbEntity
8
SK2
62
256
6
ByLayer
370
-1
48
1
60
0
100
AcDbMText
10
-182.195
20
-3.659211
30
0
210
0
220
0
230
1
1
\W01.000;\fsimplex.shx,bigfont.shx;%%c20 
40
4.5
41
0
44
1.084337
50
90
71
7
72
5
7
DEFAULT
0
LINE
5
11F
100
AcDbEntity
8
SK2
62
256
6
ByLayer
370
-1
48
1
60
0
100
AcDbLine
10
-173.32
20
-9.99125
30
0
11
-183.07
21
-9.99125
31
0
39
0
210
0
220
0
230
1
0
LINE
5
120
100
AcDbEntity
8
SK2
62
256
6
ByLayer
370
-1
48
1
60
0
100
AcDbLine
10
-173.32
20
9.99125
30
0
11
-183.07
21
9.99125
31
0
39
0
210
0
220
0
230
1
0
LINE
5
121
100
AcDbEntity
8
SK2
62
256
6
ByLayer
370
-1
48
1
60
0
100
AcDbLine
10
-181.07
20
-9.99125
30
0
11
-181.07
21
9.99125
31
0
39
0
210
0
220
0
230
1
0
LINE
5
122
100
AcDbEntity
8
SK2
62
256
6
ByLayer
370
-1
48
1
60
0
100
AcDbLine
10
-181.07
20
-9.99125
30
0
11
-181.487997
21
-6.816252
31
0
39
0
210
0
220
0
230
1
0
LINE
5
123
100
AcDbEntity
8
SK2
62
256
6
ByLayer
370
-1
48
1
60
0
100
AcDbLine
10
-181.07
20
-9.99125
30
0
11
-180.652003
21
-6.816248
31
0
39
0
210
0
220
0
230
1
0
LINE
5
124
100
AcDbEntity
8
SK2
62
256
6
ByLayer
370
-1
48
1
60
0
100
AcDbLine
10
-181.487997
20
-6.816252
30
0
11
-180.652003
21
-6.816248
31
0
39
0
210
0
220
0
230
1
0
LINE
5
125
100
AcDbEntity
8
SK2
62
256
6
ByLayer
370
-1
48
1
60
0
100
AcDbLine
10
-181.07
20
9.99125
30
0
11
-180.652003
21
6.816252
31
0
39
0
210
0
220
0
230
1
0
LINE
5
126
100
AcDbEntity
8
SK2
62
256
6
ByLayer
370
-1
48
1
60
0
100
AcDbLine
10
-181.07
20
9.99125
30
0
11
-181.487997
21
6.816248
31
0
39
0
210
0
220
0
230
1
0
LINE
5
127
100
AcDbEntity
8
SK2
62
256
6
ByLayer
370
-1
48
1
60
0
100
AcDbLine
10
-180.652003
20
6.816252
30
0
11
-181.487997
21
6.816248
31
0
39
0
210
0
220
0
230
1
0
ENDBLK
5
129
100
AcDbEntity
8
0
100
AcDbBlockEnd
0
BLOCK
5
136
100
AcDbEntity
8
0
100
AcDbBlockBegin
2
DimnDraft3D3
70
0
10
0
20
0
30
0
3
DimnDraft3D3
0
MTEXT
5
12C
100
AcDbEntity
8
SK2
62
256
6
ByLayer
370
-1
48
1
60
0
100
AcDbMText
10
-51.385132
20
-29.025
30
0
210
0
220
0
230
1
1
\W01.000;\fsimplex.shx,bigfont.shx;250.0 
40
4.5
41
0
44
1.084337
50
0
71
7
72
5
7
DEFAULT
0
LINE
5
12D
100
AcDbEntity
8
SK2
62
256
6
ByLayer
370
-1
48
1
60
0
100
AcDbLine
10
-171.32
20
-11.99125
30
0
11
-171.32
21
-32.15
31
0
39
0
210
0
220
0
230
1
0
LINE
5
12E
100
AcDbEntity
8
SK2
62
256
6
ByLayer
370
-1
48
1
60
0
100
AcDbLine
10
79.93
20
-14.9
30
0
11
79.93
21
-32.15
31
0
39
0
210
0
220
0
230
1
0
LINE
5
12F
100
AcDbEntity
8
SK2
62
256
6
ByLayer
370
-1
48
1
60
0
100
AcDbLine
10
-171.32
20
-30.15
30
0
11
79.93
21
-30.15
31
0
39
0
210
0
220
0
230
1
0
LINE
5
130
100
AcDbEntity
8
SK2
62
256
6
ByLayer
370
-1
48
1
60
0
100
AcDbLine
10
-171.32
20
-30.15
30
0
11
-168.145002
21
-29.732003
31
0
39
0
210
0
220
0
230
1
0
LINE
5
131
100
AcDbEntity
8
SK2
62
256
6
ByLayer
370
-1
48
1
60
0
100
AcDbLine
10
-171.32
20
-30.15
30
0
11
-168.144998
21
-30.567997
31
0
39
0
210
0
220
0
230
1
0
LINE
5
132
100
AcDbEntity
8
SK2
62
256
6
ByLayer
370
-1
48
1
60
0
100
AcDbLine
10
-168.145002
20
-29.732003
30
0
11
-168.144998
21
-30.567997
31
0
39
0
210
0
220
0
230
1
0
LINE
5
133
100
AcDbEntity
8
SK2
62
256
6
ByLayer
370
-1
48
1
60
0
100
AcDbLine
10
79.93
20
-30.15
30
0
11
76.755002
21
-30.567997
31
0
39
0
210
0
220
0
230
1
0
LINE
5
134
100
AcDbEntity
8
SK2
62
256
6
ByLayer
370
-1
48
1
60
0
100
AcDbLine
10
79.93
20
-30.15
30
0
11
76.754998
21
-29.732003
31
0
39
0
210
0
220
0
230
1
0
LINE
5
135
100
AcDbEntity
8
SK2
62
256
6
ByLayer
370
-1
48
1
60
0
100
AcDbLine
10
76.755002
20
-30.567997
30
0
11
76.754998
21
-29.732003
31
0
39
0
210
0
220
0
230
1
0
ENDBLK
5
137
100
AcDbEntity
8
0
100
AcDbBlockEnd
0
BLOCK
5
144
100
AcDbEntity
8
0
100
AcDbBlockBegin
2
DimnDraft3D4
70
0
10
0
20
0
30
0
3
DimnDraft3D4
0
MTEXT
5
13A
100
AcDbEntity
8
2
62
256
6
ByLayer
370
-1
48
1
60
0
100
AcDbMText
10
103.735776
20
31.136179
30
0
210
0
220
0
230
1
1
\W01.000;\fsimplex.shx,bigfont.shx;91%%d0' 
40
4.5
41
0
44
1.084337
50
315.5
71
7
72
5
7
DEFAULT
0
LINE
5
13B
100
AcDbEntity
8
2
62
256
6
ByLayer
370
-1
48
1
60
0
100
AcDbLine
10
79.703119
20
0.09802
30
0
11
79.008018
21
39.920326
31
0
39
0
210
0
220
0
230
1
0
LINE
5
13C
100
AcDbEntity
8
2
62
256
6
ByLayer
370
-1
48
1
60
0
100
AcDbLine
10
81.93
20
0
30
0
11
119.631237
21
0
31
0
39
0
210
0
220
0
230
1
0
ARC
5
13D
100
AcDbEntity
8
2
62
256
6
ByLayer
370
-1
48
1
60
0
100
AcDbCircle
39
0
10
79.70483
20
0
30
0
40
37.9264068640928
210
0
220
0
230
1
100
AcDbArc
50
0
51
91
0
LINE
5
13E
100
AcDbEntity
8
2
62
256
6
ByLayer
370
-1
48
1
60
0
100
AcDbLine
10
79.042923
20
37.92063
30
0
11
82.21935
21
38.327629
31
0
39
0
210
0
220
0
230
1
0
LINE
5
13F
100
AcDbEntity
8
2
62
256
6
ByLayer
370
-1
48
1
60
0
100
AcDbLine
10
79.042923
20
37.92063
30
0
11
82.216457
21
37.491641
31
0
39
0
210
0
220
0
230
1
0
LINE
5
140
100
AcDbEntity
8
2
62
256
6
ByLayer
370
-1
48
1
60
0
100
AcDbLine
10
82.21935
20
38.327629
30
0
11
82.216457
21
37.491641
31
0
39
0
210
0
220
0
230
1
0
LINE
5
141
100
AcDbEntity
8
2
62
256
6
ByLayer
370
-1
48
1
60
0
100
AcDbLine
10
117.631237
20
0
30
0
11
117.146926
21
3.165562
31
0
39
0
210
0
220
0
230
1
0
LINE
5
142
100
AcDbEntity
8
2
62
256
6
ByLayer
370
-1
48
1
60
0
100
AcDbLine
10
117.631237
20
0
30
0
11
117.982737
21
3.183049
31
0
39
0
210
0
220
0
230
1
0
LINE
5
143
100
AcDbEntity
8
2
62
256
6
ByLayer
370
-1
48
1
60
0
100
AcDbLine
10
117.146926
20
3.165562
30
0
11
117.982737
21
3.183049
31
0
39
0
210
0
220
0
230
1
0
ENDBLK
5
145
100
AcDbEntity
8
0
100
AcDbBlockEnd
0
ENDSEC
0
SECTION
2
ENTITIES
0
ELLIPSE
5
93
100
AcDbEntity
8
1
62
256
6
ByLayer
370
-1
48
1
60
0
100
AcDbEllipse
10
71.069511
20
-7.691806
30
0
11
-1.0498400799143
21
-0.0183250267591452
31
0
210
0
220
0
230
1
40
0.998848
41
1.45556903857824
42
2.11404570279144
0
ELLIPSE
5
94
100
AcDbEntity
8
1
62
256
6
ByLayer
370
-1
48
1
60
0
100
AcDbEllipse
10
71.071981
20
-7.833319
30
0
11
1.0498400799143
21
0.0183250267591456
31
0
210
0
220
0
230
1
40
0.998848
41
0.860164223350572
42
1.4617015176352
0
ELLIPSE
5
95
100
AcDbEntity
8
1
62
256
6
ByLayer
370
-1
48
1
60
0
100
AcDbEllipse
10
71.06926
20
-7.677414
30
0
11
1.04984007991436
21
0.0183250267591466
31
0
210
0
220
0
230
1
40
0.998848
41
-3.06697816013886
42
-1.04114187780111
0
ELLIPSE
5
96
100
AcDbEntity
8
1
62
256
6
ByLayer
370
-1
48
1
60
0
100
AcDbEllipse
10
72.249143
20
-8.635785
30
0
11
-1.24980961894549
21
-0.0218155080465996
31
0
210
0
220
0
230
1
40
0.998848
41
0.523569227768348
42
2.09438443598711
0
ELLIPSE
5
97
100
AcDbEntity
8
1
62
256
6
ByLayer
370
-1
48
1
60
0
100
AcDbEllipse
10
72.143322
20
-8.313249
30
0
11
-1.24980961894549
21
-0.0218155080465996
31
0
210
0
220
0
230
1
40
0.998848
41
0.327596007838564
42
0.523598775598313
0
ELLIPSE
5
98
100
AcDbEntity
8
1
62
256
6
ByLayer
370
-1
48
1
60
0
100
AcDbEllipse
10
-2.991107
20
-279.063387
30
0
11
123.133288632765
21
459.015744959833
31
0
210
5.54667823983524E-31
220
2.60436403249364E-16
230
1
40
0.04612
41
0.917778171144857
42
0.941587311668355
0
ELLIPSE
5
99
100
AcDbEntity
8
1
62
256
6
ByLayer
370
-1
48
1
60
0
100
AcDbEllipse
10
72.146132
20
-8.464547
30
0
11
-1.24980961894549
21
-0.0218155080465996
31
0
210
0
220
0
230
1
40
0.998848
41
0.327560393774514
42
0.523569227768412
0
ELLIPSE
5
9A
100
AcDbEntity
8
1
62
256
6
ByLayer
370
-1
48
1
60
0
100
AcDbEllipse
10
71.072296
20
-7.843061
30
0
11
-1.0498400799143
21
-0.0183250267591452
31
0
210
0
220
0
230
1
40
0.998848
41
-1.67989147288185
42
1.45556865520816
0
ELLIPSE
5
9B
100
AcDbEntity
8
1
62
256
6
ByLayer
370
-1
48
1
60
0
100
AcDbEllipse
10
72.246326
20
-8.484483
30
0
11
-1.24980961894549
21
-0.0218155080465996
31
0
210
0
220
0
230
1
40
0.998848
41
0.523598775598297
42
2.09439510239324
0
ELLIPSE
5
9C
100
AcDbEntity
8
1
62
256
6
ByLayer
370
-1
48
1
60
0
100
AcDbEllipse
10
76.671402
20
-7.730664
30
0
11
1.88093516011929
21
0.032831845345643
31
0
210
0
220
0
230
1
40
0.998848
41
3.11881879922669
42
-9.45346091948496E-16
0
ELLIPSE
5
9D
100
AcDbEntity
8
1
62
256
6
ByLayer
370
-1
48
1
60
0
100
AcDbEllipse
10
76.671402
20
-7.730664
30
0
11
1.88093516011929
21
0.032831845345643
31
0
210
0
220
0
230
1
40
0.998848
41
0
42
1.14305392140255
0
ELLIPSE
5
9E
100
AcDbEntity
8
1
62
256
6
ByLayer
370
-1
48
1
60
0
100
AcDbEllipse
10
76.671402
20
-7.730664
30
0
11
1.88093516011929
21
0.032831845345643
31
0
210
0
220
0
230
1
40
0.998848
41
1.99857523756965
42
3.1188187992267
0
ELLIPSE
5
9F
100
AcDbEntity
8
1
62
256
6
ByLayer
370
-1
48
1
60
0
100
AcDbEllipse
10
79.365362
20
-2.892421
30
0
11
0.396814554015218
21
0.00692642380479597
31
0
210
0
220
0
230
1
40
0.998848
41
0
42
2.09439510239319
0
ELLIPSE
5
A0
100
AcDbEntity
8
1
62
256
6
ByLayer
370
-1
48
1
60
0
100
AcDbEllipse
10
71.116138
20
-7.843457
30
0
11
0.396814554015218
21
0.00692642380479597
31
0
210
0
220
0
230
1
40
0.998848
41
2.09439510239319
42
-2.09439510239319
0
ELLIPSE
5
A1
100
AcDbEntity
8
1
62
256
6
ByLayer
370
-1
48
1
60
0
100
AcDbEllipse
10
76.671853
20
-7.756448
30
0
11
1.90439934775034
21
0.0332414142642308
31
0
210
0
220
0
230
1
40
0.998848
41
0
42
6.28318530717959
0
ELLIPSE
5
A2
100
AcDbEntity
8
1
62
256
6
ByLayer
370
-1
48
1
60
0
100
AcDbEllipse
10
79.533627
20
-12.513658
30
0
11
0.396814554015218
21
0.00692642380479597
31
0
210
0
220
0
230
1
40
0.998848
41
-2.09440455512996
42
-4.02017087937473E-05
0
ELLIPSE
5
A3
100
AcDbEntity
8
1
62
256
6
ByLayer
370
-1
48
1
60
0
100
AcDbEllipse
10
76.671192
20
-7.718675
30
0
11
-1.80114027624331
21
-0.0314390204666478
31
0
210
0
220
0
230
1
40
0.998848
41
0
42
6.28318530717959
0
ELLIPSE
5
A4
100
AcDbEntity
8
1
62
256
6
ByLayer
370
-1
48
1
60
0
100
AcDbEllipse
10
76.671121
20
-7.714647
30
0
11
1.72473727414477
21
0.030105401104308
31
0
210
0
220
0
230
1
40
0.998848
41
3.11833882836874
42
3.13581111885271
0
ELLIPSE
5
A5
100
AcDbEntity
8
1
62
256
6
ByLayer
370
-1
48
1
60
0
100
AcDbEllipse
10
76.671121
20
-7.714647
30
0
11
1.72473727414477
21
0.030105401104308
31
0
210
0
220
0
230
1
40
0.998848
41
0.00568752095747883
42
3.1183394087469
0
ELLIPSE
5
A6
100
AcDbEntity
8
1
62
256
6
ByLayer
370
-1
48
1
60
0
100
AcDbEllipse
10
76.691626
20
-8.868355
30
0
11
-0.421935727355997
21
-0.00736491551653201
31
0
210
0
220
0
230
1
40
0.998848
41
-2.34526706481753
42
-1.57036733696508
0
ELLIPSE
5
A7
100
AcDbEntity
8
1
62
256
6
ByLayer
370
-1
48
1
60
0
100
AcDbEllipse
10
76.671037
20
-7.70985
30
0
11
-0.747886075976978
21
-0.0130544000150851
31
0
210
0
220
0
230
1
40
0.998848
41
2.62909384266928
42
-2.73557284909862
0
ELLIPSE
5
A8
100
AcDbEntity
8
1
62
256
6
ByLayer
370
-1
48
1
60
0
100
AcDbEllipse
10
76.671731
20
-7.749478
30
0
11
1.72473727414477
21
0.030105401104308
31
0
210
0
220
0
230
1
40
0.998848
41
0
42
6.28318530717959
0
ELLIPSE
5
A9
100
AcDbEntity
8
1
62
256
6
ByLayer
370
-1
48
1
60
0
100
AcDbEllipse
10
76.671037
20
-7.70985
30
0
11
-0.747886075976978
21
-0.0130544000150851
31
0
210
0
220
0
230
1
40
0.998848
41
0.561301944975845
42
1.57122530379561
0
ELLIPSE
5
AA
100
AcDbEntity
8
1
62
256
6
ByLayer
370
-1
48
1
60
0
100
AcDbEllipse
10
76.671037
20
-7.70985
30
0
11
-0.747886075976978
21
-0.0130544000150851
31
0
210
0
220
0
230
1
40
0.998848
41
-1.38691330302173
42
-0.599670308894265
0
ELLIPSE
5
AB
100
AcDbEntity
8
1
62
256
6
ByLayer
370
-1
48
1
60
0
100
AcDbEllipse
10
77.108496
20
-8.427633
30
0
11
-0.184971823603932
21
-0.00322869519089673
31
0
210
0
220
0
230
1
40
0.998848
41
0.796325588772123
42
3.14157174088604
0
ELLIPSE
5
AC
100
AcDbEntity
8
1
62
256
6
ByLayer
370
-1
48
1
60
0
100
AcDbEllipse
10
76.691626
20
-8.868355
30
0
11
-0.421935727355997
21
-0.00736491551653201
31
0
210
0
220
0
230
1
40
0.998848
41
-1.57036733696508
42
-0.795467609112511
0
ELLIPSE
5
AD
100
AcDbEntity
8
1
62
256
6
ByLayer
370
-1
48
1
60
0
100
AcDbEllipse
10
76.671877
20
-7.757821
30
0
11
1.29980200370335
21
0.0226881283684648
31
0
210
0
220
0
230
1
40
0.998848
41
0
42
6.28318530717959
0
ELLIPSE
5
AE
100
AcDbEntity
8
1
62
256
6
ByLayer
370
-1
48
1
60
0
100
AcDbEllipse
10
77.67236
20
-7.098728
30
0
11
-0.421935727355997
21
-0.00736491551653201
31
0
210
0
220
0
230
1
40
0.998848
41
-0.253487424293686
42
1.16026776069564E-05
0
ELLIPSE
5
AF
100
AcDbEntity
8
1
62
256
6
ByLayer
370
-1
48
1
60
0
100
AcDbEllipse
10
75.820845
20
-7.713995
30
0
11
-0.184971823603932
21
-0.00322869519089673
31
0
210
0
220
0
230
1
40
0.998848
41
0.130413094114038
42
1.30068497549014
0
ELLIPSE
5
B0
100
AcDbEntity
8
1
62
256
6
ByLayer
370
-1
48
1
60
0
100
AcDbEllipse
10
76.671877
20
-7.757821
30
0
11
1.03484236448686
21
0.0180632406625847
31
0
210
0
220
0
230
1
40
0.998848
41
2.0943844359871
42
3.14069447104953
0
ELLIPSE
5
B1
100
AcDbEntity
8
1
62
256
6
ByLayer
370
-1
48
1
60
0
100
AcDbEllipse
10
76.671877
20
-7.757821
30
0
11
1.03484236448686
21
0.0180632406625847
31
0
210
0
220
0
230
1
40
0.998848
41
-0.000898182540268854
42
1.04804610736558
0
ELLIPSE
5
B2
100
AcDbEntity
8
1
62
256
6
ByLayer
370
-1
48
1
60
0
100
AcDbEllipse
10
76.671037
20
-7.70985
30
0
11
-0.747886075976978
21
-0.0130544000150851
31
0
210
0
220
0
230
1
40
0.998848
41
-2.56896185983736
42
-1.72021220674112
0
ELLIPSE
5
B3
100
AcDbEntity
8
1
62
256
6
ByLayer
370
-1
48
1
60
0
100
AcDbEllipse
10
77.693778
20
-8.266881
30
0
11
-0.421935727355997
21
-0.00736491551653201
31
0
210
0
220
0
230
1
40
0.998848
41
-1.29892749328055
42
-0.52402776542811
0
ELLIPSE
5
B4
100
AcDbEntity
8
1
62
256
6
ByLayer
370
-1
48
1
60
0
100
AcDbEllipse
10
75.647678
20
-7.132897
30
0
11
-0.421935727355997
21
-0.00736491551653201
31
0
210
0
220
0
230
1
40
0.998848
41
3.14159164837329
42
-2.89072069116554
0
ELLIPSE
5
B5
100
AcDbEntity
8
1
62
256
6
ByLayer
370
-1
48
1
60
0
100
AcDbEllipse
10
76.259263
20
-8.442821
30
0
11
-0.184971823603932
21
-0.00322869519089673
31
0
210
0
220
0
230
1
40
0.998848
41
0.0884015458681101
42
2.34612504447729
0
ELLIPSE
5
B6
100
AcDbEntity
8
1
62
256
6
ByLayer
370
-1
48
1
60
0
100
AcDbEllipse
10
76.671877
20
-7.757821
30
0
11
1.03484236448686
21
0.0180632406625847
31
0
210
0
220
0
230
1
40
0.998848
41
-1.04720821760266
42
-0.000898182540268854
0
ELLIPSE
5
B7
100
AcDbEntity
8
1
62
256
6
ByLayer
370
-1
48
1
60
0
100
AcDbEllipse
10
76.671738
20
-7.749872
30
0
11
0.747886075976979
21
0.0130544000150855
31
0
210
0
220
0
230
1
40
0.998848
41
0.485836564299912
42
0.561301944976376
0
ELLIPSE
5
B8
100
AcDbEntity
8
1
62
256
6
ByLayer
370
-1
48
1
60
0
100
AcDbEllipse
10
77.693778
20
-8.266881
30
0
11
-0.421935727355997
21
-0.00736491551653201
31
0
210
0
220
0
230
1
40
0.998848
41
-0.52402776542811
42
-2.66659837812538E-06
0
ELLIPSE
5
B9
100
AcDbEntity
8
1
62
256
6
ByLayer
370
-1
48
1
60
0
100
AcDbEllipse
10
76.671877
20
-7.757821
30
0
11
1.03484236448686
21
0.0180632406625847
31
0
210
0
220
0
230
1
40
0.998848
41
1.04804610736558
42
2.0943844359871
0
ELLIPSE
5
BA
100
AcDbEntity
8
1
62
256
6
ByLayer
370
-1
48
1
60
0
100
AcDbEllipse
10
76.671037
20
-7.70985
30
0
11
0.747886075976973
21
0.0130544000150854
31
0
210
0
220
0
230
1
40
0.998848
41
-1.57036734979422
42
-0.524058511594822
0
ELLIPSE
5
BB
100
AcDbEntity
8
1
62
256
6
ByLayer
370
-1
48
1
60
0
100
AcDbEllipse
10
76.671738
20
-7.749872
30
0
11
0.747886075976979
21
0.0130544000150855
31
0
210
0
220
0
230
1
40
0.998848
41
-2.65575608928971
42
-2.58029070861356
0
ELLIPSE
5
BC
100
AcDbEntity
8
1
62
256
6
ByLayer
370
-1
48
1
60
0
100
AcDbEllipse
10
76.671037
20
-7.70985
30
0
11
-0.747886075976978
21
-0.0130544000150851
31
0
210
0
220
0
230
1
40
0.998848
41
-0.393168555395254
42
0.47392336407654
0
ELLIPSE
5
BD
100
AcDbEntity
8
1
62
256
6
ByLayer
370
-1
48
1
60
0
100
AcDbEllipse
10
76.671877
20
-7.757821
30
0
11
1.03484236448686
21
0.0180632406625847
31
0
210
0
220
0
230
1
40
0.998848
41
3.14069447104953
42
-2.09354654622411
0
ELLIPSE
5
BE
100
AcDbEntity
8
1
62
256
6
ByLayer
370
-1
48
1
60
0
100
AcDbEllipse
10
76.671877
20
-7.757821
30
0
11
1.03484236448686
21
0.0180632406625847
31
0
210
0
220
0
230
1
40
0.998848
41
-2.09354654622411
42
-1.04720821760266
0
ELLIPSE
5
BF
100
AcDbEntity
8
1
62
256
6
ByLayer
370
-1
48
1
60
0
100
AcDbEllipse
10
77.520611
20
-7.685783
30
0
11
-0.184971823603932
21
-0.00322869519089673
31
0
210
0
220
0
230
1
40
0.998848
41
1.84266516030916
42
-3.14156931738101
0
POINT
5
41
100
AcDbEntity
8
80
62
256
6
ByLayer
370
-1
48
1
60
0
100
AcDbPoint
10
0
20
0
30
0
39
0
210
0
220
0
230
1
50
360
0
POINT
5
43
100
AcDbEntity
8
81
62
256
6
ByLayer
370
-1
48
1
60
0
100
AcDbPoint
10
79.93
20
-12.9
30
0
39
0
210
0
220
0
230
1
50
360
0
POINT
5
45
100
AcDbEntity
8
1
62
256
6
ByLayer
370
-1
48
1
60
0
100
AcDbPoint
10
-171.32
20
0
30
0
39
0
210
0
220
0
230
1
50
360
0
POINT
5
47
100
AcDbEntity
8
2
62
256
6
ByLayer
370
-1
48
1
60
0
100
AcDbPoint
10
79.93
20
12.9
30
0
39
0
210
0
220
0
230
1
50
360
0
SPLINE
5
C0
100
AcDbEntity
8
1
62
256
6
ByLayer
370
-1
48
1
60
0
100
AcDbSpline
70
4
71
3
72
8
73
4
40
0
40
0
40
0
40
0
40
1
40
1
40
1
40
1
41
1
10
63.514777296362
20
9.32008512584281
30
0
41
1
10
64.0165899972739
20
9.40798834326483
30
0
41
1
10
64.5282086352095
20
9.48027917168056
30
0
41
1
10
65.0473875006348
20
9.54035464046109
30
0
0
SPLINE
5
C1
100
AcDbEntity
8
1
62
256
6
ByLayer
370
-1
48
1
60
0
100
AcDbSpline
70
4
71
3
72
8
73
4
40
0
40
0
40
0
40
0
40
1
40
1
40
1
40
1
41
1
10
66.3126124336043
20
-9.91601090404822
30
0
41
1
10
67.0569058404919
20
-10.3558144115651
30
0
41
1
10
67.8045387136251
20
-10.7955238160032
30
0
41
1
10
68.5541601240525
20
-11.2374006595082
30
0
0
SPLINE
5
C2
100
AcDbEntity
8
1
62
256
6
ByLayer
370
-1
48
1
60
0
100
AcDbSpline
70
4
71
3
72
8
73
4
40
0
40
0
40
0
40
0
40
1
40
1
40
1
40
1
41
1
10
76.1495176021509
20
-12.218968024402
30
0
41
1
10
73.9129370990882
20
-12.0657934384938
30
0
41
1
10
71.6763569825973
20
-11.9126132241945
30
0
41
1
10
69.4397773000001
20
-11.7594266932508
30
0
0
SPLINE
5
C3
100
AcDbEntity
8
1
62
256
6
ByLayer
370
-1
48
1
60
0
100
AcDbSpline
70
4
71
3
72
10
73
6
40
0
40
0
40
0
40
0
40
0.5
40
0.5
40
1
40
1
40
1
40
1
41
1
10
52.3579307534452
20
-4.33878745302212
30
0
41
1
10
52.4156730499874
20
-5.2752055719485
30
0
41
1
10
52.6342232105788
20
-6.13027269635964
30
0
41
1
10
53.4111845367235
20
-7.53569950897347
30
0
41
1
10
53.9725475331916
20
-8.09254330546204
30
0
41
1
10
54.648307949227
20
-8.50875000000059
30
0
0
SPLINE
5
C4
100
AcDbEntity
8
1
62
256
6
ByLayer
370
-1
48
1
60
0
100
AcDbSpline
70
4
71
3
72
8
73
4
40
0
40
0
40
0
40
0
40
1
40
1
40
1
40
1
41
1
10
68.5541601240525
20
-11.2374006595082
30
0
41
1
10
68.8493635440352
20
-11.4114132391908
30
0
41
1
10
69.1445693718776
20
-11.5854217436893
30
0
41
1
10
69.4397773000001
20
-11.7594266932508
30
0
0
SPLINE
5
C5
100
AcDbEntity
8
1
62
256
6
ByLayer
370
-1
48
1
60
0
100
AcDbSpline
70
4
71
3
72
28
73
24
40
-0.124999999999993
40
-0.124999999999993
40
0
40
0
40
0.125000000000003
40
0.125000000000003
40
0.187500000000004
40
0.187500000000004
40
0.250000000000006
40
0.250000000000006
40
0.375000000000009
40
0.375000000000009
40
0.500000000000012
40
0.500000000000012
40
0.625000000000015
40
0.625000000000015
40
0.687500000000014
40
0.687500000000014
40
0.718750000000014
40
0.718750000000014
40
0.750000000000013
40
0.750000000000013
40
0.875000000000007
40
0.875000000000007
40
1
40
1
40
1.125
40
1.125
41
1
10
62.82047245681
20
-4.07438699140741
30
0
41
1
10
61.5451831736477
20
-3.53006128831797
30
0
41
1
10
60.8835351999956
20
-3.32658150124107
30
0
41
1
10
59.8804186009569
20
-3.40055196919491
30
0
41
1
10
59.5242852539151
20
-3.49725563681733
30
0
41
1
10
59.017341585253
20
-4.02474793432981
30
0
41
1
10
58.9569433160296
20
-4.46103535133653
30
0
41
1
10
59.2645383512478
20
-5.48237079211066
30
0
41
1
10
59.8350537542548
20
-5.92393479332571
30
0
41
1
10
61.0002651128847
20
-6.60175957982304
30
0
41
1
10
61.6571524789408
20
-6.83993056964903
30
0
41
1
10
63.0089824444395
20
-7.18685624990039
30
0
41
1
10
63.7202914338527
20
-7.30647876083773
30
0
41
1
10
64.8162088952792
20
-7.33615999234362
30
0
41
1
10
65.1915804288582
20
-7.34221726508585
30
0
41
1
10
65.716926861365
20
-7.13371114286031
30
0
41
1
10
65.8747787059199
20
-6.97309295445123
30
0
41
1
10
65.8432960423693
20
-6.59730300898073
30
0
41
1
10
65.7356880831464
20
-6.43144947783605
30
0
41
1
10
65.1894052868092
20
-5.68510648955865
30
0
41
1
10
64.5934705762424
20
-5.24149729191757
30
0
41
1
10
63.4273358356923
20
-4.42718174192106
30
0
41
1
10
62.82047245681
20
-4.07438699140741
30
0
41
1
10
61.5451831736477
20
-3.53006128831797
30
0
0
SPLINE
5
C6
100
AcDbEntity
8
1
62
256
6
ByLayer
370
-1
48
1
60
0
100
AcDbSpline
70
4
71
3
72
8
73
4
40
0
40
0
40
0
40
0
40
1
40
1
40
1
40
1
41
1
10
77.1508669370747
20
-12.2875445026229
30
0
41
1
10
76.8170838076412
20
-12.2646852696548
30
0
41
1
10
76.4833006866833
20
-12.2418259132828
30
0
41
1
10
76.1495175743452
20
-12.2189664314129
30
0
0
SPLINE
5
C7
100
AcDbEntity
8
1
62
256
6
ByLayer
370
-1
48
1
60
0
100
AcDbSpline
70
4
71
3
72
8
73
4
40
0
40
0
40
0
40
0
40
1
40
1
40
1
40
1
41
1
10
63.4397772963616
20
9.3815724076961
30
0
41
1
10
63.4647678947647
20
9.36112596444605
30
0
41
1
10
63.4897679979562
20
9.34062994753936
30
0
41
1
10
63.514777296362
20
9.32008512584284
30
0
0
SPLINE
5
C8
100
AcDbEntity
8
1
62
256
6
ByLayer
370
-1
48
1
60
0
100
AcDbSpline
70
4
71
3
72
10
73
6
40
0
40
0
40
0
40
0
40
0.5
40
0.5
40
1
40
1
40
1
40
1
41
1
10
63.439777296362
20
9.38157240769661
30
0
41
1
10
61.7196712559569
20
9.07470056869812
30
0
41
1
10
60.1510989246763
20
8.59372243303409
30
0
41
1
10
57.284188418868
20
6.96400893836642
30
0
41
1
10
56.0285856805853
20
5.8134255621396
30
0
41
1
10
55.0088754336243
20
4.33878745302161
30
0
0
SPLINE
5
C9
100
AcDbEntity
8
1
62
256
6
ByLayer
370
-1
48
1
60
0
100
AcDbSpline
70
4
71
3
72
8
73
4
40
0
40
0
40
0
40
0
40
1
40
1
40
1
40
1
41
1
10
77.6578546983768
20
-11.9185814509074
30
0
41
1
10
77.4865032750062
20
-11.9066258839647
30
0
41
1
10
77.3151518992992
20
-11.894669635883
30
0
41
1
10
77.1438005716859
20
-11.8827127006284
30
0
0
SPLINE
5
CA
100
AcDbEntity
8
1
62
256
6
ByLayer
370
-1
48
1
60
0
100
AcDbSpline
70
4
71
3
72
8
73
4
40
0
40
0
40
0
40
0
40
1
40
1
40
1
40
1
41
1
10
66.3126124336046
20
-9.91601090404779
30
0
41
1
10
65.9279252738549
20
-9.91571030533822
30
0
41
1
10
65.5441965560906
20
-9.91507346281
30
0
41
1
10
65.1621656693612
20
-9.91363836936142
30
0
0
SPLINE
5
CB
100
AcDbEntity
8
SK1
62
256
6
ByLayer
370
-1
48
1
60
0
100
AcDbSpline
70
4
71
3
72
8
73
4
40
0
40
0
40
0
40
0
40
1
40
1
40
1
40
1
41
1
10
-170.802499986183
20
-8.50874999999999
30
0
41
1
10
-170.802576023436
20
-8.50874999999999
30
0
41
1
10
-170.174914121567
20
-8.50874999999999
30
0
41
1
10
-169.32
20
-8.50874999999999
30
0
0
SPLINE
5
CC
100
AcDbEntity
8
1
62
256
6
ByLayer
370
-1
48
1
60
0
100
AcDbSpline
70
4
71
3
72
16
73
12
40
0
40
0
40
0
40
0
40
0.0932845550050814
40
0.0932845550050814
40
0.403187912879867
40
0.403187912879867
40
0.684028653617957
40
0.684028653617957
40
0.932338242249378
40
0.932338242249378
40
1
40
1
40
1
40
1
41
1
10
77.2876571106191
20
-8.42335070808397
30
0
41
1
10
77.2895101684221
20
-8.43024442285414
30
0
41
1
10
77.290994248916
20
-8.43728587421188
30
0
41
1
10
77.2956677490191
20
-8.46789984500322
30
0
41
1
10
77.2949189195265
20
-8.49296447506728
30
0
41
1
10
77.2841933920473
20
-8.53887612345281
30
0
41
1
10
77.2748732088208
20
-8.56060420379683
30
0
41
1
10
77.2503617125021
20
-8.59671933964165
30
0
41
1
10
77.2355937284988
20
-8.61217692945317
30
0
41
1
10
77.2142761774837
20
-8.62787998528015
30
0
41
1
10
77.2095092622616
20
-8.63105647015882
30
0
41
1
10
77.2046119053655
20
-8.63399577527051
30
0
0
SPLINE
5
CD
100
AcDbEntity
8
1
62
256
6
ByLayer
370
-1
48
1
60
0
100
AcDbSpline
70
4
71
3
72
14
73
10
40
0
40
0
40
0
40
0
40
0.270755469310023
40
0.270755469310023
40
0.559692490286009
40
0.559692490286009
40
0.821335789862252
40
0.821335789862252
40
1
40
1
40
1
40
1
41
1
10
76.0553601138201
20
-7.06584901924199
30
0
41
1
10
76.0500293742523
20
-7.04694864655894
30
0
41
1
10
76.0477849142092
20
-7.0265643157031
30
0
41
1
10
76.0506305957695
20
-6.98439620580274
30
0
41
1
10
76.0563157201504
20
-6.96194782095745
30
0
41
1
10
76.0751019850217
20
-6.92237467345538
30
0
41
1
10
76.0877703740135
20
-6.90436527939485
30
0
41
1
10
76.1136864072599
20
-6.87874926279602
30
0
41
1
10
76.1256804360128
20
-6.86942916061605
30
0
41
1
10
76.138519120201
20
-6.86172361436689
30
0
0
SPLINE
5
CE
100
AcDbEntity
8
1
62
256
6
ByLayer
370
-1
48
1
60
0
100
AcDbSpline
70
4
71
3
72
16
73
12
40
0
40
0
40
0
40
0
40
0.161340934431541
40
0.161340934431541
40
0.385665948751849
40
0.385665948751849
40
0.61808905967191
40
0.61808905967191
40
0.869196338437892
40
0.869196338437892
40
1
40
1
40
1
40
1
41
1
10
77.2046119053655
20
-8.63399577527051
30
0
41
1
10
77.1930462864643
20
-8.64093725073926
30
0
41
1
10
77.18062497709
20
-8.64660836105594
30
0
41
1
10
77.1501902687174
20
-8.65659425858641
30
0
41
1
10
77.1314859847562
20
-8.65961147548947
30
0
41
1
10
77.094338404959
20
-8.65997154857766
30
0
41
1
10
77.0754606061428
20
-8.6571278793194
30
0
41
1
10
77.038948705074
20
-8.64591903293456
30
0
41
1
10
77.0210735169308
20
-8.63700886623056
30
0
41
1
10
76.997100575065
20
-8.62009988177604
30
0
41
1
10
76.9893555044609
20
-8.61363518599441
30
0
41
1
10
76.9822235668374
20
-8.60666640174412
30
0
0
SPLINE
5
CF
100
AcDbEntity
8
1
62
256
6
ByLayer
370
-1
48
1
60
0
100
AcDbSpline
70
4
71
3
72
16
73
12
40
0
40
0
40
0
40
0
40
0.0571400188450457
40
0.0571400188450457
40
0.281922117016826
40
0.281922117016826
40
0.509134798201775
40
0.509134798201775
40
0.750467562041916
40
0.750467562041916
40
1
40
1
40
1
40
1
41
1
10
76.138519120201
20
-6.86172361436689
30
0
41
1
10
76.1426438752291
20
-6.85924801093518
30
0
41
1
10
76.1468692908816
20
-6.8569269288912
30
0
41
1
10
76.1679730675068
20
-6.84636137670361
30
0
41
1
10
76.1862613918269
20
-6.8404338600136
30
0
41
1
10
76.2229999213905
20
-6.83423282083422
30
0
41
1
10
76.2419157091114
20
-6.83392780641137
30
0
41
1
10
76.2789820806358
20
-6.83864965345754
30
0
41
1
10
76.2974794132287
20
-6.8440486479106
30
0
41
1
10
76.3315047466962
20
-6.85969133560343
30
0
41
1
10
76.3473025814387
20
-6.87025322336109
30
0
41
1
10
76.3607936576013
20
-6.88253332558344
30
0
0
SPLINE
5
D0
100
AcDbEntity
8
1
62
256
6
ByLayer
370
-1
48
1
60
0
100
AcDbSpline
70
4
71
3
72
14
73
10
40
0
40
0
40
0
40
0
40
0.27981819927826
40
0.27981819927826
40
0.567620445094699
40
0.567620445094699
40
0.828352203306389
40
0.828352203306389
40
1
40
1
40
1
40
1
41
1
10
76.9511991547437
20
-6.87197469403239
30
0
41
1
10
76.9658166078995
20
-6.85768036051348
30
0
41
1
10
76.9834479011464
20
-6.84542566417312
30
0
41
1
10
77.0229925844582
20
-6.82734697291772
30
0
41
1
10
77.0456474148797
20
-6.82147284696112
30
0
41
1
10
77.0897746932509
20
-6.81863875669967
30
0
41
1
10
77.1118260723431
20
-6.82088661602756
30
0
41
1
10
77.1464675521773
20
-6.83071585846866
30
0
41
1
10
77.1599912837464
20
-6.83627240333112
30
0
41
1
10
77.1725846388877
20
-6.84323070252356
30
0
0
SPLINE
5
D1
100
AcDbEntity
8
1
62
256
6
ByLayer
370
-1
48
1
60
0
100
AcDbSpline
70
4
71
3
72
12
73
8
40
0
40
0
40
0
40
0
40
0.461845117471471
40
0.461845117471471
40
0.843685985726523
40
0.843685985726523
40
1
40
1
40
1
40
1
41
1
10
75.775375786178
20
-7.93761139132832
30
0
41
1
10
75.8172118303299
20
-7.94733393656372
30
0
41
1
10
75.8587770382883
20
-7.96400518116653
30
0
41
1
10
75.92900534902
20
-8.00740811229127
30
0
41
1
10
75.9593968434537
20
-8.03247744166663
30
0
41
1
10
75.9965432431157
20
-8.07394662733125
30
0
41
1
10
76.0067607848743
20
-8.08681988682378
30
0
41
1
10
76.0161824504782
20
-8.10029690291569
30
0
0
SPLINE
5
D2
100
AcDbEntity
8
1
62
256
6
ByLayer
370
-1
48
1
60
0
100
AcDbSpline
70
4
71
3
72
18
73
14
40
0
40
0
40
0
40
0
40
0.213199580814383
40
0.213199580814383
40
0.388842064023068
40
0.388842064023068
40
0.566125077781176
40
0.566125077781176
40
0.721053458986038
40
0.721053458986038
40
0.927258549117433
40
0.927258549117433
40
1
40
1
40
1
40
1
41
1
10
76.9511991547437
20
-6.87197469403242
30
0
41
1
10
76.9207751592706
20
-6.90172616534812
30
0
41
1
10
76.8844903670355
20
-6.92784118472989
30
0
41
1
10
76.8102660117132
20
-6.96455144250444
30
0
41
1
10
76.7728604441346
20
-6.97740248098205
30
0
41
1
10
76.6948460052486
20
-6.99250712010064
30
0
41
1
10
76.6530424530467
20
-6.9947815502058
30
0
41
1
10
76.5777614480278
20
-6.98841414737834
30
0
41
1
10
76.5429967500033
20
-6.98108695693924
30
0
41
1
10
76.4682782733228
20
-6.95603934714725
30
0
41
1
10
76.4290657623305
20
-6.93537916324365
30
0
41
1
10
76.3831377476042
20
-6.90180977085595
30
0
41
1
10
76.3716486005124
20
-6.89241391679477
30
0
41
1
10
76.3607936576013
20
-6.88253332558344
30
0
0
SPLINE
5
D3
100
AcDbEntity
8
1
62
256
6
ByLayer
370
-1
48
1
60
0
100
AcDbSpline
70
4
71
3
72
16
73
12
40
0
40
0
40
0
40
0
40
0.063458632905012
40
0.063458632905012
40
0.287427457823772
40
0.287427457823772
40
0.514185567646798
40
0.514185567646798
40
0.755317452576687
40
0.755317452576687
40
1
40
1
40
1
40
1
41
1
10
77.1725846388877
20
-6.84323070252356
30
0
41
1
10
77.1772724969891
20
-6.84582091925896
30
0
41
1
10
77.1818526899429
20
-6.84861276468089
30
0
41
1
10
77.201864627973
20
-6.86201215782773
30
0
41
1
10
77.215942341777
20
-6.87491451449608
30
0
41
1
10
77.2391757990292
20
-6.90360167512191
30
0
41
1
10
77.2485755919956
20
-6.91977666370613
30
0
41
1
10
77.2622654307942
20
-6.95405697157884
30
0
41
1
10
77.266384060894
20
-6.97264205209902
30
0
41
1
10
77.2688279223289
20
-7.00921693780987
30
0
41
1
10
77.2671179960419
20
-7.02759218849346
30
0
41
1
10
77.2628428958531
20
-7.044860511281
30
0
0
SPLINE
5
D4
100
AcDbEntity
8
1
62
256
6
ByLayer
370
-1
48
1
60
0
100
AcDbSpline
70
4
71
3
72
12
73
8
40
0
40
0
40
0
40
0
40
0.463831155538576
40
0.463831155538576
40
0.845340912771869
40
0.845340912771869
40
1
40
1
40
1
40
1
41
1
10
77.5676408833843
20
-7.55155654704231
30
0
41
1
10
77.5255883879724
20
-7.53964309437887
30
0
41
1
10
77.4838077642567
20
-7.52084291353205
30
0
41
1
10
77.4134356132943
20
-7.47428806617825
30
0
41
1
10
77.3830786264381
20
-7.44811179178649
30
0
41
1
10
77.3460997176941
20
-7.40587517101017
30
0
41
1
10
77.3359952511736
20
-7.39295463883226
30
0
41
1
10
77.3266710834591
20
-7.37952500192523
30
0
0
SPLINE
5
D5
100
AcDbEntity
8
1
62
256
6
ByLayer
370
-1
48
1
60
0
100
AcDbSpline
70
4
71
3
72
18
73
14
40
0
40
0
40
0
40
0
40
0.152804178416358
40
0.152804178416358
40
0.339921483589874
40
0.339921483589874
40
0.498201475260678
40
0.498201475260678
40
0.65668186801948
40
0.65668186801948
40
0.814348379258937
40
0.814348379258937
40
1
40
1
40
1
40
1
41
1
10
76.05536011382
20
-7.06584901924199
30
0
41
1
10
76.0635772331455
20
-7.09498317889432
30
0
41
1
10
76.0686392734498
20
-7.1256840807828
30
0
41
1
10
76.071720077267
20
-7.19571402552566
30
0
41
1
10
76.0678313468697
20
-7.23632344696088
30
0
41
1
10
76.0490300905278
20
-7.31012576460446
30
0
41
1
10
76.0356138578748
20
-7.34430168193344
30
0
41
1
10
76.0006960666418
20
-7.4077230021951
30
0
41
1
10
75.9787587121359
20
-7.43773122580572
30
0
41
1
10
75.9300542374713
20
-7.48971759024812
30
0
41
1
10
75.9027956789097
20
-7.512390204393
30
0
41
1
10
75.8408969072648
20
-7.5529820442969
30
0
41
1
10
75.8051058595536
20
-7.56987886528341
30
0
41
1
10
75.7688482733935
20
-7.58160032742259
30
0
0
SPLINE
5
D6
100
AcDbEntity
8
1
62
256
6
ByLayer
370
-1
48
1
60
0
100
AcDbSpline
70
4
71
3
72
14
73
10
40
0
40
0
40
0
40
0
40
0.0516629125304507
40
0.0516629125304507
40
0.388406671893036
40
0.388406671893036
40
0.83625234510295
40
0.83625234510295
40
1
40
1
40
1
40
1
41
1
10
77.2976070713274
20
-7.33120900138391
30
0
41
1
10
77.2951035207026
20
-7.32635133195194
30
0
41
1
10
77.2926970531041
20
-7.3214529522171
30
0
41
1
10
77.2754871713216
20
-7.28465693778324
30
0
41
1
10
77.264747759882
20
-7.25109637923413
30
0
41
1
10
77.2500533208603
20
-7.17452153556141
30
0
41
1
10
77.249101175875
20
-7.13072875490229
30
0
41
1
10
77.2564076558457
20
-7.07439201379523
30
0
41
1
10
77.2592285728286
20
-7.05945977068438
30
0
41
1
10
77.2628428958523
20
-7.04486051128066
30
0
0
SPLINE
5
D7
100
AcDbEntity
8
1
62
256
6
ByLayer
370
-1
48
1
60
0
100
AcDbSpline
70
4
71
3
72
16
73
12
40
0
40
0
40
0
40
0
40
0.0663814403590246
40
0.0663814403590246
40
0.290281185156195
40
0.290281185156195
40
0.517134481573141
40
0.517134481573141
40
0.758493785503021
40
0.758493785503021
40
1
40
1
40
1
40
1
41
1
10
76.170546386679
20
-8.65248868711384
30
0
41
1
10
76.1656435092328
20
-8.64977966415756
30
0
41
1
10
76.160857961757
20
-8.64683827790208
30
0
41
1
10
76.1406996553612
20
-8.63312684774033
30
0
41
1
10
76.1266761612941
20
-8.61996490253506
30
0
41
1
10
76.1035470738107
20
-8.59053779751932
30
0
41
1
10
76.0942025926359
20
-8.57386878426826
30
0
41
1
10
76.0806247108589
20
-8.53839541237392
30
0
41
1
10
76.0765674439584
20
-8.51908571614817
30
0
41
1
10
76.0742640046873
20
-8.48120860869216
30
0
41
1
10
76.0759704894134
20
-8.46223999780855
30
0
41
1
10
76.0801737737062
20
-8.44430742708872
30
0
0
SPLINE
5
D8
100
AcDbEntity
8
1
62
256
6
ByLayer
370
-1
48
1
60
0
100
AcDbSpline
70
4
71
3
72
14
73
10
40
0
40
0
40
0
40
0
40
0.283893601337492
40
0.283893601337492
40
0.571185713657512
40
0.571185713657512
40
0.831511086352529
40
0.831511086352529
40
1
40
1
40
1
40
1
41
1
10
76.3918180696939
20
-8.61722503329429
30
0
41
1
10
76.3770065978039
20
-8.63277067313709
30
0
41
1
10
76.3590862535823
20
-8.64616715479312
30
0
41
1
10
76.3192012414972
20
-8.66590904603575
30
0
41
1
10
76.2965568744413
20
-8.67243729519581
30
0
41
1
10
76.2524867859508
20
-8.67618951828257
30
0
41
1
10
76.2304797025387
20
-8.67424823909519
30
0
41
1
10
76.1961644684303
20
-8.66472452508324
30
0
41
1
10
76.1829088863648
20
-8.65931943004259
30
0
41
1
10
76.170546386679
20
-8.65248868711384
30
0
0
SPLINE
5
D9
100
AcDbEntity
8
1
62
256
6
ByLayer
370
-1
48
1
60
0
100
AcDbSpline
70
4
71
3
72
18
73
14
40
0
40
0
40
0
40
0
40
0.209376083298501
40
0.209376083298501
40
0.38568329799003
40
0.38568329799003
40
0.563675836722672
40
0.563675836722672
40
0.71873063403889
40
0.71873063403889
40
0.92425352968194
40
0.92425352968194
40
1
40
1
40
1
40
1
41
1
10
77.2876571106175
20
-8.42335070808468
30
0
41
1
10
77.2763610498949
20
-8.38132729115404
30
0
41
1
10
77.2709876907836
20
-8.33627880371128
30
0
41
1
10
77.2745057873256
20
-8.25229106720286
30
0
41
1
10
77.2814197214188
20
-8.2125647284208
30
0
41
1
10
77.3065420272221
20
-8.13625336262206
30
0
41
1
10
77.3253390888325
20
-8.09861838365325
30
0
41
1
10
77.3687368348681
20
-8.03687441042629
30
0
41
1
10
77.3927507661456
20
-8.01087550278058
30
0
41
1
10
77.4526478999125
20
-7.96030496476982
30
0
41
1
10
77.4907896458732
20
-7.93795151686984
30
0
41
1
10
77.5444472487652
20
-7.91657189828186
30
0
41
1
10
77.5592486704782
20
-7.91164937789921
30
0
41
1
10
77.5741689510446
20
-7.90759939990389
30
0
0
SPLINE
5
DA
100
AcDbEntity
8
1
62
256
6
ByLayer
370
-1
48
1
60
0
100
AcDbSpline
70
4
71
3
72
14
73
10
40
0
40
0
40
0
40
0
40
0.283797567628888
40
0.283797567628888
40
0.57054122071057
40
0.57054122071057
40
0.830340207117464
40
0.830340207117464
40
1
40
1
40
1
40
1
41
1
10
75.775375786178
20
-7.93761139132826
30
0
41
1
10
75.7548951218019
20
-7.932851759057
30
0
41
1
10
75.734696894694
20
-7.924299018683
30
0
41
1
10
75.6983256206415
20
-7.90009502828215
30
0
41
1
10
75.6816565618213
20
-7.88396396793715
30
0
41
1
10
75.6568192225237
20
-7.84798926601351
30
0
41
1
10
75.647656041745
20
-7.82807334674129
30
0
41
1
10
75.638863638794
20
-7.79357799768582
30
0
41
1
10
75.6369445044543
20
-7.77928393819084
30
0
41
1
10
75.6367080491416
20
-7.76503607772904
30
0
0
SPLINE
5
DB
100
AcDbEntity
8
1
62
256
6
ByLayer
370
-1
48
1
60
0
100
AcDbSpline
70
4
71
3
72
16
73
12
40
0
40
0
40
0
40
0
40
0.0629040617809058
40
0.0629040617809058
40
0.287454085009698
40
0.287454085009698
40
0.51476021222167
40
0.51476021222167
40
0.756443935233826
40
0.756443935233826
40
1
40
1
40
1
40
1
41
1
10
77.706422976425
20
-7.73068331190836
30
0
41
1
10
77.7065107792625
20
-7.73597396307821
30
0
41
1
10
77.7063704741751
20
-7.74126915829535
30
0
41
1
10
77.7047026044996
20
-7.76519826888998
30
0
41
1
10
77.7004486539587
20
-7.78377631091843
30
0
41
1
10
77.6868794245829
20
-7.81805204863204
30
0
41
1
10
77.6773436469492
20
-7.83415377902568
30
0
41
1
10
77.6539528646701
20
-7.86284492669986
30
0
41
1
10
77.6395854265208
20
-7.87551999477756
30
0
41
1
10
77.6085380724699
20
-7.89544199254775
30
0
41
1
10
77.5915232852448
20
-7.90288871961061
30
0
41
1
10
77.5741689510446
20
-7.90759939990397
30
0
0
SPLINE
5
DC
100
AcDbEntity
8
1
62
256
6
ByLayer
370
-1
48
1
60
0
100
AcDbSpline
70
4
71
3
72
14
73
10
40
0
40
0
40
0
40
0
40
0.0503996018337186
40
0.0503996018337186
40
0.387356939069326
40
0.387356939069326
40
0.835047102458903
40
0.835047102458903
40
1
40
1
40
1
40
1
41
1
10
76.0452464626098
20
-8.14861290345681
30
0
41
1
10
76.0476885490484
20
-8.15338121018814
30
0
41
1
10
76.0500384393816
20
-8.15819692961597
30
0
41
1
10
76.0672374329094
20
-8.19523274400919
30
0
41
1
10
76.0780250097818
20
-8.22950768788809
30
0
41
1
10
76.0928245514432
20
-8.30831215629422
30
0
41
1
10
76.0938505459321
20
-8.35384047855902
30
0
41
1
10
76.0866361216442
20
-8.41296844357723
30
0
41
1
10
76.0838090591732
20
-8.42879812312933
30
0
41
1
10
76.0801737737061
20
-8.44430742708872
30
0
0
SPLINE
5
DD
100
AcDbEntity
8
1
62
256
6
ByLayer
370
-1
48
1
60
0
100
AcDbSpline
70
4
71
3
72
16
73
12
40
0
40
0
40
0
40
0
40
0.0650257576619609
40
0.0650257576619609
40
0.28956342589284
40
0.28956342589284
40
0.516976410675126
40
0.516976410675126
40
0.758865039554196
40
0.758865039554196
40
1
40
1
40
1
40
1
41
1
10
75.6367080491416
20
-7.76503607772904
30
0
41
1
10
75.636617312316
20
-7.75956863606004
30
0
41
1
10
75.6367700299042
20
-7.75408504928529
30
0
41
1
10
75.6385176097078
20
-7.72989279823619
30
0
41
1
10
75.6428198282268
20
-7.71112437226017
30
0
41
1
10
75.6564724858329
20
-7.6762377465439
30
0
41
1
10
75.6660468627521
20
-7.6597070060831
30
0
41
1
10
75.6895056147919
20
-7.62994849364583
30
0
41
1
10
75.7039037770793
20
-7.61661270584193
30
0
41
1
10
75.7348363520367
20
-7.59534761813353
30
0
41
1
10
75.751675208029
20
-7.58715208794496
30
0
41
1
10
75.7688482733935
20
-7.58160032742254
30
0
0
SPLINE
5
DE
100
AcDbEntity
8
1
62
256
6
ByLayer
370
-1
48
1
60
0
100
AcDbSpline
70
4
71
3
72
14
73
10
40
0
40
0
40
0
40
0
40
0.280869779337823
40
0.280869779337823
40
0.567979647972801
40
0.567979647972801
40
0.828070898839412
40
0.828070898839412
40
1
40
1
40
1
40
1
41
1
10
77.5676408833843
20
-7.55155654704228
30
0
41
1
10
77.5879289884001
20
-7.55730415788892
30
0
41
1
10
77.6079362768933
20
-7.56671381493896
30
0
41
1
10
77.6442515541796
20
-7.59240481427295
30
0
41
1
10
77.6610081358032
20
-7.60926696854634
30
0
41
1
10
77.6860110356426
20
-7.64632230953413
30
0
41
1
10
77.6952557257285
20
-7.66663230542477
30
0
41
1
10
77.7042137014508
20
-7.70168065282709
30
0
41
1
10
77.7061833706113
20
-7.71624561474061
30
0
41
1
10
77.706422976425
20
-7.73068331190836
30
0
0
SPLINE
5
DF
100
AcDbEntity
8
1
62
256
6
ByLayer
370
-1
48
1
60
0
100
AcDbSpline
70
4
71
3
72
18
73
14
40
0
40
0
40
0
40
0
40
0.211942228168215
40
0.211942228168215
40
0.387803028686458
40
0.387803028686458
40
0.565319118376544
40
0.565319118376544
40
0.720288229649855
40
0.720288229649855
40
0.926268387669071
40
0.926268387669071
40
1
40
1
40
1
40
1
41
1
10
76.3918180696938
20
-8.61722503329426
30
0
41
1
10
76.4220251027734
20
-8.58552071244995
30
0
41
1
10
76.4580211426695
20
-8.55753566975025
30
0
41
1
10
76.5318922343751
20
-8.51785818199275
30
0
41
1
10
76.5692866055705
20
-8.50384842673986
30
0
41
1
10
76.647333867945
20
-8.48736450094358
30
0
41
1
10
76.6891859528359
20
-8.48487685686803
30
0
41
1
10
76.7645569766253
20
-8.49184156286012
30
0
41
1
10
76.7993622766966
20
-8.49984141639072
30
0
41
1
10
76.8741329317815
20
-8.52705245737442
30
0
41
1
10
76.9133741012081
20
-8.5494072042695
30
0
41
1
10
76.9595395614535
20
-8.58565422967288
30
0
41
1
10
76.9712073469502
20
-8.59590219379672
30
0
41
1
10
76.9822235668373
20
-8.60666640174412
30
0
0
SPLINE
5
E0
100
AcDbEntity
8
SK1
62
256
6
ByLayer
370
-1
48
1
60
0
100
AcDbSpline
70
4
71
3
72
10
73
6
40
0
40
0
40
0
40
0
40
0.5
40
0.5
40
1
40
1
40
1
40
1
41
1
10
-169.32
20
-4.33878745302189
30
0
41
1
10
-169.919233025873
20
-2.95888879825199
30
0
41
1
10
-170.310991214146
20
-1.50358877622818
30
0
41
1
10
-170.311508518976
20
1.50048916054567
30
0
41
1
10
-169.920392105394
20
2.95621969924952
30
0
41
1
10
-169.32
20
4.33878745302189
30
0
0
LINE
5
49
100
AcDbEntity
8
80
62
256
6
ByLayer
370
-1
48
1
60
0
100
AcDbLine
10
0
20
0
30
0
11
-10
21
0
31
0
39
0
210
0
220
0
230
1
0
LINE
5
4A
100
AcDbEntity
8
81
62
256
6
ByLayer
370
-1
48
1
60
0
100
AcDbLine
10
79.93
20
-12.9
30
0
11
89.93
21
-12.9
31
0
39
0
210
0
220
0
230
1
0
LINE
5
4B
100
AcDbEntity
8
1
62
256
6
ByLayer
370
-1
48
1
60
0
100
AcDbLine
10
63.439777
20
9.99125
30
0
11
0
21
9.99125
31
0
39
0
210
0
220
0
230
1
0
LINE
5
4C
100
AcDbEntity
8
1
62
256
6
ByLayer
370
-1
48
1
60
0
100
AcDbLine
10
63.514777
20
9.91625
30
0
11
63.439777
21
9.99125
31
0
39
0
210
0
220
0
230
1
0
LINE
5
4D
100
AcDbEntity
8
1
62
256
6
ByLayer
370
-1
48
1
60
0
100
AcDbLine
10
64.540845
20
9.91625
30
0
11
63.514777
21
9.91625
31
0
39
0
210
0
220
0
230
1
0
LINE
5
4E
100
AcDbEntity
8
1
62
256
6
ByLayer
370
-1
48
1
60
0
100
AcDbLine
10
65.164777
20
-9.91625
30
0
11
66.312612
21
-9.91625
31
0
39
0
210
0
220
0
230
1
0
LINE
5
4F
100
AcDbEntity
8
1
62
256
6
ByLayer
370
-1
48
1
60
0
100
AcDbLine
10
66.312612
20
-9.91625
30
0
11
66.859192
21
-10.238615
31
0
39
0
210
0
220
0
230
1
0
LINE
5
50
100
AcDbEntity
8
SK1
62
256
6
ByLayer
370
-1
48
1
60
0
100
AcDbLine
10
-169.32
20
9.99125
30
0
11
-171.32
21
7.99125
31
0
39
0
210
0
220
0
230
1
0
LINE
5
52
100
AcDbEntity
8
SK1
62
256
6
ByLayer
370
-1
48
1
60
0
100
AcDbLine
10
-171.32
20
-7.99125
30
0
11
-170.8025
21
-8.50875
31
0
39
0
210
0
220
0
230
1
0
LINE
5
53
100
AcDbEntity
8
SK1
62
256
6
ByLayer
370
-1
48
1
60
0
100
AcDbLine
10
0
20
9.99125
30
0
11
-169.32
21
9.99125
31
0
39
0
210
0
220
0
230
1
0
LINE
5
54
100
AcDbEntity
8
1
62
256
6
ByLayer
370
-1
48
1
60
0
100
AcDbLine
10
77.250424
20
-7.106093
30
0
11
77.251165
21
-7.148534
31
0
39
0
210
0
220
0
230
1
0
LINE
5
55
100
AcDbEntity
8
1
62
256
6
ByLayer
370
-1
48
1
60
0
100
AcDbLine
10
76.070354
20
-7.167922
30
0
11
76.069614
21
-7.125532
31
0
39
0
210
0
220
0
230
1
0
LINE
5
56
100
AcDbEntity
8
1
62
256
6
ByLayer
370
-1
48
1
60
0
100
AcDbLine
10
77.271842
20
-8.274246
30
0
11
77.272583
21
-8.316664
31
0
39
0
210
0
220
0
230
1
0
LINE
5
57
100
AcDbEntity
8
1
62
256
6
ByLayer
370
-1
48
1
60
0
100
AcDbLine
10
76.091773
20
-8.336126
30
0
11
76.091032
21
-8.293685
31
0
39
0
210
0
220
0
230
1
0
LINE
5
58
100
AcDbEntity
8
1
62
256
6
ByLayer
370
-1
48
1
60
0
100
AcDbLine
10
74.946075
20
-7.734791
30
0
11
74.946683
21
-7.769622
31
0
39
0
210
0
220
0
230
1
0
LINE
5
59
100
AcDbEntity
8
1
62
256
6
ByLayer
370
-1
48
1
60
0
100
AcDbLine
10
78.396157
20
-7.709411
30
0
11
78.395549
21
-7.674581
31
0
39
0
210
0
220
0
230
1
0
LINE
5
5A
100
AcDbEntity
8
SK4
62
256
6
ByLayer
370
-1
48
0.05
60
0
100
AcDbLine
10
-176.32
20
0
30
0
11
84.256695
21
0
31
0
39
0
210
0
220
0
230
1
0
LINE
5
5C
100
AcDbEntity
8
4
62
256
6
ByLayer
370
-1
48
0.05
60
0
100
AcDbLine
10
0
20
0
30
0
11
84.256695
21
0
31
0
39
0
210
0
220
0
230
1
0
LINE
5
5E
100
AcDbEntity
8
1
62
256
6
ByLayer
370
-1
48
1
60
0
100
AcDbLine
10
71.071851
20
-8.956327
30
0
11
71.174855
21
-9.127561
31
0
39
0
210
0
220
0
230
1
0
LINE
5
5F
100
AcDbEntity
8
1
62
256
6
ByLayer
370
-1
48
1
60
0
100
AcDbLine
10
70.966991
20
-8.73559
30
0
11
70.969461
21
-8.877108
31
0
39
0
210
0
220
0
230
1
0
LINE
5
60
100
AcDbEntity
8
1
62
256
6
ByLayer
370
-1
48
1
60
0
100
AcDbLine
10
0
20
4.338787
30
0
11
0
21
9.99125
31
0
39
0
210
0
220
0
230
1
0
LINE
5
61
100
AcDbEntity
8
1
62
256
6
ByLayer
370
-1
48
1
60
0
100
AcDbLine
10
72.892572
20
-9.696214
30
0
11
72.892572
21
-9.69621
31
0
39
0
210
0
220
0
230
1
0
LINE
5
62
100
AcDbEntity
8
1
62
256
6
ByLayer
370
-1
48
1
60
0
100
AcDbLine
10
63.514777
20
9.91625
30
0
11
63.514777
21
9.320085
31
0
39
0
210
0
220
0
230
1
0
LINE
5
63
100
AcDbEntity
8
1
62
256
6
ByLayer
370
-1
48
1
60
0
100
AcDbLine
10
72.890102
20
-9.554696
30
0
11
72.892572
21
-9.69621
31
0
39
0
210
0
220
0
230
1
0
LINE
5
64
100
AcDbEntity
8
1
62
256
6
ByLayer
370
-1
48
1
60
0
100
AcDbLine
10
76.138685
20
-11.598346
30
0
11
76.138685
21
-11.598341
31
0
39
0
210
0
220
0
230
1
0
LINE
5
65
100
AcDbEntity
8
1
62
256
6
ByLayer
370
-1
48
1
60
0
100
AcDbLine
10
63.757277
20
-8.50875
30
0
11
65.162166
21
-9.913638
31
0
39
0
210
0
220
0
230
1
0
LINE
5
66
100
AcDbEntity
8
1
62
256
6
ByLayer
370
-1
48
1
60
0
100
AcDbLine
10
66.312612
20
-9.91625
30
0
11
66.312612
21
-9.916011
31
0
39
0
210
0
220
0
230
1
0
LINE
5
67
100
AcDbEntity
8
1
62
256
6
ByLayer
370
-1
48
1
60
0
100
AcDbLine
10
65.047388
20
9.540355
30
0
11
72.620369
21
3.920597
31
0
39
0
210
0
220
0
230
1
0
LINE
5
68
100
AcDbEntity
8
1
62
256
6
ByLayer
370
-1
48
1
60
0
100
AcDbLine
10
0
20
-4.338787
30
0
11
0
21
4.338787
31
0
39
0
210
0
220
0
230
1
0
LINE
5
69
100
AcDbEntity
8
1
62
256
6
ByLayer
370
-1
48
1
60
0
100
AcDbLine
10
72.892572
20
-9.696214
30
0
11
72.78514
21
-9.760693
31
0
39
0
210
0
220
0
230
1
0
LINE
5
6A
100
AcDbEntity
8
1
62
256
6
ByLayer
370
-1
48
1
60
0
100
AcDbLine
10
63.439777
20
9.99125
30
0
11
63.439777
21
9.381572
31
0
39
0
210
0
220
0
230
1
0
LINE
5
6B
100
AcDbEntity
8
1
62
256
6
ByLayer
370
-1
48
1
60
0
100
AcDbLine
10
68.55416
20
-11.237401
30
0
11
72.620369
21
3.920597
31
0
39
0
210
0
220
0
230
1
0
LINE
5
6C
100
AcDbEntity
8
1
62
256
6
ByLayer
370
-1
48
1
60
0
100
AcDbLine
10
79.256695
20
-1.934293
30
0
11
79.256695
21
-2.51115
31
0
39
0
210
0
220
0
230
1
0
LINE
5
6D
100
AcDbEntity
8
1
62
256
6
ByLayer
370
-1
48
1
60
0
100
AcDbLine
10
73.253074
20
-9.479843
30
0
11
72.892572
21
-9.69621
31
0
39
0
210
0
220
0
230
1
0
LINE
5
6E
100
AcDbEntity
8
1
62
256
6
ByLayer
370
-1
48
1
60
0
100
AcDbLine
10
64.540845
20
9.91625
30
0
11
65.047388
21
9.540355
31
0
39
0
210
0
220
0
230
1
0
LINE
5
6F
100
AcDbEntity
8
1
62
256
6
ByLayer
370
-1
48
1
60
0
100
AcDbLine
10
72.620369
20
3.920597
30
0
11
79.256695
21
-1.004088
31
0
39
0
210
0
220
0
230
1
0
LINE
5
70
100
AcDbEntity
8
1
62
256
6
ByLayer
370
-1
48
1
60
0
100
AcDbLine
10
76.138685
20
-11.598346
30
0
11
72.78514
21
-9.760693
31
0
39
0
210
0
220
0
230
1
0
LINE
5
71
100
AcDbEntity
8
1
62
256
6
ByLayer
370
-1
48
1
60
0
100
AcDbLine
10
72.78514
20
-9.760688
30
0
11
76.138685
21
-11.598341
31
0
39
0
210
0
220
0
230
1
0
LINE
5
72
100
AcDbEntity
8
1
62
256
6
ByLayer
370
-1
48
1
60
0
100
AcDbLine
10
71.071851
20
-8.956327
30
0
11
71.074321
21
-9.097846
31
0
39
0
210
0
220
0
230
1
0
LINE
5
73
100
AcDbEntity
8
1
62
256
6
ByLayer
370
-1
48
1
60
0
100
AcDbLine
10
73.12915
20
-9.411223
30
0
11
72.890102
21
-9.554696
31
0
39
0
210
0
220
0
230
1
0
LINE
5
74
100
AcDbEntity
8
1
62
256
6
ByLayer
370
-1
48
1
60
0
100
AcDbLine
10
0
20
-8.50875
30
0
11
54.648308
21
-8.50875
31
0
39
0
210
0
220
0
230
1
0
LINE
5
75
100
AcDbEntity
8
1
62
256
6
ByLayer
370
-1
48
1
60
0
100
AcDbLine
10
65.162166
20
-9.913638
30
0
11
65.164777
21
-9.91625
31
0
39
0
210
0
220
0
230
1
0
LINE
5
76
100
AcDbEntity
8
1
62
256
6
ByLayer
370
-1
48
1
60
0
100
AcDbLine
10
79.256695
20
-1.004088
30
0
11
79.256695
21
-1.934298
31
0
39
0
210
0
220
0
230
1
0
LINE
5
77
100
AcDbEntity
8
1
62
256
6
ByLayer
370
-1
48
1
60
0
100
AcDbLine
10
76.138685
20
-11.598346
30
0
11
76.149518
21
-12.218968
31
0
39
0
210
0
220
0
230
1
0
LINE
5
78
100
AcDbEntity
8
1
62
256
6
ByLayer
370
-1
48
1
60
0
100
AcDbLine
10
54.648308
20
-8.50875
30
0
11
63.757277
21
-8.50875
31
0
39
0
210
0
220
0
230
1
0
LINE
5
79
100
AcDbEntity
8
1
62
256
6
ByLayer
370
-1
48
1
60
0
100
AcDbLine
10
71.174855
20
-9.127561
30
0
11
71.177325
21
-9.26908
31
0
39
0
210
0
220
0
230
1
0
LINE
5
7A
100
AcDbEntity
8
1
62
256
6
ByLayer
370
-1
48
1
60
0
100
AcDbLine
10
0
20
-4.338787
30
0
11
0
21
-8.50875
31
0
39
0
210
0
220
0
230
1
0
LINE
5
7B
100
AcDbEntity
8
1
62
256
6
ByLayer
370
-1
48
1
60
0
100
AcDbLine
10
52.357931
20
-4.338787
30
0
11
0
21
-4.338787
31
0
39
0
210
0
220
0
230
1
0
LINE
5
7C
100
AcDbEntity
8
1
62
256
6
ByLayer
370
-1
48
1
60
0
100
AcDbLine
10
77.150867
20
-12.287545
30
0
11
77.139416
21
-11.63154
31
0
39
0
210
0
220
0
230
1
0
LINE
5
7D
100
AcDbEntity
8
1
62
256
6
ByLayer
370
-1
48
1
60
0
100
AcDbLine
10
71.074321
20
-9.097846
30
0
11
71.177325
21
-9.26908
31
0
39
0
210
0
220
0
230
1
0
LINE
5
7E
100
AcDbEntity
8
1
62
256
6
ByLayer
370
-1
48
1
60
0
100
AcDbLine
10
79.256695
20
-1.934298
30
0
11
71.168091
21
-6.788932
31
0
39
0
210
0
220
0
230
1
0
LINE
5
7F
100
AcDbEntity
8
1
62
256
6
ByLayer
370
-1
48
1
60
0
100
AcDbLine
10
0
20
4.338787
30
0
11
55.008875
21
4.338787
31
0
39
0
210
0
220
0
230
1
0
LINE
5
80
100
AcDbEntity
8
SK1
62
256
6
ByLayer
370
-1
48
1
60
0
100
AcDbLine
10
-169.32
20
-8.50875
30
0
11
0
21
-8.50875
31
0
39
0
210
0
220
0
230
1
0
LINE
5
81
100
AcDbEntity
8
1
62
256
6
ByLayer
370
-1
48
1
60
0
100
AcDbLine
10
70.911739
20
-7.503664
30
0
11
79.160963
21
-2.552629
31
0
39
0
210
0
220
0
230
1
0
LINE
5
82
100
AcDbEntity
8
1
62
256
6
ByLayer
370
-1
48
1
60
0
100
AcDbLine
10
79.340709
20
-12.850301
30
0
11
70.923722
21
-8.190176
31
0
39
0
210
0
220
0
230
1
0
LINE
5
83
100
AcDbEntity
8
1
62
256
6
ByLayer
370
-1
48
1
60
0
100
AcDbLine
10
79.762176
20
-2.885495
30
0
11
79.92994
21
-12.496655
31
0
39
0
210
0
220
0
230
1
0
LINE
5
84
100
AcDbEntity
8
1
62
256
6
ByLayer
370
-1
48
1
60
0
100
AcDbLine
10
77.573389
20
-7.862888
30
0
11
77.574169
21
-7.907599
31
0
39
0
210
0
220
0
230
1
0
LINE
5
85
100
AcDbEntity
8
1
62
256
6
ByLayer
370
-1
48
1
60
0
100
AcDbLine
10
76.981443
20
-8.561955
30
0
11
76.982224
21
-8.606666
31
0
39
0
210
0
220
0
230
1
0
LINE
5
86
100
AcDbEntity
8
1
62
256
6
ByLayer
370
-1
48
1
60
0
100
AcDbLine
10
76.391038
20
-8.572514
30
0
11
76.391818
21
-8.617225
31
0
39
0
210
0
220
0
230
1
0
LINE
5
87
100
AcDbEntity
8
1
62
256
6
ByLayer
370
-1
48
1
60
0
100
AcDbLine
10
76.05458
20
-7.021138
30
0
11
76.05536
21
-7.065849
31
0
39
0
210
0
220
0
230
1
0
LINE
5
88
100
AcDbEntity
8
1
62
256
6
ByLayer
370
-1
48
1
60
0
100
AcDbLine
10
75.774596
20
-7.892916
30
0
11
75.775376
21
-7.937611
31
0
39
0
210
0
220
0
230
1
0
LINE
5
89
100
AcDbEntity
8
1
62
256
6
ByLayer
370
-1
48
1
60
0
100
AcDbLine
10
77.262063
20
-7.000165
30
0
11
77.262843
21
-7.044861
31
0
39
0
210
0
220
0
230
1
0
LINE
5
8A
100
AcDbEntity
8
SK1
62
256
6
ByLayer
370
-1
48
1
60
0
100
AcDbLine
10
-169.32
20
4.338787
30
0
11
0
21
4.338787
31
0
39
0
210
0
220
0
230
1
0
LINE
5
8B
100
AcDbEntity
8
SK1
62
256
6
ByLayer
370
-1
48
1
60
0
100
AcDbLine
10
0
20
-4.338787
30
0
11
-169.32
21
-4.338787
31
0
39
0
210
0
220
0
230
1
0
LINE
5
8C
100
AcDbEntity
8
SK1
62
256
6
ByLayer
370
-1
48
1
60
0
100
AcDbLine
10
0
20
9.99125
30
0
11
0
21
4.338787
31
0
39
0
210
0
220
0
230
1
0
LINE
5
8D
100
AcDbEntity
8
SK1
62
256
6
ByLayer
370
-1
48
1
60
0
100
AcDbLine
10
-171.32
20
7.99125
30
0
11
-171.32
21
-7.99125
31
0
39
0
210
0
220
0
230
1
0
LINE
5
8E
100
AcDbEntity
8
SK1
62
256
6
ByLayer
370
-1
48
1
60
0
100
AcDbLine
10
-169.32
20
-4.338787
30
0
11
-169.32
21
-8.50875
31
0
39
0
210
0
220
0
230
1
0
LINE
5
8F
100
AcDbEntity
8
SK1
62
256
6
ByLayer
370
-1
48
1
60
0
100
AcDbLine
10
-169.32
20
9.99125
30
0
11
-169.32
21
4.338787
31
0
39
0
210
0
220
0
230
1
0
LINE
5
90
100
AcDbEntity
8
SK1
62
256
6
ByLayer
370
-1
48
1
60
0
100
AcDbLine
10
0
20
-4.338787
30
0
11
0
21
4.338787
31
0
39
0
210
0
220
0
230
1
0
LINE
5
91
100
AcDbEntity
8
SK1
62
256
6
ByLayer
370
-1
48
1
60
0
100
AcDbLine
10
0
20
-4.338787
30
0
11
0
21
-8.50875
31
0
39
0
210
0
220
0
230
1
0
LINE
5
92
100
AcDbEntity
8
2
62
256
6
ByLayer
370
-1
48
1
60
1
100
AcDbLine
10
79.93
20
0
30
0
11
79.931
21
0.001
31
0
39
0
210
0
220
0
230
1
0
MTEXT
5
E1
100
AcDbEntity
8
SK6
62
256
6
ByLayer
370
-1
48
1
60
0
100
AcDbMText
10
-42.32
20
17.504642
30
0
210
0
220
0
230
1
1
\W00.746;\fsimplex.shx,bigfont.shx;A20S-STFCL 11-B1 
40
3.5
41
0
44
1.084337
50
0
71
7
72
5
7
DEFAULT
0
DIMENSION
5
114
100
AcDbEntity
8
2
62
256
6
ByLayer
370
-3
48
1
60
0
100
AcDbDimension
2
DimnDraft3D1
10
92.18
20
0
30
0
11
92.18
21
-32.356316
31
0
70
32
71
5
72
1
41
1
210
0
220
0
230
1
3
Standard
100
AcDbAlignedDimension
13
81.93
23
-12.9
33
0
14
81.93
24
0
34
0
50
90
100
AcDbRotatedDimension
1001
ACAD
1000
DSTYLE
1002
{
1070
    74
1070
     0
1070
   279
1070
     0
1070
   172
1070
     1
1070
   173
1070
     1
1070
   340
1005
E2
1070
    77
1070
     1
1070
    73
1070
     0
1070
   171
1070
     4
1070
   274
1070
     4
1070
   177
1070
     2
1070
   176
1070
     2
1070
   178
1070
     7
1070
    78
1070
     8
1070
    41
1041
3.175
1070
   147
1041
2.25
1070
    42
1041
2.0
1070
    44
1041
2.0
1070
   140
1041
4.5
1070
   343
1005
115
1070
   344
1005
115
1002
}
0
DIMENSION
5
12A
100
AcDbEntity
8
SK2
62
256
6
ByLayer
370
-3
48
1
60
0
100
AcDbDimension
2
DimnDraft3D2
10
-181.07
20
9.99125
30
0
11
-181.07
21
-4.784211
31
0
70
32
71
5
72
1
41
1
210
0
220
0
230
1
3
Standard
100
AcDbAlignedDimension
13
-173.32
23
-9.99125
33
0
14
-173.32
24
9.99125
34
0
50
90
100
AcDbRotatedDimension
1001
ACAD
1000
DSTYLE
1002
{
1070
    74
1070
     0
1070
   279
1070
     0
1070
   172
1070
     1
1070
   173
1070
     1
1070
   340
1005
E2
1070
    77
1070
     1
1070
    73
1070
     0
1070
   171
1070
     4
1070
   274
1070
     4
1070
   177
1070
     2
1070
   176
1070
     2
1070
   178
1070
     7
1070
    78
1070
     8
1070
    41
1041
3.175
1070
   147
1041
2.25
1070
    42
1041
2.0
1070
    44
1041
2.0
1070
   140
1041
4.5
1070
   343
1005
115
1070
   344
1005
115
1002
}
0
DIMENSION
5
138
100
AcDbEntity
8
SK2
62
256
6
ByLayer
370
-3
48
1
60
0
100
AcDbDimension
2
DimnDraft3D3
10
79.93
20
-30.15
30
0
11
-52.510132
21
-30.15
31
0
70
32
71
5
72
1
41
1
210
0
220
0
230
1
3
Standard
100
AcDbAlignedDimension
13
-171.32
23
-11.99125
33
0
14
79.93
24
-14.9
34
0
50
0
100
AcDbRotatedDimension
1001
ACAD
1000
DSTYLE
1002
{
1070
   279
1070
     0
1070
   172
1070
     1
1070
   173
1070
     1
1070
   340
1005
E2
1070
    77
1070
     1
1070
    73
1070
     0
1070
   171
1070
     4
1070
   274
1070
     4
1070
   177
1070
     2
1070
   176
1070
     2
1070
   178
1070
     7
1070
    78
1070
     8
1070
    41
1041
3.175
1070
   147
1041
2.25
1070
    42
1041
2.0
1070
    44
1041
2.0
1070
   140
1041
4.5
1070
   343
1005
115
1070
   344
1005
115
1002
}
0
DIMENSION
5
146
100
AcDbEntity
8
2
62
256
6
ByLayer
370
-3
48
1
60
0
100
AcDbDimension
2
DimnDraft3D4
10
119.631237
20
0
30
0
11
103.721893
21
32.727109
31
0
70
34
71
5
72
1
41
1
210
0
220
0
230
1
3
Standard
100
AcDb2LineAngularDimension
13
79.703119
23
0.09802
33
0
14
79.008018
24
39.920326
34
0
15
81.93
25
0
35
0
16
109.441891
26
30.260654
36
0
40
0
0
ENDSEC
0
SECTION
2
OBJECTS
0
DICTIONARY
5
177
330
0
100
AcDbDictionary
280
0
281
1
3
ACAD_GROUP
350
178
3
ACAD_MLINESTYLE
350
179
0
DICTIONARY
5
178
330
0
100
AcDbDictionary
280
0
281
1
0
DICTIONARY
5
179
330
0
100
AcDbDictionary
280
0
281
1
3
Standard
350
18
0
MLINESTYLE
5
18
330
179
100
AcDbMlineStyle
2
Standard
70
0
3

62
256
51
90
52
90
71
2
49
-0.5
62
256
6
ByLayer
49
0.5
62
256
6
ByLayer
0
RASTERVARIABLES
5
165
330

100
AcDbRasterVariables
90
0
70
1
71
1
72
1
0
ENDSEC
0
EOF
