0
SECTION
2
HEADER
9
$ACADVER
1
AC1015
9
$DWGCODEPAGE
3
ANSI_1252
9
$HANDSEED
5
1c2
9
$ANGBASE
50
0
9
$ANGDIR
70
0
9
$ATTMODE
70
1
9
$AUNITS
70
0
9
$AUPREC
70
0
9
$CECOLOR
62
256
9
$CELTSCALE
40
1
9
$CELTYPE
6
ByLayer
9
$CELWEIGHT
370
18
9
$CLAYER
8
0
9
$CMLJUST
70
0
9
$CMLSCALE
40
1
9
$CMLSTYLE
2
Standard
9
$DIMSTYLE
2
Standard
9
$TEXTSIZE
40
0.2
9
$TEXTSTYLE
7
Standard
9
$LUNITS
70
2
9
$LUPREC
70
4
9
$EXTNAMES
290
1
9
$INSUNITS
70
4
9
$LTSCALE
40
1
9
$LWDISPLAY
290
1
9
$PDMODE
70
0
9
$PDSIZE
40
0
9
$PLINEGEN
70
0
0
ENDSEC
0
SECTION
2
CLASSES
0
CLASS
1
RASTERVARIABLES
2
AcDbRasterVariables
3
ISM
90
0
280
0
281
0
0
ENDSEC
0
SECTION
2
TABLES
0
TABLE
2
VPORT
5
1b8
100
AcDbSymbolTable
0
VPORT
5
1
100
AcDbSymbolTableRecord
100
AcDbViewportTableRecord
2
*Active
70
0
10
0
20
0
11
1
21
1
12
-1
22
1
13
0
23
0
14
0.5
24
0.5
15
10
25
10
16
0
26
0
36
1
17
0
27
0
37
0
0
ENDTAB
0
TABLE
2
LTYPE
5
1b9
100
AcDbSymbolTable
0
LTYPE
5
14
100
AcDbSymbolTableRecord
100
AcDbLinetypeTableRecord
70
0
2
ByBlock
3

72
65
73
0
40
0
0
LTYPE
5
15
100
AcDbSymbolTableRecord
100
AcDbLinetypeTableRecord
70
0
2
ByLayer
3

72
65
73
0
40
0
0
LTYPE
5
16
100
AcDbSymbolTableRecord
100
AcDbLinetypeTableRecord
70
0
2
CONTINUOUS
3
Solid line
72
65
73
0
40
0
0
LTYPE
5
6A
100
AcDbSymbolTableRecord
100
AcDbLinetypeTableRecord
70
0
2
CENTER
3
____ _ ____ _ ____ _ ____
72
65
73
4
40
47.5
49
22
74
0
49
-8.5
74
0
49
8.5
74
0
49
-8.5
74
0
0
LTYPE
5
6B
100
AcDbSymbolTableRecord
100
AcDbLinetypeTableRecord
70
0
2
DASHED
3
__ __ __ __ __ __ __ __ __
72
65
73
2
40
25.72
49
12.86
74
0
49
-12.86
74
0
0
ENDTAB
0
TABLE
2
LAYER
5
1ba
100
AcDbSymbolTable
0
LAYER
5
10
100
AcDbSymbolTableRecord
100
AcDbLayerTableRecord
2
0
70
0
62
7
6
CONTINUOUS
290
1
370
-3
390
0
0
LAYER
5
6D
100
AcDbSymbolTableRecord
100
AcDbLayerTableRecord
2
2
70
0
62
7
6
CONTINUOUS
290
1
370
-3
390
0
0
LAYER
5
6F
100
AcDbSymbolTableRecord
100
AcDbLayerTableRecord
2
1
70
0
62
4
6
CONTINUOUS
290
1
370
-3
390
0
0
LAYER
5
71
100
AcDbSymbolTableRecord
100
AcDbLayerTableRecord
2
80
70
0
62
-6
6
CONTINUOUS
290
1
370
-3
390
0
0
LAYER
5
73
100
AcDbSymbolTableRecord
100
AcDbLayerTableRecord
2
81
70
0
62
-3
6
CONTINUOUS
290
1
370
-3
390
0
0
LAYER
5
79
100
AcDbSymbolTableRecord
100
AcDbLayerTableRecord
2
4
70
0
62
-2
6
CENTER
290
1
370
-3
390
0
0
LAYER
5
1a4
100
AcDbSymbolTableRecord
100
AcDbLayerTableRecord
2
SK4
70
0
62
2
6
CENTER
290
1
370
-3
390
0
0
LAYER
5
1a5
100
AcDbSymbolTableRecord
100
AcDbLayerTableRecord
2
SK1
70
0
62
4
6
CONTINUOUS
290
1
370
-3
390
0
0
LAYER
5
1a6
100
AcDbSymbolTableRecord
100
AcDbLayerTableRecord
2
SK6
70
0
62
5
6
CONTINUOUS
290
1
370
-3
390
0
0
LAYER
5
1a7
100
AcDbSymbolTableRecord
100
AcDbLayerTableRecord
2
SK2
70
0
62
7
6
CONTINUOUS
290
1
370
-3
390
0
0
ENDTAB
0
TABLE
2
STYLE
5
1bb
100
AcDbSymbolTable
0
STYLE
5
11
100
AcDbSymbolTableRecord
100
AcDbTextStyleTableRecord
2
Standard
3
txt
70
0
71
0
40
0
41
1
42
0
50
0
0
STYLE
5
108
100
AcDbSymbolTableRecord
100
AcDbTextStyleTableRecord
2
iso_b_vert
3
simplex.shx
70
0
71
0
40
0
41
1
42
0
50
0
0
STYLE
5
109
100
AcDbSymbolTableRecord
100
AcDbTextStyleTableRecord
2
DWGDirectTextStyle
3
simplex
70
0
71
0
40
0
41
1
42
0
50
0
0
ENDTAB
0
TABLE
2
DIMSTYLE
5
1bc
100
AcDbSymbolTable
100
AcDbDimStyleTable
0
DIMSTYLE
105
27
100
AcDbSymbolTableRecord
100
AcDbDimStyleTableRecord
2
Standard
70
0
3
<>
41
0.18
42
0.0625
44
0.18
140
0.18
147
0.09
73
0
74
0
77
1
271
2
275
0
278
52
280
0
340
11
0
ENDTAB
0
TABLE
2
VIEW
5
1bd
100
AcDbSymbolTable
0
ENDTAB
0
TABLE
2
UCS
5
1be
100
AcDbSymbolTable
0
ENDTAB
0
TABLE
2
APPID
5
1bf
100
AcDbSymbolTable
0
APPID
5
12
100
AcDbSymbolTableRecord
100
AcDbRegAppTableRecord
2
ACAD
70
0
0
ENDTAB
0
TABLE
2
BLOCK_RECORD
5
1c0
100
AcDbSymbolTable
0
BLOCK_RECORD
5
1F
100
AcDbSymbolTableRecord
100
AcDbBlockTableRecord
2
*Model_Space
340
0
70
0
0
BLOCK_RECORD
5
1B
100
AcDbSymbolTableRecord
100
AcDbBlockTableRecord
2
*Paper_Space
340
0
70
0
0
BLOCK_RECORD
5
23
100
AcDbSymbolTableRecord
100
AcDbBlockTableRecord
2
*Paper_Space0
340
0
70
0
0
BLOCK_RECORD
5
10B
100
AcDbSymbolTableRecord
100
AcDbBlockTableRecord
2
DimnDraft3D1
340
0
70
0
0
BLOCK_RECORD
5
119
100
AcDbSymbolTableRecord
100
AcDbBlockTableRecord
2
_CLOSED
340
0
70
0
0
BLOCK_RECORD
5
120
100
AcDbSymbolTableRecord
100
AcDbBlockTableRecord
2
DimnDraft3D2
340
0
70
0
0
BLOCK_RECORD
5
12F
100
AcDbSymbolTableRecord
100
AcDbBlockTableRecord
2
DimnDraft3D3
340
0
70
0
0
BLOCK_RECORD
5
13D
100
AcDbSymbolTableRecord
100
AcDbBlockTableRecord
2
DimnDraft3D4
340
0
70
0
0
ENDTAB
0
ENDSEC
0
SECTION
2
BLOCKS
0
BLOCK
5
20
100
AcDbEntity
8
0
100
AcDbBlockBegin
2
*Model_Space
70
0
10
0
20
0
30
0
3
*Model_Space
0
ENDBLK
5
21
100
AcDbEntity
8
0
100
AcDbBlockEnd
0
BLOCK
5
1C
100
AcDbEntity
8
0
100
AcDbBlockBegin
2
*Paper_Space
70
0
10
0
20
0
30
0
3
*Paper_Space
0
ENDBLK
5
1D
100
AcDbEntity
8
0
100
AcDbBlockEnd
0
BLOCK
5
24
100
AcDbEntity
8
0
100
AcDbBlockBegin
2
*Paper_Space0
70
0
10
0
20
0
30
0
3
*Paper_Space0
0
ENDBLK
5
25
100
AcDbEntity
8
0
100
AcDbBlockEnd
0
BLOCK
5
116
100
AcDbEntity
8
0
100
AcDbBlockBegin
2
DimnDraft3D1
70
0
10
0
20
0
30
0
3
DimnDraft3D1
0
MTEXT
5
10C
100
AcDbEntity
8
2
62
256
6
ByLayer
370
18
48
1
60
0
100
AcDbMText
10
91.054828
20
24.28
30
0
210
0
220
0
230
1
1
\W0.6563;13.0
40
4.5
41
0
44
1.084337
50
90
71
7
72
5
7
iso_b_vert
0
LINE
5
10D
100
AcDbEntity
8
2
62
256
6
ByLayer
370
13
48
1
60
0
100
AcDbLine
10
81.93
20
12.9
30
0
11
94.18
21
12.9
31
0
39
0
210
0
220
0
230
1
0
LINE
5
10E
100
AcDbEntity
8
2
62
256
6
ByLayer
370
13
48
1
60
0
100
AcDbLine
10
81.93
20
0
30
0
11
94.18
21
0
31
0
39
0
210
0
220
0
230
1
0
LINE
5
10F
100
AcDbEntity
8
2
62
256
6
ByLayer
370
13
48
1
60
0
100
AcDbLine
10
92.18
20
0
30
0
11
92.18
21
32.591541
31
0
39
0
210
0
220
0
230
1
0
LINE
5
110
100
AcDbEntity
8
2
62
256
6
ByLayer
370
13
48
1
60
0
100
AcDbLine
10
92.18
20
12.9
30
0
11
92.597997
21
9.725002
31
0
39
0
210
0
220
0
230
1
0
LINE
5
111
100
AcDbEntity
8
2
62
256
6
ByLayer
370
13
48
1
60
0
100
AcDbLine
10
92.18
20
12.9
30
0
11
91.762003
21
9.724998
31
0
39
0
210
0
220
0
230
1
0
LINE
5
112
100
AcDbEntity
8
2
62
256
6
ByLayer
370
13
48
1
60
0
100
AcDbLine
10
92.597997
20
9.725002
30
0
11
91.762003
21
9.724998
31
0
39
0
210
0
220
0
230
1
0
LINE
5
113
100
AcDbEntity
8
2
62
256
6
ByLayer
370
13
48
1
60
0
100
AcDbLine
10
92.18
20
0
30
0
11
91.762003
21
3.174998
31
0
39
0
210
0
220
0
230
1
0
LINE
5
114
100
AcDbEntity
8
2
62
256
6
ByLayer
370
13
48
1
60
0
100
AcDbLine
10
92.18
20
0
30
0
11
92.597997
21
3.175002
31
0
39
0
210
0
220
0
230
1
0
LINE
5
115
100
AcDbEntity
8
2
62
256
6
ByLayer
370
13
48
1
60
0
100
AcDbLine
10
91.762003
20
3.174998
30
0
11
92.597997
21
3.175002
31
0
39
0
210
0
220
0
230
1
0
ENDBLK
5
117
100
AcDbEntity
8
0
100
AcDbBlockEnd
0
BLOCK
5
11A
100
AcDbEntity
8
0
100
AcDbBlockBegin
2
_CLOSED
70
0
10
0
20
0
30
0
3
_CLOSED
0
LINE
5
11C
100
AcDbEntity
8
0
62
256
6
ByLayer
370
-2
48
1
60
0
100
AcDbLine
10
-1
20
0.166667
30
0
11
0
21
0
31
0
39
0
210
0
220
0
230
1
0
LINE
5
11D
100
AcDbEntity
8
0
62
256
6
ByLayer
370
-2
48
1
60
0
100
AcDbLine
10
0
20
0
30
0
11
-1
21
-0.166667
31
0
39
0
210
0
220
0
230
1
0
LINE
5
11E
100
AcDbEntity
8
0
62
256
6
ByLayer
370
-2
48
1
60
0
100
AcDbLine
10
-1
20
0.166667
30
0
11
-1
21
-0.166667
31
0
39
0
210
0
220
0
230
1
0
LINE
5
11F
100
AcDbEntity
8
0
62
256
6
ByLayer
370
-2
48
1
60
0
100
AcDbLine
10
0
20
0
30
0
11
-1
21
0
31
0
39
0
210
0
220
0
230
1
0
ENDBLK
5
11B
100
AcDbEntity
8
0
100
AcDbBlockEnd
0
BLOCK
5
12C
100
AcDbEntity
8
0
100
AcDbBlockBegin
2
DimnDraft3D2
70
0
10
0
20
0
30
0
3
DimnDraft3D2
0
MTEXT
5
121
100
AcDbEntity
8
SK2
62
256
6
ByLayer
370
18
48
1
60
0
100
AcDbMText
10
-182.195172
20
-3.747471
30
0
210
0
220
0
230
1
1
\W0.8879;%%c20
40
4.5
41
0
44
1.084337
50
90
71
7
72
5
7
iso_b_vert
0
LINE
5
123
100
AcDbEntity
8
SK2
62
256
6
ByLayer
370
13
48
1
60
0
100
AcDbLine
10
-173.32
20
-9.99125
30
0
11
-183.07
21
-9.99125
31
0
39
0
210
0
220
0
230
1
0
LINE
5
124
100
AcDbEntity
8
SK2
62
256
6
ByLayer
370
13
48
1
60
0
100
AcDbLine
10
-173.32
20
9.99125
30
0
11
-183.07
21
9.99125
31
0
39
0
210
0
220
0
230
1
0
LINE
5
125
100
AcDbEntity
8
SK2
62
256
6
ByLayer
370
13
48
1
60
0
100
AcDbLine
10
-181.07
20
-21.24125
30
0
11
-181.07
21
21.24125
31
0
39
0
210
0
220
0
230
1
0
LINE
5
126
100
AcDbEntity
8
SK2
62
256
6
ByLayer
370
13
48
1
60
0
100
AcDbLine
10
-181.07
20
-9.99125
30
0
11
-180.652003
21
-13.166248
31
0
39
0
210
0
220
0
230
1
0
LINE
5
127
100
AcDbEntity
8
SK2
62
256
6
ByLayer
370
13
48
1
60
0
100
AcDbLine
10
-181.07
20
-9.99125
30
0
11
-181.487997
21
-13.166252
31
0
39
0
210
0
220
0
230
1
0
LINE
5
128
100
AcDbEntity
8
SK2
62
256
6
ByLayer
370
13
48
1
60
0
100
AcDbLine
10
-180.652003
20
-13.166248
30
0
11
-181.487997
21
-13.166252
31
0
39
0
210
0
220
0
230
1
0
LINE
5
129
100
AcDbEntity
8
SK2
62
256
6
ByLayer
370
13
48
1
60
0
100
AcDbLine
10
-181.07
20
9.99125
30
0
11
-181.487997
21
13.166248
31
0
39
0
210
0
220
0
230
1
0
LINE
5
12A
100
AcDbEntity
8
SK2
62
256
6
ByLayer
370
13
48
1
60
0
100
AcDbLine
10
-181.07
20
9.99125
30
0
11
-180.652003
21
13.166252
31
0
39
0
210
0
220
0
230
1
0
LINE
5
12B
100
AcDbEntity
8
SK2
62
256
6
ByLayer
370
13
48
1
60
0
100
AcDbLine
10
-181.487997
20
13.166248
30
0
11
-180.652003
21
13.166252
31
0
39
0
210
0
220
0
230
1
0
ENDBLK
5
12D
100
AcDbEntity
8
0
100
AcDbBlockEnd
0
BLOCK
5
13A
100
AcDbEntity
8
0
100
AcDbBlockBegin
2
DimnDraft3D3
70
0
10
0
20
0
30
0
3
DimnDraft3D3
0
MTEXT
5
130
100
AcDbEntity
8
SK2
62
256
6
ByLayer
370
18
48
1
60
0
100
AcDbMText
10
-51.532056
20
26.775172
30
0
210
0
220
0
230
1
1
\W0.7468;250.0
40
4.5
41
0
44
1.084337
50
0
71
7
72
5
7
iso_b_vert
0
LINE
5
131
100
AcDbEntity
8
SK2
62
256
6
ByLayer
370
13
48
1
60
0
100
AcDbLine
10
79.93
20
14.9
30
0
11
79.93
21
27.65
31
0
39
0
210
0
220
0
230
1
0
LINE
5
132
100
AcDbEntity
8
SK2
62
256
6
ByLayer
370
13
48
1
60
0
100
AcDbLine
10
-171.32
20
11.99125
30
0
11
-171.32
21
27.65
31
0
39
0
210
0
220
0
230
1
0
LINE
5
133
100
AcDbEntity
8
SK2
62
256
6
ByLayer
370
13
48
1
60
0
100
AcDbLine
10
79.93
20
25.65
30
0
11
-171.32
21
25.65
31
0
39
0
210
0
220
0
230
1
0
LINE
5
134
100
AcDbEntity
8
SK2
62
256
6
ByLayer
370
13
48
1
60
0
100
AcDbLine
10
79.93
20
25.65
30
0
11
76.755002
21
25.232003
31
0
39
0
210
0
220
0
230
1
0
LINE
5
135
100
AcDbEntity
8
SK2
62
256
6
ByLayer
370
13
48
1
60
0
100
AcDbLine
10
79.93
20
25.65
30
0
11
76.754998
21
26.067997
31
0
39
0
210
0
220
0
230
1
0
LINE
5
136
100
AcDbEntity
8
SK2
62
256
6
ByLayer
370
13
48
1
60
0
100
AcDbLine
10
76.755002
20
25.232003
30
0
11
76.754998
21
26.067997
31
0
39
0
210
0
220
0
230
1
0
LINE
5
137
100
AcDbEntity
8
SK2
62
256
6
ByLayer
370
13
48
1
60
0
100
AcDbLine
10
-171.32
20
25.65
30
0
11
-168.145002
21
26.067997
31
0
39
0
210
0
220
0
230
1
0
LINE
5
138
100
AcDbEntity
8
SK2
62
256
6
ByLayer
370
13
48
1
60
0
100
AcDbLine
10
-171.32
20
25.65
30
0
11
-168.144998
21
25.232003
31
0
39
0
210
0
220
0
230
1
0
LINE
5
139
100
AcDbEntity
8
SK2
62
256
6
ByLayer
370
13
48
1
60
0
100
AcDbLine
10
-168.145002
20
26.067997
30
0
11
-168.144998
21
25.232003
31
0
39
0
210
0
220
0
230
1
0
ENDBLK
5
13B
100
AcDbEntity
8
0
100
AcDbBlockEnd
0
BLOCK
5
148
100
AcDbEntity
8
0
100
AcDbBlockBegin
2
DimnDraft3D4
70
0
10
0
20
0
30
0
3
DimnDraft3D4
0
MTEXT
5
13E
100
AcDbEntity
8
2
62
256
6
ByLayer
370
18
48
1
60
0
100
AcDbMText
10
69.790234
20
-44.075282
30
0
210
0
220
0
230
1
1
\W0.7645;62%%d23'
40
4.5
41
0
44
1.084337
50
351.309598295407
71
7
72
5
7
iso_b_vert
0
LINE
5
13F
100
AcDbEntity
8
2
62
256
6
ByLayer
370
13
48
1
60
0
100
AcDbLine
10
85.956708
20
1.381372
30
0
11
109.05954
21
-42.774231
31
0
39
0
210
0
220
0
230
1
0
LINE
5
140
100
AcDbEntity
8
2
62
256
6
ByLayer
370
13
48
1
60
0
100
AcDbLine
10
78.515786
20
-1.414214
30
0
11
46.689095
21
-33.240905
31
0
39
0
210
0
220
0
230
1
0
ARC
5
141
100
AcDbEntity
8
2
62
256
6
ByLayer
370
13
48
1
60
0
100
AcDbCircle
39
0
10
84.361066
20
4.431066
30
0
40
51.2762112692862
210
0
220
0
230
1
100
AcDbArc
50
225
51
297.619197
0
LINE
5
142
100
AcDbEntity
8
2
62
256
6
ByLayer
370
13
48
1
60
0
100
AcDbLine
10
108.132354
20
-41.002135
30
0
11
105.484738
21
-42.803652
31
0
39
0
210
0
220
0
230
1
0
LINE
5
143
100
AcDbEntity
8
2
62
256
6
ByLayer
370
13
48
1
60
0
100
AcDbLine
10
108.132354
20
-41.002135
30
0
11
105.108684
21
-42.057015
31
0
39
0
210
0
220
0
230
1
0
LINE
5
144
100
AcDbEntity
8
2
62
256
6
ByLayer
370
13
48
1
60
0
100
AcDbLine
10
105.484738
20
-42.803652
30
0
11
105.108684
21
-42.057015
31
0
39
0
210
0
220
0
230
1
0
LINE
5
145
100
AcDbEntity
8
2
62
256
6
ByLayer
370
13
48
1
60
0
100
AcDbLine
10
48.103309
20
-31.826691
30
0
11
50.673803
21
-33.736638
31
0
39
0
210
0
220
0
230
1
0
LINE
5
146
100
AcDbEntity
8
2
62
256
6
ByLayer
370
13
48
1
60
0
100
AcDbLine
10
48.103309
20
-31.826691
30
0
11
50.091887
21
-34.336853
31
0
39
0
210
0
220
0
230
1
0
LINE
5
147
100
AcDbEntity
8
2
62
256
6
ByLayer
370
13
48
1
60
0
100
AcDbLine
10
50.673803
20
-33.736638
30
0
11
50.091887
21
-34.336853
31
0
39
0
210
0
220
0
230
1
0
ENDBLK
5
149
100
AcDbEntity
8
0
100
AcDbBlockEnd
0
ENDSEC
0
SECTION
2
ENTITIES
0
ELLIPSE
5
B2
100
AcDbEntity
8
1
62
256
6
ByLayer
370
18
48
1
60
0
100
AcDbEllipse
10
79.448341
20
-5.993587
30
0
11
1.5
21
0
31
0
210
0
220
0
230
1
40
0.994941
41
2.27210011658156
42
2.74788581337143
0
ELLIPSE
5
B3
100
AcDbEntity
8
1
62
256
6
ByLayer
370
18
48
1
60
0
100
AcDbEllipse
10
78.970516
20
-3.723202
30
0
11
1.77484750859772
21
0
31
0
210
0
220
0
230
1
40
0.994941
41
2.66162710929136
42
-2.14174533126766
0
ELLIPSE
5
B4
100
AcDbEntity
8
1
62
256
6
ByLayer
370
18
48
1
60
0
100
AcDbEllipse
10
79.448341
20
-6.058887
30
0
11
1.5
21
0
31
0
210
0
220
0
230
1
40
0.994941
41
2.25154046918894
42
2.99982842345927
0
ELLIPSE
5
B5
100
AcDbEntity
8
1
62
256
6
ByLayer
370
18
48
1
60
0
100
AcDbEllipse
10
79.448341
20
-6.058887
30
0
11
1.5
21
0
31
0
210
0
220
0
230
1
40
0.994941
41
0.14176408800798
42
0.890052042699401
0
ELLIPSE
5
B6
100
AcDbEntity
8
1
62
256
6
ByLayer
370
18
48
1
60
0
100
AcDbEllipse
10
18.285692
20
212.426719
30
0
11
78.8380783628078
21
-292.739180149522
31
-7.62399391683091E-14
210
6.16297582203916E-32
220
2.60436403249364E-16
230
-1
40
0.097039
41
0.763525973853679
42
0.806590760638111
0
ELLIPSE
5
B7
100
AcDbEntity
8
1
62
256
6
ByLayer
370
18
48
1
60
0
100
AcDbEllipse
10
86.148636
20
5.810701
30
0
11
3.19324105026565
21
0.247849608085633
31
0
210
0
220
0
230
-1
40
0.994253
41
1.85935126461342
42
2.18008568462223
0
ELLIPSE
5
B8
100
AcDbEntity
8
1
62
256
6
ByLayer
370
18
48
1
60
0
100
AcDbEllipse
10
78.970516
20
-4.079852
30
0
11
-1.625
21
1.98998532496136E-16
31
0
210
0
220
0
230
1
40
0.994941
41
-0.479965544298439
42
-0.0683849081428467
0
ELLIPSE
5
B9
100
AcDbEntity
8
1
62
256
6
ByLayer
370
18
48
1
60
0
100
AcDbEllipse
10
75.672653
20
-0.66082
30
0
11
41.3201992927612
21
-40.3301816707579
31
0
210
0
220
0
230
-1
40
0.014101
41
1.68980731428103
42
1.7500786118715
0
ELLIPSE
5
BA
100
AcDbEntity
8
1
62
256
6
ByLayer
370
18
48
1
60
0
100
AcDbEllipse
10
78.970516
20
-3.858836
30
0
11
-1.625
21
1.98998532496136E-16
31
0
210
0
220
0
230
1
40
0.994941
41
-0.47996554429844
42
0.978329082231929
0
ELLIPSE
5
BB
100
AcDbEntity
8
1
62
256
6
ByLayer
370
18
48
1
60
0
100
AcDbEllipse
10
75.672781
20
-0.66093
30
0
11
41.3204784103813
21
-40.3304508671969
31
0
210
0
220
0
230
-1
40
0.014101
41
1.78889453158207
42
1.81458795495012
0
ELLIPSE
5
BC
100
AcDbEntity
8
1
62
256
6
ByLayer
370
18
48
1
60
0
100
AcDbEllipse
10
72.454969
20
5.806746
30
0
11
3.19324109960837
21
0.247849077296701
31
0
210
0
220
0
230
-1
40
0.994253
41
1.04392413625204
42
1.17973802156412
0
ELLIPSE
5
BD
100
AcDbEntity
8
1
62
256
6
ByLayer
370
18
48
1
60
0
100
AcDbEllipse
10
67.032251
20
6.700376
30
0
11
1.18028944208924
21
-1.15527809659044
31
0
210
0
220
0
230
-1
40
0.025078
41
0.89843727300912
42
2.35653411785556
0
ELLIPSE
5
BE
100
AcDbEntity
8
1
62
256
6
ByLayer
370
18
48
1
60
0
100
AcDbEllipse
10
79.448341
20
-5.636936
30
0
11
-1.5
21
1.83690953073357E-16
31
0
210
0
220
0
230
1
40
0.994941
41
-0.290835473263254
42
-2.38699981052626
0
ELLIPSE
5
BF
100
AcDbEntity
8
1
62
256
6
ByLayer
370
18
48
1
60
0
100
AcDbEllipse
10
79.448341
20
12.109727
30
0
11
0.794000000000009
21
0
31
0
210
0
220
0
230
1
40
0.994941
41
0.479965544298476
42
2.6616271092914
0
ELLIPSE
5
C0
100
AcDbEntity
8
1
62
256
6
ByLayer
370
18
48
1
60
0
100
AcDbEllipse
10
74.974325
20
3.558704
30
0
11
0.794000000000005
21
0
31
0
210
0
220
0
230
1
40
0.994941
41
2.66162710929137
42
-2.66162710929137
0
ELLIPSE
5
C1
100
AcDbEntity
8
1
62
256
6
ByLayer
370
18
48
1
60
0
100
AcDbEllipse
10
79.448341
20
-4.992318
30
0
11
0.794000000000009
21
0
31
0
210
0
220
0
230
1
40
0.994941
41
-2.66162710929128
42
-0.479965544298376
0
ELLIPSE
5
C2
100
AcDbEntity
8
1
62
256
6
ByLayer
370
18
48
1
60
0
100
AcDbEllipse
10
83.922356
20
3.558704
30
0
11
0.794000000000005
21
0
31
0
210
0
220
0
230
1
40
0.994941
41
-0.479965544298426
42
0.479965544298503
0
ELLIPSE
5
C3
100
AcDbEntity
8
1
62
256
6
ByLayer
370
18
48
1
60
0
100
AcDbEllipse
10
79.448341
20
3.398449
30
0
11
-1.2065
21
1.4774875658867E-16
31
0
210
0
220
0
230
1
40
0.994941
41
0.0690326334118151
42
0.786254614483393
0
ELLIPSE
5
C4
100
AcDbEntity
8
1
62
256
6
ByLayer
370
18
48
1
60
0
100
AcDbEllipse
10
79.448341
20
3.514347
30
0
11
1.2065
21
0
31
0
210
0
220
0
230
1
40
0.994941
41
3.072560020178
42
-3.07256002017798
0
ELLIPSE
5
C5
100
AcDbEntity
8
1
62
256
6
ByLayer
370
18
48
1
60
0
100
AcDbEllipse
10
79.448341
20
3.541608
30
0
11
1.6765
21
0
31
0
210
0
220
0
230
1
40
0.994941
41
-2.61520333031015
42
-1.5707963267949
0
ELLIPSE
5
C6
100
AcDbEntity
8
1
62
256
6
ByLayer
370
18
48
1
60
0
100
AcDbEllipse
10
81.3329
20
3.398449
30
0
11
-0.686
21
8.40079958722151E-17
31
0
210
0
220
0
230
1
40
0.994941
41
0.121614041216942
42
0.791261334921242
0
ELLIPSE
5
C7
100
AcDbEntity
8
1
62
256
6
ByLayer
370
18
48
1
60
0
100
AcDbEllipse
10
79.448341
20
3.541608
30
0
11
1.6765
21
0
31
0
210
0
220
0
230
1
40
0.994941
41
-1.5707963267949
42
-0.526389323279644
0
ELLIPSE
5
C8
100
AcDbEntity
8
1
62
256
6
ByLayer
370
18
48
1
60
0
100
AcDbEllipse
10
79.448341
20
3.398449
30
0
11
-1.2065
21
1.4774875658867E-16
31
0
210
0
220
0
230
1
40
0.994941
41
1.23154338573316
42
1.89310991437273
0
ELLIPSE
5
C9
100
AcDbEntity
8
1
62
256
6
ByLayer
370
18
48
1
60
0
100
AcDbEllipse
10
79.448341
20
3.514347
30
0
11
1.2065
21
0
31
0
210
0
220
0
230
1
40
0.994941
41
-0.0690326334119214
42
0.0690326334119228
0
ELLIPSE
5
CA
100
AcDbEntity
8
1
62
256
6
ByLayer
370
18
48
1
60
0
100
AcDbEllipse
10
79.448341
20
3.398449
30
0
11
-1.2065
21
1.4774875658867E-16
31
0
210
0
220
0
230
1
40
0.994941
41
-2.09299982855251
42
-1.04859282503728
0
ELLIPSE
5
CB
100
AcDbEntity
8
1
62
256
6
ByLayer
370
18
48
1
60
0
100
AcDbEllipse
10
79.448341
20
3.398449
30
0
11
1.2065
21
0
31
0
210
0
220
0
230
1
40
0.994941
41
0.0690326334119236
42
1.04859282503728
0
ELLIPSE
5
CC
100
AcDbEntity
8
1
62
256
6
ByLayer
370
18
48
1
60
0
100
AcDbEllipse
10
79.448341
20
3.541608
30
0
11
1.6765
21
0
31
0
210
0
220
0
230
1
40
0.994941
41
-0.526389323279644
42
0.52638932327962
0
ELLIPSE
5
CD
100
AcDbEntity
8
1
62
256
6
ByLayer
370
18
48
1
60
0
100
AcDbEllipse
10
78.504378
20
5.030423
30
0
11
-0.686
21
8.40079958722151E-17
31
0
210
0
220
0
230
1
40
0.994941
41
2.09299982855255
42
2.87699047217333
0
ELLIPSE
5
CE
100
AcDbEntity
8
1
62
256
6
ByLayer
370
18
48
1
60
0
100
AcDbEllipse
10
79.448341
20
3.541608
30
0
11
1.6765
21
0
31
0
210
0
220
0
230
1
40
0.994941
41
2.61520333031015
42
-2.61520333031015
0
ELLIPSE
5
CF
100
AcDbEntity
8
1
62
256
6
ByLayer
370
18
48
1
60
0
100
AcDbEllipse
10
79.448341
20
3.541608
30
0
11
1.6765
21
0
31
0
210
0
220
0
230
1
40
0.994941
41
0.526389323279621
42
1.5707963267949
0
ELLIPSE
5
D0
100
AcDbEntity
8
1
62
256
6
ByLayer
370
18
48
1
60
0
100
AcDbEllipse
10
79.448341
20
3.398449
30
0
11
-1.2065
21
1.4774875658867E-16
31
0
210
0
220
0
230
1
40
0.994941
41
2.3384258236012
42
3.07256002017787
0
ELLIPSE
5
D1
100
AcDbEntity
8
1
62
256
6
ByLayer
370
18
48
1
60
0
100
AcDbEllipse
10
79.448341
20
3.541608
30
0
11
1.6765
21
0
31
0
210
0
220
0
230
1
40
0.994941
41
1.5707963267949
42
2.61520333031015
0
ELLIPSE
5
D2
100
AcDbEntity
8
1
62
256
6
ByLayer
370
18
48
1
60
0
100
AcDbEllipse
10
79.448341
20
3.398449
30
0
11
1.2065
21
0
31
0
210
0
220
0
230
1
40
0.994941
41
0.0485580903694628
42
0.0690326334119239
0
ELLIPSE
5
D3
100
AcDbEntity
8
1
62
256
6
ByLayer
370
18
48
1
60
0
100
AcDbEllipse
10
79.448341
20
3.398449
30
0
11
-1.2065
21
1.4774875658867E-16
31
0
210
0
220
0
230
1
40
0.994941
41
-1.04859282503728
42
-0.0690326334117918
0
ELLIPSE
5
D4
100
AcDbEntity
8
1
62
256
6
ByLayer
370
18
48
1
60
0
100
AcDbEllipse
10
80.392303
20
5.030423
30
0
11
-0.686
21
8.40079958722151E-17
31
0
210
0
220
0
230
1
40
0.994941
41
1.04859282503719
42
1.83258346865808
0
ELLIPSE
5
D5
100
AcDbEntity
8
1
62
256
6
ByLayer
370
18
48
1
60
0
100
AcDbEllipse
10
78.251265
20
2.706375
30
0
11
-0.292
21
3.57585055316134E-17
31
0
210
0
220
0
230
1
40
0.994941
41
-0.791261334921234
42
-0.222707331396635
0
ELLIPSE
5
D6
100
AcDbEntity
8
1
62
256
6
ByLayer
370
18
48
1
60
0
100
AcDbEllipse
10
77.563781
20
3.398449
30
0
11
-0.686
21
8.40079958722151E-17
31
0
210
0
220
0
230
1
40
0.994941
41
2.3503313186686
42
3.01997861237308
0
ELLIPSE
5
D7
100
AcDbEntity
8
1
62
256
6
ByLayer
370
18
48
1
60
0
100
AcDbEllipse
10
78.251265
20
4.090523
30
0
11
-0.292
21
3.57585055316134E-17
31
0
210
0
220
0
230
1
40
0.994941
41
-1.83258346865811
42
-0.252415140161357
0
ELLIPSE
5
D8
100
AcDbEntity
8
1
62
256
6
ByLayer
370
18
48
1
60
0
100
AcDbEllipse
10
78.504378
20
5.030423
30
0
11
-0.686
21
8.40079958722151E-17
31
0
210
0
220
0
230
1
40
0.994941
41
1.30900918493171
42
2.09299982855255
0
ELLIPSE
5
D9
100
AcDbEntity
8
1
62
256
6
ByLayer
370
18
48
1
60
0
100
AcDbEllipse
10
79.448341
20
4.775945
30
0
11
-0.292
21
3.57585055316134E-17
31
0
210
0
220
0
230
1
40
0.994941
41
-2.87699047217342
42
-0.264602181416377
0
ELLIPSE
5
DA
100
AcDbEntity
8
1
62
256
6
ByLayer
370
18
48
1
60
0
100
AcDbEllipse
10
80.392303
20
5.030423
30
0
11
-0.686
21
8.40079958722151E-17
31
0
210
0
220
0
230
1
40
0.994941
41
0.26460218141646
42
1.04859282503719
0
ELLIPSE
5
DB
100
AcDbEntity
8
1
62
256
6
ByLayer
370
18
48
1
60
0
100
AcDbEllipse
10
80.645416
20
4.090523
30
0
11
-0.292
21
3.57585055316134E-17
31
0
210
0
220
0
230
1
40
0.994941
41
-2.92898803980208
42
-1.30900918493189
0
ELLIPSE
5
DC
100
AcDbEntity
8
1
62
256
6
ByLayer
370
18
48
1
60
0
100
AcDbEllipse
10
80.645416
20
2.706375
30
0
11
-0.292
21
3.57585055316134E-17
31
0
210
0
220
0
230
1
40
0.994941
41
-2.89293588025275
42
-2.35033131866857
0
ELLIPSE
5
DD
100
AcDbEntity
8
1
62
256
6
ByLayer
370
18
48
1
60
0
100
AcDbEllipse
10
79.448341
20
3.400961
30
0
11
2.625
21
0
31
0
210
0
220
0
230
1
40
0.994941
41
-3.14159247761661
42
-1.70037059330797E-16
0
ELLIPSE
5
DE
100
AcDbEntity
8
1
62
256
6
ByLayer
370
18
48
1
60
0
100
AcDbEllipse
10
79.448341
20
3.513937
30
0
11
2.625
21
0
31
0
210
0
220
0
230
1
40
0.994941
41
0
42
6.28318530717959
0
ELLIPSE
5
DF
100
AcDbEntity
8
1
62
256
6
ByLayer
370
18
48
1
60
0
100
AcDbEllipse
10
79.448341
20
3.541608
30
0
11
1.8
21
0
31
0
210
0
220
0
230
1
40
0.994941
41
0
42
6.28318530717959
0
ELLIPSE
5
E0
100
AcDbEntity
8
1
62
256
6
ByLayer
370
18
48
1
60
0
100
AcDbEllipse
10
79.448341
20
3.44082
30
0
11
2.9448658464391
21
0
31
0
210
0
220
0
230
1
40
0.994941
41
0
42
6.28318530717959
0
ELLIPSE
5
E1
100
AcDbEntity
8
1
62
256
6
ByLayer
370
18
48
1
60
0
100
AcDbEllipse
10
79.448341
20
3.456233
30
0
11
3.00000000000001
21
0
31
0
210
0
220
0
230
1
40
0.994941
41
-0.752509742383053
42
-2.97564853828894E-16
0
ELLIPSE
5
E2
100
AcDbEntity
8
1
62
256
6
ByLayer
370
18
48
1
60
0
100
AcDbEllipse
10
79.448341
20
3.456233
30
0
11
3.00000000000001
21
0
31
0
210
0
220
0
230
1
40
0.994941
41
-2.37661489027173
42
-0.764977921985728
0
ELLIPSE
5
E3
100
AcDbEntity
8
1
62
256
6
ByLayer
370
18
48
1
60
0
100
AcDbEllipse
10
79.448341
20
3.456233
30
0
11
3.00000000000001
21
0
31
0
210
0
220
0
230
1
40
0.994941
41
0
42
-2.38908308676236
0
ELLIPSE
5
E4
100
AcDbEntity
8
1
62
256
6
ByLayer
370
18
48
1
60
0
100
AcDbEllipse
10
79.448341
20
3.558704
30
0
11
3.07132534818237
21
0
31
0
210
0
220
0
230
1
40
0.994941
41
0
42
6.28318530717959
0
POINT
5
6C
100
AcDbEntity
8
2
62
256
6
ByLayer
370
18
48
1
60
0
100
AcDbPoint
10
79.93
20
12.9
30
0
39
0
210
0
220
0
230
1
50
360
0
POINT
5
6E
100
AcDbEntity
8
1
62
256
6
ByLayer
370
18
48
1
60
0
100
AcDbPoint
10
-171.32
20
0
30
0
39
0
210
0
220
0
230
1
50
360
0
POINT
5
70
100
AcDbEntity
8
80
62
256
6
ByLayer
370
18
48
1
60
0
100
AcDbPoint
10
0
20
0
30
0
39
0
210
0
220
0
230
1
50
360
0
POINT
5
72
100
AcDbEntity
8
81
62
256
6
ByLayer
370
18
48
1
60
0
100
AcDbPoint
10
79.93
20
12.9
30
0
39
0
210
0
220
0
230
1
50
360
0
SPLINE
5
E5
100
AcDbEntity
8
1
62
256
6
ByLayer
370
18
48
1
60
0
100
AcDbSpline
70
4
71
3
72
20
73
16
40
0
40
0
40
0
40
0
40
0.250000000000005
40
0.250000000000005
40
0.375000000000005
40
0.375000000000005
40
0.500000000000004
40
0.500000000000004
40
0.562500000000004
40
0.562500000000004
40
0.625000000000004
40
0.625000000000004
40
0.750000000000005
40
0.750000000000005
40
1
40
1
40
1
40
1
41
1
10
67.7447075741488
20
5.95767249304208
30
0
41
1
10
66.7550115182566
20
5.16185273402681
30
0
41
1
10
65.6659959902861
20
4.57545424127701
30
0
41
1
10
63.9460673482524
20
3.91820172927316
30
0
41
1
10
63.3582676263482
20
3.7449515874587
30
0
41
1
10
62.1505480746308
20
3.59570310053164
30
0
41
1
10
61.480947337591
20
3.57792880265845
30
0
41
1
10
60.7236955099262
20
4.16390730845546
30
0
41
1
10
60.5860179509164
20
4.52446616360342
30
0
41
1
10
60.7075949232892
20
5.14229596769795
30
0
41
1
10
60.8883323762868
20
5.39891532031095
30
0
41
1
10
61.5066402296837
20
6.05390064028649
30
0
41
1
10
62.0358708548529
20
6.35292812649692
30
0
41
1
10
63.6870465696578
20
7.0882090609353
30
0
41
1
10
64.9190806118233
20
7.36600819357645
30
0
41
1
10
66.176896965453
20
7.49663499539108
30
0
0
SPLINE
5
E6
100
AcDbEntity
8
1
62
256
6
ByLayer
370
18
48
1
60
0
100
AcDbSpline
70
4
71
3
72
8
73
4
40
0
40
0
40
0
40
0
40
1
40
1
40
1
40
1
41
1
10
77.368547428958
20
-9.91348457849853
30
0
41
1
10
77.1614207803397
20
-9.91348457849853
30
0
41
1
10
76.9546299510183
20
-9.91310347840212
30
0
41
1
10
76.7481715482601
20
-9.91234155264726
30
0
0
SPLINE
5
E7
100
AcDbEntity
8
1
62
256
6
ByLayer
370
18
48
1
60
0
100
AcDbSpline
70
4
71
3
72
8
73
4
40
0
40
0
40
0
40
0
40
1
40
1
40
1
40
1
41
1
10
76.5903683041498
20
-9.7378900023966
30
0
41
1
10
76.6429633683654
20
-9.79605151948223
30
0
41
1
10
76.695564588922
20
-9.8542019861595
30
0
41
1
10
76.7481715482601
20
-9.91234155264726
30
0
0
SPLINE
5
E8
100
AcDbEntity
8
1
62
256
6
ByLayer
370
18
48
1
60
0
100
AcDbSpline
70
4
71
3
72
8
73
4
40
0
40
0
40
0
40
0
40
1
40
1
40
1
40
1
41
1
10
78.0631005596221
20
-5.20005953739607
30
0
41
1
10
78.043552277438
20
-5.2016644668667
30
0
41
1
10
78.0262355684418
20
-5.20465447050285
30
0
41
1
10
78.0113337225494
20
-5.20898285945393
30
0
0
SPLINE
5
E9
100
AcDbEntity
8
1
62
256
6
ByLayer
370
18
48
1
60
0
100
AcDbSpline
70
4
71
3
72
8
73
4
40
0
40
0
40
0
40
0
40
1
40
1
40
1
40
1
41
1
10
85.4761811299997
20
-2.56697528565101
30
0
41
1
10
84.1488691067121
20
-5.03661324498941
30
0
41
1
10
82.7545782415157
20
-7.47051117061923
30
0
41
1
10
81.377868819944
20
-9.91348457849861
30
0
0
SPLINE
5
EA
100
AcDbEntity
8
1
62
256
6
ByLayer
370
18
48
1
60
0
100
AcDbSpline
70
4
71
3
72
8
73
4
40
0
40
0
40
0
40
0
40
1
40
1
40
1
40
1
41
1
10
73.6583070398648
20
-9.77158429697874
30
0
41
1
10
73.6833061642239
20
-9.7473415949672
30
0
41
1
10
73.7083062055032
20
-9.72308768617626
30
0
41
1
10
73.7333070398647
20
-9.69882273576602
30
0
0
SPLINE
5
EB
100
AcDbEntity
8
1
62
256
6
ByLayer
370
18
48
1
60
0
100
AcDbSpline
70
4
71
3
72
8
73
4
40
0
40
0
40
0
40
0
40
1
40
1
40
1
40
1
41
1
10
81.3779835692865
20
-10.09025
30
0
41
1
10
81.377948451527
20
-10.09025
30
0
41
1
10
81.3779098659445
20
-10.0308109999947
30
0
41
1
10
81.377868819944
20
-9.91348457849861
30
0
0
SPLINE
5
EC
100
AcDbEntity
8
1
62
256
6
ByLayer
370
18
48
1
60
0
100
AcDbSpline
70
4
71
3
72
8
73
4
40
0
40
0
40
0
40
0
40
1
40
1
40
1
40
1
41
1
10
76.747986215895
20
-10.09025
30
0
41
1
10
76.7480429205588
20
-10.09025
30
0
41
1
10
76.7481052438839
20
-10.0304232735396
30
0
41
1
10
76.7481715482601
20
-9.91234155264726
30
0
0
SPLINE
5
ED
100
AcDbEntity
8
1
62
256
6
ByLayer
370
18
48
1
60
0
100
AcDbSpline
70
4
71
3
72
10
73
6
40
0
40
0
40
0
40
0
40
0.5
40
0.5
40
1
40
1
40
1
40
1
41
1
10
52.3307613201354
20
4.33878745302164
30
0
41
1
10
52.4450229496841
20
5.3163365827418
30
0
41
1
10
52.7768148158573
20
6.18819720286004
30
0
41
1
10
53.803538682678
20
7.58271411904011
30
0
41
1
10
54.4907170509606
20
8.11107088609694
30
0
41
1
10
55.2737105356225
20
8.5087500000003
30
0
0
SPLINE
5
EE
100
AcDbEntity
8
1
62
256
6
ByLayer
370
18
48
1
60
0
100
AcDbSpline
70
4
71
3
72
15
73
11
40
0
40
0
40
0
40
0
40
0.272169770742737
40
0.272169770742737
40
0.544257021647283
40
0.544257021647283
40
0.817274639737295
40
0.817274639737295
40
0.817274639737295
40
1
40
1
40
1
40
1
41
1
10
70.2020162884589
20
3.54905203462422
30
0
41
1
10
70.459662967467
20
3.29672878365096
30
0
41
1
10
70.7643471947397
20
3.08524730366494
30
0
41
1
10
71.4168416870006
20
2.77869919022456
30
0
41
1
10
71.7736774819676
20
2.67933608621399
30
0
41
1
10
72.4913415109197
20
2.6050505823529
30
0
41
1
10
72.8621794436277
20
2.62957491556867
30
0
41
1
10
73.2134152873362
20
2.71425745969535
30
0
41
1
10
73.450355491527
20
2.77138346108785
30
0
41
1
10
73.6822284978904
20
2.85637853253826
30
0
41
1
10
73.8999481722525
20
2.96601380301266
30
0
0
SPLINE
5
EF
100
AcDbEntity
8
1
62
256
6
ByLayer
370
18
48
1
60
0
100
AcDbSpline
70
4
71
3
72
12
73
8
40
0
40
0
40
0
40
0
40
0.5
40
0.5
40
0.75
40
0.75
40
1
40
1
40
1
40
1
41
1
10
73.6583070398647
20
-9.7715842969796
30
0
41
1
10
70.2106320357904
20
-9.68688920667171
30
0
41
1
10
66.9144525493451
20
-9.50637478234202
30
0
41
1
10
62.2249283710225
20
-8.42163128822838
30
0
41
1
10
60.7501340827457
20
-7.92563413878221
30
0
41
1
10
57.9774876158307
20
-6.48603976752909
30
0
41
1
10
56.7038903102222
20
-5.5501274220025
30
0
41
1
10
55.5957537484649
20
-4.33878745302218
30
0
0
SPLINE
5
F0
100
AcDbEntity
8
1
62
256
6
ByLayer
370
18
48
1
60
0
100
AcDbSpline
70
4
71
3
72
8
73
4
40
0
40
0
40
0
40
0
40
1
40
1
40
1
40
1
41
1
10
73.7333070398647
20
-9.69882273576602
30
0
41
1
10
74.6816958106583
20
-9.72148223230718
30
0
41
1
10
75.6360170655809
20
-9.73369629065837
30
0
41
1
10
76.5903683041504
20
-9.73789000239606
30
0
0
SPLINE
5
F1
100
AcDbEntity
8
1
62
256
6
ByLayer
370
18
48
1
60
0
100
AcDbSpline
70
4
71
3
72
18
73
14
40
0
40
0
40
0
40
0
40
0.212491310234953
40
0.212491310234953
40
0.386617575418345
40
0.386617575418345
40
0.562425340506678
40
0.562425340506678
40
0.715387118728016
40
0.715387118728016
40
0.918247542724778
40
0.918247542724778
40
1
40
1
40
1
40
1
41
1
10
78.3268366342745
20
4.50336160358449
30
0
41
1
10
78.3953917627515
20
4.48138871132142
30
0
41
1
10
78.4691556505388
20
4.46975319437598
30
0
41
1
10
78.6053185226775
20
4.47248554953219
30
0
41
1
10
78.6688919159693
20
4.48274852618403
30
0
41
1
10
78.7914351365192
20
4.5230449009419
30
0
41
1
10
78.8521082117283
20
4.5540744307572
30
0
41
1
10
78.9520449296467
20
4.62685327325332
30
0
41
1
10
78.9943088983052
20
4.6674668182998
30
0
41
1
10
79.0769439703588
20
4.76927030126978
30
0
41
1
10
79.1138225779918
20
4.83442538009044
30
0
41
1
10
79.1503900052494
20
4.92847966899024
30
0
41
1
10
79.1592851843143
20
4.95619542209764
30
0
41
1
10
79.1665032639199
20
4.98413785449946
30
0
0
SPLINE
5
F2
100
AcDbEntity
8
1
62
256
6
ByLayer
370
18
48
1
60
0
100
AcDbSpline
70
4
71
3
72
16
73
12
40
0
40
0
40
0
40
0
40
0.142319077947653
40
0.142319077947653
40
0.364748229792007
40
0.364748229792007
40
0.594359598465087
40
0.594359598465087
40
0.841957615948807
40
0.841957615948807
40
1
40
1
40
1
40
1
41
1
10
80.8978874388872
20
4.3796449062894
30
0
41
1
10
80.8883769197939
20
4.39592915777487
30
0
41
1
10
80.8771995310501
20
4.41128341373738
30
0
41
1
10
80.8453247489932
20
4.4469229016315
30
0
41
1
10
80.8223451091125
20
4.46554131404855
30
0
41
1
10
80.7723902405569
20
4.4945824435232
30
0
41
1
10
80.7446934155974
20
4.5051115974972
30
0
41
1
10
80.6867500524098
20
4.51750520971149
30
0
41
1
10
80.6557570356707
20
4.51881465603486
30
0
41
1
10
80.6068517336255
20
4.51327442004825
30
0
41
1
10
80.5879897152953
20
4.50917733295967
30
0
41
1
10
80.5698447178262
20
4.50336160358452
30
0
0
SPLINE
5
F3
100
AcDbEntity
8
1
62
256
6
ByLayer
370
18
48
1
60
0
100
AcDbSpline
70
4
71
3
72
12
73
8
40
0
40
0
40
0
40
0
40
0.322038032643068
40
0.322038032643068
40
0.791348107792719
40
0.791348107792719
40
1
40
1
40
1
40
1
41
1
10
78.2447143251544
20
3.59714772340652
30
0
41
1
10
78.2383980280924
20
3.64913944717591
30
0
41
1
10
78.2260811820742
20
3.70078138166139
30
0
41
1
10
78.1842193438409
20
3.81976549207255
30
0
41
1
10
78.1488236561429
20
3.88553684062174
30
0
41
1
10
78.087921716364
20
3.96876565070676
30
0
41
1
10
78.0675606656188
20
3.99314635977027
30
0
41
1
10
78.0460038884002
20
4.01593101399564
30
0
0
SPLINE
5
F4
100
AcDbEntity
8
1
62
256
6
ByLayer
370
18
48
1
60
0
100
AcDbSpline
70
4
71
3
72
18
73
14
40
0
40
0
40
0
40
0
40
0.212077939306948
40
0.212077939306948
40
0.386277180669197
40
0.386277180669197
40
0.562162788938349
40
0.562162788938349
40
0.715139313179873
40
0.715139313179873
40
0.917926548134372
40
0.917926548134372
40
1
40
1
40
1
40
1
41
1
10
79.7301780881807
20
4.98413785449978
30
0
41
1
10
79.7487031978989
20
4.91242395629857
30
0
41
1
10
79.7786040134598
20
4.84152463287774
30
0
41
1
10
79.8536689939823
20
4.72329231212979
30
0
41
1
10
79.8961355672672
20
4.67278507671463
30
0
41
1
10
79.9945877163045
20
4.58644493460989
30
0
41
1
10
80.0522843841073
20
4.54965279147183
30
0
41
1
10
80.1647647634951
20
4.50074375886683
30
0
41
1
10
80.2202545789684
20
4.48535880185383
30
0
41
1
10
80.3469070754101
20
4.46726460913436
30
0
41
1
10
80.419444513782
20
4.46972447954866
30
0
41
1
10
80.5156315557107
20
4.4877924164781
30
0
41
1
10
80.5430800588321
20
4.49478315027838
30
0
41
1
10
80.5698447178262
20
4.50336160358449
30
0
0
SPLINE
5
F5
100
AcDbEntity
8
1
62
256
6
ByLayer
370
18
48
1
60
0
100
AcDbSpline
70
4
71
3
72
14
73
10
40
0
40
0
40
0
40
0
40
0.282570466285459
40
0.282570466285459
40
0.569068632819978
40
0.569068632819978
40
0.828374842927807
40
0.828374842927807
40
1
40
1
40
1
40
1
41
1
10
79.1665032639199
20
2.07718846232555
30
0
41
1
10
79.1752284178201
20
2.04688800236542
30
0
41
1
10
79.1898830185902
20
2.01702694370053
30
0
41
1
10
79.230182819349
20
1.96323318534425
30
0
41
1
10
79.2566555295484
20
1.93858953077063
30
0
41
1
10
79.314993564535
20
1.90209537532255
30
0
41
1
10
79.3470231320731
20
1.88875029486095
30
0
41
1
10
79.4024095625301
20
1.87618512458866
30
0
41
1
10
79.4254681499165
20
1.8735895102887
30
0
41
1
10
79.4483406760503
20
1.8735895102887
30
0
0
SPLINE
5
F6
100
AcDbEntity
8
1
62
256
6
ByLayer
370
18
48
1
60
0
100
AcDbSpline
70
4
71
3
72
18
73
14
40
0
40
0
40
0
40
0
40
0.0252377338695842
40
0.0252377338695842
40
0.248956864469693
40
0.248956864469693
40
0.473292310670942
40
0.473292310670942
40
0.710314360210404
40
0.710314360210404
40
0.969602023203305
40
0.969602023203305
40
1
40
1
40
1
40
1
41
1
10
77.9987939132134
20
2.70357087855746
30
0
41
1
10
78.000497195218
20
2.70065445809257
30
0
41
1
10
78.0022518652638
20
2.69776419234475
30
0
41
1
10
78.0198732624644
20
2.66982028663418
30
0
41
1
10
78.0398455989725
20
2.64669487687533
30
0
41
1
10
78.0846621150849
20
2.60786689085941
30
0
41
1
10
78.1100785964502
20
2.5916725058722
30
0
41
1
10
78.1642106028701
20
2.56689335056126
30
0
41
1
10
78.1936980144903
20
2.55845240522814
30
0
41
1
10
78.2544189141235
20
2.54998776540199
30
0
41
1
10
78.2863148996681
20
2.55068826329583
30
0
41
1
10
78.3198052202566
20
2.55653661736292
30
0
41
1
10
78.3233330245592
20
2.55721968152832
30
0
41
1
10
78.3268366342735
20
2.55796471324021
30
0
0
SPLINE
5
F7
100
AcDbEntity
8
1
62
256
6
ByLayer
370
18
48
1
60
0
100
AcDbSpline
70
4
71
3
72
18
73
14
40
0
40
0
40
0
40
0
40
0.212491310234899
40
0.212491310234899
40
0.386617575418298
40
0.386617575418298
40
0.56242534050663
40
0.56242534050663
40
0.715387118727961
40
0.715387118727961
40
0.918247542724749
40
0.918247542724749
40
1
40
1
40
1
40
1
41
1
10
80.5698447178262
20
2.55796471324084
30
0
41
1
10
80.5012895893492
20
2.57254274815159
30
0
41
1
10
80.4275257015619
20
2.57719434778798
30
0
41
1
10
80.2913628294232
20
2.56426654902563
30
0
41
1
10
80.2277894361314
20
2.5502633980384
30
0
41
1
10
80.1052462155815
20
2.50564194259147
30
0
41
1
10
80.0445731403723
20
2.47405567073036
30
0
41
1
10
79.944636422454
20
2.40355194711881
30
0
41
1
10
79.9023724537955
20
2.36533500799641
30
0
41
1
10
79.8197373817419
20
2.27116087990501
30
0
41
1
10
79.7828587741089
20
2.21197297365322
30
0
41
1
10
79.7462913468512
20
2.12717043334345
30
0
41
1
10
79.7373961677863
20
2.10225519863553
30
0
41
1
10
79.7301780881808
20
2.07718846232584
30
0
0
SPLINE
5
F8
100
AcDbEntity
8
1
62
256
6
ByLayer
370
18
48
1
60
0
100
AcDbSpline
70
4
71
3
72
18
73
14
40
0
40
0
40
0
40
0
40
0.212077939306945
40
0.212077939306945
40
0.386277180669187
40
0.386277180669187
40
0.562162788938332
40
0.562162788938332
40
0.715139313179873
40
0.715139313179873
40
0.91792654813445
40
0.91792654813445
40
1
40
1
40
1
40
1
41
1
10
79.1665032639199
20
2.07718846232558
30
0
41
1
10
79.1479781542017
20
2.14152192299556
30
0
41
1
10
79.1180773386408
20
2.20545048843448
30
0
41
1
10
79.0430123581183
20
2.31348674509707
30
0
41
1
10
79.0005457848334
20
2.36024667719545
30
0
41
1
10
78.9020936357961
20
2.44224776729035
30
0
41
1
10
78.8443969679933
20
2.47847633886914
30
0
41
1
10
78.7319165886055
20
2.52965149043308
30
0
41
1
10
78.6764267731322
20
2.5474293702556
30
0
41
1
10
78.5497742766904
20
2.57314476770099
30
0
41
1
10
78.4772368383185
20
2.5766467827581
30
0
41
1
10
78.3810497963898
20
2.56783558306714
30
0
41
1
10
78.3536012932684
20
2.563656134756
30
0
41
1
10
78.3268366342744
20
2.55796471324084
30
0
0
SPLINE
5
F9
100
AcDbEntity
8
1
62
256
6
ByLayer
370
18
48
1
60
0
100
AcDbSpline
70
4
71
3
72
12
73
8
40
0
40
0
40
0
40
0
40
0.322038032642859
40
0.322038032642859
40
0.791348107792755
40
0.791348107792755
40
1
40
1
40
1
40
1
41
1
10
80.6519670269462
20
3.4315463081916
30
0
41
1
10
80.6582833240083
20
3.38069908775478
30
0
41
1
10
80.6706001700264
20
3.33127972799147
30
0
41
1
10
80.7124620082596
20
3.2195528834954
30
0
41
1
10
80.7478576959577
20
3.15970661420238
30
0
41
1
10
80.8087596357366
20
3.08595063125702
30
0
41
1
10
80.8291206864818
20
3.064656564682
30
0
41
1
10
80.8506774637004
20
3.04504586148937
30
0
0
SPLINE
5
FA
100
AcDbEntity
8
1
62
256
6
ByLayer
370
18
48
1
60
0
100
AcDbSpline
70
4
71
3
72
14
73
10
40
0
40
0
40
0
40
0
40
0.283961749036659
40
0.283961749036659
40
0.57028518925903
40
0.57028518925903
40
0.829451094335645
40
0.829451094335645
40
1
40
1
40
1
40
1
41
1
10
78.3268366342745
20
4.50336160358452
30
0
41
1
10
78.2944525630218
20
4.51374115832365
30
0
41
1
10
78.2595151340914
20
4.51862033376648
30
0
41
1
10
78.1898364614363
20
4.51522028608858
30
0
41
1
10
78.1540258532084
20
4.50671577265595
30
0
41
1
10
78.09143220618
20
4.47761709971263
30
0
41
1
10
78.063196942517
20
4.45775146679443
30
0
41
1
10
78.0240645436186
20
4.41742662631552
30
0
41
1
10
78.0102136146969
20
4.39919812825593
30
0
41
1
10
77.9987939132134
20
4.37964490628946
30
0
0
SPLINE
5
FB
100
AcDbEntity
8
1
62
256
6
ByLayer
370
18
48
1
60
0
100
AcDbSpline
70
4
71
3
72
14
73
10
40
0
40
0
40
0
40
0
40
0.237981740585277
40
0.237981740585277
40
0.528230829222741
40
0.528230829222741
40
0.790463039192815
40
0.790463039192815
40
1
40
1
40
1
40
1
41
1
10
78.0460038884
20
3.04504586148963
30
0
41
1
10
78.0258424195089
20
3.02670450283739
30
0
41
1
10
78.0081479681025
20
3.0048551498846
30
0
41
1
10
77.9773493799872
20
2.95088080673179
30
0
41
1
10
77.965681287247
20
2.9166060608429
30
0
41
1
10
77.9573263456929
20
2.84856631451683
30
0
41
1
10
77.9592407412351
20
2.81402258222445
30
0
41
1
10
77.9739512681568
20
2.75421531028846
30
0
41
1
10
77.9846442635388
20
2.72779841561115
30
0
41
1
10
77.9987939132134
20
2.70357087855746
30
0
0
SPLINE
5
FC
100
AcDbEntity
8
1
62
256
6
ByLayer
370
18
48
1
60
0
100
AcDbSpline
70
4
71
3
72
16
73
12
40
0
40
0
40
0
40
0
40
0.0624381308004513
40
0.0624381308004513
40
0.283176804509784
40
0.283176804509784
40
0.50668987774677
40
0.50668987774677
40
0.744525276458001
40
0.744525276458001
40
1
40
1
40
1
40
1
41
1
10
80.8978874388872
20
2.70357087855749
30
0
41
1
10
80.9021246448244
20
2.71082597435205
30
0
41
1
10
80.9060499279959
20
2.71825497671702
30
0
41
1
10
80.9222347625863
20
2.75232576478928
30
0
41
1
10
80.9307562646789
20
2.78084806273293
30
0
41
1
10
80.9387206776318
20
2.83758517057097
30
0
41
1
10
80.9381729972293
20
2.86651118073573
30
0
41
1
10
80.9285221027684
20
2.92266154858982
30
0
41
1
10
80.9187836086541
20
2.95036715904874
30
0
41
1
10
80.8911020456847
20
3.00163354531941
30
0
41
1
10
80.8723032164287
20
3.02537240966618
30
0
41
1
10
80.8506774637004
20
3.04504586148937
30
0
0
SPLINE
5
FD
100
AcDbEntity
8
1
62
256
6
ByLayer
370
18
48
1
60
0
100
AcDbSpline
70
4
71
3
72
14
73
10
40
0
40
0
40
0
40
0
40
0.282570466285426
40
0.282570466285426
40
0.569068632819989
40
0.569068632819989
40
0.828374842927815
40
0.828374842927815
40
1
40
1
40
1
40
1
41
1
10
79.7301780881807
20
4.98413785449978
30
0
41
1
10
79.7214529342805
20
5.01791443170239
30
0
41
1
10
79.7067983335103
20
5.05108582103358
30
0
41
1
10
79.6664985327516
20
5.11070529193577
30
0
41
1
10
79.6400258225522
20
5.13794105392105
30
0
41
1
10
79.5816877875656
20
5.17822294604426
30
0
41
1
10
79.5496582200275
20
5.19292707918888
30
0
41
1
10
79.4942717895706
20
5.20676861329804
30
0
41
1
10
79.4712132021841
20
5.20962627455825
30
0
41
1
10
79.4483406760503
20
5.20962627455825
30
0
0
SPLINE
5
FE
100
AcDbEntity
8
1
62
256
6
ByLayer
370
18
48
1
60
0
100
AcDbSpline
70
4
71
3
72
12
73
8
40
0
40
0
40
0
40
0
40
0.495447747571155
40
0.495447747571155
40
0.900382671304345
40
0.900382671304345
40
1
40
1
40
1
40
1
41
1
10
80.8506774637004
20
4.01593101399567
30
0
41
1
10
80.7999486890069
20
3.96231272129123
30
0
41
1
10
80.7554640275034
20
3.89923620608198
30
0
41
1
10
80.6934505770794
20
3.77266789580767
30
0
41
1
10
80.6719256913105
20
3.70987634342285
30
0
41
1
10
80.6564648807155
20
3.62944966034303
30
0
41
1
10
80.6539326037736
20
3.61332709661426
30
0
41
1
10
80.6519670269462
20
3.59714772340669
30
0
0
SPLINE
5
FF
100
AcDbEntity
8
1
62
256
6
ByLayer
370
18
48
1
60
0
100
AcDbSpline
70
4
71
3
72
14
73
10
40
0
40
0
40
0
40
0
40
0.283961749036657
40
0.283961749036657
40
0.570285189259192
40
0.570285189259192
40
0.829451094335684
40
0.829451094335684
40
1
40
1
40
1
40
1
41
1
10
80.5698447178262
20
2.55796471324084
30
0
41
1
10
80.6022287890788
20
2.55107834118141
30
0
41
1
10
80.6371662180093
20
2.54952516136586
30
0
41
1
10
80.7068448906643
20
2.55875587683178
30
0
41
1
10
80.7426554988923
20
2.56984642098857
30
0
41
1
10
80.8052491459206
20
2.60272147392052
30
0
41
1
10
80.8334844095835
20
2.62394061675198
30
0
41
1
10
80.872616808482
20
2.66553043133226
30
0
41
1
10
80.8864677374037
20
2.68401765659104
30
0
41
1
10
80.8978874388872
20
2.70357087855749
30
0
0
SPLINE
5
100
100
AcDbEntity
8
1
62
256
6
ByLayer
370
18
48
1
60
0
100
AcDbSpline
70
4
71
3
72
16
73
12
40
0
40
0
40
0
40
0
40
0.062438130800155
40
0.062438130800155
40
0.283176804509514
40
0.283176804509514
40
0.506689877746518
40
0.506689877746518
40
0.744525276457743
40
0.744525276457743
40
1
40
1
40
1
40
1
41
1
10
77.9987939132134
20
4.37964490628946
30
0
41
1
10
77.9945567072762
20
4.37238981049495
30
0
41
1
10
77.9906314241047
20
4.36492571926496
30
0
41
1
10
77.9744465895143
20
4.33053953417806
30
0
41
1
10
77.9659250874217
20
4.30132693264454
30
0
41
1
10
77.9579606744688
20
4.24242907762098
30
0
41
1
10
77.9585083548712
20
4.21199668000736
30
0
41
1
10
77.9681592493322
20
4.15211537955057
30
0
41
1
10
77.9778977434465
20
4.12210007457694
30
0
41
1
10
78.0055793064158
20
4.06557428569135
30
0
41
1
10
78.0243781356719
20
4.03878857258539
30
0
41
1
10
78.0460038884003
20
4.01593101399567
30
0
0
SPLINE
5
101
100
AcDbEntity
8
1
62
256
6
ByLayer
370
18
48
1
60
0
100
AcDbSpline
70
4
71
3
72
16
73
12
40
0
40
0
40
0
40
0
40
0.0762647947696296
40
0.0762647947696296
40
0.388591267886791
40
0.388591267886791
40
0.668410626283226
40
0.668410626283226
40
0.914934097560811
40
0.914934097560811
40
1
40
1
40
1
40
1
41
1
10
80.8506774637017
20
4.01593101399385
30
0
41
1
10
80.8571778499394
20
4.0228016631292
30
0
41
1
10
80.8634107999042
20
4.03000324134209
30
0
41
1
10
80.8933314223763
20
4.06790193774575
30
0
41
1
10
80.912602251092
20
4.10407771641854
30
0
41
1
10
80.9346795245722
20
4.17745556341879
30
0
41
1
10
80.9392593175539
20
4.21533555382379
30
0
41
1
10
80.9344523699727
20
4.28528687122659
30
0
41
1
10
80.9265428982176
20
4.31853841862736
30
0
41
1
10
80.9088730242576
20
4.35944795582577
30
0
41
1
10
80.9036697430226
20
4.36974423801013
30
0
41
1
10
80.8978874388872
20
4.3796449062894
30
0
0
SPLINE
5
102
100
AcDbEntity
8
1
62
256
6
ByLayer
370
18
48
1
60
0
100
AcDbSpline
70
4
71
3
72
16
73
12
40
0
40
0
40
0
40
0
40
0.0620393275784445
40
0.0620393275784445
40
0.28491889396175
40
0.28491889396175
40
0.510542617547214
40
0.510542617547214
40
0.750580338323854
40
0.750580338323854
40
1
40
1
40
1
40
1
41
1
10
79.4483406760503
20
1.8735895102887
30
0
41
1
10
79.4566414371654
20
1.8735895102887
30
0
41
1
10
79.4649514110254
20
1.87392560641104
30
0
41
1
10
79.5027035097643
20
1.87698229800063
30
0
41
1
10
79.5320856562388
20
1.88377329581144
30
0
41
1
10
79.5863641611979
20
1.90482313727776
30
0
41
1
10
79.6119007403469
20
1.91941969294837
30
0
41
1
10
79.6575141499189
20
1.95494313298113
30
0
41
1
10
79.677729505384
20
1.97663588995914
30
0
41
1
10
79.7101828547966
20
2.02405516062765
30
0
41
1
10
79.7224725458282
20
2.05042887960724
30
0
41
1
10
79.7301780881808
20
2.07718846232586
30
0
0
SPLINE
5
103
100
AcDbEntity
8
1
62
256
6
ByLayer
370
18
48
1
60
0
100
AcDbSpline
70
4
71
3
72
12
73
8
40
0
40
0
40
0
40
0
40
0.495447747571014
40
0.495447747571014
40
0.900382671304059
40
0.900382671304059
40
1
40
1
40
1
40
1
41
1
10
78.0460038884003
20
3.04504586148937
30
0
41
1
10
78.0967326630937
20
3.09119501141814
30
0
41
1
10
78.1412173245972
20
3.14720216050603
30
0
41
1
10
78.2032307750213
20
3.2634247603043
30
0
41
1
10
78.22475566079
20
3.32240583684035
30
0
41
1
10
78.2402164713851
20
3.4000580937248
30
0
41
1
10
78.242748748327
20
3.41572309448816
30
0
41
1
10
78.2447143251544
20
3.43154630819171
30
0
0
SPLINE
5
104
100
AcDbEntity
8
1
62
256
6
ByLayer
370
18
48
1
60
0
100
AcDbSpline
70
4
71
3
72
16
73
12
40
0
40
0
40
0
40
0
40
0.0620393275784432
40
0.0620393275784432
40
0.284918893961589
40
0.284918893961589
40
0.510542617547203
40
0.510542617547203
40
0.750580338323831
40
0.750580338323831
40
1
40
1
40
1
40
1
41
1
10
79.4483406760503
20
5.20962627455825
30
0
41
1
10
79.4400399149351
20
5.20962627455825
30
0
41
1
10
79.4317299410752
20
5.20925618950253
30
0
41
1
10
79.3939778423363
20
5.20589012468776
30
0
41
1
10
79.3645956958619
20
5.19841256267048
30
0
41
1
10
79.3103171909028
20
5.17520896964791
30
0
41
1
10
79.2847806117538
20
5.15910955559147
30
0
41
1
10
79.2391672021817
20
5.11986212366716
30
0
41
1
10
79.2189518467166
20
5.09586324971969
30
0
41
1
10
79.186498497304
20
5.04327742993536
30
0
41
1
10
79.1742088062724
20
5.01396733935857
30
0
41
1
10
79.1665032639199
20
4.98413785449946
30
0
0
SPLINE
5
105
100
AcDbEntity
8
SK1
62
256
6
ByLayer
370
18
48
1
60
0
100
AcDbSpline
70
4
71
3
72
8
73
4
40
0
40
0
40
0
40
0
40
1
40
1
40
1
40
1
41
1
10
-170.802499986183
20
8.50874999999999
30
0
41
1
10
-170.802576023441
20
8.50874999999999
30
0
41
1
10
-170.174914121571
20
8.50874999999999
30
0
41
1
10
-169.32
20
8.50874999999999
30
0
0
SPLINE
5
106
100
AcDbEntity
8
SK1
62
256
6
ByLayer
370
18
48
1
60
0
100
AcDbSpline
70
4
71
3
72
10
73
6
40
0
40
0
40
0
40
0
40
0.5
40
0.5
40
1
40
1
40
1
40
1
41
1
10
-169.32
20
4.33878745302189
30
0
41
1
10
-169.919233025873
20
2.95888879825199
30
0
41
1
10
-170.310991214146
20
1.50358877622818
30
0
41
1
10
-170.311508518976
20
-1.50048916054567
30
0
41
1
10
-169.920392105394
20
-2.95621969924952
30
0
41
1
10
-169.32
20
-4.33878745302192
30
0
0
LINE
5
74
100
AcDbEntity
8
80
62
256
6
ByLayer
370
18
48
1
60
0
100
AcDbLine
10
0
20
0
30
0
11
-10
21
0
31
0
39
0
210
0
220
0
230
1
0
LINE
5
75
100
AcDbEntity
8
81
62
256
6
ByLayer
370
18
48
1
60
0
100
AcDbLine
10
79.93
20
12.9
30
0
11
89.93
21
12.9
31
0
39
0
210
0
220
0
230
1
0
LINE
5
76
100
AcDbEntity
8
SK4
62
256
6
ByLayer
370
18
48
0.05
60
0
100
AcDbLine
10
-176.32
20
0
30
0
11
90.476181
21
0
31
0
39
0
210
0
220
0
230
1
0
LINE
5
78
100
AcDbEntity
8
4
62
256
6
ByLayer
370
18
48
0.05
60
0
100
AcDbLine
10
0
20
0
30
0
11
90.476181
21
0
31
0
39
0
210
0
220
0
230
1
0
LINE
5
7A
100
AcDbEntity
8
SK1
62
256
6
ByLayer
370
18
48
1
60
0
100
AcDbLine
10
-169.32
20
-9.99125
30
0
11
0
21
-9.99125
31
0
39
0
210
0
220
0
230
1
0
LINE
5
7C
100
AcDbEntity
8
SK1
62
256
6
ByLayer
370
18
48
1
60
0
100
AcDbLine
10
-170.8025
20
8.50875
30
0
11
-171.32
21
7.99125
31
0
39
0
210
0
220
0
230
1
0
LINE
5
7D
100
AcDbEntity
8
1
62
256
6
ByLayer
370
18
48
1
60
0
100
AcDbLine
10
73.733307
20
-9.91625
30
0
11
76.590368
21
-9.91625
31
0
39
0
210
0
220
0
230
1
0
LINE
5
7E
100
AcDbEntity
8
1
62
256
6
ByLayer
370
18
48
1
60
0
100
AcDbLine
10
73.658307
20
-9.99125
30
0
11
73.733307
21
-9.91625
31
0
39
0
210
0
220
0
230
1
0
LINE
5
7F
100
AcDbEntity
8
1
62
256
6
ByLayer
370
18
48
1
60
0
100
AcDbLine
10
76.590368
20
-9.91625
30
0
11
76.74797
21
-10.090232
31
0
39
0
210
0
220
0
230
1
0
LINE
5
80
100
AcDbEntity
8
1
62
256
6
ByLayer
370
18
48
1
60
0
100
AcDbLine
10
81.378
20
-10.090221
30
0
11
85.476181
21
-2.808613
31
0
39
0
210
0
220
0
230
1
0
LINE
5
81
100
AcDbEntity
8
SK1
62
256
6
ByLayer
370
18
48
1
60
0
100
AcDbLine
10
-171.32
20
-7.99125
30
0
11
-169.32
21
-9.99125
31
0
39
0
210
0
220
0
230
1
0
LINE
5
82
100
AcDbEntity
8
1
62
256
6
ByLayer
370
18
48
1
60
0
100
AcDbLine
10
0
20
-9.99125
30
0
11
73.658307
21
-9.99125
31
0
39
0
210
0
220
0
230
1
0
LINE
5
83
100
AcDbEntity
8
1
62
256
6
ByLayer
370
18
48
1
60
0
100
AcDbLine
10
82.073341
20
3.400961
30
0
11
82.073341
21
3.513937
31
0
39
0
210
0
220
0
230
1
0
LINE
5
84
100
AcDbEntity
8
1
62
256
6
ByLayer
370
18
48
1
60
0
100
AcDbLine
10
76.823341
20
3.513937
30
0
11
76.823341
21
3.400961
31
0
39
0
210
0
220
0
230
1
0
LINE
5
85
100
AcDbEntity
8
1
62
256
6
ByLayer
370
18
48
1
60
0
100
AcDbLine
10
0
20
-9.99125
30
0
11
0
21
-4.338787
31
0
39
0
210
0
220
0
230
1
0
LINE
5
86
100
AcDbEntity
8
1
62
256
6
ByLayer
370
18
48
1
60
0
100
AcDbLine
10
78.063101
20
-5.20006
30
0
11
78.063101
21
-5.421076
31
0
39
0
210
0
220
0
230
1
0
LINE
5
87
100
AcDbEntity
8
1
62
256
6
ByLayer
370
18
48
1
60
0
100
AcDbLine
10
81.377984
20
-10.09025
30
0
11
76.747986
21
-10.09025
31
0
39
0
210
0
220
0
230
1
0
LINE
5
88
100
AcDbEntity
8
1
62
256
6
ByLayer
370
18
48
1
60
0
100
AcDbLine
10
55.273711
20
8.50875
30
0
11
65.146792
21
8.50875
31
0
39
0
210
0
220
0
230
1
0
LINE
5
89
100
AcDbEntity
8
1
62
256
6
ByLayer
370
18
48
1
60
0
100
AcDbLine
10
81.377869
20
-9.913485
30
0
11
77.368547
21
-9.913485
31
0
39
0
210
0
220
0
230
1
0
LINE
5
8A
100
AcDbEntity
8
1
62
256
6
ByLayer
370
18
48
1
60
0
100
AcDbLine
10
73.658307
20
-9.99125
30
0
11
73.658307
21
-9.771584
31
0
39
0
210
0
220
0
230
1
0
LINE
5
8B
100
AcDbEntity
8
1
62
256
6
ByLayer
370
18
48
1
60
0
100
AcDbLine
10
0
20
8.50875
30
0
11
0
21
4.338787
31
0
39
0
210
0
220
0
230
1
0
LINE
5
8C
100
AcDbEntity
8
1
62
256
6
ByLayer
370
18
48
1
60
0
100
AcDbLine
10
85.476181
20
-2.808613
30
0
11
85.476181
21
-2.566975
31
0
39
0
210
0
220
0
230
1
0
LINE
5
8D
100
AcDbEntity
8
1
62
256
6
ByLayer
370
18
48
1
60
0
100
AcDbLine
10
77.604492
20
-3.189257
30
0
11
77.604492
21
-3.179086
31
0
39
0
210
0
220
0
230
1
0
LINE
5
8E
100
AcDbEntity
8
1
62
256
6
ByLayer
370
18
48
1
60
0
100
AcDbLine
10
76.590368
20
-9.91625
30
0
11
76.590368
21
-9.73789
31
0
39
0
210
0
220
0
230
1
0
LINE
5
8F
100
AcDbEntity
8
1
62
256
6
ByLayer
370
18
48
1
60
0
100
AcDbLine
10
73.733307
20
-9.91625
30
0
11
73.733307
21
-9.698823
31
0
39
0
210
0
220
0
230
1
0
LINE
5
90
100
AcDbEntity
8
1
62
256
6
ByLayer
370
18
48
1
60
0
100
AcDbLine
10
0
20
8.50875
30
0
11
55.273711
21
8.50875
31
0
39
0
210
0
220
0
230
1
0
LINE
5
91
100
AcDbEntity
8
1
62
256
6
ByLayer
370
18
48
1
60
0
100
AcDbLine
10
0
20
-4.338787
30
0
11
55.595754
21
-4.338787
31
0
39
0
210
0
220
0
230
1
0
LINE
5
92
100
AcDbEntity
8
1
62
256
6
ByLayer
370
18
48
1
60
0
100
AcDbLine
10
77.604492
20
-3.189257
30
0
11
77.529123
21
-3.333307
31
0
39
0
210
0
220
0
230
1
0
LINE
5
93
100
AcDbEntity
8
1
62
256
6
ByLayer
370
18
48
1
60
0
100
AcDbLine
10
77.396207
20
-2.907814
30
0
11
77.429382
21
-2.844408
31
0
39
0
210
0
220
0
230
1
0
LINE
5
94
100
AcDbEntity
8
1
62
256
6
ByLayer
370
18
48
1
60
0
100
AcDbLine
10
85.476181
20
2.696545
30
0
11
85.476181
21
-2.566975
31
0
39
0
210
0
220
0
230
1
0
LINE
5
95
100
AcDbEntity
8
1
62
256
6
ByLayer
370
18
48
1
60
0
100
AcDbLine
10
77.549333
20
-3.073664
30
0
11
77.529123
21
-3.11229
31
0
39
0
210
0
220
0
230
1
0
LINE
5
96
100
AcDbEntity
8
1
62
256
6
ByLayer
370
18
48
1
60
0
100
AcDbLine
10
52.330761
20
4.338787
30
0
11
0
21
4.338787
31
0
39
0
210
0
220
0
230
1
0
LINE
5
97
100
AcDbEntity
8
1
62
256
6
ByLayer
370
18
48
1
60
0
100
AcDbLine
10
73.899948
20
2.966014
30
0
11
77.368547
21
-9.913485
31
0
39
0
210
0
220
0
230
1
0
LINE
5
98
100
AcDbEntity
8
1
62
256
6
ByLayer
370
18
48
1
60
0
100
AcDbLine
10
77.396207
20
-2.907814
30
0
11
77.529123
21
-3.11229
31
0
39
0
210
0
220
0
230
1
0
LINE
5
99
100
AcDbEntity
8
1
62
256
6
ByLayer
370
18
48
1
60
0
100
AcDbLine
10
77.529123
20
-3.333307
30
0
11
77.529123
21
-3.11229
31
0
39
0
210
0
220
0
230
1
0
LINE
5
9A
100
AcDbEntity
8
1
62
256
6
ByLayer
370
18
48
1
60
0
100
AcDbLine
10
0
20
-4.338787
30
0
11
0
21
4.338787
31
0
39
0
210
0
220
0
230
1
0
LINE
5
9B
100
AcDbEntity
8
SK1
62
256
6
ByLayer
370
18
48
1
60
0
100
AcDbLine
10
0
20
-4.338787
30
0
11
0
21
4.338787
31
0
39
0
210
0
220
0
230
1
0
LINE
5
9C
100
AcDbEntity
8
1
62
256
6
ByLayer
370
18
48
1
60
0
100
AcDbLine
10
78.244714
20
3.431546
30
0
11
78.244714
21
3.315649
31
0
39
0
210
0
220
0
230
1
0
LINE
5
9D
100
AcDbEntity
8
1
62
256
6
ByLayer
370
18
48
1
60
0
100
AcDbLine
10
80.651967
20
3.597148
30
0
11
80.651967
21
3.48125
31
0
39
0
210
0
220
0
230
1
0
LINE
5
9E
100
AcDbEntity
8
1
62
256
6
ByLayer
370
18
48
1
60
0
100
AcDbLine
10
80.651967
20
3.315649
30
0
11
80.651967
21
3.431546
31
0
39
0
210
0
220
0
230
1
0
LINE
5
9F
100
AcDbEntity
8
1
62
256
6
ByLayer
370
18
48
1
60
0
100
AcDbLine
10
80.850677
20
2.913007
30
0
11
80.850677
21
3.045046
31
0
39
0
210
0
220
0
230
1
0
LINE
5
A0
100
AcDbEntity
8
1
62
256
6
ByLayer
370
18
48
1
60
0
100
AcDbLine
10
80.569845
20
4.371148
30
0
11
80.569845
21
4.503362
31
0
39
0
210
0
220
0
230
1
0
LINE
5
A1
100
AcDbEntity
8
1
62
256
6
ByLayer
370
18
48
1
60
0
100
AcDbLine
10
79.730178
20
4.851924
30
0
11
79.730178
21
4.984138
31
0
39
0
210
0
220
0
230
1
0
LINE
5
A2
100
AcDbEntity
8
1
62
256
6
ByLayer
370
18
48
1
60
0
100
AcDbLine
10
79.166503
20
4.851924
30
0
11
79.166503
21
4.984138
31
0
39
0
210
0
220
0
230
1
0
LINE
5
A3
100
AcDbEntity
8
1
62
256
6
ByLayer
370
18
48
1
60
0
100
AcDbLine
10
78.326837
20
4.371148
30
0
11
78.326837
21
4.503362
31
0
39
0
210
0
220
0
230
1
0
LINE
5
A4
100
AcDbEntity
8
1
62
256
6
ByLayer
370
18
48
1
60
0
100
AcDbLine
10
78.046004
20
2.913007
30
0
11
78.046004
21
3.045046
31
0
39
0
210
0
220
0
230
1
0
LINE
5
A5
100
AcDbEntity
8
1
62
256
6
ByLayer
370
18
48
1
60
0
100
AcDbLine
10
74.270039
20
3.193931
30
0
11
78.744054
21
-5.357092
31
0
39
0
210
0
220
0
230
1
0
LINE
5
A6
100
AcDbEntity
8
1
62
256
6
ByLayer
370
18
48
1
60
0
100
AcDbLine
10
78.744054
20
12.474501
30
0
11
74.270039
21
3.923478
31
0
39
0
210
0
220
0
230
1
0
LINE
5
A7
100
AcDbEntity
8
1
62
256
6
ByLayer
370
18
48
1
60
0
100
AcDbLine
10
84.626643
20
3.923478
30
0
11
80.152627
21
12.474501
31
0
39
0
210
0
220
0
230
1
0
LINE
5
A8
100
AcDbEntity
8
1
62
256
6
ByLayer
370
18
48
1
60
0
100
AcDbLine
10
80.152627
20
-5.357092
30
0
11
84.626643
21
3.193931
31
0
39
0
210
0
220
0
230
1
0
LINE
5
A9
100
AcDbEntity
8
SK1
62
256
6
ByLayer
370
18
48
1
60
0
100
AcDbLine
10
-169.32
20
-4.338787
30
0
11
0
21
-4.338787
31
0
39
0
210
0
220
0
230
1
0
LINE
5
AA
100
AcDbEntity
8
SK1
62
256
6
ByLayer
370
18
48
1
60
0
100
AcDbLine
10
-169.32
20
8.50875
30
0
11
0
21
8.50875
31
0
39
0
210
0
220
0
230
1
0
LINE
5
AB
100
AcDbEntity
8
SK1
62
256
6
ByLayer
370
18
48
1
60
0
100
AcDbLine
10
0
20
8.50875
30
0
11
0
21
4.338787
31
0
39
0
210
0
220
0
230
1
0
LINE
5
AC
100
AcDbEntity
8
SK1
62
256
6
ByLayer
370
18
48
1
60
0
100
AcDbLine
10
0
20
-9.99125
30
0
11
0
21
-4.338787
31
0
39
0
210
0
220
0
230
1
0
LINE
5
AD
100
AcDbEntity
8
SK1
62
256
6
ByLayer
370
18
48
1
60
0
100
AcDbLine
10
0
20
4.338787
30
0
11
-169.32
21
4.338787
31
0
39
0
210
0
220
0
230
1
0
LINE
5
AE
100
AcDbEntity
8
SK1
62
256
6
ByLayer
370
18
48
1
60
0
100
AcDbLine
10
-169.32
20
4.338787
30
0
11
-169.32
21
8.50875
31
0
39
0
210
0
220
0
230
1
0
LINE
5
AF
100
AcDbEntity
8
SK1
62
256
6
ByLayer
370
18
48
1
60
0
100
AcDbLine
10
-169.32
20
-9.99125
30
0
11
-169.32
21
-4.338787
31
0
39
0
210
0
220
0
230
1
0
LINE
5
B0
100
AcDbEntity
8
SK1
62
256
6
ByLayer
370
18
48
1
60
0
100
AcDbLine
10
-171.32
20
-7.99125
30
0
11
-171.32
21
7.99125
31
0
39
0
210
0
220
0
230
1
0
LINE
5
B1
100
AcDbEntity
8
2
62
256
6
ByLayer
370
18
48
1
60
1
100
AcDbLine
10
79.93
20
0
30
0
11
79.931
21
0.001
31
0
39
0
210
0
220
0
230
1
0
MTEXT
5
107
100
AcDbEntity
8
SK6
62
256
6
ByLayer
370
18
48
1
60
0
100
AcDbMText
10
-42.046909
20
-22.743649
30
0
210
0
220
0
230
1
1
\W0.7969;A20S-SDXCR11
40
3.5
41
0
44
1.084337
50
0
71
7
72
5
7
iso_b_vert
0
DIMENSION
5
118
100
AcDbEntity
8
2
62
256
6
ByLayer
370
13
48
1
60
0
100
AcDbDimension
2
DimnDraft3D1
10
92.18
20
0
30
0
11
92.18
21
23.155
31
0
70
32
71
5
72
1
41
1
210
0
220
0
230
1
3
Standard
100
AcDbAlignedDimension
13
81.93
23
12.9
33
0
14
81.93
24
0
34
0
50
90
100
AcDbRotatedDimension
1001
ACAD
1000
DSTYLE
1002
{
1070
    74
1070
     0
1070
   279
1070
     0
1070
   172
1070
     1
1070
   173
1070
     1
1070
   340
1005
108
1070
    77
1070
     1
1070
    73
1070
     0
1070
   171
1070
     4
1070
   274
1070
     4
1070
   177
1070
     2
1070
   176
1070
     2
1070
   178
1070
     7
1070
    78
1070
     8
1070
    41
1041
3.175
1070
   147
1041
2.25
1070
    42
1041
2.0
1070
    44
1041
2.0
1070
   140
1041
4.5
1070
   343
1005
119
1070
   344
1005
119
1002
}
0
DIMENSION
5
12E
100
AcDbEntity
8
SK2
62
256
6
ByLayer
370
13
48
1
60
0
100
AcDbDimension
2
DimnDraft3D2
10
-181.07
20
9.99125
30
0
11
-181.07
21
-4.872471
31
0
70
32
71
5
72
1
41
1
210
0
220
0
230
1
3
Standard
100
AcDbAlignedDimension
13
-173.32
23
-9.99125
33
0
14
-173.32
24
9.99125
34
0
50
90
100
AcDbRotatedDimension
1001
ACAD
1000
DSTYLE
1002
{
1070
    74
1070
     0
1070
   279
1070
     0
1070
   172
1070
     1
1070
   173
1070
     1
1070
   340
1005
108
1070
    77
1070
     1
1070
    73
1070
     0
1070
   171
1070
     4
1070
   274
1070
     4
1070
   177
1070
     2
1070
   176
1070
     2
1070
   178
1070
     7
1070
    78
1070
     8
1070
    41
1041
3.175
1070
   147
1041
2.25
1070
    42
1041
2.0
1070
    44
1041
2.0
1070
   140
1041
4.5
1070
   343
1005
119
1070
   344
1005
119
1002
}
0
DIMENSION
5
13C
100
AcDbEntity
8
SK2
62
256
6
ByLayer
370
13
48
1
60
0
100
AcDbDimension
2
DimnDraft3D3
10
-171.32
20
25.65
30
0
11
-52.657056
21
25.65
31
0
70
32
71
5
72
1
41
1
210
0
220
0
230
1
3
Standard
100
AcDbAlignedDimension
13
79.93
23
14.9
33
0
14
-171.32
24
11.99125
34
0
50
0
100
AcDbRotatedDimension
1001
ACAD
1000
DSTYLE
1002
{
1070
   279
1070
     0
1070
   172
1070
     1
1070
   173
1070
     1
1070
   340
1005
108
1070
    77
1070
     1
1070
    73
1070
     0
1070
   171
1070
     4
1070
   274
1070
     4
1070
   177
1070
     2
1070
   176
1070
     2
1070
   178
1070
     7
1070
    78
1070
     8
1070
    41
1041
3.175
1070
   147
1041
2.25
1070
    42
1041
2.0
1070
    44
1041
2.0
1070
   140
1041
4.5
1070
   343
1005
119
1070
   344
1005
119
1002
}
0
DIMENSION
5
14A
100
AcDbEntity
8
2
62
256
6
ByLayer
370
13
48
1
60
0
100
AcDbDimension
2
DimnDraft3D4
10
79.931
20
0.001
30
0
11
77.293403
21
-41.808118
31
0
70
34
71
5
72
1
41
1
210
0
220
0
230
1
3
Standard
100
AcDb2LineAngularDimension
13
79.93
23
12.9
33
0
14
85.029522
24
3.153469
34
0
15
79.93
25
0
35
0
16
76.613475
26
-46.256454
36
0
40
0
0
ENDSEC
0
SECTION
2
OBJECTS
0
DICTIONARY
5
1b5
330
0
100
AcDbDictionary
280
0
281
1
3
ACAD_GROUP
350
1b6
3
ACAD_MLINESTYLE
350
1b7
0
DICTIONARY
5
1b6
330
0
100
AcDbDictionary
280
0
281
1
0
DICTIONARY
5
1b7
330
0
100
AcDbDictionary
280
0
281
1
3
Standard
350
18
0
MLINESTYLE
5
18
330
1b7
100
AcDbMlineStyle
2
Standard
70
0
3

62
256
51
90
52
90
71
2
49
-0.5
62
256
6
ByLayer
49
0.5
62
256
6
ByLayer
0
RASTERVARIABLES
5
1a3
330

100
AcDbRasterVariables
90
0
70
1
71
1
72
1
0
ENDSEC
0
EOF
