0
SECTION
2
HEADER
9
$ACADVER
1
AC1015
9
$DWGCODEPAGE
3
ANSI_1252
9
$HANDSEED
5
170
9
$ANGBASE
50
0
9
$ANGDIR
70
0
9
$ATTMODE
70
1
9
$AUNITS
70
0
9
$AUPREC
70
0
9
$CECOLOR
62
256
9
$CELTSCALE
40
1
9
$CELTYPE
6
ByLayer
9
$CELWEIGHT
370
-1
9
$CLAYER
8
0
9
$CMLJUST
70
0
9
$CMLSCALE
40
1
9
$CMLSTYLE
2
Standard
9
$DIMSTYLE
2
Standard
9
$TEXTSIZE
40
0.2
9
$TEXTSTYLE
7
Standard
9
$LUNITS
70
2
9
$LUPREC
70
4
9
$EXTNAMES
290
1
9
$INSUNITS
70
4
9
$LTSCALE
40
1
9
$LWDISPLAY
290
0
9
$PDMODE
70
0
9
$PDSIZE
40
0
9
$PLINEGEN
70
0
0
ENDSEC
0
SECTION
2
CLASSES
0
CLASS
1
RASTERVARIABLES
2
AcDbRasterVariables
3
ISM
90
0
280
0
281
0
0
ENDSEC
0
SECTION
2
TABLES
0
TABLE
2
VPORT
5
166
100
AcDbSymbolTable
0
VPORT
5
1
100
AcDbSymbolTableRecord
100
AcDbViewportTableRecord
2
*Active
70
0
10
0
20
0
11
1
21
1
12
-1
22
1
13
0
23
0
14
0.5
24
0.5
15
10
25
10
16
0
26
0
36
1
17
0
27
0
37
0
0
ENDTAB
0
TABLE
2
LTYPE
5
167
100
AcDbSymbolTable
0
LTYPE
5
14
100
AcDbSymbolTableRecord
100
AcDbLinetypeTableRecord
70
0
2
ByBlock
3

72
65
73
0
40
0
0
LTYPE
5
15
100
AcDbSymbolTableRecord
100
AcDbLinetypeTableRecord
70
0
2
ByLayer
3

72
65
73
0
40
0
0
LTYPE
5
16
100
AcDbSymbolTableRecord
100
AcDbLinetypeTableRecord
70
0
2
CONTINUOUS
3
Solid line
72
65
73
0
40
0
0
LTYPE
5
3B
100
AcDbSymbolTableRecord
100
AcDbLinetypeTableRecord
70
0
2
DASHED
3
__ __ __ __ __ __ __ __ __
72
65
73
2
40
25.72
49
12.86
74
0
49
-12.86
74
0
0
LTYPE
5
3C
100
AcDbSymbolTableRecord
100
AcDbLinetypeTableRecord
70
0
2
HIDDEN
3
_ _ _ _ _ _ _ _ _ _ _ _ _ _ _
72
65
73
2
40
0.5
49
0.25
74
0
49
-0.25
74
0
0
LTYPE
5
3D
100
AcDbSymbolTableRecord
100
AcDbLinetypeTableRecord
70
0
2
PHANTOM
3
____ _ _ ____ _ _ _____ _ _ ____
72
65
73
6
40
50.5
49
18
74
0
49
-6.5
74
0
49
6.5
74
0
49
-6.5
74
0
49
6.5
74
0
49
-6.5
74
0
0
LTYPE
5
3E
100
AcDbSymbolTableRecord
100
AcDbLinetypeTableRecord
70
0
2
CENTER
3
____ _ ____ _ ____ _ ____
72
65
73
4
40
47.5
49
22
74
0
49
-8.5
74
0
49
8.5
74
0
49
-8.5
74
0
0
LTYPE
5
3F
100
AcDbSymbolTableRecord
100
AcDbLinetypeTableRecord
70
0
2
DOT
3
.........................
72
65
73
2
40
10
49
0
74
0
49
-10
74
0
0
LTYPE
5
40
100
AcDbSymbolTableRecord
100
AcDbLinetypeTableRecord
70
0
2
DASHDOT
3
_._._._._._._._._._._._._._._._.
72
65
73
4
40
70
49
31
74
0
49
-13
74
0
49
13
74
0
49
-13
74
0
0
ENDTAB
0
TABLE
2
LAYER
5
168
100
AcDbSymbolTable
0
LAYER
5
10
100
AcDbSymbolTableRecord
100
AcDbLayerTableRecord
2
0
70
0
62
7
6
CONTINUOUS
290
1
370
-3
390
0
0
LAYER
5
42
100
AcDbSymbolTableRecord
100
AcDbLayerTableRecord
2
80
70
0
62
-6
6
CONTINUOUS
290
1
370
-3
390
0
0
LAYER
5
44
100
AcDbSymbolTableRecord
100
AcDbLayerTableRecord
2
81
70
0
62
-3
6
CONTINUOUS
290
1
370
-3
390
0
0
LAYER
5
46
100
AcDbSymbolTableRecord
100
AcDbLayerTableRecord
2
1
70
0
62
4
6
CONTINUOUS
290
1
370
-3
390
0
0
LAYER
5
48
100
AcDbSymbolTableRecord
100
AcDbLayerTableRecord
2
2
70
0
62
7
6
CONTINUOUS
290
1
370
-3
390
0
0
LAYER
5
5C
100
AcDbSymbolTableRecord
100
AcDbLayerTableRecord
2
4
70
0
62
-2
6
CENTER
290
1
370
-3
390
0
0
LAYER
5
152
100
AcDbSymbolTableRecord
100
AcDbLayerTableRecord
2
SK1
70
0
62
4
6
CONTINUOUS
290
1
370
-3
390
0
0
LAYER
5
153
100
AcDbSymbolTableRecord
100
AcDbLayerTableRecord
2
SK4
70
0
62
2
6
CENTER
290
1
370
-3
390
0
0
LAYER
5
154
100
AcDbSymbolTableRecord
100
AcDbLayerTableRecord
2
SK6
70
0
62
5
6
CONTINUOUS
290
1
370
-3
390
0
0
LAYER
5
155
100
AcDbSymbolTableRecord
100
AcDbLayerTableRecord
2
SK2
70
0
62
7
6
CONTINUOUS
290
1
370
-3
390
0
0
ENDTAB
0
TABLE
2
STYLE
5
169
100
AcDbSymbolTable
0
STYLE
5
11
100
AcDbSymbolTableRecord
100
AcDbTextStyleTableRecord
2
Standard
3
txt
70
0
71
0
40
0
41
1
42
0
50
0
0
STYLE
5
CE
100
AcDbSymbolTableRecord
100
AcDbTextStyleTableRecord
2
DEFAULT
3
simplex.shx
70
0
71
0
40
0
41
1
42
0
50
0
0
STYLE
5
F1
100
AcDbSymbolTableRecord
100
AcDbTextStyleTableRecord
2
DWGDirectTextStyle
3
SIMPLEX
70
0
71
0
40
0
41
1
42
0
50
0
0
ENDTAB
0
TABLE
2
DIMSTYLE
5
16a
100
AcDbSymbolTable
100
AcDbDimStyleTable
0
DIMSTYLE
105
27
100
AcDbSymbolTableRecord
100
AcDbDimStyleTableRecord
2
Standard
70
0
3
<>
41
0.18
42
0.0625
44
0.18
140
0.18
147
0.09
73
0
74
0
77
1
271
2
275
0
278
52
280
0
340
11
0
ENDTAB
0
TABLE
2
VIEW
5
16b
100
AcDbSymbolTable
0
ENDTAB
0
TABLE
2
UCS
5
16c
100
AcDbSymbolTable
0
ENDTAB
0
TABLE
2
APPID
5
16d
100
AcDbSymbolTable
0
APPID
5
12
100
AcDbSymbolTableRecord
100
AcDbRegAppTableRecord
2
ACAD
70
0
0
ENDTAB
0
TABLE
2
BLOCK_RECORD
5
16e
100
AcDbSymbolTable
0
BLOCK_RECORD
5
1F
100
AcDbSymbolTableRecord
100
AcDbBlockTableRecord
2
*Model_Space
340
0
70
0
0
BLOCK_RECORD
5
1B
100
AcDbSymbolTableRecord
100
AcDbBlockTableRecord
2
*Paper_Space
340
0
70
0
0
BLOCK_RECORD
5
23
100
AcDbSymbolTableRecord
100
AcDbBlockTableRecord
2
*Paper_Space0
340
0
70
0
0
BLOCK_RECORD
5
F3
100
AcDbSymbolTableRecord
100
AcDbBlockTableRecord
2
DimnDraft3D1
340
0
70
0
0
BLOCK_RECORD
5
101
100
AcDbSymbolTableRecord
100
AcDbBlockTableRecord
2
_CLOSED
340
0
70
0
0
BLOCK_RECORD
5
108
100
AcDbSymbolTableRecord
100
AcDbBlockTableRecord
2
DimnDraft3D2
340
0
70
0
0
BLOCK_RECORD
5
117
100
AcDbSymbolTableRecord
100
AcDbBlockTableRecord
2
DimnDraft3D3
340
0
70
0
0
BLOCK_RECORD
5
125
100
AcDbSymbolTableRecord
100
AcDbBlockTableRecord
2
DimnDraft3D4
340
0
70
0
0
ENDTAB
0
ENDSEC
0
SECTION
2
BLOCKS
0
BLOCK
5
20
100
AcDbEntity
8
0
100
AcDbBlockBegin
2
*Model_Space
70
0
10
0
20
0
30
0
3
*Model_Space
0
ENDBLK
5
21
100
AcDbEntity
8
0
100
AcDbBlockEnd
0
BLOCK
5
1C
100
AcDbEntity
8
0
100
AcDbBlockBegin
2
*Paper_Space
70
0
10
0
20
0
30
0
3
*Paper_Space
0
ENDBLK
5
1D
100
AcDbEntity
8
0
100
AcDbBlockEnd
0
BLOCK
5
24
100
AcDbEntity
8
0
100
AcDbBlockBegin
2
*Paper_Space0
70
0
10
0
20
0
30
0
3
*Paper_Space0
0
ENDBLK
5
25
100
AcDbEntity
8
0
100
AcDbBlockEnd
0
BLOCK
5
FE
100
AcDbEntity
8
0
100
AcDbBlockBegin
2
DimnDraft3D1
70
0
10
0
20
0
30
0
3
DimnDraft3D1
0
MTEXT
5
F4
100
AcDbEntity
8
2
62
256
6
ByLayer
370
-1
48
1
60
0
100
AcDbMText
10
91.055
20
24.28
30
0
210
0
220
0
230
1
1
\W01.000;\fsimplex.shx,bigfont.shx;13.0 
40
4.5
41
0
44
1.084337
50
90
71
7
72
5
7
DEFAULT
0
LINE
5
F5
100
AcDbEntity
8
2
62
256
6
ByLayer
370
-1
48
1
60
0
100
AcDbLine
10
81.93
20
12.9
30
0
11
94.18
21
12.9
31
0
39
0
210
0
220
0
230
1
0
LINE
5
F6
100
AcDbEntity
8
2
62
256
6
ByLayer
370
-1
48
1
60
0
100
AcDbLine
10
81.93
20
0
30
0
11
94.18
21
0
31
0
39
0
210
0
220
0
230
1
0
LINE
5
F7
100
AcDbEntity
8
2
62
256
6
ByLayer
370
-1
48
1
60
0
100
AcDbLine
10
92.18
20
0
30
0
11
92.18
21
32.356316
31
0
39
0
210
0
220
0
230
1
0
LINE
5
F8
100
AcDbEntity
8
2
62
256
6
ByLayer
370
-1
48
1
60
0
100
AcDbLine
10
92.18
20
12.9
30
0
11
92.597997
21
9.725002
31
0
39
0
210
0
220
0
230
1
0
LINE
5
F9
100
AcDbEntity
8
2
62
256
6
ByLayer
370
-1
48
1
60
0
100
AcDbLine
10
92.18
20
12.9
30
0
11
91.762003
21
9.724998
31
0
39
0
210
0
220
0
230
1
0
LINE
5
FA
100
AcDbEntity
8
2
62
256
6
ByLayer
370
-1
48
1
60
0
100
AcDbLine
10
92.597997
20
9.725002
30
0
11
91.762003
21
9.724998
31
0
39
0
210
0
220
0
230
1
0
LINE
5
FB
100
AcDbEntity
8
2
62
256
6
ByLayer
370
-1
48
1
60
0
100
AcDbLine
10
92.18
20
0
30
0
11
91.762003
21
3.174998
31
0
39
0
210
0
220
0
230
1
0
LINE
5
FC
100
AcDbEntity
8
2
62
256
6
ByLayer
370
-1
48
1
60
0
100
AcDbLine
10
92.18
20
0
30
0
11
92.597997
21
3.175002
31
0
39
0
210
0
220
0
230
1
0
LINE
5
FD
100
AcDbEntity
8
2
62
256
6
ByLayer
370
-1
48
1
60
0
100
AcDbLine
10
91.762003
20
3.174998
30
0
11
92.597997
21
3.175002
31
0
39
0
210
0
220
0
230
1
0
ENDBLK
5
FF
100
AcDbEntity
8
0
100
AcDbBlockEnd
0
BLOCK
5
102
100
AcDbEntity
8
0
100
AcDbBlockBegin
2
_CLOSED
70
0
10
0
20
0
30
0
3
_CLOSED
0
LINE
5
104
100
AcDbEntity
8
0
62
256
6
ByLayer
370
-2
48
1
60
0
100
AcDbLine
10
-1
20
0.166667
30
0
11
0
21
0
31
0
39
0
210
0
220
0
230
1
0
LINE
5
105
100
AcDbEntity
8
0
62
256
6
ByLayer
370
-2
48
1
60
0
100
AcDbLine
10
0
20
0
30
0
11
-1
21
-0.166667
31
0
39
0
210
0
220
0
230
1
0
LINE
5
106
100
AcDbEntity
8
0
62
256
6
ByLayer
370
-2
48
1
60
0
100
AcDbLine
10
-1
20
0.166667
30
0
11
-1
21
-0.166667
31
0
39
0
210
0
220
0
230
1
0
LINE
5
107
100
AcDbEntity
8
0
62
256
6
ByLayer
370
-2
48
1
60
0
100
AcDbLine
10
0
20
0
30
0
11
-1
21
0
31
0
39
0
210
0
220
0
230
1
0
ENDBLK
5
103
100
AcDbEntity
8
0
100
AcDbBlockEnd
0
BLOCK
5
114
100
AcDbEntity
8
0
100
AcDbBlockBegin
2
DimnDraft3D2
70
0
10
0
20
0
30
0
3
DimnDraft3D2
0
MTEXT
5
109
100
AcDbEntity
8
SK2
62
256
6
ByLayer
370
-1
48
1
60
0
100
AcDbMText
10
-182.195
20
-3.659211
30
0
210
0
220
0
230
1
1
\W01.000;\fsimplex.shx,bigfont.shx;%%c20 
40
4.5
41
0
44
1.084337
50
90
71
7
72
5
7
DEFAULT
0
LINE
5
10B
100
AcDbEntity
8
SK2
62
256
6
ByLayer
370
-1
48
1
60
0
100
AcDbLine
10
-173.32
20
-9.99125
30
0
11
-183.07
21
-9.99125
31
0
39
0
210
0
220
0
230
1
0
LINE
5
10C
100
AcDbEntity
8
SK2
62
256
6
ByLayer
370
-1
48
1
60
0
100
AcDbLine
10
-173.32
20
9.99125
30
0
11
-183.07
21
9.99125
31
0
39
0
210
0
220
0
230
1
0
LINE
5
10D
100
AcDbEntity
8
SK2
62
256
6
ByLayer
370
-1
48
1
60
0
100
AcDbLine
10
-181.07
20
-9.99125
30
0
11
-181.07
21
9.99125
31
0
39
0
210
0
220
0
230
1
0
LINE
5
10E
100
AcDbEntity
8
SK2
62
256
6
ByLayer
370
-1
48
1
60
0
100
AcDbLine
10
-181.07
20
-9.99125
30
0
11
-181.487997
21
-6.816252
31
0
39
0
210
0
220
0
230
1
0
LINE
5
10F
100
AcDbEntity
8
SK2
62
256
6
ByLayer
370
-1
48
1
60
0
100
AcDbLine
10
-181.07
20
-9.99125
30
0
11
-180.652003
21
-6.816248
31
0
39
0
210
0
220
0
230
1
0
LINE
5
110
100
AcDbEntity
8
SK2
62
256
6
ByLayer
370
-1
48
1
60
0
100
AcDbLine
10
-181.487997
20
-6.816252
30
0
11
-180.652003
21
-6.816248
31
0
39
0
210
0
220
0
230
1
0
LINE
5
111
100
AcDbEntity
8
SK2
62
256
6
ByLayer
370
-1
48
1
60
0
100
AcDbLine
10
-181.07
20
9.99125
30
0
11
-180.652003
21
6.816252
31
0
39
0
210
0
220
0
230
1
0
LINE
5
112
100
AcDbEntity
8
SK2
62
256
6
ByLayer
370
-1
48
1
60
0
100
AcDbLine
10
-181.07
20
9.99125
30
0
11
-181.487997
21
6.816248
31
0
39
0
210
0
220
0
230
1
0
LINE
5
113
100
AcDbEntity
8
SK2
62
256
6
ByLayer
370
-1
48
1
60
0
100
AcDbLine
10
-180.652003
20
6.816252
30
0
11
-181.487997
21
6.816248
31
0
39
0
210
0
220
0
230
1
0
ENDBLK
5
115
100
AcDbEntity
8
0
100
AcDbBlockEnd
0
BLOCK
5
122
100
AcDbEntity
8
0
100
AcDbBlockBegin
2
DimnDraft3D3
70
0
10
0
20
0
30
0
3
DimnDraft3D3
0
MTEXT
5
118
100
AcDbEntity
8
SK2
62
256
6
ByLayer
370
-1
48
1
60
0
100
AcDbMText
10
-51.385132
20
26.775
30
0
210
0
220
0
230
1
1
\W01.000;\fsimplex.shx,bigfont.shx;250.0 
40
4.5
41
0
44
1.084337
50
0
71
7
72
5
7
DEFAULT
0
LINE
5
119
100
AcDbEntity
8
SK2
62
256
6
ByLayer
370
-1
48
1
60
0
100
AcDbLine
10
79.93
20
14.9
30
0
11
79.93
21
27.65
31
0
39
0
210
0
220
0
230
1
0
LINE
5
11A
100
AcDbEntity
8
SK2
62
256
6
ByLayer
370
-1
48
1
60
0
100
AcDbLine
10
-171.32
20
11.99125
30
0
11
-171.32
21
27.65
31
0
39
0
210
0
220
0
230
1
0
LINE
5
11B
100
AcDbEntity
8
SK2
62
256
6
ByLayer
370
-1
48
1
60
0
100
AcDbLine
10
79.93
20
25.65
30
0
11
-171.32
21
25.65
31
0
39
0
210
0
220
0
230
1
0
LINE
5
11C
100
AcDbEntity
8
SK2
62
256
6
ByLayer
370
-1
48
1
60
0
100
AcDbLine
10
79.93
20
25.65
30
0
11
76.755002
21
25.232003
31
0
39
0
210
0
220
0
230
1
0
LINE
5
11D
100
AcDbEntity
8
SK2
62
256
6
ByLayer
370
-1
48
1
60
0
100
AcDbLine
10
79.93
20
25.65
30
0
11
76.754998
21
26.067997
31
0
39
0
210
0
220
0
230
1
0
LINE
5
11E
100
AcDbEntity
8
SK2
62
256
6
ByLayer
370
-1
48
1
60
0
100
AcDbLine
10
76.755002
20
25.232003
30
0
11
76.754998
21
26.067997
31
0
39
0
210
0
220
0
230
1
0
LINE
5
11F
100
AcDbEntity
8
SK2
62
256
6
ByLayer
370
-1
48
1
60
0
100
AcDbLine
10
-171.32
20
25.65
30
0
11
-168.145002
21
26.067997
31
0
39
0
210
0
220
0
230
1
0
LINE
5
120
100
AcDbEntity
8
SK2
62
256
6
ByLayer
370
-1
48
1
60
0
100
AcDbLine
10
-171.32
20
25.65
30
0
11
-168.144998
21
25.232003
31
0
39
0
210
0
220
0
230
1
0
LINE
5
121
100
AcDbEntity
8
SK2
62
256
6
ByLayer
370
-1
48
1
60
0
100
AcDbLine
10
-168.145002
20
26.067997
30
0
11
-168.144998
21
25.232003
31
0
39
0
210
0
220
0
230
1
0
ENDBLK
5
123
100
AcDbEntity
8
0
100
AcDbBlockEnd
0
BLOCK
5
130
100
AcDbEntity
8
0
100
AcDbBlockBegin
2
DimnDraft3D4
70
0
10
0
20
0
30
0
3
DimnDraft3D4
0
MTEXT
5
126
100
AcDbEntity
8
2
62
256
6
ByLayer
370
-1
48
1
60
0
100
AcDbMText
10
106.976196
20
-36.834311
30
0
210
0
220
0
230
1
1
\W01.000;\fsimplex.shx,bigfont.shx;93%%d0' 
40
4.5
41
0
44
1.084337
50
43.5000000000001
71
7
72
5
7
DEFAULT
0
LINE
5
127
100
AcDbEntity
8
2
62
256
6
ByLayer
370
-1
48
1
60
0
100
AcDbLine
10
79.249633
20
-0.082184
30
0
11
76.693329
21
-48.859355
31
0
39
0
210
0
220
0
230
1
0
LINE
5
128
100
AcDbEntity
8
2
62
256
6
ByLayer
370
-1
48
1
60
0
100
AcDbLine
10
81.93
20
0
30
0
11
128.180347
21
0
31
0
39
0
210
0
220
0
230
1
0
ARC
5
129
100
AcDbEntity
8
2
62
256
6
ByLayer
370
-1
48
1
60
0
100
AcDbCircle
39
0
10
79.25394
20
0
30
0
40
46.9264068782928
210
0
220
0
230
1
100
AcDbArc
50
267
51
0
0
LINE
5
12A
100
AcDbEntity
8
2
62
256
6
ByLayer
370
-1
48
1
60
0
100
AcDbLine
10
76.798001
20
-46.862096
30
0
11
79.98582
21
-46.556897
31
0
39
0
210
0
220
0
230
1
0
LINE
5
12B
100
AcDbEntity
8
2
62
256
6
ByLayer
370
-1
48
1
60
0
100
AcDbLine
10
76.798001
20
-46.862096
30
0
11
79.956192
21
-47.392365
31
0
39
0
210
0
220
0
230
1
0
LINE
5
12C
100
AcDbEntity
8
2
62
256
6
ByLayer
370
-1
48
1
60
0
100
AcDbLine
10
79.98582
20
-46.556897
30
0
11
79.956192
21
-47.392365
31
0
39
0
210
0
220
0
230
1
0
LINE
5
12D
100
AcDbEntity
8
2
62
256
6
ByLayer
370
-1
48
1
60
0
100
AcDbLine
10
126.180347
20
0
30
0
11
126.544602
21
-3.181612
31
0
39
0
210
0
220
0
230
1
0
LINE
5
12E
100
AcDbEntity
8
2
62
256
6
ByLayer
370
-1
48
1
60
0
100
AcDbLine
10
126.180347
20
0
30
0
11
125.708728
21
-3.16748
31
0
39
0
210
0
220
0
230
1
0
LINE
5
12F
100
AcDbEntity
8
2
62
256
6
ByLayer
370
-1
48
1
60
0
100
AcDbLine
10
126.544602
20
-3.181612
30
0
11
125.708728
21
-3.16748
31
0
39
0
210
0
220
0
230
1
0
ENDBLK
5
131
100
AcDbEntity
8
0
100
AcDbBlockEnd
0
ENDSEC
0
SECTION
2
ENTITIES
0
ELLIPSE
5
80
100
AcDbEntity
8
1
62
256
6
ByLayer
370
-1
48
1
60
0
100
AcDbEllipse
10
70.106547
20
-3.185205
30
0
11
-1.49794430213186
21
0.078503934364417
31
0
210
0
220
0
230
1
40
0.994969
41
-0.77080101756172
42
-2.84374308134317
0
ELLIPSE
5
81
100
AcDbEntity
8
1
62
256
6
ByLayer
370
-1
48
1
60
0
100
AcDbEllipse
10
70.663486
20
-1.430128
30
0
11
-1.62277299397618
21
0.085045928894785
31
0
210
0
220
0
230
1
40
0.994969
41
-0.924408013919811
42
0.498363537933489
0
ELLIPSE
5
82
100
AcDbEntity
8
1
62
256
6
ByLayer
370
-1
48
1
60
0
100
AcDbEllipse
10
70.083629
20
10.199161
30
0
11
-3.19561451121464
21
0.167475059977423
31
0
210
0
220
0
230
1
40
0.994969
41
0.837758040957287
42
1.63613019964277
0
ELLIPSE
5
83
100
AcDbEntity
8
1
62
256
6
ByLayer
370
-1
48
1
60
0
100
AcDbEllipse
10
70.670565
20
-1.295057
30
0
11
1.77241514177122
21
-0.0928883415478846
31
0
210
0
220
0
230
1
40
0.994969
41
2.18166156499293
42
-2.62171087556609
0
ELLIPSE
5
84
100
AcDbEntity
8
1
62
256
6
ByLayer
370
-1
48
1
60
0
100
AcDbEllipse
10
81.879325
20
3.2837
30
0
11
-3.19561451121473
21
0.167475059977428
31
0
210
0
220
0
230
1
40
0.994969
41
0.529363769472407
42
0.616987723654013
0
ELLIPSE
5
85
100
AcDbEntity
8
1
62
256
6
ByLayer
370
-1
48
1
60
0
100
AcDbEllipse
10
70.087934
20
-3.540374
30
0
11
1.49794430213186
21
-0.0785039343644312
31
0
210
0
220
0
230
1
40
0.994969
41
1.9208251773163
42
2.26792026907297
0
ELLIPSE
5
86
100
AcDbEntity
8
1
62
256
6
ByLayer
370
-1
48
1
60
0
100
AcDbEllipse
10
70.087934
20
-3.540374
30
0
11
1.49794430213186
21
-0.0785039343644312
31
0
210
0
220
0
230
1
40
0.994969
41
0.400720939201707
42
0.48591167667389
0
ELLIPSE
5
87
100
AcDbEntity
8
1
62
256
6
ByLayer
370
-1
48
1
60
0
100
AcDbEllipse
10
70.084526
20
-3.605404
30
0
11
1.49794430213186
21
-0.0785039343644312
31
0
210
0
220
0
230
1
40
0.994969
41
1.92078370055015
42
3.00021527915992
0
ELLIPSE
5
88
100
AcDbEntity
8
1
62
256
6
ByLayer
370
-1
48
1
60
0
100
AcDbEllipse
10
70.084526
20
-3.605404
30
0
11
1.49794430213186
21
-0.0785039343644312
31
0
210
0
220
0
230
1
40
0.994969
41
0.141365422157468
42
0.521792620209476
0
ELLIPSE
5
89
100
AcDbEntity
8
1
62
256
6
ByLayer
370
-1
48
1
60
0
100
AcDbEllipse
10
70.651951
20
-1.650226
30
0
11
-1.62277299397618
21
0.085045928894785
31
0
210
0
220
0
230
1
40
0.994969
41
-0.924408013919801
42
-0.068229385045621
0
ELLIPSE
5
8A
100
AcDbEntity
8
1
62
256
6
ByLayer
370
-1
48
1
60
0
100
AcDbEllipse
10
74.769801
20
4.625399
30
0
11
2.94083001014413
21
-0.154122370080608
31
0
210
0
220
0
230
1
40
0.994969
41
0
42
6.28318530717959
0
ELLIPSE
5
8B
100
AcDbEntity
8
1
62
256
6
ByLayer
370
-1
48
1
60
0
100
AcDbEllipse
10
74.770605
20
4.640748
30
0
11
2.99588860426372
21
-0.157007868728862
31
0
210
0
220
0
230
1
40
0.994969
41
-0.755317917148958
42
-2.9755647988367E-16
0
ELLIPSE
5
8C
100
AcDbEntity
8
1
62
256
6
ByLayer
370
-1
48
1
60
0
100
AcDbEllipse
10
74.770605
20
4.640748
30
0
11
2.99588860426372
21
-0.157007868728862
31
0
210
0
220
0
230
1
40
0.994969
41
0
42
0.0526241677111632
0
ELLIPSE
5
8D
100
AcDbEntity
8
1
62
256
6
ByLayer
370
-1
48
1
60
0
100
AcDbEllipse
10
74.770605
20
4.640748
30
0
11
2.99588860426372
21
-0.157007868728862
31
0
210
0
220
0
230
1
40
0.994969
41
-2.37392541360351
42
-0.767688147710841
0
ELLIPSE
5
8E
100
AcDbEntity
8
1
62
256
6
ByLayer
370
-1
48
1
60
0
100
AcDbEllipse
10
74.770605
20
4.640748
30
0
11
2.99588860426372
21
-0.157007868728862
31
0
210
0
220
0
230
1
40
0.994969
41
0.0526241275058808
42
-2.38629531124505
0
ELLIPSE
5
8F
100
AcDbEntity
8
1
62
256
6
ByLayer
370
-1
48
1
60
0
100
AcDbEllipse
10
74.775953
20
4.742793
30
0
11
3.0671162035353
21
-0.160740749030349
31
0
210
0
220
0
230
1
40
0.994969
41
0
42
6.28318530717959
0
ELLIPSE
5
90
100
AcDbEntity
8
1
62
256
6
ByLayer
370
-1
48
1
60
0
100
AcDbEllipse
10
79.135986
20
12.109768
30
0
11
0.792911850595142
21
-0.0415547492569061
31
0
210
0
220
0
230
1
40
0.994969
41
0
42
2.18166156499295
0
ELLIPSE
5
91
100
AcDbEntity
8
1
62
256
6
ByLayer
370
-1
48
1
60
0
100
AcDbEllipse
10
70.920467
20
7.003149
30
0
11
0.792911850595154
21
-0.0415547492569068
31
0
210
0
220
0
230
1
40
0.994969
41
2.18166156499299
42
-3.14159265358979
0
ELLIPSE
5
92
100
AcDbEntity
8
1
62
256
6
ByLayer
370
-1
48
1
60
0
100
AcDbEllipse
10
70.41592
20
-2.624181
30
0
11
0.792911850595142
21
-0.0415547492569061
31
0
210
0
220
0
230
1
40
0.994969
41
3.14159265358926
42
-0.959931088597367
0
ELLIPSE
5
93
100
AcDbEntity
8
1
62
256
6
ByLayer
370
-1
48
1
60
0
100
AcDbEllipse
10
78.631439
20
2.482438
30
0
11
0.792911850595154
21
-0.0415547492569068
31
0
210
0
220
0
230
1
40
0.994969
41
-0.9599310885974
42
-4.83997725150815E-13
0
ELLIPSE
5
94
100
AcDbEntity
8
1
62
256
6
ByLayer
370
-1
48
1
60
0
100
AcDbEllipse
10
74.76759
20
4.583204
30
0
11
-1.20484653368139
21
0.0631433312071126
31
0
210
0
220
0
230
1
40
0.994969
41
1.85610330119469
42
2.54104518102061
0
ELLIPSE
5
95
100
AcDbEntity
8
1
62
256
6
ByLayer
370
-1
48
1
60
0
100
AcDbEllipse
10
74.773638
20
4.69862
30
0
11
1.20484653368139
21
-0.063143331207124
31
0
210
0
220
0
230
1
40
0.994969
41
2.59259447587954
42
2.73065974270312
0
ELLIPSE
5
96
100
AcDbEntity
8
1
62
256
6
ByLayer
370
-1
48
1
60
0
100
AcDbEllipse
10
74.775061
20
4.725768
30
0
11
1.67420241501605
21
-0.087741230641313
31
0
210
0
220
0
230
1
40
0.994969
41
-2.05076187109335
42
-1.00635486757806
0
ELLIPSE
5
97
100
AcDbEntity
8
1
62
256
6
ByLayer
370
-1
48
1
60
0
100
AcDbEllipse
10
76.39161
20
3.63109
30
0
11
-0.685059860841638
21
0.0359024659826601
31
0
210
0
220
0
230
1
40
0.994969
41
-6.31314195830496E-06
42
0.311295790622753
0
ELLIPSE
5
98
100
AcDbEntity
8
1
62
256
6
ByLayer
370
-1
48
1
60
0
100
AcDbEllipse
10
74.775061
20
4.725768
30
0
11
1.67420241501605
21
-0.087741230641313
31
0
210
0
220
0
230
1
40
0.994969
41
-3.09516887460861
42
-2.05076187109335
0
ELLIPSE
5
99
100
AcDbEntity
8
1
62
256
6
ByLayer
370
-1
48
1
60
0
100
AcDbEllipse
10
74.76759
20
4.583204
30
0
11
-1.20484653368139
21
0.0631433312071126
31
0
210
0
220
0
230
1
40
0.994969
41
0.675825649469481
42
1.35868845794899
0
ELLIPSE
5
9A
100
AcDbEntity
8
1
62
256
6
ByLayer
370
-1
48
1
60
0
100
AcDbEllipse
10
74.773638
20
4.69862
30
0
11
1.20484653368139
21
-0.063143331207124
31
0
210
0
220
0
230
1
40
0.994969
41
-0.548998177710458
42
-0.410932910886453
0
ELLIPSE
5
9B
100
AcDbEntity
8
1
62
256
6
ByLayer
370
-1
48
1
60
0
100
AcDbEllipse
10
74.76759
20
4.583204
30
0
11
1.20484653368139
21
-0.063143331207124
31
0
210
0
220
0
230
1
40
0.994969
41
0.568627280738838
42
1.61303428425409
0
ELLIPSE
5
9C
100
AcDbEntity
8
1
62
256
6
ByLayer
370
-1
48
1
60
0
100
AcDbEllipse
10
74.76759
20
4.583204
30
0
11
-1.20484653368139
21
0.0631433312071126
31
0
210
0
220
0
230
1
40
0.994969
41
2.84168643387608
42
-2.57296537285093
0
ELLIPSE
5
9D
100
AcDbEntity
8
1
62
256
6
ByLayer
370
-1
48
1
60
0
100
AcDbEllipse
10
74.775061
20
4.725768
30
0
11
1.67420241501605
21
-0.087741230641313
31
0
210
0
220
0
230
1
40
0.994969
41
-1.00635486757806
42
0.0464237789812301
0
ELLIPSE
5
9E
100
AcDbEntity
8
1
62
256
6
ByLayer
370
-1
48
1
60
0
100
AcDbEllipse
10
74.786247
20
6.466108
30
0
11
-0.685059860841638
21
0.0359024659826601
31
0
210
0
220
0
230
1
40
0.994969
41
1.61303428425413
42
2.39702492787491
0
ELLIPSE
5
9F
100
AcDbEntity
8
1
62
256
6
ByLayer
370
-1
48
1
60
0
100
AcDbEllipse
10
74.775061
20
4.725768
30
0
11
1.67420241501605
21
-0.087741230641313
31
0
210
0
220
0
230
1
40
0.994969
41
2.13523778601167
42
-3.09516887460861
0
ELLIPSE
5
A0
100
AcDbEntity
8
1
62
256
6
ByLayer
370
-1
48
1
60
0
100
AcDbEllipse
10
74.76759
20
4.583204
30
0
11
1.20484653368139
21
-0.063143331207124
31
0
210
0
220
0
230
1
40
0.994969
41
2.59259447587952
42
2.7306597427031
0
ELLIPSE
5
A1
100
AcDbEntity
8
1
62
256
6
ByLayer
370
-1
48
1
60
0
100
AcDbEllipse
10
74.775061
20
4.725768
30
0
11
1.67420241501605
21
-0.087741230641313
31
0
210
0
220
0
230
1
40
0.994969
41
0.0464237789812306
42
1.0908307824965
0
ELLIPSE
5
A2
100
AcDbEntity
8
1
62
256
6
ByLayer
370
-1
48
1
60
0
100
AcDbEllipse
10
73.143569
20
5.535319
30
0
11
-0.685059860841638
21
0.0359024659826601
31
0
210
0
220
0
230
1
40
0.994969
41
2.78324115050803
42
3.14158663131349
0
ELLIPSE
5
A3
100
AcDbEntity
8
1
62
256
6
ByLayer
370
-1
48
1
60
0
100
AcDbEllipse
10
74.76759
20
4.583204
30
0
11
-1.20484653368139
21
0.0631433312071126
31
0
210
0
220
0
230
1
40
0.994969
41
-0.410932910886696
42
0.344094109427214
0
ELLIPSE
5
A4
100
AcDbEntity
8
1
62
256
6
ByLayer
370
-1
48
1
60
0
100
AcDbEllipse
10
74.775061
20
4.725768
30
0
11
1.67420241501605
21
-0.087741230641313
31
0
210
0
220
0
230
1
40
0.994969
41
1.0908307824965
42
2.13523778601167
0
ELLIPSE
5
A5
100
AcDbEntity
8
1
62
256
6
ByLayer
370
-1
48
1
60
0
100
AcDbEllipse
10
74.76759
20
4.583204
30
0
11
-1.20484653368139
21
0.0631433312071126
31
0
210
0
220
0
230
1
40
0.994969
41
-1.5285583693357
42
-0.548998177710241
0
ELLIPSE
5
A6
100
AcDbEntity
8
1
62
256
6
ByLayer
370
-1
48
1
60
0
100
AcDbEllipse
10
76.413168
20
5.512293
30
0
11
-0.685059860841638
21
0.0359024659826601
31
0
210
0
220
0
230
1
40
0.994969
41
0.568627280738851
42
1.35261792435972
0
ELLIPSE
5
A7
100
AcDbEntity
8
1
62
256
6
ByLayer
370
-1
48
1
60
0
100
AcDbEllipse
10
73.383131
20
4.591746
30
0
11
-0.291599824148336
21
0.0152820992229397
31
0
210
0
220
0
230
1
40
0.994969
41
-1.27122687921953
42
-0.235998002051672
0
ELLIPSE
5
A8
100
AcDbEntity
8
1
62
256
6
ByLayer
370
-1
48
1
60
0
100
AcDbEllipse
10
73.143569
20
5.535319
30
0
11
-0.685059860841638
21
0.0359024659826601
31
0
210
0
220
0
230
1
40
0.994969
41
1.87036577437014
42
2.54001306807469
0
ELLIPSE
5
A9
100
AcDbEntity
8
1
62
256
6
ByLayer
370
-1
48
1
60
0
100
AcDbEllipse
10
74.088886
20
5.784233
30
0
11
-0.291599824148336
21
0.0152820992229397
31
0
210
0
220
0
230
1
40
0.994969
41
-2.31254901295644
42
-0.221099919975979
0
ELLIPSE
5
AA
100
AcDbEntity
8
1
62
256
6
ByLayer
370
-1
48
1
60
0
100
AcDbEllipse
10
74.786247
20
6.466108
30
0
11
-0.685059860841638
21
0.0359024659826601
31
0
210
0
220
0
230
1
40
0.994969
41
0.829043640633298
42
1.61303428425413
0
ELLIPSE
5
AB
100
AcDbEntity
8
1
62
256
6
ByLayer
370
-1
48
1
60
0
100
AcDbEllipse
10
75.469953
20
5.76996
30
0
11
-0.291599824148336
21
0.0152820992229397
31
0
210
0
220
0
230
1
40
0.994969
41
-2.86991042987732
42
-0.744567725715028
0
ELLIPSE
5
AC
100
AcDbEntity
8
1
62
256
6
ByLayer
370
-1
48
1
60
0
100
AcDbEllipse
10
76.413168
20
5.512293
30
0
11
-0.685059860841638
21
0.0359024659826601
31
0
210
0
220
0
230
1
40
0.994969
41
7.83105860226499E-07
42
0.568627280738851
0
ELLIPSE
5
AD
100
AcDbEntity
8
1
62
256
6
ByLayer
370
-1
48
1
60
0
100
AcDbEllipse
10
76.152048
20
4.574663
30
0
11
-0.291599824148336
21
0.0152820992229397
31
0
210
0
220
0
230
1
40
0.994969
41
-2.90701816597951
42
-1.7889747292305
0
ELLIPSE
5
AE
100
AcDbEntity
8
1
62
256
6
ByLayer
370
-1
48
1
60
0
100
AcDbEllipse
10
74.773617
20
4.698212
30
0
11
2.62140252873076
21
-0.137381885137755
31
0
210
0
220
0
230
1
40
0.994969
41
0
42
6.28318530717959
0
ELLIPSE
5
AF
100
AcDbEntity
8
1
62
256
6
ByLayer
370
-1
48
1
60
0
100
AcDbEllipse
10
74.775061
20
4.725768
30
0
11
1.79753316255827
21
-0.0942047212373194
31
0
210
0
220
0
230
1
40
0.994969
41
0
42
6.28318530717959
0
ELLIPSE
5
B0
100
AcDbEntity
8
1
62
256
6
ByLayer
370
-1
48
1
60
0
100
AcDbEllipse
10
74.767721
20
4.585705
30
0
11
2.62140252873077
21
-0.137381885137755
31
0
210
0
220
0
230
1
40
0.994969
41
3.14153321551453
42
-3.40064548438478E-16
0
POINT
5
41
100
AcDbEntity
8
80
62
256
6
ByLayer
370
-1
48
1
60
0
100
AcDbPoint
10
0
20
0
30
0
39
0
210
0
220
0
230
1
50
360
0
POINT
5
43
100
AcDbEntity
8
81
62
256
6
ByLayer
370
-1
48
1
60
0
100
AcDbPoint
10
79.93
20
12.9
30
0
39
0
210
0
220
0
230
1
50
360
0
POINT
5
45
100
AcDbEntity
8
1
62
256
6
ByLayer
370
-1
48
1
60
0
100
AcDbPoint
10
-171.32
20
0
30
0
39
0
210
0
220
0
230
1
50
360
0
POINT
5
47
100
AcDbEntity
8
2
62
256
6
ByLayer
370
-1
48
1
60
0
100
AcDbPoint
10
79.93
20
12.9
30
0
39
0
210
0
220
0
230
1
50
360
0
POINT
5
49
100
AcDbEntity
8
2
62
256
6
ByLayer
370
-1
48
1
60
0
100
AcDbPoint
10
79.707612
20
11.715065
30
0
39
0
210
0
220
0
230
1
50
360
0
SPLINE
5
B1
100
AcDbEntity
8
1
62
256
6
ByLayer
370
-1
48
1
60
0
100
AcDbSpline
70
4
71
2
72
6
73
3
40
0
40
0
40
0
40
1
40
1
40
1
41
0.499995041848882
10
70.7284665390343
20
-9.80704953755202
30
0
41
0.500004958151118
10
70.3200983349999
20
-9.80663854652443
30
0
41
0.499995041848882
10
69.9117464030233
20
-9.80622664705565
30
0
0
SPLINE
5
B2
100
AcDbEntity
8
1
62
256
6
ByLayer
370
-1
48
1
60
0
100
AcDbSpline
70
4
71
3
72
14
73
10
40
0
40
0
40
0
40
0
40
0.25
40
0.25
40
0.5
40
0.5
40
0.75
40
0.75
40
1
40
1
40
1
40
1
41
1
10
69.9117464030231
20
-9.80622664705564
30
0
41
1
10
67.9617254158105
20
-9.80425968535951
30
0
41
1
10
66.04296383748
20
-9.75229263047146
30
0
41
1
10
62.4056181834397
20
-9.36388170878899
30
0
41
1
10
60.7184771458449
20
-9.01959781236926
30
0
41
1
10
57.7402321132645
20
-7.65335066792841
30
0
41
1
10
56.4697053489185
20
-6.60783336018147
30
0
41
1
10
54.4327419520814
20
-3.82966439585144
30
0
41
1
10
53.6307665857032
20
-2.08585358410826
30
0
41
1
10
53.0282730010189
20
-0.233436164322683
30
0
0
SPLINE
5
B3
100
AcDbEntity
8
1
62
256
6
ByLayer
370
-1
48
1
60
0
100
AcDbSpline
70
4
71
3
72
14
73
10
40
0
40
0
40
0
40
0
40
0.25
40
0.25
40
0.5
40
0.5
40
0.75
40
0.75
40
1
40
1
40
1
40
1
41
1
10
52.8815055208565
20
0.233436164322797
30
0
41
1
10
52.3107762614902
20
2.11346320468178
30
0
41
1
10
51.9381566354096
20
4.02032677816143
30
0
41
1
10
52.1389830604257
20
7.26077977933247
30
0
41
1
10
52.8307880741436
20
8.4466643348953
30
0
41
1
10
55.3459587986999
20
9.70433726650418
30
0
41
1
10
57.0394449425323
20
9.86668981018715
30
0
41
1
10
60.69592967941
20
10.0119541330333
30
0
41
1
10
62.6177296963686
20
9.9911819039107
30
0
41
1
10
64.5811376615779
20
9.99113154677633
30
0
0
SPLINE
5
B4
100
AcDbEntity
8
1
62
256
6
ByLayer
370
-1
48
1
60
0
100
AcDbSpline
70
4
71
3
72
12
73
8
40
0
40
0
40
0
40
0
40
0.260920876377308
40
0.260920876377308
40
0.521841752754581
40
0.521841752754581
40
1
40
1
40
1
40
1
41
1
10
65.7685123039821
20
9.99109913689014
30
0
41
1
10
65.6652420265587
20
9.99110212583309
30
0
41
1
10
65.561971749134
20
9.99110507038623
30
0
41
1
10
65.3554311942822
20
9.9911108707087
30
0
41
1
10
65.2521609168551
20
9.99111372647806
30
0
41
1
10
64.9596396468144
20
9.99112168992235
30
0
41
1
10
64.770388654198
20
9.99112669290091
30
0
41
1
10
64.5811376615778
20
9.99113154677633
30
0
0
SPLINE
5
B5
100
AcDbEntity
8
1
62
256
6
ByLayer
370
-1
48
1
60
0
100
AcDbSpline
70
4
71
3
72
12
73
8
40
0
40
0
40
0
40
0
40
0.306088585302313
40
0.306088585302313
40
0.672099760123319
40
0.672099760123319
40
1
40
1
40
1
40
1
41
1
10
53.0282730010189
20
-0.233436164322711
30
0
41
1
10
53.0225747777188
20
-0.186553102392139
30
0
41
1
10
53.0132989810375
20
-0.13704082687255
30
0
41
1
10
52.9866186482625
20
-0.02894539775113
30
0
41
1
10
52.9676567136986
20
0.0308155672431099
30
0
41
1
10
52.9265767745481
20
0.138313179502035
30
0
41
1
10
52.9046772850048
20
0.187593185090435
30
0
41
1
10
52.8815055208566
20
0.233436164322797
30
0
0
SPLINE
5
B6
100
AcDbEntity
8
1
62
256
6
ByLayer
370
-1
48
1
60
0
100
AcDbSpline
70
4
71
3
72
8
73
4
40
0
40
0
40
0
40
0
40
1
40
1
40
1
40
1
41
1
10
69.197651028918
20
-2.12719127040609
30
0
41
1
10
69.1592916062214
20
-2.11262460168425
30
0
41
1
10
69.1221508436498
20
-2.10037918646941
30
0
41
1
10
69.086412149048
20
-2.0905078870212
30
0
0
SPLINE
5
B7
100
AcDbEntity
8
1
62
256
6
ByLayer
370
-1
48
1
60
0
100
AcDbSpline
70
4
71
3
72
28
73
24
40
-0.124999999999997
40
-0.124999999999997
40
0
40
0
40
0.125000000000002
40
0.125000000000002
40
0.187500000000003
40
0.187500000000003
40
0.250000000000004
40
0.250000000000004
40
0.375000000000006
40
0.375000000000006
40
0.500000000000008
40
0.500000000000008
40
0.62500000000001
40
0.62500000000001
40
0.687500000000008
40
0.687500000000008
40
0.718750000000007
40
0.718750000000007
40
0.750000000000006
40
0.750000000000006
40
0.875000000000003
40
0.875000000000003
40
1
40
1
40
1.125
40
1.125
41
1
10
59.7716884326751
20
2.80351513989479
30
0
41
1
10
58.7291203940198
20
2.35525970760773
30
0
41
1
10
58.1896589673176
20
2.20934760795896
30
0
41
1
10
57.3698045305919
20
2.34874667074803
30
0
41
1
10
57.0939319583421
20
2.46360244125899
30
0
41
1
10
56.6599766454266
20
2.91380819777558
30
0
41
1
10
56.5322154450964
20
3.25427527608204
30
0
41
1
10
56.5414485241714
20
4.19036964198924
30
0
41
1
10
56.9299980896638
20
4.64485821444111
30
0
41
1
10
57.8035401079033
20
5.26736580510371
30
0
41
1
10
58.333259217081
20
5.46525901775763
30
0
41
1
10
59.4493544152096
20
5.72350620208391
30
0
41
1
10
60.0515047392201
20
5.79206370741645
30
0
41
1
10
60.9804965926426
20
5.75342783534268
30
0
41
1
10
61.2978275562419
20
5.72477512847195
30
0
41
1
10
61.7430296070663
20
5.54480512547437
30
0
41
1
10
61.8941318784562
20
5.45162028374239
30
0
41
1
10
62.032256472177
20
5.15615077077734
30
0
41
1
10
62.0001361256117
20
4.9811538509602
30
0
41
1
10
61.7010511593516
20
4.25146792367113
30
0
41
1
10
61.1971039197043
20
3.84696726503753
30
0
41
1
10
60.2607411965688
20
3.10911798855909
30
0
41
1
10
59.7716884326751
20
2.80351513989479
30
0
41
1
10
58.7291203940198
20
2.35525970760773
30
0
0
SPLINE
5
B8
100
AcDbEntity
8
SK1
62
256
6
ByLayer
370
-1
48
1
60
0
100
AcDbSpline
70
4
71
3
72
34
73
30
40
0
40
0
40
0
40
0
40
0.217457722716224
40
0.217457722716224
40
0.435205736046568
40
0.435205736046568
40
0.489804543994878
40
0.489804543994878
40
0.496549308752554
40
0.496549308752554
40
0.499955506609483
40
0.499955506609483
40
0.501333585706673
40
0.501333585706673
40
0.502727669322812
40
0.502727669322812
40
0.503969738093622
40
0.503969738093622
40
0.506084034866097
40
0.506084034866097
40
0.511582108692614
40
0.511582108692614
40
0.532968432685216
40
0.532968432685216
40
0.617843090853689
40
0.617843090853689
40
0.991279786412478
40
0.991279786412478
40
1
40
1
40
1
40
1
41
1
10
-60.07
20
-0.233436164322711
30
0
41
1
10
-60.4700057987322
20
-0.233436164322711
30
0
41
1
10
-60.8701208961381
20
-0.226764338557643
30
0
41
1
10
-61.669788890028
20
-0.194439129841101
30
0
41
1
10
-62.0713188507156
20
-0.175922319090432
30
0
41
1
10
-62.5660317074295
20
-0.0991142584228157
30
0
41
1
10
-62.6682903311479
20
-0.0860601938297805
30
0
41
1
10
-62.7710652211984
20
-0.0393601932101433
30
0
41
1
10
-62.7824106913997
20
-0.0334791827027914
30
0
41
1
10
-62.7971573166669
20
-0.0216662685330675
30
0
41
1
10
-62.8018552013267
20
-0.0170508851722104
30
0
41
1
10
-62.8062097532358
20
-0.0092514148736598
30
0
41
1
10
-62.8072008706596
20
-0.006780393331411
30
0
41
1
10
-62.8082484512515
20
-0.0016667993909607
30
0
41
1
10
-62.8082910029577
20
0.0010442320272261
30
0
41
1
10
-62.8074328101159
20
0.0059371585597034
30
0
41
1
10
-62.8066364740706
20
0.0081988054900819
30
0
41
1
10
-62.8038120270865
20
0.0138593692916515
30
0
41
1
10
-62.8012989095358
20
0.0170658976253719
30
0
41
1
10
-62.7913933262466
20
0.027298602384235
30
0
41
1
10
-62.7824578935857
20
0.032876467013665
30
0
41
1
10
-62.7384762058085
20
0.0566035527719464
30
0
41
1
10
-62.6993830440455
20
0.0670885454558174
30
0
41
1
10
-62.5081904081079
20
0.115383286102372
30
0
41
1
10
-62.3506046797186
20
0.13266514094309
30
0
41
1
10
-61.505331047694
20
0.220917708457137
30
0
41
1
10
-60.8109209829838
20
0.232394670085569
30
0
41
1
10
-60.1023607472352
20
0.233424410073695
30
0
41
1
10
-60.0861803714794
20
0.233436164322683
30
0
41
1
10
-60.07
20
0.233436164322683
30
0
0
SPLINE
5
B9
100
AcDbEntity
8
1
62
256
6
ByLayer
370
-1
48
1
60
0
100
AcDbSpline
70
4
71
3
72
18
73
14
40
0
40
0
40
0
40
0
40
0.205042569407917
40
0.205042569407917
40
0.380490253800779
40
0.380490253800779
40
0.557706679217345
40
0.557706679217345
40
0.71094910323584
40
0.71094910323584
40
0.912502109150549
40
0.912502109150549
40
1
40
1
40
1
40
1
41
1
10
74.3039966478899
20
6.11948372883146
30
0
41
1
10
74.3518236473724
20
6.06731829818875
30
0
41
1
10
74.4086061146563
20
6.02104710936831
30
0
41
1
10
74.5267505576844
20
5.95367207484082
30
0
41
1
10
74.5877012855868
20
5.92929382758746
30
0
41
1
10
74.7153737367724
20
5.90023974791842
30
0
41
1
10
74.7841087677637
20
5.89555650655132
30
0
41
1
10
74.9075941862124
20
5.90693443507936
30
0
41
1
10
74.9644598835113
20
5.92031299408123
30
0
41
1
10
75.0859639692161
20
5.96579003554982
30
0
41
1
10
75.1495750802932
20
6.00298070259578
30
0
41
1
10
75.2287759540964
20
6.06653682831126
30
0
41
1
10
75.2515210824303
20
6.08740618240984
30
0
41
1
10
75.2727202872751
20
6.10947242398007
30
0
0
SPLINE
5
BA
100
AcDbEntity
8
1
62
256
6
ByLayer
370
-1
48
1
60
0
100
AcDbSpline
70
4
71
3
72
18
73
14
40
0
40
0
40
0
40
0
40
0.0445242400514818
40
0.0445242400514818
40
0.267732157852874
40
0.267732157852874
40
0.492679340186666
40
0.492679340186666
40
0.731224456037637
40
0.731224456037637
40
0.992713252850157
40
0.992713252850157
40
1
40
1
40
1
40
1
41
1
10
76.4515110188278
20
4.71542539237473
30
0
41
1
10
76.4515448782693
20
4.72136380474734
30
0
41
1
10
76.451395061661
20
4.72729802422077
30
0
41
1
10
76.4494085974407
20
4.76257795307419
30
0
41
1
10
76.4430718562823
20
4.79178897196658
30
0
41
1
10
76.4223322612553
20
4.8454680567024
30
0
41
1
10
76.4076237223083
20
4.870590715101
30
0
41
1
10
76.3713616414713
20
4.91517905279144
30
0
41
1
10
76.3490186143585
20
4.93478956434089
30
0
41
1
10
76.29842868568
20
4.96682697151695
30
0
41
1
10
76.2692052823946
20
4.978814006915
30
0
41
1
10
76.2385906004038
20
4.98589787516812
30
0
41
1
10
76.2377508982589
20
4.98608810996717
30
0
41
1
10
76.2369105169519
20
4.98627444991575
30
0
0
SPLINE
5
BB
100
AcDbEntity
8
1
62
256
6
ByLayer
370
-1
48
1
60
0
100
AcDbSpline
70
4
71
3
72
12
73
8
40
0
40
0
40
0
40
0
40
0.314796651252816
40
0.314796651252816
40
0.781971087515082
40
0.781971087515082
40
1
40
1
40
1
40
1
41
1
10
73.7786311876474
20
5.37805022277226
30
0
41
1
10
73.7989700251536
20
5.42503434347606
30
0
41
1
10
73.8139632141962
20
5.47469041325459
30
0
41
1
10
73.8372422375237
20
5.5973411721898
30
0
41
1
10
73.8393114904254
20
5.67200667464633
30
0
41
1
10
73.8275555443258
20
5.77637201046502
30
0
41
1
10
73.8215619799502
20
5.80930779242127
30
0
41
1
10
73.8135355449843
20
5.84140540310116
30
0
0
SPLINE
5
BC
100
AcDbEntity
8
1
62
256
6
ByLayer
370
-1
48
1
60
0
100
AcDbSpline
70
4
71
3
72
18
73
14
40
0
40
0
40
0
40
0
40
0.204484327331661
40
0.204484327331661
40
0.380032436580348
40
0.380032436580348
40
0.557355801854046
40
0.557355801854046
40
0.710621155738136
40
0.710621155738136
40
0.912077806931038
40
0.912077806931038
40
1
40
1
40
1
40
1
41
1
10
75.7584674825011
20
5.824693449786
30
0
41
1
10
75.7402324513107
20
5.75562199391632
30
0
41
1
10
75.7314082892554
20
5.68193890946716
30
0
41
1
10
75.7364306068948
20
5.5438994206298
30
0
41
1
10
75.7474718048218
20
5.47814089618657
30
0
41
1
10
75.7882736263058
20
5.35238400161313
30
0
41
1
10
75.8190295608443
20
5.29065434822581
30
0
41
1
10
75.8900973818431
20
5.19061167306754
30
0
41
1
10
75.9293267527094
20
5.14900020016023
30
0
41
1
10
76.0267505779607
20
5.06927336026675
30
0
41
1
10
76.0885477777103
20
5.03477857500641
30
0
41
1
10
76.1797745623869
20
5.00096705276852
30
0
41
1
10
76.2082282158325
20
4.99263425167746
30
0
41
1
10
76.2369105169519
20
4.98627444991573
30
0
0
SPLINE
5
BD
100
AcDbEntity
8
1
62
256
6
ByLayer
370
-1
48
1
60
0
100
AcDbSpline
70
4
71
3
72
14
73
10
40
0
40
0
40
0
40
0
40
0.253826519598078
40
0.253826519598078
40
0.543931427297483
40
0.543931427297483
40
0.806192118844103
40
0.806192118844103
40
1
40
1
40
1
40
1
41
1
10
73.7905121875672
20
3.60504417806905
30
0
41
1
10
73.7826707948825
20
3.57783533525591
30
0
41
1
10
73.7791559480009
20
3.54855600083721
30
0
41
1
10
73.7824169287044
20
3.48537327601218
30
0
41
1
10
73.7908767543277
20
3.45038420860399
30
0
41
1
10
73.819807555518
20
3.3883207394189
30
0
41
1
10
73.8395459888669
20
3.35989005271506
30
0
41
1
10
73.8816136945941
20
3.31777844833812
30
0
41
1
10
73.9023172937067
20
3.30176070442499
30
0
41
1
10
73.9245645161801
20
3.28871782686051
30
0
0
SPLINE
5
BE
100
AcDbEntity
8
1
62
256
6
ByLayer
370
-1
48
1
60
0
100
AcDbSpline
70
4
71
3
72
16
73
12
40
0
40
0
40
0
40
0
40
0.0559896302622777
40
0.0559896302622777
40
0.278865236505851
40
0.278865236505851
40
0.504139857462899
40
0.504139857462899
40
0.743542544183463
40
0.743542544183463
40
1
40
1
40
1
40
1
41
1
10
73.0986110635786
20
4.73611076145411
30
0
41
1
10
73.0985685180092
20
4.72864893915806
30
0
41
1
10
73.0988147482192
20
4.72116475522668
30
0
41
1
10
73.1014542500553
20
4.68419880339371
30
0
41
1
10
73.1082064747927
20
4.65450581589022
30
0
41
1
10
73.1296551598983
20
4.59912194115364
30
0
41
1
10
73.1446878709871
20
4.57276417514009
30
0
41
1
10
73.1815133644063
20
4.52504914051644
30
0
41
1
10
73.2041074521251
20
4.50349243341532
30
0
41
1
10
73.2544377528204
20
4.46744134075368
30
0
41
1
10
73.2830066474511
20
4.45308174421382
30
0
41
1
10
73.3120691531165
20
4.44346317793924
30
0
0
SPLINE
5
BF
100
AcDbEntity
8
1
62
256
6
ByLayer
370
-1
48
1
60
0
100
AcDbSpline
70
4
71
3
72
18
73
14
40
0
40
0
40
0
40
0
40
0.211826658493618
40
0.211826658493618
40
0.386063242106284
40
0.386063242106284
40
0.561989010675212
40
0.561989010675212
40
0.714969206089718
40
0.714969206089718
40
0.917706490638698
40
0.917706490638698
40
1
40
1
40
1
40
1
41
1
10
75.2449830221777
20
3.31025389902442
30
0
41
1
10
75.1951859424475
20
3.35680718518407
30
0
41
1
10
75.1358087980072
20
3.39750219776124
30
0
41
1
10
75.0144713404327
20
3.45449550199791
30
0
41
1
10
74.953395361045
20
3.47436240465632
30
0
41
1
10
74.8259830944497
20
3.49765658973701
30
0
41
1
10
74.7576751825761
20
3.50111293354283
30
0
41
1
10
74.6350162801661
20
3.49108744811298
30
0
41
1
10
74.5785354588708
20
3.47970738100861
30
0
41
1
10
74.4575486934747
20
3.4409105523122
30
0
41
1
10
74.3942255335197
20
3.40900605146859
30
0
41
1
10
74.3171927205557
20
3.3550148782335
30
0
41
1
10
74.296042029704
20
3.33813245198257
30
0
41
1
10
74.2762593827933
20
3.32026520387481
30
0
0
SPLINE
5
C0
100
AcDbEntity
8
1
62
256
6
ByLayer
370
-1
48
1
60
0
100
AcDbSpline
70
4
71
3
72
18
73
14
40
0
40
0
40
0
40
0
40
0.0932927671353675
40
0.0932927671353675
40
0.291452469912716
40
0.291452469912716
40
0.45257174797772
40
0.45257174797772
40
0.614437057926297
40
0.614437057926297
40
0.766897325913034
40
0.766897325913034
40
1
40
1
40
1
40
1
41
1
10
73.7905121875672
20
3.60504417806902
30
0
41
1
10
73.798695600042
20
3.63343979510495
30
0
41
1
10
73.8049018292108
20
3.66277164492837
30
0
41
1
10
73.8174819468692
20
3.75630823893474
30
0
41
1
10
73.816283957762
20
3.82418658459565
30
0
41
1
10
73.7932713786592
20
3.94788238117181
30
0
41
1
10
73.7749380696255
20
4.00494573075235
30
0
41
1
10
73.7233635331415
20
4.11348092837494
30
0
41
1
10
73.6893271015282
20
4.16630496361785
30
0
41
1
10
73.6136062121478
20
4.25690387620287
30
0
41
1
10
73.5716774704276
20
4.29649355446304
30
0
41
1
10
73.4606376363502
20
4.38061877741936
30
0
41
1
10
73.3866761361107
20
4.41877114970399
30
0
41
1
10
73.3120691531165
20
4.44346317793926
30
0
0
SPLINE
5
C1
100
AcDbEntity
8
1
62
256
6
ByLayer
370
-1
48
1
60
0
100
AcDbSpline
70
4
71
3
72
12
73
8
40
0
40
0
40
0
40
0
40
0.321062853359312
40
0.321062853359312
40
0.789577101064578
40
0.789577101064578
40
1
40
1
40
1
40
1
41
1
10
75.7686454019614
20
4.01919069404283
30
0
41
1
10
75.7479349293351
20
3.97234816504019
30
0
41
1
10
75.7328577341013
20
3.92378277393271
30
0
41
1
10
75.71027674465
20
3.80696326648024
30
0
41
1
10
75.7088789069454
20
3.73793500868388
30
0
41
1
10
75.7215530512478
20
3.64417024536812
30
0
41
1
10
75.7275489229841
20
3.6156482944937
30
0
41
1
10
75.7354258877246
20
3.58798423520349
30
0
0
SPLINE
5
C2
100
AcDbEntity
8
1
62
256
6
ByLayer
370
-1
48
1
60
0
100
AcDbSpline
70
4
71
3
72
14
73
10
40
0
40
0
40
0
40
0
40
0.281732662281635
40
0.281732662281635
40
0.568336047605878
40
0.568336047605878
40
0.827726871356306
40
0.827726871356306
40
1
40
1
40
1
40
1
41
1
10
74.30399664789
20
6.11948372883151
30
0
41
1
10
74.2807658842423
20
6.1448217764393
30
0
41
1
10
74.252651062473
20
6.1667519926869
30
0
41
1
10
74.1898595939589
20
6.19947984564575
30
0
41
1
10
74.1540743623524
20
6.21052785271465
30
0
41
1
10
74.0844002631114
20
6.2175280289153
30
0
41
1
10
74.0495969392675
20
6.2148579280684
30
0
41
1
10
73.9947465470469
20
6.20004144664966
30
0
41
1
10
73.9732253820078
20
6.19128902935935
30
0
41
1
10
73.9532150364936
20
6.18010120332121
30
0
0
SPLINE
5
C3
100
AcDbEntity
8
1
62
256
6
ByLayer
370
-1
48
1
60
0
100
AcDbSpline
70
4
71
3
72
14
73
10
40
0
40
0
40
0
40
0
40
0.280886135263044
40
0.280886135263044
40
0.565779229752011
40
0.565779229752011
40
0.823531433577516
40
0.823531433577516
40
1
40
1
40
1
40
1
41
1
10
73.3184963672105
20
5.00495733626551
30
0
41
1
10
73.2861673255102
20
4.99856790007115
30
0
41
1
10
73.2542695273443
20
4.98616581968983
30
0
41
1
10
73.196647495388
20
4.94987802403074
30
0
41
1
10
73.1701583502822
20
4.92521327434127
30
0
41
1
10
73.1306817293252
20
4.8695655383143
30
0
41
1
10
73.1161018439009
20
4.83853009288876
30
0
41
1
10
73.1018292511745
20
4.78338735837983
30
0
41
1
10
73.0987457088366
20
4.75972541755834
30
0
41
1
10
73.0986110635786
20
4.73611076145411
30
0
0
SPLINE
5
C4
100
AcDbEntity
8
1
62
256
6
ByLayer
370
-1
48
1
60
0
100
AcDbSpline
70
4
71
3
72
18
73
14
40
0
40
0
40
0
40
0
40
0.0447160259823224
40
0.0447160259823224
40
0.265841569193351
40
0.265841569193351
40
0.488725170244959
40
0.488725170244959
40
0.725109012423026
40
0.725109012423026
40
0.98424482255876
40
0.98424482255876
40
1
40
1
40
1
40
1
41
1
10
75.5969070459128
20
3.27143495050771
30
0
41
1
10
75.6021800179132
20
3.27438308018401
30
0
41
1
10
75.6073633371777
20
3.27748730340048
30
0
41
1
10
75.637322687521
20
3.29666623824235
30
0
41
1
10
75.6599308865083
20
3.31644002100637
30
0
41
1
10
75.6973412134616
20
3.36039288279955
30
0
41
1
10
75.7125746238946
20
3.38515248997973
30
0
41
1
10
75.735011695737
20
3.43758915638452
30
0
41
1
10
75.7419833825928
20
3.46599782644501
30
0
41
1
10
75.7470213387053
20
3.52416735260238
30
0
41
1
10
75.7442649731726
20
3.55452366045668
30
0
41
1
10
75.7363905151777
20
3.58452858753833
30
0
41
1
10
75.7359169010314
20
3.5862597865511
30
0
41
1
10
75.7354258877246
20
3.58798423520352
30
0
0
SPLINE
5
C5
100
AcDbEntity
8
1
62
256
6
ByLayer
370
-1
48
1
60
0
100
AcDbSpline
70
4
71
3
72
14
73
10
40
0
40
0
40
0
40
0
40
0.284182305388171
40
0.284182305388171
40
0.578057080079425
40
0.578057080079425
40
0.836555462934342
40
0.836555462934342
40
1
40
1
40
1
40
1
41
1
10
75.7584674825014
20
5.82469344978594
30
0
41
1
10
75.7674036916868
20
5.85854241730038
30
0
41
1
10
75.7709246331235
20
5.89487253558272
30
0
41
1
10
75.7650965997141
20
5.96804505614111
30
0
41
1
10
75.7550903860449
20
6.00605434328912
30
0
41
1
10
75.7233495111005
20
6.07100134646629
30
0
41
1
10
75.7026368750134
20
6.09967103500057
30
0
41
1
10
75.6620304527809
20
6.13843920160457
30
0
41
1
10
75.6443586703938
20
6.15179580494211
30
0
41
1
10
75.6255575662263
20
6.16281832696833
30
0
0
SPLINE
5
C6
100
AcDbEntity
8
1
62
256
6
ByLayer
370
-1
48
1
60
0
100
AcDbSpline
70
4
71
3
72
12
73
8
40
0
40
0
40
0
40
0
40
0.49454769325427
40
0.49454769325427
40
0.89963804178854
40
0.89963804178854
40
1
40
1
40
1
40
1
41
1
10
76.2304650654982
20
4.42443230203907
30
0
41
1
10
76.1612451323729
20
4.40340408507615
30
0
41
1
10
76.0924927009262
20
4.37114189013764
30
0
41
1
10
75.9769487292783
20
4.2928726359585
30
0
41
1
10
75.9272173590527
20
4.24940799946657
30
0
41
1
10
75.8733962945006
20
4.18766094825651
30
0
41
1
10
75.863018246727
20
4.1749278656053
30
0
41
1
10
75.8530829775229
20
4.1618615169146
30
0
0
SPLINE
5
C7
100
AcDbEntity
8
1
62
256
6
ByLayer
370
-1
48
1
60
0
100
AcDbSpline
70
4
71
3
72
14
73
10
40
0
40
0
40
0
40
0
40
0.258927663111454
40
0.258927663111454
40
0.548393416998232
40
0.548393416998232
40
0.810122265230828
40
0.810122265230828
40
1
40
1
40
1
40
1
41
1
10
75.2449830221777
20
3.31025389902442
30
0
41
1
10
75.266505428294
20
3.29013346754121
30
0
41
1
10
75.2921049088862
20
3.27276718715271
30
0
41
1
10
75.3519201956942
20
3.24520523436553
30
0
41
1
10
75.3877971483078
20
3.23572658694189
30
0
41
1
10
75.4579816967417
20
3.23071367389792
30
0
41
1
10
75.4931822036284
20
3.23391550113468
30
0
41
1
10
75.5509378541174
20
3.24942038394363
30
0
41
1
10
75.5748603371277
20
3.25910858950479
30
0
41
1
10
75.5969070459128
20
3.27143495050771
30
0
0
SPLINE
5
C8
100
AcDbEntity
8
1
62
256
6
ByLayer
370
-1
48
1
60
0
100
AcDbSpline
70
4
71
3
72
16
73
12
40
0
40
0
40
0
40
0
40
0.0608533059030131
40
0.0608533059030131
40
0.281623182917247
40
0.281623182917247
40
0.505077149700817
40
0.505077149700817
40
0.742780487870879
40
0.742780487870879
40
1
40
1
40
1
40
1
41
1
10
73.9532150364936
20
6.18010120332121
30
0
41
1
10
73.9460499532299
20
6.17609519027934
30
0
41
1
10
73.9390468236924
20
6.17176628224877
30
0
41
1
10
73.9077639754163
20
6.15048652011262
30
0
41
1
10
73.8856332450914
20
6.12962340193715
30
0
41
1
10
73.8491330264609
20
6.08283816445274
30
0
41
1
10
73.8343780259118
20
6.05627727133279
30
0
41
1
10
73.8129022510792
20
5.9996221489086
30
0
41
1
10
73.806455120635
20
5.96871330866594
30
0
41
1
10
73.8025427256258
20
5.90546666673126
30
0
41
1
10
73.8057730310632
20
5.87244759690157
30
0
41
1
10
73.8135355449843
20
5.84140540310119
30
0
0
SPLINE
5
C9
100
AcDbEntity
8
1
62
256
6
ByLayer
370
-1
48
1
60
0
100
AcDbSpline
70
4
71
3
72
14
73
10
40
0
40
0
40
0
40
0
40
0.264951685633388
40
0.264951685633388
40
0.551839051428865
40
0.551839051428865
40
0.811228646787146
40
0.811228646787146
40
1
40
1
40
1
40
1
41
1
10
76.2304650654982
20
4.42443230203912
30
0
41
1
10
76.2611377378495
20
4.43375030597116
30
0
41
1
10
76.2913932760653
20
4.44825286923773
30
0
41
1
10
76.3485342875603
20
4.48816432507397
30
0
41
1
10
76.3758000021415
20
4.51507639876047
30
0
41
1
10
76.4167479389502
20
4.574150410253
30
0
41
1
10
76.4320516303459
20
4.60649429730205
30
0
41
1
10
76.4478234062878
20
4.66452476131664
30
0
41
1
10
76.4513670218815
20
4.69017059754265
30
0
41
1
10
76.4515110188278
20
4.71542539237473
30
0
0
SPLINE
5
CA
100
AcDbEntity
8
1
62
256
6
ByLayer
370
-1
48
1
60
0
100
AcDbSpline
70
4
71
3
72
16
73
12
40
0
40
0
40
0
40
0
40
0.0414949540904508
40
0.0414949540904508
40
0.264700717331954
40
0.264700717331954
40
0.489470788841682
40
0.489470788841682
40
0.727692848895937
40
0.727692848895937
40
1
40
1
40
1
40
1
41
1
10
73.9245645161801
20
3.28871782686051
30
0
41
1
10
73.9293610137468
20
3.28590578456729
30
0
41
1
10
73.9342403446759
20
3.28322131244613
30
0
41
1
10
73.9655620196661
20
3.26708389735236
30
0
41
1
10
73.994347108856
20
3.25725082186685
30
0
41
1
10
74.0521757896336
20
3.24631278301402
30
0
41
1
10
74.081953936892
20
3.24510831669434
30
0
41
1
10
74.1403336667397
20
3.25088032503669
30
0
41
1
10
74.1694938510811
20
3.25839277641512
30
0
41
1
10
74.2260499656319
20
3.28207317923636
30
0
41
1
10
74.2533883918459
20
3.29960863190189
30
0
41
1
10
74.2762593827933
20
3.32026520387481
30
0
0
SPLINE
5
CB
100
AcDbEntity
8
1
62
256
6
ByLayer
370
-1
48
1
60
0
100
AcDbSpline
70
4
71
3
72
12
73
8
40
0
40
0
40
0
40
0
40
0.483263508943097
40
0.483263508943097
40
0.890318766416192
40
0.890318766416192
40
1
40
1
40
1
40
1
41
1
10
73.3184963672105
20
5.00495733626553
30
0
41
1
10
73.3857632853138
20
5.01825181264357
30
0
41
1
10
73.4525752314052
20
5.04263968576944
30
0
41
1
10
73.5667726439504
20
5.10888712131441
30
0
41
1
10
73.616775628108
20
5.14829898872478
30
0
41
1
10
73.6720062679363
20
5.20813355891721
30
0
41
1
10
73.6833615289593
20
5.22149701292742
30
0
41
1
10
73.6941936120862
20
5.23537939990095
30
0
0
SPLINE
5
CC
100
AcDbEntity
8
1
62
256
6
ByLayer
370
-1
48
1
60
0
100
AcDbSpline
70
4
71
3
72
16
73
12
40
0
40
0
40
0
40
0
40
0.0694210632324102
40
0.0694210632324102
40
0.292087864368641
40
0.292087864368641
40
0.51791829633436
40
0.51791829633436
40
0.758497576948416
40
0.758497576948416
40
1
40
1
40
1
40
1
41
1
10
75.6255575662263
20
6.16281832696833
30
0
41
1
10
75.6175555448202
20
6.16750967149881
30
0
41
1
10
75.6093158666072
20
6.17180540279716
30
0
41
1
10
75.5741011737255
20
6.18799513906339
30
0
41
1
10
75.5450715098127
20
6.19603798369775
30
0
41
1
10
75.4868996876819
20
6.20272959446888
30
0
41
1
10
75.4570251593913
20
6.20135269473414
30
0
41
1
10
75.3986016444789
20
6.18972567069059
30
0
41
1
10
75.3695298397031
20
6.17878857555036
30
0
41
1
10
75.3170970391527
20
6.14945882410552
30
0
41
1
10
75.2931764264937
20
6.13076520891701
30
0
41
1
10
75.2727202872751
20
6.10947242398012
30
0
0
LINE
5
4A
100
AcDbEntity
8
80
62
256
6
ByLayer
370
-1
48
1
60
0
100
AcDbLine
10
0
20
0
30
0
11
-10
21
0
31
0
39
0
210
0
220
0
230
1
0
LINE
5
4B
100
AcDbEntity
8
1
62
256
6
ByLayer
370
-1
48
1
60
0
100
AcDbLine
10
73.807071
20
3.618213
30
0
11
73.813619
21
3.743151
31
0
39
0
210
0
220
0
230
1
0
LINE
5
4C
100
AcDbEntity
8
1
62
256
6
ByLayer
370
-1
48
1
60
0
100
AcDbLine
10
75.712952
20
3.789139
30
0
11
75.70655
21
3.666992
31
0
39
0
210
0
220
0
230
1
0
LINE
5
4D
100
AcDbEntity
8
1
62
256
6
ByLayer
370
-1
48
1
60
0
100
AcDbLine
10
77.389123
20
4.448323
30
0
11
77.395019
21
4.56083
31
0
39
0
210
0
220
0
230
1
0
LINE
5
4E
100
AcDbEntity
8
1
62
256
6
ByLayer
370
-1
48
1
60
0
100
AcDbLine
10
72.152214
20
4.835594
30
0
11
72.146318
21
4.723087
31
0
39
0
210
0
220
0
230
1
0
LINE
5
4F
100
AcDbEntity
8
1
62
256
6
ByLayer
370
-1
48
1
60
0
100
AcDbLine
10
75.734654
20
5.673102
30
0
11
75.728108
21
5.548196
31
0
39
0
210
0
220
0
230
1
0
LINE
5
50
100
AcDbEntity
8
1
62
256
6
ByLayer
370
-1
48
1
60
0
100
AcDbLine
10
73.828629
20
5.499416
30
0
11
73.83503
21
5.621567
31
0
39
0
210
0
220
0
230
1
0
LINE
5
51
100
AcDbEntity
8
SK1
62
256
6
ByLayer
370
-1
48
1
60
0
100
AcDbLine
10
-170.82
20
-9.99125
30
0
11
0
21
-9.99125
31
0
39
0
210
0
220
0
230
1
0
LINE
5
53
100
AcDbEntity
8
SK1
62
256
6
ByLayer
370
-1
48
1
60
0
100
AcDbLine
10
0
20
9.99125
30
0
11
-170.82
21
9.99125
31
0
39
0
210
0
220
0
230
1
0
LINE
5
54
100
AcDbEntity
8
SK1
62
256
6
ByLayer
370
-1
48
1
60
0
100
AcDbLine
10
-170.82
20
9.99125
30
0
11
-171.32
21
9.49125
31
0
39
0
210
0
220
0
230
1
0
LINE
5
55
100
AcDbEntity
8
SK1
62
256
6
ByLayer
370
-1
48
1
60
0
100
AcDbLine
10
-171.32
20
-9.49125
30
0
11
-170.82
21
-9.99125
31
0
39
0
210
0
220
0
230
1
0
LINE
5
56
100
AcDbEntity
8
1
62
256
6
ByLayer
370
-1
48
1
60
0
100
AcDbLine
10
0
20
-9.99125
30
0
11
70.464467
21
-9.99125
31
0
39
0
210
0
220
0
230
1
0
LINE
5
57
100
AcDbEntity
8
1
62
256
6
ByLayer
370
-1
48
1
60
0
100
AcDbLine
10
63.556986
20
9.99125
30
0
11
0
21
9.99125
31
0
39
0
210
0
220
0
230
1
0
LINE
5
58
100
AcDbEntity
8
81
62
256
6
ByLayer
370
-1
48
1
60
0
100
AcDbLine
10
79.93
20
12.9
30
0
11
89.93
21
12.9
31
0
39
0
210
0
220
0
230
1
0
LINE
5
59
100
AcDbEntity
8
SK4
62
256
6
ByLayer
370
-1
48
0.05
60
0
100
AcDbLine
10
-176.32
20
0
30
0
11
84.707612
21
0
31
0
39
0
210
0
220
0
230
1
0
LINE
5
5B
100
AcDbEntity
8
4
62
256
6
ByLayer
370
-1
48
0.05
60
0
100
AcDbLine
10
0
20
0
30
0
11
84.707612
21
0
31
0
39
0
210
0
220
0
230
1
0
LINE
5
5D
100
AcDbEntity
8
1
62
256
6
ByLayer
370
-1
48
1
60
0
100
AcDbLine
10
71.49768
20
-3.031277
30
0
11
71.505685
21
-2.878529
31
0
39
0
210
0
220
0
230
1
0
LINE
5
5E
100
AcDbEntity
8
1
62
256
6
ByLayer
370
-1
48
1
60
0
100
AcDbLine
10
69.729656
20
0.202795
30
0
11
69.762724
21
0.083279
31
0
39
0
210
0
220
0
230
1
0
LINE
5
5F
100
AcDbEntity
8
1
62
256
6
ByLayer
370
-1
48
1
60
0
100
AcDbLine
10
69.729656
20
0.202795
30
0
11
69.770309
21
0.228064
31
0
39
0
210
0
220
0
230
1
0
LINE
5
60
100
AcDbEntity
8
1
62
256
6
ByLayer
370
-1
48
1
60
0
100
AcDbLine
10
64.581138
20
9.991132
30
0
11
69.911746
21
-9.806227
31
0
39
0
210
0
220
0
230
1
0
LINE
5
61
100
AcDbEntity
8
1
62
256
6
ByLayer
370
-1
48
1
60
0
100
AcDbLine
10
70.728467
20
-9.80705
30
0
11
78.877674
21
-4.121098
31
0
39
0
210
0
220
0
230
1
0
LINE
5
62
100
AcDbEntity
8
1
62
256
6
ByLayer
370
-1
48
1
60
0
100
AcDbLine
10
69.197651
20
-2.127191
30
0
11
69.186116
21
-2.34729
31
0
39
0
210
0
220
0
230
1
0
LINE
5
63
100
AcDbEntity
8
1
62
256
6
ByLayer
370
-1
48
1
60
0
100
AcDbLine
10
70.728467
20
-9.80705
30
0
11
70.464467
21
-9.99125
31
0
39
0
210
0
220
0
230
1
0
LINE
5
64
100
AcDbEntity
8
1
62
256
6
ByLayer
370
-1
48
1
60
0
100
AcDbLine
10
0
20
-0.233436
30
0
11
0
21
0.233436
31
0
39
0
210
0
220
0
230
1
0
LINE
5
65
100
AcDbEntity
8
1
62
256
6
ByLayer
370
-1
48
1
60
0
100
AcDbLine
10
67.821514
20
7.948367
30
0
11
65.768512
21
9.991099
31
0
39
0
210
0
220
0
230
1
0
LINE
5
66
100
AcDbEntity
8
1
62
256
6
ByLayer
370
-1
48
1
60
0
100
AcDbLine
10
0
20
-0.233436
30
0
11
53.028273
21
-0.233436
31
0
39
0
210
0
220
0
230
1
0
LINE
5
67
100
AcDbEntity
8
1
62
256
6
ByLayer
370
-1
48
1
60
0
100
AcDbLine
10
52.881506
20
0.233436
30
0
11
0
21
0.233436
31
0
39
0
210
0
220
0
230
1
0
LINE
5
68
100
AcDbEntity
8
1
62
256
6
ByLayer
370
-1
48
1
60
0
100
AcDbLine
10
0
20
-9.99125
30
0
11
0
21
-0.233436
31
0
39
0
210
0
220
0
230
1
0
LINE
5
69
100
AcDbEntity
8
1
62
256
6
ByLayer
370
-1
48
1
60
0
100
AcDbLine
10
0
20
0.233436
30
0
11
0
21
9.99125
31
0
39
0
210
0
220
0
230
1
0
LINE
5
6A
100
AcDbEntity
8
1
62
256
6
ByLayer
370
-1
48
1
60
0
100
AcDbLine
10
79.176492
20
1.580677
30
0
11
78.877674
21
-4.121098
31
0
39
0
210
0
220
0
230
1
0
LINE
5
6B
100
AcDbEntity
8
SK1
62
256
6
ByLayer
370
-1
48
1
60
0
100
AcDbLine
10
0
20
0.233436
30
0
11
-60.07
21
0.233436
31
0
39
0
210
0
220
0
230
1
0
LINE
5
6C
100
AcDbEntity
8
SK1
62
256
6
ByLayer
370
-1
48
1
60
0
100
AcDbLine
10
0
20
-9.99125
30
0
11
0
21
-0.233436
31
0
39
0
210
0
220
0
230
1
0
LINE
5
6D
100
AcDbEntity
8
SK1
62
256
6
ByLayer
370
-1
48
1
60
0
100
AcDbLine
10
0
20
0.233436
30
0
11
0
21
9.99125
31
0
39
0
210
0
220
0
230
1
0
LINE
5
6E
100
AcDbEntity
8
SK1
62
256
6
ByLayer
370
-1
48
1
60
0
100
AcDbLine
10
0
20
-0.233436
30
0
11
0
21
0.233436
31
0
39
0
210
0
220
0
230
1
0
LINE
5
6F
100
AcDbEntity
8
SK1
62
256
6
ByLayer
370
-1
48
1
60
0
100
AcDbLine
10
-170.82
20
-9.99125
30
0
11
-170.82
21
9.99125
31
0
39
0
210
0
220
0
230
1
0
LINE
5
70
100
AcDbEntity
8
SK1
62
256
6
ByLayer
370
-1
48
1
60
0
100
AcDbLine
10
-171.32
20
-9.49125
30
0
11
-171.32
21
9.49125
31
0
39
0
210
0
220
0
230
1
0
LINE
5
71
100
AcDbEntity
8
SK1
62
256
6
ByLayer
370
-1
48
1
60
0
100
AcDbLine
10
-60.07
20
-0.233436
30
0
11
-60.07
21
0.233436
31
0
39
0
210
0
220
0
230
1
0
LINE
5
72
100
AcDbEntity
8
SK1
62
256
6
ByLayer
370
-1
48
1
60
0
100
AcDbLine
10
-60.07
20
-0.233436
30
0
11
0
21
-0.233436
31
0
39
0
210
0
220
0
230
1
0
LINE
5
73
100
AcDbEntity
8
1
62
256
6
ByLayer
370
-1
48
1
60
0
100
AcDbLine
10
70.127556
20
7.044704
30
0
11
69.623009
21
-2.582626
31
0
39
0
210
0
220
0
230
1
0
LINE
5
74
100
AcDbEntity
8
1
62
256
6
ByLayer
370
-1
48
1
60
0
100
AcDbLine
10
78.715059
20
12.779851
30
0
11
70.49954
21
7.673231
31
0
39
0
210
0
220
0
230
1
0
LINE
5
75
100
AcDbEntity
8
1
62
256
6
ByLayer
370
-1
48
1
60
0
100
AcDbLine
10
79.424351
20
2.440883
30
0
11
79.928898
21
12.068213
31
0
39
0
210
0
220
0
230
1
0
LINE
5
76
100
AcDbEntity
8
1
62
256
6
ByLayer
370
-1
48
1
60
0
100
AcDbLine
10
70.836848
20
-3.294264
30
0
11
79.052366
21
1.812355
31
0
39
0
210
0
220
0
230
1
0
LINE
5
77
100
AcDbEntity
8
1
62
256
6
ByLayer
370
-1
48
1
60
0
100
AcDbLine
10
73.694194
20
5.235379
30
0
11
73.688145
21
5.119963
31
0
39
0
210
0
220
0
230
1
0
LINE
5
78
100
AcDbEntity
8
1
62
256
6
ByLayer
370
-1
48
1
60
0
100
AcDbLine
10
73.772582
20
5.262634
30
0
11
73.778631
21
5.37805
31
0
39
0
210
0
220
0
230
1
0
LINE
5
79
100
AcDbEntity
8
1
62
256
6
ByLayer
370
-1
48
1
60
0
100
AcDbLine
10
75.728535
20
3.456494
30
0
11
75.735426
21
3.587984
31
0
39
0
210
0
220
0
230
1
0
LINE
5
7A
100
AcDbEntity
8
1
62
256
6
ByLayer
370
-1
48
1
60
0
100
AcDbLine
10
76.23001
20
4.85461
30
0
11
76.236911
21
4.986274
31
0
39
0
210
0
220
0
230
1
0
LINE
5
7B
100
AcDbEntity
8
1
62
256
6
ByLayer
370
-1
48
1
60
0
100
AcDbLine
10
75.26582
20
5.977808
30
0
11
75.27272
21
6.109472
31
0
39
0
210
0
220
0
230
1
0
LINE
5
7C
100
AcDbEntity
8
1
62
256
6
ByLayer
370
-1
48
1
60
0
100
AcDbLine
10
74.297096
20
5.987819
30
0
11
74.303997
21
6.119484
31
0
39
0
210
0
220
0
230
1
0
LINE
5
7D
100
AcDbEntity
8
1
62
256
6
ByLayer
370
-1
48
1
60
0
100
AcDbLine
10
73.311605
20
4.873467
30
0
11
73.318496
21
5.004957
31
0
39
0
210
0
220
0
230
1
0
LINE
5
7E
100
AcDbEntity
8
1
62
256
6
ByLayer
370
-1
48
1
60
0
100
AcDbLine
10
73.785084
20
3.501467
30
0
11
73.790512
21
3.605044
31
0
39
0
210
0
220
0
230
1
0
LINE
5
7F
100
AcDbEntity
8
2
62
256
6
ByLayer
370
-1
48
1
60
1
100
AcDbLine
10
79.93
20
0
30
0
11
79.931
21
0.001
31
0
39
0
210
0
220
0
230
1
0
MTEXT
5
CD
100
AcDbEntity
8
SK6
62
256
6
ByLayer
370
-1
48
1
60
0
100
AcDbMText
10
-42.32
20
-22.320625
30
0
210
0
220
0
230
1
1
\W00.730;\fsimplex.shx,bigfont.shx;A20S-SDUCR 11-R 
40
3.5
41
0
44
1.084337
50
0
71
7
72
5
7
DEFAULT
0
DIMENSION
5
100
100
AcDbEntity
8
2
62
256
6
ByLayer
370
-3
48
1
60
0
100
AcDbDimension
2
DimnDraft3D1
10
92.18
20
0
30
0
11
92.18
21
23.155
31
0
70
32
71
5
72
1
41
1
210
0
220
0
230
1
3
Standard
100
AcDbAlignedDimension
13
81.93
23
12.9
33
0
14
81.93
24
0
34
0
50
90
100
AcDbRotatedDimension
1001
ACAD
1000
DSTYLE
1002
{
1070
    74
1070
     0
1070
   279
1070
     0
1070
   172
1070
     1
1070
   173
1070
     1
1070
   340
1005
CE
1070
    77
1070
     1
1070
    73
1070
     0
1070
   171
1070
     4
1070
   274
1070
     4
1070
   177
1070
     2
1070
   176
1070
     2
1070
   178
1070
     7
1070
    78
1070
     8
1070
    41
1041
3.175
1070
   147
1041
2.25
1070
    42
1041
2.0
1070
    44
1041
2.0
1070
   140
1041
4.5
1070
   343
1005
101
1070
   344
1005
101
1002
}
0
DIMENSION
5
116
100
AcDbEntity
8
SK2
62
256
6
ByLayer
370
-3
48
1
60
0
100
AcDbDimension
2
DimnDraft3D2
10
-181.07
20
9.99125
30
0
11
-181.07
21
-4.784211
31
0
70
32
71
5
72
1
41
1
210
0
220
0
230
1
3
Standard
100
AcDbAlignedDimension
13
-173.32
23
-9.99125
33
0
14
-173.32
24
9.99125
34
0
50
90
100
AcDbRotatedDimension
1001
ACAD
1000
DSTYLE
1002
{
1070
    74
1070
     0
1070
   279
1070
     0
1070
   172
1070
     1
1070
   173
1070
     1
1070
   340
1005
CE
1070
    77
1070
     1
1070
    73
1070
     0
1070
   171
1070
     4
1070
   274
1070
     4
1070
   177
1070
     2
1070
   176
1070
     2
1070
   178
1070
     7
1070
    78
1070
     8
1070
    41
1041
3.175
1070
   147
1041
2.25
1070
    42
1041
2.0
1070
    44
1041
2.0
1070
   140
1041
4.5
1070
   343
1005
101
1070
   344
1005
101
1002
}
0
DIMENSION
5
124
100
AcDbEntity
8
SK2
62
256
6
ByLayer
370
-3
48
1
60
0
100
AcDbDimension
2
DimnDraft3D3
10
-171.32
20
25.65
30
0
11
-52.510132
21
25.65
31
0
70
32
71
5
72
1
41
1
210
0
220
0
230
1
3
Standard
100
AcDbAlignedDimension
13
79.93
23
14.9
33
0
14
-171.32
24
11.99125
34
0
50
0
100
AcDbRotatedDimension
1001
ACAD
1000
DSTYLE
1002
{
1070
   279
1070
     0
1070
   172
1070
     1
1070
   173
1070
     1
1070
   340
1005
CE
1070
    77
1070
     1
1070
    73
1070
     0
1070
   171
1070
     4
1070
   274
1070
     4
1070
   177
1070
     2
1070
   176
1070
     2
1070
   178
1070
     7
1070
    78
1070
     8
1070
    41
1041
3.175
1070
   147
1041
2.25
1070
    42
1041
2.0
1070
    44
1041
2.0
1070
   140
1041
4.5
1070
   343
1005
101
1070
   344
1005
101
1002
}
0
DIMENSION
5
132
100
AcDbEntity
8
2
62
256
6
ByLayer
370
-3
48
1
60
0
100
AcDbDimension
2
DimnDraft3D4
10
128.180347
20
0
30
0
11
105.38575
21
-36.792664
31
0
70
34
71
5
72
1
41
1
210
0
220
0
230
1
3
Standard
100
AcDb2LineAngularDimension
13
79.249633
23
-0.082184
33
0
14
76.693329
24
-48.859355
34
0
15
81.93
25
0
35
0
16
108.458351
26
-30.775028
36
0
40
0
0
ENDSEC
0
SECTION
2
OBJECTS
0
DICTIONARY
5
163
330
0
100
AcDbDictionary
280
0
281
1
3
ACAD_GROUP
350
164
3
ACAD_MLINESTYLE
350
165
0
DICTIONARY
5
164
330
0
100
AcDbDictionary
280
0
281
1
0
DICTIONARY
5
165
330
0
100
AcDbDictionary
280
0
281
1
3
Standard
350
18
0
MLINESTYLE
5
18
330
165
100
AcDbMlineStyle
2
Standard
70
0
3

62
256
51
90
52
90
71
2
49
-0.5
62
256
6
ByLayer
49
0.5
62
256
6
ByLayer
0
RASTERVARIABLES
5
151
330

100
AcDbRasterVariables
90
0
70
1
71
1
72
1
0
ENDSEC
0
EOF
