0
SECTION
2
HEADER
9
$ACADVER
1
AC1015
9
$DWGCODEPAGE
3
ANSI_1252
9
$HANDSEED
5
18c
9
$ANGBASE
50
0
9
$ANGDIR
70
0
9
$ATTMODE
70
1
9
$AUNITS
70
0
9
$AUPREC
70
0
9
$CECOLOR
62
256
9
$CELTSCALE
40
1
9
$CELTYPE
6
ByLayer
9
$CELWEIGHT
370
-1
9
$CLAYER
8
0
9
$CMLJUST
70
0
9
$CMLSCALE
40
1
9
$CMLSTYLE
2
Standard
9
$DIMSTYLE
2
Standard
9
$TEXTSIZE
40
0.2
9
$TEXTSTYLE
7
Standard
9
$LUNITS
70
2
9
$LUPREC
70
4
9
$EXTNAMES
290
1
9
$INSUNITS
70
4
9
$LTSCALE
40
1
9
$LWDISPLAY
290
0
9
$PDMODE
70
0
9
$PDSIZE
40
0
9
$PLINEGEN
70
0
0
ENDSEC
0
SECTION
2
CLASSES
0
CLASS
1
RASTERVARIABLES
2
AcDbRasterVariables
3
ISM
90
0
280
0
281
0
0
ENDSEC
0
SECTION
2
TABLES
0
TABLE
2
VPORT
5
182
100
AcDbSymbolTable
0
VPORT
5
1
100
AcDbSymbolTableRecord
100
AcDbViewportTableRecord
2
*Active
70
0
10
0
20
0
11
1
21
1
12
-1
22
1
13
0
23
0
14
0.5
24
0.5
15
10
25
10
16
0
26
0
36
1
17
0
27
0
37
0
0
ENDTAB
0
TABLE
2
LTYPE
5
183
100
AcDbSymbolTable
0
LTYPE
5
14
100
AcDbSymbolTableRecord
100
AcDbLinetypeTableRecord
70
0
2
ByBlock
3

72
65
73
0
40
0
0
LTYPE
5
15
100
AcDbSymbolTableRecord
100
AcDbLinetypeTableRecord
70
0
2
ByLayer
3

72
65
73
0
40
0
0
LTYPE
5
16
100
AcDbSymbolTableRecord
100
AcDbLinetypeTableRecord
70
0
2
CONTINUOUS
3
Solid line
72
65
73
0
40
0
0
LTYPE
5
3B
100
AcDbSymbolTableRecord
100
AcDbLinetypeTableRecord
70
0
2
DASHED
3
__ __ __ __ __ __ __ __ __
72
65
73
2
40
25.72
49
12.86
74
0
49
-12.86
74
0
0
LTYPE
5
3C
100
AcDbSymbolTableRecord
100
AcDbLinetypeTableRecord
70
0
2
HIDDEN
3
_ _ _ _ _ _ _ _ _ _ _ _ _ _ _
72
65
73
2
40
0.5
49
0.25
74
0
49
-0.25
74
0
0
LTYPE
5
3D
100
AcDbSymbolTableRecord
100
AcDbLinetypeTableRecord
70
0
2
PHANTOM
3
____ _ _ ____ _ _ _____ _ _ ____
72
65
73
6
40
50.5
49
18
74
0
49
-6.5
74
0
49
6.5
74
0
49
-6.5
74
0
49
6.5
74
0
49
-6.5
74
0
0
LTYPE
5
3E
100
AcDbSymbolTableRecord
100
AcDbLinetypeTableRecord
70
0
2
CENTER
3
____ _ ____ _ ____ _ ____
72
65
73
4
40
47.5
49
22
74
0
49
-8.5
74
0
49
8.5
74
0
49
-8.5
74
0
0
LTYPE
5
3F
100
AcDbSymbolTableRecord
100
AcDbLinetypeTableRecord
70
0
2
DOT
3
.........................
72
65
73
2
40
10
49
0
74
0
49
-10
74
0
0
LTYPE
5
40
100
AcDbSymbolTableRecord
100
AcDbLinetypeTableRecord
70
0
2
DASHDOT
3
_._._._._._._._._._._._._._._._.
72
65
73
4
40
70
49
31
74
0
49
-13
74
0
49
13
74
0
49
-13
74
0
0
ENDTAB
0
TABLE
2
LAYER
5
184
100
AcDbSymbolTable
0
LAYER
5
10
100
AcDbSymbolTableRecord
100
AcDbLayerTableRecord
2
0
70
0
62
7
6
CONTINUOUS
290
1
370
-3
390
0
0
LAYER
5
42
100
AcDbSymbolTableRecord
100
AcDbLayerTableRecord
2
80
70
0
62
-6
6
CONTINUOUS
290
1
370
-3
390
0
0
LAYER
5
44
100
AcDbSymbolTableRecord
100
AcDbLayerTableRecord
2
81
70
0
62
-3
6
CONTINUOUS
290
1
370
-3
390
0
0
LAYER
5
46
100
AcDbSymbolTableRecord
100
AcDbLayerTableRecord
2
1
70
0
62
4
6
CONTINUOUS
290
1
370
-3
390
0
0
LAYER
5
48
100
AcDbSymbolTableRecord
100
AcDbLayerTableRecord
2
2
70
0
62
7
6
CONTINUOUS
290
1
370
-3
390
0
0
LAYER
5
4F
100
AcDbSymbolTableRecord
100
AcDbLayerTableRecord
2
4
70
0
62
-2
6
CENTER
290
1
370
-3
390
0
0
LAYER
5
16e
100
AcDbSymbolTableRecord
100
AcDbLayerTableRecord
2
SK4
70
0
62
2
6
CENTER
290
1
370
-3
390
0
0
LAYER
5
16f
100
AcDbSymbolTableRecord
100
AcDbLayerTableRecord
2
SK1
70
0
62
4
6
CONTINUOUS
290
1
370
-3
390
0
0
LAYER
5
170
100
AcDbSymbolTableRecord
100
AcDbLayerTableRecord
2
SK6
70
0
62
5
6
CONTINUOUS
290
1
370
-3
390
0
0
LAYER
5
171
100
AcDbSymbolTableRecord
100
AcDbLayerTableRecord
2
SK2
70
0
62
7
6
CONTINUOUS
290
1
370
-3
390
0
0
ENDTAB
0
TABLE
2
STYLE
5
185
100
AcDbSymbolTable
0
STYLE
5
11
100
AcDbSymbolTableRecord
100
AcDbTextStyleTableRecord
2
Standard
3
txt
70
0
71
0
40
0
41
1
42
0
50
0
0
STYLE
5
EA
100
AcDbSymbolTableRecord
100
AcDbTextStyleTableRecord
2
DEFAULT
3
simplex.shx
70
0
71
0
40
0
41
1
42
0
50
0
0
STYLE
5
10D
100
AcDbSymbolTableRecord
100
AcDbTextStyleTableRecord
2
DWGDirectTextStyle
3
SIMPLEX
70
0
71
0
40
0
41
1
42
0
50
0
0
ENDTAB
0
TABLE
2
DIMSTYLE
5
186
100
AcDbSymbolTable
100
AcDbDimStyleTable
0
DIMSTYLE
105
27
100
AcDbSymbolTableRecord
100
AcDbDimStyleTableRecord
2
Standard
70
0
3
<>
41
0.18
42
0.0625
44
0.18
140
0.18
147
0.09
73
0
74
0
77
1
271
2
275
0
278
52
280
0
340
11
0
ENDTAB
0
TABLE
2
VIEW
5
187
100
AcDbSymbolTable
0
ENDTAB
0
TABLE
2
UCS
5
188
100
AcDbSymbolTable
0
ENDTAB
0
TABLE
2
APPID
5
189
100
AcDbSymbolTable
0
APPID
5
12
100
AcDbSymbolTableRecord
100
AcDbRegAppTableRecord
2
ACAD
70
0
0
ENDTAB
0
TABLE
2
BLOCK_RECORD
5
18a
100
AcDbSymbolTable
0
BLOCK_RECORD
5
1F
100
AcDbSymbolTableRecord
100
AcDbBlockTableRecord
2
*Model_Space
340
0
70
0
0
BLOCK_RECORD
5
1B
100
AcDbSymbolTableRecord
100
AcDbBlockTableRecord
2
*Paper_Space
340
0
70
0
0
BLOCK_RECORD
5
23
100
AcDbSymbolTableRecord
100
AcDbBlockTableRecord
2
*Paper_Space0
340
0
70
0
0
BLOCK_RECORD
5
10F
100
AcDbSymbolTableRecord
100
AcDbBlockTableRecord
2
DimnDraft3D1
340
0
70
0
0
BLOCK_RECORD
5
11D
100
AcDbSymbolTableRecord
100
AcDbBlockTableRecord
2
_CLOSED
340
0
70
0
0
BLOCK_RECORD
5
124
100
AcDbSymbolTableRecord
100
AcDbBlockTableRecord
2
DimnDraft3D2
340
0
70
0
0
BLOCK_RECORD
5
133
100
AcDbSymbolTableRecord
100
AcDbBlockTableRecord
2
DimnDraft3D3
340
0
70
0
0
BLOCK_RECORD
5
141
100
AcDbSymbolTableRecord
100
AcDbBlockTableRecord
2
DimnDraft3D4
340
0
70
0
0
ENDTAB
0
ENDSEC
0
SECTION
2
BLOCKS
0
BLOCK
5
20
100
AcDbEntity
8
0
100
AcDbBlockBegin
2
*Model_Space
70
0
10
0
20
0
30
0
3
*Model_Space
0
ENDBLK
5
21
100
AcDbEntity
8
0
100
AcDbBlockEnd
0
BLOCK
5
1C
100
AcDbEntity
8
0
100
AcDbBlockBegin
2
*Paper_Space
70
0
10
0
20
0
30
0
3
*Paper_Space
0
ENDBLK
5
1D
100
AcDbEntity
8
0
100
AcDbBlockEnd
0
BLOCK
5
24
100
AcDbEntity
8
0
100
AcDbBlockBegin
2
*Paper_Space0
70
0
10
0
20
0
30
0
3
*Paper_Space0
0
ENDBLK
5
25
100
AcDbEntity
8
0
100
AcDbBlockEnd
0
BLOCK
5
11A
100
AcDbEntity
8
0
100
AcDbBlockBegin
2
DimnDraft3D1
70
0
10
0
20
0
30
0
3
DimnDraft3D1
0
MTEXT
5
110
100
AcDbEntity
8
2
62
256
6
ByLayer
370
-1
48
1
60
0
100
AcDbMText
10
91.055
20
-31.231316
30
0
210
0
220
0
230
1
1
\W01.000;\fsimplex.shx,bigfont.shx;13.0 
40
4.5
41
0
44
1.084337
50
90
71
7
72
5
7
DEFAULT
0
LINE
5
111
100
AcDbEntity
8
2
62
256
6
ByLayer
370
-1
48
1
60
0
100
AcDbLine
10
81.93
20
-12.9
30
0
11
94.18
21
-12.9
31
0
39
0
210
0
220
0
230
1
0
LINE
5
112
100
AcDbEntity
8
2
62
256
6
ByLayer
370
-1
48
1
60
0
100
AcDbLine
10
81.93
20
0
30
0
11
94.18
21
0
31
0
39
0
210
0
220
0
230
1
0
LINE
5
113
100
AcDbEntity
8
2
62
256
6
ByLayer
370
-1
48
1
60
0
100
AcDbLine
10
92.18
20
0
30
0
11
92.18
21
-32.356316
31
0
39
0
210
0
220
0
230
1
0
LINE
5
114
100
AcDbEntity
8
2
62
256
6
ByLayer
370
-1
48
1
60
0
100
AcDbLine
10
92.18
20
-12.9
30
0
11
91.762003
21
-9.725002
31
0
39
0
210
0
220
0
230
1
0
LINE
5
115
100
AcDbEntity
8
2
62
256
6
ByLayer
370
-1
48
1
60
0
100
AcDbLine
10
92.18
20
-12.9
30
0
11
92.597997
21
-9.724998
31
0
39
0
210
0
220
0
230
1
0
LINE
5
116
100
AcDbEntity
8
2
62
256
6
ByLayer
370
-1
48
1
60
0
100
AcDbLine
10
91.762003
20
-9.725002
30
0
11
92.597997
21
-9.724998
31
0
39
0
210
0
220
0
230
1
0
LINE
5
117
100
AcDbEntity
8
2
62
256
6
ByLayer
370
-1
48
1
60
0
100
AcDbLine
10
92.18
20
0
30
0
11
92.597997
21
-3.174998
31
0
39
0
210
0
220
0
230
1
0
LINE
5
118
100
AcDbEntity
8
2
62
256
6
ByLayer
370
-1
48
1
60
0
100
AcDbLine
10
92.18
20
0
30
0
11
91.762003
21
-3.175002
31
0
39
0
210
0
220
0
230
1
0
LINE
5
119
100
AcDbEntity
8
2
62
256
6
ByLayer
370
-1
48
1
60
0
100
AcDbLine
10
92.597997
20
-3.174998
30
0
11
91.762003
21
-3.175002
31
0
39
0
210
0
220
0
230
1
0
ENDBLK
5
11B
100
AcDbEntity
8
0
100
AcDbBlockEnd
0
BLOCK
5
11E
100
AcDbEntity
8
0
100
AcDbBlockBegin
2
_CLOSED
70
0
10
0
20
0
30
0
3
_CLOSED
0
LINE
5
120
100
AcDbEntity
8
0
62
256
6
ByLayer
370
-2
48
1
60
0
100
AcDbLine
10
-1
20
0.166667
30
0
11
0
21
0
31
0
39
0
210
0
220
0
230
1
0
LINE
5
121
100
AcDbEntity
8
0
62
256
6
ByLayer
370
-2
48
1
60
0
100
AcDbLine
10
0
20
0
30
0
11
-1
21
-0.166667
31
0
39
0
210
0
220
0
230
1
0
LINE
5
122
100
AcDbEntity
8
0
62
256
6
ByLayer
370
-2
48
1
60
0
100
AcDbLine
10
-1
20
0.166667
30
0
11
-1
21
-0.166667
31
0
39
0
210
0
220
0
230
1
0
LINE
5
123
100
AcDbEntity
8
0
62
256
6
ByLayer
370
-2
48
1
60
0
100
AcDbLine
10
0
20
0
30
0
11
-1
21
0
31
0
39
0
210
0
220
0
230
1
0
ENDBLK
5
11F
100
AcDbEntity
8
0
100
AcDbBlockEnd
0
BLOCK
5
130
100
AcDbEntity
8
0
100
AcDbBlockBegin
2
DimnDraft3D2
70
0
10
0
20
0
30
0
3
DimnDraft3D2
0
MTEXT
5
125
100
AcDbEntity
8
SK2
62
256
6
ByLayer
370
-1
48
1
60
0
100
AcDbMText
10
-182.195
20
-3.659211
30
0
210
0
220
0
230
1
1
\W01.000;\fsimplex.shx,bigfont.shx;%%c20 
40
4.5
41
0
44
1.084337
50
90
71
7
72
5
7
DEFAULT
0
LINE
5
127
100
AcDbEntity
8
SK2
62
256
6
ByLayer
370
-1
48
1
60
0
100
AcDbLine
10
-173.32
20
-9.99125
30
0
11
-183.07
21
-9.99125
31
0
39
0
210
0
220
0
230
1
0
LINE
5
128
100
AcDbEntity
8
SK2
62
256
6
ByLayer
370
-1
48
1
60
0
100
AcDbLine
10
-173.32
20
9.99125
30
0
11
-183.07
21
9.99125
31
0
39
0
210
0
220
0
230
1
0
LINE
5
129
100
AcDbEntity
8
SK2
62
256
6
ByLayer
370
-1
48
1
60
0
100
AcDbLine
10
-181.07
20
-9.99125
30
0
11
-181.07
21
9.99125
31
0
39
0
210
0
220
0
230
1
0
LINE
5
12A
100
AcDbEntity
8
SK2
62
256
6
ByLayer
370
-1
48
1
60
0
100
AcDbLine
10
-181.07
20
-9.99125
30
0
11
-181.487997
21
-6.816252
31
0
39
0
210
0
220
0
230
1
0
LINE
5
12B
100
AcDbEntity
8
SK2
62
256
6
ByLayer
370
-1
48
1
60
0
100
AcDbLine
10
-181.07
20
-9.99125
30
0
11
-180.652003
21
-6.816248
31
0
39
0
210
0
220
0
230
1
0
LINE
5
12C
100
AcDbEntity
8
SK2
62
256
6
ByLayer
370
-1
48
1
60
0
100
AcDbLine
10
-181.487997
20
-6.816252
30
0
11
-180.652003
21
-6.816248
31
0
39
0
210
0
220
0
230
1
0
LINE
5
12D
100
AcDbEntity
8
SK2
62
256
6
ByLayer
370
-1
48
1
60
0
100
AcDbLine
10
-181.07
20
9.99125
30
0
11
-180.652003
21
6.816252
31
0
39
0
210
0
220
0
230
1
0
LINE
5
12E
100
AcDbEntity
8
SK2
62
256
6
ByLayer
370
-1
48
1
60
0
100
AcDbLine
10
-181.07
20
9.99125
30
0
11
-181.487997
21
6.816248
31
0
39
0
210
0
220
0
230
1
0
LINE
5
12F
100
AcDbEntity
8
SK2
62
256
6
ByLayer
370
-1
48
1
60
0
100
AcDbLine
10
-180.652003
20
6.816252
30
0
11
-181.487997
21
6.816248
31
0
39
0
210
0
220
0
230
1
0
ENDBLK
5
131
100
AcDbEntity
8
0
100
AcDbBlockEnd
0
BLOCK
5
13E
100
AcDbEntity
8
0
100
AcDbBlockBegin
2
DimnDraft3D3
70
0
10
0
20
0
30
0
3
DimnDraft3D3
0
MTEXT
5
134
100
AcDbEntity
8
SK2
62
256
6
ByLayer
370
-1
48
1
60
0
100
AcDbMText
10
-51.385132
20
-29.025
30
0
210
0
220
0
230
1
1
\W01.000;\fsimplex.shx,bigfont.shx;250.0 
40
4.5
41
0
44
1.084337
50
0
71
7
72
5
7
DEFAULT
0
LINE
5
135
100
AcDbEntity
8
SK2
62
256
6
ByLayer
370
-1
48
1
60
0
100
AcDbLine
10
-171.32
20
-11.99125
30
0
11
-171.32
21
-32.15
31
0
39
0
210
0
220
0
230
1
0
LINE
5
136
100
AcDbEntity
8
SK2
62
256
6
ByLayer
370
-1
48
1
60
0
100
AcDbLine
10
79.93
20
-14.9
30
0
11
79.93
21
-32.15
31
0
39
0
210
0
220
0
230
1
0
LINE
5
137
100
AcDbEntity
8
SK2
62
256
6
ByLayer
370
-1
48
1
60
0
100
AcDbLine
10
-171.32
20
-30.15
30
0
11
79.93
21
-30.15
31
0
39
0
210
0
220
0
230
1
0
LINE
5
138
100
AcDbEntity
8
SK2
62
256
6
ByLayer
370
-1
48
1
60
0
100
AcDbLine
10
-171.32
20
-30.15
30
0
11
-168.145002
21
-29.732003
31
0
39
0
210
0
220
0
230
1
0
LINE
5
139
100
AcDbEntity
8
SK2
62
256
6
ByLayer
370
-1
48
1
60
0
100
AcDbLine
10
-171.32
20
-30.15
30
0
11
-168.144998
21
-30.567997
31
0
39
0
210
0
220
0
230
1
0
LINE
5
13A
100
AcDbEntity
8
SK2
62
256
6
ByLayer
370
-1
48
1
60
0
100
AcDbLine
10
-168.145002
20
-29.732003
30
0
11
-168.144998
21
-30.567997
31
0
39
0
210
0
220
0
230
1
0
LINE
5
13B
100
AcDbEntity
8
SK2
62
256
6
ByLayer
370
-1
48
1
60
0
100
AcDbLine
10
79.93
20
-30.15
30
0
11
76.755002
21
-30.567997
31
0
39
0
210
0
220
0
230
1
0
LINE
5
13C
100
AcDbEntity
8
SK2
62
256
6
ByLayer
370
-1
48
1
60
0
100
AcDbLine
10
79.93
20
-30.15
30
0
11
76.754998
21
-29.732003
31
0
39
0
210
0
220
0
230
1
0
LINE
5
13D
100
AcDbEntity
8
SK2
62
256
6
ByLayer
370
-1
48
1
60
0
100
AcDbLine
10
76.755002
20
-30.567997
30
0
11
76.754998
21
-29.732003
31
0
39
0
210
0
220
0
230
1
0
ENDBLK
5
13F
100
AcDbEntity
8
0
100
AcDbBlockEnd
0
BLOCK
5
14C
100
AcDbEntity
8
0
100
AcDbBlockBegin
2
DimnDraft3D4
70
0
10
0
20
0
30
0
3
DimnDraft3D4
0
MTEXT
5
142
100
AcDbEntity
8
2
62
256
6
ByLayer
370
-1
48
1
60
0
100
AcDbMText
10
102.329802
20
31.938034
30
0
210
0
220
0
230
1
1
\W01.000;\fsimplex.shx,bigfont.shx;93%%d0' 
40
4.5
41
0
44
1.084337
50
316.5
71
7
72
5
7
DEFAULT
0
LINE
5
143
100
AcDbEntity
8
2
62
256
6
ByLayer
370
-1
48
1
60
0
100
AcDbLine
10
79.249633
20
0.082184
30
0
11
77.164353
21
39.871689
31
0
39
0
210
0
220
0
230
1
0
LINE
5
144
100
AcDbEntity
8
2
62
256
6
ByLayer
370
-1
48
1
60
0
100
AcDbLine
10
81.93
20
0
30
0
11
119.180346
21
0
31
0
39
0
210
0
220
0
230
1
0
ARC
5
145
100
AcDbEntity
8
2
62
256
6
ByLayer
370
-1
48
1
60
0
100
AcDbCircle
39
0
10
79.25394
20
0
30
0
40
37.9264068640928
210
0
220
0
230
1
100
AcDbArc
50
0
51
93
0
LINE
5
146
100
AcDbEntity
8
2
62
256
6
ByLayer
370
-1
48
1
60
0
100
AcDbLine
10
77.269025
20
37.87443
30
0
11
80.429313
21
38.392036
31
0
39
0
210
0
220
0
230
1
0
LINE
5
147
100
AcDbEntity
8
2
62
256
6
ByLayer
370
-1
48
1
60
0
100
AcDbLine
10
77.269025
20
37.87443
30
0
11
80.455598
21
37.556456
31
0
39
0
210
0
220
0
230
1
0
LINE
5
148
100
AcDbEntity
8
2
62
256
6
ByLayer
370
-1
48
1
60
0
100
AcDbLine
10
80.429313
20
38.392036
30
0
11
80.455598
21
37.556456
31
0
39
0
210
0
220
0
230
1
0
LINE
5
149
100
AcDbEntity
8
2
62
256
6
ByLayer
370
-1
48
1
60
0
100
AcDbLine
10
117.180347
20
0
30
0
11
116.696036
21
3.165562
31
0
39
0
210
0
220
0
230
1
0
LINE
5
14A
100
AcDbEntity
8
2
62
256
6
ByLayer
370
-1
48
1
60
0
100
AcDbLine
10
117.180347
20
0
30
0
11
117.531847
21
3.183049
31
0
39
0
210
0
220
0
230
1
0
LINE
5
14B
100
AcDbEntity
8
2
62
256
6
ByLayer
370
-1
48
1
60
0
100
AcDbLine
10
116.696036
20
3.165562
30
0
11
117.531847
21
3.183049
31
0
39
0
210
0
220
0
230
1
0
ENDBLK
5
14D
100
AcDbEntity
8
0
100
AcDbBlockEnd
0
ENDSEC
0
SECTION
2
ENTITIES
0
ELLIPSE
5
8C
100
AcDbEntity
8
1
62
256
6
ByLayer
370
-1
48
1
60
0
100
AcDbEllipse
10
54.752524
20
-16.594753
30
0
11
8.58821399888934
21
0.450089223689284
31
0
210
0
220
0
230
1
40
0.994969
41
1.51817218830003
42
1.85145355014117
0
ELLIPSE
5
8D
100
AcDbEntity
8
1
62
256
6
ByLayer
370
-1
48
1
60
0
100
AcDbEllipse
10
54.765447
20
-8.197972
30
0
11
9.79685083057902E-17
21
1.6
31
0
210
0
220
0
230
1
40
0.00527
41
0.819120553791472
42
1.47058388292052
0
ELLIPSE
5
8E
100
AcDbEntity
8
1
62
256
6
ByLayer
370
-1
48
1
60
0
100
AcDbEllipse
10
70.106547
20
3.185215
30
0
11
-1.49794430213186
21
-0.0785039343644106
31
0
210
0
220
0
230
1
40
0.994969
41
2.84373538192867
42
0.770808716976169
0
ELLIPSE
5
8F
100
AcDbEntity
8
1
62
256
6
ByLayer
370
-1
48
1
60
0
100
AcDbEllipse
10
62.513136
20
-4.853955
30
0
11
-3.19561451121464
21
-0.16747505997741
31
0
210
0
220
0
230
1
40
0.994969
41
1.51817218830002
42
2.66162710929134
0
ELLIPSE
5
90
100
AcDbEntity
8
1
62
256
6
ByLayer
370
-1
48
1
60
0
100
AcDbEllipse
10
62.548826
20
-5.534955
30
0
11
1.33659767045035
21
0.906732034218453
31
0
210
0
220
0
230
-1
40
0.964523
41
1.00782368146497
42
2.1512786024577
0
ELLIPSE
5
91
100
AcDbEntity
8
1
62
256
6
ByLayer
370
-1
48
1
60
0
100
AcDbEllipse
10
65.523408
20
1.537055
30
0
11
1.59780725560732
21
0.0837375299887041
31
0
210
0
220
0
230
1
40
0.994969
41
-7.7600787700546E-06
42
0.463382686839912
0
ELLIPSE
5
92
100
AcDbEntity
8
1
62
256
6
ByLayer
370
-1
48
1
60
0
100
AcDbEllipse
10
70.084526
20
3.605404
30
0
11
1.49794430213186
21
0.0785039343644101
31
0
210
0
220
0
230
1
40
0.994969
41
-3.00012520838639
42
-1.92079207883178
0
ELLIPSE
5
93
100
AcDbEntity
8
1
62
256
6
ByLayer
370
-1
48
1
60
0
100
AcDbEllipse
10
70.084526
20
3.605404
30
0
11
1.49794430213186
21
0.0785039343644101
31
0
210
0
220
0
230
1
40
0.994969
41
-0.521801694501432
42
-0.141374506955961
0
ELLIPSE
5
94
100
AcDbEntity
8
1
62
256
6
ByLayer
370
-1
48
1
60
0
100
AcDbEllipse
10
70.670564
20
1.295067
30
0
11
1.77240405798873
21
0.0928877606714334
31
0
210
0
220
0
230
1
40
0.994969
41
2.62171267453888
42
-2.1816615649929
0
ELLIPSE
5
95
100
AcDbEntity
8
1
62
256
6
ByLayer
370
-1
48
1
60
0
100
AcDbEllipse
10
65.515019
20
1.697127
30
0
11
-3.19561451121464
21
-0.16747505997741
31
0
210
0
220
0
230
1
40
0.994969
41
2.66162710929135
42
-2.67820996674988
0
ELLIPSE
5
96
100
AcDbEntity
8
1
62
256
6
ByLayer
370
-1
48
1
60
0
100
AcDbEllipse
10
246.095516
20
-0.006811
30
0
11
1906.23181860579
21
0.999320778565382
31
0
210
0
220
0
230
-1
40
0.005219
41
-1.66616120976385
42
-1.66292057626074
0
ELLIPSE
5
97
100
AcDbEntity
8
1
62
256
6
ByLayer
370
-1
48
1
60
0
100
AcDbEllipse
10
68.434895
20
0.21746
30
0
11
-1.45456230846863
21
0.666519685217473
31
0
210
0
220
0
230
1
40
0.088863
41
-1.52433694035125
42
-0.42068087937728
0
ELLIPSE
5
98
100
AcDbEntity
8
1
62
256
6
ByLayer
370
-1
48
1
60
0
100
AcDbEllipse
10
87.951809
20
0
30
0
11
30.8534952129081
21
2.25308400643912
31
0
210
0
220
0
230
-1
40
0.315488
41
-2.4944221889052
42
-2.38295219559162
0
ELLIPSE
5
99
100
AcDbEntity
8
1
62
256
6
ByLayer
370
-1
48
1
60
0
100
AcDbEllipse
10
70.651951
20
1.650226
30
0
11
-1.62277299397618
21
-0.0850459288947781
31
0
210
0
220
0
230
1
40
0.994969
41
0.0682292204782776
42
0.924407849877613
0
ELLIPSE
5
9A
100
AcDbEntity
8
1
62
256
6
ByLayer
370
-1
48
1
60
0
100
AcDbEllipse
10
62.519838
20
-8.197972
30
0
11
9.79685083057902E-17
21
1.6
31
0
210
0
220
0
230
1
40
0.00527
41
0.824152002775733
42
1.47058388292052
0
ELLIPSE
5
9B
100
AcDbEntity
8
1
62
256
6
ByLayer
370
-1
48
1
60
0
100
AcDbEllipse
10
87.951809
20
0
30
0
11
30.8534952478938
21
2.25308400151346
31
0
210
0
220
0
230
-1
40
0.315488
41
2.57601259430455
42
2.91983955553093
0
ELLIPSE
5
9C
100
AcDbEntity
8
1
62
256
6
ByLayer
370
-1
48
1
60
0
100
AcDbEllipse
10
53.784445
20
1E-06
30
0
11
4.27895648286078
21
-9.02859799969339
31
0
210
0
220
0
230
-1
40
1
41
-1.5774335810268
42
-1.54792675653695
0
ELLIPSE
5
9D
100
AcDbEntity
8
1
62
256
6
ByLayer
370
-1
48
1
60
0
100
AcDbEllipse
10
65.54928
20
1.043385
30
0
11
1.33659767040251
21
0.90673203427733
31
0
210
0
220
0
230
-1
40
0.964523
41
0.0644754503727647
42
1.00782368151404
0
ELLIPSE
5
9E
100
AcDbEntity
8
1
62
256
6
ByLayer
370
-1
48
1
60
0
100
AcDbEllipse
10
70.083629
20
-10.199151
30
0
11
-3.19561451121464
21
-0.16747505997741
31
0
210
0
220
0
230
1
40
0.994969
41
-1.63613363721631
42
-0.837758040957281
0
ELLIPSE
5
9F
100
AcDbEntity
8
1
62
256
6
ByLayer
370
-1
48
1
60
0
100
AcDbEllipse
10
68.30755
20
3.108048
30
0
11
-1.39028624327817
21
-0.791899085585706
31
0
210
0
220
0
230
1
40
0.089617
41
-1.61577144868929
42
-0.0449751218945277
0
ELLIPSE
5
A0
100
AcDbEntity
8
1
62
256
6
ByLayer
370
-1
48
1
60
0
100
AcDbEllipse
10
81.879325
20
-3.28369
30
0
11
-3.19561451121473
21
-0.167475059977414
31
0
210
0
220
0
230
1
40
0.994969
41
-0.616987723653968
42
-0.529360289485013
0
ELLIPSE
5
A1
100
AcDbEntity
8
1
62
256
6
ByLayer
370
-1
48
1
60
0
100
AcDbEllipse
10
70.663486
20
1.430128
30
0
11
-1.62277299397618
21
-0.0850459288947781
31
0
210
0
220
0
230
1
40
0.994969
41
-0.498363537933506
42
0.924408013919789
0
ELLIPSE
5
A2
100
AcDbEntity
8
1
62
256
6
ByLayer
370
-1
48
1
60
0
100
AcDbEllipse
10
68.369359
20
0
30
0
11
5.64767996941092
21
-9.98881949092599
31
0
210
0
220
0
230
-1
40
0.039019
41
2.12403250753096
42
2.80433856836252
0
ELLIPSE
5
A3
100
AcDbEntity
8
1
62
256
6
ByLayer
370
-1
48
1
60
0
100
AcDbEllipse
10
65.433012
20
-6.333621
30
0
11
-1.45456230846863
21
0.666519685217473
31
0
210
0
220
0
230
1
40
0.088863
41
-1.52433694035129
42
-0.52796137962942
0
ELLIPSE
5
A4
100
AcDbEntity
8
1
62
256
6
ByLayer
370
-1
48
1
60
0
100
AcDbEllipse
10
70.087934
20
3.540374
30
0
11
1.49794430213186
21
0.0785039343644101
31
0
210
0
220
0
230
1
40
0.994969
41
-2.26792026907299
42
-1.92082517731631
0
ELLIPSE
5
A5
100
AcDbEntity
8
1
62
256
6
ByLayer
370
-1
48
1
60
0
100
AcDbEllipse
10
70.087934
20
3.540374
30
0
11
1.49794430213186
21
0.0785039343644101
31
0
210
0
220
0
230
1
40
0.994969
41
-0.485911676673891
42
-0.400720939201706
0
ELLIPSE
5
A6
100
AcDbEntity
8
1
62
256
6
ByLayer
370
-1
48
1
60
0
100
AcDbEllipse
10
74.775953
20
-4.742793
30
0
11
3.0671162035353
21
0.160740749030306
31
0
210
0
220
0
230
1
40
0.994969
41
0
42
6.28318530717959
0
ELLIPSE
5
A7
100
AcDbEntity
8
1
62
256
6
ByLayer
370
-1
48
1
60
0
100
AcDbEllipse
10
74.769801
20
-4.625399
30
0
11
2.94083001014413
21
0.154122370080567
31
0
210
0
220
0
230
1
40
0.994969
41
0
42
6.28318530717959
0
ELLIPSE
5
A8
100
AcDbEntity
8
1
62
256
6
ByLayer
370
-1
48
1
60
0
100
AcDbEllipse
10
78.631439
20
-2.482438
30
0
11
0.792911850595128
21
0.0415547492568942
31
0
210
0
220
0
230
1
40
0.994969
41
0
42
0.959931088597421
0
ELLIPSE
5
A9
100
AcDbEntity
8
1
62
256
6
ByLayer
370
-1
48
1
60
0
100
AcDbEllipse
10
70.920467
20
-7.003149
30
0
11
0.792911850595128
21
0.0415547492568942
31
0
210
0
220
0
230
1
40
0.994969
41
3.14159265358979
42
-2.18166156499294
0
ELLIPSE
5
AA
100
AcDbEntity
8
1
62
256
6
ByLayer
370
-1
48
1
60
0
100
AcDbEllipse
10
79.135986
20
-12.109768
30
0
11
0.792911850595186
21
0.0415547492568972
31
0
210
0
220
0
230
1
40
0.994969
41
-2.18166156499289
42
4.9467827889977E-14
0
ELLIPSE
5
AB
100
AcDbEntity
8
1
62
256
6
ByLayer
370
-1
48
1
60
0
100
AcDbEllipse
10
74.770605
20
-4.640748
30
0
11
2.99588860426372
21
0.15700786872882
31
0
210
0
220
0
230
1
40
0.994969
41
3.08896863328303
42
-2.9755647988367E-16
0
ELLIPSE
5
AC
100
AcDbEntity
8
1
62
256
6
ByLayer
370
-1
48
1
60
0
100
AcDbEllipse
10
74.770605
20
-4.640748
30
0
11
2.99588860426372
21
0.15700786872882
31
0
210
0
220
0
230
1
40
0.994969
41
0
42
0.755452274968182
0
ELLIPSE
5
AD
100
AcDbEntity
8
1
62
256
6
ByLayer
370
-1
48
1
60
0
100
AcDbEllipse
10
74.770605
20
-4.640748
30
0
11
2.99588860426372
21
0.15700786872882
31
0
210
0
220
0
230
1
40
0.994969
41
0.767625945888778
42
2.3738632117944
0
ELLIPSE
5
AE
100
AcDbEntity
8
1
62
256
6
ByLayer
370
-1
48
1
60
0
100
AcDbEllipse
10
74.770605
20
-4.640748
30
0
11
2.99588860426372
21
0.15700786872882
31
0
210
0
220
0
230
1
40
0.994969
41
2.38603725069966
42
3.08896863328303
0
ELLIPSE
5
AF
100
AcDbEntity
8
1
62
256
6
ByLayer
370
-1
48
1
60
0
100
AcDbEllipse
10
70.41592
20
2.624181
30
0
11
0.792911850595186
21
0.0415547492568972
31
0
210
0
220
0
230
1
40
0.994969
41
0.959931088597362
42
-3.14159265358926
0
ELLIPSE
5
B0
100
AcDbEntity
8
1
62
256
6
ByLayer
370
-1
48
1
60
0
100
AcDbEllipse
10
74.775061
20
-4.725768
30
0
11
1.67420241501605
21
0.0877412306412892
31
0
210
0
220
0
230
1
40
0.994969
41
3.09516887460861
42
-2.13523778601167
0
ELLIPSE
5
B1
100
AcDbEntity
8
1
62
256
6
ByLayer
370
-1
48
1
60
0
100
AcDbEllipse
10
73.143569
20
-5.535319
30
0
11
-0.685059860841638
21
-0.0359024659826572
31
0
210
0
220
0
230
1
40
0.994969
41
-2.54001306807465
42
-1.8703657743701
0
ELLIPSE
5
B2
100
AcDbEntity
8
1
62
256
6
ByLayer
370
-1
48
1
60
0
100
AcDbEllipse
10
74.76759
20
-4.583204
30
0
11
1.20484653368139
21
0.0631433312071072
31
0
210
0
220
0
230
1
40
0.994969
41
-1.61303428425409
42
-0.568627280738855
0
ELLIPSE
5
B3
100
AcDbEntity
8
1
62
256
6
ByLayer
370
-1
48
1
60
0
100
AcDbEllipse
10
76.39161
20
-3.63109
30
0
11
-0.685059860841638
21
-0.0359024659826572
31
0
210
0
220
0
230
1
40
0.994969
41
-0.311295790622738
42
6.31314197326954E-06
0
ELLIPSE
5
B4
100
AcDbEntity
8
1
62
256
6
ByLayer
370
-1
48
1
60
0
100
AcDbEllipse
10
74.76759
20
-4.583204
30
0
11
-1.20484653368139
21
-0.0631433312071075
31
0
210
0
220
0
230
1
40
0.994969
41
-1.35868864990964
42
-0.675825841976367
0
ELLIPSE
5
B5
100
AcDbEntity
8
1
62
256
6
ByLayer
370
-1
48
1
60
0
100
AcDbEllipse
10
74.773617
20
-4.698212
30
0
11
2.62140252873077
21
0.137381885137718
31
0
210
0
220
0
230
1
40
0.994969
41
0
42
6.28318530717959
0
ELLIPSE
5
B6
100
AcDbEntity
8
1
62
256
6
ByLayer
370
-1
48
1
60
0
100
AcDbEllipse
10
75.469953
20
-5.76996
30
0
11
-0.291599824148336
21
-0.0152820992229386
31
0
210
0
220
0
230
1
40
0.994969
41
0.744567725715028
42
2.8712144641922
0
ELLIPSE
5
B7
100
AcDbEntity
8
1
62
256
6
ByLayer
370
-1
48
1
60
0
100
AcDbEllipse
10
74.767721
20
-4.585705
30
0
11
2.62140252873077
21
0.137381885137718
31
0
210
0
220
0
230
1
40
0.994969
41
3.08896844184643
42
-3.14149702583306
0
ELLIPSE
5
B8
100
AcDbEntity
8
1
62
256
6
ByLayer
370
-1
48
1
60
0
100
AcDbEllipse
10
74.767721
20
-4.585705
30
0
11
2.62140252873077
21
0.137381885137718
31
0
210
0
220
0
230
1
40
0.994969
41
0
42
3.08896862562914
0
ELLIPSE
5
B9
100
AcDbEntity
8
1
62
256
6
ByLayer
370
-1
48
1
60
0
100
AcDbEllipse
10
74.775061
20
-4.725768
30
0
11
1.67420241501605
21
0.0877412306412892
31
0
210
0
220
0
230
1
40
0.994969
41
1.00635486757806
42
2.05076187109335
0
ELLIPSE
5
BA
100
AcDbEntity
8
1
62
256
6
ByLayer
370
-1
48
1
60
0
100
AcDbEllipse
10
73.143569
20
-5.535319
30
0
11
-0.685059860841638
21
-0.0359024659826572
31
0
210
0
220
0
230
1
40
0.994969
41
-3.14158663131347
42
-2.78324115050802
0
ELLIPSE
5
BB
100
AcDbEntity
8
1
62
256
6
ByLayer
370
-1
48
1
60
0
100
AcDbEllipse
10
73.383131
20
-4.591746
30
0
11
-0.291599824148336
21
-0.0152820992229386
31
0
210
0
220
0
230
1
40
0.994969
41
0.235998002051796
42
1.27122687921963
0
ELLIPSE
5
BC
100
AcDbEntity
8
1
62
256
6
ByLayer
370
-1
48
1
60
0
100
AcDbEllipse
10
74.088886
20
-5.784233
30
0
11
-0.291599824148336
21
-0.0152820992229386
31
0
210
0
220
0
230
1
40
0.994969
41
0.221099919975973
42
2.31254901295644
0
ELLIPSE
5
BD
100
AcDbEntity
8
1
62
256
6
ByLayer
370
-1
48
1
60
0
100
AcDbEllipse
10
74.775061
20
-4.725768
30
0
11
1.79753316255827
21
0.0942047212372939
31
0
210
0
220
0
230
1
40
0.994969
41
0
42
6.28318530717959
0
ELLIPSE
5
BE
100
AcDbEntity
8
1
62
256
6
ByLayer
370
-1
48
1
60
0
100
AcDbEllipse
10
74.775061
20
-4.725768
30
0
11
1.67420241501605
21
0.0877412306412892
31
0
210
0
220
0
230
1
40
0.994969
41
-2.13523778601167
42
-1.09083078249649
0
ELLIPSE
5
BF
100
AcDbEntity
8
1
62
256
6
ByLayer
370
-1
48
1
60
0
100
AcDbEllipse
10
74.775061
20
-4.725768
30
0
11
1.67420241501605
21
0.0877412306412892
31
0
210
0
220
0
230
1
40
0.994969
41
-1.09083078249649
42
-0.0464237789812242
0
ELLIPSE
5
C0
100
AcDbEntity
8
1
62
256
6
ByLayer
370
-1
48
1
60
0
100
AcDbEllipse
10
74.76759
20
-4.583204
30
0
11
-1.20484653368139
21
-0.0631433312071075
31
0
210
0
220
0
230
1
40
0.994969
41
-2.54104534506994
42
-1.85610346474774
0
ELLIPSE
5
C1
100
AcDbEntity
8
1
62
256
6
ByLayer
370
-1
48
1
60
0
100
AcDbEllipse
10
74.773638
20
-4.69862
30
0
11
1.20484653368139
21
0.0631433312071072
31
0
210
0
220
0
230
1
40
0.994969
41
-2.73065974270312
42
-2.59259447587949
0
ELLIPSE
5
C2
100
AcDbEntity
8
1
62
256
6
ByLayer
370
-1
48
1
60
0
100
AcDbEllipse
10
74.775061
20
-4.725768
30
0
11
1.67420241501605
21
0.0877412306412892
31
0
210
0
220
0
230
1
40
0.994969
41
-0.0464237789812242
42
1.00635486757806
0
ELLIPSE
5
C3
100
AcDbEntity
8
1
62
256
6
ByLayer
370
-1
48
1
60
0
100
AcDbEllipse
10
74.786247
20
-6.466108
30
0
11
-0.685059860841638
21
-0.0359024659826572
31
0
210
0
220
0
230
1
40
0.994969
41
-2.39702492787488
42
-1.61303428425413
0
ELLIPSE
5
C4
100
AcDbEntity
8
1
62
256
6
ByLayer
370
-1
48
1
60
0
100
AcDbEllipse
10
76.413168
20
-5.512293
30
0
11
-0.685059860841638
21
-0.0359024659826572
31
0
210
0
220
0
230
1
40
0.994969
41
-1.35261792435968
42
-0.56862728073889
0
ELLIPSE
5
C5
100
AcDbEntity
8
1
62
256
6
ByLayer
370
-1
48
1
60
0
100
AcDbEllipse
10
74.786247
20
-6.466108
30
0
11
-0.685059860841638
21
-0.0359024659826572
31
0
210
0
220
0
230
1
40
0.994969
41
-1.61303428425413
42
-0.829043640633214
0
ELLIPSE
5
C6
100
AcDbEntity
8
1
62
256
6
ByLayer
370
-1
48
1
60
0
100
AcDbEllipse
10
76.413168
20
-5.512293
30
0
11
-0.685059860841638
21
-0.0359024659826572
31
0
210
0
220
0
230
1
40
0.994969
41
-0.56862728073889
42
-7.83105901867056E-07
0
ELLIPSE
5
C7
100
AcDbEntity
8
1
62
256
6
ByLayer
370
-1
48
1
60
0
100
AcDbEllipse
10
74.76759
20
-4.583204
30
0
11
-1.20484653368139
21
-0.0631433312071075
31
0
210
0
220
0
230
1
40
0.994969
41
-0.344094109427217
42
0.410932910886686
0
ELLIPSE
5
C8
100
AcDbEntity
8
1
62
256
6
ByLayer
370
-1
48
1
60
0
100
AcDbEllipse
10
74.76759
20
-4.583204
30
0
11
-1.20484653368139
21
-0.0631433312071075
31
0
210
0
220
0
230
1
40
0.994969
41
2.57296537285094
42
-2.86845598904773
0
ELLIPSE
5
C9
100
AcDbEntity
8
1
62
256
6
ByLayer
370
-1
48
1
60
0
100
AcDbEllipse
10
74.773638
20
-4.69862
30
0
11
1.20484653368139
21
0.0631433312071072
31
0
210
0
220
0
230
1
40
0.994969
41
0.410932910886469
42
0.548998177710431
0
ELLIPSE
5
CA
100
AcDbEntity
8
1
62
256
6
ByLayer
370
-1
48
1
60
0
100
AcDbEllipse
10
74.775061
20
-4.725768
30
0
11
1.67420241501605
21
0.0877412306412892
31
0
210
0
220
0
230
1
40
0.994969
41
2.05076187109335
42
3.09516887460861
0
ELLIPSE
5
CB
100
AcDbEntity
8
1
62
256
6
ByLayer
370
-1
48
1
60
0
100
AcDbEllipse
10
74.76759
20
-4.583204
30
0
11
1.20484653368139
21
0.0631433312071072
31
0
210
0
220
0
230
1
40
0.994969
41
-2.7306597427031
42
-2.59259447587953
0
ELLIPSE
5
CC
100
AcDbEntity
8
1
62
256
6
ByLayer
370
-1
48
1
60
0
100
AcDbEllipse
10
74.76759
20
-4.583204
30
0
11
-1.20484653368139
21
-0.0631433312071075
31
0
210
0
220
0
230
1
40
0.994969
41
0.548998177710242
42
1.52855836933572
0
ELLIPSE
5
CD
100
AcDbEntity
8
1
62
256
6
ByLayer
370
-1
48
1
60
0
100
AcDbEllipse
10
76.152048
20
-4.574663
30
0
11
-0.291599824148336
21
-0.0152820992229386
31
0
210
0
220
0
230
1
40
0.994969
41
1.7889747292304
42
2.9070181659794
0
POINT
5
41
100
AcDbEntity
8
80
62
256
6
ByLayer
370
-1
48
1
60
0
100
AcDbPoint
10
0
20
0
30
0
39
0
210
0
220
0
230
1
50
360
0
POINT
5
43
100
AcDbEntity
8
81
62
256
6
ByLayer
370
-1
48
1
60
0
100
AcDbPoint
10
79.93
20
-12.9
30
0
39
0
210
0
220
0
230
1
50
360
0
POINT
5
45
100
AcDbEntity
8
1
62
256
6
ByLayer
370
-1
48
1
60
0
100
AcDbPoint
10
-171.32
20
0
30
0
39
0
210
0
220
0
230
1
50
360
0
POINT
5
47
100
AcDbEntity
8
2
62
256
6
ByLayer
370
-1
48
1
60
0
100
AcDbPoint
10
79.93
20
12.9
30
0
39
0
210
0
220
0
230
1
50
360
0
POINT
5
49
100
AcDbEntity
8
2
62
256
6
ByLayer
370
-1
48
1
60
0
100
AcDbPoint
10
79.707612
20
11.715065
30
0
39
0
210
0
220
0
230
1
50
360
0
SPLINE
5
CE
100
AcDbEntity
8
1
62
256
6
ByLayer
370
-1
48
1
60
0
100
AcDbSpline
70
4
71
3
72
14
73
10
40
0
40
0
40
0
40
0
40
0.140998262112305
40
0.140998262112305
40
0.521292812273222
40
0.521292812273222
40
0.906445253173727
40
0.906445253173727
40
1
40
1
40
1
40
1
41
1
10
51.9433956342902
20
-8.50875000000053
30
0
41
1
10
51.8176325314631
20
-8.50875000000053
30
0
41
1
10
51.6918583852337
20
-8.50875000000053
30
0
41
1
10
51.2276387655895
20
-8.50875000000053
30
0
41
1
10
50.8881599221077
20
-8.50875000000053
30
0
41
1
10
50.2193826413901
20
-8.50875000000053
30
0
41
1
10
49.8831992987129
20
-8.5087500000005
30
0
41
1
10
49.5082781646809
20
-8.5087500000005
30
0
41
1
10
49.4362471814646
20
-8.5087500000005
30
0
41
1
10
49.3675166342901
20
-8.5087500000005
30
0
0
SPLINE
5
CF
100
AcDbEntity
8
1
62
256
6
ByLayer
370
-1
48
1
60
0
100
AcDbSpline
70
4
71
3
72
18
73
14
40
0
40
0
40
0
40
0
40
0.164448214645895
40
0.164448214645895
40
0.329320001796083
40
0.329320001796083
40
0.490253571907149
40
0.490253571907149
40
0.666500932506706
40
0.666500932506706
40
0.872845663026306
40
0.872845663026306
40
1
40
1
40
1
40
1
41
1
10
62.9108623958414
20
9.35319879714413
30
0
41
1
10
62.8893089192888
20
9.40364655273851
30
0
41
1
10
62.8902357661968
20
9.45299045537311
30
0
41
1
10
62.9420051032074
20
9.54172872410663
30
0
41
1
10
62.9937392227303
20
9.58225174837079
30
0
41
1
10
63.1369155226203
20
9.64990898552642
30
0
41
1
10
63.2288736208121
20
9.67827156409069
30
0
41
1
10
63.4480845088846
20
9.72654495641518
30
0
41
1
10
63.5802474576261
20
9.7460828629645
30
0
41
1
10
63.8834452158695
20
9.77796898838335
30
0
41
1
10
64.0608636918548
20
9.78900750997775
30
0
41
1
10
64.3518196474435
20
9.79883005406509
30
0
41
1
10
64.4651667952577
20
9.80071115005819
30
0
41
1
10
64.5781683966833
20
9.80082679942356
30
0
0
SPLINE
5
D0
100
AcDbEntity
8
1
62
256
6
ByLayer
370
-1
48
1
60
0
100
AcDbSpline
70
4
71
3
72
8
73
4
40
0
40
0
40
0
40
0
40
1
40
1
40
1
40
1
41
1
10
49.3505254977069
20
-8.5087500000005
30
0
41
1
10
50.7514038226351
20
-7.75125686390459
30
0
41
1
10
52.7580928715445
20
-7.11409766356468
30
0
41
1
10
54.7929701865394
20
-7.11507605640367
30
0
0
SPLINE
5
D1
100
AcDbEntity
8
1
62
256
6
ByLayer
370
-1
48
1
60
0
100
AcDbSpline
70
4
71
3
72
8
73
4
40
0
40
0
40
0
40
0
40
1
40
1
40
1
40
1
41
1
10
69.197651028918
20
2.12719127040552
30
0
41
1
10
69.1592944478007
20
2.11262568074957
30
0
41
1
10
69.1221563469308
20
2.10038100089304
30
0
41
1
10
69.0864200915391
20
2.09051008082983
30
0
0
SPLINE
5
D2
100
AcDbEntity
8
1
62
256
6
ByLayer
370
-1
48
1
60
0
100
AcDbSpline
70
4
71
2
72
6
73
3
40
0
40
0
40
0
40
1
40
1
40
1
41
0.499974269906484
10
62.2838173792549
20
-7.11867757218763
30
0
41
0.500025730093516
10
58.5391917616717
20
-7.11687728360066
30
0
41
0.499974269906484
10
54.792970186543
20
-7.11507605640369
30
0
0
SPLINE
5
D3
100
AcDbEntity
8
1
62
256
6
ByLayer
370
-1
48
1
60
0
100
AcDbSpline
70
4
71
3
72
18
73
14
40
0
40
0
40
0
40
0
40
0.0445242400514839
40
0.0445242400514839
40
0.267732157852876
40
0.267732157852876
40
0.492679340186667
40
0.492679340186667
40
0.731224456037639
40
0.731224456037639
40
0.992713252850157
40
0.992713252850157
40
1
40
1
40
1
40
1
41
1
10
76.4515110188278
20
-4.71542539237532
30
0
41
1
10
76.4515448782693
20
-4.72136380474794
30
0
41
1
10
76.451395061661
20
-4.72729802422137
30
0
41
1
10
76.4494085974407
20
-4.76257795307475
30
0
41
1
10
76.4430718562823
20
-4.79178897196718
30
0
41
1
10
76.4223322612553
20
-4.845468056703
30
0
41
1
10
76.4076237223083
20
-4.87059071510157
30
0
41
1
10
76.3713616414713
20
-4.91517905279201
30
0
41
1
10
76.3490186143585
20
-4.93478956434149
30
0
41
1
10
76.29842868568
20
-4.96682697151752
30
0
41
1
10
76.2692052823946
20
-4.9788140069156
30
0
41
1
10
76.2385906004038
20
-4.98589787516872
30
0
41
1
10
76.2377508982589
20
-4.98608810996774
30
0
41
1
10
76.2369105169519
20
-4.98627444991635
30
0
0
SPLINE
5
D4
100
AcDbEntity
8
1
62
256
6
ByLayer
370
-1
48
1
60
0
100
AcDbSpline
70
4
71
3
72
14
73
10
40
0
40
0
40
0
40
0
40
0.281732662281643
40
0.281732662281643
40
0.568336047605885
40
0.568336047605885
40
0.827726871356303
40
0.827726871356303
40
1
40
1
40
1
40
1
41
1
10
74.30399664789
20
-6.11948372883211
30
0
41
1
10
74.2807658842423
20
-6.1448217764399
30
0
41
1
10
74.252651062473
20
-6.16675199268747
30
0
41
1
10
74.1898595939588
20
-6.19947984564635
30
0
41
1
10
74.1540743623524
20
-6.21052785271525
30
0
41
1
10
74.0844002631113
20
-6.21752802891587
30
0
41
1
10
74.0495969392675
20
-6.21485792806899
30
0
41
1
10
73.9947465470469
20
-6.20004144665023
30
0
41
1
10
73.9732253820078
20
-6.19128902935992
30
0
41
1
10
73.9532150364936
20
-6.18010120332178
30
0
0
SPLINE
5
D5
100
AcDbEntity
8
1
62
256
6
ByLayer
370
-1
48
1
60
0
100
AcDbSpline
70
4
71
3
72
16
73
12
40
0
40
0
40
0
40
0
40
0.0414949540904502
40
0.0414949540904502
40
0.264700717331953
40
0.264700717331953
40
0.489470788841681
40
0.489470788841681
40
0.727692848895936
40
0.727692848895936
40
1
40
1
40
1
40
1
41
1
10
73.9245645161801
20
-3.28871782686107
30
0
41
1
10
73.9293610137468
20
-3.28590578456786
30
0
41
1
10
73.9342403446759
20
-3.2832213124467
30
0
41
1
10
73.9655620196661
20
-3.26708389735293
30
0
41
1
10
73.994347108856
20
-3.25725082186744
30
0
41
1
10
74.0521757896336
20
-3.24631278301462
30
0
41
1
10
74.081953936892
20
-3.24510831669491
30
0
41
1
10
74.1403336667397
20
-3.25088032503726
30
0
41
1
10
74.1694938510811
20
-3.25839277641569
30
0
41
1
10
74.2260499656319
20
-3.28207317923696
30
0
41
1
10
74.2533883918459
20
-3.29960863190246
30
0
41
1
10
74.2762593827933
20
-3.32026520387538
30
0
0
SPLINE
5
D6
100
AcDbEntity
8
1
62
256
6
ByLayer
370
-1
48
1
60
0
100
AcDbSpline
70
4
71
3
72
14
73
10
40
0
40
0
40
0
40
0
40
0.280886135263043
40
0.280886135263043
40
0.56577922975201
40
0.56577922975201
40
0.823531433577514
40
0.823531433577514
40
1
40
1
40
1
40
1
41
1
10
73.3184963672105
20
-5.00495733626607
30
0
41
1
10
73.2861673255102
20
-4.99856790007172
30
0
41
1
10
73.2542695273443
20
-4.9861658196904
30
0
41
1
10
73.196647495388
20
-4.94987802403131
30
0
41
1
10
73.1701583502822
20
-4.92521327434184
30
0
41
1
10
73.1306817293252
20
-4.86956553831487
30
0
41
1
10
73.1161018439009
20
-4.83853009288933
30
0
41
1
10
73.1018292511745
20
-4.78338735838042
30
0
41
1
10
73.0987457088366
20
-4.75972541755891
30
0
41
1
10
73.0986110635786
20
-4.73611076145468
30
0
0
SPLINE
5
D7
100
AcDbEntity
8
1
62
256
6
ByLayer
370
-1
48
1
60
0
100
AcDbSpline
70
4
71
3
72
18
73
14
40
0
40
0
40
0
40
0
40
0.204484327331661
40
0.204484327331661
40
0.380032436580348
40
0.380032436580348
40
0.557355801854065
40
0.557355801854065
40
0.710621155738137
40
0.710621155738137
40
0.912077806931067
40
0.912077806931067
40
1
40
1
40
1
40
1
41
1
10
75.7584674825011
20
-5.82469344978657
30
0
41
1
10
75.7402324513107
20
-5.75562199391692
30
0
41
1
10
75.7314082892554
20
-5.68193890946773
30
0
41
1
10
75.7364306068948
20
-5.54389942063037
30
0
41
1
10
75.7474718048218
20
-5.47814089618714
30
0
41
1
10
75.7882736263058
20
-5.3523840016137
30
0
41
1
10
75.8190295608443
20
-5.29065434822641
30
0
41
1
10
75.8900973818432
20
-5.19061167306813
30
0
41
1
10
75.9293267527094
20
-5.1490002001608
30
0
41
1
10
76.0267505779607
20
-5.06927336026732
30
0
41
1
10
76.0885477777103
20
-5.03477857500698
30
0
41
1
10
76.1797745623869
20
-5.00096705276908
30
0
41
1
10
76.2082282158325
20
-4.99263425167803
30
0
41
1
10
76.2369105169519
20
-4.98627444991632
30
0
0
SPLINE
5
D8
100
AcDbEntity
8
1
62
256
6
ByLayer
370
-1
48
1
60
0
100
AcDbSpline
70
4
71
3
72
16
73
12
40
0
40
0
40
0
40
0
40
0.0694210632324139
40
0.0694210632324139
40
0.292087864368654
40
0.292087864368654
40
0.517918296334375
40
0.517918296334375
40
0.758497576948427
40
0.758497576948427
40
1
40
1
40
1
40
1
41
1
10
75.6255575662263
20
-6.16281832696893
30
0
41
1
10
75.6175555448201
20
-6.1675096714994
30
0
41
1
10
75.6093158666071
20
-6.17180540279776
30
0
41
1
10
75.5741011737255
20
-6.18799513906396
30
0
41
1
10
75.5450715098127
20
-6.19603798369835
30
0
41
1
10
75.4868996876818
20
-6.20272959446945
30
0
41
1
10
75.4570251593913
20
-6.20135269473471
30
0
41
1
10
75.3986016444789
20
-6.18972567069119
30
0
41
1
10
75.3695298397031
20
-6.17878857555093
30
0
41
1
10
75.3170970391527
20
-6.14945882410609
30
0
41
1
10
75.2931764264937
20
-6.13076520891758
30
0
41
1
10
75.2727202872751
20
-6.10947242398069
30
0
0
SPLINE
5
D9
100
AcDbEntity
8
1
62
256
6
ByLayer
370
-1
48
1
60
0
100
AcDbSpline
70
4
71
3
72
18
73
14
40
0
40
0
40
0
40
0
40
0.205042569407915
40
0.205042569407915
40
0.380490253800802
40
0.380490253800802
40
0.557706679217368
40
0.557706679217368
40
0.710949103235839
40
0.710949103235839
40
0.912502109150549
40
0.912502109150549
40
1
40
1
40
1
40
1
41
1
10
74.3039966478898
20
-6.11948372883202
30
0
41
1
10
74.3518236473724
20
-6.06731829818932
30
0
41
1
10
74.4086061146563
20
-6.02104710936891
30
0
41
1
10
74.5267505576844
20
-5.95367207484142
30
0
41
1
10
74.5877012855868
20
-5.92929382758803
30
0
41
1
10
74.7153737367724
20
-5.90023974791899
30
0
41
1
10
74.7841087677637
20
-5.89555650655188
30
0
41
1
10
74.9075941862124
20
-5.90693443507993
30
0
41
1
10
74.9644598835112
20
-5.92031299408183
30
0
41
1
10
75.085963969216
20
-5.96579003555041
30
0
41
1
10
75.1495750802932
20
-6.00298070259635
30
0
41
1
10
75.2287759540963
20
-6.06653682831183
30
0
41
1
10
75.2515210824303
20
-6.0874061824104
30
0
41
1
10
75.2727202872751
20
-6.10947242398063
30
0
0
SPLINE
5
DA
100
AcDbEntity
8
1
62
256
6
ByLayer
370
-1
48
1
60
0
100
AcDbSpline
70
4
71
3
72
12
73
8
40
0
40
0
40
0
40
0
40
0.494547693254245
40
0.494547693254245
40
0.899638041788494
40
0.899638041788494
40
1
40
1
40
1
40
1
41
1
10
76.2304650654982
20
-4.42443230203963
30
0
41
1
10
76.1612451323729
20
-4.40340408507672
30
0
41
1
10
76.0924927009262
20
-4.3711418901382
30
0
41
1
10
75.9769487292783
20
-4.29287263595907
30
0
41
1
10
75.9272173590527
20
-4.24940799946714
30
0
41
1
10
75.8733962945006
20
-4.18766094825708
30
0
41
1
10
75.863018246727
20
-4.17492786560587
30
0
41
1
10
75.8530829775228
20
-4.16186151691517
30
0
0
SPLINE
5
DB
100
AcDbEntity
8
1
62
256
6
ByLayer
370
-1
48
1
60
0
100
AcDbSpline
70
4
71
3
72
14
73
10
40
0
40
0
40
0
40
0
40
0.258927663111454
40
0.258927663111454
40
0.548393416998231
40
0.548393416998231
40
0.810122265230828
40
0.810122265230828
40
1
40
1
40
1
40
1
41
1
10
75.2449830221777
20
-3.31025389902499
30
0
41
1
10
75.266505428294
20
-3.29013346754178
30
0
41
1
10
75.2921049088862
20
-3.27276718715331
30
0
41
1
10
75.3519201956942
20
-3.2452052343661
30
0
41
1
10
75.3877971483078
20
-3.23572658694246
30
0
41
1
10
75.4579816967417
20
-3.23071367389849
30
0
41
1
10
75.4931822036284
20
-3.23391550113527
30
0
41
1
10
75.5509378541174
20
-3.24942038394423
30
0
41
1
10
75.5748603371277
20
-3.25910858950539
30
0
41
1
10
75.5969070459128
20
-3.27143495050828
30
0
0
SPLINE
5
DC
100
AcDbEntity
8
1
62
256
6
ByLayer
370
-1
48
1
60
0
100
AcDbSpline
70
4
71
3
72
14
73
10
40
0
40
0
40
0
40
0
40
0.28418230538816
40
0.28418230538816
40
0.578057080079424
40
0.578057080079424
40
0.836555462934343
40
0.836555462934343
40
1
40
1
40
1
40
1
41
1
10
75.7584674825014
20
-5.82469344978651
30
0
41
1
10
75.7674036916868
20
-5.85854241730095
30
0
41
1
10
75.7709246331234
20
-5.89487253558329
30
0
41
1
10
75.765096599714
20
-5.96804505614168
30
0
41
1
10
75.7550903860448
20
-6.00605434328972
30
0
41
1
10
75.7233495111004
20
-6.07100134646686
30
0
41
1
10
75.7026368750133
20
-6.09967103500114
30
0
41
1
10
75.6620304527808
20
-6.13843920160517
30
0
41
1
10
75.6443586703938
20
-6.15179580494271
30
0
41
1
10
75.6255575662263
20
-6.16281832696893
30
0
0
SPLINE
5
DD
100
AcDbEntity
8
1
62
256
6
ByLayer
370
-1
48
1
60
0
100
AcDbSpline
70
4
71
3
72
16
73
12
40
0
40
0
40
0
40
0
40
0.0559896302622711
40
0.0559896302622711
40
0.278865236505827
40
0.278865236505827
40
0.504139857462856
40
0.504139857462856
40
0.743542544183401
40
0.743542544183401
40
1
40
1
40
1
40
1
41
1
10
73.0986110635786
20
-4.73611076145468
30
0
41
1
10
73.0985685180092
20
-4.72864893915866
30
0
41
1
10
73.0988147482192
20
-4.72116475522725
30
0
41
1
10
73.1014542500553
20
-4.68419880339428
30
0
41
1
10
73.1082064747927
20
-4.65450581589081
30
0
41
1
10
73.1296551598983
20
-4.59912194115421
30
0
41
1
10
73.1446878709871
20
-4.57276417514066
30
0
41
1
10
73.1815133644063
20
-4.52504914051701
30
0
41
1
10
73.2041074521251
20
-4.50349243341589
30
0
41
1
10
73.2544377528204
20
-4.46744134075425
30
0
41
1
10
73.2830066474511
20
-4.45308174421439
30
0
41
1
10
73.3120691531165
20
-4.4434631779398
30
0
0
SPLINE
5
DE
100
AcDbEntity
8
1
62
256
6
ByLayer
370
-1
48
1
60
0
100
AcDbSpline
70
4
71
3
72
12
73
8
40
0
40
0
40
0
40
0
40
0.314796651252766
40
0.314796651252766
40
0.781971087515065
40
0.781971087515065
40
1
40
1
40
1
40
1
41
1
10
73.7786311876475
20
-5.37805022277288
30
0
41
1
10
73.7989700251536
20
-5.42503434347668
30
0
41
1
10
73.8139632141962
20
-5.47469041325519
30
0
41
1
10
73.8372422375237
20
-5.59734117219037
30
0
41
1
10
73.8393114904254
20
-5.67200667464692
30
0
41
1
10
73.8275555443258
20
-5.77637201046559
30
0
41
1
10
73.8215619799502
20
-5.80930779242183
30
0
41
1
10
73.8135355449843
20
-5.84140540310173
30
0
0
SPLINE
5
DF
100
AcDbEntity
8
1
62
256
6
ByLayer
370
-1
48
1
60
0
100
AcDbSpline
70
4
71
3
72
18
73
14
40
0
40
0
40
0
40
0
40
0.0932927671353704
40
0.0932927671353704
40
0.291452469912724
40
0.291452469912724
40
0.452571747977734
40
0.452571747977734
40
0.614437057926315
40
0.614437057926315
40
0.766897325913055
40
0.766897325913055
40
1
40
1
40
1
40
1
41
1
10
73.7905121875672
20
-3.60504417806959
30
0
41
1
10
73.798695600042
20
-3.63343979510552
30
0
41
1
10
73.8049018292108
20
-3.66277164492894
30
0
41
1
10
73.8174819468692
20
-3.7563082389353
30
0
41
1
10
73.816283957762
20
-3.82418658459622
30
0
41
1
10
73.7932713786592
20
-3.94788238117238
30
0
41
1
10
73.7749380696255
20
-4.00494573075292
30
0
41
1
10
73.7233635331415
20
-4.11348092837554
30
0
41
1
10
73.6893271015282
20
-4.16630496361842
30
0
41
1
10
73.6136062121478
20
-4.25690387620347
30
0
41
1
10
73.5716774704276
20
-4.29649355446361
30
0
41
1
10
73.4606376363502
20
-4.38061877741993
30
0
41
1
10
73.3866761361107
20
-4.41877114970455
30
0
41
1
10
73.3120691531165
20
-4.4434631779398
30
0
0
SPLINE
5
E0
100
AcDbEntity
8
1
62
256
6
ByLayer
370
-1
48
1
60
0
100
AcDbSpline
70
4
71
3
72
14
73
10
40
0
40
0
40
0
40
0
40
0.253826519598079
40
0.253826519598079
40
0.543931427297485
40
0.543931427297485
40
0.806192118844104
40
0.806192118844104
40
1
40
1
40
1
40
1
41
1
10
73.7905121875672
20
-3.60504417806962
30
0
41
1
10
73.7826707948825
20
-3.57783533525648
30
0
41
1
10
73.7791559480009
20
-3.54855600083778
30
0
41
1
10
73.7824169287044
20
-3.48537327601275
30
0
41
1
10
73.7908767543277
20
-3.45038420860456
30
0
41
1
10
73.819807555518
20
-3.38832073941947
30
0
41
1
10
73.8395459888669
20
-3.35989005271563
30
0
41
1
10
73.8816136945941
20
-3.31777844833869
30
0
41
1
10
73.9023172937067
20
-3.30176070442556
30
0
41
1
10
73.9245645161801
20
-3.28871782686107
30
0
0
SPLINE
5
E1
100
AcDbEntity
8
1
62
256
6
ByLayer
370
-1
48
1
60
0
100
AcDbSpline
70
4
71
3
72
14
73
10
40
0
40
0
40
0
40
0
40
0.264951685633389
40
0.264951685633389
40
0.551839051428866
40
0.551839051428866
40
0.811228646787148
40
0.811228646787148
40
1
40
1
40
1
40
1
41
1
10
76.2304650654982
20
-4.42443230203969
30
0
41
1
10
76.2611377378495
20
-4.43375030597176
30
0
41
1
10
76.2913932760653
20
-4.44825286923833
30
0
41
1
10
76.3485342875603
20
-4.48816432507454
30
0
41
1
10
76.3758000021415
20
-4.51507639876104
30
0
41
1
10
76.4167479389502
20
-4.57415041025357
30
0
41
1
10
76.4320516303459
20
-4.60649429730262
30
0
41
1
10
76.4478234062878
20
-4.66452476131724
30
0
41
1
10
76.4513670218815
20
-4.69017059754322
30
0
41
1
10
76.4515110188278
20
-4.71542539237532
30
0
0
SPLINE
5
E2
100
AcDbEntity
8
1
62
256
6
ByLayer
370
-1
48
1
60
0
100
AcDbSpline
70
4
71
3
72
12
73
8
40
0
40
0
40
0
40
0
40
0.321062853359324
40
0.321062853359324
40
0.789577101064582
40
0.789577101064582
40
1
40
1
40
1
40
1
41
1
10
75.7686454019614
20
-4.01919069404343
30
0
41
1
10
75.7479349293351
20
-3.97234816504078
30
0
41
1
10
75.7328577341013
20
-3.92378277393328
30
0
41
1
10
75.71027674465
20
-3.80696326648083
30
0
41
1
10
75.7088789069454
20
-3.73793500868447
30
0
41
1
10
75.7215530512478
20
-3.64417024536868
30
0
41
1
10
75.7275489229841
20
-3.61564829449429
30
0
41
1
10
75.7354258877246
20
-3.58798423520409
30
0
0
SPLINE
5
E3
100
AcDbEntity
8
1
62
256
6
ByLayer
370
-1
48
1
60
0
100
AcDbSpline
70
4
71
3
72
18
73
14
40
0
40
0
40
0
40
0
40
0.0447160259823223
40
0.0447160259823223
40
0.265841569193351
40
0.265841569193351
40
0.488725170244959
40
0.488725170244959
40
0.725109012423027
40
0.725109012423027
40
0.98424482255876
40
0.98424482255876
40
1
40
1
40
1
40
1
41
1
10
75.5969070459128
20
-3.27143495050828
30
0
41
1
10
75.6021800179132
20
-3.27438308018461
30
0
41
1
10
75.6073633371777
20
-3.27748730340105
30
0
41
1
10
75.637322687521
20
-3.29666623824292
30
0
41
1
10
75.6599308865083
20
-3.31644002100697
30
0
41
1
10
75.6973412134616
20
-3.36039288280011
30
0
41
1
10
75.7125746238946
20
-3.3851524899803
30
0
41
1
10
75.735011695737
20
-3.43758915638512
30
0
41
1
10
75.7419833825928
20
-3.4659978264456
30
0
41
1
10
75.7470213387053
20
-3.52416735260297
30
0
41
1
10
75.7442649731726
20
-3.55452366045725
30
0
41
1
10
75.7363905151777
20
-3.58452858753893
30
0
41
1
10
75.7359169010314
20
-3.58625978655169
30
0
41
1
10
75.7354258877246
20
-3.58798423520409
30
0
0
SPLINE
5
E4
100
AcDbEntity
8
1
62
256
6
ByLayer
370
-1
48
1
60
0
100
AcDbSpline
70
4
71
3
72
16
73
12
40
0
40
0
40
0
40
0
40
0.0608533059030252
40
0.0608533059030252
40
0.281623182917179
40
0.281623182917179
40
0.505077149700819
40
0.505077149700819
40
0.742780487870844
40
0.742780487870844
40
1
40
1
40
1
40
1
41
1
10
73.9532150364936
20
-6.18010120332178
30
0
41
1
10
73.9460499532299
20
-6.17609519027991
30
0
41
1
10
73.9390468236923
20
-6.17176628224931
30
0
41
1
10
73.9077639754162
20
-6.15048652011319
30
0
41
1
10
73.8856332450914
20
-6.12962340193775
30
0
41
1
10
73.8491330264609
20
-6.08283816445334
30
0
41
1
10
73.8343780259117
20
-6.05627727133336
30
0
41
1
10
73.8129022510792
20
-5.9996221489092
30
0
41
1
10
73.806455120635
20
-5.96871330866651
30
0
41
1
10
73.8025427256258
20
-5.90546666673183
30
0
41
1
10
73.8057730310632
20
-5.87244759690213
30
0
41
1
10
73.8135355449843
20
-5.84140540310176
30
0
0
SPLINE
5
E5
100
AcDbEntity
8
1
62
256
6
ByLayer
370
-1
48
1
60
0
100
AcDbSpline
70
4
71
3
72
18
73
14
40
0
40
0
40
0
40
0
40
0.211826658493618
40
0.211826658493618
40
0.386063242106283
40
0.386063242106283
40
0.561989010675211
40
0.561989010675211
40
0.714969206089717
40
0.714969206089717
40
0.917706490638698
40
0.917706490638698
40
1
40
1
40
1
40
1
41
1
10
75.2449830221777
20
-3.31025389902499
30
0
41
1
10
75.1951859424475
20
-3.35680718518466
30
0
41
1
10
75.1358087980072
20
-3.39750219776181
30
0
41
1
10
75.0144713404327
20
-3.45449550199848
30
0
41
1
10
74.953395361045
20
-3.47436240465691
30
0
41
1
10
74.8259830944497
20
-3.49765658973757
30
0
41
1
10
74.7576751825761
20
-3.5011129335434
30
0
41
1
10
74.6350162801661
20
-3.49108744811355
30
0
41
1
10
74.5785354588708
20
-3.47970738100918
30
0
41
1
10
74.4575486934747
20
-3.44091055231277
30
0
41
1
10
74.3942255335197
20
-3.40900605146916
30
0
41
1
10
74.3171927205557
20
-3.3550148782341
30
0
41
1
10
74.296042029704
20
-3.33813245198314
30
0
41
1
10
74.2762593827933
20
-3.32026520387541
30
0
0
SPLINE
5
E6
100
AcDbEntity
8
1
62
256
6
ByLayer
370
-1
48
1
60
0
100
AcDbSpline
70
4
71
3
72
12
73
8
40
0
40
0
40
0
40
0
40
0.483263508943121
40
0.483263508943121
40
0.890318766416238
40
0.890318766416238
40
1
40
1
40
1
40
1
41
1
10
73.3184963672105
20
-5.0049573362661
30
0
41
1
10
73.3857632853138
20
-5.01825181264414
30
0
41
1
10
73.4525752314052
20
-5.04263968577001
30
0
41
1
10
73.5667726439504
20
-5.10888712131498
30
0
41
1
10
73.616775628108
20
-5.14829898872534
30
0
41
1
10
73.6720062679363
20
-5.20813355891778
30
0
41
1
10
73.6833615289593
20
-5.22149701292798
30
0
41
1
10
73.6941936120862
20
-5.23537939990149
30
0
0
SPLINE
5
E7
100
AcDbEntity
8
SK1
62
256
6
ByLayer
370
-1
48
1
60
0
100
AcDbSpline
70
4
71
3
72
10
73
6
40
0
40
0
40
0
40
0
40
0.5
40
0.5
40
1
40
1
40
1
40
1
41
1
10
-169.82
20
-4.33878745302189
30
0
41
1
10
-170.419233025873
20
-2.95888879825199
30
0
41
1
10
-170.810991214146
20
-1.50358877622816
30
0
41
1
10
-170.811508518976
20
1.5004891605457
30
0
41
1
10
-170.420392105394
20
2.95621969924954
30
0
41
1
10
-169.82
20
4.33878745302192
30
0
0
SPLINE
5
E8
100
AcDbEntity
8
SK1
62
256
6
ByLayer
370
-1
48
1
60
0
100
AcDbSpline
70
4
71
3
72
8
73
4
40
0
40
0
40
0
40
0
40
1
40
1
40
1
40
1
41
1
10
-171.302499986183
20
-8.50874999999999
30
0
41
1
10
-171.302576023436
20
-8.50874999999999
30
0
41
1
10
-170.674914121567
20
-8.50874999999999
30
0
41
1
10
-169.82
20
-8.50874999999999
30
0
0
LINE
5
4A
100
AcDbEntity
8
80
62
256
6
ByLayer
370
-1
48
1
60
0
100
AcDbLine
10
0
20
0
30
0
11
-10
21
0
31
0
39
0
210
0
220
0
230
1
0
LINE
5
4B
100
AcDbEntity
8
81
62
256
6
ByLayer
370
-1
48
1
60
0
100
AcDbLine
10
79.93
20
-12.9
30
0
11
89.93
21
-12.9
31
0
39
0
210
0
220
0
230
1
0
LINE
5
4C
100
AcDbEntity
8
SK4
62
256
6
ByLayer
370
-1
48
0.05
60
0
100
AcDbLine
10
-176.32
20
0
30
0
11
84.707612
21
0
31
0
39
0
210
0
220
0
230
1
0
LINE
5
4E
100
AcDbEntity
8
4
62
256
6
ByLayer
370
-1
48
0.05
60
0
100
AcDbLine
10
0
20
0
30
0
11
84.707612
21
0
31
0
39
0
210
0
220
0
230
1
0
LINE
5
50
100
AcDbEntity
8
SK1
62
256
6
ByLayer
370
-1
48
1
60
0
100
AcDbLine
10
-169.82
20
9.99125
30
0
11
-171.32
21
8.49125
31
0
39
0
210
0
220
0
230
1
0
LINE
5
52
100
AcDbEntity
8
SK1
62
256
6
ByLayer
370
-1
48
1
60
0
100
AcDbLine
10
-171.32
20
-8.49125
30
0
11
-171.3025
21
-8.50875
31
0
39
0
210
0
220
0
230
1
0
LINE
5
53
100
AcDbEntity
8
SK1
62
256
6
ByLayer
370
-1
48
1
60
0
100
AcDbLine
10
0
20
9.99125
30
0
11
-169.82
21
9.99125
31
0
39
0
210
0
220
0
230
1
0
LINE
5
54
100
AcDbEntity
8
1
62
256
6
ByLayer
370
-1
48
1
60
0
100
AcDbLine
10
73.813619
20
-3.743151
30
0
11
73.807071
21
-3.618213
31
0
39
0
210
0
220
0
230
1
0
LINE
5
55
100
AcDbEntity
8
1
62
256
6
ByLayer
370
-1
48
1
60
0
100
AcDbLine
10
75.70655
20
-3.666992
30
0
11
75.712952
21
-3.789139
31
0
39
0
210
0
220
0
230
1
0
LINE
5
56
100
AcDbEntity
8
1
62
256
6
ByLayer
370
-1
48
1
60
0
100
AcDbLine
10
72.146318
20
-4.723087
30
0
11
72.152214
21
-4.835594
31
0
39
0
210
0
220
0
230
1
0
LINE
5
57
100
AcDbEntity
8
1
62
256
6
ByLayer
370
-1
48
1
60
0
100
AcDbLine
10
77.395019
20
-4.56083
30
0
11
77.389123
21
-4.448323
31
0
39
0
210
0
220
0
230
1
0
LINE
5
58
100
AcDbEntity
8
1
62
256
6
ByLayer
370
-1
48
1
60
0
100
AcDbLine
10
75.728108
20
-5.548196
30
0
11
75.734654
21
-5.673102
31
0
39
0
210
0
220
0
230
1
0
LINE
5
59
100
AcDbEntity
8
1
62
256
6
ByLayer
370
-1
48
1
60
0
100
AcDbLine
10
73.83503
20
-5.621567
30
0
11
73.828629
21
-5.499416
31
0
39
0
210
0
220
0
230
1
0
LINE
5
5A
100
AcDbEntity
8
1
62
256
6
ByLayer
370
-1
48
1
60
0
100
AcDbLine
10
70.464467
20
9.99125
30
0
11
0
21
9.99125
31
0
39
0
210
0
220
0
230
1
0
LINE
5
5B
100
AcDbEntity
8
1
62
256
6
ByLayer
370
-1
48
1
60
0
100
AcDbLine
10
67.144454
20
1.177361
30
0
11
67.121215
21
1.620793
31
0
39
0
210
0
220
0
230
1
0
LINE
5
5C
100
AcDbEntity
8
1
62
256
6
ByLayer
370
-1
48
1
60
0
100
AcDbLine
10
71.49768
20
3.031277
30
0
11
71.505685
21
2.878529
31
0
39
0
210
0
220
0
230
1
0
LINE
5
5D
100
AcDbEntity
8
1
62
256
6
ByLayer
370
-1
48
1
60
0
100
AcDbLine
10
58.010149
20
-4.338787
30
0
11
0
21
-4.338787
31
0
39
0
210
0
220
0
230
1
0
LINE
5
5E
100
AcDbEntity
8
1
62
256
6
ByLayer
370
-1
48
1
60
0
100
AcDbLine
10
70.728439
20
9.807069
30
0
11
78.877674
21
4.121098
31
0
39
0
210
0
220
0
230
1
0
LINE
5
5F
100
AcDbEntity
8
1
62
256
6
ByLayer
370
-1
48
1
60
0
100
AcDbLine
10
0
20
4.338787
30
0
11
62.784443
21
4.338787
31
0
39
0
210
0
220
0
230
1
0
LINE
5
60
100
AcDbEntity
8
1
62
256
6
ByLayer
370
-1
48
1
60
0
100
AcDbLine
10
66.939449
20
1.86517
30
0
11
66.915479
21
2.322552
31
0
39
0
210
0
220
0
230
1
0
LINE
5
61
100
AcDbEntity
8
1
62
256
6
ByLayer
370
-1
48
1
60
0
100
AcDbLine
10
79.176491
20
-1.580667
30
0
11
78.877674
21
4.121098
31
0
39
0
210
0
220
0
230
1
0
LINE
5
62
100
AcDbEntity
8
1
62
256
6
ByLayer
370
-1
48
1
60
0
100
AcDbLine
10
51.943396
20
-8.50875
30
0
11
67.258303
21
-8.50875
31
0
39
0
210
0
220
0
230
1
0
LINE
5
63
100
AcDbEntity
8
1
62
256
6
ByLayer
370
-1
48
1
60
0
100
AcDbLine
10
62.90853
20
4.071376
30
0
11
62.784443
21
3.274968
31
0
39
0
210
0
220
0
230
1
0
LINE
5
64
100
AcDbEntity
8
1
62
256
6
ByLayer
370
-1
48
1
60
0
100
AcDbLine
10
69.197651
20
2.127191
30
0
11
69.186116
21
2.34729
31
0
39
0
210
0
220
0
230
1
0
LINE
5
65
100
AcDbEntity
8
1
62
256
6
ByLayer
370
-1
48
1
60
0
100
AcDbLine
10
62.784443
20
3.274968
30
0
11
62.784443
21
4.338787
31
0
39
0
210
0
220
0
230
1
0
LINE
5
66
100
AcDbEntity
8
1
62
256
6
ByLayer
370
-1
48
1
60
0
100
AcDbLine
10
66.915479
20
2.322552
30
0
11
62.910862
21
9.353199
31
0
39
0
210
0
220
0
230
1
0
LINE
5
67
100
AcDbEntity
8
1
62
256
6
ByLayer
370
-1
48
1
60
0
100
AcDbLine
10
0
20
-4.338787
30
0
11
0
21
-8.50875
31
0
39
0
210
0
220
0
230
1
0
LINE
5
68
100
AcDbEntity
8
1
62
256
6
ByLayer
370
-1
48
1
60
0
100
AcDbLine
10
62.784443
20
3.274968
30
0
11
58.010149
21
-4.338787
31
0
39
0
210
0
220
0
230
1
0
LINE
5
69
100
AcDbEntity
8
1
62
256
6
ByLayer
370
-1
48
1
60
0
100
AcDbLine
10
0
20
-4.338787
30
0
11
0
21
4.338787
31
0
39
0
210
0
220
0
230
1
0
LINE
5
6A
100
AcDbEntity
8
1
62
256
6
ByLayer
370
-1
48
1
60
0
100
AcDbLine
10
66.939449
20
1.86517
30
0
11
65.070209
21
5.061065
31
0
39
0
210
0
220
0
230
1
0
LINE
5
6B
100
AcDbEntity
8
1
62
256
6
ByLayer
370
-1
48
1
60
0
100
AcDbLine
10
62.511449
20
-8.0379
30
0
11
54.757058
21
-8.0379
31
0
39
0
210
0
220
0
230
1
0
LINE
5
6C
100
AcDbEntity
8
1
62
256
6
ByLayer
370
-1
48
1
60
0
100
AcDbLine
10
0
20
-8.50875
30
0
11
49.350525
21
-8.50875
31
0
39
0
210
0
220
0
230
1
0
LINE
5
6D
100
AcDbEntity
8
1
62
256
6
ByLayer
370
-1
48
1
60
0
100
AcDbLine
10
64.001766
20
-6.141252
30
0
11
67.00222
21
0.437087
31
0
39
0
210
0
220
0
230
1
0
LINE
5
6E
100
AcDbEntity
8
1
62
256
6
ByLayer
370
-1
48
1
60
0
100
AcDbLine
10
67.821513
20
-7.948357
30
0
11
67.258303
21
-8.50875
31
0
39
0
210
0
220
0
230
1
0
LINE
5
6F
100
AcDbEntity
8
1
62
256
6
ByLayer
370
-1
48
1
60
0
100
AcDbLine
10
68.426506
20
0.377532
30
0
11
65.424623
21
-6.17355
31
0
39
0
210
0
220
0
230
1
0
LINE
5
70
100
AcDbEntity
8
1
62
256
6
ByLayer
370
-1
48
1
60
0
100
AcDbLine
10
62.283817
20
-7.118678
30
0
11
62.547108
21
-7.11024
31
0
39
0
210
0
220
0
230
1
0
LINE
5
71
100
AcDbEntity
8
1
62
256
6
ByLayer
370
-1
48
1
60
0
100
AcDbLine
10
0
20
4.338787
30
0
11
0
21
9.99125
31
0
39
0
210
0
220
0
230
1
0
LINE
5
72
100
AcDbEntity
8
1
62
256
6
ByLayer
370
-1
48
1
60
0
100
AcDbLine
10
69.729661
20
-0.202775
30
0
11
69.770308
21
-0.228041
31
0
39
0
210
0
220
0
230
1
0
LINE
5
73
100
AcDbEntity
8
1
62
256
6
ByLayer
370
-1
48
1
60
0
100
AcDbLine
10
69.729661
20
-0.202775
30
0
11
69.762723
21
-0.08328
31
0
39
0
210
0
220
0
230
1
0
LINE
5
74
100
AcDbEntity
8
1
62
256
6
ByLayer
370
-1
48
1
60
0
100
AcDbLine
10
64.578168
20
9.800827
30
0
11
68.299161
21
3.26812
31
0
39
0
210
0
220
0
230
1
0
LINE
5
75
100
AcDbEntity
8
1
62
256
6
ByLayer
370
-1
48
1
60
0
100
AcDbLine
10
70.728439
20
9.807069
30
0
11
70.464467
21
9.99125
31
0
39
0
210
0
220
0
230
1
0
LINE
5
76
100
AcDbEntity
8
SK1
62
256
6
ByLayer
370
-1
48
1
60
0
100
AcDbLine
10
0
20
-4.338787
30
0
11
-169.82
21
-4.338787
31
0
39
0
210
0
220
0
230
1
0
LINE
5
77
100
AcDbEntity
8
SK1
62
256
6
ByLayer
370
-1
48
1
60
0
100
AcDbLine
10
0
20
9.99125
30
0
11
0
21
4.338787
31
0
39
0
210
0
220
0
230
1
0
LINE
5
78
100
AcDbEntity
8
SK1
62
256
6
ByLayer
370
-1
48
1
60
0
100
AcDbLine
10
-171.32
20
8.49125
30
0
11
-171.32
21
-8.49125
31
0
39
0
210
0
220
0
230
1
0
LINE
5
79
100
AcDbEntity
8
SK1
62
256
6
ByLayer
370
-1
48
1
60
0
100
AcDbLine
10
-169.82
20
-4.338787
30
0
11
-169.82
21
-8.50875
31
0
39
0
210
0
220
0
230
1
0
LINE
5
7A
100
AcDbEntity
8
SK1
62
256
6
ByLayer
370
-1
48
1
60
0
100
AcDbLine
10
-169.82
20
9.99125
30
0
11
-169.82
21
4.338787
31
0
39
0
210
0
220
0
230
1
0
LINE
5
7B
100
AcDbEntity
8
1
62
256
6
ByLayer
370
-1
48
1
60
0
100
AcDbLine
10
79.424351
20
-2.440883
30
0
11
79.928898
21
-12.068213
31
0
39
0
210
0
220
0
230
1
0
LINE
5
7C
100
AcDbEntity
8
1
62
256
6
ByLayer
370
-1
48
1
60
0
100
AcDbLine
10
70.127556
20
-7.044704
30
0
11
69.623009
21
2.582626
31
0
39
0
210
0
220
0
230
1
0
LINE
5
7D
100
AcDbEntity
8
1
62
256
6
ByLayer
370
-1
48
1
60
0
100
AcDbLine
10
70.836848
20
3.294264
30
0
11
79.052366
21
-1.812355
31
0
39
0
210
0
220
0
230
1
0
LINE
5
7E
100
AcDbEntity
8
1
62
256
6
ByLayer
370
-1
48
1
60
0
100
AcDbLine
10
78.715059
20
-12.779851
30
0
11
70.49954
21
-7.673231
31
0
39
0
210
0
220
0
230
1
0
LINE
5
7F
100
AcDbEntity
8
1
62
256
6
ByLayer
370
-1
48
1
60
0
100
AcDbLine
10
73.772582
20
-5.262634
30
0
11
73.778631
21
-5.37805
31
0
39
0
210
0
220
0
230
1
0
LINE
5
80
100
AcDbEntity
8
1
62
256
6
ByLayer
370
-1
48
1
60
0
100
AcDbLine
10
73.311605
20
-4.873467
30
0
11
73.318496
21
-5.004957
31
0
39
0
210
0
220
0
230
1
0
LINE
5
81
100
AcDbEntity
8
1
62
256
6
ByLayer
370
-1
48
1
60
0
100
AcDbLine
10
75.26582
20
-5.977808
30
0
11
75.27272
21
-6.109472
31
0
39
0
210
0
220
0
230
1
0
LINE
5
82
100
AcDbEntity
8
1
62
256
6
ByLayer
370
-1
48
1
60
0
100
AcDbLine
10
75.728535
20
-3.456494
30
0
11
75.735426
21
-3.587984
31
0
39
0
210
0
220
0
230
1
0
LINE
5
83
100
AcDbEntity
8
1
62
256
6
ByLayer
370
-1
48
1
60
0
100
AcDbLine
10
76.23001
20
-4.85461
30
0
11
76.236911
21
-4.986274
31
0
39
0
210
0
220
0
230
1
0
LINE
5
84
100
AcDbEntity
8
1
62
256
6
ByLayer
370
-1
48
1
60
0
100
AcDbLine
10
73.785084
20
-3.501467
30
0
11
73.790512
21
-3.605044
31
0
39
0
210
0
220
0
230
1
0
LINE
5
85
100
AcDbEntity
8
1
62
256
6
ByLayer
370
-1
48
1
60
0
100
AcDbLine
10
74.297096
20
-5.987819
30
0
11
74.303997
21
-6.119484
31
0
39
0
210
0
220
0
230
1
0
LINE
5
86
100
AcDbEntity
8
1
62
256
6
ByLayer
370
-1
48
1
60
0
100
AcDbLine
10
73.694194
20
-5.235379
30
0
11
73.688145
21
-5.119963
31
0
39
0
210
0
220
0
230
1
0
LINE
5
87
100
AcDbEntity
8
SK1
62
256
6
ByLayer
370
-1
48
1
60
0
100
AcDbLine
10
-169.82
20
4.338787
30
0
11
0
21
4.338787
31
0
39
0
210
0
220
0
230
1
0
LINE
5
88
100
AcDbEntity
8
SK1
62
256
6
ByLayer
370
-1
48
1
60
0
100
AcDbLine
10
-169.82
20
-8.50875
30
0
11
0
21
-8.50875
31
0
39
0
210
0
220
0
230
1
0
LINE
5
89
100
AcDbEntity
8
SK1
62
256
6
ByLayer
370
-1
48
1
60
0
100
AcDbLine
10
0
20
-4.338787
30
0
11
0
21
-8.50875
31
0
39
0
210
0
220
0
230
1
0
LINE
5
8A
100
AcDbEntity
8
SK1
62
256
6
ByLayer
370
-1
48
1
60
0
100
AcDbLine
10
0
20
-4.338787
30
0
11
0
21
4.338787
31
0
39
0
210
0
220
0
230
1
0
LINE
5
8B
100
AcDbEntity
8
2
62
256
6
ByLayer
370
-1
48
1
60
1
100
AcDbLine
10
79.93
20
0
30
0
11
79.931
21
0.001
31
0
39
0
210
0
220
0
230
1
0
MTEXT
5
E9
100
AcDbEntity
8
SK6
62
256
6
ByLayer
370
-1
48
1
60
0
100
AcDbMText
10
-42.32
20
17.661875
30
0
210
0
220
0
230
1
1
\W00.750;\fsimplex.shx,bigfont.shx;A20S-SDUCL 11HP 
40
3.5
41
0
44
1.084337
50
0
71
7
72
5
7
DEFAULT
0
DIMENSION
5
11C
100
AcDbEntity
8
2
62
256
6
ByLayer
370
-3
48
1
60
0
100
AcDbDimension
2
DimnDraft3D1
10
92.18
20
0
30
0
11
92.18
21
-32.356316
31
0
70
32
71
5
72
1
41
1
210
0
220
0
230
1
3
Standard
100
AcDbAlignedDimension
13
81.93
23
-12.9
33
0
14
81.93
24
0
34
0
50
90
100
AcDbRotatedDimension
1001
ACAD
1000
DSTYLE
1002
{
1070
    74
1070
     0
1070
   279
1070
     0
1070
   172
1070
     1
1070
   173
1070
     1
1070
   340
1005
EA
1070
    77
1070
     1
1070
    73
1070
     0
1070
   171
1070
     4
1070
   274
1070
     4
1070
   177
1070
     2
1070
   176
1070
     2
1070
   178
1070
     7
1070
    78
1070
     8
1070
    41
1041
3.175
1070
   147
1041
2.25
1070
    42
1041
2.0
1070
    44
1041
2.0
1070
   140
1041
4.5
1070
   343
1005
11D
1070
   344
1005
11D
1002
}
0
DIMENSION
5
132
100
AcDbEntity
8
SK2
62
256
6
ByLayer
370
-3
48
1
60
0
100
AcDbDimension
2
DimnDraft3D2
10
-181.07
20
9.99125
30
0
11
-181.07
21
-4.784211
31
0
70
32
71
5
72
1
41
1
210
0
220
0
230
1
3
Standard
100
AcDbAlignedDimension
13
-173.32
23
-9.99125
33
0
14
-173.32
24
9.99125
34
0
50
90
100
AcDbRotatedDimension
1001
ACAD
1000
DSTYLE
1002
{
1070
    74
1070
     0
1070
   279
1070
     0
1070
   172
1070
     1
1070
   173
1070
     1
1070
   340
1005
EA
1070
    77
1070
     1
1070
    73
1070
     0
1070
   171
1070
     4
1070
   274
1070
     4
1070
   177
1070
     2
1070
   176
1070
     2
1070
   178
1070
     7
1070
    78
1070
     8
1070
    41
1041
3.175
1070
   147
1041
2.25
1070
    42
1041
2.0
1070
    44
1041
2.0
1070
   140
1041
4.5
1070
   343
1005
11D
1070
   344
1005
11D
1002
}
0
DIMENSION
5
140
100
AcDbEntity
8
SK2
62
256
6
ByLayer
370
-3
48
1
60
0
100
AcDbDimension
2
DimnDraft3D3
10
79.93
20
-30.15
30
0
11
-52.510132
21
-30.15
31
0
70
32
71
5
72
1
41
1
210
0
220
0
230
1
3
Standard
100
AcDbAlignedDimension
13
-171.32
23
-11.99125
33
0
14
79.93
24
-14.9
34
0
50
0
100
AcDbRotatedDimension
1001
ACAD
1000
DSTYLE
1002
{
1070
   279
1070
     0
1070
   172
1070
     1
1070
   173
1070
     1
1070
   340
1005
EA
1070
    77
1070
     1
1070
    73
1070
     0
1070
   171
1070
     4
1070
   274
1070
     4
1070
   177
1070
     2
1070
   176
1070
     2
1070
   178
1070
     7
1070
    78
1070
     8
1070
    41
1041
3.175
1070
   147
1041
2.25
1070
    42
1041
2.0
1070
    44
1041
2.0
1070
   140
1041
4.5
1070
   343
1005
11D
1070
   344
1005
11D
1002
}
0
DIMENSION
5
14E
100
AcDbEntity
8
2
62
256
6
ByLayer
370
-3
48
1
60
0
100
AcDbDimension
2
DimnDraft3D4
10
119.180346
20
0
30
0
11
102.288155
21
33.528479
31
0
70
34
71
5
72
1
41
1
210
0
220
0
230
1
3
Standard
100
AcDb2LineAngularDimension
13
79.249633
23
0.082184
33
0
14
77.164353
24
39.871689
34
0
15
81.93
25
0
35
0
16
108.458351
26
30.775028
36
0
40
0
0
ENDSEC
0
SECTION
2
OBJECTS
0
DICTIONARY
5
17f
330
0
100
AcDbDictionary
280
0
281
1
3
ACAD_GROUP
350
180
3
ACAD_MLINESTYLE
350
181
0
DICTIONARY
5
180
330
0
100
AcDbDictionary
280
0
281
1
0
DICTIONARY
5
181
330
0
100
AcDbDictionary
280
0
281
1
3
Standard
350
18
0
MLINESTYLE
5
18
330
181
100
AcDbMlineStyle
2
Standard
70
0
3

62
256
51
90
52
90
71
2
49
-0.5
62
256
6
ByLayer
49
0.5
62
256
6
ByLayer
0
RASTERVARIABLES
5
16d
330

100
AcDbRasterVariables
90
0
70
1
71
1
72
1
0
ENDSEC
0
EOF
