0
SECTION
2
HEADER
9
$ACADVER
1
AC1015
9
$DWGCODEPAGE
3
ANSI_1252
9
$HANDSEED
5
173
9
$ANGBASE
50
0
9
$ANGDIR
70
0
9
$ATTMODE
70
1
9
$AUNITS
70
0
9
$AUPREC
70
0
9
$CECOLOR
62
256
9
$CELTSCALE
40
1
9
$CELTYPE
6
ByLayer
9
$CELWEIGHT
370
-1
9
$CLAYER
8
0
9
$CMLJUST
70
0
9
$CMLSCALE
40
1
9
$CMLSTYLE
2
Standard
9
$DIMSTYLE
2
Standard
9
$TEXTSIZE
40
0.2
9
$TEXTSTYLE
7
Standard
9
$LUNITS
70
2
9
$LUPREC
70
4
9
$EXTNAMES
290
1
9
$INSUNITS
70
4
9
$LTSCALE
40
1
9
$LWDISPLAY
290
0
9
$PDMODE
70
0
9
$PDSIZE
40
0
9
$PLINEGEN
70
0
0
ENDSEC
0
SECTION
2
CLASSES
0
CLASS
1
RASTERVARIABLES
2
AcDbRasterVariables
3
ISM
90
0
280
0
281
0
0
ENDSEC
0
SECTION
2
TABLES
0
TABLE
2
VPORT
5
169
100
AcDbSymbolTable
0
VPORT
5
1
100
AcDbSymbolTableRecord
100
AcDbViewportTableRecord
2
*Active
70
0
10
0
20
0
11
1
21
1
12
-1
22
1
13
0
23
0
14
0.5
24
0.5
15
10
25
10
16
0
26
0
36
1
17
0
27
0
37
0
0
ENDTAB
0
TABLE
2
LTYPE
5
16a
100
AcDbSymbolTable
0
LTYPE
5
14
100
AcDbSymbolTableRecord
100
AcDbLinetypeTableRecord
70
0
2
ByBlock
3

72
65
73
0
40
0
0
LTYPE
5
15
100
AcDbSymbolTableRecord
100
AcDbLinetypeTableRecord
70
0
2
ByLayer
3

72
65
73
0
40
0
0
LTYPE
5
16
100
AcDbSymbolTableRecord
100
AcDbLinetypeTableRecord
70
0
2
CONTINUOUS
3
Solid line
72
65
73
0
40
0
0
LTYPE
5
3B
100
AcDbSymbolTableRecord
100
AcDbLinetypeTableRecord
70
0
2
DASHED
3
__ __ __ __ __ __ __ __ __
72
65
73
2
40
25.72
49
12.86
74
0
49
-12.86
74
0
0
LTYPE
5
3C
100
AcDbSymbolTableRecord
100
AcDbLinetypeTableRecord
70
0
2
HIDDEN
3
_ _ _ _ _ _ _ _ _ _ _ _ _ _ _
72
65
73
2
40
0.5
49
0.25
74
0
49
-0.25
74
0
0
LTYPE
5
3D
100
AcDbSymbolTableRecord
100
AcDbLinetypeTableRecord
70
0
2
PHANTOM
3
____ _ _ ____ _ _ _____ _ _ ____
72
65
73
6
40
50.5
49
18
74
0
49
-6.5
74
0
49
6.5
74
0
49
-6.5
74
0
49
6.5
74
0
49
-6.5
74
0
0
LTYPE
5
3E
100
AcDbSymbolTableRecord
100
AcDbLinetypeTableRecord
70
0
2
CENTER
3
____ _ ____ _ ____ _ ____
72
65
73
4
40
47.5
49
22
74
0
49
-8.5
74
0
49
8.5
74
0
49
-8.5
74
0
0
LTYPE
5
3F
100
AcDbSymbolTableRecord
100
AcDbLinetypeTableRecord
70
0
2
DOT
3
.........................
72
65
73
2
40
10
49
0
74
0
49
-10
74
0
0
LTYPE
5
40
100
AcDbSymbolTableRecord
100
AcDbLinetypeTableRecord
70
0
2
DASHDOT
3
_._._._._._._._._._._._._._._._.
72
65
73
4
40
70
49
31
74
0
49
-13
74
0
49
13
74
0
49
-13
74
0
0
ENDTAB
0
TABLE
2
LAYER
5
16b
100
AcDbSymbolTable
0
LAYER
5
10
100
AcDbSymbolTableRecord
100
AcDbLayerTableRecord
2
0
70
0
62
7
6
CONTINUOUS
290
1
370
-3
390
0
0
LAYER
5
42
100
AcDbSymbolTableRecord
100
AcDbLayerTableRecord
2
80
70
0
62
-6
6
CONTINUOUS
290
1
370
-3
390
0
0
LAYER
5
44
100
AcDbSymbolTableRecord
100
AcDbLayerTableRecord
2
81
70
0
62
-3
6
CONTINUOUS
290
1
370
-3
390
0
0
LAYER
5
46
100
AcDbSymbolTableRecord
100
AcDbLayerTableRecord
2
1
70
0
62
4
6
CONTINUOUS
290
1
370
-3
390
0
0
LAYER
5
48
100
AcDbSymbolTableRecord
100
AcDbLayerTableRecord
2
2
70
0
62
7
6
CONTINUOUS
290
1
370
-3
390
0
0
LAYER
5
5A
100
AcDbSymbolTableRecord
100
AcDbLayerTableRecord
2
4
70
0
62
-2
6
CENTER
290
1
370
-3
390
0
0
LAYER
5
155
100
AcDbSymbolTableRecord
100
AcDbLayerTableRecord
2
SK1
70
0
62
4
6
CONTINUOUS
290
1
370
-3
390
0
0
LAYER
5
156
100
AcDbSymbolTableRecord
100
AcDbLayerTableRecord
2
SK4
70
0
62
2
6
CENTER
290
1
370
-3
390
0
0
LAYER
5
157
100
AcDbSymbolTableRecord
100
AcDbLayerTableRecord
2
SK6
70
0
62
5
6
CONTINUOUS
290
1
370
-3
390
0
0
LAYER
5
158
100
AcDbSymbolTableRecord
100
AcDbLayerTableRecord
2
SK2
70
0
62
7
6
CONTINUOUS
290
1
370
-3
390
0
0
ENDTAB
0
TABLE
2
STYLE
5
16c
100
AcDbSymbolTable
0
STYLE
5
11
100
AcDbSymbolTableRecord
100
AcDbTextStyleTableRecord
2
Standard
3
txt
70
0
71
0
40
0
41
1
42
0
50
0
0
STYLE
5
D1
100
AcDbSymbolTableRecord
100
AcDbTextStyleTableRecord
2
DEFAULT
3
simplex.shx
70
0
71
0
40
0
41
1
42
0
50
0
0
STYLE
5
F4
100
AcDbSymbolTableRecord
100
AcDbTextStyleTableRecord
2
DWGDirectTextStyle
3
SIMPLEX
70
0
71
0
40
0
41
1
42
0
50
0
0
ENDTAB
0
TABLE
2
DIMSTYLE
5
16d
100
AcDbSymbolTable
100
AcDbDimStyleTable
0
DIMSTYLE
105
27
100
AcDbSymbolTableRecord
100
AcDbDimStyleTableRecord
2
Standard
70
0
3
<>
41
0.18
42
0.0625
44
0.18
140
0.18
147
0.09
73
0
74
0
77
1
271
2
275
0
278
52
280
0
340
11
0
ENDTAB
0
TABLE
2
VIEW
5
16e
100
AcDbSymbolTable
0
ENDTAB
0
TABLE
2
UCS
5
16f
100
AcDbSymbolTable
0
ENDTAB
0
TABLE
2
APPID
5
170
100
AcDbSymbolTable
0
APPID
5
12
100
AcDbSymbolTableRecord
100
AcDbRegAppTableRecord
2
ACAD
70
0
0
ENDTAB
0
TABLE
2
BLOCK_RECORD
5
171
100
AcDbSymbolTable
0
BLOCK_RECORD
5
1F
100
AcDbSymbolTableRecord
100
AcDbBlockTableRecord
2
*Model_Space
340
0
70
0
0
BLOCK_RECORD
5
1B
100
AcDbSymbolTableRecord
100
AcDbBlockTableRecord
2
*Paper_Space
340
0
70
0
0
BLOCK_RECORD
5
23
100
AcDbSymbolTableRecord
100
AcDbBlockTableRecord
2
*Paper_Space0
340
0
70
0
0
BLOCK_RECORD
5
F6
100
AcDbSymbolTableRecord
100
AcDbBlockTableRecord
2
DimnDraft3D1
340
0
70
0
0
BLOCK_RECORD
5
104
100
AcDbSymbolTableRecord
100
AcDbBlockTableRecord
2
_CLOSED
340
0
70
0
0
BLOCK_RECORD
5
10B
100
AcDbSymbolTableRecord
100
AcDbBlockTableRecord
2
DimnDraft3D2
340
0
70
0
0
BLOCK_RECORD
5
11A
100
AcDbSymbolTableRecord
100
AcDbBlockTableRecord
2
DimnDraft3D3
340
0
70
0
0
BLOCK_RECORD
5
128
100
AcDbSymbolTableRecord
100
AcDbBlockTableRecord
2
DimnDraft3D4
340
0
70
0
0
ENDTAB
0
ENDSEC
0
SECTION
2
BLOCKS
0
BLOCK
5
20
100
AcDbEntity
8
0
100
AcDbBlockBegin
2
*Model_Space
70
0
10
0
20
0
30
0
3
*Model_Space
0
ENDBLK
5
21
100
AcDbEntity
8
0
100
AcDbBlockEnd
0
BLOCK
5
1C
100
AcDbEntity
8
0
100
AcDbBlockBegin
2
*Paper_Space
70
0
10
0
20
0
30
0
3
*Paper_Space
0
ENDBLK
5
1D
100
AcDbEntity
8
0
100
AcDbBlockEnd
0
BLOCK
5
24
100
AcDbEntity
8
0
100
AcDbBlockBegin
2
*Paper_Space0
70
0
10
0
20
0
30
0
3
*Paper_Space0
0
ENDBLK
5
25
100
AcDbEntity
8
0
100
AcDbBlockEnd
0
BLOCK
5
101
100
AcDbEntity
8
0
100
AcDbBlockBegin
2
DimnDraft3D1
70
0
10
0
20
0
30
0
3
DimnDraft3D1
0
MTEXT
5
F7
100
AcDbEntity
8
2
62
256
6
ByLayer
370
-1
48
1
60
0
100
AcDbMText
10
91.055
20
24.28
30
0
210
0
220
0
230
1
1
\W01.000;\fsimplex.shx,bigfont.shx;13.0 
40
4.5
41
0
44
1.084337
50
90
71
7
72
5
7
DEFAULT
0
LINE
5
F8
100
AcDbEntity
8
2
62
256
6
ByLayer
370
-1
48
1
60
0
100
AcDbLine
10
81.93
20
12.9
30
0
11
94.18
21
12.9
31
0
39
0
210
0
220
0
230
1
0
LINE
5
F9
100
AcDbEntity
8
2
62
256
6
ByLayer
370
-1
48
1
60
0
100
AcDbLine
10
81.93
20
0
30
0
11
94.18
21
0
31
0
39
0
210
0
220
0
230
1
0
LINE
5
FA
100
AcDbEntity
8
2
62
256
6
ByLayer
370
-1
48
1
60
0
100
AcDbLine
10
92.18
20
0
30
0
11
92.18
21
32.356316
31
0
39
0
210
0
220
0
230
1
0
LINE
5
FB
100
AcDbEntity
8
2
62
256
6
ByLayer
370
-1
48
1
60
0
100
AcDbLine
10
92.18
20
12.9
30
0
11
92.597997
21
9.725002
31
0
39
0
210
0
220
0
230
1
0
LINE
5
FC
100
AcDbEntity
8
2
62
256
6
ByLayer
370
-1
48
1
60
0
100
AcDbLine
10
92.18
20
12.9
30
0
11
91.762003
21
9.724998
31
0
39
0
210
0
220
0
230
1
0
LINE
5
FD
100
AcDbEntity
8
2
62
256
6
ByLayer
370
-1
48
1
60
0
100
AcDbLine
10
92.597997
20
9.725002
30
0
11
91.762003
21
9.724998
31
0
39
0
210
0
220
0
230
1
0
LINE
5
FE
100
AcDbEntity
8
2
62
256
6
ByLayer
370
-1
48
1
60
0
100
AcDbLine
10
92.18
20
0
30
0
11
91.762003
21
3.174998
31
0
39
0
210
0
220
0
230
1
0
LINE
5
FF
100
AcDbEntity
8
2
62
256
6
ByLayer
370
-1
48
1
60
0
100
AcDbLine
10
92.18
20
0
30
0
11
92.597997
21
3.175002
31
0
39
0
210
0
220
0
230
1
0
LINE
5
100
100
AcDbEntity
8
2
62
256
6
ByLayer
370
-1
48
1
60
0
100
AcDbLine
10
91.762003
20
3.174998
30
0
11
92.597997
21
3.175002
31
0
39
0
210
0
220
0
230
1
0
ENDBLK
5
102
100
AcDbEntity
8
0
100
AcDbBlockEnd
0
BLOCK
5
105
100
AcDbEntity
8
0
100
AcDbBlockBegin
2
_CLOSED
70
0
10
0
20
0
30
0
3
_CLOSED
0
LINE
5
107
100
AcDbEntity
8
0
62
256
6
ByLayer
370
-2
48
1
60
0
100
AcDbLine
10
-1
20
0.166667
30
0
11
0
21
0
31
0
39
0
210
0
220
0
230
1
0
LINE
5
108
100
AcDbEntity
8
0
62
256
6
ByLayer
370
-2
48
1
60
0
100
AcDbLine
10
0
20
0
30
0
11
-1
21
-0.166667
31
0
39
0
210
0
220
0
230
1
0
LINE
5
109
100
AcDbEntity
8
0
62
256
6
ByLayer
370
-2
48
1
60
0
100
AcDbLine
10
-1
20
0.166667
30
0
11
-1
21
-0.166667
31
0
39
0
210
0
220
0
230
1
0
LINE
5
10A
100
AcDbEntity
8
0
62
256
6
ByLayer
370
-2
48
1
60
0
100
AcDbLine
10
0
20
0
30
0
11
-1
21
0
31
0
39
0
210
0
220
0
230
1
0
ENDBLK
5
106
100
AcDbEntity
8
0
100
AcDbBlockEnd
0
BLOCK
5
117
100
AcDbEntity
8
0
100
AcDbBlockBegin
2
DimnDraft3D2
70
0
10
0
20
0
30
0
3
DimnDraft3D2
0
MTEXT
5
10C
100
AcDbEntity
8
SK2
62
256
6
ByLayer
370
-1
48
1
60
0
100
AcDbMText
10
-182.195
20
-3.659211
30
0
210
0
220
0
230
1
1
\W01.000;\fsimplex.shx,bigfont.shx;%%c20 
40
4.5
41
0
44
1.084337
50
90
71
7
72
5
7
DEFAULT
0
LINE
5
10E
100
AcDbEntity
8
SK2
62
256
6
ByLayer
370
-1
48
1
60
0
100
AcDbLine
10
-173.32
20
-9.99125
30
0
11
-183.07
21
-9.99125
31
0
39
0
210
0
220
0
230
1
0
LINE
5
10F
100
AcDbEntity
8
SK2
62
256
6
ByLayer
370
-1
48
1
60
0
100
AcDbLine
10
-173.32
20
9.99125
30
0
11
-183.07
21
9.99125
31
0
39
0
210
0
220
0
230
1
0
LINE
5
110
100
AcDbEntity
8
SK2
62
256
6
ByLayer
370
-1
48
1
60
0
100
AcDbLine
10
-181.07
20
-9.99125
30
0
11
-181.07
21
9.99125
31
0
39
0
210
0
220
0
230
1
0
LINE
5
111
100
AcDbEntity
8
SK2
62
256
6
ByLayer
370
-1
48
1
60
0
100
AcDbLine
10
-181.07
20
-9.99125
30
0
11
-181.487997
21
-6.816252
31
0
39
0
210
0
220
0
230
1
0
LINE
5
112
100
AcDbEntity
8
SK2
62
256
6
ByLayer
370
-1
48
1
60
0
100
AcDbLine
10
-181.07
20
-9.99125
30
0
11
-180.652003
21
-6.816248
31
0
39
0
210
0
220
0
230
1
0
LINE
5
113
100
AcDbEntity
8
SK2
62
256
6
ByLayer
370
-1
48
1
60
0
100
AcDbLine
10
-181.487997
20
-6.816252
30
0
11
-180.652003
21
-6.816248
31
0
39
0
210
0
220
0
230
1
0
LINE
5
114
100
AcDbEntity
8
SK2
62
256
6
ByLayer
370
-1
48
1
60
0
100
AcDbLine
10
-181.07
20
9.99125
30
0
11
-180.652003
21
6.816252
31
0
39
0
210
0
220
0
230
1
0
LINE
5
115
100
AcDbEntity
8
SK2
62
256
6
ByLayer
370
-1
48
1
60
0
100
AcDbLine
10
-181.07
20
9.99125
30
0
11
-181.487997
21
6.816248
31
0
39
0
210
0
220
0
230
1
0
LINE
5
116
100
AcDbEntity
8
SK2
62
256
6
ByLayer
370
-1
48
1
60
0
100
AcDbLine
10
-180.652003
20
6.816252
30
0
11
-181.487997
21
6.816248
31
0
39
0
210
0
220
0
230
1
0
ENDBLK
5
118
100
AcDbEntity
8
0
100
AcDbBlockEnd
0
BLOCK
5
125
100
AcDbEntity
8
0
100
AcDbBlockBegin
2
DimnDraft3D3
70
0
10
0
20
0
30
0
3
DimnDraft3D3
0
MTEXT
5
11B
100
AcDbEntity
8
SK2
62
256
6
ByLayer
370
-1
48
1
60
0
100
AcDbMText
10
-51.385132
20
26.775
30
0
210
0
220
0
230
1
1
\W01.000;\fsimplex.shx,bigfont.shx;250.0 
40
4.5
41
0
44
1.084337
50
0
71
7
72
5
7
DEFAULT
0
LINE
5
11C
100
AcDbEntity
8
SK2
62
256
6
ByLayer
370
-1
48
1
60
0
100
AcDbLine
10
79.93
20
14.9
30
0
11
79.93
21
27.65
31
0
39
0
210
0
220
0
230
1
0
LINE
5
11D
100
AcDbEntity
8
SK2
62
256
6
ByLayer
370
-1
48
1
60
0
100
AcDbLine
10
-171.32
20
11.99125
30
0
11
-171.32
21
27.65
31
0
39
0
210
0
220
0
230
1
0
LINE
5
11E
100
AcDbEntity
8
SK2
62
256
6
ByLayer
370
-1
48
1
60
0
100
AcDbLine
10
79.93
20
25.65
30
0
11
-171.32
21
25.65
31
0
39
0
210
0
220
0
230
1
0
LINE
5
11F
100
AcDbEntity
8
SK2
62
256
6
ByLayer
370
-1
48
1
60
0
100
AcDbLine
10
79.93
20
25.65
30
0
11
76.755002
21
25.232003
31
0
39
0
210
0
220
0
230
1
0
LINE
5
120
100
AcDbEntity
8
SK2
62
256
6
ByLayer
370
-1
48
1
60
0
100
AcDbLine
10
79.93
20
25.65
30
0
11
76.754998
21
26.067997
31
0
39
0
210
0
220
0
230
1
0
LINE
5
121
100
AcDbEntity
8
SK2
62
256
6
ByLayer
370
-1
48
1
60
0
100
AcDbLine
10
76.755002
20
25.232003
30
0
11
76.754998
21
26.067997
31
0
39
0
210
0
220
0
230
1
0
LINE
5
122
100
AcDbEntity
8
SK2
62
256
6
ByLayer
370
-1
48
1
60
0
100
AcDbLine
10
-171.32
20
25.65
30
0
11
-168.145002
21
26.067997
31
0
39
0
210
0
220
0
230
1
0
LINE
5
123
100
AcDbEntity
8
SK2
62
256
6
ByLayer
370
-1
48
1
60
0
100
AcDbLine
10
-171.32
20
25.65
30
0
11
-168.144998
21
25.232003
31
0
39
0
210
0
220
0
230
1
0
LINE
5
124
100
AcDbEntity
8
SK2
62
256
6
ByLayer
370
-1
48
1
60
0
100
AcDbLine
10
-168.145002
20
26.067997
30
0
11
-168.144998
21
25.232003
31
0
39
0
210
0
220
0
230
1
0
ENDBLK
5
126
100
AcDbEntity
8
0
100
AcDbBlockEnd
0
BLOCK
5
133
100
AcDbEntity
8
0
100
AcDbBlockBegin
2
DimnDraft3D4
70
0
10
0
20
0
30
0
3
DimnDraft3D4
0
MTEXT
5
129
100
AcDbEntity
8
2
62
256
6
ByLayer
370
-1
48
1
60
0
100
AcDbMText
10
96.503983
20
-41.659383
30
0
210
0
220
0
230
1
1
\W01.000;\fsimplex.shx,bigfont.shx;107%%d30' 
40
4.5
41
0
44
1.084337
50
36.25
71
7
72
5
7
DEFAULT
0
LINE
5
12A
100
AcDbEntity
8
2
62
256
6
ByLayer
370
-1
48
1
60
0
100
AcDbLine
10
76.020825
20
0.50168
30
0
11
61.150191
21
-46.661944
31
0
39
0
210
0
220
0
230
1
0
LINE
5
12B
100
AcDbEntity
8
2
62
256
6
ByLayer
370
-1
48
1
60
0
100
AcDbLine
10
81.93
20
0
30
0
11
124.789052
21
0
31
0
39
0
210
0
220
0
230
1
0
ARC
5
12C
100
AcDbEntity
8
2
62
256
6
ByLayer
370
-1
48
1
60
0
100
AcDbCircle
39
0
10
75.862646
20
0
30
0
40
46.9264068782928
210
0
220
0
230
1
100
AcDbArc
50
252.5
51
0
0
LINE
5
12D
100
AcDbEntity
8
2
62
256
6
ByLayer
370
-1
48
1
60
0
100
AcDbLine
10
61.751603
20
-44.75451
30
0
11
64.914298
21
-45.257198
31
0
39
0
210
0
220
0
230
1
0
LINE
5
12E
100
AcDbEntity
8
2
62
256
6
ByLayer
370
-1
48
1
60
0
100
AcDbLine
10
61.751603
20
-44.75451
30
0
11
64.676429
21
-46.058636
31
0
39
0
210
0
220
0
230
1
0
LINE
5
12F
100
AcDbEntity
8
2
62
256
6
ByLayer
370
-1
48
1
60
0
100
AcDbLine
10
64.914298
20
-45.257198
30
0
11
64.676429
21
-46.058636
31
0
39
0
210
0
220
0
230
1
0
LINE
5
130
100
AcDbEntity
8
2
62
256
6
ByLayer
370
-1
48
1
60
0
100
AcDbLine
10
122.789053
20
0
30
0
11
123.153308
21
-3.181612
31
0
39
0
210
0
220
0
230
1
0
LINE
5
131
100
AcDbEntity
8
2
62
256
6
ByLayer
370
-1
48
1
60
0
100
AcDbLine
10
122.789053
20
0
30
0
11
122.317434
21
-3.16748
31
0
39
0
210
0
220
0
230
1
0
LINE
5
132
100
AcDbEntity
8
2
62
256
6
ByLayer
370
-1
48
1
60
0
100
AcDbLine
10
123.153308
20
-3.181612
30
0
11
122.317434
21
-3.16748
31
0
39
0
210
0
220
0
230
1
0
ENDBLK
5
134
100
AcDbEntity
8
0
100
AcDbBlockEnd
0
ENDSEC
0
SECTION
2
ENTITIES
0
ELLIPSE
5
83
100
AcDbEntity
8
1
62
256
6
ByLayer
370
-1
48
1
60
0
100
AcDbEllipse
10
67.584962
20
1.253933
30
0
11
1.69270215394286
21
-0.533706939071053
31
0
210
0
220
0
230
1
40
0.994698
41
2.18166156499294
42
-2.62171087556609
0
ELLIPSE
5
84
100
AcDbEntity
8
1
62
256
6
ByLayer
370
-1
48
1
60
0
100
AcDbEllipse
10
67.543213
20
1.121522
30
0
11
-1.54979004496587
21
0.488646924194454
31
0
210
0
220
0
230
1
40
0.994698
41
-0.924407755756888
42
0.49836353793351
0
ELLIPSE
5
85
100
AcDbEntity
8
1
62
256
6
ByLayer
370
-1
48
1
60
0
100
AcDbEllipse
10
62.12462
20
10.543433
30
0
11
12.4266675174734
21
-0.00254762597088032
31
0
210
0
220
0
230
-1
40
0.094785
41
1.60065163019297
42
1.63701349254733
0
ELLIPSE
5
86
100
AcDbEntity
8
1
62
256
6
ByLayer
370
-1
48
1
60
0
100
AcDbEllipse
10
66.565812
20
-0.434293
30
0
11
-1.43057542612234
21
0.451058699256419
31
0
210
0
220
0
230
1
40
0.994698
41
-0.770801017561732
42
-2.84374308134315
0
ELLIPSE
5
87
100
AcDbEntity
8
1
62
256
6
ByLayer
370
-1
48
1
60
0
100
AcDbEllipse
10
51.899612
20
48.568745
30
0
11
35.9049470610716
21
-133.525257181869
31
-3.47748377233923E-14
210
0
220
2.60436403249364E-16
230
-1
40
0.086814
41
1.18684009058194
42
1.25660616051615
0
ELLIPSE
5
88
100
AcDbEntity
8
1
62
256
6
ByLayer
370
-1
48
1
60
0
100
AcDbEllipse
10
79.582704
20
2.879058
30
0
11
-3.0518942423942
21
0.962258558413654
31
0
210
0
220
0
230
1
40
0.994698
41
0.529363769472414
42
0.616987723653863
0
ELLIPSE
5
89
100
AcDbEntity
8
1
62
256
6
ByLayer
370
-1
48
1
60
0
100
AcDbEllipse
10
66.456032
20
-0.78247
30
0
11
1.43057542612233
21
-0.451058699256427
31
0
210
0
220
0
230
1
40
0.994698
41
1.92082531241091
42
2.26792026907297
0
ELLIPSE
5
8A
100
AcDbEntity
8
1
62
256
6
ByLayer
370
-1
48
1
60
0
100
AcDbEllipse
10
66.456032
20
-0.78247
30
0
11
1.43057542612233
21
-0.451058699256427
31
0
210
0
220
0
230
1
40
0.994698
41
0.400720939201718
42
0.491805473248937
0
ELLIPSE
5
8B
100
AcDbEntity
8
1
62
256
6
ByLayer
370
-1
48
1
60
0
100
AcDbEllipse
10
66.435932
20
-0.846219
30
0
11
1.43057542612233
21
-0.451058699256427
31
0
210
0
220
0
230
1
40
0.994698
41
0.145223575469124
42
0.306960149326259
0
ELLIPSE
5
8C
100
AcDbEntity
8
1
62
256
6
ByLayer
370
-1
48
1
60
0
100
AcDbEllipse
10
66.435932
20
-0.846219
30
0
11
1.43057542612233
21
-0.451058699256427
31
0
210
0
220
0
230
1
40
0.994698
41
1.92081255674255
42
2.99641559051367
0
ELLIPSE
5
8D
100
AcDbEntity
8
1
62
256
6
ByLayer
370
-1
48
1
60
0
100
AcDbEllipse
10
66.435932
20
-0.846219
30
0
11
1.43057542612233
21
-0.451058699256427
31
0
210
0
220
0
230
1
40
0.994698
41
0.30696014932626
42
0.528596087869349
0
ELLIPSE
5
8E
100
AcDbEntity
8
1
62
256
6
ByLayer
370
-1
48
1
60
0
100
AcDbEllipse
10
67.475183
20
0.905756
30
0
11
-1.54979004496587
21
0.488646924194454
31
0
210
0
220
0
230
1
40
0.994698
41
-0.92440775575691
42
-0.0700524291317084
0
ELLIPSE
5
8F
100
AcDbEntity
8
1
62
256
6
ByLayer
370
-1
48
1
60
0
100
AcDbEllipse
10
79.136248
20
12.109696
30
0
11
0.757251258894095
21
-0.238760404806403
31
0
210
0
220
0
230
1
40
0.994698
41
0
42
2.18166156499289
0
ELLIPSE
5
90
100
AcDbEntity
8
1
62
256
6
ByLayer
370
-1
48
1
60
0
100
AcDbEllipse
10
69.904269
20
9.224171
30
0
11
0.757251258894087
21
-0.238760404806401
31
0
210
0
220
0
230
1
40
0.994698
41
2.18166156499296
42
3.14159265358979
0
ELLIPSE
5
91
100
AcDbEntity
8
1
62
256
6
ByLayer
370
-1
48
1
60
0
100
AcDbEllipse
10
67.006091
20
0.032324
30
0
11
0.757251258894095
21
-0.238760404806403
31
0
210
0
220
0
230
1
40
0.994698
41
3.14159265358945
42
-0.959931088597254
0
ELLIPSE
5
92
100
AcDbEntity
8
1
62
256
6
ByLayer
370
-1
48
1
60
0
100
AcDbEllipse
10
76.238069
20
2.917849
30
0
11
0.757251258894087
21
-0.238760404806401
31
0
210
0
220
0
230
1
40
0.994698
41
-0.959931088597181
42
-3.42995410543958E-13
0
ELLIPSE
5
93
100
AcDbEntity
8
1
62
256
6
ByLayer
370
-1
48
1
60
0
100
AcDbEllipse
10
71.683625
20
6.269489
30
0
11
-0.278485349618482
21
0.0878060934552495
31
0
210
0
220
0
230
1
40
0.994698
41
-1.27122687921994
42
-0.242885219054145
0
ELLIPSE
5
94
100
AcDbEntity
8
1
62
256
6
ByLayer
370
-1
48
1
60
0
100
AcDbEllipse
10
71.687869
20
7.242748
30
0
11
-0.654249828213282
21
0.206284178459936
31
0
210
0
220
0
230
1
40
0.994698
41
1.8703657743701
42
2.5400130680742
0
ELLIPSE
5
95
100
AcDbEntity
8
1
62
256
6
ByLayer
370
-1
48
1
60
0
100
AcDbEllipse
10
72.665375
20
7.246967
30
0
11
-0.278485349618482
21
0.0878060934552495
31
0
210
0
220
0
230
1
40
0.994698
41
-2.31254901295645
42
-0.167310412349407
0
ELLIPSE
5
96
100
AcDbEntity
8
1
62
256
6
ByLayer
370
-1
48
1
60
0
100
AcDbEllipse
10
73.511192
20
7.732332
30
0
11
-0.654249828213282
21
0.206284178459936
31
0
210
0
220
0
230
1
40
0.994698
41
0.829043640633383
42
1.61303428425405
0
ELLIPSE
5
97
100
AcDbEntity
8
1
62
256
6
ByLayer
370
-1
48
1
60
0
100
AcDbEllipse
10
73.998873
20
6.887343
30
0
11
-0.278485349618482
21
0.0878060934552495
31
0
210
0
220
0
230
1
40
0.994698
41
-2.87048158676182
42
-0.744567725715096
0
ELLIPSE
5
98
100
AcDbEntity
8
1
62
256
6
ByLayer
370
-1
48
1
60
0
100
AcDbEllipse
10
74.847546
20
6.401775
30
0
11
-0.654249828213282
21
0.206284178459936
31
0
210
0
220
0
230
1
40
0.994698
41
9.7387249165614E-07
42
0.568627280738824
0
ELLIPSE
5
99
100
AcDbEntity
8
1
62
256
6
ByLayer
370
-1
48
1
60
0
100
AcDbEllipse
10
74.360058
20
5.559636
30
0
11
-0.278485349618482
21
0.0878060934552495
31
0
210
0
220
0
230
1
40
0.994698
41
-2.90726433930744
42
-1.7889747292302
0
ELLIPSE
5
9A
100
AcDbEntity
8
1
62
256
6
ByLayer
370
-1
48
1
60
0
100
AcDbEllipse
10
73.021842
20
5.914563
30
0
11
-1.15065950107773
21
0.362801547101911
31
0
210
0
220
0
230
1
40
0.994698
41
-0.410932910886412
42
0.341568246679343
0
ELLIPSE
5
9B
100
AcDbEntity
8
1
62
256
6
ByLayer
370
-1
48
1
60
0
100
AcDbEllipse
10
73.057516
20
6.027707
30
0
11
1.15065950107772
21
-0.362801547101915
31
0
210
0
220
0
230
1
40
0.994698
41
2.59259447587926
42
2.73065974270331
0
ELLIPSE
5
9C
100
AcDbEntity
8
1
62
256
6
ByLayer
370
-1
48
1
60
0
100
AcDbEllipse
10
73.065907
20
6.05432
30
0
11
1.5989064679294
21
-0.504133272868933
31
0
210
0
220
0
230
1
40
0.994698
41
-3.09516887460864
42
-2.05076187109335
0
ELLIPSE
5
9D
100
AcDbEntity
8
1
62
256
6
ByLayer
370
-1
48
1
60
0
100
AcDbEllipse
10
74.355814
20
4.586377
30
0
11
-0.654249828213282
21
0.206284178459936
31
0
210
0
220
0
230
1
40
0.994698
41
-6.25697732487659E-06
42
0.311295790622776
0
ELLIPSE
5
9E
100
AcDbEntity
8
1
62
256
6
ByLayer
370
-1
48
1
60
0
100
AcDbEllipse
10
73.065907
20
6.05432
30
0
11
1.5989064679294
21
-0.504133272868933
31
0
210
0
220
0
230
1
40
0.994698
41
-2.05076187109335
42
-1.00635486757804
0
ELLIPSE
5
9F
100
AcDbEntity
8
1
62
256
6
ByLayer
370
-1
48
1
60
0
100
AcDbEllipse
10
73.021842
20
5.914563
30
0
11
-1.15065950107773
21
0.362801547101911
31
0
210
0
220
0
230
1
40
0.994698
41
0.67514027277158
42
1.35570222622356
0
ELLIPSE
5
A0
100
AcDbEntity
8
1
62
256
6
ByLayer
370
-1
48
1
60
0
100
AcDbEllipse
10
73.057516
20
6.027707
30
0
11
1.15065950107772
21
-0.362801547101915
31
0
210
0
220
0
230
1
40
0.994698
41
-0.548998177710073
42
-0.410932910886751
0
ELLIPSE
5
A1
100
AcDbEntity
8
1
62
256
6
ByLayer
370
-1
48
1
60
0
100
AcDbEllipse
10
73.021842
20
5.914563
30
0
11
1.15065950107773
21
-0.362801547101916
31
0
210
0
220
0
230
1
40
0.994698
41
0.568627280738807
42
1.613034284254
0
ELLIPSE
5
A2
100
AcDbEntity
8
1
62
256
6
ByLayer
370
-1
48
1
60
0
100
AcDbEllipse
10
73.021842
20
5.914563
30
0
11
-1.15065950107773
21
0.362801547101911
31
0
210
0
220
0
230
1
40
0.994698
41
-1.52855836933572
42
-0.548998177710499
0
ELLIPSE
5
A3
100
AcDbEntity
8
1
62
256
6
ByLayer
370
-1
48
1
60
0
100
AcDbEllipse
10
73.065907
20
6.05432
30
0
11
1.5989064679294
21
-0.504133272868933
31
0
210
0
220
0
230
1
40
0.994698
41
-1.00635486757804
42
0.0464237789812327
0
ELLIPSE
5
A4
100
AcDbEntity
8
1
62
256
6
ByLayer
370
-1
48
1
60
0
100
AcDbEllipse
10
73.511192
20
7.732332
30
0
11
-0.654249828213282
21
0.206284178459936
31
0
210
0
220
0
230
1
40
0.994698
41
1.61303428425405
42
2.39702492787489
0
ELLIPSE
5
A5
100
AcDbEntity
8
1
62
256
6
ByLayer
370
-1
48
1
60
0
100
AcDbEllipse
10
73.065907
20
6.05432
30
0
11
1.5989064679294
21
-0.504133272868933
31
0
210
0
220
0
230
1
40
0.994698
41
2.13523778601165
42
-3.09516887460864
0
ELLIPSE
5
A6
100
AcDbEntity
8
1
62
256
6
ByLayer
370
-1
48
1
60
0
100
AcDbEllipse
10
73.021842
20
5.914563
30
0
11
1.15065950107773
21
-0.362801547101916
31
0
210
0
220
0
230
1
40
0.994698
41
2.59259447587926
42
2.73065974270335
0
ELLIPSE
5
A7
100
AcDbEntity
8
1
62
256
6
ByLayer
370
-1
48
1
60
0
100
AcDbEllipse
10
73.065907
20
6.05432
30
0
11
1.5989064679294
21
-0.504133272868933
31
0
210
0
220
0
230
1
40
0.994698
41
1.09083078249644
42
2.13523778601165
0
ELLIPSE
5
A8
100
AcDbEntity
8
1
62
256
6
ByLayer
370
-1
48
1
60
0
100
AcDbEllipse
10
71.687869
20
7.242748
30
0
11
-0.654249828213282
21
0.206284178459936
31
0
210
0
220
0
230
1
40
0.994698
41
2.78324115050849
42
3.14158626127625
0
ELLIPSE
5
A9
100
AcDbEntity
8
1
62
256
6
ByLayer
370
-1
48
1
60
0
100
AcDbEllipse
10
73.021842
20
5.914563
30
0
11
-1.15065950107773
21
0.362801547101911
31
0
210
0
220
0
230
1
40
0.994698
41
1.8608020096701
42
2.54135143342882
0
ELLIPSE
5
AA
100
AcDbEntity
8
1
62
256
6
ByLayer
370
-1
48
1
60
0
100
AcDbEllipse
10
73.065907
20
6.05432
30
0
11
1.5989064679294
21
-0.504133272868933
31
0
210
0
220
0
230
1
40
0.994698
41
0.0464237789812317
42
1.09083078249644
0
ELLIPSE
5
AB
100
AcDbEntity
8
1
62
256
6
ByLayer
370
-1
48
1
60
0
100
AcDbEllipse
10
73.021842
20
5.914563
30
0
11
-1.15065950107773
21
0.362801547101911
31
0
210
0
220
0
230
1
40
0.994698
41
2.87219102365176
42
-2.57296537285094
0
ELLIPSE
5
AC
100
AcDbEntity
8
1
62
256
6
ByLayer
370
-1
48
1
60
0
100
AcDbEllipse
10
74.847546
20
6.401775
30
0
11
-0.654249828213282
21
0.206284178459936
31
0
210
0
220
0
230
1
40
0.994698
41
0.568627280738824
42
1.35261792435964
0
ELLIPSE
5
AD
100
AcDbEntity
8
1
62
256
6
ByLayer
370
-1
48
1
60
0
100
AcDbEllipse
10
73.022615
20
5.917014
30
0
11
2.5035069957141
21
-0.789352723698752
31
0
210
0
220
0
230
1
40
0.994698
41
3.14156590368829
42
-3.40157197154598E-16
0
ELLIPSE
5
AE
100
AcDbEntity
8
1
62
256
6
ByLayer
370
-1
48
1
60
0
100
AcDbEllipse
10
73.057389
20
6.027306
30
0
11
2.50350699571409
21
-0.789352723698749
31
0
210
0
220
0
230
1
40
0.994698
41
0
42
6.28318530717959
0
ELLIPSE
5
AF
100
AcDbEntity
8
1
62
256
6
ByLayer
370
-1
48
1
60
0
100
AcDbEllipse
10
73.065907
20
6.05432
30
0
11
1.71669051134682
21
-0.541270439107717
31
0
210
0
220
0
230
1
40
0.994698
41
0
42
6.28318530717959
0
ELLIPSE
5
B0
100
AcDbEntity
8
1
62
256
6
ByLayer
370
-1
48
1
60
0
100
AcDbEllipse
10
73.034883
20
5.955926
30
0
11
2.80856847542849
21
-0.885538238786331
31
0
210
0
220
0
230
1
40
0.994698
41
0
42
6.28318530717959
0
ELLIPSE
5
B1
100
AcDbEntity
8
1
62
256
6
ByLayer
370
-1
48
1
60
0
100
AcDbEllipse
10
73.039628
20
5.970973
30
0
11
2.86115085224467
21
-0.902117398512854
31
0
210
0
220
0
230
1
40
0.994698
41
-0.72966147235556
42
-2.97637547510275E-16
0
ELLIPSE
5
B2
100
AcDbEntity
8
1
62
256
6
ByLayer
370
-1
48
1
60
0
100
AcDbEllipse
10
73.039628
20
5.970973
30
0
11
2.86115085224467
21
-0.902117398512854
31
0
210
0
220
0
230
1
40
0.994698
41
0
42
0.306960414393227
0
ELLIPSE
5
B3
100
AcDbEntity
8
1
62
256
6
ByLayer
370
-1
48
1
60
0
100
AcDbEllipse
10
73.039628
20
5.970973
30
0
11
2.86115085224467
21
-0.902117398512854
31
0
210
0
220
0
230
1
40
0.994698
41
-2.39882888334035
42
-0.7428167209328
0
ELLIPSE
5
B4
100
AcDbEntity
8
1
62
256
6
ByLayer
370
-1
48
1
60
0
100
AcDbEllipse
10
73.039628
20
5.970973
30
0
11
2.86115085224467
21
-0.902117398512854
31
0
210
0
220
0
230
1
40
0.994698
41
0.306960484272814
42
-2.41198413560436
0
ELLIPSE
5
B5
100
AcDbEntity
8
1
62
256
6
ByLayer
370
-1
48
1
60
0
100
AcDbEllipse
10
73.071169
20
6.07101
30
0
11
2.92917504582422
21
-0.923565344362954
31
0
210
0
220
0
230
1
40
0.994698
41
0
42
6.28318530717959
0
POINT
5
41
100
AcDbEntity
8
80
62
256
6
ByLayer
370
-1
48
1
60
0
100
AcDbPoint
10
0
20
0
30
0
39
0
210
0
220
0
230
1
50
360
0
POINT
5
43
100
AcDbEntity
8
81
62
256
6
ByLayer
370
-1
48
1
60
0
100
AcDbPoint
10
79.93
20
12.9
30
0
39
0
210
0
220
0
230
1
50
360
0
POINT
5
45
100
AcDbEntity
8
1
62
256
6
ByLayer
370
-1
48
1
60
0
100
AcDbPoint
10
-171.32
20
0
30
0
39
0
210
0
220
0
230
1
50
360
0
POINT
5
47
100
AcDbEntity
8
2
62
256
6
ByLayer
370
-1
48
1
60
0
100
AcDbPoint
10
79.93
20
12.9
30
0
39
0
210
0
220
0
230
1
50
360
0
POINT
5
49
100
AcDbEntity
8
2
62
256
6
ByLayer
370
-1
48
1
60
0
100
AcDbPoint
10
79.633816
20
11.720744
30
0
39
0
210
0
220
0
230
1
50
360
0
SPLINE
5
B6
100
AcDbEntity
8
1
62
256
6
ByLayer
370
-1
48
1
60
0
100
AcDbSpline
70
4
71
3
72
28
73
24
40
-0.125000000000009
40
-0.125000000000009
40
0
40
0
40
0.124999999999996
40
0.124999999999996
40
0.187499999999994
40
0.187499999999994
40
0.249999999999993
40
0.249999999999993
40
0.374999999999989
40
0.374999999999989
40
0.499999999999985
40
0.499999999999985
40
0.624999999999981
40
0.624999999999981
40
0.687499999999979
40
0.687499999999979
40
0.718749999999981
40
0.718749999999981
40
0.749999999999982
40
0.749999999999982
40
0.874999999999991
40
0.874999999999991
40
1
40
1
40
1.125
40
1.125
41
1
10
58.5681303999854
20
2.29622383162948
30
0
41
1
10
57.5935405540221
20
1.87603128387599
30
0
41
1
10
57.0871609978196
20
1.75124773118321
30
0
41
1
10
56.3367258886339
20
1.96523978119421
30
0
41
1
10
56.0952030539697
20
2.11226951757359
30
0
41
1
10
55.7316979291378
20
2.59352940386066
30
0
41
1
10
55.6328492722795
20
2.91345937262295
30
0
41
1
10
55.6291817223628
20
3.79716940486259
30
0
41
1
10
55.9551328554016
20
4.24229336740734
30
0
41
1
10
56.7555985737661
20
4.83059397238253
30
0
41
1
10
57.2546554995221
20
5.00624990091123
30
0
41
1
10
58.3145997966735
20
5.21956064072805
30
0
41
1
10
58.8899969492765
20
5.26471849896916
30
0
41
1
10
59.7698431503363
20
5.19951821447111
30
0
41
1
10
60.0718865217893
20
5.1645687183923
30
0
41
1
10
60.4896740940711
20
4.97216271726333
30
0
41
1
10
60.629013673879
20
4.86873334483261
30
0
41
1
10
60.7277959301284
20
4.57495088813317
30
0
41
1
10
60.6863201015059
20
4.41342265780634
30
0
41
1
10
60.3801033567049
20
3.72022316539682
30
0
41
1
10
59.9125114321777
20
3.32248860573489
30
0
41
1
10
59.0361898968626
20
2.60281139311306
30
0
41
1
10
58.5681303999854
20
2.29622383162948
30
0
41
1
10
57.5935405540221
20
1.87603128387599
30
0
0
SPLINE
5
B7
100
AcDbEntity
8
1
62
256
6
ByLayer
370
-1
48
1
60
0
100
AcDbSpline
70
4
71
3
72
8
73
4
40
0
40
0
40
0
40
0
40
1
40
1
40
1
40
1
41
1
10
65.9496009436157
20
0.81387760661903
30
0
41
1
10
65.916472245989
20
0.838731841247068
30
0
41
1
10
65.8839423481941
20
0.861034114898388
30
0
41
1
10
65.8521755550356
20
0.880687246838136
30
0
0
SPLINE
5
B8
100
AcDbEntity
8
1
62
256
6
ByLayer
370
-1
48
1
60
0
100
AcDbSpline
70
4
71
3
72
8
73
4
40
0
40
0
40
0
40
0
40
1
40
1
40
1
40
1
41
1
10
51.9715118485546
20
4.33878745302161
30
0
41
1
10
51.7345187863952
20
6.07452068055412
30
0
41
1
10
51.8305051095646
20
7.5974791925598
30
0
41
1
10
52.6679597375418
20
8.50874999999996
30
0
0
SPLINE
5
B9
100
AcDbEntity
8
1
62
256
6
ByLayer
370
-1
48
1
60
0
100
AcDbSpline
70
4
71
3
72
14
73
10
40
0
40
0
40
0
40
0
40
0.25
40
0.25
40
0.5
40
0.5
40
0.75
40
0.75
40
1
40
1
40
1
40
1
41
1
10
66.4496487413014
20
-9.73769528852642
30
0
41
1
10
65.1379605590799
20
-9.7183663771529
30
0
41
1
10
63.8763426223675
20
-9.65936534857653
30
0
41
1
10
61.448688236182
20
-9.37550744689287
30
0
41
1
10
60.2950190269385
20
-9.14469182620377
30
0
41
1
10
58.2475721410338
20
-8.37490143468062
30
0
41
1
10
57.3312410787437
20
-7.81952494454671
30
0
41
1
10
55.7926603933859
20
-6.34558989502082
30
0
41
1
10
55.144077380229
20
-5.40336776392584
30
0
41
1
10
54.6014557356213
20
-4.33878745302215
30
0
0
SPLINE
5
BA
100
AcDbEntity
8
1
62
256
6
ByLayer
370
-1
48
1
60
0
100
AcDbSpline
70
4
71
3
72
18
73
14
40
0
40
0
40
0
40
0
40
0.203839698981051
40
0.203839698981051
40
0.379501081172454
40
0.379501081172454
40
0.556945180961225
40
0.556945180961225
40
0.710235104215216
40
0.710235104215216
40
0.911578475536729
40
0.911578475536729
40
1
40
1
40
1
40
1
41
1
10
72.9586058422561
20
7.52095427482601
30
0
41
1
10
72.9916291253283
20
7.45876403135924
30
0
41
1
10
73.0346754293042
20
7.40000659192245
30
0
41
1
10
73.1316901787854
20
7.30516558436253
30
0
41
1
10
73.1845593654551
20
7.26612305551552
30
0
41
1
10
73.3008934993768
20
7.20570812814435
30
0
41
1
10
73.3663125319138
20
7.18382180391379
30
0
41
1
10
73.488802793651
20
7.16375576754524
30
0
41
1
10
73.5472433402535
20
7.16241887766967
30
0
41
1
10
73.6762709962749
20
7.17594874214248
30
0
41
1
10
73.7471553014111
20
7.19598367031787
30
0
41
1
10
73.8400792224997
20
7.23776842365967
30
0
41
1
10
73.8676325493284
20
7.25244599062293
30
0
41
1
10
73.8939633878613
20
7.26870226509416
30
0
0
SPLINE
5
BB
100
AcDbEntity
8
1
62
256
6
ByLayer
370
-1
48
1
60
0
100
AcDbSpline
70
4
71
3
72
16
73
12
40
0
40
0
40
0
40
0
40
0.210865975015248
40
0.210865975015248
40
0.434136373661145
40
0.434136373661145
40
0.668179701415208
40
0.668179701415208
40
0.923027049895166
40
0.923027049895166
40
1
40
1
40
1
40
1
41
1
10
74.6863619802012
20
5.62453691869382
30
0
41
1
10
74.6934922486636
20
5.65147448191806
30
0
41
1
10
74.6966357532755
20
5.67960438416185
30
0
41
1
10
74.6946438847036
20
5.73571998406723
30
0
41
1
10
74.6889861027
20
5.76431669282974
30
0
41
1
10
74.6694472548267
20
5.81807253834785
30
0
41
1
10
74.6549654361823
20
5.84368482561516
30
0
41
1
10
74.6183470636167
20
5.88994484441358
30
0
41
1
10
74.5952140941071
20
5.91054972509124
30
0
41
1
10
74.562299478283
20
5.93152959020605
30
0
41
1
10
74.5543886044841
20
5.9360392175011
30
0
41
1
10
74.5463031971543
20
5.9401447600915
30
0
0
SPLINE
5
BC
100
AcDbEntity
8
1
62
256
6
ByLayer
370
-1
48
1
60
0
100
AcDbSpline
70
4
71
3
72
12
73
8
40
0
40
0
40
0
40
0
40
0.280843895032211
40
0.280843895032211
40
0.738265052160353
40
0.738265052160353
40
1
40
1
40
1
40
1
41
1
10
72.2642663227135
20
6.93446230811213
30
0
41
1
10
72.2923310899532
20
6.97050471444521
30
0
41
1
10
72.3168132238425
20
7.00965421480677
30
0
41
1
10
72.3697067121353
20
7.1154207927955
30
0
41
1
10
72.3918400932783
20
7.18549506236158
30
0
41
1
10
72.4103658293508
20
7.29470689033161
30
0
41
1
10
72.4138335791409
20
7.33488752241126
30
0
41
1
10
72.4141652450859
20
7.37460931458222
30
0
0
SPLINE
5
BD
100
AcDbEntity
8
1
62
256
6
ByLayer
370
-1
48
1
60
0
100
AcDbSpline
70
4
71
3
72
18
73
14
40
0
40
0
40
0
40
0
40
0.203754781885778
40
0.203754781885778
40
0.379431455936148
40
0.379431455936148
40
0.556891837044669
40
0.556891837044669
40
0.710185290157849
40
0.710185290157849
40
0.911514036362936
40
0.911514036362936
40
1
40
1
40
1
40
1
41
1
10
74.2929566122123
20
6.87143997614288
30
0
41
1
10
74.2581098578538
20
6.80928377601958
30
0
41
1
10
74.2311661042469
20
6.74036573638236
30
0
41
1
10
74.201339285984
20
6.60563699962572
30
0
41
1
10
74.1954797478291
20
6.53914191797764
30
0
41
1
10
74.2033605030052
20
6.40704804726963
30
0
41
1
10
74.217631634267
20
6.33952032653792
30
0
41
1
10
74.2613365137856
20
6.22481691223646
30
0
41
1
10
74.2888808363306
20
6.17470799034288
30
0
41
1
10
74.3631916438842
20
6.07319860828835
30
0
41
1
10
74.414345970192
20
6.02439334605461
30
0
41
1
10
74.4943206223103
20
5.96878482460548
30
0
41
1
10
74.5199498106939
20
5.95352626903718
30
0
41
1
10
74.5463031971543
20
5.94014476009147
30
0
0
SPLINE
5
BE
100
AcDbEntity
8
1
62
256
6
ByLayer
370
-1
48
1
60
0
100
AcDbSpline
70
4
71
3
72
16
73
12
40
0
40
0
40
0
40
0
40
0.0391696991978274
40
0.0391696991978274
40
0.26236719634453
40
0.26236719634453
40
0.486994454656529
40
0.486994454656529
40
0.72496098078134
40
0.72496098078134
40
1
40
1
40
1
40
1
41
1
10
71.8828130073583
20
4.87637418802717
30
0
41
1
10
71.8865340779759
20
4.87266926037259
30
0
41
1
10
71.890355002579
20
4.86905588451432
30
0
41
1
10
71.9163423344716
20
4.84571486270517
30
0
41
1
10
71.9417066392655
20
4.82890011841707
30
0
41
1
10
71.9948846475996
20
4.80364887340559
30
0
41
1
10
72.0233827206508
20
4.79492462568322
30
0
41
1
10
72.081299776518
20
4.78567813039024
30
0
41
1
10
72.1113950951753
20
4.78552759626177
30
0
41
1
10
72.1723943297446
20
4.79407172892761
30
0
41
1
10
72.2035613494761
20
4.804212752637
30
0
41
1
10
72.231112517602
20
4.81856794667641
30
0
0
SPLINE
5
BF
100
AcDbEntity
8
1
62
256
6
ByLayer
370
-1
48
1
60
0
100
AcDbSpline
70
4
71
3
72
16
73
12
40
0
40
0
40
0
40
0
40
0.0508946238245027
40
0.0508946238245027
40
0.273953170913134
40
0.273953170913134
40
0.49911814376744
40
0.49911814376744
40
0.738178346966246
40
0.738178346966246
40
1
40
1
40
1
40
1
41
1
10
71.4454516676163
20
6.48410268170673
30
0
41
1
10
71.4437162297468
20
6.477546341286
30
0
41
1
10
71.442207199211
20
6.47091256876274
30
0
41
1
10
71.4353818805536
20
6.4351806273782
30
0
41
1
10
71.4342763093913
20
6.4047329368982
30
0
41
1
10
71.4407843237166
20
6.34568353356707
30
0
41
1
10
71.4485405556849
20
6.31634729652788
30
0
41
1
10
71.4718599440935
20
6.26078116832875
30
0
41
1
10
71.4881387503103
20
6.2341466214001
30
0
41
1
10
71.5279487381419
20
6.18577456874539
30
0
41
1
10
71.5524951026867
20
6.16411506531435
30
0
41
1
10
71.5787727083091
20
6.14712545167913
30
0
0
SPLINE
5
C0
100
AcDbEntity
8
1
62
256
6
ByLayer
370
-1
48
1
60
0
100
AcDbSpline
70
4
71
3
72
18
73
14
40
0
40
0
40
0
40
0
40
0.207450143525484
40
0.207450143525484
40
0.382431261024069
40
0.382431261024069
40
0.559152282490201
40
0.559152282490201
40
0.712271697055424
40
0.712271697055424
40
0.914214959432516
40
0.914214959432516
40
1
40
1
40
1
40
1
41
1
10
73.1664700632073
20
4.56631593694465
30
0
41
1
10
73.1306336591904
20
4.62256950776106
30
0
41
1
10
73.0845168553761
20
4.67567096580379
30
0
41
1
10
72.9829583788271
20
4.76080126686148
30
0
41
1
10
72.9288432958888
20
4.79569511927406
30
0
41
1
10
72.8111852866863
20
4.8509120352758
30
0
41
1
10
72.74571712567
20
4.87176764236466
30
0
41
1
10
72.6241426494718
20
4.89338542520639
30
0
41
1
10
72.5665115974706
20
4.89678555949161
30
0
41
1
10
72.4397448706648
20
4.89012606351614
30
0
41
1
10
72.3705785390492
20
4.87552399180112
30
0
41
1
10
72.2814358868524
20
4.84277676871289
30
0
41
1
10
72.2556890747034
20
4.83137325657876
30
0
41
1
10
72.2311125176017
20
4.81856794667667
30
0
0
SPLINE
5
C1
100
AcDbEntity
8
1
62
256
6
ByLayer
370
-1
48
1
60
0
100
AcDbSpline
70
4
71
3
72
20
73
16
40
0
40
0
40
0
40
0
40
0.0787142912852068
40
0.0787142912852068
40
0.280332589248244
40
0.280332589248244
40
0.443018098594959
40
0.443018098594959
40
0.606578124270425
40
0.606578124270425
40
0.758869741091604
40
0.758869741091604
40
0.974240686225133
40
0.974240686225133
40
1
40
1
40
1
40
1
41
1
10
71.8321192932511
20
5.21583023562769
30
0
41
1
10
71.8447931507629
20
5.23726128617119
30
0
41
1
10
71.8562674757447
20
5.25968374761911
30
0
41
1
10
71.8922101505125
20
5.34237903523791
30
0
41
1
10
71.9095823437188
20
5.40869335732518
30
0
41
1
10
71.9206060312463
20
5.534909388068
30
0
41
1
10
71.9181541594819
20
5.59501144452457
30
0
41
1
10
71.8970998787547
20
5.71406909276914
30
0
41
1
10
71.8780548679492
20
5.77457472182383
30
0
41
1
10
71.8285485992761
20
5.88242952218957
30
0
41
1
10
71.7984770502857
20
5.93169491020672
30
0
41
1
10
71.7170859381995
20
6.03736892340746
30
0
41
1
10
71.6608300760426
20
6.09033886050759
30
0
41
1
10
71.5935134415914
20
6.1374048242331
30
0
41
1
10
71.5861742162958
20
6.14234005521581
30
0
41
1
10
71.5787727083091
20
6.14712545167916
30
0
0
SPLINE
5
C2
100
AcDbEntity
8
1
62
256
6
ByLayer
370
-1
48
1
60
0
100
AcDbSpline
70
4
71
3
72
12
73
8
40
0
40
0
40
0
40
0
40
0.318253352929604
40
0.318253352929604
40
0.785980947172259
40
0.785980947172259
40
1
40
1
40
1
40
1
41
1
10
73.8507651207254
20
5.12095094010854
30
0
41
1
10
73.819274852835
20
5.08116722252555
30
0
41
1
10
73.7927226493644
20
5.03837535289961
30
0
41
1
10
73.7416443802159
20
4.93159322500338
30
0
41
1
10
73.7229073237908
20
4.86532671415199
30
0
41
1
10
73.7114570411423
20
4.77110873460927
30
0
41
1
10
73.7100761246102
20
4.7415270814779
30
0
41
1
10
73.7108030997132
20
4.71231975834499
30
0
0
SPLINE
5
C3
100
AcDbEntity
8
1
62
256
6
ByLayer
370
-1
48
1
60
0
100
AcDbSpline
70
4
71
3
72
14
73
10
40
0
40
0
40
0
40
0
40
0.265760128999076
40
0.265760128999076
40
0.554368949403267
40
0.554368949403267
40
0.815390416513057
40
0.815390416513057
40
1
40
1
40
1
40
1
41
1
10
72.9586058422561
20
7.52095427482601
30
0
41
1
10
72.9433830645821
20
7.54962217703655
30
0
41
1
10
72.9232194691874
20
7.57642127537804
30
0
41
1
10
72.8729680036313
20
7.62370511242128
30
0
41
1
10
72.8413233839727
20
7.64414068569141
30
0
41
1
10
72.7757715211471
20
7.66980528389817
30
0
41
1
10
72.7413542875675
20
7.67663010469869
30
0
41
1
10
72.6827619671578
20
7.6770543352697
30
0
41
1
10
72.6580137702635
20
7.67397020181892
30
0
41
1
10
72.6342592008719
20
7.66773714748368
30
0
0
SPLINE
5
C4
100
AcDbEntity
8
1
62
256
6
ByLayer
370
-1
48
1
60
0
100
AcDbSpline
70
4
71
3
72
14
73
10
40
0
40
0
40
0
40
0
40
0.273803277225389
40
0.273803277225389
40
0.559583195723323
40
0.559583195723323
40
0.818059173535345
40
0.818059173535345
40
1
40
1
40
1
40
1
41
1
10
71.7255348122242
20
6.68897544053874
30
0
41
1
10
71.6934773492793
20
6.6908815417211
30
0
41
1
10
71.6604002334785
20
6.68715940240497
30
0
41
1
10
71.5961293675528
20
6.66739948785772
30
0
41
1
10
71.5640947648175
20
6.65045174527472
30
0
41
1
10
71.5114778425693
20
6.60689710747352
30
0
41
1
10
71.489336572784
20
6.58065886161742
30
0
41
1
10
71.4609579843715
20
6.53042312557042
30
0
41
1
10
71.4516793853598
20
6.50763048312723
30
0
41
1
10
71.4454516676163
20
6.48410268170673
30
0
0
SPLINE
5
C5
100
AcDbEntity
8
1
62
256
6
ByLayer
370
-1
48
1
60
0
100
AcDbSpline
70
4
71
3
72
16
73
12
40
0
40
0
40
0
40
0
40
0.0917881897798168
40
0.0917881897798168
40
0.312120978176882
40
0.312120978176882
40
0.536880311829834
40
0.536880311829834
40
0.777295958032693
40
0.777295958032693
40
1
40
1
40
1
40
1
41
1
10
73.4975544469457
20
4.44090245291682
30
0
41
1
10
73.5094991852895
20
4.44403667951084
30
0
41
1
10
73.5212580233525
20
4.44790226202394
30
0
41
1
10
73.5599182481298
20
4.46328363454032
30
0
41
1
10
73.5855876195066
20
4.47825840339959
30
0
41
1
10
73.6303849880023
20
4.51407572400728
30
0
41
1
10
73.6499556957244
20
4.53546581683028
30
0
41
1
10
73.6818488404627
20
4.58282077961488
30
0
41
1
10
73.6939981219213
20
4.60957591752674
30
0
41
1
10
73.7083700372128
20
4.66158358533727
30
0
41
1
10
73.7114265169479
20
4.68727302904131
30
0
41
1
10
73.7108030997134
20
4.71231975834499
30
0
0
SPLINE
5
C6
100
AcDbEntity
8
1
62
256
6
ByLayer
370
-1
48
1
60
0
100
AcDbSpline
70
4
71
3
72
16
73
12
40
0
40
0
40
0
40
0
40
0.182068454526244
40
0.182068454526244
40
0.486943658642033
40
0.486943658642033
40
0.756542763149108
40
0.756542763149108
40
0.996027534819187
40
0.996027534819187
40
1
40
1
40
1
40
1
41
1
10
74.2929566122191
20
6.87143997613845
30
0
41
1
10
74.303969506853
20
6.89108369032053
30
0
41
1
10
74.3130626814557
20
6.91218290970033
30
0
41
1
10
74.330996997214
20
6.97074098667443
30
0
41
1
10
74.3357374251856
20
7.01081596455066
30
0
41
1
10
74.3296450551122
20
7.08510906301453
30
0
41
1
10
74.3203824285375
20
7.120605353992
30
0
41
1
10
74.291433169965
20
7.18154310974597
30
0
41
1
10
74.2725805372914
20
7.20852307330244
30
0
41
1
10
74.2497604017737
20
7.2315067709302
30
0
41
1
10
74.2493810546911
20
7.23188664847635
30
0
41
1
10
74.2490006404591
20
7.23226541237332
30
0
0
SPLINE
5
C7
100
AcDbEntity
8
1
62
256
6
ByLayer
370
-1
48
1
60
0
100
AcDbSpline
70
4
71
3
72
12
73
8
40
0
40
0
40
0
40
0
40
0.489770539535798
40
0.489770539535798
40
0.895689052405909
40
0.895689052405909
40
1
40
1
40
1
40
1
41
1
10
74.3994335325592
20
5.39795363238778
30
0
41
1
10
74.3278210609095
20
5.39486801912625
30
0
41
1
10
74.2539102521037
20
5.38101242729573
30
0
41
1
10
74.1229264449041
20
5.33467671405487
30
0
41
1
10
74.0637079253491
20
5.30513045636044
30
0
41
1
10
73.99538716827
20
5.25855412672937
30
0
41
1
10
73.9816181973287
20
5.24845910094047
30
0
41
1
10
73.9682230651046
20
5.23789776905889
30
0
0
SPLINE
5
C8
100
AcDbEntity
8
1
62
256
6
ByLayer
370
-1
48
1
60
0
100
AcDbSpline
70
4
71
3
72
14
73
10
40
0
40
0
40
0
40
0
40
0.315832384938471
40
0.315832384938471
40
0.606160111729516
40
0.606160111729516
40
0.861458165873532
40
0.861458165873532
40
1
40
1
40
1
40
1
41
1
10
73.1664700632073
20
4.56631593694459
30
0
41
1
10
73.1856926572478
20
4.53614160487103
30
0
41
1
10
73.2119132770746
20
4.50831087291382
30
0
41
1
10
73.2720630228834
20
4.46592511076784
30
0
41
1
10
73.3062124483192
20
4.44987351294259
30
0
41
1
10
73.3743947152453
20
4.43236495215615
30
0
41
1
10
73.4089806258834
20
4.42917315570611
30
0
41
1
10
73.4612155454617
20
4.43312759029692
30
0
41
1
10
73.4796760005882
20
4.43621125747822
30
0
41
1
10
73.4975544469457
20
4.44090245291682
30
0
0
SPLINE
5
C9
100
AcDbEntity
8
1
62
256
6
ByLayer
370
-1
48
1
60
0
100
AcDbSpline
70
4
71
3
72
18
73
14
40
0
40
0
40
0
40
0
40
0.0495363194943855
40
0.0495363194943855
40
0.270547420187463
40
0.270547420187463
40
0.493594435012524
40
0.493594435012524
40
0.730366613693188
40
0.730366613693188
40
0.990055948912716
40
0.990055948912716
40
1
40
1
40
1
40
1
41
1
10
72.6342592008719
20
7.66773714748368
30
0
41
1
10
72.6277894667056
20
7.66603952864125
30
0
41
1
10
72.6213710979742
20
7.66410765338185
30
0
41
1
10
72.5869752787885
20
7.65240198507496
30
0
41
1
10
72.5600605134284
20
7.63814904066894
30
0
41
1
10
72.5124547187784
20
7.60270342941536
30
0
41
1
10
72.4912029863131
20
7.5810153243286
30
0
41
1
10
72.4555437602679
20
7.53213688391654
30
0
41
1
10
72.4411659698712
20
7.50409725505583
30
0
41
1
10
72.4205143769973
20
7.44383609595343
30
0
41
1
10
72.4148661998318
20
7.41072710551495
30
0
41
1
10
72.4141934309753
20
7.37711192370747
30
0
41
1
10
72.4141756906128
20
7.37586031744456
30
0
41
1
10
72.414165245086
20
7.37460931458222
30
0
0
SPLINE
5
CA
100
AcDbEntity
8
1
62
256
6
ByLayer
370
-1
48
1
60
0
100
AcDbSpline
70
4
71
3
72
16
73
12
40
0
40
0
40
0
40
0
40
0.182254090551257
40
0.182254090551257
40
0.479305550984552
40
0.479305550984552
40
0.747643906132919
40
0.747643906132919
40
0.986051044629983
40
0.986051044629983
40
1
40
1
40
1
40
1
41
1
10
74.3994335325627
20
5.39795363238468
30
0
41
1
10
74.4215061368458
20
5.39890468907669
30
0
41
1
10
74.4439315629845
20
5.40225409747933
30
0
41
1
10
74.5016859824725
20
5.41750643770896
30
0
41
1
10
74.5373118762054
20
5.43386868807181
30
0
41
1
10
74.5973172144368
20
5.47669621909014
30
0
41
1
10
74.623336545418
20
5.50275192560972
30
0
41
1
10
74.6618712257854
20
5.5585678231696
30
0
41
1
10
74.6760938944706
20
5.58841292787758
30
0
41
1
10
74.6853757872423
20
5.62088391949254
30
0
41
1
10
74.6858780117482
20
5.62270852599454
30
0
41
1
10
74.6863619802012
20
5.62453691869382
30
0
0
SPLINE
5
CB
100
AcDbEntity
8
1
62
256
6
ByLayer
370
-1
48
1
60
0
100
AcDbSpline
70
4
71
3
72
14
73
10
40
0
40
0
40
0
40
0
40
0.250564982391839
40
0.250564982391839
40
0.541078196608534
40
0.541078196608534
40
0.803680563854605
40
0.803680563854605
40
1
40
1
40
1
40
1
41
1
10
71.832119293251
20
5.21583023562781
30
0
41
1
10
71.8179141390454
20
5.19180981584049
30
0
41
1
10
71.8072859294472
20
5.16478451888818
30
0
41
1
10
71.7944600085326
20
5.10330745866023
30
0
41
1
10
71.7937557497025
20
5.06733488682417
30
0
41
1
10
71.8059988597485
20
4.99997617950942
30
0
41
1
10
71.8178905077097
20
4.96746561201959
30
0
41
1
10
71.8480887721396
20
4.91578986846403
30
0
41
1
10
71.8643033079792
20
4.89480358756168
30
0
41
1
10
71.8828130073583
20
4.87637418802717
30
0
0
SPLINE
5
CC
100
AcDbEntity
8
1
62
256
6
ByLayer
370
-1
48
1
60
0
100
AcDbSpline
70
4
71
3
72
12
73
8
40
0
40
0
40
0
40
0
40
0.423210197017903
40
0.423210197017903
40
0.841214545427696
40
0.841214545427696
40
1
40
1
40
1
40
1
41
1
10
71.7255348122241
20
6.6889754405355
30
0
41
1
10
71.7854968005723
20
6.68541016722978
30
0
41
1
10
71.8471346255245
20
6.69015689463126
30
0
41
1
10
71.967708769507
20
6.71823657151549
30
0
41
1
10
72.0280661260586
20
6.74186152400577
30
0
41
1
10
72.1056876918996
20
6.78787369379151
30
0
41
1
10
72.1266481277727
20
6.80203541207126
30
0
41
1
10
72.1468083783337
20
6.81751547916119
30
0
0
SPLINE
5
CD
100
AcDbEntity
8
1
62
256
6
ByLayer
370
-1
48
1
60
0
100
AcDbSpline
70
4
71
3
72
16
73
12
40
0
40
0
40
0
40
0
40
0.220624250917735
40
0.220624250917735
40
0.444118580838846
40
0.444118580838846
40
0.678883130902796
40
0.678883130902796
40
0.934834373788326
40
0.934834373788326
40
1
40
1
40
1
40
1
41
1
10
74.2490006404591
20
7.23226541237332
30
0
41
1
10
74.2282528165986
20
7.2529232268287
30
0
41
1
10
74.2039535435097
20
7.27043696345555
30
0
41
1
10
74.1519445087939
20
7.29675752057878
30
0
41
1
10
74.1235347971236
20
7.30579862967471
30
0
41
1
10
74.0652903897765
20
7.31498676723083
30
0
41
1
10
74.0347303906688
20
7.31480777244718
30
0
41
1
10
73.9738274546684
20
7.30525206088947
30
0
41
1
10
73.9429854838733
20
7.29496233161308
30
0
41
1
10
73.9078247216119
20
7.27689223434984
30
0
41
1
10
73.9008028604309
20
7.27292485539243
30
0
41
1
10
73.8939633878612
20
7.26870226509425
30
0
0
SPLINE
5
CE
100
AcDbEntity
8
SK1
62
256
6
ByLayer
370
-1
48
1
60
0
100
AcDbSpline
70
4
71
3
72
10
73
6
40
0
40
0
40
0
40
0
40
0.5
40
0.5
40
1
40
1
40
1
40
1
41
1
10
-169.32
20
4.33878745302189
30
0
41
1
10
-169.919233025873
20
2.95888879825199
30
0
41
1
10
-170.310991214146
20
1.50358877622818
30
0
41
1
10
-170.311508518976
20
-1.50048916054567
30
0
41
1
10
-169.920392105394
20
-2.95621969924952
30
0
41
1
10
-169.32
20
-4.33878745302189
30
0
0
SPLINE
5
CF
100
AcDbEntity
8
SK1
62
256
6
ByLayer
370
-1
48
1
60
0
100
AcDbSpline
70
4
71
3
72
8
73
4
40
0
40
0
40
0
40
0
40
1
40
1
40
1
40
1
41
1
10
-170.802499986183
20
8.50874999999999
30
0
41
1
10
-170.802576023436
20
8.50874999999999
30
0
41
1
10
-170.174914121567
20
8.50874999999999
30
0
41
1
10
-169.32
20
8.50874999999999
30
0
0
LINE
5
4A
100
AcDbEntity
8
80
62
256
6
ByLayer
370
-1
48
1
60
0
100
AcDbLine
10
0
20
0
30
0
11
-10
21
0
31
0
39
0
210
0
220
0
230
1
0
LINE
5
4B
100
AcDbEntity
8
1
62
256
6
ByLayer
370
-1
48
1
60
0
100
AcDbLine
10
0
20
-9.99125
30
0
11
66.107275
21
-9.99125
31
0
39
0
210
0
220
0
230
1
0
LINE
5
4C
100
AcDbEntity
8
SK1
62
256
6
ByLayer
370
-1
48
1
60
0
100
AcDbLine
10
-169.32
20
-9.99125
30
0
11
0
21
-9.99125
31
0
39
0
210
0
220
0
230
1
0
LINE
5
4E
100
AcDbEntity
8
SK1
62
256
6
ByLayer
370
-1
48
1
60
0
100
AcDbLine
10
-170.8025
20
8.50875
30
0
11
-171.32
21
7.99125
31
0
39
0
210
0
220
0
230
1
0
LINE
5
4F
100
AcDbEntity
8
SK1
62
256
6
ByLayer
370
-1
48
1
60
0
100
AcDbLine
10
-171.32
20
-7.99125
30
0
11
-169.32
21
-9.99125
31
0
39
0
210
0
220
0
230
1
0
LINE
5
50
100
AcDbEntity
8
1
62
256
6
ByLayer
370
-1
48
1
60
0
100
AcDbLine
10
71.850387
20
5.221066
30
0
11
71.88902
21
5.343596
31
0
39
0
210
0
220
0
230
1
0
LINE
5
51
100
AcDbEntity
8
1
62
256
6
ByLayer
370
-1
48
1
60
0
100
AcDbLine
10
73.739319
20
4.912405
30
0
11
73.701564
21
4.792662
31
0
39
0
210
0
220
0
230
1
0
LINE
5
52
100
AcDbEntity
8
1
62
256
6
ByLayer
370
-1
48
1
60
0
100
AcDbLine
10
75.526122
20
5.127662
30
0
11
75.560896
21
5.237953
31
0
39
0
210
0
220
0
230
1
0
LINE
5
53
100
AcDbEntity
8
1
62
256
6
ByLayer
370
-1
48
1
60
0
100
AcDbLine
10
70.553882
20
6.816659
30
0
11
70.519108
21
6.706367
31
0
39
0
210
0
220
0
230
1
0
LINE
5
54
100
AcDbEntity
8
1
62
256
6
ByLayer
370
-1
48
1
60
0
100
AcDbLine
10
74.231903
20
6.730502
30
0
11
74.193297
21
6.608059
31
0
39
0
210
0
220
0
230
1
0
LINE
5
55
100
AcDbEntity
8
1
62
256
6
ByLayer
370
-1
48
1
60
0
100
AcDbLine
10
72.342119
20
7.036463
30
0
11
72.379876
21
7.156214
31
0
39
0
210
0
220
0
230
1
0
LINE
5
56
100
AcDbEntity
8
81
62
256
6
ByLayer
370
-1
48
1
60
0
100
AcDbLine
10
79.93
20
12.9
30
0
11
89.93
21
12.9
31
0
39
0
210
0
220
0
230
1
0
LINE
5
57
100
AcDbEntity
8
SK4
62
256
6
ByLayer
370
-1
48
0.05
60
0
100
AcDbLine
10
-176.32
20
0
30
0
11
84.633816
21
0
31
0
39
0
210
0
220
0
230
1
0
LINE
5
59
100
AcDbEntity
8
4
62
256
6
ByLayer
370
-1
48
0.05
60
0
100
AcDbLine
10
0
20
0
30
0
11
84.633816
21
0
31
0
39
0
210
0
220
0
230
1
0
LINE
5
5B
100
AcDbEntity
8
1
62
256
6
ByLayer
370
-1
48
1
60
0
100
AcDbLine
10
66.817257
20
-9.465453
30
0
11
74.823268
21
-3.536368
31
0
39
0
210
0
220
0
230
1
0
LINE
5
5C
100
AcDbEntity
8
1
62
256
6
ByLayer
370
-1
48
1
60
0
100
AcDbLine
10
66.449649
20
-9.737695
30
0
11
66.107275
21
-9.99125
31
0
39
0
210
0
220
0
230
1
0
LINE
5
5D
100
AcDbEntity
8
1
62
256
6
ByLayer
370
-1
48
1
60
0
100
AcDbLine
10
0
20
-4.338787
30
0
11
54.601456
21
-4.338787
31
0
39
0
210
0
220
0
230
1
0
LINE
5
5E
100
AcDbEntity
8
1
62
256
6
ByLayer
370
-1
48
1
60
0
100
AcDbLine
10
52.66796
20
8.50875
30
0
11
60.442548
21
8.50875
31
0
39
0
210
0
220
0
230
1
0
LINE
5
5F
100
AcDbEntity
8
1
62
256
6
ByLayer
370
-1
48
1
60
0
100
AcDbLine
10
67.948294
20
-0.642712
30
0
11
67.997477
21
-0.486724
31
0
39
0
210
0
220
0
230
1
0
LINE
5
60
100
AcDbEntity
8
1
62
256
6
ByLayer
370
-1
48
1
60
0
100
AcDbLine
10
65.949601
20
0.813878
30
0
11
65.88157
21
0.598112
31
0
39
0
210
0
220
0
230
1
0
LINE
5
61
100
AcDbEntity
8
1
62
256
6
ByLayer
370
-1
48
1
60
0
100
AcDbLine
10
67.048938
20
2.939284
30
0
11
67.05054
21
2.813749
31
0
39
0
210
0
220
0
230
1
0
LINE
5
62
100
AcDbEntity
8
1
62
256
6
ByLayer
370
-1
48
1
60
0
100
AcDbLine
10
51.971512
20
4.338787
30
0
11
0
21
4.338787
31
0
39
0
210
0
220
0
230
1
0
LINE
5
63
100
AcDbEntity
8
1
62
256
6
ByLayer
370
-1
48
1
60
0
100
AcDbLine
10
66.449649
20
-9.737695
30
0
11
66.817257
21
-9.465453
31
0
39
0
210
0
220
0
230
1
0
LINE
5
64
100
AcDbEntity
8
1
62
256
6
ByLayer
370
-1
48
1
60
0
100
AcDbLine
10
0
20
-9.99125
30
0
11
0
21
-4.338787
31
0
39
0
210
0
220
0
230
1
0
LINE
5
65
100
AcDbEntity
8
1
62
256
6
ByLayer
370
-1
48
1
60
0
100
AcDbLine
10
0
20
8.50875
30
0
11
52.66796
21
8.50875
31
0
39
0
210
0
220
0
230
1
0
LINE
5
66
100
AcDbEntity
8
1
62
256
6
ByLayer
370
-1
48
1
60
0
100
AcDbLine
10
0
20
8.50875
30
0
11
0
21
4.338787
31
0
39
0
210
0
220
0
230
1
0
LINE
5
67
100
AcDbEntity
8
1
62
256
6
ByLayer
370
-1
48
1
60
0
100
AcDbLine
10
67.048938
20
2.939284
30
0
11
67.094621
21
2.953563
31
0
39
0
210
0
220
0
230
1
0
LINE
5
68
100
AcDbEntity
8
1
62
256
6
ByLayer
370
-1
48
1
60
0
100
AcDbLine
10
61.753431
20
9.366174
30
0
11
66.817257
21
-9.465453
31
0
39
0
210
0
220
0
230
1
0
LINE
5
69
100
AcDbEntity
8
1
62
256
6
ByLayer
370
-1
48
1
60
0
100
AcDbLine
10
60.442548
20
8.50875
30
0
11
61.302121
21
9.368323
31
0
39
0
210
0
220
0
230
1
0
LINE
5
6A
100
AcDbEntity
8
1
62
256
6
ByLayer
370
-1
48
1
60
0
100
AcDbLine
10
69.109406
20
9.343844
30
0
11
61.753431
21
9.366174
31
0
39
0
210
0
220
0
230
1
0
LINE
5
6B
100
AcDbEntity
8
1
62
256
6
ByLayer
370
-1
48
1
60
0
100
AcDbLine
10
0
20
-4.338787
30
0
11
0
21
4.338787
31
0
39
0
210
0
220
0
230
1
0
LINE
5
6C
100
AcDbEntity
8
1
62
256
6
ByLayer
370
-1
48
1
60
0
100
AcDbLine
10
76.53971
20
1.907494
30
0
11
74.823268
21
-3.536368
31
0
39
0
210
0
220
0
230
1
0
LINE
5
6D
100
AcDbEntity
8
SK1
62
256
6
ByLayer
370
-1
48
1
60
0
100
AcDbLine
10
0
20
-9.99125
30
0
11
0
21
-4.338787
31
0
39
0
210
0
220
0
230
1
0
LINE
5
6E
100
AcDbEntity
8
1
62
256
6
ByLayer
370
-1
48
1
60
0
100
AcDbLine
10
73.67016
20
4.583418
30
0
11
73.710803
21
4.71232
31
0
39
0
210
0
220
0
230
1
0
LINE
5
6F
100
AcDbEntity
8
1
62
256
6
ByLayer
370
-1
48
1
60
0
100
AcDbLine
10
74.505607
20
5.811072
30
0
11
74.546303
21
5.940145
31
0
39
0
210
0
220
0
230
1
0
LINE
5
70
100
AcDbEntity
8
1
62
256
6
ByLayer
370
-1
48
1
60
0
100
AcDbLine
10
73.853267
20
7.13963
30
0
11
73.893963
21
7.268702
31
0
39
0
210
0
220
0
230
1
0
LINE
5
71
100
AcDbEntity
8
1
62
256
6
ByLayer
370
-1
48
1
60
0
100
AcDbLine
10
72.917909
20
7.391882
30
0
11
72.958606
21
7.520954
31
0
39
0
210
0
220
0
230
1
0
LINE
5
72
100
AcDbEntity
8
1
62
256
6
ByLayer
370
-1
48
1
60
0
100
AcDbLine
10
71.684892
20
6.560073
30
0
11
71.725535
21
6.688975
31
0
39
0
210
0
220
0
230
1
0
LINE
5
73
100
AcDbEntity
8
1
62
256
6
ByLayer
370
-1
48
1
60
0
100
AcDbLine
10
71.80113
20
5.117546
30
0
11
71.832119
21
5.21583
31
0
39
0
210
0
220
0
230
1
0
LINE
5
74
100
AcDbEntity
8
1
62
256
6
ByLayer
370
-1
48
1
60
0
100
AcDbLine
10
72.146808
20
6.817515
30
0
11
72.111134
21
6.704371
31
0
39
0
210
0
220
0
230
1
0
LINE
5
75
100
AcDbEntity
8
1
62
256
6
ByLayer
370
-1
48
1
60
0
100
AcDbLine
10
72.228592
20
6.821318
30
0
11
72.264266
21
6.934462
31
0
39
0
210
0
220
0
230
1
0
LINE
5
76
100
AcDbEntity
8
1
62
256
6
ByLayer
370
-1
48
1
60
0
100
AcDbLine
10
69.147018
20
9.462932
30
0
11
66.24884
21
0.271084
31
0
39
0
210
0
220
0
230
1
0
LINE
5
77
100
AcDbEntity
8
1
62
256
6
ByLayer
370
-1
48
1
60
0
100
AcDbLine
10
78.89645
20
12.863659
30
0
11
69.664472
21
9.978134
31
0
39
0
210
0
220
0
230
1
0
LINE
5
78
100
AcDbEntity
8
1
62
256
6
ByLayer
370
-1
48
1
60
0
100
AcDbLine
10
76.99532
20
2.679088
30
0
11
79.893499
21
11.870936
31
0
39
0
210
0
220
0
230
1
0
LINE
5
79
100
AcDbEntity
8
1
62
256
6
ByLayer
370
-1
48
1
60
0
100
AcDbLine
10
67.245888
20
-0.721639
30
0
11
76.477866
21
2.163886
31
0
39
0
210
0
220
0
230
1
0
LINE
5
7A
100
AcDbEntity
8
SK1
62
256
6
ByLayer
370
-1
48
1
60
0
100
AcDbLine
10
-169.32
20
4.338787
30
0
11
-169.32
21
8.50875
31
0
39
0
210
0
220
0
230
1
0
LINE
5
7B
100
AcDbEntity
8
SK1
62
256
6
ByLayer
370
-1
48
1
60
0
100
AcDbLine
10
-169.32
20
8.50875
30
0
11
0
21
8.50875
31
0
39
0
210
0
220
0
230
1
0
LINE
5
7C
100
AcDbEntity
8
SK1
62
256
6
ByLayer
370
-1
48
1
60
0
100
AcDbLine
10
-169.32
20
-4.338787
30
0
11
0
21
-4.338787
31
0
39
0
210
0
220
0
230
1
0
LINE
5
7D
100
AcDbEntity
8
SK1
62
256
6
ByLayer
370
-1
48
1
60
0
100
AcDbLine
10
0
20
8.50875
30
0
11
0
21
4.338787
31
0
39
0
210
0
220
0
230
1
0
LINE
5
7E
100
AcDbEntity
8
SK1
62
256
6
ByLayer
370
-1
48
1
60
0
100
AcDbLine
10
0
20
-4.338787
30
0
11
0
21
4.338787
31
0
39
0
210
0
220
0
230
1
0
LINE
5
7F
100
AcDbEntity
8
SK1
62
256
6
ByLayer
370
-1
48
1
60
0
100
AcDbLine
10
0
20
4.338787
30
0
11
-169.32
21
4.338787
31
0
39
0
210
0
220
0
230
1
0
LINE
5
80
100
AcDbEntity
8
SK1
62
256
6
ByLayer
370
-1
48
1
60
0
100
AcDbLine
10
-169.32
20
-9.99125
30
0
11
-169.32
21
-4.338787
31
0
39
0
210
0
220
0
230
1
0
LINE
5
81
100
AcDbEntity
8
SK1
62
256
6
ByLayer
370
-1
48
1
60
0
100
AcDbLine
10
-171.32
20
-7.99125
30
0
11
-171.32
21
7.99125
31
0
39
0
210
0
220
0
230
1
0
LINE
5
82
100
AcDbEntity
8
2
62
256
6
ByLayer
370
-1
48
1
60
1
100
AcDbLine
10
79.93
20
0
30
0
11
79.931
21
0.001
31
0
39
0
210
0
220
0
230
1
0
MTEXT
5
D0
100
AcDbEntity
8
SK6
62
256
6
ByLayer
370
-1
48
1
60
0
100
AcDbMText
10
-42.32
20
-22.320625
30
0
210
0
220
0
230
1
1
\W00.761;\fsimplex.shx,bigfont.shx;A20S-SDQCR 11 
40
3.5
41
0
44
1.084337
50
0
71
7
72
5
7
DEFAULT
0
DIMENSION
5
103
100
AcDbEntity
8
2
62
256
6
ByLayer
370
-3
48
1
60
0
100
AcDbDimension
2
DimnDraft3D1
10
92.18
20
0
30
0
11
92.18
21
23.155
31
0
70
32
71
5
72
1
41
1
210
0
220
0
230
1
3
Standard
100
AcDbAlignedDimension
13
81.93
23
12.9
33
0
14
81.93
24
0
34
0
50
90
100
AcDbRotatedDimension
1001
ACAD
1000
DSTYLE
1002
{
1070
    74
1070
     0
1070
   279
1070
     0
1070
   172
1070
     1
1070
   173
1070
     1
1070
   340
1005
D1
1070
    77
1070
     1
1070
    73
1070
     0
1070
   171
1070
     4
1070
   274
1070
     4
1070
   177
1070
     2
1070
   176
1070
     2
1070
   178
1070
     7
1070
    78
1070
     8
1070
    41
1041
3.175
1070
   147
1041
2.25
1070
    42
1041
2.0
1070
    44
1041
2.0
1070
   140
1041
4.5
1070
   343
1005
104
1070
   344
1005
104
1002
}
0
DIMENSION
5
119
100
AcDbEntity
8
SK2
62
256
6
ByLayer
370
-3
48
1
60
0
100
AcDbDimension
2
DimnDraft3D2
10
-181.07
20
9.99125
30
0
11
-181.07
21
-4.784211
31
0
70
32
71
5
72
1
41
1
210
0
220
0
230
1
3
Standard
100
AcDbAlignedDimension
13
-173.32
23
-9.99125
33
0
14
-173.32
24
9.99125
34
0
50
90
100
AcDbRotatedDimension
1001
ACAD
1000
DSTYLE
1002
{
1070
    74
1070
     0
1070
   279
1070
     0
1070
   172
1070
     1
1070
   173
1070
     1
1070
   340
1005
D1
1070
    77
1070
     1
1070
    73
1070
     0
1070
   171
1070
     4
1070
   274
1070
     4
1070
   177
1070
     2
1070
   176
1070
     2
1070
   178
1070
     7
1070
    78
1070
     8
1070
    41
1041
3.175
1070
   147
1041
2.25
1070
    42
1041
2.0
1070
    44
1041
2.0
1070
   140
1041
4.5
1070
   343
1005
104
1070
   344
1005
104
1002
}
0
DIMENSION
5
127
100
AcDbEntity
8
SK2
62
256
6
ByLayer
370
-3
48
1
60
0
100
AcDbDimension
2
DimnDraft3D3
10
-171.32
20
25.65
30
0
11
-52.510132
21
25.65
31
0
70
32
71
5
72
1
41
1
210
0
220
0
230
1
3
Standard
100
AcDbAlignedDimension
13
79.93
23
14.9
33
0
14
-171.32
24
11.99125
34
0
50
0
100
AcDbRotatedDimension
1001
ACAD
1000
DSTYLE
1002
{
1070
   279
1070
     0
1070
   172
1070
     1
1070
   173
1070
     1
1070
   340
1005
D1
1070
    77
1070
     1
1070
    73
1070
     0
1070
   171
1070
     4
1070
   274
1070
     4
1070
   177
1070
     2
1070
   176
1070
     2
1070
   178
1070
     7
1070
    78
1070
     8
1070
    41
1041
3.175
1070
   147
1041
2.25
1070
    42
1041
2.0
1070
    44
1041
2.0
1070
   140
1041
4.5
1070
   343
1005
104
1070
   344
1005
104
1002
}
0
DIMENSION
5
135
100
AcDbEntity
8
2
62
256
6
ByLayer
370
-3
48
1
60
0
100
AcDbDimension
2
DimnDraft3D4
10
124.789052
20
0
30
0
11
94.93151
21
-41.417356
31
0
70
34
71
5
72
1
41
1
210
0
220
0
230
1
3
Standard
100
AcDb2LineAngularDimension
13
76.020825
23
0.50168
33
0
14
61.150191
24
-46.661944
34
0
15
81.93
25
0
35
0
16
100.949789
26
-34.214547
36
0
40
0
0
ENDSEC
0
SECTION
2
OBJECTS
0
DICTIONARY
5
166
330
0
100
AcDbDictionary
280
0
281
1
3
ACAD_GROUP
350
167
3
ACAD_MLINESTYLE
350
168
0
DICTIONARY
5
167
330
0
100
AcDbDictionary
280
0
281
1
0
DICTIONARY
5
168
330
0
100
AcDbDictionary
280
0
281
1
3
Standard
350
18
0
MLINESTYLE
5
18
330
168
100
AcDbMlineStyle
2
Standard
70
0
3

62
256
51
90
52
90
71
2
49
-0.5
62
256
6
ByLayer
49
0.5
62
256
6
ByLayer
0
RASTERVARIABLES
5
154
330

100
AcDbRasterVariables
90
0
70
1
71
1
72
1
0
ENDSEC
0
EOF
