0
SECTION
2
HEADER
9
$ACADVER
1
AC1015
9
$DWGCODEPAGE
3
ANSI_1252
9
$HANDSEED
5
185
9
$ANGBASE
50
0
9
$ANGDIR
70
0
9
$ATTMODE
70
1
9
$AUNITS
70
0
9
$AUPREC
70
0
9
$CECOLOR
62
256
9
$CELTSCALE
40
1
9
$CELTYPE
6
ByLayer
9
$CELWEIGHT
370
-1
9
$CLAYER
8
0
9
$CMLJUST
70
0
9
$CMLSCALE
40
1
9
$CMLSTYLE
2
Standard
9
$DIMSTYLE
2
Standard
9
$TEXTSIZE
40
0.2
9
$TEXTSTYLE
7
Standard
9
$LUNITS
70
2
9
$LUPREC
70
4
9
$EXTNAMES
290
1
9
$INSUNITS
70
4
9
$LTSCALE
40
1
9
$LWDISPLAY
290
0
9
$PDMODE
70
0
9
$PDSIZE
40
0
9
$PLINEGEN
70
0
0
ENDSEC
0
SECTION
2
CLASSES
0
CLASS
1
RASTERVARIABLES
2
AcDbRasterVariables
3
ISM
90
0
280
0
281
0
0
ENDSEC
0
SECTION
2
TABLES
0
TABLE
2
VPORT
5
17b
100
AcDbSymbolTable
0
VPORT
5
1
100
AcDbSymbolTableRecord
100
AcDbViewportTableRecord
2
*Active
70
0
10
0
20
0
11
1
21
1
12
-1
22
1
13
0
23
0
14
0.5
24
0.5
15
10
25
10
16
0
26
0
36
1
17
0
27
0
37
0
0
ENDTAB
0
TABLE
2
LTYPE
5
17c
100
AcDbSymbolTable
0
LTYPE
5
14
100
AcDbSymbolTableRecord
100
AcDbLinetypeTableRecord
70
0
2
ByBlock
3

72
65
73
0
40
0
0
LTYPE
5
15
100
AcDbSymbolTableRecord
100
AcDbLinetypeTableRecord
70
0
2
ByLayer
3

72
65
73
0
40
0
0
LTYPE
5
16
100
AcDbSymbolTableRecord
100
AcDbLinetypeTableRecord
70
0
2
CONTINUOUS
3
Solid line
72
65
73
0
40
0
0
LTYPE
5
3B
100
AcDbSymbolTableRecord
100
AcDbLinetypeTableRecord
70
0
2
DASHED
3
__ __ __ __ __ __ __ __ __
72
65
73
2
40
25.72
49
12.86
74
0
49
-12.86
74
0
0
LTYPE
5
3C
100
AcDbSymbolTableRecord
100
AcDbLinetypeTableRecord
70
0
2
HIDDEN
3
_ _ _ _ _ _ _ _ _ _ _ _ _ _ _
72
65
73
2
40
0.5
49
0.25
74
0
49
-0.25
74
0
0
LTYPE
5
3D
100
AcDbSymbolTableRecord
100
AcDbLinetypeTableRecord
70
0
2
PHANTOM
3
____ _ _ ____ _ _ _____ _ _ ____
72
65
73
6
40
50.5
49
18
74
0
49
-6.5
74
0
49
6.5
74
0
49
-6.5
74
0
49
6.5
74
0
49
-6.5
74
0
0
LTYPE
5
3E
100
AcDbSymbolTableRecord
100
AcDbLinetypeTableRecord
70
0
2
CENTER
3
____ _ ____ _ ____ _ ____
72
65
73
4
40
47.5
49
22
74
0
49
-8.5
74
0
49
8.5
74
0
49
-8.5
74
0
0
LTYPE
5
3F
100
AcDbSymbolTableRecord
100
AcDbLinetypeTableRecord
70
0
2
DOT
3
.........................
72
65
73
2
40
10
49
0
74
0
49
-10
74
0
0
LTYPE
5
40
100
AcDbSymbolTableRecord
100
AcDbLinetypeTableRecord
70
0
2
DASHDOT
3
_._._._._._._._._._._._._._._._.
72
65
73
4
40
70
49
31
74
0
49
-13
74
0
49
13
74
0
49
-13
74
0
0
ENDTAB
0
TABLE
2
LAYER
5
17d
100
AcDbSymbolTable
0
LAYER
5
10
100
AcDbSymbolTableRecord
100
AcDbLayerTableRecord
2
0
70
0
62
7
6
CONTINUOUS
290
1
370
-3
390
0
0
LAYER
5
42
100
AcDbSymbolTableRecord
100
AcDbLayerTableRecord
2
80
70
0
62
-6
6
CONTINUOUS
290
1
370
-3
390
0
0
LAYER
5
44
100
AcDbSymbolTableRecord
100
AcDbLayerTableRecord
2
81
70
0
62
-3
6
CONTINUOUS
290
1
370
-3
390
0
0
LAYER
5
46
100
AcDbSymbolTableRecord
100
AcDbLayerTableRecord
2
1
70
0
62
4
6
CONTINUOUS
290
1
370
-3
390
0
0
LAYER
5
48
100
AcDbSymbolTableRecord
100
AcDbLayerTableRecord
2
2
70
0
62
7
6
CONTINUOUS
290
1
370
-3
390
0
0
LAYER
5
5F
100
AcDbSymbolTableRecord
100
AcDbLayerTableRecord
2
4
70
0
62
-2
6
CENTER
290
1
370
-3
390
0
0
LAYER
5
167
100
AcDbSymbolTableRecord
100
AcDbLayerTableRecord
2
SK1
70
0
62
4
6
CONTINUOUS
290
1
370
-3
390
0
0
LAYER
5
168
100
AcDbSymbolTableRecord
100
AcDbLayerTableRecord
2
SK4
70
0
62
2
6
CENTER
290
1
370
-3
390
0
0
LAYER
5
169
100
AcDbSymbolTableRecord
100
AcDbLayerTableRecord
2
SK6
70
0
62
5
6
CONTINUOUS
290
1
370
-3
390
0
0
LAYER
5
16a
100
AcDbSymbolTableRecord
100
AcDbLayerTableRecord
2
SK2
70
0
62
7
6
CONTINUOUS
290
1
370
-3
390
0
0
ENDTAB
0
TABLE
2
STYLE
5
17e
100
AcDbSymbolTable
0
STYLE
5
11
100
AcDbSymbolTableRecord
100
AcDbTextStyleTableRecord
2
Standard
3
txt
70
0
71
0
40
0
41
1
42
0
50
0
0
STYLE
5
E3
100
AcDbSymbolTableRecord
100
AcDbTextStyleTableRecord
2
DEFAULT
3
simplex.shx
70
0
71
0
40
0
41
1
42
0
50
0
0
STYLE
5
106
100
AcDbSymbolTableRecord
100
AcDbTextStyleTableRecord
2
DWGDirectTextStyle
3
SIMPLEX
70
0
71
0
40
0
41
1
42
0
50
0
0
ENDTAB
0
TABLE
2
DIMSTYLE
5
17f
100
AcDbSymbolTable
100
AcDbDimStyleTable
0
DIMSTYLE
105
27
100
AcDbSymbolTableRecord
100
AcDbDimStyleTableRecord
2
Standard
70
0
3
<>
41
0.18
42
0.0625
44
0.18
140
0.18
147
0.09
73
0
74
0
77
1
271
2
275
0
278
52
280
0
340
11
0
ENDTAB
0
TABLE
2
VIEW
5
180
100
AcDbSymbolTable
0
ENDTAB
0
TABLE
2
UCS
5
181
100
AcDbSymbolTable
0
ENDTAB
0
TABLE
2
APPID
5
182
100
AcDbSymbolTable
0
APPID
5
12
100
AcDbSymbolTableRecord
100
AcDbRegAppTableRecord
2
ACAD
70
0
0
ENDTAB
0
TABLE
2
BLOCK_RECORD
5
183
100
AcDbSymbolTable
0
BLOCK_RECORD
5
1F
100
AcDbSymbolTableRecord
100
AcDbBlockTableRecord
2
*Model_Space
340
0
70
0
0
BLOCK_RECORD
5
1B
100
AcDbSymbolTableRecord
100
AcDbBlockTableRecord
2
*Paper_Space
340
0
70
0
0
BLOCK_RECORD
5
23
100
AcDbSymbolTableRecord
100
AcDbBlockTableRecord
2
*Paper_Space0
340
0
70
0
0
BLOCK_RECORD
5
108
100
AcDbSymbolTableRecord
100
AcDbBlockTableRecord
2
DimnDraft3D1
340
0
70
0
0
BLOCK_RECORD
5
116
100
AcDbSymbolTableRecord
100
AcDbBlockTableRecord
2
_CLOSED
340
0
70
0
0
BLOCK_RECORD
5
11D
100
AcDbSymbolTableRecord
100
AcDbBlockTableRecord
2
DimnDraft3D2
340
0
70
0
0
BLOCK_RECORD
5
12C
100
AcDbSymbolTableRecord
100
AcDbBlockTableRecord
2
DimnDraft3D3
340
0
70
0
0
BLOCK_RECORD
5
13A
100
AcDbSymbolTableRecord
100
AcDbBlockTableRecord
2
DimnDraft3D4
340
0
70
0
0
ENDTAB
0
ENDSEC
0
SECTION
2
BLOCKS
0
BLOCK
5
20
100
AcDbEntity
8
0
100
AcDbBlockBegin
2
*Model_Space
70
0
10
0
20
0
30
0
3
*Model_Space
0
ENDBLK
5
21
100
AcDbEntity
8
0
100
AcDbBlockEnd
0
BLOCK
5
1C
100
AcDbEntity
8
0
100
AcDbBlockBegin
2
*Paper_Space
70
0
10
0
20
0
30
0
3
*Paper_Space
0
ENDBLK
5
1D
100
AcDbEntity
8
0
100
AcDbBlockEnd
0
BLOCK
5
24
100
AcDbEntity
8
0
100
AcDbBlockBegin
2
*Paper_Space0
70
0
10
0
20
0
30
0
3
*Paper_Space0
0
ENDBLK
5
25
100
AcDbEntity
8
0
100
AcDbBlockEnd
0
BLOCK
5
113
100
AcDbEntity
8
0
100
AcDbBlockBegin
2
DimnDraft3D1
70
0
10
0
20
0
30
0
3
DimnDraft3D1
0
MTEXT
5
109
100
AcDbEntity
8
2
62
256
6
ByLayer
370
-1
48
1
60
0
100
AcDbMText
10
91.055
20
-31.231316
30
0
210
0
220
0
230
1
1
\W01.000;\fsimplex.shx,bigfont.shx;13.0 
40
4.5
41
0
44
1.084337
50
90
71
7
72
5
7
DEFAULT
0
LINE
5
10A
100
AcDbEntity
8
2
62
256
6
ByLayer
370
-1
48
1
60
0
100
AcDbLine
10
81.93
20
-12.9
30
0
11
94.18
21
-12.9
31
0
39
0
210
0
220
0
230
1
0
LINE
5
10B
100
AcDbEntity
8
2
62
256
6
ByLayer
370
-1
48
1
60
0
100
AcDbLine
10
81.93
20
0
30
0
11
94.18
21
0
31
0
39
0
210
0
220
0
230
1
0
LINE
5
10C
100
AcDbEntity
8
2
62
256
6
ByLayer
370
-1
48
1
60
0
100
AcDbLine
10
92.18
20
0
30
0
11
92.18
21
-32.356316
31
0
39
0
210
0
220
0
230
1
0
LINE
5
10D
100
AcDbEntity
8
2
62
256
6
ByLayer
370
-1
48
1
60
0
100
AcDbLine
10
92.18
20
-12.9
30
0
11
91.762003
21
-9.725002
31
0
39
0
210
0
220
0
230
1
0
LINE
5
10E
100
AcDbEntity
8
2
62
256
6
ByLayer
370
-1
48
1
60
0
100
AcDbLine
10
92.18
20
-12.9
30
0
11
92.597997
21
-9.724998
31
0
39
0
210
0
220
0
230
1
0
LINE
5
10F
100
AcDbEntity
8
2
62
256
6
ByLayer
370
-1
48
1
60
0
100
AcDbLine
10
91.762003
20
-9.725002
30
0
11
92.597997
21
-9.724998
31
0
39
0
210
0
220
0
230
1
0
LINE
5
110
100
AcDbEntity
8
2
62
256
6
ByLayer
370
-1
48
1
60
0
100
AcDbLine
10
92.18
20
0
30
0
11
92.597997
21
-3.174998
31
0
39
0
210
0
220
0
230
1
0
LINE
5
111
100
AcDbEntity
8
2
62
256
6
ByLayer
370
-1
48
1
60
0
100
AcDbLine
10
92.18
20
0
30
0
11
91.762003
21
-3.175002
31
0
39
0
210
0
220
0
230
1
0
LINE
5
112
100
AcDbEntity
8
2
62
256
6
ByLayer
370
-1
48
1
60
0
100
AcDbLine
10
92.597997
20
-3.174998
30
0
11
91.762003
21
-3.175002
31
0
39
0
210
0
220
0
230
1
0
ENDBLK
5
114
100
AcDbEntity
8
0
100
AcDbBlockEnd
0
BLOCK
5
117
100
AcDbEntity
8
0
100
AcDbBlockBegin
2
_CLOSED
70
0
10
0
20
0
30
0
3
_CLOSED
0
LINE
5
119
100
AcDbEntity
8
0
62
256
6
ByLayer
370
-2
48
1
60
0
100
AcDbLine
10
-1
20
0.166667
30
0
11
0
21
0
31
0
39
0
210
0
220
0
230
1
0
LINE
5
11A
100
AcDbEntity
8
0
62
256
6
ByLayer
370
-2
48
1
60
0
100
AcDbLine
10
0
20
0
30
0
11
-1
21
-0.166667
31
0
39
0
210
0
220
0
230
1
0
LINE
5
11B
100
AcDbEntity
8
0
62
256
6
ByLayer
370
-2
48
1
60
0
100
AcDbLine
10
-1
20
0.166667
30
0
11
-1
21
-0.166667
31
0
39
0
210
0
220
0
230
1
0
LINE
5
11C
100
AcDbEntity
8
0
62
256
6
ByLayer
370
-2
48
1
60
0
100
AcDbLine
10
0
20
0
30
0
11
-1
21
0
31
0
39
0
210
0
220
0
230
1
0
ENDBLK
5
118
100
AcDbEntity
8
0
100
AcDbBlockEnd
0
BLOCK
5
129
100
AcDbEntity
8
0
100
AcDbBlockBegin
2
DimnDraft3D2
70
0
10
0
20
0
30
0
3
DimnDraft3D2
0
MTEXT
5
11E
100
AcDbEntity
8
SK2
62
256
6
ByLayer
370
-1
48
1
60
0
100
AcDbMText
10
-182.195
20
-3.659211
30
0
210
0
220
0
230
1
1
\W01.000;\fsimplex.shx,bigfont.shx;%%c20 
40
4.5
41
0
44
1.084337
50
90
71
7
72
5
7
DEFAULT
0
LINE
5
120
100
AcDbEntity
8
SK2
62
256
6
ByLayer
370
-1
48
1
60
0
100
AcDbLine
10
-173.32
20
-9.99125
30
0
11
-183.07
21
-9.99125
31
0
39
0
210
0
220
0
230
1
0
LINE
5
121
100
AcDbEntity
8
SK2
62
256
6
ByLayer
370
-1
48
1
60
0
100
AcDbLine
10
-173.32
20
9.99125
30
0
11
-183.07
21
9.99125
31
0
39
0
210
0
220
0
230
1
0
LINE
5
122
100
AcDbEntity
8
SK2
62
256
6
ByLayer
370
-1
48
1
60
0
100
AcDbLine
10
-181.07
20
-9.99125
30
0
11
-181.07
21
9.99125
31
0
39
0
210
0
220
0
230
1
0
LINE
5
123
100
AcDbEntity
8
SK2
62
256
6
ByLayer
370
-1
48
1
60
0
100
AcDbLine
10
-181.07
20
-9.99125
30
0
11
-181.487997
21
-6.816252
31
0
39
0
210
0
220
0
230
1
0
LINE
5
124
100
AcDbEntity
8
SK2
62
256
6
ByLayer
370
-1
48
1
60
0
100
AcDbLine
10
-181.07
20
-9.99125
30
0
11
-180.652003
21
-6.816248
31
0
39
0
210
0
220
0
230
1
0
LINE
5
125
100
AcDbEntity
8
SK2
62
256
6
ByLayer
370
-1
48
1
60
0
100
AcDbLine
10
-181.487997
20
-6.816252
30
0
11
-180.652003
21
-6.816248
31
0
39
0
210
0
220
0
230
1
0
LINE
5
126
100
AcDbEntity
8
SK2
62
256
6
ByLayer
370
-1
48
1
60
0
100
AcDbLine
10
-181.07
20
9.99125
30
0
11
-180.652003
21
6.816252
31
0
39
0
210
0
220
0
230
1
0
LINE
5
127
100
AcDbEntity
8
SK2
62
256
6
ByLayer
370
-1
48
1
60
0
100
AcDbLine
10
-181.07
20
9.99125
30
0
11
-181.487997
21
6.816248
31
0
39
0
210
0
220
0
230
1
0
LINE
5
128
100
AcDbEntity
8
SK2
62
256
6
ByLayer
370
-1
48
1
60
0
100
AcDbLine
10
-180.652003
20
6.816252
30
0
11
-181.487997
21
6.816248
31
0
39
0
210
0
220
0
230
1
0
ENDBLK
5
12A
100
AcDbEntity
8
0
100
AcDbBlockEnd
0
BLOCK
5
137
100
AcDbEntity
8
0
100
AcDbBlockBegin
2
DimnDraft3D3
70
0
10
0
20
0
30
0
3
DimnDraft3D3
0
MTEXT
5
12D
100
AcDbEntity
8
SK2
62
256
6
ByLayer
370
-1
48
1
60
0
100
AcDbMText
10
-51.385132
20
-29.025
30
0
210
0
220
0
230
1
1
\W01.000;\fsimplex.shx,bigfont.shx;250.0 
40
4.5
41
0
44
1.084337
50
0
71
7
72
5
7
DEFAULT
0
LINE
5
12E
100
AcDbEntity
8
SK2
62
256
6
ByLayer
370
-1
48
1
60
0
100
AcDbLine
10
-171.32
20
-11.99125
30
0
11
-171.32
21
-32.15
31
0
39
0
210
0
220
0
230
1
0
LINE
5
12F
100
AcDbEntity
8
SK2
62
256
6
ByLayer
370
-1
48
1
60
0
100
AcDbLine
10
79.93
20
-14.9
30
0
11
79.93
21
-32.15
31
0
39
0
210
0
220
0
230
1
0
LINE
5
130
100
AcDbEntity
8
SK2
62
256
6
ByLayer
370
-1
48
1
60
0
100
AcDbLine
10
-171.32
20
-30.15
30
0
11
79.93
21
-30.15
31
0
39
0
210
0
220
0
230
1
0
LINE
5
131
100
AcDbEntity
8
SK2
62
256
6
ByLayer
370
-1
48
1
60
0
100
AcDbLine
10
-171.32
20
-30.15
30
0
11
-168.145002
21
-29.732003
31
0
39
0
210
0
220
0
230
1
0
LINE
5
132
100
AcDbEntity
8
SK2
62
256
6
ByLayer
370
-1
48
1
60
0
100
AcDbLine
10
-171.32
20
-30.15
30
0
11
-168.144998
21
-30.567997
31
0
39
0
210
0
220
0
230
1
0
LINE
5
133
100
AcDbEntity
8
SK2
62
256
6
ByLayer
370
-1
48
1
60
0
100
AcDbLine
10
-168.145002
20
-29.732003
30
0
11
-168.144998
21
-30.567997
31
0
39
0
210
0
220
0
230
1
0
LINE
5
134
100
AcDbEntity
8
SK2
62
256
6
ByLayer
370
-1
48
1
60
0
100
AcDbLine
10
79.93
20
-30.15
30
0
11
76.755002
21
-30.567997
31
0
39
0
210
0
220
0
230
1
0
LINE
5
135
100
AcDbEntity
8
SK2
62
256
6
ByLayer
370
-1
48
1
60
0
100
AcDbLine
10
79.93
20
-30.15
30
0
11
76.754998
21
-29.732003
31
0
39
0
210
0
220
0
230
1
0
LINE
5
136
100
AcDbEntity
8
SK2
62
256
6
ByLayer
370
-1
48
1
60
0
100
AcDbLine
10
76.755002
20
-30.567997
30
0
11
76.754998
21
-29.732003
31
0
39
0
210
0
220
0
230
1
0
ENDBLK
5
138
100
AcDbEntity
8
0
100
AcDbBlockEnd
0
BLOCK
5
145
100
AcDbEntity
8
0
100
AcDbBlockBegin
2
DimnDraft3D4
70
0
10
0
20
0
30
0
3
DimnDraft3D4
0
MTEXT
5
13B
100
AcDbEntity
8
2
62
256
6
ByLayer
370
-1
48
1
60
0
100
AcDbMText
10
92.512643
20
36.215882
30
0
210
0
220
0
230
1
1
\W01.000;\fsimplex.shx,bigfont.shx;107%%d30' 
40
4.5
41
0
44
1.084337
50
323.75
71
7
72
5
7
DEFAULT
0
LINE
5
13C
100
AcDbEntity
8
2
62
256
6
ByLayer
370
-1
48
1
60
0
100
AcDbLine
10
77.223648
20
-4.316547
30
0
11
63.856544
21
38.078491
31
0
39
0
210
0
220
0
230
1
0
LINE
5
13D
100
AcDbEntity
8
2
62
256
6
ByLayer
370
-1
48
1
60
0
100
AcDbLine
10
81.93
20
0
30
0
11
115.789052
21
0
31
0
39
0
210
0
220
0
230
1
0
ARC
5
13E
100
AcDbEntity
8
2
62
256
6
ByLayer
370
-1
48
1
60
0
100
AcDbCircle
39
0
10
75.862646
20
0
30
0
40
37.9264068640927
210
0
220
0
230
1
100
AcDbArc
50
0
51
107.5
0
LINE
5
13F
100
AcDbEntity
8
2
62
256
6
ByLayer
370
-1
48
1
60
0
100
AcDbLine
10
64.457955
20
36.171057
30
0
11
67.387982
21
37.463449
31
0
39
0
210
0
220
0
230
1
0
LINE
5
140
100
AcDbEntity
8
2
62
256
6
ByLayer
370
-1
48
1
60
0
100
AcDbLine
10
64.457955
20
36.171057
30
0
11
67.622643
21
36.661066
31
0
39
0
210
0
220
0
230
1
0
LINE
5
141
100
AcDbEntity
8
2
62
256
6
ByLayer
370
-1
48
1
60
0
100
AcDbLine
10
67.387982
20
37.463449
30
0
11
67.622643
21
36.661066
31
0
39
0
210
0
220
0
230
1
0
LINE
5
142
100
AcDbEntity
8
2
62
256
6
ByLayer
370
-1
48
1
60
0
100
AcDbLine
10
113.789052
20
0
30
0
11
113.304742
21
3.165562
31
0
39
0
210
0
220
0
230
1
0
LINE
5
143
100
AcDbEntity
8
2
62
256
6
ByLayer
370
-1
48
1
60
0
100
AcDbLine
10
113.789052
20
0
30
0
11
114.140553
21
3.183049
31
0
39
0
210
0
220
0
230
1
0
LINE
5
144
100
AcDbEntity
8
2
62
256
6
ByLayer
370
-1
48
1
60
0
100
AcDbLine
10
113.304742
20
3.165562
30
0
11
114.140553
21
3.183049
31
0
39
0
210
0
220
0
230
1
0
ENDBLK
5
146
100
AcDbEntity
8
0
100
AcDbBlockEnd
0
ENDSEC
0
SECTION
2
ENTITIES
0
ELLIPSE
5
8E
100
AcDbEntity
8
1
62
256
6
ByLayer
370
-1
48
1
60
0
100
AcDbEllipse
10
71.065656
20
-4.933774
30
0
11
-1.19214618843529
21
-0.375882249380337
31
0
210
0
220
0
230
1
40
0.998568
41
0.0463042188174554
42
0.959931088596893
0
ELLIPSE
5
8F
100
AcDbEntity
8
1
62
256
6
ByLayer
370
-1
48
1
60
0
100
AcDbEllipse
10
85.760684
20
0
30
0
11
28.2666305748718
21
1.77531978045175
31
0
210
0
220
0
230
-1
40
0.34784
41
2.402142839766
42
2.87101347232544
0
ELLIPSE
5
90
100
AcDbEntity
8
1
62
256
6
ByLayer
370
-1
48
1
60
0
100
AcDbEllipse
10
67.674864
20
-1.240121
30
0
11
1.52594712119716
21
0.481129279206832
31
0
210
0
220
0
230
1
40
0.998568
41
-1.71455800167033E-05
42
0.242681760480763
0
ELLIPSE
5
91
100
AcDbEntity
8
1
62
256
6
ByLayer
370
-1
48
1
60
0
100
AcDbEllipse
10
70.966953
20
-3.848452
30
0
11
-1.00140279828564
21
-0.315741089479483
31
0
210
0
220
0
230
1
40
0.998568
41
2.78253813054487
42
2.83574904717441
0
ELLIPSE
5
92
100
AcDbEntity
8
1
62
256
6
ByLayer
370
-1
48
1
60
0
100
AcDbEllipse
10
70.966953
20
-3.848452
30
0
11
-1.00140279828564
21
-0.315741089479483
31
0
210
0
220
0
230
1
40
0.998568
41
0.0661402378060624
42
1.19426630285498
0
ELLIPSE
5
93
100
AcDbEntity
8
1
62
256
6
ByLayer
370
-1
48
1
60
0
100
AcDbEllipse
10
70.966953
20
-3.848452
30
0
11
-1.00140279828564
21
-0.315741089479483
31
0
210
0
220
0
230
1
40
0.998568
41
2.83574904717441
42
3.07549144917359
0
ELLIPSE
5
94
100
AcDbEntity
8
1
62
256
6
ByLayer
370
-1
48
1
60
0
100
AcDbEllipse
10
85.760684
20
0
30
0
11
28.2666305596333
21
1.77531978323557
31
0
210
0
220
0
230
-1
40
0.34784
41
-2.51374145168539
42
-2.36071253436302
0
ELLIPSE
5
95
100
AcDbEntity
8
1
62
256
6
ByLayer
370
-1
48
1
60
0
100
AcDbEllipse
10
66.477359
20
-8.724426
30
0
11
-1.3258352845538
21
0.895634299383478
31
0
210
0
220
0
230
1
40
0.033302
41
-1.52889451794142
42
-0.47530728274253
0
ELLIPSE
5
96
100
AcDbEntity
8
1
62
256
6
ByLayer
370
-1
48
1
60
0
100
AcDbEllipse
10
68.825271
20
0
30
0
11
6.09608616543614
21
-9.99102599624029
31
0
210
0
220
0
230
-1
40
0.010975
41
2.17973671452645
42
2.86506747446896
0
ELLIPSE
5
97
100
AcDbEntity
8
1
62
256
6
ByLayer
370
-1
48
1
60
0
100
AcDbEllipse
10
81.675427
20
-6.006346
30
0
11
-4.0056111931425
21
-1.26296435791791
31
0
210
0
220
0
230
1
40
0.998568
41
-0.439975954790857
42
-0.391844667407697
0
ELLIPSE
5
98
100
AcDbEntity
8
1
62
256
6
ByLayer
370
-1
48
1
60
0
100
AcDbEllipse
10
106.363261
20
-0.000928
30
0
11
621.043282603891
21
0.509912505442325
31
0
210
0
220
0
230
-1
40
0.016068
41
-1.638033602803
42
-1.63407469392482
0
ELLIPSE
5
99
100
AcDbEntity
8
1
62
256
6
ByLayer
370
-1
48
1
60
0
100
AcDbEllipse
10
70.331311
20
-0.000422
30
0
11
6.73873818631562
21
9.98807465363399
31
0
210
0
220
0
230
-1
40
0.034737
41
2.46543742902193
42
2.48239488490677
0
ELLIPSE
5
9A
100
AcDbEntity
8
1
62
256
6
ByLayer
370
-1
48
1
60
0
100
AcDbEllipse
10
106.364379
20
0.001325
30
0
11
616.393741026001
21
0.506236368318356
31
0
210
0
220
0
230
-1
40
0.016069
41
1.62936340267386
42
1.63372990832133
0
ELLIPSE
5
9B
100
AcDbEntity
8
1
62
256
6
ByLayer
370
-1
48
1
60
0
100
AcDbEllipse
10
67.740208
20
-1.447366
30
0
11
1.16318645949337
21
1.10745366647718
31
0
210
0
220
0
230
-1
40
0.980312
41
0.204937152263277
42
1.34646347752503
0
ELLIPSE
5
9C
100
AcDbEntity
8
1
62
256
6
ByLayer
370
-1
48
1
60
0
100
AcDbEllipse
10
63.799779
20
-6.856797
30
0
11
-3.05189424239433
21
-0.962258558413662
31
0
210
0
220
0
230
1
40
0.998568
41
2.17768243866078
42
2.24274808881272
0
ELLIPSE
5
9D
100
AcDbEntity
8
1
62
256
6
ByLayer
370
-1
48
1
60
0
100
AcDbEllipse
10
70.974192
20
-3.871411
30
0
11
-1.00140279828564
21
-0.315741089479483
31
0
210
0
220
0
230
1
40
0.998568
41
0.0889120777820877
42
1.19431336042556
0
ELLIPSE
5
9E
100
AcDbEntity
8
1
62
256
6
ByLayer
370
-1
48
1
60
0
100
AcDbEllipse
10
67.649126
20
-1.158489
30
0
11
-3.05189424239433
21
-0.962258558413662
31
0
210
0
220
0
230
1
40
0.998568
41
2.24274808881271
42
-2.89891089310903
0
ELLIPSE
5
9F
100
AcDbEntity
8
1
62
256
6
ByLayer
370
-1
48
1
60
0
100
AcDbEllipse
10
71.008778
20
-3.981104
30
0
11
1.00140279828564
21
0.315741089479484
31
0
210
0
220
0
230
1
40
0.998568
41
-0.263513271955042
42
-3.0526805758077
0
ELLIPSE
5
A0
100
AcDbEntity
8
1
62
256
6
ByLayer
370
-1
48
1
60
0
100
AcDbEllipse
10
70.406423
20
0.426281
30
0
11
-1.36533481992451
21
-0.834182731481367
31
0
210
0
220
0
230
1
40
0.051928
41
-1.58366946708179
42
-0.0128731402870118
0
ELLIPSE
5
A1
100
AcDbEntity
8
1
62
256
6
ByLayer
370
-1
48
1
60
0
100
AcDbEllipse
10
70.326706
20
-3.026118
30
0
11
-1.3258352845538
21
0.895634299383478
31
0
210
0
220
0
230
1
40
0.033302
41
-1.52889451794139
42
-0.424698620279162
0
ELLIPSE
5
A2
100
AcDbEntity
8
1
62
256
6
ByLayer
370
-1
48
1
60
0
100
AcDbEllipse
10
71.100242
20
-5.043466
30
0
11
-1.19214618843529
21
-0.375882249380337
31
0
210
0
220
0
230
1
40
0.998568
41
-0.862027290779769
42
0.959931088596878
0
ELLIPSE
5
A3
100
AcDbEntity
8
1
62
256
6
ByLayer
370
-1
48
1
60
0
100
AcDbEllipse
10
79.533176
20
-12.503642
30
0
11
0.378506414828233
21
0.119342614178267
31
0
210
0
220
0
230
1
40
0.998568
41
-2.18166156499273
42
3.58582270036221E-14
0
ELLIPSE
5
A4
100
AcDbEntity
8
1
62
256
6
ByLayer
370
-1
48
1
60
0
100
AcDbEllipse
10
75.27101
20
-8.224457
30
0
11
1.78821928265289
21
0.563823374070495
31
0
210
0
220
0
230
1
40
0.998568
41
0
42
6.28318530717959
0
ELLIPSE
5
A5
100
AcDbEntity
8
1
62
256
6
ByLayer
370
-1
48
1
60
0
100
AcDbEllipse
10
77.496431
20
-6.043911
30
0
11
0.378506414828198
21
0.119342614178256
31
0
210
0
220
0
230
1
40
0.998568
41
0
42
0.959931088596256
0
ELLIPSE
5
A6
100
AcDbEntity
8
1
62
256
6
ByLayer
370
-1
48
1
60
0
100
AcDbEllipse
10
71.029112
20
-4.009558
30
0
11
0.378506414828233
21
0.119342614178267
31
0
210
0
220
0
230
1
40
0.998568
41
0.95993108859641
42
3.14159265358904
0
ELLIPSE
5
A7
100
AcDbEntity
8
1
62
256
6
ByLayer
370
-1
48
1
60
0
100
AcDbEllipse
10
75.268655
20
-8.21699
30
0
11
1.74030418959474
21
0.548715803260235
31
0
210
0
220
0
230
1
40
0.998568
41
0
42
6.28318530717959
0
ELLIPSE
5
A8
100
AcDbEntity
8
1
62
256
6
ByLayer
370
-1
48
1
60
0
100
AcDbEllipse
10
75.281144
20
-8.2566
30
0
11
1.83023422574618
21
0.577070634742628
31
0
210
0
220
0
230
1
40
0.998568
41
0
42
6.28318530717959
0
ELLIPSE
5
A9
100
AcDbEntity
8
1
62
256
6
ByLayer
370
-1
48
1
60
0
100
AcDbEllipse
10
73.065857
20
-10.469289
30
0
11
0.378506414828198
21
0.119342614178256
31
0
210
0
220
0
230
1
40
0.998568
41
3.14159265358969
42
-2.18166156499293
0
ELLIPSE
5
AA
100
AcDbEntity
8
1
62
256
6
ByLayer
370
-1
48
1
60
0
100
AcDbEllipse
10
75.277741
20
-8.245807
30
0
11
1.6451617400407
21
0.518717504144866
31
0
210
0
220
0
230
1
40
0.998568
41
0
42
6.28318530717959
0
ELLIPSE
5
AB
100
AcDbEntity
8
1
62
256
6
ByLayer
370
-1
48
1
60
0
100
AcDbEllipse
10
75.044852
20
-9.023906
30
0
11
-0.176437635888422
21
-0.0556305729082898
31
0
210
0
220
0
230
1
40
0.998568
41
0.108132131287308
42
2.30249181317726
0
ELLIPSE
5
AC
100
AcDbEntity
8
1
62
256
6
ByLayer
370
-1
48
1
60
0
100
AcDbEllipse
10
75.280539
20
-8.254681
30
0
11
0.987097044024439
21
0.311230502486926
31
0
210
0
220
0
230
1
40
0.998568
41
-1.09083078249643
42
-0.0444912109597937
0
ELLIPSE
5
AD
100
AcDbEntity
8
1
62
256
6
ByLayer
370
-1
48
1
60
0
100
AcDbEllipse
10
75.567252
20
-9.332067
30
0
11
-0.402468553215752
21
-0.126897847390802
31
0
210
0
220
0
230
1
40
0.998568
41
-2.38890029611727
42
-1.61400056826461
0
ELLIPSE
5
AE
100
AcDbEntity
8
1
62
256
6
ByLayer
370
-1
48
1
60
0
100
AcDbEllipse
10
75.567252
20
-9.332067
30
0
11
-0.402468553215752
21
-0.126897847390802
31
0
210
0
220
0
230
1
40
0.998568
41
-1.61400056826461
42
-0.839100840412179
0
ELLIPSE
5
AF
100
AcDbEntity
8
1
62
256
6
ByLayer
370
-1
48
1
60
0
100
AcDbEllipse
10
75.264452
20
-8.203661
30
0
11
-0.713380279159687
21
-0.224927938029198
31
0
210
0
220
0
230
1
40
0.998568
41
2.57393165686169
42
-2.79602438923652
0
ELLIPSE
5
B0
100
AcDbEntity
8
1
62
256
6
ByLayer
370
-1
48
1
60
0
100
AcDbEllipse
10
75.266061
20
-8.208763
30
0
11
1.64516174004069
21
0.518717504144865
31
0
210
0
220
0
230
1
40
0.998568
41
2.83574900571255
42
-3.14152355101734
0
ELLIPSE
5
B1
100
AcDbEntity
8
1
62
256
6
ByLayer
370
-1
48
1
60
0
100
AcDbEllipse
10
75.266061
20
-8.208763
30
0
11
1.64516174004069
21
0.518717504144865
31
0
210
0
220
0
230
1
40
0.998568
41
0
42
2.83574896943499
0
ELLIPSE
5
B2
100
AcDbEntity
8
1
62
256
6
ByLayer
370
-1
48
1
60
0
100
AcDbEllipse
10
75.264452
20
-8.203661
30
0
11
0.713380279159693
21
0.2249279380292
31
0
210
0
220
0
230
1
40
0.998568
41
-1.61400056826481
42
-0.567660996728184
0
ELLIPSE
5
B3
100
AcDbEntity
8
1
62
256
6
ByLayer
370
-1
48
1
60
0
100
AcDbEllipse
10
75.277873
20
-8.246227
30
0
11
0.713380279159684
21
0.224927938029197
31
0
210
0
220
0
230
1
40
0.998568
41
-2.69935846120886
42
-2.62389575737391
0
ELLIPSE
5
B4
100
AcDbEntity
8
1
62
256
6
ByLayer
370
-1
48
1
60
0
100
AcDbEllipse
10
75.280539
20
-8.254681
30
0
11
0.987097044024439
21
0.311230502486926
31
0
210
0
220
0
230
1
40
0.998568
41
-2.13717035403313
42
-1.09083078249643
0
ELLIPSE
5
B5
100
AcDbEntity
8
1
62
256
6
ByLayer
370
-1
48
1
60
0
100
AcDbEllipse
10
75.264452
20
-8.203661
30
0
11
-0.713380279159687
21
-0.224927938029198
31
0
210
0
220
0
230
1
40
0.998568
41
0.517696896216236
42
1.52759208532502
0
ELLIPSE
5
B6
100
AcDbEntity
8
1
62
256
6
ByLayer
370
-1
48
1
60
0
100
AcDbEllipse
10
75.277873
20
-8.246227
30
0
11
0.713380279159684
21
0.224927938029197
31
0
210
0
220
0
230
1
40
0.998568
41
0.442234192381071
42
0.517696896215808
0
ELLIPSE
5
B7
100
AcDbEntity
8
1
62
256
6
ByLayer
370
-1
48
1
60
0
100
AcDbEllipse
10
75.280539
20
-8.254681
30
0
11
0.987097044024439
21
0.311230502486926
31
0
210
0
220
0
230
1
40
0.998568
41
1.00442229955657
42
2.05076187109322
0
ELLIPSE
5
B8
100
AcDbEntity
8
1
62
256
6
ByLayer
370
-1
48
1
60
0
100
AcDbEllipse
10
75.865169
20
-8.803672
30
0
11
-0.176437635888422
21
-0.0556305729082898
31
0
210
0
220
0
230
1
40
0.998568
41
0.752692357472668
42
3.06609405232298
0
ELLIPSE
5
B9
100
AcDbEntity
8
1
62
256
6
ByLayer
370
-1
48
1
60
0
100
AcDbEllipse
10
75.264452
20
-8.203661
30
0
11
-0.713380279159687
21
-0.224927938029198
31
0
210
0
220
0
230
1
40
0.998568
41
-0.395110453994272
42
0.442234192380681
0
ELLIPSE
5
BA
100
AcDbEntity
8
1
62
256
6
ByLayer
370
-1
48
1
60
0
100
AcDbEllipse
10
76.394185
20
-8.506105
30
0
11
-0.402468553215752
21
-0.126897847390802
31
0
210
0
220
0
230
1
40
0.998568
41
-0.567660996728044
42
-1.06315965606955E-05
0
ELLIPSE
5
BB
100
AcDbEntity
8
1
62
256
6
ByLayer
370
-1
48
1
60
0
100
AcDbEllipse
10
75.280539
20
-8.254681
30
0
11
0.987097044024439
21
0.311230502486926
31
0
210
0
220
0
230
1
40
0.998568
41
3.09710144262996
42
-2.13717035403313
0
ELLIPSE
5
BC
100
AcDbEntity
8
1
62
256
6
ByLayer
370
-1
48
1
60
0
100
AcDbEllipse
10
75.264452
20
-8.203661
30
0
11
-0.713380279159687
21
-0.224927938029198
31
0
210
0
220
0
230
1
40
0.998568
41
-1.41531071843651
42
-0.644795715150871
0
ELLIPSE
5
BD
100
AcDbEntity
8
1
62
256
6
ByLayer
370
-1
48
1
60
0
100
AcDbEllipse
10
76.085662
20
-7.984317
30
0
11
-0.176437635888422
21
-0.0556305729082898
31
0
210
0
220
0
230
1
40
0.998568
41
1.79903192900923
42
3.14156692999531
0
ELLIPSE
5
BE
100
AcDbEntity
8
1
62
256
6
ByLayer
370
-1
48
1
60
0
100
AcDbEllipse
10
76.090956
20
-7.378127
30
0
11
-0.402468553215752
21
-0.126897847390802
31
0
210
0
220
0
230
1
40
0.998568
41
-0.297120655593405
42
8.14282353327775E-06
0
ELLIPSE
5
BF
100
AcDbEntity
8
1
62
256
6
ByLayer
370
-1
48
1
60
0
100
AcDbEllipse
10
76.394185
20
-8.506105
30
0
11
-0.402468553215752
21
-0.126897847390802
31
0
210
0
220
0
230
1
40
0.998568
41
-1.34256072458043
42
-0.567660996728044
0
ELLIPSE
5
C0
100
AcDbEntity
8
1
62
256
6
ByLayer
370
-1
48
1
60
0
100
AcDbEllipse
10
75.264452
20
-8.203661
30
0
11
-0.713380279159687
21
-0.224927938029198
31
0
210
0
220
0
230
1
40
0.998568
41
-2.62389575737415
42
-1.78012795970759
0
ELLIPSE
5
C1
100
AcDbEntity
8
1
62
256
6
ByLayer
370
-1
48
1
60
0
100
AcDbEllipse
10
74.443243
20
-8.423004
30
0
11
-0.176437635888422
21
-0.0556305729082898
31
0
210
0
220
0
230
1
40
0.998568
41
0.125531375389187
42
1.25705174419014
0
ELLIPSE
5
C2
100
AcDbEntity
8
1
62
256
6
ByLayer
370
-1
48
1
60
0
100
AcDbEllipse
10
75.280539
20
-8.254681
30
0
11
1.23983203597275
21
0.390917539355566
31
0
210
0
220
0
230
1
40
0.998568
41
0
42
6.28318530717959
0
ELLIPSE
5
C3
100
AcDbEntity
8
1
62
256
6
ByLayer
370
-1
48
1
60
0
100
AcDbEllipse
10
75.280539
20
-8.254681
30
0
11
0.987097044024439
21
0.311230502486926
31
0
210
0
220
0
230
1
40
0.998568
41
-0.0444912109597937
42
1.00442229955657
0
ELLIPSE
5
C4
100
AcDbEntity
8
1
62
256
6
ByLayer
370
-1
48
1
60
0
100
AcDbEllipse
10
75.280539
20
-8.254681
30
0
11
0.987097044024439
21
0.311230502486926
31
0
210
0
220
0
230
1
40
0.998568
41
2.05076187109322
42
3.09710144262996
0
ELLIPSE
5
C5
100
AcDbEntity
8
1
62
256
6
ByLayer
370
-1
48
1
60
0
100
AcDbEllipse
10
74.13472
20
-7.901217
30
0
11
-0.402468553215752
21
-0.126897847390802
31
0
210
0
220
0
230
1
40
0.998568
41
3.14158148629593
42
-2.93435392246549
0
POINT
5
41
100
AcDbEntity
8
80
62
256
6
ByLayer
370
-1
48
1
60
0
100
AcDbPoint
10
0
20
0
30
0
39
0
210
0
220
0
230
1
50
360
0
POINT
5
43
100
AcDbEntity
8
81
62
256
6
ByLayer
370
-1
48
1
60
0
100
AcDbPoint
10
79.93
20
-12.9
30
0
39
0
210
0
220
0
230
1
50
360
0
POINT
5
45
100
AcDbEntity
8
1
62
256
6
ByLayer
370
-1
48
1
60
0
100
AcDbPoint
10
-171.32
20
0
30
0
39
0
210
0
220
0
230
1
50
360
0
POINT
5
47
100
AcDbEntity
8
2
62
256
6
ByLayer
370
-1
48
1
60
0
100
AcDbPoint
10
79.93
20
12.9
30
0
39
0
210
0
220
0
230
1
50
360
0
POINT
5
49
100
AcDbEntity
8
2
62
256
6
ByLayer
370
-1
48
1
60
0
100
AcDbPoint
10
79.603254
20
12.071191
30
0
39
0
210
0
220
0
230
1
50
360
0
SPLINE
5
C6
100
AcDbEntity
8
1
62
256
6
ByLayer
370
-1
48
1
60
0
100
AcDbSpline
70
4
71
3
72
8
73
4
40
0
40
0
40
0
40
0
40
1
40
1
40
1
40
1
41
1
10
67.6062331824917
20
-9.91555168159999
30
0
41
1
10
67.5812332857856
20
-9.94056372621225
30
0
41
1
10
67.5562332850083
20
-9.9655756670486
30
0
41
1
10
67.5312331824917
20
-9.99058750643161
30
0
0
SPLINE
5
C7
100
AcDbEntity
8
1
62
256
6
ByLayer
370
-1
48
1
60
0
100
AcDbSpline
70
4
71
3
72
8
73
4
40
0
40
0
40
0
40
0
40
1
40
1
40
1
40
1
41
1
10
66.3296062241112
20
-8.81133037411149
30
0
41
1
10
66.2271819836949
20
-8.70890613369522
30
0
41
1
10
66.1245335422842
20
-8.60625769228446
30
0
41
1
10
66.0270258500001
20
-8.50875000000039
30
0
0
SPLINE
5
C8
100
AcDbEntity
8
1
62
256
6
ByLayer
370
-1
48
1
60
0
100
AcDbSpline
70
4
71
3
72
8
73
4
40
0
40
0
40
0
40
0
40
1
40
1
40
1
40
1
41
1
10
70.2927548794921
20
-9.91597103151281
30
0
41
1
10
70.8495715077073
20
-10.091225911108
30
0
41
1
10
71.4064042047523
20
-10.2664299820253
30
0
41
1
10
71.963250639642
20
-10.4415905760328
30
0
0
SPLINE
5
C9
100
AcDbEntity
8
1
62
256
6
ByLayer
370
-1
48
1
60
0
100
AcDbSpline
70
4
71
3
72
18
73
14
40
0
40
0
40
0
40
0
40
0.15932582633094
40
0.15932582633094
40
0.318922511879012
40
0.318922511879012
40
0.476087936387685
40
0.476087936387685
40
0.651805985523325
40
0.651805985523325
40
0.861140173500333
40
0.861140173500333
40
1
40
1
40
1
40
1
41
1
10
62.9308395165223
20
9.59320044736347
30
0
41
1
10
62.9089384722066
20
9.63242778558291
30
0
41
1
10
62.9094054938321
20
9.67022617661297
30
0
41
1
10
62.9594068300258
20
9.73691071554794
30
0
41
1
10
63.0097050601684
20
9.76665562556289
30
0
41
1
10
63.1490789943296
20
9.81561227360302
30
0
41
1
10
63.2389482993368
20
9.83566699035072
30
0
41
1
10
63.4553251478982
20
9.86965909802501
30
0
41
1
10
63.5872146414102
20
9.88309428769264
30
0
41
1
10
63.8930477162801
20
9.90506707635737
30
0
41
1
10
64.0738136533362
20
9.91252743496355
30
0
41
1
10
64.3796848206054
20
9.91970126605477
30
0
41
1
10
64.5046413034185
20
9.92118567041598
30
0
41
1
10
64.6292835157565
20
9.92142287510333
30
0
0
SPLINE
5
CA
100
AcDbEntity
8
1
62
256
6
ByLayer
370
-1
48
1
60
0
100
AcDbSpline
70
4
71
3
72
10
73
6
40
0
40
0
40
0
40
0
40
0.798202651494861
40
0.798202651494861
40
1
40
1
40
1
40
1
41
1
10
65.2169501827172
20
-8.03920465131401
30
0
41
1
10
65.1084176891165
20
-8.1854842602244
30
0
41
1
10
64.9695059611103
20
-8.31861237375199
30
0
41
1
10
64.7513316261001
20
-8.4570776461064
30
0
41
1
10
64.7045439922517
20
-8.48379208508067
30
0
41
1
10
64.6551640217952
20
-8.50875000000053
30
0
0
SPLINE
5
CB
100
AcDbEntity
8
1
62
256
6
ByLayer
370
-1
48
1
60
0
100
AcDbSpline
70
4
71
3
72
10
73
6
40
0
40
0
40
0
40
0
40
0.524988985774632
40
0.524988985774632
40
1
40
1
40
1
40
1
41
1
10
66.0270258500001
20
-8.50875000000056
30
0
41
1
10
65.7650284133533
20
-8.50875000000056
30
0
41
1
10
65.5115618483099
20
-8.50875000000056
30
0
41
1
10
65.0672884287357
20
-8.50875000000056
30
0
41
1
10
64.8655491728441
20
-8.50875000000056
30
0
41
1
10
64.6807468500001
20
-8.50875000000056
30
0
0
SPLINE
5
CC
100
AcDbEntity
8
SK1
62
256
6
ByLayer
370
-1
48
1
60
0
100
AcDbSpline
70
4
71
3
72
8
73
4
40
0
40
0
40
0
40
0
40
1
40
1
40
1
40
1
41
1
10
-171.302499986183
20
-8.50874999999999
30
0
41
1
10
-171.302576023436
20
-8.50874999999999
30
0
41
1
10
-170.674914121567
20
-8.50874999999999
30
0
41
1
10
-169.82
20
-8.50874999999999
30
0
0
SPLINE
5
CD
100
AcDbEntity
8
SK1
62
256
6
ByLayer
370
-1
48
1
60
0
100
AcDbSpline
70
4
71
3
72
10
73
6
40
0
40
0
40
0
40
0
40
0.5
40
0.5
40
1
40
1
40
1
40
1
41
1
10
-169.82
20
-4.33878745302189
30
0
41
1
10
-170.419233025873
20
-2.95888879825199
30
0
41
1
10
-170.810991214146
20
-1.50358877622818
30
0
41
1
10
-170.811508518976
20
1.50048916054567
30
0
41
1
10
-170.420392105394
20
2.95621969924952
30
0
41
1
10
-169.82
20
4.33878745302189
30
0
0
SPLINE
5
CE
100
AcDbEntity
8
1
62
256
6
ByLayer
370
-1
48
1
60
0
100
AcDbSpline
70
4
71
3
72
12
73
8
40
0
40
0
40
0
40
0
40
0.461112225490935
40
0.461112225490935
40
0.843075546285169
40
0.843075546285169
40
1
40
1
40
1
40
1
41
1
10
76.1022631167343
20
-7.84709998063735
30
0
41
1
10
76.0587529304016
20
-7.84562313277402
30
0
41
1
10
76.0138676241597
20
-7.83748627274895
30
0
41
1
10
75.9344058464187
20
-7.80944306286574
30
0
41
1
10
75.8985167831796
20
-7.79139087171339
30
0
41
1
10
75.8521127230568
20
-7.75924294907173
30
0
41
1
10
75.8389795126861
20
-7.74900877258997
30
0
41
1
10
75.8265027125188
20
-7.73807625932258
30
0
0
SPLINE
5
CF
100
AcDbEntity
8
1
62
256
6
ByLayer
370
-1
48
1
60
0
100
AcDbSpline
70
4
71
3
72
12
73
8
40
0
40
0
40
0
40
0
40
0.423563412934899
40
0.423563412934899
40
0.811988270327811
40
0.811988270327811
40
1
40
1
40
1
40
1
41
1
10
74.4566179368244
20
-8.65529317898776
30
0
41
1
10
74.495945943912
20
-8.65456186100755
30
0
41
1
10
74.5364120748477
20
-8.65954959887867
30
0
41
1
10
74.6122574193871
20
-8.68134247852873
30
0
41
1
10
74.6486378972281
20
-8.69749603677531
30
0
41
1
10
74.6985501262421
20
-8.72958151641515
30
0
41
1
10
74.7143522232483
20
-8.7414162781653
30
0
41
1
10
74.7292442447353
20
-8.75437681672395
30
0
0
SPLINE
5
D0
100
AcDbEntity
8
1
62
256
6
ByLayer
370
-1
48
1
60
0
100
AcDbSpline
70
4
71
3
72
16
73
12
40
0
40
0
40
0
40
0
40
0.044425624158201
40
0.044425624158201
40
0.359051327416945
40
0.359051327416945
40
0.645206780958671
40
0.645206780958671
40
0.897604908113003
40
0.897604908113003
40
1
40
1
40
1
40
1
41
1
10
76.0413942653781
20
-8.76053280584901
30
0
41
1
10
76.0430566891566
20
-8.76352288299751
30
0
41
1
10
76.0446449566928
20
-8.7665648515208
30
0
41
1
10
76.0567114451687
20
-8.79125076490161
30
0
41
1
10
76.0635303801177
20
-8.81567217492042
30
0
41
1
10
76.0669509902354
20
-8.86329962866256
30
0
41
1
10
76.0644244115205
20
-8.88716860707541
30
0
41
1
10
76.0513730885625
20
-8.92949109757248
30
0
41
1
10
76.0416031912947
20
-8.94886679430127
30
0
41
1
10
76.0237811458373
20
-8.97263781710799
30
0
41
1
10
76.0180980148472
20
-8.97919064353613
30
0
41
1
10
76.0119992207613
20
-8.98528228594077
30
0
0
SPLINE
5
D1
100
AcDbEntity
8
1
62
256
6
ByLayer
370
-1
48
1
60
0
100
AcDbSpline
70
4
71
3
72
14
73
10
40
0
40
0
40
0
40
0
40
0.0499036011035437
40
0.0499036011035437
40
0.386736969455157
40
0.386736969455157
40
0.834100126716711
40
0.834100126716711
40
1
40
1
40
1
40
1
41
1
10
75.7866203142852
20
-7.69824066716032
30
0
41
1
10
75.7831399721043
20
-7.6942750228805
30
0
41
1
10
75.77973872224
20
-7.69025105681729
30
0
41
1
10
75.7542228862068
20
-7.65890380283651
30
0
41
1
10
75.7356663956433
20
-7.62898836826253
30
0
41
1
10
75.7029008512565
20
-7.5584277344706
30
0
41
1
10
75.6914067861931
20
-7.51631064927594
30
0
41
1
10
75.6848722172658
20
-7.45986413172565
30
0
41
1
10
75.6840050713839
20
-7.44453374175308
30
0
41
1
10
75.6840113397863
20
-7.42933906490674
30
0
0
SPLINE
5
D2
100
AcDbEntity
8
1
62
256
6
ByLayer
370
-1
48
1
60
0
100
AcDbSpline
70
4
71
3
72
18
73
14
40
0
40
0
40
0
40
0
40
0.208648690447733
40
0.208648690447733
40
0.385081860234315
40
0.385081860234315
40
0.563208831087241
40
0.563208831087241
40
0.718287932261868
40
0.718287932261868
40
0.923681026638209
40
0.923681026638209
40
1
40
1
40
1
40
1
41
1
10
76.0413942653779
20
-8.76053280584915
30
0
41
1
10
76.0202661984358
20
-8.72253133416086
30
0
41
1
10
76.0041238646111
20
-8.68020138578206
30
0
41
1
10
75.9870559304043
20
-8.59789677705726
30
0
41
1
10
75.98407269143
20
-8.55761493645724
30
0
41
1
10
75.989873396887
20
-8.47739114358393
30
0
41
1
10
75.9989752866119
20
-8.43628607001006
30
0
41
1
10
76.0261391116562
20
-8.36586192081697
30
0
41
1
10
76.0431616916949
20
-8.33484196867312
30
0
41
1
10
76.0890845648266
20
-8.2713768731563
30
0
41
1
10
76.1207154653979
20
-8.24053778253193
30
0
41
1
10
76.1677613349321
20
-8.2068456393412
30
0
41
1
10
76.1810577417914
20
-8.19845695197156
30
0
41
1
10
76.1946859439967
20
-8.1908992563489
30
0
0
SPLINE
5
D3
100
AcDbEntity
8
1
62
256
6
ByLayer
370
-1
48
1
60
0
100
AcDbSpline
70
4
71
3
72
18
73
14
40
0
40
0
40
0
40
0
40
0.023129164207812
40
0.023129164207812
40
0.248694242944475
40
0.248694242944475
40
0.474741991692456
40
0.474741991692456
40
0.713322725582677
40
0.713322725582677
40
0.974034583820978
40
0.974034583820978
40
1
40
1
40
1
40
1
41
1
10
76.2804818821358
20
-7.98759778829242
30
0
41
1
10
76.2809854728619
20
-7.9894841674178
30
0
41
1
10
76.2814589466621
20
-7.99137808826325
30
0
41
1
10
76.2861729971495
20
-8.0115964905502
30
0
41
1
10
76.2875756780887
20
-8.03074133712883
30
0
41
1
10
76.2846136132252
20
-8.06758534143566
30
0
41
1
10
76.2802121596403
20
-8.08575415395714
30
0
41
1
10
76.2662905872853
20
-8.11987168415428
30
0
41
1
10
76.2563436125152
20
-8.13607691613922
30
0
41
1
10
76.2316801932315
20
-8.1652151644507
30
0
41
1
10
76.2163147617189
20
-8.17808527563201
30
0
41
1
10
76.1980658584944
20
-8.18898919000654
30
0
41
1
10
76.1963824250381
20
-8.18995845086721
30
0
41
1
10
76.1946859439966
20
-8.19089925634887
30
0
0
SPLINE
5
D4
100
AcDbEntity
8
1
62
256
6
ByLayer
370
-1
48
1
60
0
100
AcDbSpline
70
4
71
3
72
16
73
12
40
0
40
0
40
0
40
0
40
0.0620735826591705
40
0.0620735826591705
40
0.286696001433859
40
0.286696001433859
40
0.514027575236195
40
0.514027575236195
40
0.755701742852558
40
0.755701742852558
40
1
40
1
40
1
40
1
41
1
10
74.2805961332988
20
-8.52176324417007
30
0
41
1
10
74.2792499653162
20
-8.51672069066382
30
0
41
1
10
74.2781151782038
20
-8.51160994422375
30
0
41
1
10
74.2739048525488
20
-8.48797232074497
30
0
41
1
10
74.2734569934473
20
-8.46870944033924
30
0
41
1
10
74.2781016416029
20
-8.43151110799636
30
0
41
1
10
74.283305571552
20
-8.41311891040476
30
0
41
1
10
74.2986905371133
20
-8.37847311811845
30
0
41
1
10
74.3093394588626
20
-8.36198542872444
30
0
41
1
10
74.3342066098037
20
-8.33350749359789
30
0
41
1
10
74.348713069145
20
-8.32124153024438
30
0
41
1
10
74.3642057696694
20
-8.31152771279545
30
0
0
SPLINE
5
D5
100
AcDbEntity
8
1
62
256
6
ByLayer
370
-1
48
1
60
0
100
AcDbSpline
70
4
71
3
72
14
73
10
40
0
40
0
40
0
40
0
40
0.268072082362237
40
0.268072082362237
40
0.557345113801056
40
0.557345113801056
40
0.819260345484905
40
0.819260345484905
40
1
40
1
40
1
40
1
41
1
10
74.51749744829
20
-7.74189416329409
30
0
41
1
10
74.5078892374391
20
-7.72506645475866
30
0
41
1
10
74.5008633007433
20
-7.70609661731422
30
0
41
1
10
74.4933859643645
20
-7.66480683783794
30
0
41
1
10
74.4934280852372
20
-7.64167716343715
30
0
41
1
10
74.5020045534611
20
-7.59874343346206
30
0
41
1
10
74.5099027004063
20
-7.57818952815578
30
0
41
1
10
74.5288802558051
20
-7.54687743893388
30
0
41
1
10
74.5383623165712
20
-7.53478265806783
30
0
41
1
10
74.5490787946732
20
-7.52407874652164
30
0
0
SPLINE
5
D6
100
AcDbEntity
8
1
62
256
6
ByLayer
370
-1
48
1
60
0
100
AcDbSpline
70
4
71
3
72
16
73
12
40
0
40
0
40
0
40
0
40
0.0552075288738012
40
0.0552075288738012
40
0.279995068534259
40
0.279995068534259
40
0.507103993736017
40
0.507103993736017
40
0.748242568640407
40
0.748242568640407
40
1
40
1
40
1
40
1
41
1
10
74.5490787946732
20
-7.52407874652164
30
0
41
1
10
74.55236833883
20
-7.52079305981127
30
0
41
1
10
74.5557835952276
20
-7.51762432685192
30
0
41
1
10
74.5735433855318
20
-7.50232178625959
30
0
41
1
10
74.5898263285928
20
-7.49209227410114
30
0
41
1
10
74.623916464817
20
-7.47706972072228
30
0
41
1
10
74.642166593639
20
-7.47212917972422
30
0
41
1
10
74.679213460412
20
-7.46759379934562
30
0
41
1
10
74.6984366107382
20
-7.46827159304758
30
0
41
1
10
74.7353520747544
20
-7.47506911597847
30
0
41
1
10
74.7533688130506
20
-7.48148393110449
30
0
41
1
10
74.7695279733607
20
-7.49015917894371
30
0
0
SPLINE
5
D7
100
AcDbEntity
8
1
62
256
6
ByLayer
370
-1
48
1
60
0
100
AcDbSpline
70
4
71
3
72
14
73
10
40
0
40
0
40
0
40
0
40
0.279697029741549
40
0.279697029741549
40
0.566953608339304
40
0.566953608339304
40
0.827162249002214
40
0.827162249002214
40
1
40
1
40
1
40
1
41
1
10
74.4566179368246
20
-8.65529317898802
30
0
41
1
10
74.43593763889
20
-8.65567773632458
30
0
41
1
10
74.414636115726
20
-8.65242204292286
30
0
41
1
10
74.3737651718138
20
-8.63814878319195
30
0
41
1
10
74.353636734442
20
-8.62666196502713
30
0
41
1
10
74.3207042864436
20
-8.5979573021541
30
0
41
1
10
74.3069172653109
20
-8.58091924697462
30
0
41
1
10
74.2897864724597
20
-8.54942625139023
30
0
41
1
10
74.2843391087084
20
-8.53578389688241
30
0
41
1
10
74.2805961332988
20
-8.52176324417007
30
0
0
SPLINE
5
D8
100
AcDbEntity
8
1
62
256
6
ByLayer
370
-1
48
1
60
0
100
AcDbSpline
70
4
71
3
72
16
73
12
40
0
40
0
40
0
40
0
40
0.144609964311192
40
0.144609964311192
40
0.448939206559658
40
0.448939206559658
40
0.724132619333303
40
0.724132619333303
40
0.968376209297222
40
0.968376209297222
40
1
40
1
40
1
40
1
41
1
10
75.3398304825138
20
-7.33704705513742
30
0
41
1
10
75.3454113333444
20
-7.32805171947319
30
0
41
1
10
75.351872364333
20
-7.31941911861861
30
0
41
1
10
75.3742993416546
20
-7.29449081888828
30
0
41
1
10
75.3934389511383
20
-7.27975126161567
30
0
41
1
10
75.4344634818064
20
-7.25948637175944
30
0
41
1
10
75.4565671925802
20
-7.25294082062416
30
0
41
1
10
75.4991603985843
20
-7.24845622307279
30
0
41
1
10
75.5201702571983
20
-7.24959084809458
30
0
41
1
10
75.5427404190729
20
-7.25458605887897
30
0
41
1
10
75.545345807198
20
-7.25522098912901
30
0
41
1
10
75.5479349414942
20
-7.25591056637123
30
0
0
SPLINE
5
D9
100
AcDbEntity
8
1
62
256
6
ByLayer
370
-1
48
1
60
0
100
AcDbSpline
70
4
71
3
72
18
73
14
40
0
40
0
40
0
40
0
40
0.139167365930516
40
0.139167365930516
40
0.32898990127417
40
0.32898990127417
40
0.488145806756469
40
0.488145806756469
40
0.64761581701492
40
0.64761581701492
40
0.80437658263577
40
0.80437658263577
40
1
40
1
40
1
40
1
41
1
10
74.51749744829
20
-7.74189416329409
30
0
41
1
10
74.531132046124
20
-7.76577363907887
30
0
41
1
10
74.542534517236
20
-7.7915354710664
30
0
41
1
10
74.5629756824309
20
-7.85575907510505
30
0
41
1
10
74.5698092519189
20
-7.89630057433749
30
0
41
1
10
74.5706584865159
20
-7.97287679082041
30
0
41
1
10
74.5664862341471
20
-8.00943944685332
30
0
41
1
10
74.5489499699915
20
-8.08005899034438
30
0
41
1
10
74.5353431557996
20
-8.11497552212626
30
0
41
1
10
74.5014795204312
20
-8.17788042189954
30
0
41
1
10
74.481005410488
20
-8.20674257404315
30
0
41
1
10
74.4302383574193
20
-8.26351264624009
30
0
41
1
10
74.3981512357534
20
-8.29024413733083
30
0
41
1
10
74.3642057696694
20
-8.31152771279545
30
0
0
SPLINE
5
DA
100
AcDbEntity
8
1
62
256
6
ByLayer
370
-1
48
1
60
0
100
AcDbSpline
70
4
71
3
72
16
73
12
40
0
40
0
40
0
40
0
40
0.195213917963292
40
0.195213917963292
40
0.419324204065936
40
0.419324204065936
40
0.653286921954855
40
0.653286921954855
40
0.907280030747698
40
0.907280030747698
40
1
40
1
40
1
40
1
41
1
10
75.5479349414942
20
-7.25591056637123
30
0
41
1
10
75.5637395196288
20
-7.26011987966174
30
0
41
1
10
75.5791141699411
20
-7.26646568723021
30
0
41
1
10
75.6091980381174
20
-7.28374179238722
30
0
41
1
10
75.6238486732461
20
-7.29544222741649
30
0
41
1
10
75.6488640530142
20
-7.32227244413889
30
0
41
1
10
75.6593404392
20
-7.33785586561581
30
0
41
1
10
75.6753682297676
20
-7.37165136378587
30
0
41
1
10
75.6806418614249
20
-7.39038848417917
30
0
41
1
10
75.6836199310517
20
-7.41572366792784
30
0
41
1
10
75.6840141383788
20
-7.42255524842963
30
0
41
1
10
75.6840113397873
20
-7.42933906490691
30
0
0
SPLINE
5
DB
100
AcDbEntity
8
1
62
256
6
ByLayer
370
-1
48
1
60
0
100
AcDbSpline
70
4
71
3
72
18
73
14
40
0
40
0
40
0
40
0
40
0.210571584481536
40
0.210571584481536
40
0.386654143944394
40
0.386654143944394
40
0.564407727879032
40
0.564407727879032
40
0.719409580960044
40
0.719409580960044
40
0.925132123011532
40
0.925132123011532
40
1
40
1
40
1
40
1
41
1
10
75.3398304825166
20
-7.33704705513867
30
0
41
1
10
75.3176974110574
20
-7.37272161679547
30
0
41
1
10
75.2891717559401
20
-7.40633698656953
30
0
41
1
10
75.2265379069448
20
-7.45966563704118
30
0
41
1
10
75.1933333839037
20
-7.48129048497006
30
0
41
1
10
75.121204194406
20
-7.51507427801491
30
0
41
1
10
75.0811172146237
20
-7.52754648613924
30
0
41
1
10
75.0064484100394
20
-7.53984131000567
30
0
41
1
10
74.9709353472387
20
-7.54127394207364
30
0
41
1
10
74.8924892189128
20
-7.535363261155
30
0
41
1
10
74.8495525859137
20
-7.52503215889058
30
0
41
1
10
74.7965715731893
20
-7.50373607487967
30
0
41
1
10
74.7827857442085
20
-7.49727677946836
30
0
41
1
10
74.7695279733607
20
-7.49015917894374
30
0
0
SPLINE
5
DC
100
AcDbEntity
8
1
62
256
6
ByLayer
370
-1
48
1
60
0
100
AcDbSpline
70
4
71
3
72
14
73
10
40
0
40
0
40
0
40
0
40
0.0260519186401001
40
0.0260519186401001
40
0.364598461481906
40
0.364598461481906
40
0.80578377781613
40
0.80578377781613
40
1
40
1
40
1
40
1
41
1
10
74.769126642969
20
-8.79421240888632
30
0
41
1
10
74.7709519740259
20
-8.79630318990573
30
0
41
1
10
74.7727563370363
20
-8.79841223955856
30
0
41
1
10
74.7974556508568
20
-8.82787284862818
30
0
41
1
10
74.8169148356503
20
-8.85842833293452
30
0
41
1
10
74.8514751443533
20
-8.9305699793461
30
0
41
1
10
74.8641894142209
20
-8.97385220933694
30
0
41
1
10
74.8730828788133
20
-9.03532190360926
30
0
41
1
10
74.8745728092156
20
-9.05427032902577
30
0
41
1
10
74.8748697137806
20
-9.0730540947184
30
0
0
SPLINE
5
DD
100
AcDbEntity
8
1
62
256
6
ByLayer
370
-1
48
1
60
0
100
AcDbSpline
70
4
71
3
72
16
73
12
40
0
40
0
40
0
40
0
40
0.128339407587807
40
0.128339407587807
40
0.352385811806928
40
0.352385811806928
40
0.582781607992951
40
0.582781607992951
40
0.830459054775008
40
0.830459054775008
40
1
40
1
40
1
40
1
41
1
10
76.0119992207613
20
-8.98528228594077
30
0
41
1
10
76.0043928751123
20
-8.99287971209529
30
0
41
1
10
75.9960747410813
20
-8.9998196952568
30
0
41
1
10
75.9719510790071
20
-9.01654806739157
30
0
41
1
10
75.954833361595
20
-9.02479177240392
30
0
41
1
10
75.9193283392378
20
-9.0356774924619
30
0
41
1
10
75.9004747409904
20
-9.03830796244304
30
0
41
1
10
75.8624730694917
20
-9.03793755894529
30
0
41
1
10
75.8429335250414
20
-9.03451610742681
30
0
41
1
10
75.812400555182
20
-9.02425319867456
30
0
41
1
10
75.8004815493092
20
-9.01878866307072
30
0
41
1
10
75.7893637403054
20
-9.01226779019873
30
0
0
SPLINE
5
DE
100
AcDbEntity
8
1
62
256
6
ByLayer
370
-1
48
1
60
0
100
AcDbSpline
70
4
71
3
72
14
73
10
40
0
40
0
40
0
40
0
40
0.225167281972214
40
0.225167281972214
40
0.519229119722288
40
0.519229119722288
40
0.785084364404034
40
0.785084364404034
40
1
40
1
40
1
40
1
41
1
10
76.1022631167343
20
-7.84709998063684
30
0
41
1
10
76.1192037346189
20
-7.84767498886904
30
0
41
1
10
76.136491415433
20
-7.85055566917165
30
0
41
1
10
76.1750266095912
20
-7.86265063439637
30
0
41
1
10
76.1965044096941
20
-7.87380258223726
30
0
41
1
10
76.232172261408
20
-7.90207391977637
30
0
41
1
10
76.2473823223187
20
-7.91898229816175
30
0
41
1
10
76.2684734486411
20
-7.95318409180243
30
0
41
1
10
76.2758319552322
20
-7.97017982447494
30
0
41
1
10
76.2804818821358
20
-7.98759778829242
30
0
0
SPLINE
5
DF
100
AcDbEntity
8
1
62
256
6
ByLayer
370
-1
48
1
60
0
100
AcDbSpline
70
4
71
3
72
14
73
10
40
0
40
0
40
0
40
0
40
0.275033581445381
40
0.275033581445381
40
0.563434893141402
40
0.563434893141402
40
0.824646562344211
40
0.824646562344211
40
1
40
1
40
1
40
1
41
1
10
75.2190612311513
20
-9.16537991400466
30
0
41
1
10
75.2088177376816
20
-9.18351277029916
30
0
41
1
10
75.1952636481763
20
-9.20038549612647
30
0
41
1
10
75.162222144159
20
-9.22922707947404
30
0
41
1
10
75.1419313977983
20
-9.24133484248375
30
0
41
1
10
75.1001590413747
20
-9.25617156155272
30
0
41
1
10
75.0783272813155
20
-9.25986463710314
30
0
41
1
10
75.0421106508173
20
-9.25927765222596
30
0
41
1
10
75.0273434314815
20
-9.25723251919123
30
0
41
1
10
75.0131430739403
20
-9.25345046609124
30
0
0
SPLINE
5
E0
100
AcDbEntity
8
1
62
256
6
ByLayer
370
-1
48
1
60
0
100
AcDbSpline
70
4
71
3
72
18
73
14
40
0
40
0
40
0
40
0
40
0.208619409712914
40
0.208619409712914
40
0.385057715998142
40
0.385057715998142
40
0.563190165637988
40
0.563190165637988
40
0.718270299884857
40
0.718270299884857
40
0.923658224149855
40
0.923658224149855
40
1
40
1
40
1
40
1
41
1
10
75.2190612311514
20
-9.16537991400469
30
0
41
1
10
75.2402847079927
20
-9.12781047963463
30
0
41
1
10
75.2678158982361
20
-9.09239499789223
30
0
41
1
10
75.3289981598154
20
-9.03601401823556
30
0
41
1
10
75.3618171233277
20
-9.01310145016947
30
0
41
1
10
75.433549769275
20
-8.97773176921481
30
0
41
1
10
75.4736348960225
20
-8.96496722095313
30
0
41
1
10
75.5486126392898
20
-8.95321552325208
30
0
41
1
10
75.5843902809017
20
-8.95246123008369
30
0
41
1
10
75.6635719761833
20
-8.96060708173371
30
0
41
1
10
75.707066836789
20
-8.97269884914999
30
0
41
1
10
75.7612391979207
20
-8.99679739096817
30
0
41
1
10
75.7755734123674
20
-9.00417941817173
30
0
41
1
10
75.7893637403055
20
-9.01226779019845
30
0
0
SPLINE
5
E1
100
AcDbEntity
8
1
62
256
6
ByLayer
370
-1
48
1
60
0
100
AcDbSpline
70
4
71
3
72
16
73
12
40
0
40
0
40
0
40
0
40
0.0600235535858038
40
0.0600235535858038
40
0.284042228027977
40
0.284042228027977
40
0.510656778038238
40
0.510656778038238
40
0.75148749176581
40
0.75148749176581
40
1
40
1
40
1
40
1
41
1
10
75.0131430739403
20
-9.25345046609124
30
0
41
1
10
75.008246563583
20
-9.25214635370378
30
0
41
1
10
75.0033973812979
20
-9.25063428959442
30
0
41
1
10
74.9809396704798
20
-9.2425858007162
30
0
41
1
10
74.9640479715328
20
-9.23334049070706
30
0
41
1
10
74.9342692215428
20
-9.21060719678999
30
0
41
1
10
74.9210425653488
20
-9.19679358288573
30
0
41
1
10
74.8990069645208
20
-9.16582561988358
30
0
41
1
10
74.8902348609999
20
-9.14813990413319
30
0
41
1
10
74.8783017690172
20
-9.11146359717307
30
0
41
1
10
74.8751698787885
20
-9.09204413342414
30
0
41
1
10
74.8748697137805
20
-9.0730540947184
30
0
0
LINE
5
4A
100
AcDbEntity
8
80
62
256
6
ByLayer
370
-1
48
1
60
0
100
AcDbLine
10
0
20
0
30
0
11
-10
21
0
31
0
39
0
210
0
220
0
230
1
0
LINE
5
4B
100
AcDbEntity
8
81
62
256
6
ByLayer
370
-1
48
1
60
0
100
AcDbLine
10
79.93
20
-12.9
30
0
11
89.93
21
-12.9
31
0
39
0
210
0
220
0
230
1
0
LINE
5
4C
100
AcDbEntity
8
1
62
256
6
ByLayer
370
-1
48
1
60
0
100
AcDbLine
10
74.551514
20
-7.819753
30
0
11
74.537189
21
-7.774319
31
0
39
0
210
0
220
0
230
1
0
LINE
5
4D
100
AcDbEntity
8
1
62
256
6
ByLayer
370
-1
48
1
60
0
100
AcDbLine
10
75.688487
20
-7.505025
30
0
11
75.702602
21
-7.549792
31
0
39
0
210
0
220
0
230
1
0
LINE
5
4E
100
AcDbEntity
8
1
62
256
6
ByLayer
370
-1
48
1
60
0
100
AcDbLine
10
75.991716
20
-8.633002
30
0
11
76.006074
21
-8.67854
31
0
39
0
210
0
220
0
230
1
0
LINE
5
4F
100
AcDbEntity
8
1
62
256
6
ByLayer
370
-1
48
1
60
0
100
AcDbLine
10
74.854535
20
-8.947069
30
0
11
74.840418
21
-8.902297
31
0
39
0
210
0
220
0
230
1
0
LINE
5
50
100
AcDbEntity
8
1
62
256
6
ByLayer
370
-1
48
1
60
0
100
AcDbLine
10
73.620899
20
-8.72748
30
0
11
73.632579
21
-8.764524
31
0
39
0
210
0
220
0
230
1
0
LINE
5
51
100
AcDbEntity
8
1
62
256
6
ByLayer
370
-1
48
1
60
0
100
AcDbLine
10
76.922903
20
-7.727089
30
0
11
76.911223
21
-7.690045
31
0
39
0
210
0
220
0
230
1
0
LINE
5
52
100
AcDbEntity
8
1
62
256
6
ByLayer
370
-1
48
1
60
0
100
AcDbLine
10
67.509526
20
-9.99125
30
0
11
67.531233
21
-9.99125
31
0
39
0
210
0
220
0
230
1
0
LINE
5
53
100
AcDbEntity
8
1
62
256
6
ByLayer
370
-1
48
1
60
0
100
AcDbLine
10
67.031233
20
9.99125
30
0
11
0
21
9.99125
31
0
39
0
210
0
220
0
230
1
0
LINE
5
54
100
AcDbEntity
8
1
62
256
6
ByLayer
370
-1
48
1
60
0
100
AcDbLine
10
69.258689
20
-0.942557
30
0
11
69.200811
21
-0.758992
31
0
39
0
210
0
220
0
230
1
0
LINE
5
55
100
AcDbEntity
8
1
62
256
6
ByLayer
370
-1
48
1
60
0
100
AcDbLine
10
67.531233
20
-9.99125
30
0
11
67.606233
21
-9.91625
31
0
39
0
210
0
220
0
230
1
0
LINE
5
56
100
AcDbEntity
8
1
62
256
6
ByLayer
370
-1
48
1
60
0
100
AcDbLine
10
67.606233
20
-9.91625
30
0
11
70.292755
21
-9.91625
31
0
39
0
210
0
220
0
230
1
0
LINE
5
57
100
AcDbEntity
8
1
62
256
6
ByLayer
370
-1
48
1
60
0
100
AcDbLine
10
70.292755
20
-9.91625
30
0
11
71.961306
21
-10.440999
31
0
39
0
210
0
220
0
230
1
0
LINE
5
58
100
AcDbEntity
8
SK1
62
256
6
ByLayer
370
-1
48
1
60
0
100
AcDbLine
10
-169.82
20
9.99125
30
0
11
-171.32
21
8.49125
31
0
39
0
210
0
220
0
230
1
0
LINE
5
5A
100
AcDbEntity
8
SK1
62
256
6
ByLayer
370
-1
48
1
60
0
100
AcDbLine
10
-171.32
20
-8.49125
30
0
11
-171.3025
21
-8.50875
31
0
39
0
210
0
220
0
230
1
0
LINE
5
5B
100
AcDbEntity
8
SK1
62
256
6
ByLayer
370
-1
48
1
60
0
100
AcDbLine
10
0
20
9.99125
30
0
11
-169.82
21
9.99125
31
0
39
0
210
0
220
0
230
1
0
LINE
5
5C
100
AcDbEntity
8
SK4
62
256
6
ByLayer
370
-1
48
0.05
60
0
100
AcDbLine
10
-176.32
20
0
30
0
11
84.603254
21
0
31
0
39
0
210
0
220
0
230
1
0
LINE
5
5E
100
AcDbEntity
8
4
62
256
6
ByLayer
370
-1
48
0.05
60
0
100
AcDbLine
10
0
20
0
30
0
11
84.603254
21
0
31
0
39
0
210
0
220
0
230
1
0
LINE
5
60
100
AcDbEntity
8
1
62
256
6
ByLayer
370
-1
48
1
60
0
100
AcDbLine
10
0
20
4.338787
30
0
11
62.521997
21
4.338787
31
0
39
0
210
0
220
0
230
1
0
LINE
5
61
100
AcDbEntity
8
1
62
256
6
ByLayer
370
-1
48
1
60
0
100
AcDbLine
10
69.09999
20
-0.595142
30
0
11
65.248377
21
5.659975
31
0
39
0
210
0
220
0
230
1
0
LINE
5
62
100
AcDbEntity
8
1
62
256
6
ByLayer
370
-1
48
1
60
0
100
AcDbLine
10
69.040643
20
-0.40692
30
0
11
62.93084
21
9.5932
31
0
39
0
210
0
220
0
230
1
0
LINE
5
63
100
AcDbEntity
8
1
62
256
6
ByLayer
370
-1
48
1
60
0
100
AcDbLine
10
70.689333
20
-6.124521
30
0
11
70.723919
21
-6.234214
31
0
39
0
210
0
220
0
230
1
0
LINE
5
64
100
AcDbEntity
8
1
62
256
6
ByLayer
370
-1
48
1
60
0
100
AcDbLine
10
71.344826
20
-6.330713
30
0
11
70.689333
21
-6.124521
31
0
39
0
210
0
220
0
230
1
0
LINE
5
65
100
AcDbEntity
8
1
62
256
6
ByLayer
370
-1
48
1
60
0
100
AcDbLine
10
77.514154
20
-5.44541
30
0
11
76.385427
21
-1.865547
31
0
39
0
210
0
220
0
230
1
0
LINE
5
66
100
AcDbEntity
8
1
62
256
6
ByLayer
370
-1
48
1
60
0
100
AcDbLine
10
65.292322
20
-7.937454
30
0
11
69.057413
21
-2.31272
31
0
39
0
210
0
220
0
230
1
0
LINE
5
67
100
AcDbEntity
8
1
62
256
6
ByLayer
370
-1
48
1
60
0
100
AcDbLine
10
70.004741
20
-4.274697
30
0
11
70.039327
21
-4.38439
31
0
39
0
210
0
220
0
230
1
0
LINE
5
68
100
AcDbEntity
8
1
62
256
6
ByLayer
370
-1
48
1
60
0
100
AcDbLine
10
67.606233
20
-9.91625
30
0
11
67.606233
21
-9.915552
31
0
39
0
210
0
220
0
230
1
0
LINE
5
69
100
AcDbEntity
8
1
62
256
6
ByLayer
370
-1
48
1
60
0
100
AcDbLine
10
70.300968
20
-2.944487
30
0
11
66.451621
21
-8.642794
31
0
39
0
210
0
220
0
230
1
0
LINE
5
6A
100
AcDbEntity
8
1
62
256
6
ByLayer
370
-1
48
1
60
0
100
AcDbLine
10
69.09999
20
-0.595142
30
0
11
69.040643
21
-0.40692
31
0
39
0
210
0
220
0
230
1
0
LINE
5
6B
100
AcDbEntity
8
1
62
256
6
ByLayer
370
-1
48
1
60
0
100
AcDbLine
10
0
20
-8.50875
30
0
11
64.655164
21
-8.50875
31
0
39
0
210
0
220
0
230
1
0
LINE
5
6C
100
AcDbEntity
8
1
62
256
6
ByLayer
370
-1
48
1
60
0
100
AcDbLine
10
64.629284
20
9.921423
30
0
11
70.380684
21
0.507912
31
0
39
0
210
0
220
0
230
1
0
LINE
5
6D
100
AcDbEntity
8
1
62
256
6
ByLayer
370
-1
48
1
60
0
100
AcDbLine
10
0
20
-4.338787
30
0
11
0
21
-8.50875
31
0
39
0
210
0
220
0
230
1
0
LINE
5
6E
100
AcDbEntity
8
1
62
256
6
ByLayer
370
-1
48
1
60
0
100
AcDbLine
10
66.329606
20
-8.81133
30
0
11
67.508859
21
-9.990583
31
0
39
0
210
0
220
0
230
1
0
LINE
5
6F
100
AcDbEntity
8
1
62
256
6
ByLayer
370
-1
48
1
60
0
100
AcDbLine
10
72.640806
20
-10.441034
30
0
11
71.963251
21
-10.441591
31
0
39
0
210
0
220
0
230
1
0
LINE
5
70
100
AcDbEntity
8
1
62
256
6
ByLayer
370
-1
48
1
60
0
100
AcDbLine
10
70.292755
20
-9.91625
30
0
11
70.292755
21
-9.915971
31
0
39
0
210
0
220
0
230
1
0
LINE
5
71
100
AcDbEntity
8
1
62
256
6
ByLayer
370
-1
48
1
60
0
100
AcDbLine
10
67.509526
20
-9.99125
30
0
11
67.508859
21
-9.990583
31
0
39
0
210
0
220
0
230
1
0
LINE
5
72
100
AcDbEntity
8
1
62
256
6
ByLayer
370
-1
48
1
60
0
100
AcDbLine
10
0
20
4.338787
30
0
11
0
21
9.99125
31
0
39
0
210
0
220
0
230
1
0
LINE
5
73
100
AcDbEntity
8
1
62
256
6
ByLayer
370
-1
48
1
60
0
100
AcDbLine
10
67.531233
20
-9.99125
30
0
11
67.531233
21
-9.990588
31
0
39
0
210
0
220
0
230
1
0
LINE
5
74
100
AcDbEntity
8
1
62
256
6
ByLayer
370
-1
48
1
60
0
100
AcDbLine
10
67.0827
20
9.926014
30
0
11
76.385427
21
-1.865547
31
0
39
0
210
0
220
0
230
1
0
LINE
5
75
100
AcDbEntity
8
1
62
256
6
ByLayer
370
-1
48
1
60
0
100
AcDbLine
10
71.379418
20
-6.440407
30
0
11
70.723919
21
-6.234214
31
0
39
0
210
0
220
0
230
1
0
LINE
5
76
100
AcDbEntity
8
1
62
256
6
ByLayer
370
-1
48
1
60
0
100
AcDbLine
10
0
20
-4.338787
30
0
11
0
21
4.338787
31
0
39
0
210
0
220
0
230
1
0
LINE
5
77
100
AcDbEntity
8
1
62
256
6
ByLayer
370
-1
48
1
60
0
100
AcDbLine
10
67.0827
20
9.926014
30
0
11
67.031233
21
9.99125
31
0
39
0
210
0
220
0
230
1
0
LINE
5
78
100
AcDbEntity
8
1
62
256
6
ByLayer
370
-1
48
1
60
0
100
AcDbLine
10
58.687558
20
-4.338787
30
0
11
0
21
-4.338787
31
0
39
0
210
0
220
0
230
1
0
LINE
5
79
100
AcDbEntity
8
1
62
256
6
ByLayer
370
-1
48
1
60
0
100
AcDbLine
10
62.521997
20
4.338787
30
0
11
58.687558
21
-4.338787
31
0
39
0
210
0
220
0
230
1
0
LINE
5
7A
100
AcDbEntity
8
SK1
62
256
6
ByLayer
370
-1
48
1
60
0
100
AcDbLine
10
0
20
-4.338787
30
0
11
-169.82
21
-4.338787
31
0
39
0
210
0
220
0
230
1
0
LINE
5
7B
100
AcDbEntity
8
SK1
62
256
6
ByLayer
370
-1
48
1
60
0
100
AcDbLine
10
-169.82
20
-8.50875
30
0
11
0
21
-8.50875
31
0
39
0
210
0
220
0
230
1
0
LINE
5
7C
100
AcDbEntity
8
SK1
62
256
6
ByLayer
370
-1
48
1
60
0
100
AcDbLine
10
0
20
-4.338787
30
0
11
0
21
-8.50875
31
0
39
0
210
0
220
0
230
1
0
LINE
5
7D
100
AcDbEntity
8
SK1
62
256
6
ByLayer
370
-1
48
1
60
0
100
AcDbLine
10
-169.82
20
4.338787
30
0
11
0
21
4.338787
31
0
39
0
210
0
220
0
230
1
0
LINE
5
7E
100
AcDbEntity
8
SK1
62
256
6
ByLayer
370
-1
48
1
60
0
100
AcDbLine
10
0
20
9.99125
30
0
11
0
21
4.338787
31
0
39
0
210
0
220
0
230
1
0
LINE
5
7F
100
AcDbEntity
8
1
62
256
6
ByLayer
370
-1
48
1
60
0
100
AcDbLine
10
79.413694
20
-12.881704
30
0
11
72.946375
21
-10.847351
31
0
39
0
210
0
220
0
230
1
0
LINE
5
80
100
AcDbEntity
8
1
62
256
6
ByLayer
370
-1
48
1
60
0
100
AcDbLine
10
71.148595
20
-3.631495
30
0
11
77.615914
21
-5.665848
31
0
39
0
210
0
220
0
230
1
0
LINE
5
81
100
AcDbEntity
8
1
62
256
6
ByLayer
370
-1
48
1
60
0
100
AcDbLine
10
77.874937
20
-5.924568
30
0
11
79.911683
21
-12.384299
31
0
39
0
210
0
220
0
230
1
0
LINE
5
82
100
AcDbEntity
8
1
62
256
6
ByLayer
370
-1
48
1
60
0
100
AcDbLine
10
72.687351
20
-10.588632
30
0
11
70.650606
21
-4.128901
31
0
39
0
210
0
220
0
230
1
0
LINE
5
83
100
AcDbEntity
8
1
62
256
6
ByLayer
370
-1
48
1
60
0
100
AcDbLine
10
75.669023
20
-7.381803
30
0
11
75.684011
21
-7.429339
31
0
39
0
210
0
220
0
230
1
0
LINE
5
84
100
AcDbEntity
8
1
62
256
6
ByLayer
370
-1
48
1
60
0
100
AcDbLine
10
75.204068
20
-9.117827
30
0
11
75.219061
21
-9.16538
31
0
39
0
210
0
220
0
230
1
0
LINE
5
85
100
AcDbEntity
8
1
62
256
6
ByLayer
370
-1
48
1
60
0
100
AcDbLine
10
76.179693
20
-8.143346
30
0
11
76.194686
21
-8.190899
31
0
39
0
210
0
220
0
230
1
0
LINE
5
86
100
AcDbEntity
8
1
62
256
6
ByLayer
370
-1
48
1
60
0
100
AcDbLine
10
74.44163
20
-8.607757
30
0
11
74.456618
21
-8.655293
31
0
39
0
210
0
220
0
230
1
0
LINE
5
87
100
AcDbEntity
8
1
62
256
6
ByLayer
370
-1
48
1
60
0
100
AcDbLine
10
74.502504
20
-7.694341
30
0
11
74.517497
21
-7.741894
31
0
39
0
210
0
220
0
230
1
0
LINE
5
88
100
AcDbEntity
8
1
62
256
6
ByLayer
370
-1
48
1
60
0
100
AcDbLine
10
75.77437
20
-8.964715
30
0
11
75.789364
21
-9.012268
31
0
39
0
210
0
220
0
230
1
0
LINE
5
89
100
AcDbEntity
8
SK1
62
256
6
ByLayer
370
-1
48
1
60
0
100
AcDbLine
10
-171.32
20
8.49125
30
0
11
-171.32
21
-8.49125
31
0
39
0
210
0
220
0
230
1
0
LINE
5
8A
100
AcDbEntity
8
SK1
62
256
6
ByLayer
370
-1
48
1
60
0
100
AcDbLine
10
-169.82
20
-4.338787
30
0
11
-169.82
21
-8.50875
31
0
39
0
210
0
220
0
230
1
0
LINE
5
8B
100
AcDbEntity
8
SK1
62
256
6
ByLayer
370
-1
48
1
60
0
100
AcDbLine
10
-169.82
20
9.99125
30
0
11
-169.82
21
4.338787
31
0
39
0
210
0
220
0
230
1
0
LINE
5
8C
100
AcDbEntity
8
SK1
62
256
6
ByLayer
370
-1
48
1
60
0
100
AcDbLine
10
0
20
-4.338787
30
0
11
0
21
4.338787
31
0
39
0
210
0
220
0
230
1
0
LINE
5
8D
100
AcDbEntity
8
2
62
256
6
ByLayer
370
-1
48
1
60
1
100
AcDbLine
10
79.93
20
0
30
0
11
79.931
21
0.001
31
0
39
0
210
0
220
0
230
1
0
MTEXT
5
E2
100
AcDbEntity
8
SK6
62
256
6
ByLayer
370
-1
48
1
60
0
100
AcDbMText
10
-42.32
20
17.661875
30
0
210
0
220
0
230
1
1
\W00.790;\fsimplex.shx,bigfont.shx;A20S-SDQCL 07HP 
40
3.5
41
0
44
1.084337
50
0
71
7
72
5
7
DEFAULT
0
DIMENSION
5
115
100
AcDbEntity
8
2
62
256
6
ByLayer
370
-3
48
1
60
0
100
AcDbDimension
2
DimnDraft3D1
10
92.18
20
0
30
0
11
92.18
21
-32.356316
31
0
70
32
71
5
72
1
41
1
210
0
220
0
230
1
3
Standard
100
AcDbAlignedDimension
13
81.93
23
-12.9
33
0
14
81.93
24
0
34
0
50
90
100
AcDbRotatedDimension
1001
ACAD
1000
DSTYLE
1002
{
1070
    74
1070
     0
1070
   279
1070
     0
1070
   172
1070
     1
1070
   173
1070
     1
1070
   340
1005
E3
1070
    77
1070
     1
1070
    73
1070
     0
1070
   171
1070
     4
1070
   274
1070
     4
1070
   177
1070
     2
1070
   176
1070
     2
1070
   178
1070
     7
1070
    78
1070
     8
1070
    41
1041
3.175
1070
   147
1041
2.25
1070
    42
1041
2.0
1070
    44
1041
2.0
1070
   140
1041
4.5
1070
   343
1005
116
1070
   344
1005
116
1002
}
0
DIMENSION
5
12B
100
AcDbEntity
8
SK2
62
256
6
ByLayer
370
-3
48
1
60
0
100
AcDbDimension
2
DimnDraft3D2
10
-181.07
20
9.99125
30
0
11
-181.07
21
-4.784211
31
0
70
32
71
5
72
1
41
1
210
0
220
0
230
1
3
Standard
100
AcDbAlignedDimension
13
-173.32
23
-9.99125
33
0
14
-173.32
24
9.99125
34
0
50
90
100
AcDbRotatedDimension
1001
ACAD
1000
DSTYLE
1002
{
1070
    74
1070
     0
1070
   279
1070
     0
1070
   172
1070
     1
1070
   173
1070
     1
1070
   340
1005
E3
1070
    77
1070
     1
1070
    73
1070
     0
1070
   171
1070
     4
1070
   274
1070
     4
1070
   177
1070
     2
1070
   176
1070
     2
1070
   178
1070
     7
1070
    78
1070
     8
1070
    41
1041
3.175
1070
   147
1041
2.25
1070
    42
1041
2.0
1070
    44
1041
2.0
1070
   140
1041
4.5
1070
   343
1005
116
1070
   344
1005
116
1002
}
0
DIMENSION
5
139
100
AcDbEntity
8
SK2
62
256
6
ByLayer
370
-3
48
1
60
0
100
AcDbDimension
2
DimnDraft3D3
10
79.93
20
-30.15
30
0
11
-52.510132
21
-30.15
31
0
70
32
71
5
72
1
41
1
210
0
220
0
230
1
3
Standard
100
AcDbAlignedDimension
13
-171.32
23
-11.99125
33
0
14
79.93
24
-14.9
34
0
50
0
100
AcDbRotatedDimension
1001
ACAD
1000
DSTYLE
1002
{
1070
   279
1070
     0
1070
   172
1070
     1
1070
   173
1070
     1
1070
   340
1005
E3
1070
    77
1070
     1
1070
    73
1070
     0
1070
   171
1070
     4
1070
   274
1070
     4
1070
   177
1070
     2
1070
   176
1070
     2
1070
   178
1070
     7
1070
    78
1070
     8
1070
    41
1041
3.175
1070
   147
1041
2.25
1070
    42
1041
2.0
1070
    44
1041
2.0
1070
   140
1041
4.5
1070
   343
1005
116
1070
   344
1005
116
1002
}
0
DIMENSION
5
147
100
AcDbEntity
8
2
62
256
6
ByLayer
370
-3
48
1
60
0
100
AcDbDimension
2
DimnDraft3D4
10
115.789052
20
0
30
0
11
92.270616
21
37.788356
31
0
70
34
71
5
72
1
41
1
210
0
220
0
230
1
3
Standard
100
AcDb2LineAngularDimension
13
77.223648
23
-4.316547
33
0
14
63.856544
24
38.078491
34
0
15
81.93
25
0
35
0
16
100.949789
26
34.214547
36
0
40
0
0
ENDSEC
0
SECTION
2
OBJECTS
0
DICTIONARY
5
178
330
0
100
AcDbDictionary
280
0
281
1
3
ACAD_GROUP
350
179
3
ACAD_MLINESTYLE
350
17a
0
DICTIONARY
5
179
330
0
100
AcDbDictionary
280
0
281
1
0
DICTIONARY
5
17a
330
0
100
AcDbDictionary
280
0
281
1
3
Standard
350
18
0
MLINESTYLE
5
18
330
17a
100
AcDbMlineStyle
2
Standard
70
0
3

62
256
51
90
52
90
71
2
49
-0.5
62
256
6
ByLayer
49
0.5
62
256
6
ByLayer
0
RASTERVARIABLES
5
166
330

100
AcDbRasterVariables
90
0
70
1
71
1
72
1
0
ENDSEC
0
EOF
