0
SECTION
2
HEADER
9
$ACADVER
1
AC1015
9
$DWGCODEPAGE
3
ANSI_1252
9
$HANDSEED
5
19d
9
$ANGBASE
50
0
9
$ANGDIR
70
0
9
$ATTMODE
70
1
9
$AUNITS
70
0
9
$AUPREC
70
0
9
$CECOLOR
62
256
9
$CELTSCALE
40
1
9
$CELTYPE
6
ByLayer
9
$CELWEIGHT
370
-1
9
$CLAYER
8
0
9
$CMLJUST
70
0
9
$CMLSCALE
40
1
9
$CMLSTYLE
2
Standard
9
$DIMSTYLE
2
Standard
9
$TEXTSIZE
40
0.2
9
$TEXTSTYLE
7
Standard
9
$LUNITS
70
2
9
$LUPREC
70
4
9
$EXTNAMES
290
1
9
$INSUNITS
70
4
9
$LTSCALE
40
1
9
$LWDISPLAY
290
0
9
$PDMODE
70
0
9
$PDSIZE
40
0
9
$PLINEGEN
70
0
0
ENDSEC
0
SECTION
2
CLASSES
0
CLASS
1
RASTERVARIABLES
2
AcDbRasterVariables
3
ISM
90
0
280
0
281
0
0
ENDSEC
0
SECTION
2
TABLES
0
TABLE
2
VPORT
5
193
100
AcDbSymbolTable
0
VPORT
5
1
100
AcDbSymbolTableRecord
100
AcDbViewportTableRecord
2
*Active
70
0
10
0
20
0
11
1
21
1
12
-1
22
1
13
0
23
0
14
0.5
24
0.5
15
10
25
10
16
0
26
0
36
1
17
0
27
0
37
0
0
ENDTAB
0
TABLE
2
LTYPE
5
194
100
AcDbSymbolTable
0
LTYPE
5
14
100
AcDbSymbolTableRecord
100
AcDbLinetypeTableRecord
70
0
2
ByBlock
3

72
65
73
0
40
0
0
LTYPE
5
15
100
AcDbSymbolTableRecord
100
AcDbLinetypeTableRecord
70
0
2
ByLayer
3

72
65
73
0
40
0
0
LTYPE
5
16
100
AcDbSymbolTableRecord
100
AcDbLinetypeTableRecord
70
0
2
CONTINUOUS
3
Solid line
72
65
73
0
40
0
0
LTYPE
5
3B
100
AcDbSymbolTableRecord
100
AcDbLinetypeTableRecord
70
0
2
DASHED
3
__ __ __ __ __ __ __ __ __
72
65
73
2
40
25.72
49
12.86
74
0
49
-12.86
74
0
0
LTYPE
5
3C
100
AcDbSymbolTableRecord
100
AcDbLinetypeTableRecord
70
0
2
HIDDEN
3
_ _ _ _ _ _ _ _ _ _ _ _ _ _ _
72
65
73
2
40
0.5
49
0.25
74
0
49
-0.25
74
0
0
LTYPE
5
3D
100
AcDbSymbolTableRecord
100
AcDbLinetypeTableRecord
70
0
2
PHANTOM
3
____ _ _ ____ _ _ _____ _ _ ____
72
65
73
6
40
50.5
49
18
74
0
49
-6.5
74
0
49
6.5
74
0
49
-6.5
74
0
49
6.5
74
0
49
-6.5
74
0
0
LTYPE
5
3E
100
AcDbSymbolTableRecord
100
AcDbLinetypeTableRecord
70
0
2
CENTER
3
____ _ ____ _ ____ _ ____
72
65
73
4
40
47.5
49
22
74
0
49
-8.5
74
0
49
8.5
74
0
49
-8.5
74
0
0
LTYPE
5
3F
100
AcDbSymbolTableRecord
100
AcDbLinetypeTableRecord
70
0
2
DOT
3
.........................
72
65
73
2
40
10
49
0
74
0
49
-10
74
0
0
LTYPE
5
40
100
AcDbSymbolTableRecord
100
AcDbLinetypeTableRecord
70
0
2
DASHDOT
3
_._._._._._._._._._._._._._._._.
72
65
73
4
40
70
49
31
74
0
49
-13
74
0
49
13
74
0
49
-13
74
0
0
ENDTAB
0
TABLE
2
LAYER
5
195
100
AcDbSymbolTable
0
LAYER
5
10
100
AcDbSymbolTableRecord
100
AcDbLayerTableRecord
2
0
70
0
62
7
6
CONTINUOUS
290
1
370
-3
390
0
0
LAYER
5
42
100
AcDbSymbolTableRecord
100
AcDbLayerTableRecord
2
80
70
0
62
-6
6
CONTINUOUS
290
1
370
-3
390
0
0
LAYER
5
44
100
AcDbSymbolTableRecord
100
AcDbLayerTableRecord
2
81
70
0
62
-3
6
CONTINUOUS
290
1
370
-3
390
0
0
LAYER
5
46
100
AcDbSymbolTableRecord
100
AcDbLayerTableRecord
2
1
70
0
62
4
6
CONTINUOUS
290
1
370
-3
390
0
0
LAYER
5
48
100
AcDbSymbolTableRecord
100
AcDbLayerTableRecord
2
2
70
0
62
7
6
CONTINUOUS
290
1
370
-3
390
0
0
LAYER
5
61
100
AcDbSymbolTableRecord
100
AcDbLayerTableRecord
2
4
70
0
62
-2
6
CENTER
290
1
370
-3
390
0
0
LAYER
5
17f
100
AcDbSymbolTableRecord
100
AcDbLayerTableRecord
2
SK1
70
0
62
4
6
CONTINUOUS
290
1
370
-3
390
0
0
LAYER
5
180
100
AcDbSymbolTableRecord
100
AcDbLayerTableRecord
2
SK4
70
0
62
2
6
CENTER
290
1
370
-3
390
0
0
LAYER
5
181
100
AcDbSymbolTableRecord
100
AcDbLayerTableRecord
2
SK6
70
0
62
5
6
CONTINUOUS
290
1
370
-3
390
0
0
LAYER
5
182
100
AcDbSymbolTableRecord
100
AcDbLayerTableRecord
2
SK2
70
0
62
7
6
CONTINUOUS
290
1
370
-3
390
0
0
ENDTAB
0
TABLE
2
STYLE
5
196
100
AcDbSymbolTable
0
STYLE
5
11
100
AcDbSymbolTableRecord
100
AcDbTextStyleTableRecord
2
Standard
3
txt
70
0
71
0
40
0
41
1
42
0
50
0
0
STYLE
5
FB
100
AcDbSymbolTableRecord
100
AcDbTextStyleTableRecord
2
DEFAULT
3
simplex.shx
70
0
71
0
40
0
41
1
42
0
50
0
0
STYLE
5
11E
100
AcDbSymbolTableRecord
100
AcDbTextStyleTableRecord
2
DWGDirectTextStyle
3
SIMPLEX
70
0
71
0
40
0
41
1
42
0
50
0
0
ENDTAB
0
TABLE
2
DIMSTYLE
5
197
100
AcDbSymbolTable
100
AcDbDimStyleTable
0
DIMSTYLE
105
27
100
AcDbSymbolTableRecord
100
AcDbDimStyleTableRecord
2
Standard
70
0
3
<>
41
0.18
42
0.0625
44
0.18
140
0.18
147
0.09
73
0
74
0
77
1
271
2
275
0
278
52
280
0
340
11
0
ENDTAB
0
TABLE
2
VIEW
5
198
100
AcDbSymbolTable
0
ENDTAB
0
TABLE
2
UCS
5
199
100
AcDbSymbolTable
0
ENDTAB
0
TABLE
2
APPID
5
19a
100
AcDbSymbolTable
0
APPID
5
12
100
AcDbSymbolTableRecord
100
AcDbRegAppTableRecord
2
ACAD
70
0
0
ENDTAB
0
TABLE
2
BLOCK_RECORD
5
19b
100
AcDbSymbolTable
0
BLOCK_RECORD
5
1F
100
AcDbSymbolTableRecord
100
AcDbBlockTableRecord
2
*Model_Space
340
0
70
0
0
BLOCK_RECORD
5
1B
100
AcDbSymbolTableRecord
100
AcDbBlockTableRecord
2
*Paper_Space
340
0
70
0
0
BLOCK_RECORD
5
23
100
AcDbSymbolTableRecord
100
AcDbBlockTableRecord
2
*Paper_Space0
340
0
70
0
0
BLOCK_RECORD
5
120
100
AcDbSymbolTableRecord
100
AcDbBlockTableRecord
2
DimnDraft3D1
340
0
70
0
0
BLOCK_RECORD
5
12E
100
AcDbSymbolTableRecord
100
AcDbBlockTableRecord
2
_CLOSED
340
0
70
0
0
BLOCK_RECORD
5
135
100
AcDbSymbolTableRecord
100
AcDbBlockTableRecord
2
DimnDraft3D2
340
0
70
0
0
BLOCK_RECORD
5
144
100
AcDbSymbolTableRecord
100
AcDbBlockTableRecord
2
DimnDraft3D3
340
0
70
0
0
BLOCK_RECORD
5
152
100
AcDbSymbolTableRecord
100
AcDbBlockTableRecord
2
DimnDraft3D4
340
0
70
0
0
ENDTAB
0
ENDSEC
0
SECTION
2
BLOCKS
0
BLOCK
5
20
100
AcDbEntity
8
0
100
AcDbBlockBegin
2
*Model_Space
70
0
10
0
20
0
30
0
3
*Model_Space
0
ENDBLK
5
21
100
AcDbEntity
8
0
100
AcDbBlockEnd
0
BLOCK
5
1C
100
AcDbEntity
8
0
100
AcDbBlockBegin
2
*Paper_Space
70
0
10
0
20
0
30
0
3
*Paper_Space
0
ENDBLK
5
1D
100
AcDbEntity
8
0
100
AcDbBlockEnd
0
BLOCK
5
24
100
AcDbEntity
8
0
100
AcDbBlockBegin
2
*Paper_Space0
70
0
10
0
20
0
30
0
3
*Paper_Space0
0
ENDBLK
5
25
100
AcDbEntity
8
0
100
AcDbBlockEnd
0
BLOCK
5
12B
100
AcDbEntity
8
0
100
AcDbBlockBegin
2
DimnDraft3D1
70
0
10
0
20
0
30
0
3
DimnDraft3D1
0
MTEXT
5
121
100
AcDbEntity
8
2
62
256
6
ByLayer
370
-1
48
1
60
0
100
AcDbMText
10
91.055
20
24.28
30
0
210
0
220
0
230
1
1
\W01.000;\fsimplex.shx,bigfont.shx;13.0 
40
4.5
41
0
44
1.084337
50
90
71
7
72
5
7
DEFAULT
0
LINE
5
122
100
AcDbEntity
8
2
62
256
6
ByLayer
370
-1
48
1
60
0
100
AcDbLine
10
81.93
20
12.9
30
0
11
94.18
21
12.9
31
0
39
0
210
0
220
0
230
1
0
LINE
5
123
100
AcDbEntity
8
2
62
256
6
ByLayer
370
-1
48
1
60
0
100
AcDbLine
10
81.93
20
0
30
0
11
94.18
21
0
31
0
39
0
210
0
220
0
230
1
0
LINE
5
124
100
AcDbEntity
8
2
62
256
6
ByLayer
370
-1
48
1
60
0
100
AcDbLine
10
92.18
20
0
30
0
11
92.18
21
32.356316
31
0
39
0
210
0
220
0
230
1
0
LINE
5
125
100
AcDbEntity
8
2
62
256
6
ByLayer
370
-1
48
1
60
0
100
AcDbLine
10
92.18
20
12.9
30
0
11
92.597997
21
9.725002
31
0
39
0
210
0
220
0
230
1
0
LINE
5
126
100
AcDbEntity
8
2
62
256
6
ByLayer
370
-1
48
1
60
0
100
AcDbLine
10
92.18
20
12.9
30
0
11
91.762003
21
9.724998
31
0
39
0
210
0
220
0
230
1
0
LINE
5
127
100
AcDbEntity
8
2
62
256
6
ByLayer
370
-1
48
1
60
0
100
AcDbLine
10
92.597997
20
9.725002
30
0
11
91.762003
21
9.724998
31
0
39
0
210
0
220
0
230
1
0
LINE
5
128
100
AcDbEntity
8
2
62
256
6
ByLayer
370
-1
48
1
60
0
100
AcDbLine
10
92.18
20
0
30
0
11
91.762003
21
3.174998
31
0
39
0
210
0
220
0
230
1
0
LINE
5
129
100
AcDbEntity
8
2
62
256
6
ByLayer
370
-1
48
1
60
0
100
AcDbLine
10
92.18
20
0
30
0
11
92.597997
21
3.175002
31
0
39
0
210
0
220
0
230
1
0
LINE
5
12A
100
AcDbEntity
8
2
62
256
6
ByLayer
370
-1
48
1
60
0
100
AcDbLine
10
91.762003
20
3.174998
30
0
11
92.597997
21
3.175002
31
0
39
0
210
0
220
0
230
1
0
ENDBLK
5
12C
100
AcDbEntity
8
0
100
AcDbBlockEnd
0
BLOCK
5
12F
100
AcDbEntity
8
0
100
AcDbBlockBegin
2
_CLOSED
70
0
10
0
20
0
30
0
3
_CLOSED
0
LINE
5
131
100
AcDbEntity
8
0
62
256
6
ByLayer
370
-2
48
1
60
0
100
AcDbLine
10
-1
20
0.166667
30
0
11
0
21
0
31
0
39
0
210
0
220
0
230
1
0
LINE
5
132
100
AcDbEntity
8
0
62
256
6
ByLayer
370
-2
48
1
60
0
100
AcDbLine
10
0
20
0
30
0
11
-1
21
-0.166667
31
0
39
0
210
0
220
0
230
1
0
LINE
5
133
100
AcDbEntity
8
0
62
256
6
ByLayer
370
-2
48
1
60
0
100
AcDbLine
10
-1
20
0.166667
30
0
11
-1
21
-0.166667
31
0
39
0
210
0
220
0
230
1
0
LINE
5
134
100
AcDbEntity
8
0
62
256
6
ByLayer
370
-2
48
1
60
0
100
AcDbLine
10
0
20
0
30
0
11
-1
21
0
31
0
39
0
210
0
220
0
230
1
0
ENDBLK
5
130
100
AcDbEntity
8
0
100
AcDbBlockEnd
0
BLOCK
5
141
100
AcDbEntity
8
0
100
AcDbBlockBegin
2
DimnDraft3D2
70
0
10
0
20
0
30
0
3
DimnDraft3D2
0
MTEXT
5
136
100
AcDbEntity
8
SK2
62
256
6
ByLayer
370
-1
48
1
60
0
100
AcDbMText
10
-182.195
20
-3.659211
30
0
210
0
220
0
230
1
1
\W01.000;\fsimplex.shx,bigfont.shx;%%c20 
40
4.5
41
0
44
1.084337
50
90
71
7
72
5
7
DEFAULT
0
LINE
5
138
100
AcDbEntity
8
SK2
62
256
6
ByLayer
370
-1
48
1
60
0
100
AcDbLine
10
-173.32
20
-9.99125
30
0
11
-183.07
21
-9.99125
31
0
39
0
210
0
220
0
230
1
0
LINE
5
139
100
AcDbEntity
8
SK2
62
256
6
ByLayer
370
-1
48
1
60
0
100
AcDbLine
10
-173.32
20
9.99125
30
0
11
-183.07
21
9.99125
31
0
39
0
210
0
220
0
230
1
0
LINE
5
13A
100
AcDbEntity
8
SK2
62
256
6
ByLayer
370
-1
48
1
60
0
100
AcDbLine
10
-181.07
20
-9.99125
30
0
11
-181.07
21
9.99125
31
0
39
0
210
0
220
0
230
1
0
LINE
5
13B
100
AcDbEntity
8
SK2
62
256
6
ByLayer
370
-1
48
1
60
0
100
AcDbLine
10
-181.07
20
-9.99125
30
0
11
-181.487997
21
-6.816252
31
0
39
0
210
0
220
0
230
1
0
LINE
5
13C
100
AcDbEntity
8
SK2
62
256
6
ByLayer
370
-1
48
1
60
0
100
AcDbLine
10
-181.07
20
-9.99125
30
0
11
-180.652003
21
-6.816248
31
0
39
0
210
0
220
0
230
1
0
LINE
5
13D
100
AcDbEntity
8
SK2
62
256
6
ByLayer
370
-1
48
1
60
0
100
AcDbLine
10
-181.487997
20
-6.816252
30
0
11
-180.652003
21
-6.816248
31
0
39
0
210
0
220
0
230
1
0
LINE
5
13E
100
AcDbEntity
8
SK2
62
256
6
ByLayer
370
-1
48
1
60
0
100
AcDbLine
10
-181.07
20
9.99125
30
0
11
-180.652003
21
6.816252
31
0
39
0
210
0
220
0
230
1
0
LINE
5
13F
100
AcDbEntity
8
SK2
62
256
6
ByLayer
370
-1
48
1
60
0
100
AcDbLine
10
-181.07
20
9.99125
30
0
11
-181.487997
21
6.816248
31
0
39
0
210
0
220
0
230
1
0
LINE
5
140
100
AcDbEntity
8
SK2
62
256
6
ByLayer
370
-1
48
1
60
0
100
AcDbLine
10
-180.652003
20
6.816252
30
0
11
-181.487997
21
6.816248
31
0
39
0
210
0
220
0
230
1
0
ENDBLK
5
142
100
AcDbEntity
8
0
100
AcDbBlockEnd
0
BLOCK
5
14F
100
AcDbEntity
8
0
100
AcDbBlockBegin
2
DimnDraft3D3
70
0
10
0
20
0
30
0
3
DimnDraft3D3
0
MTEXT
5
145
100
AcDbEntity
8
2
62
256
6
ByLayer
370
-1
48
1
60
0
100
AcDbMText
10
105.876583
20
-37.312521
30
0
210
0
220
0
230
1
1
\W01.000;\fsimplex.shx,bigfont.shx;95%%d0' 
40
4.5
41
0
44
1.084337
50
42.5000000000001
71
7
72
5
7
DEFAULT
0
LINE
5
146
100
AcDbEntity
8
2
62
256
6
ByLayer
370
-1
48
1
60
0
100
AcDbLine
10
78.971287
20
1.941858
30
0
11
74.537179
21
-48.740227
31
0
39
0
210
0
220
0
230
1
0
LINE
5
147
100
AcDbEntity
8
2
62
256
6
ByLayer
370
-1
48
1
60
0
100
AcDbLine
10
81.93
20
0
30
0
11
127.727803
21
0
31
0
39
0
210
0
220
0
230
1
0
ARC
5
148
100
AcDbEntity
8
2
62
256
6
ByLayer
370
-1
48
1
60
0
100
AcDbCircle
39
0
10
78.801396
20
0
30
0
40
46.9264068782928
210
0
220
0
230
1
100
AcDbArc
50
265
51
0
0
LINE
5
149
100
AcDbEntity
8
2
62
256
6
ByLayer
370
-1
48
1
60
0
100
AcDbLine
10
74.71149
20
-46.747838
30
0
11
77.908019
21
-46.554078
31
0
39
0
210
0
220
0
230
1
0
LINE
5
14A
100
AcDbEntity
8
2
62
256
6
ByLayer
370
-1
48
1
60
0
100
AcDbLine
10
74.71149
20
-46.747838
30
0
11
77.849251
21
-47.388003
31
0
39
0
210
0
220
0
230
1
0
LINE
5
14B
100
AcDbEntity
8
2
62
256
6
ByLayer
370
-1
48
1
60
0
100
AcDbLine
10
77.908019
20
-46.554078
30
0
11
77.849251
21
-47.388003
31
0
39
0
210
0
220
0
230
1
0
LINE
5
14C
100
AcDbEntity
8
2
62
256
6
ByLayer
370
-1
48
1
60
0
100
AcDbLine
10
125.727803
20
0
30
0
11
126.092059
21
-3.181612
31
0
39
0
210
0
220
0
230
1
0
LINE
5
14D
100
AcDbEntity
8
2
62
256
6
ByLayer
370
-1
48
1
60
0
100
AcDbLine
10
125.727803
20
0
30
0
11
125.256185
21
-3.16748
31
0
39
0
210
0
220
0
230
1
0
LINE
5
14E
100
AcDbEntity
8
2
62
256
6
ByLayer
370
-1
48
1
60
0
100
AcDbLine
10
126.092059
20
-3.181612
30
0
11
125.256185
21
-3.16748
31
0
39
0
210
0
220
0
230
1
0
ENDBLK
5
150
100
AcDbEntity
8
0
100
AcDbBlockEnd
0
BLOCK
5
15D
100
AcDbEntity
8
0
100
AcDbBlockBegin
2
DimnDraft3D4
70
0
10
0
20
0
30
0
3
DimnDraft3D4
0
MTEXT
5
153
100
AcDbEntity
8
SK2
62
256
6
ByLayer
370
-1
48
1
60
0
100
AcDbMText
10
-51.385132
20
26.775
30
0
210
0
220
0
230
1
1
\W01.000;\fsimplex.shx,bigfont.shx;250.0 
40
4.5
41
0
44
1.084337
50
0
71
7
72
5
7
DEFAULT
0
LINE
5
154
100
AcDbEntity
8
SK2
62
256
6
ByLayer
370
-1
48
1
60
0
100
AcDbLine
10
79.93
20
14.9
30
0
11
79.93
21
27.65
31
0
39
0
210
0
220
0
230
1
0
LINE
5
155
100
AcDbEntity
8
SK2
62
256
6
ByLayer
370
-1
48
1
60
0
100
AcDbLine
10
-171.32
20
11.99125
30
0
11
-171.32
21
27.65
31
0
39
0
210
0
220
0
230
1
0
LINE
5
156
100
AcDbEntity
8
SK2
62
256
6
ByLayer
370
-1
48
1
60
0
100
AcDbLine
10
79.93
20
25.65
30
0
11
-171.32
21
25.65
31
0
39
0
210
0
220
0
230
1
0
LINE
5
157
100
AcDbEntity
8
SK2
62
256
6
ByLayer
370
-1
48
1
60
0
100
AcDbLine
10
79.93
20
25.65
30
0
11
76.755002
21
25.232003
31
0
39
0
210
0
220
0
230
1
0
LINE
5
158
100
AcDbEntity
8
SK2
62
256
6
ByLayer
370
-1
48
1
60
0
100
AcDbLine
10
79.93
20
25.65
30
0
11
76.754998
21
26.067997
31
0
39
0
210
0
220
0
230
1
0
LINE
5
159
100
AcDbEntity
8
SK2
62
256
6
ByLayer
370
-1
48
1
60
0
100
AcDbLine
10
76.755002
20
25.232003
30
0
11
76.754998
21
26.067997
31
0
39
0
210
0
220
0
230
1
0
LINE
5
15A
100
AcDbEntity
8
SK2
62
256
6
ByLayer
370
-1
48
1
60
0
100
AcDbLine
10
-171.32
20
25.65
30
0
11
-168.145002
21
26.067997
31
0
39
0
210
0
220
0
230
1
0
LINE
5
15B
100
AcDbEntity
8
SK2
62
256
6
ByLayer
370
-1
48
1
60
0
100
AcDbLine
10
-171.32
20
25.65
30
0
11
-168.144998
21
25.232003
31
0
39
0
210
0
220
0
230
1
0
LINE
5
15C
100
AcDbEntity
8
SK2
62
256
6
ByLayer
370
-1
48
1
60
0
100
AcDbLine
10
-168.145002
20
26.067997
30
0
11
-168.144998
21
25.232003
31
0
39
0
210
0
220
0
230
1
0
ENDBLK
5
15E
100
AcDbEntity
8
0
100
AcDbBlockEnd
0
ENDSEC
0
SECTION
2
ENTITIES
0
ELLIPSE
5
9B
100
AcDbEntity
8
1
62
256
6
ByLayer
370
-1
48
1
60
0
100
AcDbEllipse
10
66.456143
20
0.166549
30
0
11
1.59391151694679
21
-0.139449188396253
31
0
210
0
220
0
230
1
40
0.994969
41
-0.466640611139694
42
1.42058269731722E-05
0
ELLIPSE
5
9C
100
AcDbEntity
8
1
62
256
6
ByLayer
370
-1
48
1
60
0
100
AcDbEllipse
10
70.499102
20
4.539769
30
0
11
1.64355828396664
21
-0.143792717691201
31
0
210
0
220
0
230
1
40
0.994969
41
2.06789007075801
42
3.13722933045981
0
ELLIPSE
5
9D
100
AcDbEntity
8
1
62
256
6
ByLayer
370
-1
48
1
60
0
100
AcDbEllipse
10
70.13813
20
2.735724
30
0
11
-1.49429204713762
21
0.130733614121485
31
0
210
0
220
0
230
1
40
0.994969
41
-1.17065227173333
42
-0.141387906358277
0
ELLIPSE
5
9E
100
AcDbEntity
8
1
62
256
6
ByLayer
370
-1
48
1
60
0
100
AcDbEllipse
10
54.56415
20
8.946261
30
0
11
-2.93905524917371E-16
21
-1.6
31
0
210
0
220
0
230
1
40
0.008775
41
-1.47082903690335
42
-0.760289426526342
0
ELLIPSE
5
9F
100
AcDbEntity
8
1
62
256
6
ByLayer
370
-1
48
1
60
0
100
AcDbEllipse
10
70.174802
20
3.154887
30
0
11
1.49429204713762
21
-0.130733614121486
31
0
210
0
220
0
230
1
40
0.994969
41
2.70463844860425
42
-0.187939431112646
0
ELLIPSE
5
A0
100
AcDbEntity
8
1
62
256
6
ByLayer
370
-1
48
1
60
0
100
AcDbEllipse
10
70.468105
20
4.185476
30
0
11
-1.49429204713762
21
0.130733614121485
31
0
210
0
220
0
230
1
40
0.994969
41
-1.01866046625068
42
-0.00436332313000137
0
ELLIPSE
5
A1
100
AcDbEntity
8
1
62
256
6
ByLayer
370
-1
48
1
60
0
100
AcDbEllipse
10
66.442173
20
0.006868
30
0
11
-3.18782303389359
21
0.278898376792502
31
0
210
0
220
0
230
1
40
0.994969
41
2.6749520424501
42
-2.44346095279206
0
ELLIPSE
5
A2
100
AcDbEntity
8
1
62
256
6
ByLayer
370
-1
48
1
60
0
100
AcDbEllipse
10
61.5117
20
0
30
0
11
14.1805444455472
21
-9.89103614418593
31
0
210
0
220
0
230
-1
40
0.049836
41
-2.88952617617856
42
-2.72768964328139
0
ELLIPSE
5
A3
100
AcDbEntity
8
1
62
256
6
ByLayer
370
-1
48
1
60
0
100
AcDbEllipse
10
62.562236
20
6.276485
30
0
11
1.33645770765456
21
-0.904249547102646
31
0
210
0
220
0
230
-1
40
0.963754
41
-1.63173780741775
42
-1.19018610885232
0
ELLIPSE
5
A4
100
AcDbEntity
8
1
62
256
6
ByLayer
370
-1
48
1
60
0
100
AcDbEllipse
10
70.143805
20
2.800594
30
0
11
1.49429204713762
21
-0.130733614121486
31
0
210
0
220
0
230
1
40
0.994969
41
1.97097623129004
42
2.56419691126069
0
ELLIPSE
5
A5
100
AcDbEntity
8
1
62
256
6
ByLayer
370
-1
48
1
60
0
100
AcDbEllipse
10
69.178297
20
-1.509481
30
0
11
-1.35905048131927
21
0.844382489885869
31
0
210
0
220
0
230
1
40
0.089471
41
0.0452677291457166
42
1.61606405594049
0
ELLIPSE
5
A6
100
AcDbEntity
8
1
62
256
6
ByLayer
370
-1
48
1
60
0
100
AcDbEllipse
10
69.076528
20
1.991685
30
0
11
-1.30835909628502
21
-0.920975827678579
31
0
210
0
220
0
230
1
40
0.076744
41
0.527975854610634
42
1.50616505620792
0
ELLIPSE
5
A7
100
AcDbEntity
8
1
62
256
6
ByLayer
370
-1
48
1
60
0
100
AcDbEllipse
10
62.514443
20
8.946261
30
0
11
-2.93905524917371E-16
21
-1.6
31
0
210
0
220
0
230
1
40
0.008775
41
-1.47082903690335
42
-0.777175558299124
0
ELLIPSE
5
A8
100
AcDbEntity
8
1
62
256
6
ByLayer
370
-1
48
1
60
0
100
AcDbEllipse
10
62.291702
20
20.788999
30
0
11
10.1611859205197
21
-0.888988576024697
31
0
210
0
220
0
230
1
40
0.994969
41
-1.48396668249855
42
-1.39626340159546
0
ELLIPSE
5
A9
100
AcDbEntity
8
1
62
256
6
ByLayer
370
-1
48
1
60
0
100
AcDbEllipse
10
65.13763
20
7.587373
30
0
11
-1.30835909628502
21
-0.920975827678579
31
0
210
0
220
0
230
1
40
0.076744
41
0.622077220096159
42
1.50616505620797
0
ELLIPSE
5
AA
100
AcDbEntity
8
1
62
256
6
ByLayer
370
-1
48
1
60
0
100
AcDbEllipse
10
70.487314
20
4.405037
30
0
11
-1.49429204713762
21
0.130733614121485
31
0
210
0
220
0
230
1
40
0.994969
41
-1.01866046625068
42
-0.0043633231299984
0
ELLIPSE
5
AB
100
AcDbEntity
8
1
62
256
6
ByLayer
370
-1
48
1
60
0
100
AcDbEllipse
10
49.630221
20
10.493788
30
0
11
0.914286504038628
21
1.31304234072357
31
0
210
0
220
0
230
1
40
0.050053
41
-2.73467671523734
42
-1.65779717013989
0
ELLIPSE
5
AC
100
AcDbEntity
8
1
62
256
6
ByLayer
370
-1
48
1
60
0
100
AcDbEllipse
10
70.476855
20
4.297717
30
0
11
1.64355828396664
21
-0.143792717691201
31
0
210
0
220
0
230
1
40
0.994969
41
3.13722933045981
42
-2.81075575176749
0
ELLIPSE
5
AD
100
AcDbEntity
8
1
62
256
6
ByLayer
370
-1
48
1
60
0
100
AcDbEllipse
10
54.542648
20
17.343643
30
0
11
8.56727440358901
21
-0.749539387629854
31
0
210
0
220
0
230
1
40
0.994969
41
-2.09395610903618
42
-1.48309087083817
0
ELLIPSE
5
AE
100
AcDbEntity
8
1
62
256
6
ByLayer
370
-1
48
1
60
0
100
AcDbEllipse
10
70.465068
20
4.162986
30
0
11
-1.49429204713762
21
0.130733614121485
31
0
210
0
220
0
230
1
40
0.994969
41
-0.0043633231299984
42
0.236828448521978
0
ELLIPSE
5
AF
100
AcDbEntity
8
1
62
256
6
ByLayer
370
-1
48
1
60
0
100
AcDbEllipse
10
62.503275
20
5.602556
30
0
11
-3.18782303389359
21
0.278898376792502
31
0
210
0
220
0
230
1
40
0.994969
41
-2.44346095279207
42
-1.48309087083818
0
ELLIPSE
5
B0
100
AcDbEntity
8
1
62
256
6
ByLayer
370
-1
48
1
60
0
100
AcDbEllipse
10
66.49606
20
0.622799
30
0
11
1.3364577077141
21
-0.904249547035741
31
0
210
0
220
0
230
-1
40
0.963754
41
-1.19018610879731
42
-0.0254137968605565
0
ELLIPSE
5
B1
100
AcDbEntity
8
1
62
256
6
ByLayer
370
-1
48
1
60
0
100
AcDbEllipse
10
88.26779
20
0
30
0
11
30.9586484558569
21
-2.44335099368561
31
0
210
0
220
0
230
-1
40
0.31626
41
2.41723325444534
42
-2.53075321487374
0
ELLIPSE
5
B2
100
AcDbEntity
8
1
62
256
6
ByLayer
370
-1
48
1
60
0
100
AcDbEllipse
10
74.77248
20
7.768043
30
0
11
3.05963802797408
21
-0.267683641940544
31
0
210
0
220
0
230
1
40
0.994969
41
0
42
6.28318530717959
0
ELLIPSE
5
B3
100
AcDbEntity
8
1
62
256
6
ByLayer
370
-1
48
1
60
0
100
AcDbEllipse
10
74.758613
20
7.609545
30
0
11
-1.20190890324769
21
0.105153403625048
31
0
210
0
220
0
230
1
40
0.994969
41
-0.629099067385741
42
0.152696921594588
0
ELLIPSE
5
B4
100
AcDbEntity
8
1
62
256
6
ByLayer
370
-1
48
1
60
0
100
AcDbEllipse
10
74.768686
20
7.72468
30
0
11
1.20190890324769
21
-0.105153403625049
31
0
210
0
220
0
230
1
40
0.994969
41
2.37442831937986
42
2.51249358620411
0
ELLIPSE
5
B5
100
AcDbEntity
8
1
62
256
6
ByLayer
370
-1
48
1
60
0
100
AcDbEllipse
10
74.771055
20
7.751761
30
0
11
1.67012041135081
21
-0.146116602716448
31
0
210
0
220
0
230
1
40
0.994969
41
2.9698502760717
42
-2.26892802759257
0
ELLIPSE
5
B6
100
AcDbEntity
8
1
62
256
6
ByLayer
370
-1
48
1
60
0
100
AcDbEllipse
10
74.771055
20
7.751761
30
0
11
1.67012041135081
21
-0.146116602716448
31
0
210
0
220
0
230
1
40
0.994969
41
-2.26892802759257
42
-1.22452102407729
0
ELLIPSE
5
B7
100
AcDbEntity
8
1
62
256
6
ByLayer
370
-1
48
1
60
0
100
AcDbEllipse
10
74.758613
20
7.609545
30
0
11
-1.20190890324769
21
0.105153403625048
31
0
210
0
220
0
230
1
40
0.994969
41
0.403203332934524
42
1.12950639925394
0
ELLIPSE
5
B8
100
AcDbEntity
8
1
62
256
6
ByLayer
370
-1
48
1
60
0
100
AcDbEllipse
10
74.768686
20
7.72468
30
0
11
1.20190890324769
21
-0.105153403625049
31
0
210
0
220
0
230
1
40
0.994969
41
-0.767164334209239
42
-0.629099067386052
0
ELLIPSE
5
B9
100
AcDbEntity
8
1
62
256
6
ByLayer
370
-1
48
1
60
0
100
AcDbEllipse
10
74.758613
20
7.609545
30
0
11
1.2019089032477
21
-0.105153403625049
31
0
210
0
220
0
230
1
40
0.994969
41
0.35046112423955
42
1.39486812775477
0
ELLIPSE
5
BA
100
AcDbEntity
8
1
62
256
6
ByLayer
370
-1
48
1
60
0
100
AcDbEllipse
10
74.758613
20
7.609545
30
0
11
-1.20190890324769
21
0.105153403625048
31
0
210
0
220
0
230
1
40
0.994969
41
-1.74672452583503
42
-0.767164334209868
0
ELLIPSE
5
BB
100
AcDbEntity
8
1
62
256
6
ByLayer
370
-1
48
1
60
0
100
AcDbEllipse
10
74.771055
20
7.751761
30
0
11
1.67012041135081
21
-0.146116602716448
31
0
210
0
220
0
230
1
40
0.994969
41
-1.22452102407729
42
-0.171742377518049
0
ELLIPSE
5
BC
100
AcDbEntity
8
1
62
256
6
ByLayer
370
-1
48
1
60
0
100
AcDbEllipse
10
75.250161
20
9.427536
30
0
11
-0.683389562890938
21
0.0597888395248927
31
0
210
0
220
0
230
1
40
0.994969
41
1.39486812775476
42
2.1788587713757
0
ELLIPSE
5
BD
100
AcDbEntity
8
1
62
256
6
ByLayer
370
-1
48
1
60
0
100
AcDbEllipse
10
74.771055
20
7.751761
30
0
11
1.67012041135081
21
-0.146116602716448
31
0
210
0
220
0
230
1
40
0.994969
41
1.91707162951234
42
2.9698502760717
0
ELLIPSE
5
BE
100
AcDbEntity
8
1
62
256
6
ByLayer
370
-1
48
1
60
0
100
AcDbEllipse
10
74.758613
20
7.609545
30
0
11
1.2019089032477
21
-0.105153403625049
31
0
210
0
220
0
230
1
40
0.994969
41
2.37442831937995
42
2.51249358620406
0
ELLIPSE
5
BF
100
AcDbEntity
8
1
62
256
6
ByLayer
370
-1
48
1
60
0
100
AcDbEllipse
10
74.771055
20
7.751761
30
0
11
1.67012041135081
21
-0.146116602716448
31
0
210
0
220
0
230
1
40
0.994969
41
0.872664625997196
42
1.91707162951234
0
ELLIPSE
5
C0
100
AcDbEntity
8
1
62
256
6
ByLayer
370
-1
48
1
60
0
100
AcDbEllipse
10
73.425497
20
8.936059
30
0
11
-0.683389562890938
21
0.0597888395248927
31
0
210
0
220
0
230
1
40
0.994969
41
2.56507499400916
42
3.14158956067085
0
ELLIPSE
5
C1
100
AcDbEntity
8
1
62
256
6
ByLayer
370
-1
48
1
60
0
100
AcDbEllipse
10
74.758613
20
7.609545
30
0
11
-1.20190890324769
21
0.105153403625048
31
0
210
0
220
0
230
1
40
0.994969
41
1.62120770941415
42
2.287263118048
0
ELLIPSE
5
C2
100
AcDbEntity
8
1
62
256
6
ByLayer
370
-1
48
1
60
0
100
AcDbEllipse
10
74.771055
20
7.751761
30
0
11
1.67012041135081
21
-0.146116602716448
31
0
210
0
220
0
230
1
40
0.994969
41
-0.171742377518049
42
0.872664625997196
0
ELLIPSE
5
C3
100
AcDbEntity
8
1
62
256
6
ByLayer
370
-1
48
1
60
0
100
AcDbEllipse
10
74.758613
20
7.609545
30
0
11
-1.20190890324769
21
0.105153403625048
31
0
210
0
220
0
230
1
40
0.994969
41
2.67462588045491
42
-2.79113152935026
0
ELLIPSE
5
C4
100
AcDbEntity
8
1
62
256
6
ByLayer
370
-1
48
1
60
0
100
AcDbEllipse
10
76.585657
20
8.098653
30
0
11
-0.683389562890938
21
0.0597888395248927
31
0
210
0
220
0
230
1
40
0.994969
41
0.350461124239544
42
1.13445176786023
0
ELLIPSE
5
C5
100
AcDbEntity
8
1
62
256
6
ByLayer
370
-1
48
1
60
0
100
AcDbEllipse
10
72.931568
20
7.120436
30
0
11
-0.683389562890938
21
0.0597888395248927
31
0
210
0
220
0
230
1
40
0.994969
41
2.70806313420852
42
3.14158600506386
0
ELLIPSE
5
C6
100
AcDbEntity
8
1
62
256
6
ByLayer
370
-1
48
1
60
0
100
AcDbEllipse
10
73.42019
20
7.962961
30
0
11
-0.29088885184279
21
0.0254494768823158
31
0
210
0
220
0
230
1
40
0.994969
41
-1.48939303571881
42
-0.24220515044492
0
ELLIPSE
5
C7
100
AcDbEntity
8
1
62
256
6
ByLayer
370
-1
48
1
60
0
100
AcDbEllipse
10
73.425497
20
8.936059
30
0
11
-0.683389562890938
21
0.0597888395248927
31
0
210
0
220
0
230
1
40
0.994969
41
1.65219961787059
42
2.32184691157477
0
ELLIPSE
5
C8
100
AcDbEntity
8
1
62
256
6
ByLayer
370
-1
48
1
60
0
100
AcDbEllipse
10
74.40344
20
8.941337
30
0
11
-0.29088885184279
21
0.0254494768823158
31
0
210
0
220
0
230
1
40
0.994969
41
-2.53071516945569
42
-0.389164309064526
0
ELLIPSE
5
C9
100
AcDbEntity
8
1
62
256
6
ByLayer
370
-1
48
1
60
0
100
AcDbEllipse
10
75.250161
20
9.427536
30
0
11
-0.683389562890938
21
0.0597888395248927
31
0
210
0
220
0
230
1
40
0.994969
41
0.610877484134058
42
1.39486812775476
0
ELLIPSE
5
CA
100
AcDbEntity
8
1
62
256
6
ByLayer
370
-1
48
1
60
0
100
AcDbEllipse
10
75.737137
20
8.583219
30
0
11
-0.29088885184279
21
0.0254494768823158
31
0
210
0
220
0
230
1
40
0.994969
41
-2.93933308217937
42
-0.962733882214302
0
ELLIPSE
5
CB
100
AcDbEntity
8
1
62
256
6
ByLayer
370
-1
48
1
60
0
100
AcDbEllipse
10
76.585657
20
8.098653
30
0
11
-0.683389562890938
21
0.0597888395248927
31
0
210
0
220
0
230
1
40
0.994969
41
-6.95209498803017E-06
42
0.350461124239544
0
ELLIPSE
5
CC
100
AcDbEntity
8
1
62
256
6
ByLayer
370
-1
48
1
60
0
100
AcDbEllipse
10
76.097036
20
7.256129
30
0
11
-0.29088885184279
21
0.0254494768823158
31
0
210
0
220
0
230
1
40
0.994969
41
-2.80237158927367
42
-2.00714088572937
0
ELLIPSE
5
CD
100
AcDbEntity
8
1
62
256
6
ByLayer
370
-1
48
1
60
0
100
AcDbEllipse
10
74.771055
20
7.751761
30
0
11
1.79315045656513
21
-0.156880336945782
31
0
210
0
220
0
230
1
40
0.994969
41
0
42
6.28318530717959
0
ELLIPSE
5
CE
100
AcDbEntity
8
1
62
256
6
ByLayer
370
-1
48
1
60
0
100
AcDbEllipse
10
74.76865
20
7.724272
30
0
11
2.61501108249082
21
-0.2287838247126
31
0
210
0
220
0
230
1
40
0.994969
41
0
42
6.28318530717959
0
ELLIPSE
5
CF
100
AcDbEntity
8
1
62
256
6
ByLayer
370
-1
48
1
60
0
100
AcDbEllipse
10
74.758831
20
7.61204
30
0
11
2.61501108249084
21
-0.228783824712601
31
0
210
0
220
0
230
1
40
0.994969
41
3.1415221120352
42
-3.40064548438478E-16
0
ELLIPSE
5
D0
100
AcDbEntity
8
1
62
256
6
ByLayer
370
-1
48
1
60
0
100
AcDbEllipse
10
74.762984
20
7.659513
30
0
11
-2.93926815525681
21
0.257152642647723
31
0
210
0
220
0
230
1
40
0.994969
41
0
42
6.28318530717959
0
ELLIPSE
5
D1
100
AcDbEntity
8
1
62
256
6
ByLayer
370
-1
48
1
60
0
100
AcDbEllipse
10
74.764329
20
7.674883
30
0
11
2.99461313765113
21
-0.261994701190269
31
0
210
0
220
0
230
1
40
0.994969
41
-0.756507305290617
42
-2.96957410540975E-16
0
ELLIPSE
5
D2
100
AcDbEntity
8
1
62
256
6
ByLayer
370
-1
48
1
60
0
100
AcDbEllipse
10
74.764329
20
7.674883
30
0
11
2.99461313765113
21
-0.261994701190269
31
0
210
0
220
0
230
1
40
0.994969
41
0
42
0.0877053909238291
0
ELLIPSE
5
D3
100
AcDbEntity
8
1
62
256
6
ByLayer
370
-1
48
1
60
0
100
AcDbEllipse
10
74.764329
20
7.674883
30
0
11
2.99461313765113
21
-0.261994701190269
31
0
210
0
220
0
230
1
40
0.994969
41
-2.37393653318179
42
-0.767699214851908
0
ELLIPSE
5
D4
100
AcDbEntity
8
1
62
256
6
ByLayer
370
-1
48
1
60
0
100
AcDbEllipse
10
74.764329
20
7.674883
30
0
11
2.99461313765113
21
-0.261994701190269
31
0
210
0
220
0
230
1
40
0.994969
41
0.0877055867444383
42
-2.38512844517355
0
ELLIPSE
5
D5
100
AcDbEntity
8
1
62
256
6
ByLayer
370
-1
48
1
60
0
100
AcDbEllipse
10
79.136005
20
12.109939
30
0
11
0.790978590284834
21
-0.0692016597416389
31
0
210
0
220
0
230
1
40
0.994969
41
0
42
1.7453292533879
0
ELLIPSE
5
D6
100
AcDbEntity
8
1
62
256
6
ByLayer
370
-1
48
1
60
0
100
AcDbEllipse
10
78.437113
20
4.121559
30
0
11
0.790978590284789
21
-0.069201659741635
31
0
210
0
220
0
230
1
40
0.994969
41
-1.39626340020185
42
1.39346823798349E-09
0
ELLIPSE
5
D7
100
AcDbEntity
8
1
62
256
6
ByLayer
370
-1
48
1
60
0
100
AcDbEllipse
10
70.408954
20
3.426146
30
0
11
0.790978590284841
21
-0.0692016597416396
31
0
210
0
220
0
230
1
40
0.994969
41
-3.14159265219628
42
-1.39626340020197
0
ELLIPSE
5
D8
100
AcDbEntity
8
1
62
256
6
ByLayer
370
-1
48
1
60
0
100
AcDbEllipse
10
71.107847
20
11.414527
30
0
11
0.790978590284849
21
-0.0692016597416403
31
0
210
0
220
0
230
1
40
0.994969
41
1.7453292533879
42
-3.14159265219628
0
POINT
5
41
100
AcDbEntity
8
80
62
256
6
ByLayer
370
-1
48
1
60
0
100
AcDbPoint
10
0
20
0
30
0
39
0
210
0
220
0
230
1
50
360
0
POINT
5
43
100
AcDbEntity
8
81
62
256
6
ByLayer
370
-1
48
1
60
0
100
AcDbPoint
10
79.93
20
12.9
30
0
39
0
210
0
220
0
230
1
50
360
0
POINT
5
45
100
AcDbEntity
8
1
62
256
6
ByLayer
370
-1
48
1
60
0
100
AcDbPoint
10
-171.32
20
0
30
0
39
0
210
0
220
0
230
1
50
360
0
POINT
5
47
100
AcDbEntity
8
2
62
256
6
ByLayer
370
-1
48
1
60
0
100
AcDbPoint
10
79.93
20
12.9
30
0
39
0
210
0
220
0
230
1
50
360
0
SPLINE
5
D9
100
AcDbEntity
8
1
62
256
6
ByLayer
370
-1
48
1
60
0
100
AcDbSpline
70
4
71
3
72
10
73
6
40
0
40
0
40
0
40
0
40
0.795340185460474
40
0.795340185460474
40
1
40
1
40
1
40
1
41
1
10
49.614426472076
20
10.3353769475281
30
0
41
1
10
49.4654842398207
20
10.2193614042469
30
0
41
1
10
49.3162425523586
20
10.1029150045798
30
0
41
1
10
49.1440178395765
20
9.96670728542281
30
0
41
1
10
49.109088712534
20
9.93896734013066
30
0
41
1
10
49.0750956452677
20
9.91181049549104
30
0
0
SPLINE
5
DA
100
AcDbEntity
8
1
62
256
6
ByLayer
370
-1
48
1
60
0
100
AcDbSpline
70
4
71
3
72
18
73
14
40
0
40
0
40
0
40
0
40
0.137608400680573
40
0.137608400680573
40
0.276537910571605
40
0.276537910571605
40
0.400015888907539
40
0.400015888907539
40
0.590427664737057
40
0.590427664737057
40
0.910775940183949
40
0.910775940183949
40
1
40
1
40
1
40
1
41
1
10
47.9022118913812
20
9.7547242152053
30
0
41
1
10
47.8649943523838
20
9.77125136881486
30
0
41
1
10
47.8402180266692
20
9.78767677369913
30
0
41
1
10
47.8275399940443
20
9.81765127588517
30
0
41
1
10
47.8402789775445
20
9.83153994825676
30
0
41
1
10
47.8982860104426
20
9.85335521586455
30
0
41
1
10
47.9401103545982
20
9.86207111632302
30
0
41
1
10
48.0692055725561
20
9.88014030179349
30
0
41
1
10
48.1702461742923
20
9.88776033451728
30
0
41
1
10
48.4628884957207
20
9.9027525835364
30
0
41
1
10
48.6746104146119
20
9.9070792765211
30
0
41
1
10
48.9516506159475
20
9.91063129519716
30
0
41
1
10
49.0131342782769
20
9.91127133631466
30
0
41
1
10
49.0750956452675
20
9.91181049549098
30
0
0
SPLINE
5
DB
100
AcDbEntity
8
1
62
256
6
ByLayer
370
-1
48
1
60
0
100
AcDbSpline
70
4
71
3
72
8
73
4
40
0
40
0
40
0
40
0
40
1
40
1
40
1
40
1
41
1
10
49.0750956452679
20
9.15629273493815
30
0
41
1
10
48.9516829322561
20
9.2195949347888
30
0
41
1
10
48.8354417888533
20
9.2812595991841
30
0
41
1
10
48.7268356705939
20
9.34004059309757
30
0
0
SPLINE
5
DC
100
AcDbEntity
8
1
62
256
6
ByLayer
370
-1
48
1
60
0
100
AcDbSpline
70
4
71
3
72
10
73
6
40
0
40
0
40
0
40
0
40
0.508229306480977
40
0.508229306480977
40
1
40
1
40
1
40
1
41
1
10
62.5553395646462
20
7.80568536734927
30
0
41
1
10
62.7006073215926
20
7.8057992835688
30
0
41
1
10
62.8479797795733
20
7.78738288980668
30
0
41
1
10
63.1151559996521
20
7.72130636012852
30
0
41
1
10
63.2393403377025
20
7.67408765729607
30
0
41
1
10
63.3506973987514
20
7.6171827544641
30
0
0
SPLINE
5
DD
100
AcDbEntity
8
1
62
256
6
ByLayer
370
-1
48
1
60
0
100
AcDbSpline
70
4
71
3
72
8
73
4
40
0
40
0
40
0
40
0
40
1
40
1
40
1
40
1
41
1
10
49.614426472076
20
10.3353769475281
30
0
41
1
10
49.7493498507769
20
10.4404727880046
30
0
41
1
10
49.8842847496368
20
10.5455539926478
30
0
41
1
10
50.0192301646722
20
10.6506218283558
30
0
0
SPLINE
5
DE
100
AcDbEntity
8
1
62
256
6
ByLayer
370
-1
48
1
60
0
100
AcDbSpline
70
4
71
3
72
8
73
4
40
0
40
0
40
0
40
0
40
1
40
1
40
1
40
1
41
1
10
50.0192301646722
20
10.6506218283558
30
0
41
1
10
50.0162156521067
20
10.6484128094888
30
0
41
1
10
50.0132943362104
20
10.646203315635
30
0
41
1
10
50.0104658990127
20
10.6439933899742
30
0
0
SPLINE
5
DF
100
AcDbEntity
8
1
62
256
6
ByLayer
370
-1
48
1
60
0
100
AcDbSpline
70
4
71
3
72
8
73
4
40
0
40
0
40
0
40
0
40
1
40
1
40
1
40
1
41
1
10
68.875951836199
20
3.90251356331322
30
0
41
1
10
68.9079690715748
20
3.91952064761671
30
0
41
1
10
68.9435397934462
20
3.93237513870349
30
0
41
1
10
68.9819673763071
20
3.94124247020548
30
0
0
SPLINE
5
E0
100
AcDbEntity
8
1
62
256
6
ByLayer
370
-1
48
1
60
0
100
AcDbSpline
70
4
71
3
72
8
73
4
40
0
40
0
40
0
40
0
40
1
40
1
40
1
40
1
41
1
10
49.0750956452675
20
-9.40774914298891
30
0
41
1
10
49.1439638261022
20
-9.38663937486655
30
0
41
1
10
49.2191674870526
20
-9.36358762839419
30
0
41
1
10
49.3000192582849
20
-9.338804599101
30
0
0
SPLINE
5
E1
100
AcDbEntity
8
1
62
256
6
ByLayer
370
-1
48
1
60
0
100
AcDbSpline
70
4
71
3
72
8
73
4
40
0
40
0
40
0
40
0
40
1
40
1
40
1
40
1
41
1
10
54.6045014904901
20
7.79944979551874
30
0
41
1
10
52.5908162542994
20
7.79787035979231
30
0
41
1
10
50.6263984753866
20
8.41635373437077
30
0
41
1
10
49.3000192582954
20
9.07883905679304
30
0
0
SPLINE
5
E2
100
AcDbEntity
8
1
62
256
6
ByLayer
370
-1
48
1
60
0
100
AcDbSpline
70
4
71
2
72
6
73
3
40
0
40
0
40
0
40
1
40
1
40
1
41
0.499974143946855
10
54.6045014904955
20
7.79944979551873
30
0
41
0.500025856053145
10
58.5818515746022
20
7.80256943343753
30
0
41
0.499974143946855
10
62.5553395646545
20
7.80568536734926
30
0
0
SPLINE
5
E3
100
AcDbEntity
8
1
62
256
6
ByLayer
370
-1
48
1
60
0
100
AcDbSpline
70
4
71
3
72
8
73
4
40
0
40
0
40
0
40
0
40
1
40
1
40
1
40
1
41
1
10
49.0750956452695
20
9.15629273494011
30
0
41
1
10
49.1459837943512
20
9.13206197384412
30
0
41
1
10
49.220998902805
20
9.10608948903942
30
0
41
1
10
49.3000192582929
20
9.07883905679557
30
0
0
SPLINE
5
E4
100
AcDbEntity
8
1
62
256
6
ByLayer
370
-1
48
1
60
0
100
AcDbSpline
70
4
71
3
72
28
73
24
40
0
40
0
40
0
40
0
40
0.26191344578554
40
0.26191344578554
40
0.392874206699312
40
0.392874206699312
40
0.458889996712804
40
0.458889996712804
40
0.477439013837985
40
0.477439013837985
40
0.491333212112039
40
0.491333212112039
40
0.503134820949976
40
0.503134820949976
40
0.514905014238437
40
0.514905014238437
40
0.532468538861822
40
0.532468538861822
40
0.564905816967583
40
0.564905816967583
40
0.667639414391643
40
0.667639414391643
40
1
40
1
40
1
40
1
41
1
10
41.6714914794213
20
-0.233436164322967
30
0
41
1
10
41.8344947672577
20
-0.233436164322797
30
0
41
1
10
41.9984999951171
20
-0.222912372624705
30
0
41
1
10
42.2391788355817
20
-0.179381613961823
30
0
41
1
10
42.3195982157805
20
-0.160563873277965
30
0
41
1
10
42.4329135562677
20
-0.113709336690789
30
0
41
1
10
42.4710127493715
20
-0.0948260261698692
30
0
41
1
10
42.509615932101
20
-0.0588562110405064
30
0
41
1
10
42.5175352822394
20
-0.0499287003482607
30
0
41
1
10
42.5283691557235
20
-0.0325248932471141
30
0
41
1
10
42.5320879341154
20
-0.0243285444992409
30
0
41
1
10
42.5359160686314
20
-0.008553912243201
30
0
41
1
10
42.5364879821524
20
-0.0009064922417679
30
0
41
1
10
42.5350072869427
20
0.0139257046229773
30
0
41
1
10
42.5329622000683
20
0.0212749967943466
30
0
41
1
10
42.5255856973783
20
0.0382681342408375
30
0
41
1
10
42.519098304828
20
0.0475882661414175
30
0
41
1
10
42.4982533432417
20
0.0711606765021884
30
0
41
1
10
42.4815950272585
20
0.0836732243387246
30
0
41
1
10
42.4100582408334
20
0.128492231222964
30
0
41
1
10
42.3477294173918
20
0.148992218628706
30
0
41
1
10
42.0870184277522
20
0.219496548606344
30
0
41
1
10
41.8775431163404
20
0.233436164323535
30
0
41
1
10
41.6714914794181
20
0.233436164323564
30
0
0
SPLINE
5
E5
100
AcDbEntity
8
SK1
62
256
6
ByLayer
370
-1
48
1
60
0
100
AcDbSpline
70
4
71
3
72
34
73
30
40
0
40
0
40
0
40
0
40
0.217457722715288
40
0.217457722715288
40
0.435205736044696
40
0.435205736044696
40
0.489804543992771
40
0.489804543992771
40
0.496549308750418
40
0.496549308750418
40
0.499955506607332
40
0.499955506607332
40
0.501333585704514
40
0.501333585704514
40
0.502727669320673
40
0.502727669320673
40
0.503969738091471
40
0.503969738091471
40
0.506084034863959
40
0.506084034863959
40
0.511582108690467
40
0.511582108690467
40
0.532968432682946
40
0.532968432682946
40
0.617843090850926
40
0.617843090850926
40
0.991279786412375
40
0.991279786412375
40
1
40
1
40
1
40
1
41
1
10
-60.070000000582
20
-0.233436164322711
30
0
41
1
10
-60.4700057993142
20
-0.233436164322711
30
0
41
1
10
-60.87012089672
20
-0.226764338557643
30
0
41
1
10
-61.6697888906099
20
-0.194439129841101
30
0
41
1
10
-62.0713188512976
20
-0.175922319090432
30
0
41
1
10
-62.5660317080115
20
-0.0991142584228157
30
0
41
1
10
-62.66829033173
20
-0.0860601938297805
30
0
41
1
10
-62.7710652217804
20
-0.0393601932101433
30
0
41
1
10
-62.7824106919817
20
-0.0334791827027914
30
0
41
1
10
-62.7971573172488
20
-0.0216662685330675
30
0
41
1
10
-62.8018552019086
20
-0.0170508851722104
30
0
41
1
10
-62.8062097538178
20
-0.0092514148736598
30
0
41
1
10
-62.8072008712416
20
-0.006780393331411
30
0
41
1
10
-62.8082484518334
20
-0.0016667993909607
30
0
41
1
10
-62.8082910035393
20
0.001044232027283
30
0
41
1
10
-62.8074328106975
20
0.0059371585597319
30
0
41
1
10
-62.8066364746525
20
0.0081988054901672
30
0
41
1
10
-62.8038120276684
20
0.0138593692917084
30
0
41
1
10
-62.8012989101176
20
0.0170658976254003
30
0
41
1
10
-62.7913933268284
20
0.0272986023842066
30
0
41
1
10
-62.7824578941675
20
0.0328764670135513
30
0
41
1
10
-62.7384762063907
20
0.0566035527716622
30
0
41
1
10
-62.6993830446283
20
0.0670885454555616
30
0
41
1
10
-62.5081904086925
20
0.115383286101832
30
0
41
1
10
-62.350604680305
20
0.132665140942549
30
0
41
1
10
-61.5053310482802
20
0.220917708457222
30
0
41
1
10
-60.8109209835681
20
0.232394670085569
30
0
41
1
10
-60.1023607478174
20
0.233424410073695
30
0
41
1
10
-60.0861803720616
20
0.233436164322683
30
0
41
1
10
-60.070000000582
20
0.233436164322683
30
0
0
SPLINE
5
E6
100
AcDbEntity
8
1
62
256
6
ByLayer
370
-1
48
1
60
0
100
AcDbSpline
70
4
71
3
72
18
73
14
40
0
40
0
40
0
40
0
40
0.203692075014248
40
0.203692075014248
40
0.379382242173196
40
0.379382242173196
40
0.556856890033941
40
0.556856890033941
40
0.710154627947646
40
0.710154627947646
40
0.911474298197834
40
0.911474298197834
40
1
40
1
40
1
40
1
41
1
10
74.6677353615859
20
9.21784412221163
30
0
41
1
10
74.7014684354935
20
9.15568560812812
30
0
41
1
10
74.7451746289661
20
9.09696910687023
30
0
41
1
10
74.8432044975672
20
9.00217294253969
30
0
41
1
10
74.8964838645839
20
8.96314425360444
30
0
41
1
10
75.0133193602722
20
8.90279303000651
30
0
41
1
10
75.0788275711657
20
8.88095864020647
30
0
41
1
10
75.2011290987169
20
8.86102336899953
30
0
41
1
10
75.2593401334893
20
8.85976021698409
30
0
41
1
10
75.3876091559662
20
8.87347137752857
30
0
41
1
10
75.457892314242
20
8.89361605067026
30
0
41
1
10
75.5499016266104
20
8.9355717446922
30
0
41
1
10
75.5771841707885
20
8.95031930275746
30
0
41
1
10
75.603232468238
20
8.96664873003613
30
0
0
SPLINE
5
E7
100
AcDbEntity
8
1
62
256
6
ByLayer
370
-1
48
1
60
0
100
AcDbSpline
70
4
71
3
72
18
73
14
40
0
40
0
40
0
40
0
40
0.0367925991118745
40
0.0367925991118745
40
0.260193680085065
40
0.260193680085065
40
0.484885924389201
40
0.484885924389201
40
0.72281275034872
40
0.72281275034872
40
0.983414337975051
40
0.983414337975051
40
1
40
1
40
1
40
1
41
1
10
76.3917599611285
20
7.32380737910176
30
0
41
1
10
76.3930220514198
20
7.32855436778269
30
0
41
1
10
76.3941630111777
20
7.33332924381571
30
0
41
1
10
76.4012980670387
20
7.36693716659477
30
0
41
1
10
76.4028960299758
20
7.39681965319039
30
0
41
1
10
76.3971262825752
20
7.45402717743292
30
0
41
1
10
76.3896553408717
20
7.48206963112781
30
0
41
1
10
76.366718694198
20
7.53441565956342
30
0
41
1
10
76.3505494343074
20
7.5590705104527
30
0
41
1
10
76.3107437104956
20
7.60295539523656
30
0
41
1
10
76.28606981803
20
7.62201925783296
30
0
41
1
10
76.2578510403444
20
7.63723958069269
30
0
41
1
10
76.2561365798311
20
7.63814098352935
30
0
41
1
10
76.2544137642506
20
7.63902370687046
30
0
0
SPLINE
5
E8
100
AcDbEntity
8
1
62
256
6
ByLayer
370
-1
48
1
60
0
100
AcDbSpline
70
4
71
3
72
12
73
8
40
0
40
0
40
0
40
0
40
0.310329229679495
40
0.310329229679495
40
0.776213352624488
40
0.776213352624488
40
1
40
1
40
1
40
1
41
1
10
73.9760729404343
20
8.63042157015462
30
0
41
1
10
74.0070164913331
20
8.67028124524225
30
0
41
1
10
74.0334761700162
20
8.71396650986202
30
0
41
1
10
74.0860796059748
20
8.82608725765954
30
0
41
1
10
74.1064263970534
20
8.89774230286284
30
0
41
1
10
74.1207401764795
20
9.00258236110028
30
0
41
1
10
74.1229897262791
20
9.03691718281007
30
0
41
1
10
74.1229329097703
20
9.07093091216436
30
0
0
SPLINE
5
E9
100
AcDbEntity
8
1
62
256
6
ByLayer
370
-1
48
1
60
0
100
AcDbSpline
70
4
71
3
72
18
73
14
40
0
40
0
40
0
40
0
40
0.203615100812712
40
0.203615100812712
40
0.379319127941817
40
0.379319127941817
40
0.556808532394271
40
0.556808532394271
40
0.710109472906398
40
0.710109472906398
40
0.911415887511229
40
0.911415887511229
40
1
40
1
40
1
40
1
41
1
10
76.0019696267619
20
8.56988630787515
30
0
41
1
10
75.9678508765419
20
8.50768591132643
30
0
41
1
10
75.9415778609234
20
8.43874698676825
30
0
41
1
10
75.9127051251205
20
8.30397374129751
30
0
41
1
10
75.9071883263045
20
8.23744380570633
30
0
41
1
10
75.9154175740741
20
8.10532198901359
30
0
41
1
10
75.9296895395938
20
8.03780146337425
30
0
41
1
10
75.9730445217688
20
7.92316207965558
30
0
41
1
10
76.00028329398
20
7.87310332725053
30
0
41
1
10
76.0736720138717
20
7.77174664051981
30
0
41
1
10
76.1241332196948
20
7.72305116081978
30
0
41
1
10
76.2030593027703
20
7.66758734143664
30
0
41
1
10
76.2283772679995
20
7.65236409177442
30
0
41
1
10
76.2544137642506
20
7.63902370687055
30
0
0
SPLINE
5
EA
100
AcDbEntity
8
1
62
256
6
ByLayer
370
-1
48
1
60
0
100
AcDbSpline
70
4
71
3
72
16
73
12
40
0
40
0
40
0
40
0
40
0.0387378935959981
40
0.0387378935959981
40
0.261989821252267
40
0.261989821252267
40
0.486646287153499
40
0.486646287153499
40
0.724623923841072
40
0.724623923841072
40
1
40
1
40
1
40
1
41
1
10
73.5861537428231
20
6.57273287797534
30
0
41
1
10
73.5898308879978
20
6.56907394377521
30
0
41
1
10
73.5936072674123
20
6.56550452079964
30
0
41
1
10
73.619544257054
20
6.54221765822984
30
0
41
1
10
73.6449603299401
20
6.52541257211686
30
0
41
1
10
73.6983434635457
20
6.50017613390793
30
0
41
1
10
73.7269977823431
20
6.49145622261881
30
0
41
1
10
73.7853196566695
20
6.48221156552034
30
0
41
1
10
73.8156735668966
20
6.48205734607285
30
0
41
1
10
73.8773615294298
20
6.49059298047754
30
0
41
1
10
73.9089729001461
20
6.50074899322757
30
0
41
1
10
73.9369753495353
20
6.51512780448954
30
0
0
SPLINE
5
EB
100
AcDbEntity
8
1
62
256
6
ByLayer
370
-1
48
1
60
0
100
AcDbSpline
70
4
71
3
72
16
73
12
40
0
40
0
40
0
40
0
40
0.0553587102538041
40
0.0553587102538041
40
0.278318968675794
40
0.278318968675794
40
0.503641848905461
40
0.503641848905461
40
0.743067234936071
40
0.743067234936071
40
1
40
1
40
1
40
1
41
1
10
73.1503503306416
20
8.1797145327092
30
0
41
1
10
73.1484548542144
20
8.17258524472791
30
0
41
1
10
73.1468300032398
20
8.16536396621271
30
0
41
1
10
73.1401025691945
20
8.1290075125778
30
0
41
1
10
73.1392184529969
20
8.09856619769923
30
0
41
1
10
73.1462366033281
20
8.03955683837412
30
0
41
1
10
73.1542983818044
20
8.01025813565801
30
0
41
1
10
73.1783038082633
20
7.95479658668941
30
0
41
1
10
73.1949809357674
20
7.92823787286909
30
0
41
1
10
73.2352238443528
20
7.88058010975638
30
0
41
1
10
73.259662091729
20
7.85942186121085
30
0
41
1
10
73.2857940535227
20
7.84275282765546
30
0
0
SPLINE
5
EC
100
AcDbEntity
8
1
62
256
6
ByLayer
370
-1
48
1
60
0
100
AcDbSpline
70
4
71
3
72
18
73
14
40
0
40
0
40
0
40
0
40
0.210942991247524
40
0.210942991247524
40
0.385332516875131
40
0.385332516875131
40
0.56142155379563
40
0.56142155379563
40
0.714431257064069
40
0.714431257064069
40
0.917009888389203
40
0.917009888389203
40
1
40
1
40
1
40
1
41
1
10
74.8724724561864
20
6.26393241231625
30
0
41
1
10
74.8368981590624
20
6.32101507867586
30
0
41
1
10
74.790624961838
20
6.37484723913124
30
0
41
1
10
74.6889008003927
20
6.45999331790387
30
0
41
1
10
74.6351716554913
20
6.49445595461356
30
0
41
1
10
74.5181007898177
20
6.54884278736932
30
0
41
1
10
74.4528494310112
20
6.56928930909032
30
0
41
1
10
74.3312529915852
20
6.59032896335631
30
0
41
1
10
74.2734238569646
20
6.59349366262782
30
0
41
1
10
74.1457129982755
20
6.58636425197142
30
0
41
1
10
74.0757585187103
20
6.57146450406802
30
0
41
1
10
73.9863774090854
20
6.53862255050285
30
0
41
1
10
73.9611327973117
20
6.52753226873193
30
0
41
1
10
73.9369753495353
20
6.51512780448957
30
0
0
SPLINE
5
ED
100
AcDbEntity
8
1
62
256
6
ByLayer
370
-1
48
1
60
0
100
AcDbSpline
70
4
71
3
72
20
73
16
40
0
40
0
40
0
40
0
40
0.0760398114941118
40
0.0760398114941118
40
0.27827105388778
40
0.27827105388778
40
0.441232649053886
40
0.441232649053886
40
0.605092210037497
40
0.605092210037497
40
0.757348000890181
40
0.757348000890181
40
0.972290761107492
40
0.972290761107492
40
1
40
1
40
1
40
1
41
1
10
73.5382381910118
20
6.91189022665068
30
0
41
1
10
73.5508068487173
20
6.93258406520857
30
0
41
1
10
73.5622484649251
20
6.9542013647399
30
0
41
1
10
73.5993583477808
20
7.03601938358827
30
0
41
1
10
73.6177668747943
20
7.10235946151823
30
0
41
1
10
73.6302598673007
20
7.22864809604238
30
0
41
1
10
73.628348192992
20
7.28877271482383
30
0
41
1
10
73.6079684601803
20
7.40797412999262
30
0
41
1
10
73.5890552113264
20
7.46860842880514
30
0
41
1
10
73.5394400303522
20
7.57663670260837
30
0
41
1
10
73.5091829345186
20
7.62596294549436
30
0
41
1
10
73.4271743771328
20
7.73170075267376
30
0
41
1
10
73.3704065184411
20
7.78472002113151
30
0
41
1
10
73.3018575373515
20
7.83228613869858
30
0
41
1
10
73.2938623955462
20
7.83760620051024
30
0
41
1
10
73.2857940535228
20
7.84275282765552
30
0
0
SPLINE
5
EE
100
AcDbEntity
8
1
62
256
6
ByLayer
370
-1
48
1
60
0
100
AcDbSpline
70
4
71
3
72
12
73
8
40
0
40
0
40
0
40
0
40
0.320722480798824
40
0.320722480798824
40
0.789170775262137
40
0.789170775262137
40
1
40
1
40
1
40
1
41
1
10
75.5612987154909
20
6.81893748610131
30
0
41
1
10
75.5293799754033
20
6.77882762738824
30
0
41
1
10
75.5023563994594
20
6.73567577668015
30
0
41
1
10
75.4503401542218
20
6.62844837836883
30
0
41
1
10
75.4309784159187
20
6.5621190024668
30
0
41
1
10
75.4186201392833
20
6.46834312512217
30
0
41
1
10
75.4169138392435
20
6.43923823248639
30
0
41
1
10
75.4172445370934
20
6.41049848127173
30
0
0
SPLINE
5
EF
100
AcDbEntity
8
1
62
256
6
ByLayer
370
-1
48
1
60
0
100
AcDbSpline
70
4
71
3
72
14
73
10
40
0
40
0
40
0
40
0
40
0.278677269213897
40
0.278677269213897
40
0.565664379420368
40
0.565664379420368
40
0.82536456965454
40
0.82536456965454
40
1
40
1
40
1
40
1
41
1
10
74.6677353615859
20
9.21784412221166
30
0
41
1
10
74.6514200528219
20
9.24790765429194
30
0
41
1
10
74.6296620744303
20
9.27592727811194
30
0
41
1
10
74.5769169412288
20
9.32335551079493
30
0
41
1
10
74.5448068219248
20
9.34317022593746
30
0
41
1
10
74.4787167127237
20
9.36766392786942
30
0
41
1
10
74.4441858332526
20
9.37391416604703
30
0
41
1
10
74.3868647267249
20
9.37346260795357
30
0
41
1
10
74.3634666253675
20
9.37035763441639
30
0
41
1
10
74.3409741800945
20
9.36443669197971
30
0
0
SPLINE
5
F0
100
AcDbEntity
8
1
62
256
6
ByLayer
370
-1
48
1
60
0
100
AcDbSpline
70
4
71
3
72
14
73
10
40
0
40
0
40
0
40
0
40
0.279988533445367
40
0.279988533445367
40
0.564994032878062
40
0.564994032878062
40
0.822837594281182
40
0.822837594281182
40
1
40
1
40
1
40
1
41
1
10
73.4332503548653
20
8.38466697915817
30
0
41
1
10
73.4000707566013
20
8.38660984199666
30
0
41
1
10
73.3658228702987
20
8.38266022260703
30
0
41
1
10
73.3003447919684
20
8.36213389537363
30
0
41
1
10
73.2681824998022
20
8.34495077740777
30
0
41
1
10
73.2154888043607
20
8.30105436423389
30
0
41
1
10
73.1933839770232
20
8.27469314967976
30
0
41
1
10
73.1654560411487
20
8.22484374557726
30
0
41
1
10
73.1564427143506
20
8.20262927716652
30
0
41
1
10
73.1503503306416
20
8.1797145327092
30
0
0
SPLINE
5
F1
100
AcDbEntity
8
1
62
256
6
ByLayer
370
-1
48
1
60
0
100
AcDbSpline
70
4
71
3
72
18
73
14
40
0
40
0
40
0
40
0
40
0.0188027550707817
40
0.0188027550707817
40
0.240625985472229
40
0.240625985472229
40
0.462695088474328
40
0.462695088474328
40
0.697036258137291
40
0.697036258137291
40
0.953212834401797
40
0.953212834401797
40
1
40
1
40
1
40
1
41
1
10
75.2011361116757
20
6.13908521983131
30
0
41
1
10
75.2036020125775
20
6.13973434699901
30
0
41
1
10
75.2060594534974
20
6.14041412551867
30
0
41
1
10
75.237041000769
20
6.14940178961652
30
0
41
1
10
75.264584392007
20
6.16204041011159
30
0
41
1
10
75.3133477170294
20
6.19371526332185
30
0
41
1
10
75.3351966862033
20
6.21314684944718
30
0
41
1
10
75.3720283301236
20
6.25695918457029
30
0
41
1
10
75.3870507870258
20
6.28208506994091
30
0
41
1
10
75.4090660769308
20
6.33602367753051
30
0
41
1
10
75.4154896951714
20
6.36562620142118
30
0
41
1
10
75.4172038409669
20
6.39986892757963
30
0
41
1
10
75.4173055730161
20
6.40519407050004
30
0
41
1
10
75.4172445370933
20
6.41049848127173
30
0
0
SPLINE
5
F2
100
AcDbEntity
8
1
62
256
6
ByLayer
370
-1
48
1
60
0
100
AcDbSpline
70
4
71
3
72
16
73
12
40
0
40
0
40
0
40
0
40
0.169970749463908
40
0.169970749463908
40
0.476073625214241
40
0.476073625214241
40
0.747041214543625
40
0.747041214543625
40
0.987456975362171
40
0.987456975362171
40
1
40
1
40
1
40
1
41
1
10
76.001969626769
20
8.56988630787032
30
0
41
1
10
76.0120478107854
20
8.58825940296515
30
0
41
1
10
76.0204575416766
20
8.60789095520713
30
0
41
1
10
76.0382689117625
20
8.66486511122247
30
0
41
1
10
76.0432926902393
20
8.70499731172163
30
0
41
1
10
76.037784794883
20
8.77963597637782
30
0
41
1
10
76.0288120636458
20
8.8154053416352
30
0
41
1
10
76.000370712778
20
8.87693499923154
30
0
41
1
10
75.9817583495467
20
8.90423795213263
30
0
41
1
10
75.958343929038
20
8.92839195690001
30
0
41
1
10
75.9571554569065
20
8.92959606343962
30
0
41
1
10
75.955956548947
20
8.93078903383577
30
0
0
SPLINE
5
F3
100
AcDbEntity
8
1
62
256
6
ByLayer
370
-1
48
1
60
0
100
AcDbSpline
70
4
71
3
72
12
73
8
40
0
40
0
40
0
40
0
40
0.493928210729934
40
0.493928210729934
40
0.89912564608322
40
0.89912564608322
40
1
40
1
40
1
40
1
41
1
10
76.1069270919969
20
7.09676241427792
30
0
41
1
10
76.0355007566696
20
7.0935096430855
30
0
41
1
10
75.9616673730334
20
7.07930238548613
30
0
41
1
10
75.8312779869966
20
7.0322045283412
30
0
41
1
10
75.7725794269983
20
7.00246336630332
30
0
41
1
10
75.7051394646434
20
6.95601782750387
30
0
41
1
10
75.6918690942915
20
6.94622238033543
30
0
41
1
10
75.6789361176552
20
6.93599178260897
30
0
0
SPLINE
5
F4
100
AcDbEntity
8
1
62
256
6
ByLayer
370
-1
48
1
60
0
100
AcDbSpline
70
4
71
3
72
14
73
10
40
0
40
0
40
0
40
0
40
0.221923280999989
40
0.221923280999989
40
0.516004967219424
40
0.516004967219424
40
0.781659746665133
40
0.781659746665133
40
1
40
1
40
1
40
1
41
1
10
74.8724724561855
20
6.26393241231585
30
0
41
1
10
74.8857132514295
20
6.24268617673636
30
0
41
1
10
74.9023364849726
20
6.22267878329544
30
0
41
1
10
74.9474852440588
20
6.18184129905373
30
0
41
1
10
74.9789735023011
20
6.16223149883413
30
0
41
1
10
75.0448406667672
20
6.13703875141624
30
0
41
1
10
75.0796800929693
20
6.12995814298617
30
0
41
1
10
75.1434183791459
20
6.12829379369933
30
0
41
1
10
75.173040897919
20
6.13168939686139
30
0
41
1
10
75.2011361116757
20
6.13908521983131
30
0
0
SPLINE
5
F5
100
AcDbEntity
8
1
62
256
6
ByLayer
370
-1
48
1
60
0
100
AcDbSpline
70
4
71
3
72
16
73
12
40
0
40
0
40
0
40
0
40
0.0586832580555031
40
0.0586832580555031
40
0.279497098604281
40
0.279497098604281
40
0.502871187494419
40
0.502871187494419
40
0.740394583855714
40
0.740394583855714
40
1
40
1
40
1
40
1
41
1
10
74.3409741800945
20
9.36443669197971
30
0
41
1
10
74.3333107382144
20
9.36241935692837
30
0
41
1
10
74.3257212360255
20
9.36007315779307
30
0
41
1
10
74.2903423154535
20
9.34747395837911
30
0
41
1
10
74.2636883392236
20
9.33285912658368
30
0
41
1
10
74.2167030611358
20
9.29676385163768
30
0
41
1
10
74.195836279612
20
9.27476548495216
30
0
41
1
10
74.1610615283039
20
9.22531851109775
30
0
41
1
10
74.1472167803154
20
9.19701295731701
30
0
41
1
10
74.1278185748756
20
9.13642802006115
30
0
41
1
10
74.1228788745571
20
9.10327959318522
30
0
41
1
10
74.1229329097703
20
9.07093091216436
30
0
0
SPLINE
5
F6
100
AcDbEntity
8
1
62
256
6
ByLayer
370
-1
48
1
60
0
100
AcDbSpline
70
4
71
3
72
14
73
10
40
0
40
0
40
0
40
0
40
0.254170598164132
40
0.254170598164132
40
0.542404623393088
40
0.542404623393088
40
0.802920175439245
40
0.802920175439245
40
1
40
1
40
1
40
1
41
1
10
76.1069270919969
20
7.09676241427783
30
0
41
1
10
76.1373315632666
20
7.09814704065988
30
0
41
1
10
76.168559997297
20
7.10423461798976
30
0
41
1
10
76.2323822657937
20
7.1274489814825
30
0
41
1
10
76.2656046918459
20
7.14640275910318
30
0
41
1
10
76.3204254141963
20
7.19296406947109
30
0
41
1
10
76.3436276506256
20
7.22032139540579
30
0
41
1
10
76.374544348892
20
7.2733405667837
30
0
41
1
10
76.3849853302548
20
7.29832655867483
30
0
41
1
10
76.3917599611285
20
7.32380737910176
30
0
0
SPLINE
5
F7
100
AcDbEntity
8
1
62
256
6
ByLayer
370
-1
48
1
60
0
100
AcDbSpline
70
4
71
3
72
14
73
10
40
0
40
0
40
0
40
0
40
0.249945076700733
40
0.249945076700733
40
0.540535861416649
40
0.540535861416649
40
0.803203311417037
40
0.803203311417037
40
1
40
1
40
1
40
1
41
1
10
73.5382381910117
20
6.91189022665077
30
0
41
1
10
73.523694085786
20
6.88794388547726
30
0
41
1
10
73.5127225904193
20
6.86101174735777
30
0
41
1
10
73.4991556546204
20
6.79965954220123
30
0
41
1
10
73.4980802480411
20
6.76371118018943
30
0
41
1
10
73.5097580666592
20
6.69639361837497
30
0
41
1
10
73.5214336360947
20
6.6639009946683
30
0
41
1
10
73.5514169585199
20
6.61220351071918
30
0
41
1
10
73.567611144705
20
6.59118364431404
30
0
41
1
10
73.5861537428231
20
6.57273287797534
30
0
0
SPLINE
5
F8
100
AcDbEntity
8
1
62
256
6
ByLayer
370
-1
48
1
60
0
100
AcDbSpline
70
4
71
3
72
12
73
8
40
0
40
0
40
0
40
0
40
0.475615199642908
40
0.475615199642908
40
0.884019282274491
40
0.884019282274491
40
1
40
1
40
1
40
1
41
1
10
73.4332503548653
20
8.3846669791582
30
0
41
1
10
73.5014165946575
20
8.38067544034891
30
0
41
1
10
73.5717981494326
20
8.3871997106879
30
0
41
1
10
73.6993166054029
20
8.42166221371969
30
0
41
1
10
73.7583350037281
20
8.4470176176188
30
0
41
1
10
73.8283553513657
20
8.49139310059007
30
0
41
1
10
73.8436134916346
20
8.50202542986111
30
0
41
1
10
73.8584355382691
20
8.51336727364605
30
0
0
SPLINE
5
F9
100
AcDbEntity
8
1
62
256
6
ByLayer
370
-1
48
1
60
0
100
AcDbSpline
70
4
71
3
72
16
73
12
40
0
40
0
40
0
40
0
40
0.212360588450418
40
0.212360588450418
40
0.43568051221389
40
0.43568051221389
40
0.669849754412185
40
0.669849754412185
40
0.924882910951928
40
0.924882910951928
40
1
40
1
40
1
40
1
41
1
10
75.955956548947
20
8.93078903383577
30
0
41
1
10
75.9360011480076
20
8.95064560612326
30
0
41
1
10
75.9128111939506
20
8.96758233268872
30
0
41
1
10
75.8622560177557
20
8.99394696210769
30
0
41
1
10
75.8340922165067
20
9.00328174957681
30
0
41
1
10
75.7763548112179
20
9.01305021876746
30
0
41
1
10
75.7460596831702
20
9.01318193499569
30
0
41
1
10
75.6856823324202
20
9.00426331643629
30
0
41
1
10
75.6550992291711
20
8.99431738027721
30
0
41
1
10
75.6190813223959
20
8.97609080640302
30
0
41
1
10
75.6110341254343
20
8.97153951393818
30
0
41
1
10
75.603232468238
20
8.96664873003618
30
0
0
LINE
5
49
100
AcDbEntity
8
80
62
256
6
ByLayer
370
-1
48
1
60
0
100
AcDbLine
10
0
20
0
30
0
11
-10
21
0
31
0
39
0
210
0
220
0
230
1
0
LINE
5
4A
100
AcDbEntity
8
81
62
256
6
ByLayer
370
-1
48
1
60
0
100
AcDbLine
10
79.93
20
12.9
30
0
11
89.93
21
12.9
31
0
39
0
210
0
220
0
230
1
0
LINE
5
4B
100
AcDbEntity
8
1
62
256
6
ByLayer
370
-1
48
1
60
0
100
AcDbLine
10
0
20
-9.99125
30
0
11
46.171491
21
-9.99125
31
0
39
0
210
0
220
0
230
1
0
LINE
5
4C
100
AcDbEntity
8
1
62
256
6
ByLayer
370
-1
48
1
60
0
100
AcDbLine
10
46.171491
20
9.99125
30
0
11
0
21
9.99125
31
0
39
0
210
0
220
0
230
1
0
LINE
5
4D
100
AcDbEntity
8
1
62
256
6
ByLayer
370
-1
48
1
60
0
100
AcDbLine
10
46.171491
20
-9.99125
30
0
11
46.246491
21
-9.91625
31
0
39
0
210
0
220
0
230
1
0
LINE
5
4E
100
AcDbEntity
8
1
62
256
6
ByLayer
370
-1
48
1
60
0
100
AcDbLine
10
46.246491
20
9.91625
30
0
11
46.171491
21
9.99125
31
0
39
0
210
0
220
0
230
1
0
LINE
5
4F
100
AcDbEntity
8
1
62
256
6
ByLayer
370
-1
48
1
60
0
100
AcDbLine
10
49.075096
20
9.91625
30
0
11
46.246491
21
9.91625
31
0
39
0
210
0
220
0
230
1
0
LINE
5
50
100
AcDbEntity
8
1
62
256
6
ByLayer
370
-1
48
1
60
0
100
AcDbLine
10
46.246491
20
-9.91625
30
0
11
47.41617
21
-9.91625
31
0
39
0
210
0
220
0
230
1
0
LINE
5
51
100
AcDbEntity
8
1
62
256
6
ByLayer
370
-1
48
1
60
0
100
AcDbLine
10
68.050055
20
0.0271
30
0
11
68.085683
21
0.434333
31
0
39
0
210
0
220
0
230
1
0
LINE
5
52
100
AcDbEntity
8
1
62
256
6
ByLayer
370
-1
48
1
60
0
100
AcDbLine
10
50.012175
20
10.645337
30
0
11
49.075096
21
9.91625
31
0
39
0
210
0
220
0
230
1
0
LINE
5
53
100
AcDbEntity
8
SK1
62
256
6
ByLayer
370
-1
48
1
60
0
100
AcDbLine
10
-169.82
20
9.99125
30
0
11
-171.32
21
8.49125
31
0
39
0
210
0
220
0
230
1
0
LINE
5
55
100
AcDbEntity
8
SK1
62
256
6
ByLayer
370
-1
48
1
60
0
100
AcDbLine
10
-171.32
20
-8.49125
30
0
11
-169.82
21
-9.99125
31
0
39
0
210
0
220
0
230
1
0
LINE
5
56
100
AcDbEntity
8
SK1
62
256
6
ByLayer
370
-1
48
1
60
0
100
AcDbLine
10
-169.82
20
-9.99125
30
0
11
0
21
-9.99125
31
0
39
0
210
0
220
0
230
1
0
LINE
5
57
100
AcDbEntity
8
SK1
62
256
6
ByLayer
370
-1
48
1
60
0
100
AcDbLine
10
0
20
9.99125
30
0
11
-169.82
21
9.99125
31
0
39
0
210
0
220
0
230
1
0
LINE
5
58
100
AcDbEntity
8
1
62
256
6
ByLayer
370
-1
48
1
60
0
100
AcDbLine
10
75.419537
20
6.470811
30
0
11
75.408339
21
6.34282
31
0
39
0
210
0
220
0
230
1
0
LINE
5
59
100
AcDbEntity
8
1
62
256
6
ByLayer
370
-1
48
1
60
0
100
AcDbLine
10
73.614958
20
7.060647
30
0
11
73.625359
21
7.179529
31
0
39
0
210
0
220
0
230
1
0
LINE
5
5A
100
AcDbEntity
8
1
62
256
6
ByLayer
370
-1
48
1
60
0
100
AcDbLine
10
77.373842
20
7.383256
30
0
11
77.383661
21
7.495488
31
0
39
0
210
0
220
0
230
1
0
LINE
5
5B
100
AcDbEntity
8
1
62
256
6
ByLayer
370
-1
48
1
60
0
100
AcDbLine
10
72.153639
20
7.953056
30
0
11
72.14382
21
7.840824
31
0
39
0
210
0
220
0
230
1
0
LINE
5
5C
100
AcDbEntity
8
1
62
256
6
ByLayer
370
-1
48
1
60
0
100
AcDbLine
10
75.912704
20
8.277734
30
0
11
75.902268
21
8.158442
31
0
39
0
210
0
220
0
230
1
0
LINE
5
5D
100
AcDbEntity
8
1
62
256
6
ByLayer
370
-1
48
1
60
0
100
AcDbLine
10
74.108886
20
8.87627
30
0
11
74.120085
21
9.004272
31
0
39
0
210
0
220
0
230
1
0
LINE
5
5E
100
AcDbEntity
8
SK4
62
256
6
ByLayer
370
-1
48
0.05
60
0
100
AcDbLine
10
-176.32
20
0
30
0
11
84.091995
21
0
31
0
39
0
210
0
220
0
230
1
0
LINE
5
60
100
AcDbEntity
8
4
62
256
6
ByLayer
370
-1
48
0.05
60
0
100
AcDbLine
10
0
20
0
30
0
11
84.091995
21
0
31
0
39
0
210
0
220
0
230
1
0
LINE
5
62
100
AcDbEntity
8
1
62
256
6
ByLayer
370
-1
48
1
60
0
100
AcDbLine
10
67.854231
20
-0.248429
30
0
11
67.81722
21
-0.671466
31
0
39
0
210
0
220
0
230
1
0
LINE
5
63
100
AcDbEntity
8
1
62
256
6
ByLayer
370
-1
48
1
60
0
100
AcDbLine
10
64.570056
20
-4.658168
30
0
11
65.150916
21
-4.48012
31
0
39
0
210
0
220
0
230
1
0
LINE
5
64
100
AcDbEntity
8
1
62
256
6
ByLayer
370
-1
48
1
60
0
100
AcDbLine
10
49.61625
20
10.334107
30
0
11
49.614426
21
10.335377
31
0
39
0
210
0
220
0
230
1
0
LINE
5
65
100
AcDbEntity
8
1
62
256
6
ByLayer
370
-1
48
1
60
0
100
AcDbLine
10
41.671491
20
0.233436
30
0
11
0
21
0.233436
31
0
39
0
210
0
220
0
230
1
0
LINE
5
66
100
AcDbEntity
8
1
62
256
6
ByLayer
370
-1
48
1
60
0
100
AcDbLine
10
78.800446
20
3.370788
30
0
11
78.635934
21
3.356538
31
0
39
0
210
0
220
0
230
1
0
LINE
5
67
100
AcDbEntity
8
1
62
256
6
ByLayer
370
-1
48
1
60
0
100
AcDbLine
10
68.833937
20
4.448644
30
0
11
68.971357
21
4.300206
31
0
39
0
210
0
220
0
230
1
0
LINE
5
68
100
AcDbEntity
8
1
62
256
6
ByLayer
370
-1
48
1
60
0
100
AcDbLine
10
78.800446
20
3.370788
30
0
11
78.470785
21
-0.397257
31
0
39
0
210
0
220
0
230
1
0
LINE
5
69
100
AcDbEntity
8
1
62
256
6
ByLayer
370
-1
48
1
60
0
100
AcDbLine
10
49.300019
20
9.078839
30
0
11
49.300019
21
-9.338805
31
0
39
0
210
0
220
0
230
1
0
LINE
5
6A
100
AcDbEntity
8
1
62
256
6
ByLayer
370
-1
48
1
60
0
100
AcDbLine
10
69.062558
20
1.832004
30
0
11
65.12366
21
7.427691
31
0
39
0
210
0
220
0
230
1
0
LINE
5
6B
100
AcDbEntity
8
1
62
256
6
ByLayer
370
-1
48
1
60
0
100
AcDbLine
10
0
20
-9.99125
30
0
11
0
21
-0.233436
31
0
39
0
210
0
220
0
230
1
0
LINE
5
6C
100
AcDbEntity
8
1
62
256
6
ByLayer
370
-1
48
1
60
0
100
AcDbLine
10
0
20
0.233436
30
0
11
0
21
9.99125
31
0
39
0
210
0
220
0
230
1
0
LINE
5
6D
100
AcDbEntity
8
1
62
256
6
ByLayer
370
-1
48
1
60
0
100
AcDbLine
10
63.867823
20
7.136412
30
0
11
67.801647
21
1.482726
31
0
39
0
210
0
220
0
230
1
0
LINE
5
6E
100
AcDbEntity
8
1
62
256
6
ByLayer
370
-1
48
1
60
0
100
AcDbLine
10
70.300239
20
11.294482
30
0
11
63.185095
21
10.678156
31
0
39
0
210
0
220
0
230
1
0
LINE
5
6F
100
AcDbEntity
8
1
62
256
6
ByLayer
370
-1
48
1
60
0
100
AcDbLine
10
0
20
-0.233436
30
0
11
0
21
0.233436
31
0
39
0
210
0
220
0
230
1
0
LINE
5
70
100
AcDbEntity
8
1
62
256
6
ByLayer
370
-1
48
1
60
0
100
AcDbLine
10
68.962758
20
3.721681
30
0
11
68.981967
21
3.941242
31
0
39
0
210
0
220
0
230
1
0
LINE
5
71
100
AcDbEntity
8
1
62
256
6
ByLayer
370
-1
48
1
60
0
100
AcDbLine
10
67.951161
20
-3.621777
30
0
11
65.521459
21
-4.36654
31
0
39
0
210
0
220
0
230
1
0
LINE
5
72
100
AcDbEntity
8
1
62
256
6
ByLayer
370
-1
48
1
60
0
100
AcDbLine
10
78.688158
20
3.371836
30
0
11
78.800446
21
3.370788
31
0
39
0
210
0
220
0
230
1
0
LINE
5
73
100
AcDbEntity
8
1
62
256
6
ByLayer
370
-1
48
1
60
0
100
AcDbLine
10
62.500472
20
8.786579
30
0
11
54.55018
21
8.786579
31
0
39
0
210
0
220
0
230
1
0
LINE
5
74
100
AcDbEntity
8
1
62
256
6
ByLayer
370
-1
48
1
60
0
100
AcDbLine
10
67.81722
20
-0.671466
30
0
11
65.521459
21
-4.36654
31
0
39
0
210
0
220
0
230
1
0
LINE
5
75
100
AcDbEntity
8
1
62
256
6
ByLayer
370
-1
48
1
60
0
100
AcDbLine
10
65.150916
20
-4.48012
30
0
11
65.521459
21
-4.36654
31
0
39
0
210
0
220
0
230
1
0
LINE
5
76
100
AcDbEntity
8
1
62
256
6
ByLayer
370
-1
48
1
60
0
100
AcDbLine
10
47.41617
20
-9.91625
30
0
11
49.075096
21
-9.407749
31
0
39
0
210
0
220
0
230
1
0
LINE
5
77
100
AcDbEntity
8
1
62
256
6
ByLayer
370
-1
48
1
60
0
100
AcDbLine
10
49.075096
20
9.91625
30
0
11
49.075096
21
9.91181
31
0
39
0
210
0
220
0
230
1
0
LINE
5
78
100
AcDbEntity
8
1
62
256
6
ByLayer
370
-1
48
1
60
0
100
AcDbLine
10
67.951161
20
-3.621777
30
0
11
69.164327
21
-1.669162
31
0
39
0
210
0
220
0
230
1
0
LINE
5
79
100
AcDbEntity
8
1
62
256
6
ByLayer
370
-1
48
1
60
0
100
AcDbLine
10
0
20
-0.233436
30
0
11
41.671491
21
-0.233436
31
0
39
0
210
0
220
0
230
1
0
LINE
5
7A
100
AcDbEntity
8
1
62
256
6
ByLayer
370
-1
48
1
60
0
100
AcDbLine
10
67.951161
20
-3.621777
30
0
11
78.470785
21
-0.397257
31
0
39
0
210
0
220
0
230
1
0
LINE
5
7B
100
AcDbEntity
8
1
62
256
6
ByLayer
370
-1
48
1
60
0
100
AcDbLine
10
68.833937
20
4.448644
30
0
11
68.856184
21
4.690695
31
0
39
0
210
0
220
0
230
1
0
LINE
5
7C
100
AcDbEntity
8
1
62
256
6
ByLayer
370
-1
48
1
60
0
100
AcDbLine
10
49.075096
20
9.156293
30
0
11
49.075096
21
-9.407749
31
0
39
0
210
0
220
0
230
1
0
LINE
5
7D
100
AcDbEntity
8
1
62
256
6
ByLayer
370
-1
48
1
60
0
100
AcDbLine
10
41.671491
20
-0.233436
30
0
11
41.671491
21
0.233436
31
0
39
0
210
0
220
0
230
1
0
LINE
5
7E
100
AcDbEntity
8
1
62
256
6
ByLayer
370
-1
48
1
60
0
100
AcDbLine
10
68.974395
20
4.322695
30
0
11
68.967417
21
4.24677
31
0
39
0
210
0
220
0
230
1
0
LINE
5
7F
100
AcDbEntity
8
1
62
256
6
ByLayer
370
-1
48
1
60
0
100
AcDbLine
10
68.974395
20
4.322695
30
0
11
68.993604
21
4.542257
31
0
39
0
210
0
220
0
230
1
0
LINE
5
80
100
AcDbEntity
8
1
62
256
6
ByLayer
370
-1
48
1
60
0
100
AcDbLine
10
46.246491
20
9.91625
30
0
11
46.246491
21
-9.91625
31
0
39
0
210
0
220
0
230
1
0
LINE
5
81
100
AcDbEntity
8
1
62
256
6
ByLayer
370
-1
48
1
60
0
100
AcDbLine
10
62.291702
20
10.639927
30
0
11
50.01923
21
10.650622
31
0
39
0
210
0
220
0
230
1
0
LINE
5
82
100
AcDbEntity
8
1
62
256
6
ByLayer
370
-1
48
1
60
0
100
AcDbLine
10
64.570056
20
-4.658168
30
0
11
49.300019
21
-9.338805
31
0
39
0
210
0
220
0
230
1
0
LINE
5
83
100
AcDbEntity
8
1
62
256
6
ByLayer
370
-1
48
1
60
0
100
AcDbLine
10
67.854231
20
-0.248429
30
0
11
65.150916
21
-4.48012
31
0
39
0
210
0
220
0
230
1
0
LINE
5
84
100
AcDbEntity
8
1
62
256
6
ByLayer
370
-1
48
1
60
0
100
AcDbLine
10
68.993604
20
4.542257
30
0
11
68.971357
21
4.300206
31
0
39
0
210
0
220
0
230
1
0
LINE
5
85
100
AcDbEntity
8
1
62
256
6
ByLayer
370
-1
48
1
60
0
100
AcDbLine
10
68.856184
20
4.690695
30
0
11
68.993604
21
4.542257
31
0
39
0
210
0
220
0
230
1
0
LINE
5
86
100
AcDbEntity
8
1
62
256
6
ByLayer
370
-1
48
1
60
0
100
AcDbLine
10
46.171491
20
9.99125
30
0
11
46.171491
21
-9.99125
31
0
39
0
210
0
220
0
230
1
0
LINE
5
87
100
AcDbEntity
8
SK1
62
256
6
ByLayer
370
-1
48
1
60
0
100
AcDbLine
10
0
20
0.233436
30
0
11
-60.07
21
0.233436
31
0
39
0
210
0
220
0
230
1
0
LINE
5
88
100
AcDbEntity
8
SK1
62
256
6
ByLayer
370
-1
48
1
60
0
100
AcDbLine
10
0
20
-9.99125
30
0
11
0
21
-0.233436
31
0
39
0
210
0
220
0
230
1
0
LINE
5
89
100
AcDbEntity
8
SK1
62
256
6
ByLayer
370
-1
48
1
60
0
100
AcDbLine
10
0
20
0.233436
30
0
11
0
21
9.99125
31
0
39
0
210
0
220
0
230
1
0
LINE
5
8A
100
AcDbEntity
8
SK1
62
256
6
ByLayer
370
-1
48
1
60
0
100
AcDbLine
10
-171.32
20
-8.49125
30
0
11
-171.32
21
8.49125
31
0
39
0
210
0
220
0
230
1
0
LINE
5
8B
100
AcDbEntity
8
SK1
62
256
6
ByLayer
370
-1
48
1
60
0
100
AcDbLine
10
0
20
-0.233436
30
0
11
0
21
0.233436
31
0
39
0
210
0
220
0
230
1
0
LINE
5
8C
100
AcDbEntity
8
SK1
62
256
6
ByLayer
370
-1
48
1
60
0
100
AcDbLine
10
-169.82
20
-9.99125
30
0
11
-169.82
21
9.99125
31
0
39
0
210
0
220
0
230
1
0
LINE
5
8D
100
AcDbEntity
8
SK1
62
256
6
ByLayer
370
-1
48
1
60
0
100
AcDbLine
10
-60.07
20
-0.233436
30
0
11
-60.07
21
0.233436
31
0
39
0
210
0
220
0
230
1
0
LINE
5
8E
100
AcDbEntity
8
SK1
62
256
6
ByLayer
370
-1
48
1
60
0
100
AcDbLine
10
-60.07
20
-0.233436
30
0
11
0
21
-0.233436
31
0
39
0
210
0
220
0
230
1
0
LINE
5
8F
100
AcDbEntity
8
1
62
256
6
ByLayer
370
-1
48
1
60
0
100
AcDbLine
10
70.316868
20
11.483728
30
0
11
69.617975
21
3.495348
31
0
39
0
210
0
220
0
230
1
0
LINE
5
90
100
AcDbEntity
8
1
62
256
6
ByLayer
370
-1
48
1
60
0
100
AcDbLine
10
79.066461
20
12.896999
30
0
11
71.038302
21
12.201586
31
0
39
0
210
0
220
0
230
1
0
LINE
5
91
100
AcDbEntity
8
1
62
256
6
ByLayer
370
-1
48
1
60
0
100
AcDbLine
10
79.228091
20
4.052357
30
0
11
79.926984
21
12.040738
31
0
39
0
210
0
220
0
230
1
0
LINE
5
92
100
AcDbEntity
8
1
62
256
6
ByLayer
370
-1
48
1
60
0
100
AcDbLine
10
70.478498
20
2.639086
30
0
11
78.506657
21
3.334499
31
0
39
0
210
0
220
0
230
1
0
LINE
5
93
100
AcDbEntity
8
1
62
256
6
ByLayer
370
-1
48
1
60
0
100
AcDbLine
10
73.858436
20
8.513367
30
0
11
73.848363
21
8.398232
31
0
39
0
210
0
220
0
230
1
0
LINE
5
94
100
AcDbEntity
8
1
62
256
6
ByLayer
370
-1
48
1
60
0
100
AcDbLine
10
73.966
20
8.515287
30
0
11
73.976073
21
8.630422
31
0
39
0
210
0
220
0
230
1
0
LINE
5
95
100
AcDbEntity
8
1
62
256
6
ByLayer
370
-1
48
1
60
0
100
AcDbLine
10
76.242923
20
7.50768
30
0
11
76.254414
21
7.639024
31
0
39
0
210
0
220
0
230
1
0
LINE
5
96
100
AcDbEntity
8
1
62
256
6
ByLayer
370
-1
48
1
60
0
100
AcDbLine
10
75.591741
20
8.835305
30
0
11
75.603232
21
8.966649
31
0
39
0
210
0
220
0
230
1
0
LINE
5
97
100
AcDbEntity
8
1
62
256
6
ByLayer
370
-1
48
1
60
0
100
AcDbLine
10
74.656244
20
9.086501
30
0
11
74.667735
21
9.217844
31
0
39
0
210
0
220
0
230
1
0
LINE
5
98
100
AcDbEntity
8
1
62
256
6
ByLayer
370
-1
48
1
60
0
100
AcDbLine
10
73.421774
20
8.253497
30
0
11
73.43325
21
8.384667
31
0
39
0
210
0
220
0
230
1
0
LINE
5
99
100
AcDbEntity
8
1
62
256
6
ByLayer
370
-1
48
1
60
0
100
AcDbLine
10
73.526747
20
6.780547
30
0
11
73.538238
21
6.91189
31
0
39
0
210
0
220
0
230
1
0
LINE
5
9A
100
AcDbEntity
8
2
62
256
6
ByLayer
370
-1
48
1
60
1
100
AcDbLine
10
79.93
20
0
30
0
11
79.931
21
0.001
31
0
39
0
210
0
220
0
230
1
0
MTEXT
5
FA
100
AcDbEntity
8
SK6
62
256
6
ByLayer
370
-1
48
1
60
0
100
AcDbMText
10
-42.32
20
-23.293317
30
0
210
0
220
0
230
1
1
\W00.769;\fsimplex.shx,bigfont.shx;A20S-SCLCR 09HP-R 
40
3.5
41
0
44
1.084337
50
0
71
7
72
5
7
DEFAULT
0
DIMENSION
5
12D
100
AcDbEntity
8
2
62
256
6
ByLayer
370
-3
48
1
60
0
100
AcDbDimension
2
DimnDraft3D1
10
92.18
20
0
30
0
11
92.18
21
23.155
31
0
70
32
71
5
72
1
41
1
210
0
220
0
230
1
3
Standard
100
AcDbAlignedDimension
13
81.93
23
12.9
33
0
14
81.93
24
0
34
0
50
90
100
AcDbRotatedDimension
1001
ACAD
1000
DSTYLE
1002
{
1070
    74
1070
     0
1070
   279
1070
     0
1070
   172
1070
     1
1070
   173
1070
     1
1070
   340
1005
FB
1070
    77
1070
     1
1070
    73
1070
     0
1070
   171
1070
     4
1070
   274
1070
     4
1070
   177
1070
     2
1070
   176
1070
     2
1070
   178
1070
     7
1070
    78
1070
     8
1070
    41
1041
3.175
1070
   147
1041
2.25
1070
    42
1041
2.0
1070
    44
1041
2.0
1070
   140
1041
4.5
1070
   343
1005
12E
1070
   344
1005
12E
1002
}
0
DIMENSION
5
143
100
AcDbEntity
8
SK2
62
256
6
ByLayer
370
-3
48
1
60
0
100
AcDbDimension
2
DimnDraft3D2
10
-181.07
20
9.99125
30
0
11
-181.07
21
-4.784211
31
0
70
32
71
5
72
1
41
1
210
0
220
0
230
1
3
Standard
100
AcDbAlignedDimension
13
-173.32
23
-9.99125
33
0
14
-173.32
24
9.99125
34
0
50
90
100
AcDbRotatedDimension
1001
ACAD
1000
DSTYLE
1002
{
1070
    74
1070
     0
1070
   279
1070
     0
1070
   172
1070
     1
1070
   173
1070
     1
1070
   340
1005
FB
1070
    77
1070
     1
1070
    73
1070
     0
1070
   171
1070
     4
1070
   274
1070
     4
1070
   177
1070
     2
1070
   176
1070
     2
1070
   178
1070
     7
1070
    78
1070
     8
1070
    41
1041
3.175
1070
   147
1041
2.25
1070
    42
1041
2.0
1070
    44
1041
2.0
1070
   140
1041
4.5
1070
   343
1005
12E
1070
   344
1005
12E
1002
}
0
DIMENSION
5
151
100
AcDbEntity
8
2
62
256
6
ByLayer
370
-3
48
1
60
0
100
AcDbDimension
2
DimnDraft3D3
10
127.727803
20
0
30
0
11
104.287107
21
-37.243123
31
0
70
34
71
5
72
1
41
1
210
0
220
0
230
1
3
Standard
100
AcDb2LineAngularDimension
13
78.971287
23
1.941858
33
0
14
74.537179
24
-48.740227
34
0
15
81.93
25
0
35
0
16
107.464261
26
-31.280028
36
0
40
0
0
DIMENSION
5
15F
100
AcDbEntity
8
SK2
62
256
6
ByLayer
370
-3
48
1
60
0
100
AcDbDimension
2
DimnDraft3D4
10
-171.32
20
25.65
30
0
11
-52.510132
21
25.65
31
0
70
32
71
5
72
1
41
1
210
0
220
0
230
1
3
Standard
100
AcDbAlignedDimension
13
79.93
23
14.9
33
0
14
-171.32
24
11.99125
34
0
50
0
100
AcDbRotatedDimension
1001
ACAD
1000
DSTYLE
1002
{
1070
   279
1070
     0
1070
   172
1070
     1
1070
   173
1070
     1
1070
   340
1005
FB
1070
    77
1070
     1
1070
    73
1070
     0
1070
   171
1070
     4
1070
   274
1070
     4
1070
   177
1070
     2
1070
   176
1070
     2
1070
   178
1070
     7
1070
    78
1070
     8
1070
    41
1041
3.175
1070
   147
1041
2.25
1070
    42
1041
2.0
1070
    44
1041
2.0
1070
   140
1041
4.5
1070
   343
1005
12E
1070
   344
1005
12E
1002
}
0
ENDSEC
0
SECTION
2
OBJECTS
0
DICTIONARY
5
190
330
0
100
AcDbDictionary
280
0
281
1
3
ACAD_GROUP
350
191
3
ACAD_MLINESTYLE
350
192
0
DICTIONARY
5
191
330
0
100
AcDbDictionary
280
0
281
1
0
DICTIONARY
5
192
330
0
100
AcDbDictionary
280
0
281
1
3
Standard
350
18
0
MLINESTYLE
5
18
330
192
100
AcDbMlineStyle
2
Standard
70
0
3

62
256
51
90
52
90
71
2
49
-0.5
62
256
6
ByLayer
49
0.5
62
256
6
ByLayer
0
RASTERVARIABLES
5
17e
330

100
AcDbRasterVariables
90
0
70
1
71
1
72
1
0
ENDSEC
0
EOF
