0
SECTION
2
HEADER
9
$ACADVER
1
AC1015
9
$DWGCODEPAGE
3
ANSI_1252
9
$HANDSEED
5
185
9
$ANGBASE
50
0
9
$ANGDIR
70
0
9
$ATTMODE
70
1
9
$AUNITS
70
0
9
$AUPREC
70
0
9
$CECOLOR
62
256
9
$CELTSCALE
40
1
9
$CELTYPE
6
ByLayer
9
$CELWEIGHT
370
18
9
$CLAYER
8
0
9
$CMLJUST
70
0
9
$CMLSCALE
40
1
9
$CMLSTYLE
2
Standard
9
$DIMSTYLE
2
Standard
9
$TEXTSIZE
40
0.2
9
$TEXTSTYLE
7
Standard
9
$LUNITS
70
2
9
$LUPREC
70
4
9
$EXTNAMES
290
1
9
$INSUNITS
70
4
9
$LTSCALE
40
1
9
$LWDISPLAY
290
1
9
$PDMODE
70
0
9
$PDSIZE
40
0
9
$PLINEGEN
70
0
0
ENDSEC
0
SECTION
2
CLASSES
0
CLASS
1
RASTERVARIABLES
2
AcDbRasterVariables
3
ISM
90
0
280
0
281
0
0
ENDSEC
0
SECTION
2
TABLES
0
TABLE
2
VPORT
5
17b
100
AcDbSymbolTable
0
VPORT
5
1
100
AcDbSymbolTableRecord
100
AcDbViewportTableRecord
2
*Active
70
0
10
0
20
0
11
1
21
1
12
-1
22
1
13
0
23
0
14
0.5
24
0.5
15
10
25
10
16
0
26
0
36
1
17
0
27
0
37
0
0
ENDTAB
0
TABLE
2
LTYPE
5
17c
100
AcDbSymbolTable
0
LTYPE
5
14
100
AcDbSymbolTableRecord
100
AcDbLinetypeTableRecord
70
0
2
ByBlock
3

72
65
73
0
40
0
0
LTYPE
5
15
100
AcDbSymbolTableRecord
100
AcDbLinetypeTableRecord
70
0
2
ByLayer
3

72
65
73
0
40
0
0
LTYPE
5
16
100
AcDbSymbolTableRecord
100
AcDbLinetypeTableRecord
70
0
2
CONTINUOUS
3
Solid line
72
65
73
0
40
0
0
LTYPE
5
6A
100
AcDbSymbolTableRecord
100
AcDbLinetypeTableRecord
70
0
2
CENTER
3
____ _ ____ _ ____ _ ____
72
65
73
4
40
47.5
49
22
74
0
49
-8.5
74
0
49
8.5
74
0
49
-8.5
74
0
0
LTYPE
5
6B
100
AcDbSymbolTableRecord
100
AcDbLinetypeTableRecord
70
0
2
DASHED
3
__ __ __ __ __ __ __ __ __
72
65
73
2
40
25.72
49
12.86
74
0
49
-12.86
74
0
0
ENDTAB
0
TABLE
2
LAYER
5
17d
100
AcDbSymbolTable
0
LAYER
5
10
100
AcDbSymbolTableRecord
100
AcDbLayerTableRecord
2
0
70
0
62
7
6
CONTINUOUS
290
1
370
-3
390
0
0
LAYER
5
6D
100
AcDbSymbolTableRecord
100
AcDbLayerTableRecord
2
80
70
0
62
-6
6
CONTINUOUS
290
1
370
-3
390
0
0
LAYER
5
6F
100
AcDbSymbolTableRecord
100
AcDbLayerTableRecord
2
81
70
0
62
-3
6
CONTINUOUS
290
1
370
-3
390
0
0
LAYER
5
71
100
AcDbSymbolTableRecord
100
AcDbLayerTableRecord
2
1
70
0
62
4
6
CONTINUOUS
290
1
370
-3
390
0
0
LAYER
5
AC
100
AcDbSymbolTableRecord
100
AcDbLayerTableRecord
2
4
70
0
62
-2
6
CENTER
290
1
370
-3
390
0
0
LAYER
5
CF
100
AcDbSymbolTableRecord
100
AcDbLayerTableRecord
2
2
70
0
62
7
6
CONTINUOUS
290
1
370
-3
390
0
0
LAYER
5
167
100
AcDbSymbolTableRecord
100
AcDbLayerTableRecord
2
SK1
70
0
62
4
6
CONTINUOUS
290
1
370
-3
390
0
0
LAYER
5
168
100
AcDbSymbolTableRecord
100
AcDbLayerTableRecord
2
SK4
70
0
62
2
6
CENTER
290
1
370
-3
390
0
0
LAYER
5
169
100
AcDbSymbolTableRecord
100
AcDbLayerTableRecord
2
SK6
70
0
62
5
6
CONTINUOUS
290
1
370
-3
390
0
0
LAYER
5
16a
100
AcDbSymbolTableRecord
100
AcDbLayerTableRecord
2
SK2
70
0
62
7
6
CONTINUOUS
290
1
370
-3
390
0
0
ENDTAB
0
TABLE
2
STYLE
5
17e
100
AcDbSymbolTable
0
STYLE
5
11
100
AcDbSymbolTableRecord
100
AcDbTextStyleTableRecord
2
Standard
3
txt
70
0
71
0
40
0
41
1
42
0
50
0
0
STYLE
5
CA
100
AcDbSymbolTableRecord
100
AcDbTextStyleTableRecord
2
iso_b_vert
3
simplex.shx
70
0
71
0
40
0
41
1
42
0
50
0
0
STYLE
5
CB
100
AcDbSymbolTableRecord
100
AcDbTextStyleTableRecord
2
DWGDirectTextStyle
3
simplex
70
0
71
0
40
0
41
1
42
0
50
0
0
ENDTAB
0
TABLE
2
DIMSTYLE
5
17f
100
AcDbSymbolTable
100
AcDbDimStyleTable
0
DIMSTYLE
105
27
100
AcDbSymbolTableRecord
100
AcDbDimStyleTableRecord
2
Standard
70
0
3
<>
41
0.18
42
0.0625
44
0.18
140
0.18
147
0.09
73
0
74
0
77
1
271
2
275
0
278
52
280
0
340
11
0
ENDTAB
0
TABLE
2
VIEW
5
180
100
AcDbSymbolTable
0
ENDTAB
0
TABLE
2
UCS
5
181
100
AcDbSymbolTable
0
ENDTAB
0
TABLE
2
APPID
5
182
100
AcDbSymbolTable
0
APPID
5
12
100
AcDbSymbolTableRecord
100
AcDbRegAppTableRecord
2
ACAD
70
0
0
ENDTAB
0
TABLE
2
BLOCK_RECORD
5
183
100
AcDbSymbolTable
0
BLOCK_RECORD
5
1F
100
AcDbSymbolTableRecord
100
AcDbBlockTableRecord
2
*Model_Space
340
0
70
0
0
BLOCK_RECORD
5
1B
100
AcDbSymbolTableRecord
100
AcDbBlockTableRecord
2
*Paper_Space
340
0
70
0
0
BLOCK_RECORD
5
23
100
AcDbSymbolTableRecord
100
AcDbBlockTableRecord
2
*Paper_Space0
340
0
70
0
0
BLOCK_RECORD
5
CD
100
AcDbSymbolTableRecord
100
AcDbBlockTableRecord
2
DimnDraft3D1
340
0
70
0
0
BLOCK_RECORD
5
DC
100
AcDbSymbolTableRecord
100
AcDbBlockTableRecord
2
_CLOSED
340
0
70
0
0
BLOCK_RECORD
5
E3
100
AcDbSymbolTableRecord
100
AcDbBlockTableRecord
2
DimnDraft3D2
340
0
70
0
0
BLOCK_RECORD
5
F1
100
AcDbSymbolTableRecord
100
AcDbBlockTableRecord
2
DimnDraft3D3
340
0
70
0
0
BLOCK_RECORD
5
FF
100
AcDbSymbolTableRecord
100
AcDbBlockTableRecord
2
DimnDraft3D4
340
0
70
0
0
ENDTAB
0
ENDSEC
0
SECTION
2
BLOCKS
0
BLOCK
5
20
100
AcDbEntity
8
0
100
AcDbBlockBegin
2
*Model_Space
70
0
10
0
20
0
30
0
3
*Model_Space
0
ENDBLK
5
21
100
AcDbEntity
8
0
100
AcDbBlockEnd
0
BLOCK
5
1C
100
AcDbEntity
8
0
100
AcDbBlockBegin
2
*Paper_Space
70
0
10
0
20
0
30
0
3
*Paper_Space
0
ENDBLK
5
1D
100
AcDbEntity
8
0
100
AcDbBlockEnd
0
BLOCK
5
24
100
AcDbEntity
8
0
100
AcDbBlockBegin
2
*Paper_Space0
70
0
10
0
20
0
30
0
3
*Paper_Space0
0
ENDBLK
5
25
100
AcDbEntity
8
0
100
AcDbBlockEnd
0
BLOCK
5
D9
100
AcDbEntity
8
0
100
AcDbBlockBegin
2
DimnDraft3D1
70
0
10
0
20
0
30
0
3
DimnDraft3D1
0
MTEXT
5
CE
100
AcDbEntity
8
2
62
256
6
ByLayer
370
18
48
1
60
0
100
AcDbMText
10
-46.709282
20
-38.243961
30
0
210
0
220
0
230
1
1
\W0.6965;250
40
3
41
0
44
1.084337
50
0
71
7
72
5
7
iso_b_vert
0
LINE
5
D0
100
AcDbEntity
8
2
62
256
6
ByLayer
370
13
48
1
60
0
100
AcDbLine
10
80
20
-15.819976
30
0
11
80
21
-40.993961
31
0
39
0
210
0
220
0
230
1
0
LINE
5
D1
100
AcDbEntity
8
2
62
256
6
ByLayer
370
13
48
1
60
0
100
AcDbLine
10
-169.210669
20
-9.7
30
0
11
-169.210669
21
-40.993961
31
0
39
0
210
0
220
0
230
1
0
LINE
5
D2
100
AcDbEntity
8
2
62
256
6
ByLayer
370
13
48
1
60
0
100
AcDbLine
10
80
20
-38.993961
30
0
11
-169.210669
21
-38.993961
31
0
39
0
210
0
220
0
230
1
0
LINE
5
D3
100
AcDbEntity
8
2
62
256
6
ByLayer
370
13
48
1
60
0
100
AcDbLine
10
80
20
-38.993961
30
0
11
76.825002
21
-39.411958
31
0
39
0
210
0
220
0
230
1
0
LINE
5
D4
100
AcDbEntity
8
2
62
256
6
ByLayer
370
13
48
1
60
0
100
AcDbLine
10
80
20
-38.993961
30
0
11
76.824998
21
-38.575964
31
0
39
0
210
0
220
0
230
1
0
LINE
5
D5
100
AcDbEntity
8
2
62
256
6
ByLayer
370
13
48
1
60
0
100
AcDbLine
10
76.825002
20
-39.411958
30
0
11
76.824998
21
-38.575964
31
0
39
0
210
0
220
0
230
1
0
LINE
5
D6
100
AcDbEntity
8
2
62
256
6
ByLayer
370
13
48
1
60
0
100
AcDbLine
10
-169.210669
20
-38.993961
30
0
11
-166.03567
21
-38.575964
31
0
39
0
210
0
220
0
230
1
0
LINE
5
D7
100
AcDbEntity
8
2
62
256
6
ByLayer
370
13
48
1
60
0
100
AcDbLine
10
-169.210669
20
-38.993961
30
0
11
-166.035667
21
-39.411958
31
0
39
0
210
0
220
0
230
1
0
LINE
5
D8
100
AcDbEntity
8
2
62
256
6
ByLayer
370
13
48
1
60
0
100
AcDbLine
10
-166.03567
20
-38.575964
30
0
11
-166.035667
21
-39.411958
31
0
39
0
210
0
220
0
230
1
0
ENDBLK
5
DA
100
AcDbEntity
8
0
100
AcDbBlockEnd
0
BLOCK
5
DD
100
AcDbEntity
8
0
100
AcDbBlockBegin
2
_CLOSED
70
0
10
0
20
0
30
0
3
_CLOSED
0
LINE
5
DF
100
AcDbEntity
8
0
62
256
6
ByLayer
370
-2
48
1
60
0
100
AcDbLine
10
-1
20
0.166667
30
0
11
0
21
0
31
0
39
0
210
0
220
0
230
1
0
LINE
5
E0
100
AcDbEntity
8
0
62
256
6
ByLayer
370
-2
48
1
60
0
100
AcDbLine
10
0
20
0
30
0
11
-1
21
-0.166667
31
0
39
0
210
0
220
0
230
1
0
LINE
5
E1
100
AcDbEntity
8
0
62
256
6
ByLayer
370
-2
48
1
60
0
100
AcDbLine
10
-1
20
0.166667
30
0
11
-1
21
-0.166667
31
0
39
0
210
0
220
0
230
1
0
LINE
5
E2
100
AcDbEntity
8
0
62
256
6
ByLayer
370
-2
48
1
60
0
100
AcDbLine
10
0
20
0
30
0
11
-1
21
0
31
0
39
0
210
0
220
0
230
1
0
ENDBLK
5
DE
100
AcDbEntity
8
0
100
AcDbBlockEnd
0
BLOCK
5
EE
100
AcDbEntity
8
0
100
AcDbBlockBegin
2
DimnDraft3D2
70
0
10
0
20
0
30
0
3
DimnDraft3D2
0
MTEXT
5
E4
100
AcDbEntity
8
2
62
256
6
ByLayer
370
18
48
1
60
0
100
AcDbMText
10
60.05256
20
-24.86799
30
0
210
0
220
0
230
1
1
\W0.7150;32.3
40
3
41
0
44
1.084337
50
0
71
7
72
5
7
iso_b_vert
0
LINE
5
E5
100
AcDbEntity
8
2
62
256
6
ByLayer
370
13
48
1
60
0
100
AcDbLine
10
80
20
-15.819976
30
0
11
80
21
-27.61799
31
0
39
0
210
0
220
0
230
1
0
LINE
5
E6
100
AcDbEntity
8
2
62
256
6
ByLayer
370
13
48
1
60
0
100
AcDbLine
10
45.489331
20
-11
30
0
11
45.489331
21
-27.61799
31
0
39
0
210
0
220
0
230
1
0
LINE
5
E7
100
AcDbEntity
8
2
62
256
6
ByLayer
370
13
48
1
60
0
100
AcDbLine
10
80
20
-25.61799
30
0
11
45.489331
21
-25.61799
31
0
39
0
210
0
220
0
230
1
0
LINE
5
E8
100
AcDbEntity
8
2
62
256
6
ByLayer
370
13
48
1
60
0
100
AcDbLine
10
80
20
-25.61799
30
0
11
76.825002
21
-26.035986
31
0
39
0
210
0
220
0
230
1
0
LINE
5
E9
100
AcDbEntity
8
2
62
256
6
ByLayer
370
13
48
1
60
0
100
AcDbLine
10
80
20
-25.61799
30
0
11
76.824998
21
-25.199993
31
0
39
0
210
0
220
0
230
1
0
LINE
5
EA
100
AcDbEntity
8
2
62
256
6
ByLayer
370
13
48
1
60
0
100
AcDbLine
10
76.825002
20
-26.035986
30
0
11
76.824998
21
-25.199993
31
0
39
0
210
0
220
0
230
1
0
LINE
5
EB
100
AcDbEntity
8
2
62
256
6
ByLayer
370
13
48
1
60
0
100
AcDbLine
10
45.489331
20
-25.61799
30
0
11
48.66433
21
-25.199993
31
0
39
0
210
0
220
0
230
1
0
LINE
5
EC
100
AcDbEntity
8
2
62
256
6
ByLayer
370
13
48
1
60
0
100
AcDbLine
10
45.489331
20
-25.61799
30
0
11
48.664333
21
-26.035986
31
0
39
0
210
0
220
0
230
1
0
LINE
5
ED
100
AcDbEntity
8
2
62
256
6
ByLayer
370
13
48
1
60
0
100
AcDbLine
10
48.66433
20
-25.199993
30
0
11
48.664333
21
-26.035986
31
0
39
0
210
0
220
0
230
1
0
ENDBLK
5
EF
100
AcDbEntity
8
0
100
AcDbBlockEnd
0
BLOCK
5
FC
100
AcDbEntity
8
0
100
AcDbBlockBegin
2
DimnDraft3D3
70
0
10
0
20
0
30
0
3
DimnDraft3D3
0
MTEXT
5
F2
100
AcDbEntity
8
2
62
256
6
ByLayer
370
18
48
1
60
0
100
AcDbMText
10
101.657298
20
-7.53762
30
0
210
0
220
0
230
1
1
\W0.5144;13
40
3
41
0
44
1.084337
50
90
71
7
72
5
7
iso_b_vert
0
LINE
5
F3
100
AcDbEntity
8
2
62
256
6
ByLayer
370
13
48
1
60
0
100
AcDbLine
10
87.789331
20
0
30
0
11
104.407298
21
0
31
0
39
0
210
0
220
0
230
1
0
LINE
5
F4
100
AcDbEntity
8
2
62
256
6
ByLayer
370
13
48
1
60
0
100
AcDbLine
10
82
20
-13.819976
30
0
11
104.407298
21
-13.819976
31
0
39
0
210
0
220
0
230
1
0
LINE
5
F5
100
AcDbEntity
8
2
62
256
6
ByLayer
370
13
48
1
60
0
100
AcDbLine
10
102.407298
20
0
30
0
11
102.407298
21
-13.819976
31
0
39
0
210
0
220
0
230
1
0
LINE
5
F6
100
AcDbEntity
8
2
62
256
6
ByLayer
370
13
48
1
60
0
100
AcDbLine
10
102.407298
20
0
30
0
11
102.825294
21
-3.174998
31
0
39
0
210
0
220
0
230
1
0
LINE
5
F7
100
AcDbEntity
8
2
62
256
6
ByLayer
370
13
48
1
60
0
100
AcDbLine
10
102.407298
20
0
30
0
11
101.989301
21
-3.175002
31
0
39
0
210
0
220
0
230
1
0
LINE
5
F8
100
AcDbEntity
8
2
62
256
6
ByLayer
370
13
48
1
60
0
100
AcDbLine
10
102.825294
20
-3.174998
30
0
11
101.989301
21
-3.175002
31
0
39
0
210
0
220
0
230
1
0
LINE
5
F9
100
AcDbEntity
8
2
62
256
6
ByLayer
370
13
48
1
60
0
100
AcDbLine
10
102.407298
20
-13.819976
30
0
11
101.989301
21
-10.644978
31
0
39
0
210
0
220
0
230
1
0
LINE
5
FA
100
AcDbEntity
8
2
62
256
6
ByLayer
370
13
48
1
60
0
100
AcDbLine
10
102.407298
20
-13.819976
30
0
11
102.825294
21
-10.644975
31
0
39
0
210
0
220
0
230
1
0
LINE
5
FB
100
AcDbEntity
8
2
62
256
6
ByLayer
370
13
48
1
60
0
100
AcDbLine
10
101.989301
20
-10.644978
30
0
11
102.825294
21
-10.644975
31
0
39
0
210
0
220
0
230
1
0
ENDBLK
5
FD
100
AcDbEntity
8
0
100
AcDbBlockEnd
0
BLOCK
5
10B
100
AcDbEntity
8
0
100
AcDbBlockBegin
2
DimnDraft3D4
70
0
10
0
20
0
30
0
3
DimnDraft3D4
0
MTEXT
5
100
100
AcDbEntity
8
SK2
62
256
6
ByLayer
370
18
48
1
60
0
100
AcDbMText
10
-185.047231
20
-0.127632
30
0
210
0
220
0
230
1
1
\W0.5286;19
40
3
41
0
44
1.084337
50
90
71
7
72
5
7
iso_b_vert
0
LINE
5
102
100
AcDbEntity
8
SK2
62
256
6
ByLayer
370
13
48
1
60
0
100
AcDbLine
10
-168.910669
20
10
30
0
11
-186.297231
21
10
31
0
39
0
210
0
220
0
230
1
0
LINE
5
103
100
AcDbEntity
8
SK2
62
256
6
ByLayer
370
13
48
1
60
0
100
AcDbLine
10
-169.910669
20
-9
30
0
11
-186.297231
21
-9
31
0
39
0
210
0
220
0
230
1
0
LINE
5
104
100
AcDbEntity
8
SK2
62
256
6
ByLayer
370
13
48
1
60
0
100
AcDbLine
10
-184.297231
20
10
30
0
11
-184.297231
21
-9
31
0
39
0
210
0
220
0
230
1
0
LINE
5
105
100
AcDbEntity
8
SK2
62
256
6
ByLayer
370
13
48
1
60
0
100
AcDbLine
10
-184.297231
20
10
30
0
11
-183.879235
21
6.825002
31
0
39
0
210
0
220
0
230
1
0
LINE
5
106
100
AcDbEntity
8
SK2
62
256
6
ByLayer
370
13
48
1
60
0
100
AcDbLine
10
-184.297231
20
10
30
0
11
-184.715228
21
6.824998
31
0
39
0
210
0
220
0
230
1
0
LINE
5
107
100
AcDbEntity
8
SK2
62
256
6
ByLayer
370
13
48
1
60
0
100
AcDbLine
10
-183.879235
20
6.825002
30
0
11
-184.715228
21
6.824998
31
0
39
0
210
0
220
0
230
1
0
LINE
5
108
100
AcDbEntity
8
SK2
62
256
6
ByLayer
370
13
48
1
60
0
100
AcDbLine
10
-184.297231
20
-9
30
0
11
-184.715228
21
-5.825002
31
0
39
0
210
0
220
0
230
1
0
LINE
5
109
100
AcDbEntity
8
SK2
62
256
6
ByLayer
370
13
48
1
60
0
100
AcDbLine
10
-184.297231
20
-9
30
0
11
-183.879235
21
-5.824998
31
0
39
0
210
0
220
0
230
1
0
LINE
5
10A
100
AcDbEntity
8
SK2
62
256
6
ByLayer
370
13
48
1
60
0
100
AcDbLine
10
-184.715228
20
-5.825002
30
0
11
-183.879235
21
-5.824998
31
0
39
0
210
0
220
0
230
1
0
ENDBLK
5
10C
100
AcDbEntity
8
0
100
AcDbBlockEnd
0
ENDSEC
0
SECTION
2
ENTITIES
0
ELLIPSE
5
AE
100
AcDbEntity
8
1
62
256
6
ByLayer
370
18
48
1
60
0
100
AcDbEllipse
10
74.165676
20
-8.820993
30
0
11
2.75153943882578
21
1.19542072785502
31
0
210
0
220
0
230
1
40
0.96498
41
1.21311099499175
42
2.67256630744616
0
ELLIPSE
5
AF
100
AcDbEntity
8
1
62
256
6
ByLayer
370
18
48
1
60
0
100
AcDbEllipse
10
67.941144
20
-2.704162
30
0
11
2.75163315128849
21
1.19546144023536
31
0
210
0
220
0
230
1
40
0.96498
41
4.38392734009094E-10
42
0.372042324892547
0
ELLIPSE
5
B0
100
AcDbEntity
8
1
62
256
6
ByLayer
370
18
48
1
60
0
100
AcDbEllipse
10
67.836522
20
-2.463473
30
0
11
1.834359625883
21
0.796947151904973
31
0
210
0
220
0
230
1
40
0.96498
41
1.17381389652885
42
3.14159265358979
0
ELLIPSE
5
B1
100
AcDbEntity
8
1
62
256
6
ByLayer
370
18
48
1
60
0
100
AcDbEllipse
10
67.941144
20
-2.704162
30
0
11
2.75163315116323
21
1.19546144166821
31
0
210
0
220
0
230
1
40
0.96498
41
-2.76955032916464
42
-3.06793291404537E-16
0
ELLIPSE
5
B2
100
AcDbEntity
8
1
62
256
6
ByLayer
370
18
48
1
60
0
100
AcDbEllipse
10
67.836616
20
-2.463566
30
0
11
2.75163315116305
21
1.19546144166858
31
0
210
0
220
0
230
1
40
0.96498
41
-2.7695503291648
42
-0.0453209720937591
0
ELLIPSE
5
B3
100
AcDbEntity
8
1
62
256
6
ByLayer
370
18
48
1
60
0
100
AcDbEllipse
10
67.313879
20
-1.26049
30
0
11
1.83435962588121
21
0.796947151908376
31
0
210
0
220
0
230
1
40
0.96498
41
-1.96777875706298
42
-0.346706955648778
0
ELLIPSE
5
B4
100
AcDbEntity
8
1
62
256
6
ByLayer
370
18
48
1
60
0
100
AcDbEllipse
10
67.836522
20
-2.463473
30
0
11
1.83435962587786
21
0.796947151923656
31
0
210
0
220
0
230
1
40
0.96498
41
0
42
1.17381389651892
0
ELLIPSE
5
B5
100
AcDbEntity
8
1
62
256
6
ByLayer
370
18
48
1
60
0
100
AcDbEllipse
10
67.836522
20
-2.463473
30
0
11
1.83435962588484
21
0.796947151901271
31
0
210
0
220
0
230
1
40
0.96498
41
3.14159265358979
42
-2.30102805161799E-16
0
ELLIPSE
5
B6
100
AcDbEntity
8
1
62
256
6
ByLayer
370
18
48
1
60
0
100
AcDbEllipse
10
67.313879
20
-1.26049
30
0
11
1.83435962591343
21
0.796947151811844
31
0
210
0
220
0
230
1
40
0.96498
41
-2.79488569932651
42
-1.96777875701081
0
ELLIPSE
5
B7
100
AcDbEntity
8
1
62
256
6
ByLayer
370
18
48
1
60
0
100
AcDbEllipse
10
76.142778
20
-2.206294
30
0
11
0.733743850352078
21
0.318778860765947
31
0
210
0
220
0
230
1
40
0.96498
41
0.039349882728036
42
1.78467913472148
0
ELLIPSE
5
B8
100
AcDbEntity
8
1
62
256
6
ByLayer
370
18
48
1
60
0
100
AcDbEllipse
10
75.645223
20
-1.061055
30
0
11
0.733743850353557
21
0.318778860761749
31
0
210
0
220
0
230
1
40
0.96498
41
0.0393498827331999
42
1.78467913472731
0
ELLIPSE
5
B9
100
AcDbEntity
8
1
62
256
6
ByLayer
370
18
48
1
60
0
100
AcDbEllipse
10
67.995824
20
-10.361945
30
0
11
0.733743850338688
21
0.318778860808596
31
0
210
0
220
0
230
1
40
0.96498
41
3.14159265358979
42
-2.40411107012021
0
ELLIPSE
5
BA
100
AcDbEntity
8
1
62
256
6
ByLayer
370
18
48
1
60
0
100
AcDbEllipse
10
79.124771
20
-12.988321
30
0
11
0.733743850352483
21
0.318778860762983
31
0
210
0
220
0
230
1
40
0.96498
41
-2.05504521966172
42
-0.309715967667576
0
ELLIPSE
5
BB
100
AcDbEntity
8
1
62
256
6
ByLayer
370
18
48
1
60
0
100
AcDbEllipse
10
74.421124
20
-8.518854
30
0
11
2.75153943882462
21
1.19542072786031
31
0
210
0
220
0
230
1
40
0.96498
41
3.14159265358979
42
-1.96777875706178
0
ELLIPSE
5
BC
100
AcDbEntity
8
1
62
256
6
ByLayer
370
18
48
1
60
0
100
AcDbEllipse
10
73.923569
20
-7.373614
30
0
11
2.75153943882718
21
1.19542072785235
31
0
210
0
220
0
230
1
40
0.96498
41
-2.58471410294575
42
-0.217369043513991
0
ELLIPSE
5
BD
100
AcDbEntity
8
1
62
256
6
ByLayer
370
18
48
1
60
0
100
AcDbEllipse
10
74.421124
20
-8.518854
30
0
11
2.75153943882877
21
1.19542072784908
31
0
210
0
220
0
230
1
40
0.96498
41
-1.96777875705763
42
0
0
ELLIPSE
5
BE
100
AcDbEntity
8
1
62
256
6
ByLayer
370
18
48
1
60
0
100
AcDbEllipse
10
74.421124
20
-8.518854
30
0
11
2.75153943879573
21
1.19542072790318
31
0
210
0
220
0
230
1
40
0.96498
41
2.1106633950514
42
3.14159265358979
0
ELLIPSE
5
BF
100
AcDbEntity
8
1
62
256
6
ByLayer
370
18
48
1
60
0
100
AcDbEllipse
10
74.421124
20
-8.518854
30
0
11
2.75153943882435
21
1.19542072786071
31
0
210
0
220
0
230
1
40
0.96498
41
0
42
1.3057193824711
0
ELLIPSE
5
C0
100
AcDbEntity
8
1
62
256
6
ByLayer
370
18
48
1
60
0
100
AcDbEllipse
10
73.923569
20
-7.373614
30
0
11
2.75153943901026
21
1.19542072696368
31
0
210
0
220
0
230
1
40
0.96498
41
-2.92422360978365
42
-2.58471410264264
0
ELLIPSE
5
C1
100
AcDbEntity
8
1
62
256
6
ByLayer
370
18
48
1
60
0
100
AcDbEllipse
10
67.995824
20
-10.361945
30
0
11
0.73374385036647
21
0.318778860738211
31
0
210
0
220
0
230
1
40
0.96498
41
2.13374498515978
42
3.14159265358979
0
ELLIPSE
5
C2
100
AcDbEntity
8
1
62
256
6
ByLayer
370
18
48
1
60
0
100
AcDbEllipse
10
67.498268
20
-9.216705
30
0
11
0.733743850366208
21
0.318778860738573
31
0
210
0
220
0
230
1
40
0.96498
41
2.1337449851592
42
3.14159265358979
0
ELLIPSE
5
C3
100
AcDbEntity
8
1
62
256
6
ByLayer
370
18
48
1
60
0
100
AcDbEllipse
10
108.711861
20
0
30
0
11
85.6289865021993
21
2.20015709697414
31
0
210
0
220
0
230
1
40
0.101916
41
2.0481910776455
42
2.18486569728433
0
ELLIPSE
5
C4
100
AcDbEntity
8
1
62
256
6
ByLayer
370
18
48
1
60
0
100
AcDbEllipse
10
108.711861
20
0
30
0
11
85.6289865663188
21
2.20015710349324
31
0
210
0
220
0
230
1
40
0.101916
41
-2.19010293882399
42
-2.08328311847124
0
POINT
5
6C
100
AcDbEntity
8
80
62
256
6
ByLayer
370
18
48
1
60
0
100
AcDbPoint
10
0
20
0
30
0
39
0
210
0
220
0
230
1
50
360
0
POINT
5
6E
100
AcDbEntity
8
81
62
256
6
ByLayer
370
18
48
1
60
0
100
AcDbPoint
10
80
20
-13.819976
30
0
39
0
210
0
220
0
230
1
50
360
0
SPLINE
5
C5
100
AcDbEntity
8
1
62
256
6
ByLayer
370
18
48
1
60
0
100
AcDbSpline
70
4
71
3
72
12
73
8
40
0
40
0
40
0
40
0
40
0.214047279995636
40
0.429168003033244
40
0.712055627109112
40
0.855671469336406
40
1
40
1
40
1
40
1
41
1
10
45.489331337711
20
4.35889894354037
30
0
41
1
10
45.6191906398157
20
4.06432642686852
30
0
41
1
10
45.8567978679579
20
3.4658781522502
30
0
41
1
10
46.1824710389076
20
2.44657817323396
30
0
41
1
10
46.3817984555679
20
1.50160473673866
30
0
41
1
10
46.4737295225012
20
0.648840781991626
30
0
41
1
10
46.4891933147207
20
0.217047861350747
30
0
41
1
10
46.489331337711
20
-3.055E-13
30
0
0
SPLINE
5
C6
100
AcDbEntity
8
1
62
256
6
ByLayer
370
18
48
1
60
0
100
AcDbSpline
70
4
71
3
72
13
73
9
40
0
40
0
40
0
40
0
40
0.0452170975223913
40
0.223348124296755
40
0.401503705464617
40
0.584434704908578
40
0.76740715045095
40
1
40
1
40
1
40
1
41
1
10
46.489331337711
20
-3.055E-13
30
0
41
1
10
46.4893281769038
20
-0.0679036869955047
30
0
41
1
10
46.4855720296256
20
-0.403106019466681
30
0
41
1
10
46.4446488850474
20
-1.00539113354323
30
0
41
1
10
46.3211036344196
20
-1.80624412706517
30
0
41
1
10
46.1312845277816
20
-2.60142824239498
30
0
41
1
10
45.859022768424
20
-3.45855425940335
30
0
41
1
10
45.6305643077393
20
-4.03874678087592
30
0
41
1
10
45.489331337711
20
-4.35889894354098
30
0
0
SPLINE
5
C7
100
AcDbEntity
8
SK1
62
256
6
ByLayer
370
18
48
1
60
0
100
AcDbSpline
70
4
71
3
72
15
73
11
40
0
40
0
40
0
40
0
40
0.109573348371639
40
0.237813801519194
40
0.3663481254497
40
0.494346727417727
40
0.626284270321216
40
0.758813815602
40
0.89101899109846
40
1
40
1
40
1
40
1
41
1
10
-166.910668662289
20
-4.35889894354048
30
0
41
1
10
-167.044035969876
20
-4.05744999314009
30
0
41
1
10
-167.306729144201
20
-3.39431724298051
30
0
41
1
10
-167.630270015703
20
-2.34120259621307
30
0
41
1
10
-167.851068000318
20
-1.2054135019553
30
0
41
1
10
-167.937870999642
20
-0.0393794414292929
30
0
41
1
10
-167.860765137939
20
1.13964808305437
30
0
41
1
10
-167.638686110591
20
2.31179137503344
30
0
41
1
10
-167.309892909159
20
3.38661842754641
30
0
41
1
10
-167.043354355438
20
4.05908864724942
30
0
41
1
10
-166.910668662289
20
4.35889894354087
30
0
0
SPLINE
5
C8
100
AcDbEntity
8
1
62
256
6
ByLayer
370
18
48
1
60
0
100
AcDbSpline
70
4
71
1
72
4
73
2
40
0
40
0
40
1
40
1
41
1
10
71.4954210130651
20
-9.03250737961178
30
0
41
1
10
72.1974620932389
20
-9.79178410480869
30
0
0
LINE
5
70
100
AcDbEntity
8
1
62
256
6
ByLayer
370
18
48
1
60
0
100
AcDbLine
10
65.036238
20
-8.221221
30
0
11
60.886487
21
-4.143272
31
0
39
0
210
0
220
0
230
1
0
LINE
5
72
100
AcDbEntity
8
1
62
256
6
ByLayer
370
18
48
1
60
0
100
AcDbLine
10
71.18985
20
-8.687129
30
0
11
65.036238
21
-8.221221
31
0
39
0
210
0
220
0
230
1
0
LINE
5
73
100
AcDbEntity
8
1
62
256
6
ByLayer
370
18
48
1
60
0
100
AcDbLine
10
73.612363
20
0.094449
30
0
11
74.048461
21
-5.915333
31
0
39
0
210
0
220
0
230
1
0
LINE
5
74
100
AcDbEntity
8
1
62
256
6
ByLayer
370
18
48
1
60
0
100
AcDbLine
10
69.462612
20
4.172397
30
0
11
73.612363
21
0.094449
31
0
39
0
210
0
220
0
230
1
0
LINE
5
75
100
AcDbEntity
8
1
62
256
6
ByLayer
370
18
48
1
60
0
100
AcDbLine
10
67.318581
20
2.09348
30
0
11
69.462612
21
4.172397
31
0
39
0
210
0
220
0
230
1
0
LINE
5
76
100
AcDbEntity
8
1
62
256
6
ByLayer
370
18
48
1
60
0
100
AcDbLine
10
67.318581
20
2.09348
30
0
11
70.085176
21
-0.625245
31
0
39
0
210
0
220
0
230
1
0
LINE
5
77
100
AcDbEntity
8
1
62
256
6
ByLayer
370
18
48
1
60
0
100
AcDbLine
10
65.797113
20
-4.78308
30
0
11
63.030519
21
-2.064355
31
0
39
0
210
0
220
0
230
1
0
LINE
5
78
100
AcDbEntity
8
1
62
256
6
ByLayer
370
18
48
1
60
0
100
AcDbLine
10
60.886487
20
-4.143272
30
0
11
63.030519
21
-2.064355
31
0
39
0
210
0
220
0
230
1
0
LINE
5
79
100
AcDbEntity
8
1
62
256
6
ByLayer
370
18
48
1
60
0
100
AcDbLine
10
62.92599
20
-1.823758
30
0
11
67.214052
21
2.334077
31
0
39
0
210
0
220
0
230
1
0
LINE
5
7A
100
AcDbEntity
8
1
62
256
6
ByLayer
370
18
48
1
60
0
100
AcDbLine
10
67.318581
20
2.09348
30
0
11
67.214052
21
2.334077
31
0
39
0
210
0
220
0
230
1
0
LINE
5
7B
100
AcDbEntity
8
1
62
256
6
ByLayer
370
18
48
1
60
0
100
AcDbLine
10
69.462612
20
4.172397
30
0
11
68.835441
21
5.615977
31
0
39
0
210
0
220
0
230
1
0
LINE
5
7C
100
AcDbEntity
8
1
62
256
6
ByLayer
370
18
48
1
60
0
100
AcDbLine
10
60.259317
20
-2.699692
30
0
11
68.835441
21
5.615977
31
0
39
0
210
0
220
0
230
1
0
LINE
5
7D
100
AcDbEntity
8
1
62
256
6
ByLayer
370
18
48
1
60
0
100
AcDbLine
10
60.886487
20
-4.143272
30
0
11
60.259317
21
-2.699692
31
0
39
0
210
0
220
0
230
1
0
LINE
5
7E
100
AcDbEntity
8
1
62
256
6
ByLayer
370
18
48
1
60
0
100
AcDbLine
10
63.030519
20
-2.064355
30
0
11
62.92599
21
-1.823758
31
0
39
0
210
0
220
0
230
1
0
LINE
5
7F
100
AcDbEntity
8
1
62
256
6
ByLayer
370
18
48
1
60
0
100
AcDbLine
10
73.612363
20
0.094449
30
0
11
72.985192
21
1.538029
31
0
39
0
210
0
220
0
230
1
0
LINE
5
80
100
AcDbEntity
8
1
62
256
6
ByLayer
370
18
48
1
60
0
100
AcDbLine
10
68.835441
20
5.615977
30
0
11
72.985192
21
1.538029
31
0
39
0
210
0
220
0
230
1
0
LINE
5
81
100
AcDbEntity
8
1
62
256
6
ByLayer
370
18
48
1
60
0
100
AcDbLine
10
65.797113
20
-4.78308
30
0
11
65.692585
21
-4.542483
31
0
39
0
210
0
220
0
230
1
0
LINE
5
82
100
AcDbEntity
8
1
62
256
6
ByLayer
370
18
48
1
60
0
100
AcDbLine
10
65.692585
20
-4.542483
30
0
11
62.92599
21
-1.823758
31
0
39
0
210
0
220
0
230
1
0
LINE
5
83
100
AcDbEntity
8
1
62
256
6
ByLayer
370
18
48
1
60
0
100
AcDbLine
10
45.489331
20
10
30
0
11
46.489331
21
9
31
0
39
0
210
0
220
0
230
1
0
LINE
5
84
100
AcDbEntity
8
SK1
62
256
6
ByLayer
370
18
48
1
60
0
100
AcDbLine
10
-166.910669
20
4.358899
30
0
11
0
21
4.358899
31
0
39
0
210
0
220
0
230
1
0
LINE
5
86
100
AcDbEntity
8
1
62
256
6
ByLayer
370
18
48
1
60
0
100
AcDbLine
10
45.489331
20
-4.358899
30
0
11
0
21
-4.358899
31
0
39
0
210
0
220
0
230
1
0
LINE
5
87
100
AcDbEntity
8
1
62
256
6
ByLayer
370
18
48
1
60
0
100
AcDbLine
10
46.489331
20
9
30
0
11
66.869557
21
9
31
0
39
0
210
0
220
0
230
1
0
LINE
5
88
100
AcDbEntity
8
SK1
62
256
6
ByLayer
370
18
48
1
60
0
100
AcDbLine
10
-167.910669
20
-9
30
0
11
-169.210669
21
-7.7
31
0
39
0
210
0
220
0
230
1
0
LINE
5
89
100
AcDbEntity
8
SK1
62
256
6
ByLayer
370
18
48
1
60
0
100
AcDbLine
10
-169.210669
20
7.7
30
0
11
-166.910669
21
10
31
0
39
0
210
0
220
0
230
1
0
LINE
5
8A
100
AcDbEntity
8
SK1
62
256
6
ByLayer
370
18
48
1
60
0
100
AcDbLine
10
-166.910669
20
10
30
0
11
0
21
10
31
0
39
0
210
0
220
0
230
1
0
LINE
5
8B
100
AcDbEntity
8
1
62
256
6
ByLayer
370
18
48
1
60
0
100
AcDbLine
10
75.686431
20
-1.582042
30
0
11
75.188875
21
-0.436802
31
0
39
0
210
0
220
0
230
1
0
LINE
5
8C
100
AcDbEntity
8
1
62
256
6
ByLayer
370
18
48
1
60
0
100
AcDbLine
10
76.863853
20
-1.859908
30
0
11
76.366297
21
-0.714668
31
0
39
0
210
0
220
0
230
1
0
LINE
5
8D
100
AcDbEntity
8
1
62
256
6
ByLayer
370
18
48
1
60
0
100
AcDbLine
10
67.344092
20
-9.933286
30
0
11
68.372752
21
-8.473838
31
0
39
0
210
0
220
0
230
1
0
LINE
5
8E
100
AcDbEntity
8
1
62
256
6
ByLayer
370
18
48
1
60
0
100
AcDbLine
10
73.088297
20
-13.405755
30
0
11
67.659581
21
-11.074004
31
0
39
0
210
0
220
0
230
1
0
LINE
5
8F
100
AcDbEntity
8
1
62
256
6
ByLayer
370
18
48
1
60
0
100
AcDbLine
10
79.055428
20
-13.763367
30
0
11
73.088297
21
-13.405755
31
0
39
0
210
0
220
0
230
1
0
LINE
5
90
100
AcDbEntity
8
1
62
256
6
ByLayer
370
18
48
1
60
0
100
AcDbLine
10
79.395304
20
-7.092015
30
0
11
79.917361
21
-12.900515
31
0
39
0
210
0
220
0
230
1
0
LINE
5
91
100
AcDbEntity
8
1
62
256
6
ByLayer
370
18
48
1
60
0
100
AcDbLine
10
76.863853
20
-1.859908
30
0
11
79.395304
21
-7.092015
31
0
39
0
210
0
220
0
230
1
0
LINE
5
92
100
AcDbEntity
8
1
62
256
6
ByLayer
370
18
48
1
60
0
100
AcDbLine
10
73.829496
20
-2.897825
30
0
11
75.686431
21
-1.582042
31
0
39
0
210
0
220
0
230
1
0
LINE
5
93
100
AcDbEntity
8
1
62
256
6
ByLayer
370
18
48
1
60
0
100
AcDbLine
10
79.395304
20
-7.092015
30
0
11
78.897749
21
-5.946775
31
0
39
0
210
0
220
0
230
1
0
LINE
5
94
100
AcDbEntity
8
1
62
256
6
ByLayer
370
18
48
1
60
0
100
AcDbLine
10
76.366297
20
-0.714668
30
0
11
78.897749
21
-5.946775
31
0
39
0
210
0
220
0
230
1
0
LINE
5
95
100
AcDbEntity
8
1
62
256
6
ByLayer
370
18
48
1
60
0
100
AcDbLine
10
67.344092
20
-9.933286
30
0
11
66.846536
21
-8.788046
31
0
39
0
210
0
220
0
230
1
0
LINE
5
96
100
AcDbEntity
8
1
62
256
6
ByLayer
370
18
48
1
60
0
100
AcDbLine
10
67.26208
20
-10.680724
30
0
11
66.764524
21
-9.535484
31
0
39
0
210
0
220
0
230
1
0
LINE
5
97
100
AcDbEntity
8
1
62
256
6
ByLayer
370
18
48
1
60
0
100
AcDbLine
10
73.484005
20
2.5
30
0
11
74.911842
21
-0.633102
31
0
39
0
210
0
220
0
230
1
0
LINE
5
98
100
AcDbEntity
8
1
62
256
6
ByLayer
370
18
48
1
60
0
100
AcDbLine
10
69.169027
20
6.740316
30
0
11
73.484005
21
2.5
31
0
39
0
210
0
220
0
230
1
0
LINE
5
99
100
AcDbEntity
8
1
62
256
6
ByLayer
370
18
48
1
60
0
100
AcDbLine
10
45.489331
20
10
30
0
11
45.489331
21
4.358899
31
0
39
0
210
0
220
0
230
1
0
LINE
5
9A
100
AcDbEntity
8
1
62
256
6
ByLayer
370
18
48
1
60
0
100
AcDbLine
10
45.489331
20
-4.358899
30
0
11
45.489331
21
-9
31
0
39
0
210
0
220
0
230
1
0
LINE
5
9B
100
AcDbEntity
8
SK1
62
256
6
ByLayer
370
18
48
1
60
0
100
AcDbLine
10
-166.910669
20
-4.358899
30
0
11
-166.910669
21
-9
31
0
39
0
210
0
220
0
230
1
0
LINE
5
9C
100
AcDbEntity
8
1
62
256
6
ByLayer
370
18
48
1
60
0
100
AcDbLine
10
59.189331
20
-8.383301
30
0
11
59.189331
21
5.864881
31
0
39
0
210
0
220
0
230
1
0
LINE
5
9D
100
AcDbEntity
8
SK1
62
256
6
ByLayer
370
18
48
1
60
0
100
AcDbLine
10
-166.910669
20
10
30
0
11
-166.910669
21
4.358899
31
0
39
0
210
0
220
0
230
1
0
LINE
5
9E
100
AcDbEntity
8
SK1
62
256
6
ByLayer
370
18
48
1
60
0
100
AcDbLine
10
-169.210669
20
7.7
30
0
11
-169.210669
21
-7.7
31
0
39
0
210
0
220
0
230
1
0
LINE
5
9F
100
AcDbEntity
8
1
62
256
6
ByLayer
370
18
48
1
60
0
100
AcDbLine
10
69.169027
20
6.740316
30
0
11
66.869557
21
9
31
0
39
0
210
0
220
0
230
1
0
LINE
5
A0
100
AcDbEntity
8
1
62
256
6
ByLayer
370
18
48
1
60
0
100
AcDbLine
10
46.489331
20
-9
30
0
11
46.489331
21
9
31
0
39
0
210
0
220
0
230
1
0
LINE
5
A1
100
AcDbEntity
8
1
62
256
6
ByLayer
370
18
48
1
60
0
100
AcDbLine
10
66.846536
20
-8.788046
30
0
11
67.134099
21
-8.380056
31
0
39
0
210
0
220
0
230
1
0
LINE
5
A2
100
AcDbEntity
8
1
62
256
6
ByLayer
370
18
48
1
60
0
100
AcDbLine
10
73.726124
20
-1.473275
30
0
11
75.188875
21
-0.436802
31
0
39
0
210
0
220
0
230
1
0
LINE
5
A3
100
AcDbEntity
8
SK1
62
256
6
ByLayer
370
18
48
1
60
0
100
AcDbLine
10
-167.910669
20
-9
30
0
11
0
21
-9
31
0
39
0
210
0
220
0
230
1
0
LINE
5
A4
100
AcDbEntity
8
80
62
256
6
ByLayer
370
18
48
1
60
0
100
AcDbLine
10
0
20
0
30
0
11
-15.483688
21
0
31
0
39
0
210
0
220
0
230
1
0
LINE
5
A5
100
AcDbEntity
8
SK4
62
256
6
ByLayer
370
13
48
0.05
60
0
100
AcDbLine
10
-174.210669
20
0
30
0
11
85.789331
21
0
31
0
39
0
210
0
220
0
230
1
0
LINE
5
A7
100
AcDbEntity
8
1
62
256
6
ByLayer
370
18
48
1
60
0
100
AcDbLine
10
0
20
10
30
0
11
45.489331
21
10
31
0
39
0
210
0
220
0
230
1
0
LINE
5
A8
100
AcDbEntity
8
1
62
256
6
ByLayer
370
18
48
1
60
0
100
AcDbLine
10
0
20
4.358899
30
0
11
45.489331
21
4.358899
31
0
39
0
210
0
220
0
230
1
0
LINE
5
A9
100
AcDbEntity
8
SK1
62
256
6
ByLayer
370
18
48
1
60
0
100
AcDbLine
10
0
20
-4.358899
30
0
11
-166.910669
21
-4.358899
31
0
39
0
210
0
220
0
230
1
0
LINE
5
AA
100
AcDbEntity
8
1
62
256
6
ByLayer
370
18
48
1
60
0
100
AcDbLine
10
0
20
-9
30
0
11
66.740306
21
-9
31
0
39
0
210
0
220
0
230
1
0
LINE
5
AB
100
AcDbEntity
8
4
62
256
6
ByLayer
370
13
48
0.05
60
0
100
AcDbLine
10
-0.210669
20
0
30
0
11
80.789331
21
0
31
0
39
0
210
0
220
0
230
1
0
LINE
5
AD
100
AcDbEntity
8
81
62
256
6
ByLayer
370
18
48
1
60
0
100
AcDbLine
10
95.483688
20
-13.819976
30
0
11
80
21
-13.819976
31
0
39
0
210
0
220
0
230
1
0
MTEXT
5
C9
100
AcDbEntity
8
SK6
62
256
6
ByLayer
370
18
48
1
60
0
100
AcDbMText
10
-54.134985
20
-52.134393
30
0
210
0
220
0
230
1
1
\W0.8055;A20S-MWLNL 06
40
3
41
0
44
1.084337
50
0
71
7
72
5
7
iso_b_vert
0
DIMENSION
5
DB
100
AcDbEntity
8
2
62
256
6
ByLayer
370
13
48
1
60
0
100
AcDbDimension
2
DimnDraft3D1
10
38.993961
20
-169.210669
30
0
11
38.993961
21
-41.751387
31
0
70
32
71
5
72
1
41
1
210
0
220
0
230
1
3
Standard
100
AcDbAlignedDimension
13
15.819976
23
80
33
0
14
9.7
24
-169.210669
34
0
50
90
100
AcDbRotatedDimension
1001
ACAD
1000
DSTYLE
1002
{
1070
    74
1070
     0
1070
   279
1070
     0
1070
   172
1070
     1
1070
   173
1070
     1
1070
   340
1005
CA
1070
    77
1070
     1
1070
    73
1070
     0
1070
   171
1070
     3
1070
   274
1070
     4
1070
   177
1070
     7
1070
   176
1070
     7
1070
   178
1070
     7
1070
    78
1070
     8
1070
    41
1041
3.175
1070
   147
1041
1.5
1070
    42
1041
2.0
1070
    44
1041
2.0
1070
   140
1041
3.0
1070
   343
1005
DC
1070
   344
1005
DC
1002
}
0
DIMENSION
5
F0
100
AcDbEntity
8
2
62
256
6
ByLayer
370
13
48
1
60
0
100
AcDbDimension
2
DimnDraft3D2
10
25.61799
20
45.489331
30
0
11
25.61799
21
66.186771
31
0
70
32
71
5
72
1
41
1
210
0
220
0
230
1
3
Standard
100
AcDbAlignedDimension
13
15.819976
23
80
33
0
14
11
24
45.489331
34
0
50
90
100
AcDbRotatedDimension
1001
ACAD
1000
DSTYLE
1002
{
1070
    74
1070
     0
1070
   279
1070
     0
1070
   172
1070
     1
1070
   173
1070
     1
1070
   340
1005
CA
1070
    77
1070
     1
1070
    73
1070
     0
1070
   171
1070
     3
1070
   274
1070
     4
1070
   177
1070
     7
1070
   176
1070
     7
1070
   178
1070
     7
1070
    78
1070
     8
1070
    41
1041
3.175
1070
   147
1041
1.5
1070
    42
1041
2.0
1070
    44
1041
2.0
1070
   140
1041
3.0
1070
   343
1005
DC
1070
   344
1005
DC
1002
}
0
DIMENSION
5
FE
100
AcDbEntity
8
2
62
256
6
ByLayer
370
13
48
1
60
0
100
AcDbDimension
2
DimnDraft3D3
10
-13.819976
20
-102.407298
30
0
11
-5.532356
21
-102.407298
31
0
70
32
71
5
72
1
41
1
210
0
220
0
230
1
3
Standard
100
AcDbAlignedDimension
13
0
23
-87.789331
33
0
14
-13.819976
24
-82
34
0
50
0
100
AcDbRotatedDimension
1001
ACAD
1000
DSTYLE
1002
{
1070
   279
1070
     0
1070
   172
1070
     1
1070
   173
1070
     1
1070
   340
1005
CA
1070
    77
1070
     1
1070
    73
1070
     0
1070
   171
1070
     3
1070
   274
1070
     4
1070
   177
1070
     7
1070
   176
1070
     7
1070
   178
1070
     7
1070
    78
1070
     8
1070
    41
1041
3.175
1070
   147
1041
1.5
1070
    42
1041
2.0
1070
    44
1041
2.0
1070
   140
1041
3.0
1070
   343
1005
DC
1070
   344
1005
DC
1002
}
0
DIMENSION
5
10D
100
AcDbEntity
8
SK2
62
256
6
ByLayer
370
13
48
1
60
0
100
AcDbDimension
2
DimnDraft3D4
10
-184.297231
20
-9
30
0
11
-184.297231
21
1.877632
31
0
70
32
71
5
72
1
41
1
210
0
220
0
230
1
3
Standard
100
AcDbAlignedDimension
13
-168.910669
23
10
33
0
14
-169.910669
24
-9
34
0
50
90
100
AcDbRotatedDimension
1001
ACAD
1000
DSTYLE
1002
{
1070
    74
1070
     0
1070
   279
1070
     0
1070
   172
1070
     1
1070
   173
1070
     1
1070
   340
1005
CA
1070
    77
1070
     1
1070
    73
1070
     0
1070
   171
1070
     3
1070
   274
1070
     4
1070
   177
1070
     7
1070
   176
1070
     7
1070
   178
1070
     7
1070
    78
1070
     8
1070
    41
1041
3.175
1070
   147
1041
1.5
1070
    42
1041
2.0
1070
    44
1041
2.0
1070
   140
1041
3.0
1070
   343
1005
DC
1070
   344
1005
DC
1002
}
0
ENDSEC
0
SECTION
2
OBJECTS
0
DICTIONARY
5
178
330
0
100
AcDbDictionary
280
0
281
1
3
ACAD_GROUP
350
179
3
ACAD_MLINESTYLE
350
17a
0
DICTIONARY
5
179
330
0
100
AcDbDictionary
280
0
281
1
0
DICTIONARY
5
17a
330
0
100
AcDbDictionary
280
0
281
1
3
Standard
350
18
0
MLINESTYLE
5
18
330
17a
100
AcDbMlineStyle
2
Standard
70
0
3

62
256
51
90
52
90
71
2
49
-0.5
62
256
6
ByLayer
49
0.5
62
256
6
ByLayer
0
RASTERVARIABLES
5
166
330

100
AcDbRasterVariables
90
0
70
1
71
1
72
1
0
ENDSEC
0
EOF
