0
SECTION
2
HEADER
9
$ACADVER
1
AC1015
9
$DWGCODEPAGE
3
ANSI_1252
9
$HANDSEED
5
191
9
$ANGBASE
50
0
9
$ANGDIR
70
0
9
$ATTMODE
70
1
9
$AUNITS
70
0
9
$AUPREC
70
0
9
$CECOLOR
62
256
9
$CELTSCALE
40
1
9
$CELTYPE
6
ByLayer
9
$CELWEIGHT
370
-1
9
$CLAYER
8
0
9
$CMLJUST
70
0
9
$CMLSCALE
40
1
9
$CMLSTYLE
2
Standard
9
$DIMSTYLE
2
Standard
9
$TEXTSIZE
40
0.2
9
$TEXTSTYLE
7
Standard
9
$LUNITS
70
2
9
$LUPREC
70
4
9
$EXTNAMES
290
1
9
$INSUNITS
70
4
9
$LTSCALE
40
1
9
$LWDISPLAY
290
0
9
$PDMODE
70
0
9
$PDSIZE
40
0
9
$PLINEGEN
70
0
0
ENDSEC
0
SECTION
2
CLASSES
0
CLASS
1
RASTERVARIABLES
2
AcDbRasterVariables
3
ISM
90
0
280
0
281
0
0
ENDSEC
0
SECTION
2
TABLES
0
TABLE
2
VPORT
5
187
100
AcDbSymbolTable
0
VPORT
5
1
100
AcDbSymbolTableRecord
100
AcDbViewportTableRecord
2
*Active
70
0
10
0
20
0
11
1
21
1
12
-1
22
1
13
0
23
0
14
0.5
24
0.5
15
10
25
10
16
0
26
0
36
1
17
0
27
0
37
0
0
ENDTAB
0
TABLE
2
LTYPE
5
188
100
AcDbSymbolTable
0
LTYPE
5
14
100
AcDbSymbolTableRecord
100
AcDbLinetypeTableRecord
70
0
2
ByBlock
3

72
65
73
0
40
0
0
LTYPE
5
15
100
AcDbSymbolTableRecord
100
AcDbLinetypeTableRecord
70
0
2
ByLayer
3

72
65
73
0
40
0
0
LTYPE
5
16
100
AcDbSymbolTableRecord
100
AcDbLinetypeTableRecord
70
0
2
CONTINUOUS
3
Solid line
72
65
73
0
40
0
0
LTYPE
5
3B
100
AcDbSymbolTableRecord
100
AcDbLinetypeTableRecord
70
0
2
DASHED
3
__ __ __ __ __ __ __ __ __
72
65
73
2
40
25.72
49
12.86
74
0
49
-12.86
74
0
0
LTYPE
5
3C
100
AcDbSymbolTableRecord
100
AcDbLinetypeTableRecord
70
0
2
HIDDEN
3
_ _ _ _ _ _ _ _ _ _ _ _ _ _ _
72
65
73
2
40
0.5
49
0.25
74
0
49
-0.25
74
0
0
LTYPE
5
3D
100
AcDbSymbolTableRecord
100
AcDbLinetypeTableRecord
70
0
2
PHANTOM
3
____ _ _ ____ _ _ _____ _ _ ____
72
65
73
6
40
50.5
49
18
74
0
49
-6.5
74
0
49
6.5
74
0
49
-6.5
74
0
49
6.5
74
0
49
-6.5
74
0
0
LTYPE
5
3E
100
AcDbSymbolTableRecord
100
AcDbLinetypeTableRecord
70
0
2
CENTER
3
____ _ ____ _ ____ _ ____
72
65
73
4
40
47.5
49
22
74
0
49
-8.5
74
0
49
8.5
74
0
49
-8.5
74
0
0
LTYPE
5
3F
100
AcDbSymbolTableRecord
100
AcDbLinetypeTableRecord
70
0
2
DOT
3
.........................
72
65
73
2
40
10
49
0
74
0
49
-10
74
0
0
LTYPE
5
40
100
AcDbSymbolTableRecord
100
AcDbLinetypeTableRecord
70
0
2
DASHDOT
3
_._._._._._._._._._._._._._._._.
72
65
73
4
40
70
49
31
74
0
49
-13
74
0
49
13
74
0
49
-13
74
0
0
ENDTAB
0
TABLE
2
LAYER
5
189
100
AcDbSymbolTable
0
LAYER
5
10
100
AcDbSymbolTableRecord
100
AcDbLayerTableRecord
2
0
70
0
62
7
6
CONTINUOUS
290
1
370
-3
390
0
0
LAYER
5
42
100
AcDbSymbolTableRecord
100
AcDbLayerTableRecord
2
80
70
0
62
-6
6
CONTINUOUS
290
1
370
-3
390
0
0
LAYER
5
44
100
AcDbSymbolTableRecord
100
AcDbLayerTableRecord
2
81
70
0
62
-3
6
CONTINUOUS
290
1
370
-3
390
0
0
LAYER
5
46
100
AcDbSymbolTableRecord
100
AcDbLayerTableRecord
2
1
70
0
62
4
6
CONTINUOUS
290
1
370
-3
390
0
0
LAYER
5
48
100
AcDbSymbolTableRecord
100
AcDbLayerTableRecord
2
2
70
0
62
7
6
CONTINUOUS
290
1
370
-3
390
0
0
LAYER
5
66
100
AcDbSymbolTableRecord
100
AcDbLayerTableRecord
2
4
70
0
62
-2
6
CENTER
290
1
370
-3
390
0
0
LAYER
5
173
100
AcDbSymbolTableRecord
100
AcDbLayerTableRecord
2
SK1
70
0
62
4
6
CONTINUOUS
290
1
370
-3
390
0
0
LAYER
5
174
100
AcDbSymbolTableRecord
100
AcDbLayerTableRecord
2
SK4
70
0
62
2
6
CENTER
290
1
370
-3
390
0
0
LAYER
5
175
100
AcDbSymbolTableRecord
100
AcDbLayerTableRecord
2
SK6
70
0
62
5
6
CONTINUOUS
290
1
370
-3
390
0
0
LAYER
5
176
100
AcDbSymbolTableRecord
100
AcDbLayerTableRecord
2
SK2
70
0
62
7
6
CONTINUOUS
290
1
370
-3
390
0
0
ENDTAB
0
TABLE
2
STYLE
5
18a
100
AcDbSymbolTable
0
STYLE
5
11
100
AcDbSymbolTableRecord
100
AcDbTextStyleTableRecord
2
Standard
3
txt
70
0
71
0
40
0
41
1
42
0
50
0
0
STYLE
5
EF
100
AcDbSymbolTableRecord
100
AcDbTextStyleTableRecord
2
DEFAULT
3
simplex.shx
70
0
71
0
40
0
41
1
42
0
50
0
0
STYLE
5
112
100
AcDbSymbolTableRecord
100
AcDbTextStyleTableRecord
2
DWGDirectTextStyle
3
SIMPLEX
70
0
71
0
40
0
41
1
42
0
50
0
0
ENDTAB
0
TABLE
2
DIMSTYLE
5
18b
100
AcDbSymbolTable
100
AcDbDimStyleTable
0
DIMSTYLE
105
27
100
AcDbSymbolTableRecord
100
AcDbDimStyleTableRecord
2
Standard
70
0
3
<>
41
0.18
42
0.0625
44
0.18
140
0.18
147
0.09
73
0
74
0
77
1
271
2
275
0
278
52
280
0
340
11
0
ENDTAB
0
TABLE
2
VIEW
5
18c
100
AcDbSymbolTable
0
ENDTAB
0
TABLE
2
UCS
5
18d
100
AcDbSymbolTable
0
ENDTAB
0
TABLE
2
APPID
5
18e
100
AcDbSymbolTable
0
APPID
5
12
100
AcDbSymbolTableRecord
100
AcDbRegAppTableRecord
2
ACAD
70
0
0
ENDTAB
0
TABLE
2
BLOCK_RECORD
5
18f
100
AcDbSymbolTable
0
BLOCK_RECORD
5
1F
100
AcDbSymbolTableRecord
100
AcDbBlockTableRecord
2
*Model_Space
340
0
70
0
0
BLOCK_RECORD
5
1B
100
AcDbSymbolTableRecord
100
AcDbBlockTableRecord
2
*Paper_Space
340
0
70
0
0
BLOCK_RECORD
5
23
100
AcDbSymbolTableRecord
100
AcDbBlockTableRecord
2
*Paper_Space0
340
0
70
0
0
BLOCK_RECORD
5
114
100
AcDbSymbolTableRecord
100
AcDbBlockTableRecord
2
DimnDraft3D1
340
0
70
0
0
BLOCK_RECORD
5
122
100
AcDbSymbolTableRecord
100
AcDbBlockTableRecord
2
_CLOSED
340
0
70
0
0
BLOCK_RECORD
5
129
100
AcDbSymbolTableRecord
100
AcDbBlockTableRecord
2
DimnDraft3D2
340
0
70
0
0
BLOCK_RECORD
5
138
100
AcDbSymbolTableRecord
100
AcDbBlockTableRecord
2
DimnDraft3D3
340
0
70
0
0
BLOCK_RECORD
5
146
100
AcDbSymbolTableRecord
100
AcDbBlockTableRecord
2
DimnDraft3D4
340
0
70
0
0
ENDTAB
0
ENDSEC
0
SECTION
2
BLOCKS
0
BLOCK
5
20
100
AcDbEntity
8
0
100
AcDbBlockBegin
2
*Model_Space
70
0
10
0
20
0
30
0
3
*Model_Space
0
ENDBLK
5
21
100
AcDbEntity
8
0
100
AcDbBlockEnd
0
BLOCK
5
1C
100
AcDbEntity
8
0
100
AcDbBlockBegin
2
*Paper_Space
70
0
10
0
20
0
30
0
3
*Paper_Space
0
ENDBLK
5
1D
100
AcDbEntity
8
0
100
AcDbBlockEnd
0
BLOCK
5
24
100
AcDbEntity
8
0
100
AcDbBlockBegin
2
*Paper_Space0
70
0
10
0
20
0
30
0
3
*Paper_Space0
0
ENDBLK
5
25
100
AcDbEntity
8
0
100
AcDbBlockEnd
0
BLOCK
5
11F
100
AcDbEntity
8
0
100
AcDbBlockBegin
2
DimnDraft3D1
70
0
10
0
20
0
30
0
3
DimnDraft3D1
0
MTEXT
5
115
100
AcDbEntity
8
2
62
256
6
ByLayer
370
-1
48
1
60
0
100
AcDbMText
10
75.065
20
24.28
30
0
210
0
220
0
230
1
1
\W01.000;\fsimplex.shx,bigfont.shx;13.0 
40
4.5
41
0
44
1.084337
50
90
71
7
72
5
7
DEFAULT
0
LINE
5
116
100
AcDbEntity
8
2
62
256
6
ByLayer
370
-1
48
1
60
0
100
AcDbLine
10
65.94
20
12.9
30
0
11
78.19
21
12.9
31
0
39
0
210
0
220
0
230
1
0
LINE
5
117
100
AcDbEntity
8
2
62
256
6
ByLayer
370
-1
48
1
60
0
100
AcDbLine
10
65.94
20
0
30
0
11
78.19
21
0
31
0
39
0
210
0
220
0
230
1
0
LINE
5
118
100
AcDbEntity
8
2
62
256
6
ByLayer
370
-1
48
1
60
0
100
AcDbLine
10
76.19
20
0
30
0
11
76.19
21
32.356316
31
0
39
0
210
0
220
0
230
1
0
LINE
5
119
100
AcDbEntity
8
2
62
256
6
ByLayer
370
-1
48
1
60
0
100
AcDbLine
10
76.19
20
12.9
30
0
11
76.607997
21
9.725002
31
0
39
0
210
0
220
0
230
1
0
LINE
5
11A
100
AcDbEntity
8
2
62
256
6
ByLayer
370
-1
48
1
60
0
100
AcDbLine
10
76.19
20
12.9
30
0
11
75.772003
21
9.724998
31
0
39
0
210
0
220
0
230
1
0
LINE
5
11B
100
AcDbEntity
8
2
62
256
6
ByLayer
370
-1
48
1
60
0
100
AcDbLine
10
76.607997
20
9.725002
30
0
11
75.772003
21
9.724998
31
0
39
0
210
0
220
0
230
1
0
LINE
5
11C
100
AcDbEntity
8
2
62
256
6
ByLayer
370
-1
48
1
60
0
100
AcDbLine
10
76.19
20
0
30
0
11
75.772003
21
3.174998
31
0
39
0
210
0
220
0
230
1
0
LINE
5
11D
100
AcDbEntity
8
2
62
256
6
ByLayer
370
-1
48
1
60
0
100
AcDbLine
10
76.19
20
0
30
0
11
76.607997
21
3.175002
31
0
39
0
210
0
220
0
230
1
0
LINE
5
11E
100
AcDbEntity
8
2
62
256
6
ByLayer
370
-1
48
1
60
0
100
AcDbLine
10
75.772003
20
3.174998
30
0
11
76.607997
21
3.175002
31
0
39
0
210
0
220
0
230
1
0
ENDBLK
5
120
100
AcDbEntity
8
0
100
AcDbBlockEnd
0
BLOCK
5
123
100
AcDbEntity
8
0
100
AcDbBlockBegin
2
_CLOSED
70
0
10
0
20
0
30
0
3
_CLOSED
0
LINE
5
125
100
AcDbEntity
8
0
62
256
6
ByLayer
370
-2
48
1
60
0
100
AcDbLine
10
-1
20
0.166667
30
0
11
0
21
0
31
0
39
0
210
0
220
0
230
1
0
LINE
5
126
100
AcDbEntity
8
0
62
256
6
ByLayer
370
-2
48
1
60
0
100
AcDbLine
10
0
20
0
30
0
11
-1
21
-0.166667
31
0
39
0
210
0
220
0
230
1
0
LINE
5
127
100
AcDbEntity
8
0
62
256
6
ByLayer
370
-2
48
1
60
0
100
AcDbLine
10
-1
20
0.166667
30
0
11
-1
21
-0.166667
31
0
39
0
210
0
220
0
230
1
0
LINE
5
128
100
AcDbEntity
8
0
62
256
6
ByLayer
370
-2
48
1
60
0
100
AcDbLine
10
0
20
0
30
0
11
-1
21
0
31
0
39
0
210
0
220
0
230
1
0
ENDBLK
5
124
100
AcDbEntity
8
0
100
AcDbBlockEnd
0
BLOCK
5
135
100
AcDbEntity
8
0
100
AcDbBlockBegin
2
DimnDraft3D2
70
0
10
0
20
0
30
0
3
DimnDraft3D2
0
MTEXT
5
12A
100
AcDbEntity
8
SK2
62
256
6
ByLayer
370
-1
48
1
60
0
100
AcDbMText
10
-148.185
20
-3.096711
30
0
210
0
220
0
230
1
1
\W01.000;\fsimplex.shx,bigfont.shx;%%c16 
40
4.5
41
0
44
1.084337
50
90
71
7
72
5
7
DEFAULT
0
LINE
5
12C
100
AcDbEntity
8
SK2
62
256
6
ByLayer
370
-1
48
1
60
0
100
AcDbLine
10
-139.31
20
-7.9925
30
0
11
-149.06
21
-7.9925
31
0
39
0
210
0
220
0
230
1
0
LINE
5
12D
100
AcDbEntity
8
SK2
62
256
6
ByLayer
370
-1
48
1
60
0
100
AcDbLine
10
-139.31
20
7.9925
30
0
11
-149.06
21
7.9925
31
0
39
0
210
0
220
0
230
1
0
LINE
5
12E
100
AcDbEntity
8
SK2
62
256
6
ByLayer
370
-1
48
1
60
0
100
AcDbLine
10
-147.06
20
-19.2425
30
0
11
-147.06
21
19.2425
31
0
39
0
210
0
220
0
230
1
0
LINE
5
12F
100
AcDbEntity
8
SK2
62
256
6
ByLayer
370
-1
48
1
60
0
100
AcDbLine
10
-147.06
20
-7.9925
30
0
11
-146.642003
21
-11.167498
31
0
39
0
210
0
220
0
230
1
0
LINE
5
130
100
AcDbEntity
8
SK2
62
256
6
ByLayer
370
-1
48
1
60
0
100
AcDbLine
10
-147.06
20
-7.9925
30
0
11
-147.477997
21
-11.167502
31
0
39
0
210
0
220
0
230
1
0
LINE
5
131
100
AcDbEntity
8
SK2
62
256
6
ByLayer
370
-1
48
1
60
0
100
AcDbLine
10
-146.642003
20
-11.167498
30
0
11
-147.477997
21
-11.167502
31
0
39
0
210
0
220
0
230
1
0
LINE
5
132
100
AcDbEntity
8
SK2
62
256
6
ByLayer
370
-1
48
1
60
0
100
AcDbLine
10
-147.06
20
7.9925
30
0
11
-147.477997
21
11.167498
31
0
39
0
210
0
220
0
230
1
0
LINE
5
133
100
AcDbEntity
8
SK2
62
256
6
ByLayer
370
-1
48
1
60
0
100
AcDbLine
10
-147.06
20
7.9925
30
0
11
-146.642003
21
11.167502
31
0
39
0
210
0
220
0
230
1
0
LINE
5
134
100
AcDbEntity
8
SK2
62
256
6
ByLayer
370
-1
48
1
60
0
100
AcDbLine
10
-147.477997
20
11.167498
30
0
11
-146.642003
21
11.167502
31
0
39
0
210
0
220
0
230
1
0
ENDBLK
5
136
100
AcDbEntity
8
0
100
AcDbBlockEnd
0
BLOCK
5
143
100
AcDbEntity
8
0
100
AcDbBlockBegin
2
DimnDraft3D3
70
0
10
0
20
0
30
0
3
DimnDraft3D3
0
MTEXT
5
139
100
AcDbEntity
8
SK2
62
256
6
ByLayer
370
-1
48
1
60
0
100
AcDbMText
10
-42.375132
20
26.775
30
0
210
0
220
0
230
1
1
\W01.000;\fsimplex.shx,bigfont.shx;200.0 
40
4.5
41
0
44
1.084337
50
0
71
7
72
5
7
DEFAULT
0
LINE
5
13A
100
AcDbEntity
8
SK2
62
256
6
ByLayer
370
-1
48
1
60
0
100
AcDbLine
10
63.94
20
14.9
30
0
11
63.94
21
27.65
31
0
39
0
210
0
220
0
230
1
0
LINE
5
13B
100
AcDbEntity
8
SK2
62
256
6
ByLayer
370
-1
48
1
60
0
100
AcDbLine
10
-137.31
20
9.9925
30
0
11
-137.31
21
27.65
31
0
39
0
210
0
220
0
230
1
0
LINE
5
13C
100
AcDbEntity
8
SK2
62
256
6
ByLayer
370
-1
48
1
60
0
100
AcDbLine
10
63.94
20
25.65
30
0
11
-137.31
21
25.65
31
0
39
0
210
0
220
0
230
1
0
LINE
5
13D
100
AcDbEntity
8
SK2
62
256
6
ByLayer
370
-1
48
1
60
0
100
AcDbLine
10
63.94
20
25.65
30
0
11
60.765002
21
25.232003
31
0
39
0
210
0
220
0
230
1
0
LINE
5
13E
100
AcDbEntity
8
SK2
62
256
6
ByLayer
370
-1
48
1
60
0
100
AcDbLine
10
63.94
20
25.65
30
0
11
60.764998
21
26.067997
31
0
39
0
210
0
220
0
230
1
0
LINE
5
13F
100
AcDbEntity
8
SK2
62
256
6
ByLayer
370
-1
48
1
60
0
100
AcDbLine
10
60.765002
20
25.232003
30
0
11
60.764998
21
26.067997
31
0
39
0
210
0
220
0
230
1
0
LINE
5
140
100
AcDbEntity
8
SK2
62
256
6
ByLayer
370
-1
48
1
60
0
100
AcDbLine
10
-137.31
20
25.65
30
0
11
-134.135002
21
26.067997
31
0
39
0
210
0
220
0
230
1
0
LINE
5
141
100
AcDbEntity
8
SK2
62
256
6
ByLayer
370
-1
48
1
60
0
100
AcDbLine
10
-137.31
20
25.65
30
0
11
-134.134998
21
25.232003
31
0
39
0
210
0
220
0
230
1
0
LINE
5
142
100
AcDbEntity
8
SK2
62
256
6
ByLayer
370
-1
48
1
60
0
100
AcDbLine
10
-134.135002
20
26.067997
30
0
11
-134.134998
21
25.232003
31
0
39
0
210
0
220
0
230
1
0
ENDBLK
5
144
100
AcDbEntity
8
0
100
AcDbBlockEnd
0
BLOCK
5
151
100
AcDbEntity
8
0
100
AcDbBlockBegin
2
DimnDraft3D4
70
0
10
0
20
0
30
0
3
DimnDraft3D4
0
MTEXT
5
147
100
AcDbEntity
8
2
62
256
6
ByLayer
370
-1
48
1
60
0
100
AcDbMText
10
90.986196
20
-36.834311
30
0
210
0
220
0
230
1
1
\W01.000;\fsimplex.shx,bigfont.shx;93%%d0' 
40
4.5
41
0
44
1.084337
50
43.5
71
7
72
5
7
DEFAULT
0
LINE
5
148
100
AcDbEntity
8
2
62
256
6
ByLayer
370
-1
48
1
60
0
100
AcDbLine
10
63.259633
20
-0.082184
30
0
11
60.703329
21
-48.859355
31
0
39
0
210
0
220
0
230
1
0
LINE
5
149
100
AcDbEntity
8
2
62
256
6
ByLayer
370
-1
48
1
60
0
100
AcDbLine
10
65.94
20
0
30
0
11
112.190347
21
0
31
0
39
0
210
0
220
0
230
1
0
ARC
5
14A
100
AcDbEntity
8
2
62
256
6
ByLayer
370
-1
48
1
60
0
100
AcDbCircle
39
0
10
63.26394
20
0
30
0
40
46.9264068782928
210
0
220
0
230
1
100
AcDbArc
50
267
51
0
0
LINE
5
14B
100
AcDbEntity
8
2
62
256
6
ByLayer
370
-1
48
1
60
0
100
AcDbLine
10
60.808001
20
-46.862096
30
0
11
63.99582
21
-46.556897
31
0
39
0
210
0
220
0
230
1
0
LINE
5
14C
100
AcDbEntity
8
2
62
256
6
ByLayer
370
-1
48
1
60
0
100
AcDbLine
10
60.808001
20
-46.862096
30
0
11
63.966192
21
-47.392365
31
0
39
0
210
0
220
0
230
1
0
LINE
5
14D
100
AcDbEntity
8
2
62
256
6
ByLayer
370
-1
48
1
60
0
100
AcDbLine
10
63.99582
20
-46.556897
30
0
11
63.966192
21
-47.392365
31
0
39
0
210
0
220
0
230
1
0
LINE
5
14E
100
AcDbEntity
8
2
62
256
6
ByLayer
370
-1
48
1
60
0
100
AcDbLine
10
110.190347
20
0
30
0
11
110.554602
21
-3.181612
31
0
39
0
210
0
220
0
230
1
0
LINE
5
14F
100
AcDbEntity
8
2
62
256
6
ByLayer
370
-1
48
1
60
0
100
AcDbLine
10
110.190347
20
0
30
0
11
109.718728
21
-3.16748
31
0
39
0
210
0
220
0
230
1
0
LINE
5
150
100
AcDbEntity
8
2
62
256
6
ByLayer
370
-1
48
1
60
0
100
AcDbLine
10
110.554602
20
-3.181612
30
0
11
109.718728
21
-3.16748
31
0
39
0
210
0
220
0
230
1
0
ENDBLK
5
152
100
AcDbEntity
8
0
100
AcDbBlockEnd
0
ENDSEC
0
SECTION
2
ENTITIES
0
ELLIPSE
5
98
100
AcDbEntity
8
1
62
256
6
ByLayer
370
-1
48
1
60
0
100
AcDbEllipse
10
66.10385
20
3.149423
30
0
11
-3.19561451121458
21
0.167475059977446
31
0
210
0
220
0
230
1
40
0.993641
41
0.340116157117108
42
0.488979867887273
0
ELLIPSE
5
99
100
AcDbEntity
8
1
62
256
6
ByLayer
370
-1
48
1
60
0
100
AcDbEllipse
10
56.447006
20
-2.951226
30
0
11
1.57020999270467
21
1.53741156117956
31
0
210
0
220
0
230
-1
40
0.119014
41
-2.25533183824777
42
-1.98288529802331
0
ELLIPSE
5
9A
100
AcDbEntity
8
1
62
256
6
ByLayer
370
-1
48
1
60
0
100
AcDbEllipse
10
56.36444
20
-4.526676
30
0
11
-1.49794430213186
21
0.078503934364429
31
0
210
0
220
0
230
1
40
0.993641
41
2.88876858954605
42
-2.96162262860129
0
ELLIPSE
5
9B
100
AcDbEntity
8
1
62
256
6
ByLayer
370
-1
48
1
60
0
100
AcDbEllipse
10
270.827686
20
-0.001147
30
0
11
1373.0292286135
21
-0.910215822007391
31
0
210
0
220
0
230
-1
40
0.005855
41
1.72484199905973
42
1.7285081030115
0
ELLIPSE
5
9C
100
AcDbEntity
8
1
62
256
6
ByLayer
370
-1
48
1
60
0
100
AcDbEllipse
10
55.640978
20
7.039582
30
0
11
-3.19561451121462
21
0.167475059977448
31
0
210
0
220
0
230
1
40
0.993641
41
1.86575458680828
42
2.11331267260762
0
ELLIPSE
5
9D
100
AcDbEntity
8
1
62
256
6
ByLayer
370
-1
48
1
60
0
100
AcDbEllipse
10
58.403475
20
0
30
0
11
7.90913906048655
21
-7.90356976322666
31
0
210
0
220
0
230
-1
40
0.059356
41
-3.08227535023997
42
-3.0294927735542
0
ELLIPSE
5
9E
100
AcDbEntity
8
1
62
256
6
ByLayer
370
-1
48
1
60
0
100
AcDbEllipse
10
56.628059
20
4.932612
30
0
11
0.998629534754574
21
-0.0523359562429613
31
0
210
0
220
0
230
1
40
0.993641
41
-2.26648546751018
42
-1.8762289458939
0
ELLIPSE
5
9F
100
AcDbEntity
8
1
62
256
6
ByLayer
370
-1
48
1
60
0
100
AcDbEllipse
10
56.345288
20
-4.892121
30
0
11
1.49794430213186
21
-0.0785039343644419
31
0
210
0
220
0
230
1
40
0.993641
41
1.35290677813912
42
3.01853990120889
0
ELLIPSE
5
A0
100
AcDbEntity
8
1
62
256
6
ByLayer
370
-1
48
1
60
0
100
AcDbEllipse
10
56.345288
20
-4.892121
30
0
11
1.49794430213186
21
-0.0785039343644419
31
0
210
0
220
0
230
1
40
0.993641
41
0.123071078043399
42
0.358396182372767
0
ELLIPSE
5
A1
100
AcDbEntity
8
1
62
256
6
ByLayer
370
-1
48
1
60
0
100
AcDbEllipse
10
51.13843
20
8.761735
30
0
11
16.6501794759979
21
-16.5974840448009
31
0
210
0
220
0
230
-1
40
0.042042
41
1.53308002347201
42
1.56144006810639
0
ELLIPSE
5
A2
100
AcDbEntity
8
1
62
256
6
ByLayer
370
-1
48
1
60
0
100
AcDbEllipse
10
56.36444
20
-4.526665
30
0
11
-1.49794430213186
21
0.078503934364429
31
0
210
0
220
0
230
1
40
0.993641
41
-1.03001670246272
42
2.888768589546
0
ELLIPSE
5
A3
100
AcDbEntity
8
1
62
256
6
ByLayer
370
-1
48
1
60
0
100
AcDbEllipse
10
56.347056
20
-4.858387
30
0
11
1.49794430213185
21
-0.0785039343644413
31
0
210
0
220
0
230
1
40
0.993641
41
1.35282983917302
42
2.38402249144638
0
ELLIPSE
5
A4
100
AcDbEntity
8
1
62
256
6
ByLayer
370
-1
48
1
60
0
100
AcDbEllipse
10
56.347056
20
-4.858387
30
0
11
1.49794430213185
21
-0.0785039343644413
31
0
210
0
220
0
230
1
40
0.993641
41
0.190506219572855
42
0.342612610116771
0
ELLIPSE
5
A5
100
AcDbEntity
8
1
62
256
6
ByLayer
370
-1
48
1
60
0
100
AcDbEllipse
10
55.658363
20
7.371305
30
0
11
-3.19561451121462
21
0.167475059977448
31
0
210
0
220
0
230
1
40
0.993641
41
0.837758040957294
42
1.7134938262958
0
ELLIPSE
5
A6
100
AcDbEntity
8
1
62
256
6
ByLayer
370
-1
48
1
60
0
100
AcDbEllipse
10
56.417348
20
-3.517125
30
0
11
0.767638136099382
21
-3.06399022847935
31
0
210
0
220
0
230
-1
40
0.39055
41
-1.18472397508545
42
-1.0951547270693
0
ELLIPSE
5
A7
100
AcDbEntity
8
1
62
256
6
ByLayer
370
-1
48
1
60
0
100
AcDbEllipse
10
63.039376
20
2.893411
30
0
11
0.396331096605667
21
-0.0207708326339224
31
0
210
0
220
0
230
1
40
0.993641
41
-0.610865238198018
42
4.95495428238385E-14
0
ELLIPSE
5
A8
100
AcDbEntity
8
1
62
256
6
ByLayer
370
-1
48
1
60
0
100
AcDbEllipse
10
59.466478
20
3.654208
30
0
11
-0.184746463929596
21
0.00968215190494624
31
0
210
0
220
0
230
1
40
0.993641
41
-1.08251881899102
42
-0.410887210718105
0
ELLIPSE
5
A9
100
AcDbEntity
8
1
62
256
6
ByLayer
370
-1
48
1
60
0
100
AcDbEllipse
10
59.209999
20
4.201039
30
0
11
-0.42142166366643
21
0.022085773534526
31
0
210
0
220
0
230
1
40
0.993641
41
2.05907383459865
42
2.76924671217461
0
ELLIPSE
5
AA
100
AcDbEntity
8
1
62
256
6
ByLayer
370
-1
48
1
60
0
100
AcDbEllipse
10
59.764327
20
4.446406
30
0
11
-0.184746463929596
21
0.00968215190494624
31
0
210
0
220
0
230
1
40
0.993641
41
-2.12795888797811
42
-0.285646378183108
0
ELLIPSE
5
AB
100
AcDbEntity
8
1
62
256
6
ByLayer
370
-1
48
1
60
0
100
AcDbEllipse
10
60.111648
20
4.940827
30
0
11
-0.42142166366643
21
0.022085773534526
31
0
210
0
220
0
230
1
40
0.993641
41
1.01363376561177
42
1.78853349346427
0
ELLIPSE
5
AC
100
AcDbEntity
8
1
62
256
6
ByLayer
370
-1
48
1
60
0
100
AcDbEllipse
10
60.602045
20
4.585068
30
0
11
-0.184746463929596
21
0.00968215190494624
31
0
210
0
220
0
230
1
40
0.993641
41
-3.08233673142957
42
-0.578159432272859
0
ELLIPSE
5
AD
100
AcDbEntity
8
1
62
256
6
ByLayer
370
-1
48
1
60
0
100
AcDbEllipse
10
61.206857
20
4.533621
30
0
11
-0.42142166366643
21
0.022085773534526
31
0
210
0
220
0
230
1
40
0.993641
41
1.01375319571494E-05
42
0.742193921927469
0
ELLIPSE
5
AE
100
AcDbEntity
8
1
62
256
6
ByLayer
370
-1
48
1
60
0
100
AcDbEllipse
10
61.1428
20
3.933882
30
0
11
-0.184746463929596
21
0.00968215190494624
31
0
210
0
220
0
230
1
40
0.993641
41
-2.85155539967557
42
-1.62449900380964
0
ELLIPSE
5
AF
100
AcDbEntity
8
1
62
256
6
ByLayer
370
-1
48
1
60
0
100
AcDbEllipse
10
60.304639
20
3.794045
30
0
11
-0.746974891996416
21
0.0391472952697283
31
0
210
0
220
0
230
1
40
0.993641
41
2.09172315730053
42
2.75372496495179
0
ELLIPSE
5
B0
100
AcDbEntity
8
1
62
256
6
ByLayer
370
-1
48
1
60
0
100
AcDbEllipse
10
60.309555
20
3.887858
30
0
11
0.746974891996415
21
-0.0391472952697347
31
0
210
0
220
0
230
1
40
0.993641
41
2.79842868257339
42
2.87389138640812
0
ELLIPSE
5
B1
100
AcDbEntity
8
1
62
256
6
ByLayer
370
-1
48
1
60
0
100
AcDbEllipse
10
60.310532
20
3.90649
30
0
11
1.03358156847098
21
-0.0541677147114647
31
0
210
0
220
0
230
1
40
0.993641
41
-1.87622894589399
42
-0.829889374357323
0
ELLIPSE
5
B2
100
AcDbEntity
8
1
62
256
6
ByLayer
370
-1
48
1
60
0
100
AcDbEllipse
10
61.399279
20
3.387051
30
0
11
-0.42142166366643
21
0.022085773534526
31
0
210
0
220
0
230
1
40
0.993641
41
9.67767858520342E-06
42
0.471653580792789
0
ELLIPSE
5
B3
100
AcDbEntity
8
1
62
256
6
ByLayer
370
-1
48
1
60
0
100
AcDbEllipse
10
60.310532
20
3.90649
30
0
11
1.03358156847098
21
-0.0541677147114647
31
0
210
0
220
0
230
1
40
0.993641
41
-2.92256851743062
42
-1.87622894589399
0
ELLIPSE
5
B4
100
AcDbEntity
8
1
62
256
6
ByLayer
370
-1
48
1
60
0
100
AcDbEllipse
10
60.304639
20
3.794045
30
0
11
-0.746974891996416
21
0.0391472952697283
31
0
210
0
220
0
230
1
40
0.993641
41
0.889449206935997
42
1.51735113427375
0
ELLIPSE
5
B5
100
AcDbEntity
8
1
62
256
6
ByLayer
370
-1
48
1
60
0
100
AcDbEllipse
10
60.309555
20
3.887858
30
0
11
0.746974891996415
21
-0.0391472952697347
31
0
210
0
220
0
230
1
40
0.993641
41
-0.343163971015659
42
-0.267701267182455
0
ELLIPSE
5
B6
100
AcDbEntity
8
1
62
256
6
ByLayer
370
-1
48
1
60
0
100
AcDbEllipse
10
60.304639
20
3.794045
30
0
11
-0.746974891996416
21
0.0391472952697283
31
0
210
0
220
0
230
1
40
0.993641
41
-2.39939873166225
42
-1.35305916012554
0
ELLIPSE
5
B7
100
AcDbEntity
8
1
62
256
6
ByLayer
370
-1
48
1
60
0
100
AcDbEllipse
10
60.304639
20
3.794045
30
0
11
0.74697489199642
21
-0.039147295269735
31
0
210
0
220
0
230
1
40
0.993641
41
-0.0714666414672245
42
0.742193921927509
0
ELLIPSE
5
B8
100
AcDbEntity
8
1
62
256
6
ByLayer
370
-1
48
1
60
0
100
AcDbEllipse
10
60.310532
20
3.90649
30
0
11
1.03358156847098
21
-0.0541677147114647
31
0
210
0
220
0
230
1
40
0.993641
41
2.31170327923251
42
-2.92256851743062
0
ELLIPSE
5
B9
100
AcDbEntity
8
1
62
256
6
ByLayer
370
-1
48
1
60
0
100
AcDbEllipse
10
60.111648
20
4.940827
30
0
11
-0.42142166366643
21
0.022085773534526
31
0
210
0
220
0
230
1
40
0.993641
41
1.78853349346427
42
2.5634332213167
0
ELLIPSE
5
BA
100
AcDbEntity
8
1
62
256
6
ByLayer
370
-1
48
1
60
0
100
AcDbEllipse
10
60.310532
20
3.90649
30
0
11
1.03358156847098
21
-0.0541677147114647
31
0
210
0
220
0
230
1
40
0.993641
41
-0.829889374357323
42
0.21902413615916
0
ELLIPSE
5
BB
100
AcDbEntity
8
1
62
256
6
ByLayer
370
-1
48
1
60
0
100
AcDbEllipse
10
60.304639
20
3.794045
30
0
11
0.74697489199642
21
-0.039147295269735
31
0
210
0
220
0
230
1
40
0.993641
41
2.7984286825737
42
2.87389138640779
0
ELLIPSE
5
BC
100
AcDbEntity
8
1
62
256
6
ByLayer
370
-1
48
1
60
0
100
AcDbEllipse
10
60.310532
20
3.90649
30
0
11
1.03358156847098
21
-0.0541677147114647
31
0
210
0
220
0
230
1
40
0.993641
41
0.21902413615916
42
1.26536370769586
0
ELLIPSE
5
BD
100
AcDbEntity
8
1
62
256
6
ByLayer
370
-1
48
1
60
0
100
AcDbEllipse
10
59.209999
20
4.201039
30
0
11
-0.42142166366643
21
0.022085773534526
31
0
210
0
220
0
230
1
40
0.993641
41
2.9030733568069
42
-3.14158327691066
0
ELLIPSE
5
BE
100
AcDbEntity
8
1
62
256
6
ByLayer
370
-1
48
1
60
0
100
AcDbEllipse
10
60.304639
20
3.794045
30
0
11
-0.746974891996416
21
0.0391472952697283
31
0
210
0
220
0
230
1
40
0.993641
41
-0.267701267181977
42
0.454515537039543
0
ELLIPSE
5
BF
100
AcDbEntity
8
1
62
256
6
ByLayer
370
-1
48
1
60
0
100
AcDbEllipse
10
60.310532
20
3.90649
30
0
11
1.03358156847098
21
-0.0541677147114647
31
0
210
0
220
0
230
1
40
0.993641
41
1.26536370769586
42
2.31170327923251
0
ELLIPSE
5
C0
100
AcDbEntity
8
1
62
256
6
ByLayer
370
-1
48
1
60
0
100
AcDbEllipse
10
60.304639
20
3.794045
30
0
11
-0.746974891996416
21
0.0391472952697283
31
0
210
0
220
0
230
1
40
0.993641
41
-1.35305916012554
42
-0.343163971016071
0
ELLIPSE
5
C1
100
AcDbEntity
8
1
62
256
6
ByLayer
370
-1
48
1
60
0
100
AcDbEllipse
10
61.206857
20
4.533621
30
0
11
-0.42142166366643
21
0.022085773534526
31
0
210
0
220
0
230
1
40
0.993641
41
0.742193921927469
42
1.51709364977988
0
ELLIPSE
5
C2
100
AcDbEntity
8
1
62
256
6
ByLayer
370
-1
48
1
60
0
100
AcDbEllipse
10
60.310532
20
3.90649
30
0
11
1.29821839518096
21
-0.0680367431158504
31
0
210
0
220
0
230
1
40
0.993641
41
0
42
6.28318530717959
0
ELLIPSE
5
C3
100
AcDbEntity
8
1
62
256
6
ByLayer
370
-1
48
1
60
0
100
AcDbEllipse
10
60.309507
20
3.886932
30
0
11
1.72263594745164
21
-0.0902795245191082
31
0
210
0
220
0
230
1
40
0.993641
41
0
42
6.28318530717959
0
ELLIPSE
5
C4
100
AcDbEntity
8
1
62
256
6
ByLayer
370
-1
48
1
60
0
100
AcDbEllipse
10
60.305228
20
3.805289
30
0
11
1.72263594745165
21
-0.0902795245191087
31
0
210
0
220
0
230
1
40
0.993641
41
3.14154673135966
42
-2.59090577183242E-16
0
ELLIPSE
5
C5
100
AcDbEntity
8
1
62
256
6
ByLayer
370
-1
48
1
60
0
100
AcDbEllipse
10
57.078088
20
-4.689675
30
0
11
0.396331096605754
21
-0.020770832633927
31
0
210
0
220
0
230
1
40
0.993641
41
3.14159265358961
42
-0.610865238198044
0
ELLIPSE
5
C6
100
AcDbEntity
8
1
62
256
6
ByLayer
370
-1
48
1
60
0
100
AcDbEllipse
10
63.543132
20
12.505642
30
0
11
0.396331096605754
21
-0.020770832633927
31
0
210
0
220
0
230
1
40
0.993641
41
0
42
2.53072741539171
0
ELLIPSE
5
C7
100
AcDbEntity
8
1
62
256
6
ByLayer
370
-1
48
1
60
0
100
AcDbEllipse
10
57.581844
20
4.922555
30
0
11
0.396331096605667
21
-0.0207708326339224
31
0
210
0
220
0
230
1
40
0.993641
41
2.53072741539169
42
3.14159265358974
0
ELLIPSE
5
C8
100
AcDbEntity
8
1
62
256
6
ByLayer
370
-1
48
1
60
0
100
AcDbEllipse
10
60.31061
20
3.907983
30
0
11
-1.90207913049532
21
0.0996837432498945
31
0
210
0
220
0
230
1
40
0.993641
41
0
42
6.28318530717959
0
ELLIPSE
5
C9
100
AcDbEntity
8
1
62
256
6
ByLayer
370
-1
48
1
60
0
100
AcDbEllipse
10
60.30597
20
3.819442
30
0
11
-1.79894586426112
21
0.0942787577963526
31
0
210
0
220
0
230
1
40
0.993641
41
0
42
6.28318530717959
0
ELLIPSE
5
CA
100
AcDbEntity
8
1
62
256
6
ByLayer
370
-1
48
1
60
0
100
AcDbEllipse
10
60.307443
20
3.847544
30
0
11
1.87864353036255
21
-0.0984555354907866
31
0
210
0
220
0
230
1
40
0.993641
41
-0.395493919999469
42
-2.37575002755161E-16
0
ELLIPSE
5
CB
100
AcDbEntity
8
1
62
256
6
ByLayer
370
-1
48
1
60
0
100
AcDbEllipse
10
60.307443
20
3.847544
30
0
11
1.87864353036255
21
-0.0984555354907866
31
0
210
0
220
0
230
1
40
0.993641
41
0
42
0.0526943898393384
0
ELLIPSE
5
CC
100
AcDbEntity
8
1
62
256
6
ByLayer
370
-1
48
1
60
0
100
AcDbEllipse
10
60.307443
20
3.847544
30
0
11
1.87864353036255
21
-0.0984555354907866
31
0
210
0
220
0
230
1
40
0.993641
41
0.0526942246172401
42
-2.74609240257434
0
POINT
5
41
100
AcDbEntity
8
80
62
256
6
ByLayer
370
-1
48
1
60
0
100
AcDbPoint
10
0
20
0
30
0
39
0
210
0
220
0
230
1
50
360
0
POINT
5
43
100
AcDbEntity
8
81
62
256
6
ByLayer
370
-1
48
1
60
0
100
AcDbPoint
10
63.94
20
12.9
30
0
39
0
210
0
220
0
230
1
50
360
0
POINT
5
45
100
AcDbEntity
8
1
62
256
6
ByLayer
370
-1
48
1
60
0
100
AcDbPoint
10
-137.31
20
0
30
0
39
0
210
0
220
0
230
1
50
360
0
POINT
5
47
100
AcDbEntity
8
2
62
256
6
ByLayer
370
-1
48
1
60
0
100
AcDbPoint
10
63.94
20
12.9
30
0
39
0
210
0
220
0
230
1
50
360
0
POINT
5
49
100
AcDbEntity
8
2
62
256
6
ByLayer
370
-1
48
1
60
0
100
AcDbPoint
10
63.721723
20
11.673933
30
0
39
0
210
0
220
0
230
1
50
360
0
SPLINE
5
CD
100
AcDbEntity
8
1
62
256
6
ByLayer
370
-1
48
1
60
0
100
AcDbSpline
70
4
71
3
72
8
73
4
40
0
40
0
40
0
40
0
40
1
40
1
40
1
40
1
41
1
10
51.6156792149992
20
-7.46389962232794
30
0
41
1
10
51.6736980303931
20
-7.52727491087745
30
0
41
1
10
51.7318267743573
20
-7.59056513887319
30
0
41
1
10
51.7900578345952
20
-7.65377516086056
30
0
0
SPLINE
5
CE
100
AcDbEntity
8
1
62
256
6
ByLayer
370
-1
48
1
60
0
100
AcDbSpline
70
4
71
3
72
8
73
4
40
0
40
0
40
0
40
0
40
1
40
1
40
1
40
1
41
1
10
49.7656792149999
20
7.90331693199911
30
0
41
1
10
49.7406817767175
20
7.92841705280367
30
0
41
1
10
49.7156817204263
20
7.95351618026041
30
0
41
1
10
49.6906792149998
20
7.97861428287163
30
0
0
SPLINE
5
CF
100
AcDbEntity
8
1
62
256
6
ByLayer
370
-1
48
1
60
0
100
AcDbSpline
70
4
71
3
72
14
73
10
40
0
40
0
40
0
40
0
40
0.25
40
0.25
40
0.5
40
0.5
40
0.75
40
0.75
40
1
40
1
40
1
40
1
41
1
10
42.2945468948502
20
0.208217351629912
30
0
41
1
10
41.8901577026556
20
1.51535502360514
30
0
41
1
10
41.6053409818031
20
2.86773372205479
30
0
41
1
10
41.5909060833962
20
5.26697820781052
30
0
41
1
10
41.9140500488959
20
6.2437927776499
30
0
41
1
10
43.403419694882
20
7.45083539206325
30
0
41
1
10
44.5049816198759
20
7.70006910340743
30
0
41
1
10
46.9746620094466
20
7.95639650433384
30
0
41
1
10
48.3093609764845
20
7.96996933259595
30
0
41
1
10
49.6906792149999
20
7.97861428287172
30
0
0
SPLINE
5
D0
100
AcDbEntity
8
1
62
256
6
ByLayer
370
-1
48
1
60
0
100
AcDbSpline
70
4
71
3
72
8
73
4
40
0
40
0
40
0
40
0
40
1
40
1
40
1
40
1
41
1
10
51.7896792767932
20
-8.0915
30
0
41
1
10
51.7897901633295
20
-8.0915
30
0
41
1
10
51.7899169817509
20
-7.94485744387003
30
0
41
1
10
51.7900578345952
20
-7.65377516086056
30
0
0
SPLINE
5
D1
100
AcDbEntity
8
1
62
256
6
ByLayer
370
-1
48
1
60
0
100
AcDbSpline
70
4
71
3
72
8
73
4
40
0
40
0
40
0
40
0
40
1
40
1
40
1
40
1
41
1
10
49.6906792149999
20
-7.25596601363696
30
0
41
1
10
49.7156617317978
20
-7.23634303493719
30
0
41
1
10
49.740662099687
20
-7.21662988085595
30
0
41
1
10
49.7656792149999
20
-7.19682873575312
30
0
0
SPLINE
5
D2
100
AcDbEntity
8
1
62
256
6
ByLayer
370
-1
48
1
60
0
100
AcDbSpline
70
4
71
3
72
8
73
4
40
0
40
0
40
0
40
0
40
1
40
1
40
1
40
1
41
1
10
49.7656792149999
20
-7.19682873575306
30
0
41
1
10
50.3618983800224
20
-7.31544653508229
30
0
41
1
10
50.9823881995088
20
-7.40113500871294
30
0
41
1
10
51.6156792149999
20
-7.46389962232726
30
0
0
SPLINE
5
D3
100
AcDbEntity
8
1
62
256
6
ByLayer
370
-1
48
1
60
0
100
AcDbSpline
70
4
71
3
72
12
73
8
40
0
40
0
40
0
40
0
40
0.280430014583111
40
0.280430014583111
40
0.690378970565272
40
0.690378970565272
40
1
40
1
40
1
40
1
41
1
10
42.4285543503499
20
-0.208217351629202
30
0
41
1
10
42.4228190743405
20
-0.169461379450269
30
0
41
1
10
42.4147135924812
20
-0.129274385108062
30
0
41
1
10
42.3899513504219
20
-0.030719183805644
30
0
41
1
10
42.3707528023113
20
0.0286352803433942
30
0
41
1
10
42.3322483779293
20
0.127524830481946
30
0
41
1
10
42.313906418683
20
0.16899361107437
30
0
41
1
10
42.2945468948502
20
0.208217351629912
30
0
0
SPLINE
5
D4
100
AcDbEntity
8
1
62
256
6
ByLayer
370
-1
48
1
60
0
100
AcDbSpline
70
4
71
3
72
10
73
6
40
0
40
0
40
0
40
0
40
0.5
40
0.5
40
1
40
1
40
1
40
1
41
1
10
49.6906792149999
20
-7.25596601363753
30
0
41
1
10
47.9089863218508
20
-6.89187839894336
30
0
41
1
10
46.3697251870893
20
-6.20746750877976
30
0
41
1
10
43.94879311372
20
-3.80524813619331
30
0
41
1
10
43.0492838362919
20
-2.06463971456785
30
0
41
1
10
42.4285543503499
20
-0.208217351629202
30
0
0
SPLINE
5
D5
100
AcDbEntity
8
1
62
256
6
ByLayer
370
-1
48
1
60
0
100
AcDbSpline
70
4
71
3
72
8
73
4
40
0
40
0
40
0
40
0
40
1
40
1
40
1
40
1
41
1
10
50.5964578346334
20
7.90647818843127
30
0
41
1
10
50.3190580042803
20
7.90598360303454
30
0
41
1
10
50.0418127461683
20
7.9049973265152
30
0
41
1
10
49.7656792149999
20
7.90331693199911
30
0
0
SPLINE
5
D6
100
AcDbEntity
8
1
62
256
6
ByLayer
370
-1
48
1
60
0
100
AcDbSpline
70
4
71
3
72
8
73
4
40
0
40
0
40
0
40
0
40
1
40
1
40
1
40
1
41
1
10
55.1761072143266
20
-7.79740576994283
30
0
41
1
10
54.0209065131311
20
-7.7955643222009
30
0
41
1
10
52.892544061957
20
-7.75591978378287
30
0
41
1
10
51.7900578345952
20
-7.65377516086059
30
0
0
SPLINE
5
D7
100
AcDbEntity
8
1
62
256
6
ByLayer
370
-1
48
1
60
0
100
AcDbSpline
70
4
71
3
72
28
73
24
40
-0.124999999999995
40
-0.124999999999995
40
0
40
0
40
0.125000000000002
40
0.125000000000002
40
0.187500000000002
40
0.187500000000002
40
0.250000000000003
40
0.250000000000003
40
0.375000000000005
40
0.375000000000005
40
0.500000000000006
40
0.500000000000006
40
0.625000000000008
40
0.625000000000008
40
0.687500000000011
40
0.687500000000011
40
0.718750000000011
40
0.718750000000011
40
0.75000000000001
40
0.75000000000001
40
0.875000000000005
40
0.875000000000005
40
1
40
1
40
1.125
40
1.125
41
1
10
47.0995690299154
20
2.62588867647764
30
0
41
1
10
46.1484972725228
20
2.12728217359415
30
0
41
1
10
45.6450539918898
20
1.95715358184154
30
0
41
1
10
44.8862992643213
20
2.13517815720434
30
0
41
1
10
44.6341564078841
20
2.28393181493482
30
0
41
1
10
44.2725543791106
20
2.77341225099835
30
0
41
1
10
44.1780614276198
20
3.1007326978706
30
0
41
1
10
44.1752640675073
20
3.99697251260682
30
0
41
1
10
44.4789250729593
20
4.45116472262646
30
0
41
1
10
45.2478544580487
20
5.09354155267204
30
0
41
1
10
45.735505786613
20
5.30423891481067
30
0
41
1
10
46.7894279508059
20
5.58957374104727
30
0
41
1
10
47.3653403229119
20
5.67267162433072
30
0
41
1
10
48.2533164328601
20
5.66173413288905
30
0
41
1
10
48.5677958830005
20
5.64907384198582
30
0
41
1
10
48.9984521127672
20
5.45499491163687
30
0
41
1
10
49.1294997357562
20
5.33865781081661
30
0
41
1
10
49.1878698501204
20
5.02671606719619
30
0
41
1
10
49.1368016746713
20
4.87344655691135
30
0
41
1
10
48.8216004235529
20
4.17294718848959
30
0
41
1
10
48.3866045667698
20
3.74691943889096
30
0
41
1
10
47.5472160257333
20
2.96657537338862
30
0
41
1
10
47.0995690299154
20
2.62588867647764
30
0
41
1
10
46.1484972725228
20
2.12728217359415
30
0
0
SPLINE
5
D8
100
AcDbEntity
8
SK1
62
256
6
ByLayer
370
-1
48
1
60
0
100
AcDbSpline
70
4
71
3
72
24
73
20
40
0
40
0
40
0
40
0
40
0.250000000000022
40
0.250000000000022
40
0.375000000000034
40
0.375000000000034
40
0.437500000000044
40
0.437500000000044
40
0.500000000000053
40
0.500000000000053
40
0.531250000000055
40
0.531250000000055
40
0.562500000000057
40
0.562500000000057
40
0.625000000000052
40
0.625000000000052
40
0.750000000000035
40
0.750000000000035
40
1
40
1
40
1
40
1
41
1
10
-48.06
20
-0.208217351629059
30
0
41
1
10
-48.468842020981
20
-0.208217351629059
30
0
41
1
10
-48.8775700421798
20
-0.200628106757165
30
0
41
1
10
-49.4901123303116
20
-0.171073275450709
30
0
41
1
10
-49.6939608358335
20
-0.158342940298127
30
0
41
1
10
-49.9985633625024
20
-0.129106778533071
30
0
41
1
10
-50.0999152849483
20
-0.11778208857757
30
0
41
1
10
-50.3016559370235
20
-0.0867855292194974
30
0
41
1
10
-50.4176642593246
20
-0.0899171685785518
30
0
41
1
10
-50.5369313789907
20
0.013645893418726
30
0
41
1
10
-50.4484711277943
20
0.0489364234136644
30
0
41
1
10
-50.3478903856417
20
0.0766629766365838
30
0
41
1
10
-50.2966456087818
20
0.0864424784148241
30
0
41
1
10
-50.1421535471276
20
0.112538835792321
30
0
41
1
10
-50.0385119130168
20
0.124684589520399
30
0
41
1
10
-49.7273848627499
20
0.156042093009802
30
0
41
1
10
-49.5192790403735
20
0.169368026065086
30
0
41
1
10
-48.8942101016121
20
0.200370771894711
30
0
41
1
10
-48.4771903882063
20
0.208217351629059
30
0
41
1
10
-48.06
20
0.208217351629059
30
0
0
SPLINE
5
D9
100
AcDbEntity
8
1
62
256
6
ByLayer
370
-1
48
1
60
0
100
AcDbSpline
70
4
71
3
72
18
73
14
40
0
40
0
40
0
40
0
40
0.205096947264879
40
0.205096947264879
40
0.38215521556433
40
0.38215521556433
40
0.560948710232844
40
0.560948710232844
40
0.716157042495698
40
0.716157042495698
40
0.920926051680033
40
0.920926051680033
40
1
40
1
40
1
40
1
41
1
10
59.8756748980857
20
4.70189817327883
30
0
41
1
10
59.9097233236736
20
4.67576780855674
30
0
41
1
10
59.948455377421
20
4.65411308445692
30
0
41
1
10
60.026329706163
20
4.62622670271389
30
0
41
1
10
60.0656178510199
20
4.61808235530765
30
0
41
1
10
60.1456190325111
20
4.61440645737176
30
0
41
1
10
60.1875391097292
20
4.61908458379983
30
0
41
1
10
60.2609793830731
20
4.63951630351451
30
0
41
1
10
60.2940320394193
20
4.65391053723334
30
0
41
1
10
60.3630603058301
20
4.69503709756037
30
0
41
1
10
60.397864316279
20
4.72479840216315
30
0
41
1
10
60.4379911411294
20
4.77080934861613
30
0
41
1
10
60.4484551312227
20
4.78432503824249
30
0
41
1
10
60.4580757507539
20
4.79829881096319
30
0
0
SPLINE
5
DA
100
AcDbEntity
8
1
62
256
6
ByLayer
370
-1
48
1
60
0
100
AcDbSpline
70
4
71
3
72
16
73
12
40
0
40
0
40
0
40
0
40
0.105763507073554
40
0.105763507073554
40
0.329969328851983
40
0.329969328851983
40
0.559303916475493
40
0.559303916475493
40
0.804944088309025
40
0.804944088309025
40
1
40
1
40
1
40
1
41
1
10
61.3311156694257
20
4.07676139367362
30
0
41
1
10
61.3296412435576
20
4.08545389466275
30
0
41
1
10
61.3275266413709
20
4.09403354113039
30
0
41
1
10
61.319086934782
20
4.11989521990083
30
0
41
1
10
61.3105242111839
20
4.13654068842754
30
0
41
1
10
61.2891045296249
20
4.16587304305475
30
0
41
1
10
61.275895423938
20
4.17884222774549
30
0
41
1
10
61.2459767149734
20
4.20028480062064
30
0
41
1
10
61.2287231332835
20
4.20865822312641
30
0
41
1
10
61.1969280552918
20
4.21831222153892
30
0
41
1
10
61.1823333032575
20
4.22077975995862
30
0
41
1
10
61.1678153432389
20
4.2214724379354
30
0
0
SPLINE
5
DB
100
AcDbEntity
8
1
62
256
6
ByLayer
370
-1
48
1
60
0
100
AcDbSpline
70
4
71
3
72
14
73
10
40
0
40
0
40
0
40
0
40
0.0413776396285932
40
0.0413776396285932
40
0.37884944043803
40
0.37884944043803
40
0.824095826702407
40
0.824095826702407
40
1
40
1
40
1
40
1
41
1
10
59.6192210777517
20
4.17445731858942
30
0
41
1
10
59.6204815400196
20
4.17866990619584
30
0
41
1
10
59.6216757690477
20
4.18290637208881
30
0
41
1
10
59.6319094695759
20
4.22154576492795
30
0
41
1
10
59.6365969891924
20
4.25755710065718
30
0
41
1
10
59.6375548513428
20
4.33871157441459
30
0
41
1
10
59.6308249811406
20
4.38447555045244
30
0
41
1
10
59.6134625140486
20
4.44381932726978
30
0
41
1
10
59.6075827687391
20
4.46035927649388
30
0
41
1
10
59.6008704380915
20
4.47639010354692
30
0
0
SPLINE
5
DC
100
AcDbEntity
8
1
62
256
6
ByLayer
370
-1
48
1
60
0
100
AcDbSpline
70
4
71
3
72
18
73
14
40
0
40
0
40
0
40
0
40
0.204512928122445
40
0.204512928122445
40
0.381674962342825
40
0.381674962342825
40
0.560579027518475
40
0.560579027518475
40
0.715809808415923
40
0.715809808415923
40
0.920477249286614
40
0.920477249286614
40
1
40
1
40
1
40
1
41
1
10
60.7918709391781
20
4.67419171450396
30
0
41
1
10
60.7882281256068
20
4.63064538889
30
0
41
1
10
60.7906809995516
20
4.58539590249043
30
0
41
1
10
60.8082460938576
20
4.50268529422834
30
0
41
1
10
60.8219252661227
20
4.46407663606095
30
0
41
1
10
60.8600837040025
20
4.39252436992507
30
0
41
1
10
60.8853438144321
20
4.35865079437801
30
0
41
1
10
60.93931118738
20
4.30605380988192
30
0
41
1
10
60.9677270367568
20
4.28524334823746
30
0
41
1
10
61.0359309788518
20
4.24782054025209
30
0
41
1
10
61.0775587355784
20
4.23385775168674
30
0
41
1
10
61.1351845911836
20
4.22400615863862
30
0
41
1
10
61.1515225837608
20
4.22224979478557
30
0
41
1
10
61.1678153432389
20
4.22147243793535
30
0
0
SPLINE
5
DD
100
AcDbEntity
8
1
62
256
6
ByLayer
370
-1
48
1
60
0
100
AcDbSpline
70
4
71
3
72
14
73
10
40
0
40
0
40
0
40
0
40
0.251976195539282
40
0.251976195539282
40
0.543263529023701
40
0.543263529023701
40
0.806828728843291
40
0.806828728843291
40
1
40
1
40
1
40
1
41
1
10
59.8283918708012
20
3.12350511716173
30
0
41
1
10
59.8268620458909
20
3.10602896346256
30
0
41
1
10
59.8281826989779
20
3.08776964399937
30
0
41
1
10
59.8376307184024
20
3.04928738168272
30
0
41
1
10
59.8469969062642
20
3.02858843410471
30
0
41
1
10
59.8722168501192
20
2.9933714243945
30
0
41
1
10
59.8877836803671
20
2.97793956978046
30
0
41
1
10
59.9186690073705
20
2.9565462294793
30
0
41
1
10
59.933230660742
20
2.94894109829679
30
0
41
1
10
59.948395753607
20
2.94330262384261
30
0
0
SPLINE
5
DE
100
AcDbEntity
8
1
62
256
6
ByLayer
370
-1
48
1
60
0
100
AcDbSpline
70
4
71
3
72
16
73
12
40
0
40
0
40
0
40
0
40
0.216303113245254
40
0.216303113245254
40
0.441476533073789
40
0.441476533073789
40
0.677573629096601
40
0.677573629096601
40
0.934570183446827
40
0.934570183446827
40
1
40
1
40
1
40
1
41
1
10
59.2899480476447
20
3.73621765566341
30
0
41
1
10
59.292952630718
20
3.71850408870844
30
0
41
1
10
59.2986784212184
20
3.70087562246638
30
0
41
1
10
59.3148973193254
20
3.66774725838661
30
0
41
1
10
59.3257806263198
20
3.65193853203593
30
0
41
1
10
59.3513941480384
20
3.62398026094502
30
0
41
1
10
59.3665937532633
20
3.61168167060146
30
0
41
1
10
59.4000967771894
20
3.59150063064092
30
0
41
1
10
59.4189651175262
20
3.58383366655485
30
0
41
1
10
59.4426983454423
20
3.57802381550999
30
0
41
1
10
59.4475737398741
20
3.57702797688879
30
0
41
1
10
59.4524474667414
20
3.57622439374032
30
0
0
SPLINE
5
DF
100
AcDbEntity
8
1
62
256
6
ByLayer
370
-1
48
1
60
0
100
AcDbSpline
70
4
71
3
72
18
73
14
40
0
40
0
40
0
40
0
40
0.212749336290749
40
0.212749336290749
40
0.388462043795641
40
0.388462043795641
40
0.565820415570272
40
0.565820415570272
40
0.720757258696671
40
0.720757258696671
40
0.926875476189692
40
0.926875476189692
40
1
40
1
40
1
40
1
41
1
10
60.7445879118938
20
3.09579865839743
30
0
41
1
10
60.7090040926086
20
3.11789700046148
30
0
41
1
10
60.6683635717736
20
3.13548176283319
30
0
41
1
10
60.588358069593
20
3.15599932820888
30
0
41
1
10
60.5490703982758
20
3.16110087975497
30
0
41
1
10
60.4694030571401
20
3.16098177245186
30
0
41
1
10
60.427844604333
20
3.15557093576166
30
0
41
1
10
60.3550610715308
20
3.13623178293903
30
0
41
1
10
60.3223110913169
20
3.12327797671352
30
0
41
1
10
60.2537430812265
20
3.08684223696767
30
0
41
1
10
60.2192169735159
20
3.06077016122796
30
0
41
1
10
60.1805131901178
20
3.0214030552367
30
0
41
1
10
60.1709892940787
20
3.01057584744979
30
0
41
1
10
60.1621870592261
20
2.99939802071216
30
0
0
SPLINE
5
E0
100
AcDbEntity
8
1
62
256
6
ByLayer
370
-1
48
1
60
0
100
AcDbSpline
70
4
71
3
72
18
73
14
40
0
40
0
40
0
40
0
40
0.0790828655546912
40
0.0790828655546912
40
0.281738940894369
40
0.281738940894369
40
0.445913295698124
40
0.445913295698124
40
0.610915888221717
40
0.610915888221717
40
0.765309988519534
40
0.765309988519534
40
1
40
1
40
1
40
1
41
1
10
59.8283918708013
20
3.1235051171617
30
0
41
1
10
59.8297096539442
20
3.13855898416995
30
0
41
1
10
59.8301156822084
20
3.15385844364144
30
0
41
1
10
59.8281409518228
20
3.20869603612002
30
0
41
1
10
59.8203128292194
20
3.24979321711371
30
0
41
1
10
59.7934009612422
20
3.32259611068074
30
0
41
1
10
59.7763441239493
20
3.35539159401156
30
0
41
1
10
59.7337644880338
20
3.41624666387574
30
0
41
1
10
59.7076061015493
20
3.44505457135446
30
0
41
1
10
59.6523919169846
20
3.49263660277254
30
0
41
1
10
59.623025101088
20
3.51253584230861
30
0
41
1
10
59.5477213267721
20
3.55255736558496
30
0
41
1
10
59.4995730796888
20
3.56845429306426
30
0
41
1
10
59.4524474667414
20
3.57622439374032
30
0
0
SPLINE
5
E1
100
AcDbEntity
8
1
62
256
6
ByLayer
370
-1
48
1
60
0
100
AcDbSpline
70
4
71
3
72
14
73
10
40
0
40
0
40
0
40
0
40
0.050964452541227
40
0.050964452541227
40
0.387640201964096
40
0.387640201964096
40
0.835162272285222
40
0.835162272285222
40
1
40
1
40
1
40
1
41
1
10
60.9998897148144
20
3.60125771133283
30
0
41
1
10
60.9983412483536
20
3.59614312896099
30
0
41
1
10
60.9968942752
20
3.59101297005105
30
0
41
1
10
60.9867483614247
20
3.55222782782394
30
0
41
1
10
60.9824071507699
20
3.51793629062752
30
0
41
1
10
60.9822427080459
20
3.44191776934827
30
0
41
1
10
60.9895388752876
20
3.40011658341555
30
0
41
1
10
61.007390264449
20
3.34806669859685
30
0
41
1
10
61.013024760845
20
3.33440595394887
30
0
41
1
10
61.0193884667785
20
3.32123221418379
30
0
0
SPLINE
5
E2
100
AcDbEntity
8
1
62
256
6
ByLayer
370
-1
48
1
60
0
100
AcDbSpline
70
4
71
3
72
14
73
10
40
0
40
0
40
0
40
0
40
0.28243967017159
40
0.28243967017159
40
0.569913757839319
40
0.569913757839319
40
0.830383857184115
40
0.830383857184115
40
1
40
1
40
1
40
1
41
1
10
59.8756748980857
20
4.70189817327889
30
0
41
1
10
59.8585103012551
20
4.71507109295843
30
0
41
1
10
59.8387038588896
20
4.725571642489
30
0
41
1
10
59.7962581682551
20
4.73890780070209
30
0
41
1
10
59.7729063320172
20
4.7417704206502
30
0
41
1
10
59.7290274235231
20
4.73831616651893
30
0
41
1
10
59.7077839769938
20
4.73274629505588
30
0
41
1
10
59.6757235312751
20
4.71748658203126
30
0
41
1
10
59.6636010250282
20
4.70981167955622
30
0
41
1
10
59.6526221767775
20
4.70083555952692
30
0
0
SPLINE
5
E3
100
AcDbEntity
8
1
62
256
6
ByLayer
370
-1
48
1
60
0
100
AcDbSpline
70
4
71
3
72
16
73
12
40
0
40
0
40
0
40
0
40
0.177526000946161
40
0.177526000946161
40
0.477420335992791
40
0.477420335992791
40
0.748464107751484
40
0.748464107751484
40
0.989712060892497
40
0.989712060892497
40
1
40
1
40
1
40
1
41
1
10
59.393799613631
20
3.92563611089832
30
0
41
1
10
59.3818197606176
20
3.92084518917039
30
0
41
1
10
59.3702566656128
20
3.9146440065883
30
0
41
1
10
59.3414642557366
20
3.89451847902293
30
0
41
1
10
59.3253138774
20
3.87776700263092
30
0
41
1
10
59.3021563623973
20
3.84049108408666
30
0
41
1
10
59.2941007771155
20
3.81988632378363
30
0
41
1
10
59.2867193433974
20
3.77917442961467
30
0
41
1
10
59.2864465668197
20
3.75867249695645
30
0
41
1
10
59.2896626610677
20
3.73793699484125
30
0
41
1
10
59.2898022911664
20
3.73707696528285
30
0
41
1
10
59.2899480476447
20
3.73621765566341
30
0
0
SPLINE
5
E4
100
AcDbEntity
8
1
62
256
6
ByLayer
370
-1
48
1
60
0
100
AcDbSpline
70
4
71
3
72
16
73
12
40
0
40
0
40
0
40
0
40
0.0476109586506814
40
0.0476109586506814
40
0.271895695266313
40
0.271895695266313
40
0.498072933598132
40
0.498072933598132
40
0.73789572215207
40
0.73789572215207
40
1
40
1
40
1
40
1
41
1
10
60.9684415402929
20
3.11214348981014
30
0
41
1
10
60.9715491073869
20
3.1146841839338
30
0
41
1
10
60.974574674891
20
3.11732051645151
30
0
41
1
10
60.9912033393053
20
3.13275621009063
30
0
41
1
10
61.0030140286038
20
3.14759158684407
30
0
41
1
10
61.0212202757587
20
3.17910653742624
30
0
41
1
10
61.0278141698595
20
3.19619618771955
30
0
41
1
10
61.035608664686
20
3.23125786516937
30
0
41
1
10
61.0365770141913
20
3.24965679169136
30
0
41
1
10
61.0327606430296
20
3.28620428106638
30
0
41
1
10
61.0274080035608
20
3.30463067858338
30
0
41
1
10
61.0193884667785
20
3.32123221418377
30
0
0
SPLINE
5
E5
100
AcDbEntity
8
1
62
256
6
ByLayer
370
-1
48
1
60
0
100
AcDbSpline
70
4
71
3
72
14
73
10
40
0
40
0
40
0
40
0
40
0.21399653572967
40
0.21399653572967
40
0.516650251519746
40
0.516650251519746
40
0.783722031084063
40
0.783722031084063
40
1
40
1
40
1
40
1
41
1
10
60.7918709391819
20
4.67419171450535
30
0
41
1
10
60.7932655191302
20
4.69086257379848
30
0
41
1
10
60.792614033867
20
4.7079967970279
30
0
41
1
10
60.7857457146784
20
4.7485746726459
30
0
41
1
10
60.7771177664024
20
4.77240361823107
30
0
41
1
10
60.7528262455497
20
4.81226445555399
30
0
41
1
10
60.7377007900827
20
4.82946819958963
30
0
41
1
10
60.7058757687028
20
4.85426786408954
30
0
41
1
10
60.6896506292103
20
4.86336216630531
30
0
41
1
10
60.6726679634635
20
4.86967642549448
30
0
0
SPLINE
5
E6
100
AcDbEntity
8
1
62
256
6
ByLayer
370
-1
48
1
60
0
100
AcDbSpline
70
4
71
3
72
12
73
8
40
0
40
0
40
0
40
0
40
0.462776468921643
40
0.462776468921643
40
0.844461931993005
40
0.844461931993005
40
1
40
1
40
1
40
1
41
1
10
61.2264592912498
20
3.87198620683921
30
0
41
1
10
61.1870708739713
20
3.85131288105515
30
0
41
1
10
61.1492207391512
20
3.82406761306373
30
0
41
1
10
61.0881435194286
20
3.76390529889383
30
0
41
1
10
61.0628948415893
20
3.73208040175163
30
0
41
1
10
61.0340463296159
20
3.68341268556657
30
0
41
1
10
61.0263995857874
20
3.66874585034785
30
0
41
1
10
61.0196349533026
20
3.65377485835779
30
0
0
SPLINE
5
E7
100
AcDbEntity
8
1
62
256
6
ByLayer
370
-1
48
1
60
0
100
AcDbSpline
70
4
71
3
72
14
73
10
40
0
40
0
40
0
40
0
40
0.257647508326462
40
0.257647508326462
40
0.548225470206645
40
0.548225470206645
40
0.811205690678659
40
0.811205690678659
40
1
40
1
40
1
40
1
41
1
10
60.7445879118938
20
3.0957986583974
30
0
41
1
10
60.7603670453422
20
3.08599946608413
30
0
41
1
10
60.7783103004099
20
3.07832864622171
30
0
41
1
10
60.8188365154339
20
3.06824113885702
30
0
41
1
10
60.8423874074223
20
3.06650928982381
30
0
41
1
10
60.8868484131303
20
3.07145266179563
30
0
41
1
10
60.908467286195
20
3.07745784007915
30
0
41
1
10
60.9425680830292
20
3.09355829627396
30
0
41
1
10
60.9562267212832
20
3.10215686106153
30
0
41
1
10
60.9684415402929
20
3.11214348981014
30
0
0
SPLINE
5
E8
100
AcDbEntity
8
1
62
256
6
ByLayer
370
-1
48
1
60
0
100
AcDbSpline
70
4
71
3
72
16
73
12
40
0
40
0
40
0
40
0
40
0.0653365580319595
40
0.0653365580319595
40
0.289255041520719
40
0.289255041520719
40
0.516068414371169
40
0.516068414371169
40
0.75734027314065
40
0.75734027314065
40
1
40
1
40
1
40
1
41
1
10
59.6526221767775
20
4.70083555952692
30
0
41
1
10
59.6483645695418
20
4.69735461209851
30
0
41
1
10
59.6442583251496
20
4.69366639578666
30
0
41
1
10
59.6269671883474
20
4.67662757709809
30
0
41
1
10
59.6155310080816
20
4.66108827053981
30
0
41
1
10
59.5980279385571
20
4.6276978311179
30
0
41
1
10
59.591796338096
20
4.60940161440305
30
0
41
1
10
59.584716168347
20
4.5714922897732
30
0
41
1
10
59.5841276041538
20
4.55139884217212
30
0
41
1
10
59.5885202041802
20
4.51278785018141
30
0
41
1
10
59.5935545953353
20
4.49386227768844
30
0
41
1
10
59.6008704380915
20
4.47639010354689
30
0
0
SPLINE
5
E9
100
AcDbEntity
8
1
62
256
6
ByLayer
370
-1
48
1
60
0
100
AcDbSpline
70
4
71
3
72
16
73
12
40
0
40
0
40
0
40
0
40
0.0138920383686423
40
0.0138920383686423
40
0.330462632027999
40
0.330462632027999
40
0.619360991676495
40
0.619360991676495
40
0.873939009200471
40
0.873939009200471
40
1
40
1
40
1
40
1
41
1
10
61.2264592912498
20
3.87198620683921
30
0
41
1
10
61.2274129338563
20
3.87248673378724
30
0
41
1
10
61.2283636030792
20
3.87299548146265
30
0
41
1
10
61.2505738600798
20
3.88511242408796
30
0
41
1
10
61.2706045619203
20
3.90118624001442
30
0
41
1
10
61.3019860390598
20
3.93834072087665
30
0
41
1
10
61.3144000503312
20
3.95948150027053
30
0
41
1
10
61.3296021783839
20
4.00200855597794
30
0
41
1
10
61.3335521121216
20
4.02371145764374
30
0
41
1
10
61.3337419062296
20
4.0556769939374
30
0
41
1
10
61.3328828006483
20
4.06634324364612
30
0
41
1
10
61.3311156694257
20
4.07676139367362
30
0
0
SPLINE
5
EA
100
AcDbEntity
8
1
62
256
6
ByLayer
370
-1
48
1
60
0
100
AcDbSpline
70
4
71
3
72
16
73
12
40
0
40
0
40
0
40
0
40
0.0436973625025816
40
0.0436973625025816
40
0.268685648945053
40
0.268685648945053
40
0.495341020427471
40
0.495341020427471
40
0.735491686375291
40
0.735491686375291
40
1
40
1
40
1
40
1
41
1
10
59.948395753607
20
2.94330262384261
30
0
41
1
10
59.9518488888886
20
2.94201872698514
30
0
41
1
10
59.9553421987821
20
2.9408309108606
30
0
41
1
10
59.9768394866379
20
2.93419027086634
30
0
41
1
10
59.9958706000618
20
2.93123049766703
30
0
41
1
10
60.0330753866893
20
2.93075207503651
30
0
41
1
10
60.0517167832766
20
2.93325406792351
30
0
41
1
10
60.0872959037173
20
2.94320476247631
30
0
41
1
10
60.1045181995452
20
2.95104564613308
30
0
41
1
10
60.1362194000721
20
2.9715024228492
30
0
41
1
10
60.1506614581371
20
2.98476183181469
30
0
41
1
10
60.1621870592261
20
2.99939802071216
30
0
0
SPLINE
5
EB
100
AcDbEntity
8
1
62
256
6
ByLayer
370
-1
48
1
60
0
100
AcDbSpline
70
4
71
3
72
12
73
8
40
0
40
0
40
0
40
0
40
0.447810825491667
40
0.447810825491667
40
0.832021225734041
40
0.832021225734041
40
1
40
1
40
1
40
1
41
1
10
59.3937996136353
20
3.9256361108975
30
0
41
1
10
59.4316661926742
20
3.94077952009775
30
0
41
1
10
59.468085269469
20
3.96233242935477
30
0
41
1
10
59.5283787277424
20
4.01399372913045
30
0
41
1
10
59.5539221463875
20
4.04313299346478
30
0
41
1
10
59.5838780830622
20
4.09067884324878
30
0
41
1
10
59.5921862755305
20
4.10601988286254
30
0
41
1
10
59.599475839263
20
4.12194017156338
30
0
0
SPLINE
5
EC
100
AcDbEntity
8
1
62
256
6
ByLayer
370
-1
48
1
60
0
100
AcDbSpline
70
4
71
3
72
18
73
14
40
0
40
0
40
0
40
0
40
0.0223253167758917
40
0.0223253167758917
40
0.247913546627248
40
0.247913546627248
40
0.473937341160209
40
0.473937341160209
40
0.712456059595114
40
0.712456059595114
40
0.973077105662543
40
0.973077105662543
40
1
40
1
40
1
40
1
41
1
10
60.6726679634635
20
4.86967642549448
30
0
41
1
10
60.6708998368504
20
4.87033382580373
30
0
41
1
10
60.6691212659344
20
4.87096288951173
30
0
41
1
10
60.6494767117537
20
4.87755907095843
30
0
41
1
10
60.6304391228369
20
4.88066967346808
30
0
41
1
10
60.5931090112198
20
4.88081212008072
30
0
41
1
10
60.5743404016937
20
4.8778478586683
30
0
41
1
10
60.5383957004748
20
4.86643133523989
30
0
41
1
10
60.5209086280883
20
4.8575604926379
30
0
41
1
10
60.4886108662386
20
4.83458023058236
30
0
41
1
10
60.4737805512386
20
4.81979203951147
30
0
41
1
10
60.4605013842764
20
4.80176277016858
30
0
41
1
10
60.4592741649147
20
4.80003948546482
30
0
41
1
10
60.4580757507539
20
4.79829881096316
30
0
0
SPLINE
5
ED
100
AcDbEntity
8
1
62
256
6
ByLayer
370
-1
48
1
60
0
100
AcDbSpline
70
4
71
3
72
24
73
20
40
0
40
0
40
0
40
0
40
0.0862105154581606
40
0.0862105154581606
40
0.206931461339897
40
0.206931461339897
40
0.327652407221581
40
0.327652407221581
40
0.448373353103324
40
0.448373353103324
40
0.569094298985114
40
0.569094298985114
40
0.689815244867101
40
0.689815244867101
40
0.810536190749231
40
0.810536190749231
40
0.931257136631245
40
0.931257136631245
40
1
40
1
40
1
40
1
41
1
10
56.9602516399735
20
-5.1169100595161
30
0
41
1
10
56.9646348362105
20
-5.12089393234507
30
0
41
1
10
56.9692602167538
20
-5.12462393946407
30
0
41
1
10
56.9808292922751
20
-5.13287080325566
30
0
41
1
10
56.9880061281097
20
-5.13713793197098
30
0
41
1
10
57.0029196013202
20
-5.14440860276085
30
0
41
1
10
57.0107073886044
20
-5.14743708162493
30
0
41
1
10
57.0266245246228
20
-5.15215567620803
30
0
41
1
10
57.0348084656063
20
-5.15386197566073
30
0
41
1
10
57.0512902482035
20
-5.15589834878992
30
0
41
1
10
57.059644618679
20
-5.15623540677495
30
0
41
1
10
57.0762364579064
20
-5.15553339251366
30
0
41
1
10
57.0845308329899
20
-5.154491912514
30
0
41
1
10
57.1007751033873
20
-5.15107087336898
30
0
41
1
10
57.108780712949
20
-5.14867958081749
30
0
41
1
10
57.1242293754772
20
-5.14263387369462
30
0
41
1
10
57.1317254139325
20
-5.13895872368758
30
0
41
1
10
57.1428895658264
20
-5.13228577469323
30
0
41
1
10
57.1468320126803
20
-5.12966819437005
30
0
41
1
10
57.1506404719827
20
-5.1268726281628
30
0
0
LINE
5
4A
100
AcDbEntity
8
80
62
256
6
ByLayer
370
-1
48
1
60
0
100
AcDbLine
10
0
20
0
30
0
11
-10
21
0
31
0
39
0
210
0
220
0
230
1
0
LINE
5
4B
100
AcDbEntity
8
1
62
256
6
ByLayer
370
-1
48
1
60
0
100
AcDbLine
10
63.352194
20
2.650516
30
0
11
57.390906
21
-4.93257
31
0
39
0
210
0
220
0
230
1
0
LINE
5
4C
100
AcDbEntity
8
1
62
256
6
ByLayer
370
-1
48
1
60
0
100
AcDbLine
10
63.939463
20
12.484871
30
0
11
63.435707
21
2.872641
31
0
39
0
210
0
220
0
230
1
0
LINE
5
4D
100
AcDbEntity
8
1
62
256
6
ByLayer
370
-1
48
1
60
0
100
AcDbLine
10
56.681757
20
-4.668904
30
0
11
57.185513
21
4.943326
31
0
39
0
210
0
220
0
230
1
0
LINE
5
4E
100
AcDbEntity
8
SK1
62
256
6
ByLayer
370
-1
48
1
60
0
100
AcDbLine
10
-136.81
20
7.9925
30
0
11
-137.31
21
7.4925
31
0
39
0
210
0
220
0
230
1
0
LINE
5
50
100
AcDbEntity
8
SK1
62
256
6
ByLayer
370
-1
48
1
60
0
100
AcDbLine
10
-137.31
20
-7.4925
30
0
11
-136.81
21
-7.9925
31
0
39
0
210
0
220
0
230
1
0
LINE
5
51
100
AcDbEntity
8
SK1
62
256
6
ByLayer
370
-1
48
1
60
0
100
AcDbLine
10
-136.81
20
-7.9925
30
0
11
0
21
-7.9925
31
0
39
0
210
0
220
0
230
1
0
LINE
5
52
100
AcDbEntity
8
SK1
62
256
6
ByLayer
370
-1
48
1
60
0
100
AcDbLine
10
0
20
7.9925
30
0
11
-136.81
21
7.9925
31
0
39
0
210
0
220
0
230
1
0
LINE
5
53
100
AcDbEntity
8
1
62
256
6
ByLayer
370
-1
48
1
60
0
100
AcDbLine
10
56.810263
20
-4.980517
30
0
11
56.960236
21
-5.116897
31
0
39
0
210
0
220
0
230
1
0
LINE
5
54
100
AcDbEntity
8
1
62
256
6
ByLayer
370
-1
48
1
60
0
100
AcDbLine
10
57.150638
20
-5.126876
30
0
11
57.314046
21
-5.006919
31
0
39
0
210
0
220
0
230
1
0
LINE
5
55
100
AcDbEntity
8
1
62
256
6
ByLayer
370
-1
48
1
60
0
100
AcDbLine
10
0
20
-7.9925
30
0
11
49.690679
21
-7.9925
31
0
39
0
210
0
220
0
230
1
0
LINE
5
56
100
AcDbEntity
8
1
62
256
6
ByLayer
370
-1
48
1
60
0
100
AcDbLine
10
49.690679
20
7.9925
30
0
11
0
21
7.9925
31
0
39
0
210
0
220
0
230
1
0
LINE
5
57
100
AcDbEntity
8
1
62
256
6
ByLayer
370
-1
48
1
60
0
100
AcDbLine
10
49.690679
20
-7.9925
30
0
11
49.765679
21
-7.9175
31
0
39
0
210
0
220
0
230
1
0
LINE
5
58
100
AcDbEntity
8
1
62
256
6
ByLayer
370
-1
48
1
60
0
100
AcDbLine
10
49.765679
20
7.9175
30
0
11
49.690679
21
7.9925
31
0
39
0
210
0
220
0
230
1
0
LINE
5
59
100
AcDbEntity
8
1
62
256
6
ByLayer
370
-1
48
1
60
0
100
AcDbLine
10
50.536068
20
7.9175
30
0
11
49.765679
21
7.9175
31
0
39
0
210
0
220
0
230
1
0
LINE
5
5A
100
AcDbEntity
8
1
62
256
6
ByLayer
370
-1
48
1
60
0
100
AcDbLine
10
49.765679
20
-7.9175
30
0
11
51.615679
21
-7.9175
31
0
39
0
210
0
220
0
230
1
0
LINE
5
5B
100
AcDbEntity
8
1
62
256
6
ByLayer
370
-1
48
1
60
0
100
AcDbLine
10
51.615679
20
-7.9175
30
0
11
51.789664
21
-8.091485
31
0
39
0
210
0
220
0
230
1
0
LINE
5
5C
100
AcDbEntity
8
1
62
256
6
ByLayer
370
-1
48
1
60
0
100
AcDbLine
10
59.828527
20
3.12177
30
0
11
59.829295
21
3.136418
31
0
39
0
210
0
220
0
230
1
0
LINE
5
5D
100
AcDbEntity
8
1
62
256
6
ByLayer
370
-1
48
1
60
0
100
AcDbLine
10
62.027864
20
3.71501
30
0
11
62.032143
21
3.796653
31
0
39
0
210
0
220
0
230
1
0
LINE
5
5E
100
AcDbEntity
8
1
62
256
6
ByLayer
370
-1
48
1
60
0
100
AcDbLine
10
58.586871
20
3.977212
30
0
11
58.582592
21
3.895569
31
0
39
0
210
0
220
0
230
1
0
LINE
5
5F
100
AcDbEntity
8
1
62
256
6
ByLayer
370
-1
48
1
60
0
100
AcDbLine
10
60.982881
20
3.504984
30
0
11
60.977857
21
3.409137
31
0
39
0
210
0
220
0
230
1
0
LINE
5
60
100
AcDbEntity
8
1
62
256
6
ByLayer
370
-1
48
1
60
0
100
AcDbLine
10
60.790891
20
4.659812
30
0
11
60.785435
21
4.555707
31
0
39
0
210
0
220
0
230
1
0
LINE
5
61
100
AcDbEntity
8
1
62
256
6
ByLayer
370
-1
48
1
60
0
100
AcDbLine
10
59.63142
20
4.178953
30
0
11
59.636443
21
4.274781
31
0
39
0
210
0
220
0
230
1
0
LINE
5
62
100
AcDbEntity
8
81
62
256
6
ByLayer
370
-1
48
1
60
0
100
AcDbLine
10
63.94
20
12.9
30
0
11
73.94
21
12.9
31
0
39
0
210
0
220
0
230
1
0
LINE
5
63
100
AcDbEntity
8
SK4
62
256
6
ByLayer
370
-1
48
0.05
60
0
100
AcDbLine
10
-142.31
20
0
30
0
11
68.721723
21
0
31
0
39
0
210
0
220
0
230
1
0
LINE
5
65
100
AcDbEntity
8
4
62
256
6
ByLayer
370
-1
48
0.05
60
0
100
AcDbLine
10
0
20
0
30
0
11
68.721723
21
0
31
0
39
0
210
0
220
0
230
1
0
LINE
5
67
100
AcDbEntity
8
1
62
256
6
ByLayer
370
-1
48
1
60
0
100
AcDbLine
10
57.119776
20
3.68907
30
0
11
56.794626
21
3.809963
31
0
39
0
210
0
220
0
230
1
0
LINE
5
68
100
AcDbEntity
8
1
62
256
6
ByLayer
370
-1
48
1
60
0
100
AcDbLine
10
59.964303
20
-8.0915
30
0
11
51.789679
21
-8.0915
31
0
39
0
210
0
220
0
230
1
0
LINE
5
69
100
AcDbEntity
8
1
62
256
6
ByLayer
370
-1
48
1
60
0
100
AcDbLine
10
55.660166
20
-3.210218
30
0
11
55.650442
21
-3.395763
31
0
39
0
210
0
220
0
230
1
0
LINE
5
6A
100
AcDbEntity
8
1
62
256
6
ByLayer
370
-1
48
1
60
0
100
AcDbLine
10
56.899146
20
-0.52088
30
0
11
56.830971
21
-1.720901
31
0
39
0
210
0
220
0
230
1
0
LINE
5
6B
100
AcDbEntity
8
1
62
256
6
ByLayer
370
-1
48
1
60
0
100
AcDbLine
10
56.826899
20
-1.899245
30
0
11
55.650442
21
-3.395763
31
0
39
0
210
0
220
0
230
1
0
LINE
5
6C
100
AcDbEntity
8
1
62
256
6
ByLayer
370
-1
48
1
60
0
100
AcDbLine
10
0
20
-0.208217
30
0
11
42.428554
21
-0.208217
31
0
39
0
210
0
220
0
230
1
0
LINE
5
6D
100
AcDbEntity
8
1
62
256
6
ByLayer
370
-1
48
1
60
0
100
AcDbLine
10
55.660166
20
-3.210218
30
0
11
56.453099
21
-2.201564
31
0
39
0
210
0
220
0
230
1
0
LINE
5
6E
100
AcDbEntity
8
1
62
256
6
ByLayer
370
-1
48
1
60
0
100
AcDbLine
10
56.830971
20
-1.720901
30
0
11
56.836226
21
-1.721481
31
0
39
0
210
0
220
0
230
1
0
LINE
5
6F
100
AcDbEntity
8
1
62
256
6
ByLayer
370
-1
48
1
60
0
100
AcDbLine
10
0
20
-0.208217
30
0
11
0
21
0.208217
31
0
39
0
210
0
220
0
230
1
0
LINE
5
70
100
AcDbEntity
8
1
62
256
6
ByLayer
370
-1
48
1
60
0
100
AcDbLine
10
56.794626
20
3.809963
30
0
11
56.453098
21
-2.201575
31
0
39
0
210
0
220
0
230
1
0
LINE
5
71
100
AcDbEntity
8
1
62
256
6
ByLayer
370
-1
48
1
60
0
100
AcDbLine
10
49.765679
20
-7.196829
30
0
11
49.765679
21
-7.9175
31
0
39
0
210
0
220
0
230
1
0
LINE
5
72
100
AcDbEntity
8
1
62
256
6
ByLayer
370
-1
48
1
60
0
100
AcDbLine
10
49.765679
20
7.9175
30
0
11
49.765679
21
7.903317
31
0
39
0
210
0
220
0
230
1
0
LINE
5
73
100
AcDbEntity
8
1
62
256
6
ByLayer
370
-1
48
1
60
0
100
AcDbLine
10
51.615679
20
-7.9175
30
0
11
51.615679
21
-7.4639
31
0
39
0
210
0
220
0
230
1
0
LINE
5
74
100
AcDbEntity
8
1
62
256
6
ByLayer
370
-1
48
1
60
0
100
AcDbLine
10
60.148739
20
-7.805278
30
0
11
62.926804
21
-3.494041
31
0
39
0
210
0
220
0
230
1
0
LINE
5
75
100
AcDbEntity
8
1
62
256
6
ByLayer
370
-1
48
1
60
0
100
AcDbLine
10
56.794627
20
3.809974
30
0
11
56.794626
21
3.809963
31
0
39
0
210
0
220
0
230
1
0
LINE
5
76
100
AcDbEntity
8
1
62
256
6
ByLayer
370
-1
48
1
60
0
100
AcDbLine
10
53.396413
20
5.123666
30
0
11
51.068977
21
7.436386
31
0
39
0
210
0
220
0
230
1
0
LINE
5
77
100
AcDbEntity
8
1
62
256
6
ByLayer
370
-1
48
1
60
0
100
AcDbLine
10
56.453099
20
-2.201564
30
0
11
56.794627
21
3.809974
31
0
39
0
210
0
220
0
230
1
0
LINE
5
78
100
AcDbEntity
8
1
62
256
6
ByLayer
370
-1
48
1
60
0
100
AcDbLine
10
62.913032
20
1.535102
30
0
11
62.574332
21
1.661033
31
0
39
0
210
0
220
0
230
1
0
LINE
5
79
100
AcDbEntity
8
1
62
256
6
ByLayer
370
-1
48
1
60
0
100
AcDbLine
10
56.453099
20
-2.201564
30
0
11
56.453098
21
-2.201575
31
0
39
0
210
0
220
0
230
1
0
LINE
5
7A
100
AcDbEntity
8
1
62
256
6
ByLayer
370
-1
48
1
60
0
100
AcDbLine
10
49.690679
20
-7.255966
30
0
11
49.690679
21
-7.9925
31
0
39
0
210
0
220
0
230
1
0
LINE
5
7B
100
AcDbEntity
8
1
62
256
6
ByLayer
370
-1
48
1
60
0
100
AcDbLine
10
49.690679
20
7.9925
30
0
11
49.690679
21
7.978614
31
0
39
0
210
0
220
0
230
1
0
LINE
5
7C
100
AcDbEntity
8
1
62
256
6
ByLayer
370
-1
48
1
60
0
100
AcDbLine
10
56.830971
20
-1.720901
30
0
11
56.453098
21
-2.201575
31
0
39
0
210
0
220
0
230
1
0
LINE
5
7D
100
AcDbEntity
8
1
62
256
6
ByLayer
370
-1
48
1
60
0
100
AcDbLine
10
63.204554
20
1.805756
30
0
11
63.18507
21
1.433973
31
0
39
0
210
0
220
0
230
1
0
LINE
5
7E
100
AcDbEntity
8
1
62
256
6
ByLayer
370
-1
48
1
60
0
100
AcDbLine
10
60.148739
20
-7.805278
30
0
11
59.964303
21
-8.0915
31
0
39
0
210
0
220
0
230
1
0
LINE
5
7F
100
AcDbEntity
8
1
62
256
6
ByLayer
370
-1
48
1
60
0
100
AcDbLine
10
51.068977
20
7.436386
30
0
11
55.176107
21
-7.797406
31
0
39
0
210
0
220
0
230
1
0
LINE
5
80
100
AcDbEntity
8
1
62
256
6
ByLayer
370
-1
48
1
60
0
100
AcDbLine
10
62.913033
20
1.535113
30
0
11
57.795253
21
-4.974985
31
0
39
0
210
0
220
0
230
1
0
LINE
5
81
100
AcDbEntity
8
1
62
256
6
ByLayer
370
-1
48
1
60
0
100
AcDbLine
10
63.18507
20
1.433968
30
0
11
62.926804
21
-3.494041
31
0
39
0
210
0
220
0
230
1
0
LINE
5
82
100
AcDbEntity
8
1
62
256
6
ByLayer
370
-1
48
1
60
0
100
AcDbLine
10
42.294547
20
0.208217
30
0
11
0
21
0.208217
31
0
39
0
210
0
220
0
230
1
0
LINE
5
83
100
AcDbEntity
8
1
62
256
6
ByLayer
370
-1
48
1
60
0
100
AcDbLine
10
0
20
-7.9925
30
0
11
0
21
-0.208217
31
0
39
0
210
0
220
0
230
1
0
LINE
5
84
100
AcDbEntity
8
1
62
256
6
ByLayer
370
-1
48
1
60
0
100
AcDbLine
10
0
20
0.208217
30
0
11
0
21
7.9925
31
0
39
0
210
0
220
0
230
1
0
LINE
5
85
100
AcDbEntity
8
1
62
256
6
ByLayer
370
-1
48
1
60
0
100
AcDbLine
10
62.913033
20
1.535113
30
0
11
63.18507
21
1.433968
31
0
39
0
210
0
220
0
230
1
0
LINE
5
86
100
AcDbEntity
8
1
62
256
6
ByLayer
370
-1
48
1
60
0
100
AcDbLine
10
56.278169
20
4.001996
30
0
11
56.794627
21
3.809974
31
0
39
0
210
0
220
0
230
1
0
LINE
5
87
100
AcDbEntity
8
SK1
62
256
6
ByLayer
370
-1
48
1
60
0
100
AcDbLine
10
0
20
0.208217
30
0
11
-48.06
21
0.208217
31
0
39
0
210
0
220
0
230
1
0
LINE
5
88
100
AcDbEntity
8
SK1
62
256
6
ByLayer
370
-1
48
1
60
0
100
AcDbLine
10
0
20
-0.208217
30
0
11
0
21
0.208217
31
0
39
0
210
0
220
0
230
1
0
LINE
5
89
100
AcDbEntity
8
SK1
62
256
6
ByLayer
370
-1
48
1
60
0
100
AcDbLine
10
-136.81
20
-7.9925
30
0
11
-136.81
21
7.9925
31
0
39
0
210
0
220
0
230
1
0
LINE
5
8A
100
AcDbEntity
8
SK1
62
256
6
ByLayer
370
-1
48
1
60
0
100
AcDbLine
10
0
20
-7.9925
30
0
11
0
21
-0.208217
31
0
39
0
210
0
220
0
230
1
0
LINE
5
8B
100
AcDbEntity
8
SK1
62
256
6
ByLayer
370
-1
48
1
60
0
100
AcDbLine
10
0
20
0.208217
30
0
11
0
21
7.9925
31
0
39
0
210
0
220
0
230
1
0
LINE
5
8C
100
AcDbEntity
8
SK1
62
256
6
ByLayer
370
-1
48
1
60
0
100
AcDbLine
10
-48.06
20
-0.208217
30
0
11
-48.06
21
0.208217
31
0
39
0
210
0
220
0
230
1
0
LINE
5
8D
100
AcDbEntity
8
SK1
62
256
6
ByLayer
370
-1
48
1
60
0
100
AcDbLine
10
-137.31
20
-7.4925
30
0
11
-137.31
21
7.4925
31
0
39
0
210
0
220
0
230
1
0
LINE
5
8E
100
AcDbEntity
8
SK1
62
256
6
ByLayer
370
-1
48
1
60
0
100
AcDbLine
10
-48.06
20
-0.208217
30
0
11
0
21
-0.208217
31
0
39
0
210
0
220
0
230
1
0
LINE
5
8F
100
AcDbEntity
8
1
62
256
6
ByLayer
370
-1
48
1
60
0
100
AcDbLine
10
61.013898
20
3.216466
30
0
11
61.019388
21
3.321232
31
0
39
0
210
0
220
0
230
1
0
LINE
5
90
100
AcDbEntity
8
1
62
256
6
ByLayer
370
-1
48
1
60
0
100
AcDbLine
10
61.162323
20
4.116669
30
0
11
61.167815
21
4.221472
31
0
39
0
210
0
220
0
230
1
0
LINE
5
91
100
AcDbEntity
8
1
62
256
6
ByLayer
370
-1
48
1
60
0
100
AcDbLine
10
60.452583
20
4.693495
30
0
11
60.458076
21
4.798299
31
0
39
0
210
0
220
0
230
1
0
LINE
5
92
100
AcDbEntity
8
1
62
256
6
ByLayer
370
-1
48
1
60
0
100
AcDbLine
10
59.870182
20
4.597095
30
0
11
59.875675
21
4.701898
31
0
39
0
210
0
220
0
230
1
0
LINE
5
93
100
AcDbEntity
8
1
62
256
6
ByLayer
370
-1
48
1
60
0
100
AcDbLine
10
59.388309
20
3.82087
30
0
11
59.3938
21
3.925636
31
0
39
0
210
0
220
0
230
1
0
LINE
5
94
100
AcDbEntity
8
1
62
256
6
ByLayer
370
-1
48
1
60
0
100
AcDbLine
10
59.599476
20
4.12194
30
0
11
59.594559
21
4.028128
31
0
39
0
210
0
220
0
230
1
0
LINE
5
95
100
AcDbEntity
8
1
62
256
6
ByLayer
370
-1
48
1
60
0
100
AcDbLine
10
59.614305
20
4.080645
30
0
11
59.619221
21
4.174457
31
0
39
0
210
0
220
0
230
1
0
LINE
5
96
100
AcDbEntity
8
1
62
256
6
ByLayer
370
-1
48
1
60
0
100
AcDbLine
10
57.269027
20
5.16545
30
0
11
63.230314
21
12.748537
31
0
39
0
210
0
220
0
230
1
0
LINE
5
97
100
AcDbEntity
8
2
62
256
6
ByLayer
370
-1
48
1
60
1
100
AcDbLine
10
63.94
20
0
30
0
11
63.941
21
0.001
31
0
39
0
210
0
220
0
230
1
0
MTEXT
5
EE
100
AcDbEntity
8
SK6
62
256
6
ByLayer
370
-1
48
1
60
0
100
AcDbMText
10
-33.31
20
-21.70054
30
0
210
0
220
0
230
1
1
\W00.743;\fsimplex.shx,bigfont.shx;A16R-SVUBR 11-ERB1 
40
3.5
41
0
44
1.084337
50
0
71
7
72
5
7
DEFAULT
0
DIMENSION
5
121
100
AcDbEntity
8
2
62
256
6
ByLayer
370
-3
48
1
60
0
100
AcDbDimension
2
DimnDraft3D1
10
76.19
20
0
30
0
11
76.19
21
23.155
31
0
70
32
71
5
72
1
41
1
210
0
220
0
230
1
3
Standard
100
AcDbAlignedDimension
13
65.94
23
12.9
33
0
14
65.94
24
0
34
0
50
90
100
AcDbRotatedDimension
1001
ACAD
1000
DSTYLE
1002
{
1070
    74
1070
     0
1070
   279
1070
     0
1070
   172
1070
     1
1070
   173
1070
     1
1070
   340
1005
EF
1070
    77
1070
     1
1070
    73
1070
     0
1070
   171
1070
     4
1070
   274
1070
     4
1070
   177
1070
     2
1070
   176
1070
     2
1070
   178
1070
     7
1070
    78
1070
     8
1070
    41
1041
3.175
1070
   147
1041
2.25
1070
    42
1041
2.0
1070
    44
1041
2.0
1070
   140
1041
4.5
1070
   343
1005
122
1070
   344
1005
122
1002
}
0
DIMENSION
5
137
100
AcDbEntity
8
SK2
62
256
6
ByLayer
370
-3
48
1
60
0
100
AcDbDimension
2
DimnDraft3D2
10
-147.06
20
7.9925
30
0
11
-147.06
21
-4.221711
31
0
70
32
71
5
72
1
41
1
210
0
220
0
230
1
3
Standard
100
AcDbAlignedDimension
13
-139.31
23
-7.9925
33
0
14
-139.31
24
7.9925
34
0
50
90
100
AcDbRotatedDimension
1001
ACAD
1000
DSTYLE
1002
{
1070
    74
1070
     0
1070
   279
1070
     0
1070
   172
1070
     1
1070
   173
1070
     1
1070
   340
1005
EF
1070
    77
1070
     1
1070
    73
1070
     0
1070
   171
1070
     4
1070
   274
1070
     4
1070
   177
1070
     2
1070
   176
1070
     2
1070
   178
1070
     7
1070
    78
1070
     8
1070
    41
1041
3.175
1070
   147
1041
2.25
1070
    42
1041
2.0
1070
    44
1041
2.0
1070
   140
1041
4.5
1070
   343
1005
122
1070
   344
1005
122
1002
}
0
DIMENSION
5
145
100
AcDbEntity
8
SK2
62
256
6
ByLayer
370
-3
48
1
60
0
100
AcDbDimension
2
DimnDraft3D3
10
-137.31
20
25.65
30
0
11
-43.500132
21
25.65
31
0
70
32
71
5
72
1
41
1
210
0
220
0
230
1
3
Standard
100
AcDbAlignedDimension
13
63.94
23
14.9
33
0
14
-137.31
24
9.9925
34
0
50
0
100
AcDbRotatedDimension
1001
ACAD
1000
DSTYLE
1002
{
1070
   279
1070
     0
1070
   172
1070
     1
1070
   173
1070
     1
1070
   340
1005
EF
1070
    77
1070
     1
1070
    73
1070
     0
1070
   171
1070
     4
1070
   274
1070
     4
1070
   177
1070
     2
1070
   176
1070
     2
1070
   178
1070
     7
1070
    78
1070
     8
1070
    41
1041
3.175
1070
   147
1041
2.25
1070
    42
1041
2.0
1070
    44
1041
2.0
1070
   140
1041
4.5
1070
   343
1005
122
1070
   344
1005
122
1002
}
0
DIMENSION
5
153
100
AcDbEntity
8
2
62
256
6
ByLayer
370
-3
48
1
60
0
100
AcDbDimension
2
DimnDraft3D4
10
112.190347
20
0
30
0
11
89.39575
21
-36.792664
31
0
70
34
71
5
72
1
41
1
210
0
220
0
230
1
3
Standard
100
AcDb2LineAngularDimension
13
63.259633
23
-0.082184
33
0
14
60.703329
24
-48.859355
34
0
15
65.94
25
0
35
0
16
92.468351
26
-30.775028
36
0
40
0
0
ENDSEC
0
SECTION
2
OBJECTS
0
DICTIONARY
5
184
330
0
100
AcDbDictionary
280
0
281
1
3
ACAD_GROUP
350
185
3
ACAD_MLINESTYLE
350
186
0
DICTIONARY
5
185
330
0
100
AcDbDictionary
280
0
281
1
0
DICTIONARY
5
186
330
0
100
AcDbDictionary
280
0
281
1
3
Standard
350
18
0
MLINESTYLE
5
18
330
186
100
AcDbMlineStyle
2
Standard
70
0
3

62
256
51
90
52
90
71
2
49
-0.5
62
256
6
ByLayer
49
0.5
62
256
6
ByLayer
0
RASTERVARIABLES
5
172
330

100
AcDbRasterVariables
90
0
70
1
71
1
72
1
0
ENDSEC
0
EOF
