0
SECTION
2
HEADER
9
$ACADVER
1
AC1015
9
$DWGCODEPAGE
3
ANSI_1252
9
$HANDSEED
5
18f
9
$ANGBASE
50
0
9
$ANGDIR
70
0
9
$ATTMODE
70
1
9
$AUNITS
70
0
9
$AUPREC
70
0
9
$CECOLOR
62
256
9
$CELTSCALE
40
1
9
$CELTYPE
6
ByLayer
9
$CELWEIGHT
370
-1
9
$CLAYER
8
0
9
$CMLJUST
70
0
9
$CMLSCALE
40
1
9
$CMLSTYLE
2
Standard
9
$DIMSTYLE
2
Standard
9
$TEXTSIZE
40
0.2
9
$TEXTSTYLE
7
Standard
9
$LUNITS
70
2
9
$LUPREC
70
4
9
$EXTNAMES
290
1
9
$INSUNITS
70
4
9
$LTSCALE
40
1
9
$LWDISPLAY
290
0
9
$PDMODE
70
0
9
$PDSIZE
40
0
9
$PLINEGEN
70
0
0
ENDSEC
0
SECTION
2
CLASSES
0
CLASS
1
RASTERVARIABLES
2
AcDbRasterVariables
3
ISM
90
0
280
0
281
0
0
ENDSEC
0
SECTION
2
TABLES
0
TABLE
2
VPORT
5
185
100
AcDbSymbolTable
0
VPORT
5
1
100
AcDbSymbolTableRecord
100
AcDbViewportTableRecord
2
*Active
70
0
10
0
20
0
11
1
21
1
12
-1
22
1
13
0
23
0
14
0.5
24
0.5
15
10
25
10
16
0
26
0
36
1
17
0
27
0
37
0
0
ENDTAB
0
TABLE
2
LTYPE
5
186
100
AcDbSymbolTable
0
LTYPE
5
14
100
AcDbSymbolTableRecord
100
AcDbLinetypeTableRecord
70
0
2
ByBlock
3

72
65
73
0
40
0
0
LTYPE
5
15
100
AcDbSymbolTableRecord
100
AcDbLinetypeTableRecord
70
0
2
ByLayer
3

72
65
73
0
40
0
0
LTYPE
5
16
100
AcDbSymbolTableRecord
100
AcDbLinetypeTableRecord
70
0
2
CONTINUOUS
3
Solid line
72
65
73
0
40
0
0
LTYPE
5
3B
100
AcDbSymbolTableRecord
100
AcDbLinetypeTableRecord
70
0
2
DASHED
3
__ __ __ __ __ __ __ __ __
72
65
73
2
40
25.72
49
12.86
74
0
49
-12.86
74
0
0
LTYPE
5
3C
100
AcDbSymbolTableRecord
100
AcDbLinetypeTableRecord
70
0
2
HIDDEN
3
_ _ _ _ _ _ _ _ _ _ _ _ _ _ _
72
65
73
2
40
0.5
49
0.25
74
0
49
-0.25
74
0
0
LTYPE
5
3D
100
AcDbSymbolTableRecord
100
AcDbLinetypeTableRecord
70
0
2
PHANTOM
3
____ _ _ ____ _ _ _____ _ _ ____
72
65
73
6
40
50.5
49
18
74
0
49
-6.5
74
0
49
6.5
74
0
49
-6.5
74
0
49
6.5
74
0
49
-6.5
74
0
0
LTYPE
5
3E
100
AcDbSymbolTableRecord
100
AcDbLinetypeTableRecord
70
0
2
CENTER
3
____ _ ____ _ ____ _ ____
72
65
73
4
40
47.5
49
22
74
0
49
-8.5
74
0
49
8.5
74
0
49
-8.5
74
0
0
LTYPE
5
3F
100
AcDbSymbolTableRecord
100
AcDbLinetypeTableRecord
70
0
2
DOT
3
.........................
72
65
73
2
40
10
49
0
74
0
49
-10
74
0
0
LTYPE
5
40
100
AcDbSymbolTableRecord
100
AcDbLinetypeTableRecord
70
0
2
DASHDOT
3
_._._._._._._._._._._._._._._._.
72
65
73
4
40
70
49
31
74
0
49
-13
74
0
49
13
74
0
49
-13
74
0
0
ENDTAB
0
TABLE
2
LAYER
5
187
100
AcDbSymbolTable
0
LAYER
5
10
100
AcDbSymbolTableRecord
100
AcDbLayerTableRecord
2
0
70
0
62
7
6
CONTINUOUS
290
1
370
-3
390
0
0
LAYER
5
42
100
AcDbSymbolTableRecord
100
AcDbLayerTableRecord
2
80
70
0
62
-6
6
CONTINUOUS
290
1
370
-3
390
0
0
LAYER
5
44
100
AcDbSymbolTableRecord
100
AcDbLayerTableRecord
2
81
70
0
62
-3
6
CONTINUOUS
290
1
370
-3
390
0
0
LAYER
5
46
100
AcDbSymbolTableRecord
100
AcDbLayerTableRecord
2
1
70
0
62
4
6
CONTINUOUS
290
1
370
-3
390
0
0
LAYER
5
48
100
AcDbSymbolTableRecord
100
AcDbLayerTableRecord
2
2
70
0
62
7
6
CONTINUOUS
290
1
370
-3
390
0
0
LAYER
5
4F
100
AcDbSymbolTableRecord
100
AcDbLayerTableRecord
2
4
70
0
62
-2
6
CENTER
290
1
370
-3
390
0
0
LAYER
5
171
100
AcDbSymbolTableRecord
100
AcDbLayerTableRecord
2
SK4
70
0
62
2
6
CENTER
290
1
370
-3
390
0
0
LAYER
5
172
100
AcDbSymbolTableRecord
100
AcDbLayerTableRecord
2
SK1
70
0
62
4
6
CONTINUOUS
290
1
370
-3
390
0
0
LAYER
5
173
100
AcDbSymbolTableRecord
100
AcDbLayerTableRecord
2
SK6
70
0
62
5
6
CONTINUOUS
290
1
370
-3
390
0
0
LAYER
5
174
100
AcDbSymbolTableRecord
100
AcDbLayerTableRecord
2
SK2
70
0
62
7
6
CONTINUOUS
290
1
370
-3
390
0
0
ENDTAB
0
TABLE
2
STYLE
5
188
100
AcDbSymbolTable
0
STYLE
5
11
100
AcDbSymbolTableRecord
100
AcDbTextStyleTableRecord
2
Standard
3
txt
70
0
71
0
40
0
41
1
42
0
50
0
0
STYLE
5
ED
100
AcDbSymbolTableRecord
100
AcDbTextStyleTableRecord
2
DEFAULT
3
simplex.shx
70
0
71
0
40
0
41
1
42
0
50
0
0
STYLE
5
110
100
AcDbSymbolTableRecord
100
AcDbTextStyleTableRecord
2
DWGDirectTextStyle
3
SIMPLEX
70
0
71
0
40
0
41
1
42
0
50
0
0
ENDTAB
0
TABLE
2
DIMSTYLE
5
189
100
AcDbSymbolTable
100
AcDbDimStyleTable
0
DIMSTYLE
105
27
100
AcDbSymbolTableRecord
100
AcDbDimStyleTableRecord
2
Standard
70
0
3
<>
41
0.18
42
0.0625
44
0.18
140
0.18
147
0.09
73
0
74
0
77
1
271
2
275
0
278
52
280
0
340
11
0
ENDTAB
0
TABLE
2
VIEW
5
18a
100
AcDbSymbolTable
0
ENDTAB
0
TABLE
2
UCS
5
18b
100
AcDbSymbolTable
0
ENDTAB
0
TABLE
2
APPID
5
18c
100
AcDbSymbolTable
0
APPID
5
12
100
AcDbSymbolTableRecord
100
AcDbRegAppTableRecord
2
ACAD
70
0
0
ENDTAB
0
TABLE
2
BLOCK_RECORD
5
18d
100
AcDbSymbolTable
0
BLOCK_RECORD
5
1F
100
AcDbSymbolTableRecord
100
AcDbBlockTableRecord
2
*Model_Space
340
0
70
0
0
BLOCK_RECORD
5
1B
100
AcDbSymbolTableRecord
100
AcDbBlockTableRecord
2
*Paper_Space
340
0
70
0
0
BLOCK_RECORD
5
23
100
AcDbSymbolTableRecord
100
AcDbBlockTableRecord
2
*Paper_Space0
340
0
70
0
0
BLOCK_RECORD
5
112
100
AcDbSymbolTableRecord
100
AcDbBlockTableRecord
2
DimnDraft3D1
340
0
70
0
0
BLOCK_RECORD
5
120
100
AcDbSymbolTableRecord
100
AcDbBlockTableRecord
2
_CLOSED
340
0
70
0
0
BLOCK_RECORD
5
127
100
AcDbSymbolTableRecord
100
AcDbBlockTableRecord
2
DimnDraft3D2
340
0
70
0
0
BLOCK_RECORD
5
136
100
AcDbSymbolTableRecord
100
AcDbBlockTableRecord
2
DimnDraft3D3
340
0
70
0
0
BLOCK_RECORD
5
144
100
AcDbSymbolTableRecord
100
AcDbBlockTableRecord
2
DimnDraft3D4
340
0
70
0
0
ENDTAB
0
ENDSEC
0
SECTION
2
BLOCKS
0
BLOCK
5
20
100
AcDbEntity
8
0
100
AcDbBlockBegin
2
*Model_Space
70
0
10
0
20
0
30
0
3
*Model_Space
0
ENDBLK
5
21
100
AcDbEntity
8
0
100
AcDbBlockEnd
0
BLOCK
5
1C
100
AcDbEntity
8
0
100
AcDbBlockBegin
2
*Paper_Space
70
0
10
0
20
0
30
0
3
*Paper_Space
0
ENDBLK
5
1D
100
AcDbEntity
8
0
100
AcDbBlockEnd
0
BLOCK
5
24
100
AcDbEntity
8
0
100
AcDbBlockBegin
2
*Paper_Space0
70
0
10
0
20
0
30
0
3
*Paper_Space0
0
ENDBLK
5
25
100
AcDbEntity
8
0
100
AcDbBlockEnd
0
BLOCK
5
11D
100
AcDbEntity
8
0
100
AcDbBlockBegin
2
DimnDraft3D1
70
0
10
0
20
0
30
0
3
DimnDraft3D1
0
MTEXT
5
113
100
AcDbEntity
8
2
62
256
6
ByLayer
370
-1
48
1
60
0
100
AcDbMText
10
75.065
20
24.28
30
0
210
0
220
0
230
1
1
\W01.000;\fsimplex.shx,bigfont.shx;13.0 
40
4.5
41
0
44
1.084337
50
90
71
7
72
5
7
DEFAULT
0
LINE
5
114
100
AcDbEntity
8
2
62
256
6
ByLayer
370
-1
48
1
60
0
100
AcDbLine
10
65.94
20
12.9
30
0
11
78.19
21
12.9
31
0
39
0
210
0
220
0
230
1
0
LINE
5
115
100
AcDbEntity
8
2
62
256
6
ByLayer
370
-1
48
1
60
0
100
AcDbLine
10
65.94
20
0
30
0
11
78.19
21
0
31
0
39
0
210
0
220
0
230
1
0
LINE
5
116
100
AcDbEntity
8
2
62
256
6
ByLayer
370
-1
48
1
60
0
100
AcDbLine
10
76.19
20
0
30
0
11
76.19
21
32.356316
31
0
39
0
210
0
220
0
230
1
0
LINE
5
117
100
AcDbEntity
8
2
62
256
6
ByLayer
370
-1
48
1
60
0
100
AcDbLine
10
76.19
20
12.9
30
0
11
76.607997
21
9.725002
31
0
39
0
210
0
220
0
230
1
0
LINE
5
118
100
AcDbEntity
8
2
62
256
6
ByLayer
370
-1
48
1
60
0
100
AcDbLine
10
76.19
20
12.9
30
0
11
75.772003
21
9.724998
31
0
39
0
210
0
220
0
230
1
0
LINE
5
119
100
AcDbEntity
8
2
62
256
6
ByLayer
370
-1
48
1
60
0
100
AcDbLine
10
76.607997
20
9.725002
30
0
11
75.772003
21
9.724998
31
0
39
0
210
0
220
0
230
1
0
LINE
5
11A
100
AcDbEntity
8
2
62
256
6
ByLayer
370
-1
48
1
60
0
100
AcDbLine
10
76.19
20
0
30
0
11
75.772003
21
3.174998
31
0
39
0
210
0
220
0
230
1
0
LINE
5
11B
100
AcDbEntity
8
2
62
256
6
ByLayer
370
-1
48
1
60
0
100
AcDbLine
10
76.19
20
0
30
0
11
76.607997
21
3.175002
31
0
39
0
210
0
220
0
230
1
0
LINE
5
11C
100
AcDbEntity
8
2
62
256
6
ByLayer
370
-1
48
1
60
0
100
AcDbLine
10
75.772003
20
3.174998
30
0
11
76.607997
21
3.175002
31
0
39
0
210
0
220
0
230
1
0
ENDBLK
5
11E
100
AcDbEntity
8
0
100
AcDbBlockEnd
0
BLOCK
5
121
100
AcDbEntity
8
0
100
AcDbBlockBegin
2
_CLOSED
70
0
10
0
20
0
30
0
3
_CLOSED
0
LINE
5
123
100
AcDbEntity
8
0
62
256
6
ByLayer
370
-2
48
1
60
0
100
AcDbLine
10
-1
20
0.166667
30
0
11
0
21
0
31
0
39
0
210
0
220
0
230
1
0
LINE
5
124
100
AcDbEntity
8
0
62
256
6
ByLayer
370
-2
48
1
60
0
100
AcDbLine
10
0
20
0
30
0
11
-1
21
-0.166667
31
0
39
0
210
0
220
0
230
1
0
LINE
5
125
100
AcDbEntity
8
0
62
256
6
ByLayer
370
-2
48
1
60
0
100
AcDbLine
10
-1
20
0.166667
30
0
11
-1
21
-0.166667
31
0
39
0
210
0
220
0
230
1
0
LINE
5
126
100
AcDbEntity
8
0
62
256
6
ByLayer
370
-2
48
1
60
0
100
AcDbLine
10
0
20
0
30
0
11
-1
21
0
31
0
39
0
210
0
220
0
230
1
0
ENDBLK
5
122
100
AcDbEntity
8
0
100
AcDbBlockEnd
0
BLOCK
5
133
100
AcDbEntity
8
0
100
AcDbBlockBegin
2
DimnDraft3D2
70
0
10
0
20
0
30
0
3
DimnDraft3D2
0
MTEXT
5
128
100
AcDbEntity
8
SK2
62
256
6
ByLayer
370
-1
48
1
60
0
100
AcDbMText
10
-148.185
20
-3.096711
30
0
210
0
220
0
230
1
1
\W01.000;\fsimplex.shx,bigfont.shx;%%c16 
40
4.5
41
0
44
1.084337
50
90
71
7
72
5
7
DEFAULT
0
LINE
5
12A
100
AcDbEntity
8
SK2
62
256
6
ByLayer
370
-1
48
1
60
0
100
AcDbLine
10
-139.31
20
-7.9925
30
0
11
-149.06
21
-7.9925
31
0
39
0
210
0
220
0
230
1
0
LINE
5
12B
100
AcDbEntity
8
SK2
62
256
6
ByLayer
370
-1
48
1
60
0
100
AcDbLine
10
-139.31
20
7.9925
30
0
11
-149.06
21
7.9925
31
0
39
0
210
0
220
0
230
1
0
LINE
5
12C
100
AcDbEntity
8
SK2
62
256
6
ByLayer
370
-1
48
1
60
0
100
AcDbLine
10
-147.06
20
-19.2425
30
0
11
-147.06
21
19.2425
31
0
39
0
210
0
220
0
230
1
0
LINE
5
12D
100
AcDbEntity
8
SK2
62
256
6
ByLayer
370
-1
48
1
60
0
100
AcDbLine
10
-147.06
20
-7.9925
30
0
11
-146.642003
21
-11.167498
31
0
39
0
210
0
220
0
230
1
0
LINE
5
12E
100
AcDbEntity
8
SK2
62
256
6
ByLayer
370
-1
48
1
60
0
100
AcDbLine
10
-147.06
20
-7.9925
30
0
11
-147.477997
21
-11.167502
31
0
39
0
210
0
220
0
230
1
0
LINE
5
12F
100
AcDbEntity
8
SK2
62
256
6
ByLayer
370
-1
48
1
60
0
100
AcDbLine
10
-146.642003
20
-11.167498
30
0
11
-147.477997
21
-11.167502
31
0
39
0
210
0
220
0
230
1
0
LINE
5
130
100
AcDbEntity
8
SK2
62
256
6
ByLayer
370
-1
48
1
60
0
100
AcDbLine
10
-147.06
20
7.9925
30
0
11
-147.477997
21
11.167498
31
0
39
0
210
0
220
0
230
1
0
LINE
5
131
100
AcDbEntity
8
SK2
62
256
6
ByLayer
370
-1
48
1
60
0
100
AcDbLine
10
-147.06
20
7.9925
30
0
11
-146.642003
21
11.167502
31
0
39
0
210
0
220
0
230
1
0
LINE
5
132
100
AcDbEntity
8
SK2
62
256
6
ByLayer
370
-1
48
1
60
0
100
AcDbLine
10
-147.477997
20
11.167498
30
0
11
-146.642003
21
11.167502
31
0
39
0
210
0
220
0
230
1
0
ENDBLK
5
134
100
AcDbEntity
8
0
100
AcDbBlockEnd
0
BLOCK
5
141
100
AcDbEntity
8
0
100
AcDbBlockBegin
2
DimnDraft3D3
70
0
10
0
20
0
30
0
3
DimnDraft3D3
0
MTEXT
5
137
100
AcDbEntity
8
SK2
62
256
6
ByLayer
370
-1
48
1
60
0
100
AcDbMText
10
-42.375132
20
26.775
30
0
210
0
220
0
230
1
1
\W01.000;\fsimplex.shx,bigfont.shx;200.0 
40
4.5
41
0
44
1.084337
50
0
71
7
72
5
7
DEFAULT
0
LINE
5
138
100
AcDbEntity
8
SK2
62
256
6
ByLayer
370
-1
48
1
60
0
100
AcDbLine
10
63.94
20
14.9
30
0
11
63.94
21
27.65
31
0
39
0
210
0
220
0
230
1
0
LINE
5
139
100
AcDbEntity
8
SK2
62
256
6
ByLayer
370
-1
48
1
60
0
100
AcDbLine
10
-137.31
20
9.9925
30
0
11
-137.31
21
27.65
31
0
39
0
210
0
220
0
230
1
0
LINE
5
13A
100
AcDbEntity
8
SK2
62
256
6
ByLayer
370
-1
48
1
60
0
100
AcDbLine
10
63.94
20
25.65
30
0
11
-137.31
21
25.65
31
0
39
0
210
0
220
0
230
1
0
LINE
5
13B
100
AcDbEntity
8
SK2
62
256
6
ByLayer
370
-1
48
1
60
0
100
AcDbLine
10
63.94
20
25.65
30
0
11
60.765002
21
25.232003
31
0
39
0
210
0
220
0
230
1
0
LINE
5
13C
100
AcDbEntity
8
SK2
62
256
6
ByLayer
370
-1
48
1
60
0
100
AcDbLine
10
63.94
20
25.65
30
0
11
60.764998
21
26.067997
31
0
39
0
210
0
220
0
230
1
0
LINE
5
13D
100
AcDbEntity
8
SK2
62
256
6
ByLayer
370
-1
48
1
60
0
100
AcDbLine
10
60.765002
20
25.232003
30
0
11
60.764998
21
26.067997
31
0
39
0
210
0
220
0
230
1
0
LINE
5
13E
100
AcDbEntity
8
SK2
62
256
6
ByLayer
370
-1
48
1
60
0
100
AcDbLine
10
-137.31
20
25.65
30
0
11
-134.135002
21
26.067997
31
0
39
0
210
0
220
0
230
1
0
LINE
5
13F
100
AcDbEntity
8
SK2
62
256
6
ByLayer
370
-1
48
1
60
0
100
AcDbLine
10
-137.31
20
25.65
30
0
11
-134.134998
21
25.232003
31
0
39
0
210
0
220
0
230
1
0
LINE
5
140
100
AcDbEntity
8
SK2
62
256
6
ByLayer
370
-1
48
1
60
0
100
AcDbLine
10
-134.135002
20
26.067997
30
0
11
-134.134998
21
25.232003
31
0
39
0
210
0
220
0
230
1
0
ENDBLK
5
142
100
AcDbEntity
8
0
100
AcDbBlockEnd
0
BLOCK
5
14F
100
AcDbEntity
8
0
100
AcDbBlockBegin
2
DimnDraft3D4
70
0
10
0
20
0
30
0
3
DimnDraft3D4
0
MTEXT
5
145
100
AcDbEntity
8
2
62
256
6
ByLayer
370
-1
48
1
60
0
100
AcDbMText
10
90.986196
20
-36.834311
30
0
210
0
220
0
230
1
1
\W01.000;\fsimplex.shx,bigfont.shx;93%%d0' 
40
4.5
41
0
44
1.084337
50
43.5
71
7
72
5
7
DEFAULT
0
LINE
5
146
100
AcDbEntity
8
2
62
256
6
ByLayer
370
-1
48
1
60
0
100
AcDbLine
10
63.259633
20
-0.082184
30
0
11
60.703329
21
-48.859355
31
0
39
0
210
0
220
0
230
1
0
LINE
5
147
100
AcDbEntity
8
2
62
256
6
ByLayer
370
-1
48
1
60
0
100
AcDbLine
10
65.94
20
0
30
0
11
112.190347
21
0
31
0
39
0
210
0
220
0
230
1
0
ARC
5
148
100
AcDbEntity
8
2
62
256
6
ByLayer
370
-1
48
1
60
0
100
AcDbCircle
39
0
10
63.26394
20
0
30
0
40
46.9264068782928
210
0
220
0
230
1
100
AcDbArc
50
267
51
0
0
LINE
5
149
100
AcDbEntity
8
2
62
256
6
ByLayer
370
-1
48
1
60
0
100
AcDbLine
10
60.808001
20
-46.862096
30
0
11
63.99582
21
-46.556897
31
0
39
0
210
0
220
0
230
1
0
LINE
5
14A
100
AcDbEntity
8
2
62
256
6
ByLayer
370
-1
48
1
60
0
100
AcDbLine
10
60.808001
20
-46.862096
30
0
11
63.966192
21
-47.392365
31
0
39
0
210
0
220
0
230
1
0
LINE
5
14B
100
AcDbEntity
8
2
62
256
6
ByLayer
370
-1
48
1
60
0
100
AcDbLine
10
63.99582
20
-46.556897
30
0
11
63.966192
21
-47.392365
31
0
39
0
210
0
220
0
230
1
0
LINE
5
14C
100
AcDbEntity
8
2
62
256
6
ByLayer
370
-1
48
1
60
0
100
AcDbLine
10
110.190347
20
0
30
0
11
110.554602
21
-3.181612
31
0
39
0
210
0
220
0
230
1
0
LINE
5
14D
100
AcDbEntity
8
2
62
256
6
ByLayer
370
-1
48
1
60
0
100
AcDbLine
10
110.190347
20
0
30
0
11
109.718728
21
-3.16748
31
0
39
0
210
0
220
0
230
1
0
LINE
5
14E
100
AcDbEntity
8
2
62
256
6
ByLayer
370
-1
48
1
60
0
100
AcDbLine
10
110.554602
20
-3.181612
30
0
11
109.718728
21
-3.16748
31
0
39
0
210
0
220
0
230
1
0
ENDBLK
5
150
100
AcDbEntity
8
0
100
AcDbBlockEnd
0
ENDSEC
0
SECTION
2
ENTITIES
0
ELLIPSE
5
92
100
AcDbEntity
8
1
62
256
6
ByLayer
370
-1
48
1
60
0
100
AcDbEllipse
10
56.517459
20
-3.329136
30
0
11
0.748426768976391
21
-2.54748152159482
31
0
210
0
220
0
230
-1
40
0.484763
41
-1.08002992541257
42
-1.06213458604601
0
ELLIPSE
5
93
100
AcDbEntity
8
1
62
256
6
ByLayer
370
-1
48
1
60
0
100
AcDbEllipse
10
56.454923
20
-4.522842
30
0
11
1.49794430213186
21
-0.0785039343644138
31
0
210
0
220
0
230
1
40
0.99366
41
1.41396906153742
42
3.04337585416625
0
ELLIPSE
5
94
100
AcDbEntity
8
1
62
256
6
ByLayer
370
-1
48
1
60
0
100
AcDbEllipse
10
56.454923
20
-4.522842
30
0
11
1.49794430213186
21
-0.0785039343644138
31
0
210
0
220
0
230
1
40
0.99366
41
0.0981325786502268
42
0.237835415819194
0
ELLIPSE
5
95
100
AcDbEntity
8
1
62
256
6
ByLayer
370
-1
48
1
60
0
100
AcDbEllipse
10
54.832684
20
7.831387
30
0
11
4.19424404596919
21
-0.219811016220358
31
0
210
0
220
0
230
1
40
0.99366
41
-1.16996383503804
42
-0.933015213228462
0
ELLIPSE
5
96
100
AcDbEntity
8
1
62
256
6
ByLayer
370
-1
48
1
60
0
100
AcDbEllipse
10
56.470221
20
-4.230924
30
0
11
1.49794430213186
21
-0.0785039343644138
31
0
210
0
220
0
230
1
40
0.99366
41
1.76353194713156
42
-0.0236359421491216
0
ELLIPSE
5
97
100
AcDbEntity
8
1
62
256
6
ByLayer
370
-1
48
1
60
0
100
AcDbEllipse
10
67.185001
20
3.238641
30
0
11
4.19424404596922
21
-0.219811016220359
31
0
210
0
220
0
230
1
40
0.99366
41
-2.86604118303625
42
-2.76134144689682
0
ELLIPSE
5
98
100
AcDbEntity
8
1
62
256
6
ByLayer
370
-1
48
1
60
0
100
AcDbEllipse
10
51.950028
20
6.475861
30
0
11
17.0565144606941
21
-17.0026999584669
31
0
210
0
220
0
230
-1
40
0.041977
41
1.53328219703588
42
1.64412641323567
0
ELLIPSE
5
99
100
AcDbEntity
8
1
62
256
6
ByLayer
370
-1
48
1
60
0
100
AcDbEllipse
10
56.438522
20
-4.83579
30
0
11
0.718059821280104
21
-2.06725208446314
31
0
210
0
220
0
230
-1
40
0.617992
41
-2.75175060179318
42
-2.59951508237466
0
ELLIPSE
5
9A
100
AcDbEntity
8
1
62
256
6
ByLayer
370
-1
48
1
60
0
100
AcDbEllipse
10
270.834798
20
0.001314
30
0
11
1375.36275804059
21
-0.908575969256041
31
0
210
0
220
0
230
-1
40
0.005847
41
1.72458404429372
42
1.72810671757287
0
ELLIPSE
5
9B
100
AcDbEntity
8
1
62
256
6
ByLayer
370
-1
48
1
60
0
100
AcDbEllipse
10
56.45757
20
-4.47232
30
0
11
1.49794430213186
21
-0.0785039343644138
31
0
210
0
220
0
230
1
40
0.99366
41
1.41403887228295
42
1.75325099187454
0
ELLIPSE
5
9C
100
AcDbEntity
8
1
62
256
6
ByLayer
370
-1
48
1
60
0
100
AcDbEllipse
10
56.45757
20
-4.47232
30
0
11
1.49794430213186
21
-0.0785039343644138
31
0
210
0
220
0
230
1
40
0.99366
41
0.0811972096049098
42
0.211672283108901
0
ELLIPSE
5
9D
100
AcDbEntity
8
1
62
256
6
ByLayer
370
-1
48
1
60
0
100
AcDbEllipse
10
57.157015
20
-3.503544
30
0
11
1.16877715043455
21
-0.0612530149310343
31
0
210
0
220
0
230
1
40
0.99366
41
-0.755695901710257
42
-0.61086523819792
0
ELLIPSE
5
9E
100
AcDbEntity
8
1
62
256
6
ByLayer
370
-1
48
1
60
0
100
AcDbEllipse
10
56.508799
20
-3.494819
30
0
11
1.52060104401449
21
1.18232193481617
31
0
210
0
220
0
230
-1
40
0.284106
41
-1.51222157639996
42
-1.37026701383673
0
ELLIPSE
5
9F
100
AcDbEntity
8
1
62
256
6
ByLayer
370
-1
48
1
60
0
100
AcDbEllipse
10
39.32361
20
53.309509
30
0
11
29.3920955012484
21
-109.020543240727
31
-1.77466839903128E-14
210
-6.16297582203915E-33
220
1.6278293487427E-16
230
-1
40
0.106935
41
1.05964926927812
42
1.11772641646785
0
ELLIPSE
5
A0
100
AcDbEntity
8
1
62
256
6
ByLayer
370
-1
48
1
60
0
100
AcDbEllipse
10
54.742408
20
6.108827
30
0
11
4.12960902447738
21
-1.10280097487226
31
0
210
0
220
0
230
-1
40
0.442871
41
1.12964248795003
42
1.19966113640611
0
ELLIPSE
5
A1
100
AcDbEntity
8
1
62
256
6
ByLayer
370
-1
48
1
60
0
100
AcDbEllipse
10
54.845335
20
8.072783
30
0
11
-4.19424404596919
21
0.219811016220337
31
0
210
0
220
0
230
1
40
0.99366
41
0.838586064215948
42
1.84845911672651
0
ELLIPSE
5
A2
100
AcDbEntity
8
1
62
256
6
ByLayer
370
-1
48
1
60
0
100
AcDbEllipse
10
63.542986
20
12.505247
30
0
11
-0.396455925297495
21
0.0207773746284425
31
0
210
0
220
0
230
1
40
0.99366
41
-3.14159265358975
42
-0.61086523819776
0
ELLIPSE
5
A3
100
AcDbEntity
8
1
62
256
6
ByLayer
370
-1
48
1
60
0
100
AcDbEllipse
10
63.039244
20
2.89326
30
0
11
-0.396455925297534
21
0.0207773746284446
31
0
210
0
220
0
230
1
40
0.99366
41
2.5307274153918
42
3.14159265358979
0
ELLIPSE
5
A4
100
AcDbEntity
8
1
62
256
6
ByLayer
370
-1
48
1
60
0
100
AcDbEllipse
10
60.310601
20
3.907803
30
0
11
1.90207913049531
21
-0.0996837432498748
31
0
210
0
220
0
230
1
40
0.99366
41
0
42
6.28318530717959
0
ELLIPSE
5
A5
100
AcDbEntity
8
1
62
256
6
ByLayer
370
-1
48
1
60
0
100
AcDbEllipse
10
60.305693
20
3.814154
30
0
11
1.82186185867434
21
-0.0954797341735937
31
0
210
0
220
0
230
1
40
0.99366
41
-1.00467149582575
42
-2.44974779846323E-16
0
ELLIPSE
5
A6
100
AcDbEntity
8
1
62
256
6
ByLayer
370
-1
48
1
60
0
100
AcDbEllipse
10
60.305693
20
3.814154
30
0
11
1.82186185867434
21
-0.0954797341735937
31
0
210
0
220
0
230
1
40
0.99366
41
0
42
0.0526934328814278
0
ELLIPSE
5
A7
100
AcDbEntity
8
1
62
256
6
ByLayer
370
-1
48
1
60
0
100
AcDbEllipse
10
60.305693
20
3.814154
30
0
11
1.82186185867434
21
-0.0954797341735937
31
0
210
0
220
0
230
1
40
0.99366
41
0.0526931083255858
42
-2.13692131930999
0
ELLIPSE
5
A8
100
AcDbEntity
8
1
62
256
6
ByLayer
370
-1
48
1
60
0
100
AcDbEllipse
10
60.3066
20
3.831458
30
0
11
1.87243037766476
21
-0.0981299179555139
31
0
210
0
220
0
230
1
40
0.99366
41
-0.377138115880401
42
-2.38358773208852E-16
0
ELLIPSE
5
A9
100
AcDbEntity
8
1
62
256
6
ByLayer
370
-1
48
1
60
0
100
AcDbEllipse
10
60.3066
20
3.831458
30
0
11
1.87243037766476
21
-0.0981299179555139
31
0
210
0
220
0
230
1
40
0.99366
41
0
42
0.0526932264080087
0
ELLIPSE
5
AA
100
AcDbEntity
8
1
62
256
6
ByLayer
370
-1
48
1
60
0
100
AcDbEllipse
10
60.3066
20
3.831458
30
0
11
1.87243037766476
21
-0.0981299179555139
31
0
210
0
220
0
230
1
40
0.99366
41
0.0526932541600212
42
-2.76445425570972
0
ELLIPSE
5
AB
100
AcDbEntity
8
1
62
256
6
ByLayer
370
-1
48
1
60
0
100
AcDbEllipse
10
57.078216
20
-4.689641
30
0
11
-0.396455925297579
21
0.0207773746284469
31
0
210
0
220
0
230
1
40
0.99366
41
0
42
2.53072741539182
0
ELLIPSE
5
AC
100
AcDbEntity
8
1
62
256
6
ByLayer
370
-1
48
1
60
0
100
AcDbEllipse
10
57.581959
20
4.922347
30
0
11
-0.396455925297609
21
0.0207773746284485
31
0
210
0
220
0
230
1
40
0.99366
41
-0.610865238198005
42
4.50299949386939E-15
0
ELLIPSE
5
AD
100
AcDbEntity
8
1
62
256
6
ByLayer
370
-1
48
1
60
0
100
AcDbEllipse
10
57.064212
20
-4.956848
30
0
11
0.188518268517008
21
-0.00987982380726022
31
0
210
0
220
0
230
1
40
0.99366
41
-2.25761820355178
42
-0.883988767362759
0
ELLIPSE
5
AE
100
AcDbEntity
8
1
62
256
6
ByLayer
370
-1
48
1
60
0
100
AcDbEllipse
10
59.465999
20
3.645048
30
0
11
-0.184746463929596
21
0.00968215190494344
31
0
210
0
220
0
230
1
40
0.99366
41
-1.08251881899088
42
-0.409785665061853
0
ELLIPSE
5
AF
100
AcDbEntity
8
1
62
256
6
ByLayer
370
-1
48
1
60
0
100
AcDbEllipse
10
59.20952
20
4.191889
30
0
11
-0.42142166366643
21
0.0220857735345197
31
0
210
0
220
0
230
1
40
0.99366
41
2.05907383459884
42
2.76924671217494
0
ELLIPSE
5
B0
100
AcDbEntity
8
1
62
256
6
ByLayer
370
-1
48
1
60
0
100
AcDbEllipse
10
59.763848
20
4.437262
30
0
11
-0.184746463929596
21
0.00968215190494344
31
0
210
0
220
0
230
1
40
0.99366
41
-2.12795888797783
42
-0.285200686659745
0
ELLIPSE
5
B1
100
AcDbEntity
8
1
62
256
6
ByLayer
370
-1
48
1
60
0
100
AcDbEllipse
10
60.11117
20
4.931693
30
0
11
-0.42142166366643
21
0.0220857735345197
31
0
210
0
220
0
230
1
40
0.99366
41
1.01363376561172
42
1.7885334934642
0
ELLIPSE
5
B2
100
AcDbEntity
8
1
62
256
6
ByLayer
370
-1
48
1
60
0
100
AcDbEllipse
10
60.601567
20
4.575927
30
0
11
-0.184746463929596
21
0.00968215190494344
31
0
210
0
220
0
230
1
40
0.99366
41
-3.08233895849956
42
-0.578159432273058
0
ELLIPSE
5
B3
100
AcDbEntity
8
1
62
256
6
ByLayer
370
-1
48
1
60
0
100
AcDbEllipse
10
61.206378
20
4.52448
30
0
11
-0.42142166366643
21
0.0220857735345197
31
0
210
0
220
0
230
1
40
0.99366
41
1.04194582366575E-05
42
0.742193921927597
0
ELLIPSE
5
B4
100
AcDbEntity
8
1
62
256
6
ByLayer
370
-1
48
1
60
0
100
AcDbEllipse
10
61.14232
20
3.924729
30
0
11
-0.184746463929596
21
0.00968215190494344
31
0
210
0
220
0
230
1
40
0.99366
41
-2.85216533770353
42
-1.62449900381011
0
ELLIPSE
5
B5
100
AcDbEntity
8
1
62
256
6
ByLayer
370
-1
48
1
60
0
100
AcDbEllipse
10
60.304159
20
3.784888
30
0
11
-0.746974891996417
21
0.0391472952697171
31
0
210
0
220
0
230
1
40
0.99366
41
2.09143929132122
42
2.75372573165382
0
ELLIPSE
5
B6
100
AcDbEntity
8
1
62
256
6
ByLayer
370
-1
48
1
60
0
100
AcDbEllipse
10
60.309068
20
3.878557
30
0
11
0.746974891996424
21
-0.0391472952697212
31
0
210
0
220
0
230
1
40
0.99366
41
2.79842868257379
42
2.87389138640769
0
ELLIPSE
5
B7
100
AcDbEntity
8
1
62
256
6
ByLayer
370
-1
48
1
60
0
100
AcDbEllipse
10
60.310043
20
3.89716
30
0
11
1.03358156847098
21
-0.0541677147114454
31
0
210
0
220
0
230
1
40
0.99366
41
-1.87622894589391
42
-0.829889374357216
0
ELLIPSE
5
B8
100
AcDbEntity
8
1
62
256
6
ByLayer
370
-1
48
1
60
0
100
AcDbEllipse
10
61.398799
20
3.377887
30
0
11
-0.42142166366643
21
0.0220857735345197
31
0
210
0
220
0
230
1
40
0.99366
41
1.11519170396653E-05
42
0.471653580793033
0
ELLIPSE
5
B9
100
AcDbEntity
8
1
62
256
6
ByLayer
370
-1
48
1
60
0
100
AcDbEllipse
10
60.310043
20
3.89716
30
0
11
1.03358156847098
21
-0.0541677147114454
31
0
210
0
220
0
230
1
40
0.99366
41
-2.92256851743065
42
-1.87622894589391
0
ELLIPSE
5
BA
100
AcDbEntity
8
1
62
256
6
ByLayer
370
-1
48
1
60
0
100
AcDbEllipse
10
60.304159
20
3.784888
30
0
11
-0.746974891996417
21
0.0391472952697171
31
0
210
0
220
0
230
1
40
0.99366
41
0.889368053279051
42
1.5175637722357
0
ELLIPSE
5
BB
100
AcDbEntity
8
1
62
256
6
ByLayer
370
-1
48
1
60
0
100
AcDbEllipse
10
60.309068
20
3.878557
30
0
11
0.746974891996424
21
-0.0391472952697212
31
0
210
0
220
0
230
1
40
0.99366
41
-0.34316397101689
42
-0.267701267181108
0
ELLIPSE
5
BC
100
AcDbEntity
8
1
62
256
6
ByLayer
370
-1
48
1
60
0
100
AcDbEllipse
10
60.304159
20
3.784888
30
0
11
-0.746974891996417
21
0.0391472952697171
31
0
210
0
220
0
230
1
40
0.99366
41
-2.39939873166221
42
-1.35305916012554
0
ELLIPSE
5
BD
100
AcDbEntity
8
1
62
256
6
ByLayer
370
-1
48
1
60
0
100
AcDbEllipse
10
60.304159
20
3.784888
30
0
11
0.746974891996416
21
-0.0391472952697208
31
0
210
0
220
0
230
1
40
0.99366
41
-0.0717342156836355
42
0.742193921927557
0
ELLIPSE
5
BE
100
AcDbEntity
8
1
62
256
6
ByLayer
370
-1
48
1
60
0
100
AcDbEllipse
10
60.310043
20
3.89716
30
0
11
1.03358156847098
21
-0.0541677147114454
31
0
210
0
220
0
230
1
40
0.99366
41
2.31170327923252
42
-2.92256851743065
0
ELLIPSE
5
BF
100
AcDbEntity
8
1
62
256
6
ByLayer
370
-1
48
1
60
0
100
AcDbEllipse
10
60.11117
20
4.931693
30
0
11
-0.42142166366643
21
0.0220857735345197
31
0
210
0
220
0
230
1
40
0.99366
41
1.7885334934642
42
2.56343322131661
0
ELLIPSE
5
C0
100
AcDbEntity
8
1
62
256
6
ByLayer
370
-1
48
1
60
0
100
AcDbEllipse
10
60.310043
20
3.89716
30
0
11
1.03358156847098
21
-0.0541677147114454
31
0
210
0
220
0
230
1
40
0.99366
41
-0.829889374357216
42
0.219024136159248
0
ELLIPSE
5
C1
100
AcDbEntity
8
1
62
256
6
ByLayer
370
-1
48
1
60
0
100
AcDbEllipse
10
60.304159
20
3.784888
30
0
11
0.746974891996416
21
-0.0391472952697208
31
0
210
0
220
0
230
1
40
0.99366
41
2.79842868257386
42
2.8738913864076
0
ELLIPSE
5
C2
100
AcDbEntity
8
1
62
256
6
ByLayer
370
-1
48
1
60
0
100
AcDbEllipse
10
60.310043
20
3.89716
30
0
11
1.03358156847098
21
-0.0541677147114454
31
0
210
0
220
0
230
1
40
0.99366
41
0.219024136159248
42
1.26536370769595
0
ELLIPSE
5
C3
100
AcDbEntity
8
1
62
256
6
ByLayer
370
-1
48
1
60
0
100
AcDbEllipse
10
59.20952
20
4.191889
30
0
11
-0.42142166366643
21
0.0220857735345197
31
0
210
0
220
0
230
1
40
0.99366
41
2.90307335680661
42
-3.14158311764455
0
ELLIPSE
5
C4
100
AcDbEntity
8
1
62
256
6
ByLayer
370
-1
48
1
60
0
100
AcDbEllipse
10
60.304159
20
3.784888
30
0
11
-0.746974891996417
21
0.0391472952697171
31
0
210
0
220
0
230
1
40
0.99366
41
-0.267701267182173
42
0.45480036314087
0
ELLIPSE
5
C5
100
AcDbEntity
8
1
62
256
6
ByLayer
370
-1
48
1
60
0
100
AcDbEllipse
10
60.310043
20
3.89716
30
0
11
1.03358156847098
21
-0.0541677147114454
31
0
210
0
220
0
230
1
40
0.99366
41
1.26536370769595
42
2.31170327923252
0
ELLIPSE
5
C6
100
AcDbEntity
8
1
62
256
6
ByLayer
370
-1
48
1
60
0
100
AcDbEllipse
10
60.304159
20
3.784888
30
0
11
-0.746974891996417
21
0.0391472952697171
31
0
210
0
220
0
230
1
40
0.99366
41
-1.35305916012554
42
-0.343163971015905
0
ELLIPSE
5
C7
100
AcDbEntity
8
1
62
256
6
ByLayer
370
-1
48
1
60
0
100
AcDbEllipse
10
61.206378
20
4.52448
30
0
11
-0.42142166366643
21
0.0220857735345197
31
0
210
0
220
0
230
1
40
0.99366
41
0.742193921927597
42
1.51709364978015
0
ELLIPSE
5
C8
100
AcDbEntity
8
1
62
256
6
ByLayer
370
-1
48
1
60
0
100
AcDbEllipse
10
60.310043
20
3.89716
30
0
11
1.29821839518094
21
-0.0680367431158251
31
0
210
0
220
0
230
1
40
0.99366
41
0
42
6.28318530717959
0
ELLIPSE
5
C9
100
AcDbEntity
8
1
62
256
6
ByLayer
370
-1
48
1
60
0
100
AcDbEllipse
10
60.30902
20
3.877633
30
0
11
1.72263594745164
21
-0.090279524519076
31
0
210
0
220
0
230
1
40
0.99366
41
0
42
6.28318530717959
0
ELLIPSE
5
CA
100
AcDbEntity
8
1
62
256
6
ByLayer
370
-1
48
1
60
0
100
AcDbEllipse
10
60.304748
20
3.796115
30
0
11
1.72263594745163
21
-0.0902795245190754
31
0
210
0
220
0
230
1
40
0.99366
41
3.14154378946862
42
-2.59085623053093E-16
0
POINT
5
41
100
AcDbEntity
8
80
62
256
6
ByLayer
370
-1
48
1
60
0
100
AcDbPoint
10
0
20
0
30
0
39
0
210
0
220
0
230
1
50
360
0
POINT
5
43
100
AcDbEntity
8
81
62
256
6
ByLayer
370
-1
48
1
60
0
100
AcDbPoint
10
63.94
20
12.9
30
0
39
0
210
0
220
0
230
1
50
360
0
POINT
5
45
100
AcDbEntity
8
1
62
256
6
ByLayer
370
-1
48
1
60
0
100
AcDbPoint
10
-137.31
20
0
30
0
39
0
210
0
220
0
230
1
50
360
0
POINT
5
47
100
AcDbEntity
8
2
62
256
6
ByLayer
370
-1
48
1
60
0
100
AcDbPoint
10
63.94
20
12.9
30
0
39
0
210
0
220
0
230
1
50
360
0
POINT
5
49
100
AcDbEntity
8
2
62
256
6
ByLayer
370
-1
48
1
60
0
100
AcDbPoint
10
63.738626
20
11.996445
30
0
39
0
210
0
220
0
230
1
50
360
0
SPLINE
5
CB
100
AcDbEntity
8
1
62
256
6
ByLayer
370
-1
48
1
60
0
100
AcDbSpline
70
4
71
3
72
8
73
4
40
0
40
0
40
0
40
0
40
1
40
1
40
1
40
1
41
1
10
49.5453176499996
20
-7.20253528912872
30
0
41
1
10
49.570299774677
20
-7.18329911666794
30
0
41
1
10
49.5953001393925
20
-7.16396992882054
30
0
41
1
10
49.6203176499996
20
-7.14454992222127
30
0
0
SPLINE
5
CC
100
AcDbEntity
8
1
62
256
6
ByLayer
370
-1
48
1
60
0
100
AcDbSpline
70
4
71
3
72
8
73
4
40
0
40
0
40
0
40
0
40
1
40
1
40
1
40
1
41
1
10
57.9605296136736
20
-4.25290558289171
30
0
41
1
10
57.9613904478745
20
-4.29247036980257
30
0
41
1
10
57.9616409840297
20
-4.3320225019713
30
0
41
1
10
57.9612833210595
20
-4.37156149847783
30
0
0
SPLINE
5
CD
100
AcDbEntity
8
1
62
256
6
ByLayer
370
-1
48
1
60
0
100
AcDbSpline
70
4
71
3
72
8
73
4
40
0
40
0
40
0
40
0
40
1
40
1
40
1
40
1
41
1
10
51.4703176499993
20
-7.43561958390862
30
0
41
1
10
51.5283318135545
20
-7.49957606645856
30
0
41
1
10
51.5864649330781
20
-7.56344149099471
30
0
41
1
10
51.6447089656891
20
-7.62722120616834
30
0
0
SPLINE
5
CE
100
AcDbEntity
8
1
62
256
6
ByLayer
370
-1
48
1
60
0
100
AcDbSpline
70
4
71
3
72
8
73
4
40
0
40
0
40
0
40
0
40
1
40
1
40
1
40
1
41
1
10
49.6203176499995
20
-7.14454992222122
30
0
41
1
10
50.215850520169
20
-7.27257298338355
30
0
41
1
10
50.8362448201695
20
-7.36617520082902
30
0
41
1
10
51.4703176499996
20
-7.43561958390839
30
0
0
SPLINE
5
CF
100
AcDbEntity
8
1
62
256
6
ByLayer
370
-1
48
1
60
0
100
AcDbSpline
70
4
71
3
72
28
73
24
40
-0.125000000000007
40
-0.125000000000007
40
0
40
0
40
0.124999999999997
40
0.124999999999997
40
0.187499999999996
40
0.187499999999996
40
0.249999999999994
40
0.249999999999994
40
0.374999999999991
40
0.374999999999991
40
0.499999999999988
40
0.499999999999988
40
0.624999999999985
40
0.624999999999985
40
0.687499999999983
40
0.687499999999983
40
0.718749999999985
40
0.718749999999985
40
0.749999999999986
40
0.749999999999986
40
0.874999999999993
40
0.874999999999993
40
1
40
1
40
1.125
40
1.125
41
1
10
47.1896066236681
20
2.67297562503222
30
0
41
1
10
46.2300727514601
20
2.16994736926944
30
0
41
1
10
45.7227375475652
20
1.996648707377
30
0
41
1
10
44.9549273897032
20
2.1671251918483
30
0
41
1
10
44.699088197048
20
2.31279430758343
30
0
41
1
10
44.3311967654208
20
2.8019022700725
30
0
41
1
10
44.2358546319302
20
3.1315726127213
30
0
41
1
10
44.2377866347069
20
4.03379248115473
30
0
41
1
10
44.5487599336486
20
4.48855036512668
30
0
41
1
10
45.327775462829
20
5.13503600488298
30
0
41
1
10
45.8196005840437
20
5.34831812984376
30
0
41
1
10
46.8811517203831
20
5.63904831069402
30
0
41
1
10
47.4606307638439
20
5.72495051427381
30
0
41
1
10
48.3536300226387
20
5.71723486169552
30
0
41
1
10
48.6694266796742
20
5.70590944759135
30
0
41
1
10
49.1040044731497
20
5.51164847153484
30
0
41
1
10
49.2363801132408
20
5.39415556950252
30
0
41
1
10
49.2940767258522
20
5.08012812216555
30
0
41
1
10
49.242027713475
20
4.92579857648676
30
0
41
1
10
48.9225175151287
20
4.22184273196669
30
0
41
1
10
48.4826535225179
20
3.79339320093686
30
0
41
1
10
47.6365924640913
20
3.01157459700636
30
0
41
1
10
47.1896066236681
20
2.67297562503222
30
0
41
1
10
46.2300727514601
20
2.16994736926944
30
0
0
SPLINE
5
D0
100
AcDbEntity
8
1
62
256
6
ByLayer
370
-1
48
1
60
0
100
AcDbSpline
70
4
71
3
72
10
73
6
40
0
40
0
40
0
40
0
40
0.5
40
0.5
40
1
40
1
40
1
40
1
41
1
10
41.7074516029379
20
2.76225564530131
30
0
41
1
10
41.5792638980085
20
3.68467132642499
30
0
41
1
10
41.5641797053159
20
4.57187071601379
30
0
41
1
10
41.9406956100245
20
6.04452704059946
30
0
41
1
10
42.3468207544685
20
6.62004805028758
30
0
41
1
10
42.941960987562
20
7.00750000000005
30
0
0
SPLINE
5
D1
100
AcDbEntity
8
1
62
256
6
ByLayer
370
-1
48
1
60
0
100
AcDbSpline
70
4
71
3
72
10
73
6
40
0
40
0
40
0
40
0
40
0.5
40
0.5
40
1
40
1
40
1
40
1
41
1
10
49.5453176499996
20
-7.20253528912932
30
0
41
1
10
48.2355981531002
20
-6.91360585803761
30
0
41
1
10
47.0704956897885
20
-6.46044462347965
30
0
41
1
10
45.035300030684
20
-4.98686051269124
30
0
41
1
10
44.1996560136809
20
-3.97068833785562
30
0
41
1
10
43.5335601820456
20
-2.76225564530176
30
0
0
SPLINE
5
D2
100
AcDbEntity
8
1
62
256
6
ByLayer
370
-1
48
1
60
0
100
AcDbSpline
70
4
71
3
72
8
73
4
40
0
40
0
40
0
40
0
40
1
40
1
40
1
40
1
41
1
10
51.8765222469424
20
5.12269534827493
30
0
41
1
10
51.8773422050046
20
5.12188054868585
30
0
41
1
10
51.8781625026327
20
5.12106609081647
30
0
41
1
10
51.8789831394029
20
5.12025197510894
30
0
0
SPLINE
5
D3
100
AcDbEntity
8
1
62
256
6
ByLayer
370
-1
48
1
60
0
100
AcDbSpline
70
4
71
3
72
8
73
4
40
0
40
0
40
0
40
0
40
1
40
1
40
1
40
1
41
1
10
55.3619510866234
20
-7.79869957361299
30
0
41
1
10
54.0923412821077
20
-7.7966833632467
30
0
41
1
10
52.8535343240035
20
-7.75125092866722
30
0
41
1
10
51.6447089656891
20
-7.62722120616837
30
0
0
SPLINE
5
D4
100
AcDbEntity
8
1
62
256
6
ByLayer
370
-1
48
1
60
0
100
AcDbSpline
70
4
71
3
72
8
73
4
40
0
40
0
40
0
40
0
40
1
40
1
40
1
40
1
41
1
10
57.9626503631705
20
-4.2124392718394
30
0
41
1
10
57.9688200308502
20
-4.25659681875729
30
0
41
1
10
57.9698928752337
20
-4.30065172737028
30
0
41
1
10
57.9659036915685
20
-4.34458346173685
30
0
0
SPLINE
5
D5
100
AcDbEntity
8
1
62
256
6
ByLayer
370
-1
48
1
60
0
100
AcDbSpline
70
4
71
3
72
8
73
4
40
0
40
0
40
0
40
0
40
1
40
1
40
1
40
1
41
1
10
51.6443177117928
20
-8.0915
30
0
41
1
10
51.6444319232393
20
-8.0915
30
0
41
1
10
51.6445631917358
20
-7.93572578856069
30
0
41
1
10
51.6447089656891
20
-7.62722120616837
30
0
0
SPLINE
5
D6
100
AcDbEntity
8
SK1
62
256
6
ByLayer
370
-1
48
1
60
0
100
AcDbSpline
70
4
71
3
72
10
73
6
40
0
40
0
40
0
40
0
40
0.5
40
0.5
40
1
40
1
40
1
40
1
41
1
10
-135.31
20
2.76225564530151
30
0
41
1
10
-135.618496949467
20
1.86962940601529
30
0
41
1
10
-135.802263903757
20
0.947191057260369
30
0
41
1
10
-135.802735629345
20
-0.943448469663423
30
0
41
1
10
-135.615124150977
20
-1.87938849257091
30
0
41
1
10
-135.31
20
-2.76225564530151
30
0
0
SPLINE
5
D7
100
AcDbEntity
8
1
62
256
6
ByLayer
370
-1
48
1
60
0
100
AcDbSpline
70
4
71
3
72
18
73
14
40
0
40
0
40
0
40
0
40
0.205109773260391
40
0.205109773260391
40
0.382165775344809
40
0.382165775344809
40
0.560956854520253
40
0.560956854520253
40
0.716164704853903
40
0.716164704853903
40
0.920935955530204
40
0.920935955530204
40
1
40
1
40
1
40
1
41
1
10
59.8751877709378
20
4.6925958896922
30
0
41
1
10
59.9092384982376
20
4.66646716629808
30
0
41
1
10
59.9479734815374
20
4.64481450414078
30
0
41
1
10
60.0258510162882
20
4.61693378174769
30
0
41
1
10
60.0651390397366
20
4.60879221607237
30
0
41
1
10
60.1451395362841
20
4.60512023811532
30
0
41
1
10
60.1870590031992
20
4.60979949273187
30
0
41
1
10
60.2604982776995
20
4.63023140202722
30
0
41
1
10
60.2935505205828
20
4.64462507337672
30
0
41
1
10
60.3625783156729
20
4.68574947932089
30
0
41
1
10
60.3973820949752
20
4.71550898134765
30
0
41
1
10
60.4375068853685
20
4.76151526793757
30
0
41
1
10
60.4479693992475
20
4.77502817377322
30
0
41
1
10
60.4575887542875
20
4.78899902092644
30
0
0
SPLINE
5
D8
100
AcDbEntity
8
1
62
256
6
ByLayer
370
-1
48
1
60
0
100
AcDbSpline
70
4
71
3
72
16
73
12
40
0
40
0
40
0
40
0
40
0.105787718619272
40
0.105787718619272
40
0.329993533315588
40
0.329993533315588
40
0.559329433042417
40
0.559329433042417
40
0.804971987368233
40
0.804971987368233
40
1
40
1
40
1
40
1
41
1
10
61.3306273544535
20
4.0674364450486
30
0
41
1
10
61.3291526031762
20
4.07613108609453
30
0
41
1
10
61.3270373847755
20
4.08471287734685
30
0
41
1
10
61.3185962597977
20
4.11057691083266
30
0
41
1
10
61.3100330456496
20
4.12722280716855
30
0
41
1
10
61.2886125024415
20
4.15655631501642
30
0
41
1
10
61.2754029956346
20
4.16952621796221
30
0
41
1
10
61.2454835768257
20
4.19097044914179
30
0
41
1
10
61.2282296789815
20
4.19934481780004
30
0
41
1
10
61.1964362887477
20
4.20899991748877
30
0
41
1
10
61.1818436617768
20
4.21146815493694
30
0
41
1
10
61.1673277911625
20
4.21216204622783
30
0
0
SPLINE
5
D9
100
AcDbEntity
8
1
62
256
6
ByLayer
370
-1
48
1
60
0
100
AcDbSpline
70
4
71
3
72
14
73
10
40
0
40
0
40
0
40
0
40
0.0413935204334312
40
0.0413935204334312
40
0.378864373890427
40
0.378864373890427
40
0.824115072157317
40
0.824115072157317
40
1
40
1
40
1
40
1
41
1
10
59.6187342894081
20
4.16516149977514
30
0
41
1
10
59.6199952355044
20
4.1693757355084
30
0
41
1
10
59.6211898972402
20
4.17361385779299
30
0
41
1
10
59.6314235458376
20
4.21225507139482
30
0
41
1
10
59.6361106077829
20
4.24826576370415
30
0
41
1
10
59.6370674938289
20
4.32941804019598
30
0
41
1
10
59.6303369310815
20
4.37518002079554
30
0
41
1
10
59.6129739888908
20
4.43451830730299
30
0
41
1
10
59.6070947321529
20
4.45105526534465
30
0
41
1
10
59.6003830669657
20
4.46708316458421
30
0
0
SPLINE
5
DA
100
AcDbEntity
8
1
62
256
6
ByLayer
370
-1
48
1
60
0
100
AcDbSpline
70
4
71
3
72
18
73
14
40
0
40
0
40
0
40
0
40
0.204526037411998
40
0.204526037411998
40
0.381685750893541
40
0.381685750893541
40
0.560587342834612
40
0.560587342834612
40
0.715817624917239
40
0.715817624917239
40
0.920487351511311
40
0.920487351511311
40
1
40
1
40
1
40
1
41
1
10
60.791383832941
20
4.66488982991865
30
0
41
1
10
60.7877409369498
20
4.62134359639336
30
0
41
1
10
60.7901945078657
20
4.5760936910643
30
0
41
1
10
60.8077619826454
20
4.49338463728822
30
0
41
1
10
60.8214418184912
20
4.45477795305126
30
0
41
1
10
60.8596011344259
20
4.38322828477766
30
0
41
1
10
60.884861433372
20
4.34935534139092
30
0
41
1
10
60.9388289083474
20
4.29675756394175
30
0
41
1
10
60.9672447948049
20
4.27594599901431
30
0
41
1
10
61.0354491579118
20
4.23851931963901
30
0
41
1
10
61.0770772996681
20
4.22455363264163
30
0
41
1
10
61.134701339843
20
4.21469824111534
30
0
41
1
10
61.1510371749944
20
4.21294077435115
30
0
41
1
10
61.1673277911625
20
4.2121620462278
30
0
0
SPLINE
5
DB
100
AcDbEntity
8
1
62
256
6
ByLayer
370
-1
48
1
60
0
100
AcDbSpline
70
4
71
3
72
14
73
10
40
0
40
0
40
0
40
0
40
0.25203047138947
40
0.25203047138947
40
0.543311018633453
40
0.543311018633453
40
0.806870601770796
40
0.806870601770796
40
1
40
1
40
1
40
1
41
1
10
59.8279031159697
20
3.11417177551823
30
0
41
1
10
59.826372856143
20
3.09668983705899
30
0
41
1
10
59.8276943228894
20
3.07842440555623
30
0
41
1
10
59.837145819273
20
3.03993513895171
30
0
41
1
10
59.8465131927279
20
3.01923517519251
30
0
41
1
10
59.8717348923806
20
2.98401728088658
30
0
41
1
10
59.8873023730417
20
2.96858545667465
30
0
41
1
10
59.9181857795666
20
2.94719468559083
30
0
41
1
10
59.932744382076
20
2.93959133612179
30
0
41
1
10
59.947906197001
20
2.93395398343222
30
0
0
SPLINE
5
DC
100
AcDbEntity
8
1
62
256
6
ByLayer
370
-1
48
1
60
0
100
AcDbSpline
70
4
71
3
72
16
73
12
40
0
40
0
40
0
40
0
40
0.216480327824414
40
0.216480327824414
40
0.441657862544442
40
0.441657862544442
40
0.677768013666136
40
0.677768013666136
40
0.934784540319839
40
0.934784540319839
40
1
40
1
40
1
40
1
41
1
10
59.2894592719039
20
3.72688391504858
30
0
41
1
10
59.2924662988355
20
3.7091554884415
30
0
41
1
10
59.2981991598508
20
3.69151239066341
30
0
41
1
10
59.3144323631775
20
3.65837459776239
30
0
41
1
10
59.3253193724537
20
3.64256872396322
30
0
41
1
10
59.3509397077577
20
3.61461708040031
30
0
41
1
10
59.3661425779025
20
3.60232258482768
30
0
41
1
10
59.3996515110011
20
3.58215099198543
30
0
41
1
10
59.418522505742
20
3.57448973182366
30
0
41
1
10
59.4422419084313
20
3.5686916112609
30
0
41
1
10
59.4471013554914
20
3.56770008228165
30
0
41
1
10
59.4519591577491
20
3.56689955921857
30
0
0
SPLINE
5
DD
100
AcDbEntity
8
1
62
256
6
ByLayer
370
-1
48
1
60
0
100
AcDbSpline
70
4
71
3
72
18
73
14
40
0
40
0
40
0
40
0
40
0.212750253793675
40
0.212750253793675
40
0.388462816104685
40
0.388462816104685
40
0.565821032187348
40
0.565821032187348
40
0.720757856400011
40
0.720757856400011
40
0.926876249221925
40
0.926876249221925
40
1
40
1
40
1
40
1
41
1
10
60.7440991779729
20
3.08646571575471
30
0
41
1
10
60.7085154321849
20
3.10856844384668
30
0
41
1
10
60.6678749212169
20
3.12615723497078
30
0
41
1
10
60.5878695068691
20
3.14668042248127
30
0
41
1
10
60.5485819578229
20
3.15178394609632
30
0
41
1
10
60.4689147880651
20
3.15166690703188
30
0
41
1
10
60.4273563865132
20
3.14625614704363
30
0
41
1
10
60.3545728314881
20
3.12691522700723
30
0
41
1
10
60.321822793356
20
3.11395980888986
30
0
41
1
10
60.2532545481168
20
3.07751909839348
30
0
41
1
10
60.2187282510036
20
3.05144321143612
30
0
41
1
10
60.1800243029691
20
3.01207053082163
30
0
41
1
10
60.1705004263494
20
3.00124188331634
30
0
41
1
10
60.1616981946239
20
2.99006258451948
30
0
0
SPLINE
5
DE
100
AcDbEntity
8
1
62
256
6
ByLayer
370
-1
48
1
60
0
100
AcDbSpline
70
4
71
3
72
18
73
14
40
0
40
0
40
0
40
0
40
0.0790457919510878
40
0.0790457919510878
40
0.281710162965268
40
0.281710162965268
40
0.445888139244164
40
0.445888139244164
40
0.610894675465829
40
0.610894675465829
40
0.765288047943222
40
0.765288047943222
40
1
40
1
40
1
40
1
41
1
10
59.8279031159698
20
3.1141717755182
30
0
41
1
10
59.8292203770787
20
3.12922038179957
30
0
41
1
10
59.8296267310572
20
3.1445143055856
30
0
41
1
10
59.8276556961507
20
3.19935166595687
30
0
41
1
10
59.8198296975452
20
3.24045429756325
30
0
41
1
10
59.7929208705915
20
3.31326537268626
30
0
41
1
10
59.7758653477435
20
3.34606388039467
30
0
41
1
10
59.7332874763132
20
3.40692376412286
30
0
41
1
10
59.7071294981178
20
3.43573351849605
30
0
41
1
10
59.6519160347864
20
3.48331671196689
30
0
41
1
10
59.622549710598
20
3.50321562299322
30
0
41
1
10
59.5472424012213
20
3.54323748329918
30
0
41
1
10
59.4990893220242
20
3.55913292289483
30
0
41
1
10
59.4519591577491
20
3.5668995592186
30
0
0
SPLINE
5
DF
100
AcDbEntity
8
1
62
256
6
ByLayer
370
-1
48
1
60
0
100
AcDbSpline
70
4
71
3
72
14
73
10
40
0
40
0
40
0
40
0
40
0.0509656149868137
40
0.0509656149868137
40
0.387641303605615
40
0.387641303605615
40
0.835163690500746
40
0.835163690500746
40
1
40
1
40
1
40
1
41
1
10
60.9994024107978
20
3.59195205289569
30
0
41
1
10
60.997853900836
20
3.58683719524046
30
0
41
1
10
60.9964068879189
20
3.58170674380364
30
0
41
1
10
60.986260904675
20
3.54292004181312
30
0
41
1
10
60.9819196219779
20
3.50862654094232
30
0
41
1
10
60.9817549486761
20
3.43260240534073
30
0
41
1
10
60.9890509478967
20
3.39079718120345
30
0
41
1
10
61.006902048967
20
3.33874156932939
30
0
41
1
10
61.0125364179872
20
3.32507931934671
30
0
41
1
10
61.0188999828311
20
3.31190404131942
30
0
0
SPLINE
5
E0
100
AcDbEntity
8
1
62
256
6
ByLayer
370
-1
48
1
60
0
100
AcDbSpline
70
4
71
3
72
14
73
10
40
0
40
0
40
0
40
0
40
0.282442656178271
40
0.282442656178271
40
0.569916370091366
40
0.569916370091366
40
0.830386171914252
40
0.830386171914252
40
1
40
1
40
1
40
1
41
1
10
59.8751877709379
20
4.69259588969223
30
0
41
1
10
59.8580229066463
20
4.7057672967878
30
0
41
1
10
59.8382161386177
20
4.7162663162041
30
0
41
1
10
59.7957700365562
20
4.72959942384227
30
0
41
1
10
59.7724181418555
20
4.73246057507703
30
0
41
1
10
59.728539174666
20
4.72900399617191
30
0
41
1
10
59.7072957224378
20
4.72343318889969
30
0
41
1
10
59.6752354627492
20
4.70817244622052
30
0
41
1
10
59.6631131226348
20
4.70049732903209
30
0
41
1
10
59.6521344137886
20
4.69152114337015
30
0
0
SPLINE
5
E1
100
AcDbEntity
8
1
62
256
6
ByLayer
370
-1
48
1
60
0
100
AcDbSpline
70
4
71
3
72
16
73
12
40
0
40
0
40
0
40
0
40
0.177788522568492
40
0.177788522568492
40
0.477651446065649
40
0.477651446065649
40
0.748666292623439
40
0.748666292623439
40
0.989894882709375
40
0.989894882709375
40
1
40
1
40
1
40
1
41
1
10
59.3933116642687
20
3.916318138528
30
0
41
1
10
59.3813141180892
20
3.91151886332682
30
0
41
1
10
59.3697344645793
20
3.90530510557869
30
0
41
1
10
59.3409340144168
20
3.88515594639577
30
0
41
1
10
59.3247901817109
20
3.8683981495364
30
0
41
1
10
59.3016458193068
20
3.83111385259511
30
0
41
1
10
59.2935969777117
20
3.81050661601458
30
0
41
1
10
59.2862273848489
20
3.7697929848448
30
0
41
1
10
59.2859601255213
20
3.74929139344726
30
0
41
1
10
59.2891788449347
20
3.72857276250656
30
0
41
1
10
59.2893161029415
20
3.72772799144036
30
0
41
1
10
59.2894592719039
20
3.72688391504858
30
0
0
SPLINE
5
E2
100
AcDbEntity
8
1
62
256
6
ByLayer
370
-1
48
1
60
0
100
AcDbSpline
70
4
71
3
72
16
73
12
40
0
40
0
40
0
40
0
40
0.0476405432054365
40
0.0476405432054365
40
0.271924592389936
40
0.271924592389936
40
0.498102827803007
40
0.498102827803007
40
0.737927980962184
40
0.737927980962184
40
1
40
1
40
1
40
1
41
1
10
60.967952212569
20
3.10279921672702
30
0
41
1
10
60.9710617045316
20
3.10534153546067
30
0
41
1
10
60.974089097187
20
3.10797962484958
30
0
41
1
10
60.9907189189946
20
3.12341802226899
30
0
41
1
10
61.0025289750515
20
3.13825440696917
30
0
41
1
10
61.0207340102423
20
3.169771695945
30
0
41
1
10
61.0273272685775
20
3.18686271901242
30
0
41
1
10
61.0351204880345
20
3.22192742834292
30
0
41
1
10
61.0360881487771
20
3.24032805683041
30
0
41
1
10
61.0322706290969
20
3.27687655765968
30
0
41
1
10
61.0269184250684
20
3.29530246525113
30
0
41
1
10
61.0188999828311
20
3.31190404131942
30
0
0
SPLINE
5
E3
100
AcDbEntity
8
1
62
256
6
ByLayer
370
-1
48
1
60
0
100
AcDbSpline
70
4
71
3
72
14
73
10
40
0
40
0
40
0
40
0
40
0.214802547973976
40
0.214802547973976
40
0.51736995650822
40
0.51736995650822
40
0.784353526551248
40
0.784353526551248
40
1
40
1
40
1
40
1
41
1
10
60.7913838329448
20
4.66488982991993
30
0
41
1
10
60.7927835708429
20
4.68162193357858
30
0
41
1
10
60.7921217351393
20
4.69882154586679
30
0
41
1
10
60.7852038997248
20
4.73945004964477
30
0
41
1
10
60.7765548321224
20
4.76326476470643
30
0
41
1
10
60.7522314906686
20
4.80309169811764
30
0
41
1
10
60.7370944060345
20
4.82027606981089
30
0
41
1
10
60.7052937420859
20
4.84501114597282
30
0
41
1
10
60.6891138357096
20
4.85407032409333
30
0
41
1
10
60.6721804293565
20
4.86036637666493
30
0
0
SPLINE
5
E4
100
AcDbEntity
8
1
62
256
6
ByLayer
370
-1
48
1
60
0
100
AcDbSpline
70
4
71
3
72
12
73
8
40
0
40
0
40
0
40
0
40
0.462778265909619
40
0.462778265909619
40
0.844463429360409
40
0.844463429360409
40
1
40
1
40
1
40
1
41
1
10
61.2259713855387
20
3.8626690673824
30
0
41
1
10
61.1865829975491
20
3.84199912332872
30
0
41
1
10
61.1487328827451
20
3.81475683175958
30
0
41
1
10
61.0876558306044
20
3.75459846554898
30
0
41
1
10
61.0624072738399
20
3.72277488231433
30
0
41
1
10
61.0335589393304
20
3.67410789756659
30
0
41
1
10
61.0259122788896
20
3.65944122874581
30
0
41
1
10
61.0191477044245
20
3.64447025201307
30
0
0
SPLINE
5
E5
100
AcDbEntity
8
1
62
256
6
ByLayer
370
-1
48
1
60
0
100
AcDbSpline
70
4
71
3
72
14
73
10
40
0
40
0
40
0
40
0
40
0.257689082241845
40
0.257689082241845
40
0.548261842199144
40
0.548261842199144
40
0.811237788794021
40
0.811237788794021
40
1
40
1
40
1
40
1
41
1
10
60.7440991779729
20
3.08646571575471
30
0
41
1
10
60.7598807485727
20
3.07666304444777
30
0
41
1
10
60.7778271927373
20
3.06898954762647
30
0
41
1
10
60.8183568085323
20
3.0589000530683
30
0
41
1
10
60.8419074722237
20
3.0571678733059
30
0
41
1
10
60.8863676631684
20
3.0621111745325
30
0
41
1
10
60.9079859685709
20
3.06811656915283
30
0
41
1
10
60.9420833962002
20
3.08421671790575
30
0
41
1
10
60.9557394504271
20
3.0928140698426
30
0
41
1
10
60.967952212569
20
3.10279921672702
30
0
0
SPLINE
5
E6
100
AcDbEntity
8
1
62
256
6
ByLayer
370
-1
48
1
60
0
100
AcDbSpline
70
4
71
3
72
16
73
12
40
0
40
0
40
0
40
0
40
0.0653387033252608
40
0.0653387033252608
40
0.289257148015714
40
0.289257148015714
40
0.516070602558016
40
0.516070602558016
40
0.757342640633305
40
0.757342640633305
40
1
40
1
40
1
40
1
41
1
10
59.6521344137886
20
4.69152114337015
30
0
41
1
10
59.6478766637306
20
4.68804000951747
30
0
41
1
10
59.6437702871315
20
4.68435160965893
30
0
41
1
10
59.6264790656504
20
4.66731244093995
30
0
41
1
10
59.61504293708
20
4.65177316982161
30
0
41
1
10
59.5975399894342
20
4.61838320048628
30
0
41
1
10
59.5913084639487
20
4.60008742809137
30
0
41
1
10
59.5842284659156
20
4.56217937571384
30
0
41
1
10
59.5836400041379
20
4.54208679434245
30
0
41
1
10
59.5880328004202
20
4.50347804912184
30
0
41
1
10
59.5930672274233
20
4.48455387204183
30
0
41
1
10
59.6003830669657
20
4.46708316458421
30
0
0
SPLINE
5
E7
100
AcDbEntity
8
1
62
256
6
ByLayer
370
-1
48
1
60
0
100
AcDbSpline
70
4
71
3
72
16
73
12
40
0
40
0
40
0
40
0
40
0.0139273922927748
40
0.0139273922927748
40
0.330495137868083
40
0.330495137868083
40
0.619389746957452
40
0.619389746957452
40
0.873964633527586
40
0.873964633527586
40
1
40
1
40
1
40
1
41
1
10
61.2259713855387
20
3.86266906738243
30
0
41
1
10
61.2269274473027
20
3.86317078233401
30
0
41
1
10
61.2278805206474
20
3.86368076033861
30
0
41
1
10
61.2500925094517
20
3.87579793899371
30
0
41
1
10
61.2701224075743
20
3.89187083305501
30
0
41
1
10
61.3015020932285
20
3.92902383591948
30
0
41
1
10
61.3139151265453
20
3.95016397994081
30
0
41
1
10
61.3291154668071
20
3.9926901468265
30
0
41
1
10
61.3330645544119
20
4.01439274326393
30
0
41
1
10
61.3332532288545
20
4.0463560306797
30
0
41
1
10
61.3323941179889
20
4.05702019724589
30
0
41
1
10
61.3306273544535
20
4.0674364450486
30
0
0
SPLINE
5
E8
100
AcDbEntity
8
1
62
256
6
ByLayer
370
-1
48
1
60
0
100
AcDbSpline
70
4
71
3
72
16
73
12
40
0
40
0
40
0
40
0
40
0.0437360668280015
40
0.0437360668280015
40
0.268723697574942
40
0.268723697574942
40
0.495380623022729
40
0.495380623022729
40
0.735534653104102
40
0.735534653104102
40
1
40
1
40
1
40
1
41
1
10
59.947906197001
20
2.93395398343222
30
0
41
1
10
59.9513623720795
20
2.93266893424973
30
0
41
1
10
59.9548587948811
20
2.93148014579805
30
0
41
1
10
59.9763594487703
20
2.92483963725027
30
0
41
1
10
59.9953905938714
20
2.92188111819777
30
0
41
1
10
60.0325953248293
20
2.92140562050292
30
0
41
1
10
60.0512366196767
20
2.92390937643219
30
0
41
1
10
60.0868154075192
20
2.93386403808188
30
0
41
1
10
60.1040374317449
20
2.94170722915283
30
0
41
1
10
60.135734959297
20
2.9621671879637
30
0
41
1
10
60.1501743155684
20
2.97542664998878
30
0
41
1
10
60.1616981946239
20
2.99006258451948
30
0
0
SPLINE
5
E9
100
AcDbEntity
8
1
62
256
6
ByLayer
370
-1
48
1
60
0
100
AcDbSpline
70
4
71
3
72
12
73
8
40
0
40
0
40
0
40
0
40
0.447835677496058
40
0.447835677496058
40
0.832041836037344
40
0.832041836037344
40
1
40
1
40
1
40
1
41
1
10
59.3933116642729
20
3.91631813852715
30
0
41
1
10
59.431180548833
20
3.9314665026931
30
0
41
1
10
59.4676018008238
20
3.95302501312875
30
0
41
1
10
59.5278963133067
20
4.00469537401
30
0
41
1
10
59.55343915868
20
4.03383751886787
30
0
41
1
10
59.5833932075613
20
4.08138453539186
30
0
41
1
10
59.5917002940295
20
4.09672444548227
30
0
41
1
10
59.5989889957819
20
4.11264330065907
30
0
0
SPLINE
5
EA
100
AcDbEntity
8
1
62
256
6
ByLayer
370
-1
48
1
60
0
100
AcDbSpline
70
4
71
3
72
18
73
14
40
0
40
0
40
0
40
0
40
0.0229034547442983
40
0.0229034547442983
40
0.248475025681232
40
0.248475025681232
40
0.474515734267288
40
0.474515734267288
40
0.713078746993449
40
0.713078746993449
40
0.973764784341828
40
0.973764784341828
40
1
40
1
40
1
40
1
41
1
10
60.6721804293565
20
4.86036637666493
30
0
41
1
10
60.6703666412618
20
4.86104076579608
30
0
41
1
10
60.6685418554808
20
4.86168533978798
30
0
41
1
10
60.6488471580194
20
4.86828040097265
30
0
41
1
10
60.6298090215484
20
4.87137542541137
30
0
41
1
10
60.5924801154472
20
4.87148924317393
30
0
41
1
10
60.5737134281161
20
4.86851068250519
30
0
41
1
10
60.5377748371562
20
4.85706674454869
30
0
41
1
10
60.5202925727538
20
4.84818195779408
30
0
41
1
10
60.4880078037362
20
4.82517467105379
30
0
41
1
10
60.4731864907792
20
4.81037299550314
30
0
41
1
10
60.4599517337546
20
4.79237469833384
30
0
41
1
10
60.4587565691261
20
4.79069511827873
30
0
41
1
10
60.4575887542874
20
4.78899902092644
30
0
0
SPLINE
5
EB
100
AcDbEntity
8
SK1
62
256
6
ByLayer
370
-1
48
1
60
0
100
AcDbSpline
70
4
71
3
72
8
73
4
40
0
40
0
40
0
40
0
40
1
40
1
40
1
40
1
41
1
10
-136.294989802578
20
7.00749999999999
30
0
41
1
10
-136.297269309034
20
7.00749999999999
30
0
41
1
10
-135.89333297803
20
7.00749999999999
30
0
41
1
10
-135.31
20
7.00749999999999
30
0
0
LINE
5
4A
100
AcDbEntity
8
80
62
256
6
ByLayer
370
-1
48
1
60
0
100
AcDbLine
10
0
20
0
30
0
11
-10
21
0
31
0
39
0
210
0
220
0
230
1
0
LINE
5
4B
100
AcDbEntity
8
81
62
256
6
ByLayer
370
-1
48
1
60
0
100
AcDbLine
10
63.94
20
12.9
30
0
11
73.94
21
12.9
31
0
39
0
210
0
220
0
230
1
0
LINE
5
4C
100
AcDbEntity
8
SK4
62
256
6
ByLayer
370
-1
48
0.05
60
0
100
AcDbLine
10
-142.31
20
0
30
0
11
68.738626
21
0
31
0
39
0
210
0
220
0
230
1
0
LINE
5
4E
100
AcDbEntity
8
4
62
256
6
ByLayer
370
-1
48
0.05
60
0
100
AcDbLine
10
0
20
0
30
0
11
68.738626
21
0
31
0
39
0
210
0
220
0
230
1
0
LINE
5
50
100
AcDbEntity
8
SK1
62
256
6
ByLayer
370
-1
48
1
60
0
100
AcDbLine
10
-135.31
20
-7.9925
30
0
11
0
21
-7.9925
31
0
39
0
210
0
220
0
230
1
0
LINE
5
52
100
AcDbEntity
8
SK1
62
256
6
ByLayer
370
-1
48
1
60
0
100
AcDbLine
10
-136.295
20
7.0075
30
0
11
-137.31
21
5.9925
31
0
39
0
210
0
220
0
230
1
0
LINE
5
53
100
AcDbEntity
8
SK1
62
256
6
ByLayer
370
-1
48
1
60
0
100
AcDbLine
10
-137.31
20
-5.9925
30
0
11
-135.31
21
-7.9925
31
0
39
0
210
0
220
0
230
1
0
LINE
5
54
100
AcDbEntity
8
1
62
256
6
ByLayer
370
-1
48
1
60
0
100
AcDbLine
10
59.828038
20
3.112438
30
0
11
59.828806
21
3.127086
31
0
39
0
210
0
220
0
230
1
0
LINE
5
55
100
AcDbEntity
8
1
62
256
6
ByLayer
370
-1
48
1
60
0
100
AcDbLine
10
62.027384
20
3.705836
30
0
11
62.031656
21
3.787354
31
0
39
0
210
0
220
0
230
1
0
LINE
5
56
100
AcDbEntity
8
1
62
256
6
ByLayer
370
-1
48
1
60
0
100
AcDbLine
10
58.586384
20
3.967913
30
0
11
58.582112
21
3.886395
31
0
39
0
210
0
220
0
230
1
0
LINE
5
57
100
AcDbEntity
8
1
62
256
6
ByLayer
370
-1
48
1
60
0
100
AcDbLine
10
60.982393
20
3.495673
30
0
11
60.977378
21
3.399973
31
0
39
0
210
0
220
0
230
1
0
LINE
5
58
100
AcDbEntity
8
1
62
256
6
ByLayer
370
-1
48
1
60
0
100
AcDbLine
10
60.790404
20
4.650511
30
0
11
60.784957
21
4.546566
31
0
39
0
210
0
220
0
230
1
0
LINE
5
59
100
AcDbEntity
8
1
62
256
6
ByLayer
370
-1
48
1
60
0
100
AcDbLine
10
59.630941
20
4.169803
30
0
11
59.635956
21
4.265484
31
0
39
0
210
0
220
0
230
1
0
LINE
5
5A
100
AcDbEntity
8
1
62
256
6
ByLayer
370
-1
48
1
60
0
100
AcDbLine
10
0
20
-7.9925
30
0
11
49.545318
21
-7.9925
31
0
39
0
210
0
220
0
230
1
0
LINE
5
5B
100
AcDbEntity
8
1
62
256
6
ByLayer
370
-1
48
1
60
0
100
AcDbLine
10
49.545318
20
-7.9925
30
0
11
49.620318
21
-7.9175
31
0
39
0
210
0
220
0
230
1
0
LINE
5
5C
100
AcDbEntity
8
1
62
256
6
ByLayer
370
-1
48
1
60
0
100
AcDbLine
10
49.620318
20
-7.9175
30
0
11
51.470318
21
-7.9175
31
0
39
0
210
0
220
0
230
1
0
LINE
5
5D
100
AcDbEntity
8
1
62
256
6
ByLayer
370
-1
48
1
60
0
100
AcDbLine
10
51.470318
20
-7.9175
30
0
11
51.644303
21
-8.091485
31
0
39
0
210
0
220
0
230
1
0
LINE
5
5E
100
AcDbEntity
8
1
62
256
6
ByLayer
370
-1
48
1
60
0
100
AcDbLine
10
56.810861
20
-4.981084
30
0
11
56.937082
21
-5.095432
31
0
39
0
210
0
220
0
230
1
0
LINE
5
5F
100
AcDbEntity
8
1
62
256
6
ByLayer
370
-1
48
1
60
0
100
AcDbLine
10
57.176159
20
-5.107961
30
0
11
57.313642
21
-5.007434
31
0
39
0
210
0
220
0
230
1
0
LINE
5
60
100
AcDbEntity
8
1
62
256
6
ByLayer
370
-1
48
1
60
0
100
AcDbLine
10
49.545318
20
-7.9925
30
0
11
49.545318
21
-7.202535
31
0
39
0
210
0
220
0
230
1
0
LINE
5
61
100
AcDbEntity
8
1
62
256
6
ByLayer
370
-1
48
1
60
0
100
AcDbLine
10
0
20
-2.762256
30
0
11
0
21
2.762256
31
0
39
0
210
0
220
0
230
1
0
LINE
5
62
100
AcDbEntity
8
1
62
256
6
ByLayer
370
-1
48
1
60
0
100
AcDbLine
10
42.941961
20
7.0075
30
0
11
49.988593
21
7.0075
31
0
39
0
210
0
220
0
230
1
0
LINE
5
63
100
AcDbEntity
8
1
62
256
6
ByLayer
370
-1
48
1
60
0
100
AcDbLine
10
57.050612
20
3.53392
30
0
11
55.784962
21
4.004504
31
0
39
0
210
0
220
0
230
1
0
LINE
5
64
100
AcDbEntity
8
1
62
256
6
ByLayer
370
-1
48
1
60
0
100
AcDbLine
10
56.798909
20
-2.433477
30
0
11
56.482511
21
-2.835961
31
0
39
0
210
0
220
0
230
1
0
LINE
5
65
100
AcDbEntity
8
1
62
256
6
ByLayer
370
-1
48
1
60
0
100
AcDbLine
10
0
20
-7.9925
30
0
11
0
21
-2.762256
31
0
39
0
210
0
220
0
230
1
0
LINE
5
66
100
AcDbEntity
8
1
62
256
6
ByLayer
370
-1
48
1
60
0
100
AcDbLine
10
41.707452
20
2.762256
30
0
11
0
21
2.762256
31
0
39
0
210
0
220
0
230
1
0
LINE
5
67
100
AcDbEntity
8
1
62
256
6
ByLayer
370
-1
48
1
60
0
100
AcDbLine
10
60.148404
20
-7.80625
30
0
11
59.964604
21
-8.0915
31
0
39
0
210
0
220
0
230
1
0
LINE
5
68
100
AcDbEntity
8
1
62
256
6
ByLayer
370
-1
48
1
60
0
100
AcDbLine
10
63.17577
20
1.256509
30
0
11
62.563512
21
1.484154
31
0
39
0
210
0
220
0
230
1
0
LINE
5
69
100
AcDbEntity
8
1
62
256
6
ByLayer
370
-1
48
1
60
0
100
AcDbLine
10
56.727092
20
-2.160643
30
0
11
56.809024
21
-2.240496
31
0
39
0
210
0
220
0
230
1
0
LINE
5
6A
100
AcDbEntity
8
1
62
256
6
ByLayer
370
-1
48
1
60
0
100
AcDbLine
10
56.25986
20
-2.755
30
0
11
56.727092
21
-2.160643
31
0
39
0
210
0
220
0
230
1
0
LINE
5
6B
100
AcDbEntity
8
1
62
256
6
ByLayer
370
-1
48
1
60
0
100
AcDbLine
10
57.050612
20
3.53392
30
0
11
57.112012
21
3.540841
31
0
39
0
210
0
220
0
230
1
0
LINE
5
6C
100
AcDbEntity
8
1
62
256
6
ByLayer
370
-1
48
1
60
0
100
AcDbLine
10
58.07951
20
-4.219852
30
0
11
57.96265
21
-4.212439
31
0
39
0
210
0
220
0
230
1
0
LINE
5
6D
100
AcDbEntity
8
1
62
256
6
ByLayer
370
-1
48
1
60
0
100
AcDbLine
10
51.470318
20
-7.9175
30
0
11
51.470318
21
-7.43562
31
0
39
0
210
0
220
0
230
1
0
LINE
5
6E
100
AcDbEntity
8
1
62
256
6
ByLayer
370
-1
48
1
60
0
100
AcDbLine
10
63.180059
20
1.338347
30
0
11
63.209279
21
1.895911
31
0
39
0
210
0
220
0
230
1
0
LINE
5
6F
100
AcDbEntity
8
1
62
256
6
ByLayer
370
-1
48
1
60
0
100
AcDbLine
10
0
20
7.0075
30
0
11
0
21
2.762256
31
0
39
0
210
0
220
0
230
1
0
LINE
5
70
100
AcDbEntity
8
1
62
256
6
ByLayer
370
-1
48
1
60
0
100
AcDbLine
10
49.620318
20
-7.9175
30
0
11
49.620318
21
-7.14455
31
0
39
0
210
0
220
0
230
1
0
LINE
5
71
100
AcDbEntity
8
1
62
256
6
ByLayer
370
-1
48
1
60
0
100
AcDbLine
10
0
20
7.0075
30
0
11
42.941961
21
7.0075
31
0
39
0
210
0
220
0
230
1
0
LINE
5
72
100
AcDbEntity
8
1
62
256
6
ByLayer
370
-1
48
1
60
0
100
AcDbLine
10
62.563512
20
1.484154
30
0
11
58.07951
21
-4.219852
31
0
39
0
210
0
220
0
230
1
0
LINE
5
73
100
AcDbEntity
8
1
62
256
6
ByLayer
370
-1
48
1
60
0
100
AcDbLine
10
62.515163
20
1.585557
30
0
11
63.180058
21
1.338341
31
0
39
0
210
0
220
0
230
1
0
LINE
5
74
100
AcDbEntity
8
1
62
256
6
ByLayer
370
-1
48
1
60
0
100
AcDbLine
10
0
20
-2.762256
30
0
11
43.53356
21
-2.762256
31
0
39
0
210
0
220
0
230
1
0
LINE
5
75
100
AcDbEntity
8
1
62
256
6
ByLayer
370
-1
48
1
60
0
100
AcDbLine
10
62.563512
20
1.484154
30
0
11
62.508855
21
1.577532
31
0
39
0
210
0
220
0
230
1
0
LINE
5
76
100
AcDbEntity
8
1
62
256
6
ByLayer
370
-1
48
1
60
0
100
AcDbLine
10
59.964604
20
-8.0915
30
0
11
51.644318
21
-8.0915
31
0
39
0
210
0
220
0
230
1
0
LINE
5
77
100
AcDbEntity
8
1
62
256
6
ByLayer
370
-1
48
1
60
0
100
AcDbLine
10
51.878983
20
5.120252
30
0
11
55.361951
21
-7.7987
31
0
39
0
210
0
220
0
230
1
0
LINE
5
78
100
AcDbEntity
8
1
62
256
6
ByLayer
370
-1
48
1
60
0
100
AcDbLine
10
60.148404
20
-7.80625
30
0
11
62.926789
21
-3.494323
31
0
39
0
210
0
220
0
230
1
0
LINE
5
79
100
AcDbEntity
8
1
62
256
6
ByLayer
370
-1
48
1
60
0
100
AcDbLine
10
56.727092
20
-2.160643
30
0
11
57.050612
21
3.53392
31
0
39
0
210
0
220
0
230
1
0
LINE
5
7A
100
AcDbEntity
8
1
62
256
6
ByLayer
370
-1
48
1
60
0
100
AcDbLine
10
63.17577
20
1.256509
30
0
11
62.926789
21
-3.494323
31
0
39
0
210
0
220
0
230
1
0
LINE
5
7B
100
AcDbEntity
8
1
62
256
6
ByLayer
370
-1
48
1
60
0
100
AcDbLine
10
63.17577
20
1.256509
30
0
11
63.180058
21
1.338341
31
0
39
0
210
0
220
0
230
1
0
LINE
5
7C
100
AcDbEntity
8
1
62
256
6
ByLayer
370
-1
48
1
60
0
100
AcDbLine
10
56.064043
20
3.984164
30
0
11
57.114755
21
3.593496
31
0
39
0
210
0
220
0
230
1
0
LINE
5
7D
100
AcDbEntity
8
SK1
62
256
6
ByLayer
370
-1
48
1
60
0
100
AcDbLine
10
0
20
-2.762256
30
0
11
0
21
2.762256
31
0
39
0
210
0
220
0
230
1
0
LINE
5
7E
100
AcDbEntity
8
SK1
62
256
6
ByLayer
370
-1
48
1
60
0
100
AcDbLine
10
0
20
-7.9925
30
0
11
0
21
-2.762256
31
0
39
0
210
0
220
0
230
1
0
LINE
5
7F
100
AcDbEntity
8
SK1
62
256
6
ByLayer
370
-1
48
1
60
0
100
AcDbLine
10
-135.31
20
-2.762256
30
0
11
0
21
-2.762256
31
0
39
0
210
0
220
0
230
1
0
LINE
5
80
100
AcDbEntity
8
SK1
62
256
6
ByLayer
370
-1
48
1
60
0
100
AcDbLine
10
0
20
2.762256
30
0
11
-135.31
21
2.762256
31
0
39
0
210
0
220
0
230
1
0
LINE
5
81
100
AcDbEntity
8
SK1
62
256
6
ByLayer
370
-1
48
1
60
0
100
AcDbLine
10
-135.31
20
2.762256
30
0
11
-135.31
21
7.0075
31
0
39
0
210
0
220
0
230
1
0
LINE
5
82
100
AcDbEntity
8
1
62
256
6
ByLayer
370
-1
48
1
60
0
100
AcDbLine
10
56.68176
20
-4.668863
30
0
11
57.185503
21
4.943124
31
0
39
0
210
0
220
0
230
1
0
LINE
5
83
100
AcDbEntity
8
1
62
256
6
ByLayer
370
-1
48
1
60
0
100
AcDbLine
10
63.352159
20
2.650284
30
0
11
57.391132
21
-4.932617
31
0
39
0
210
0
220
0
230
1
0
LINE
5
84
100
AcDbEntity
8
1
62
256
6
ByLayer
370
-1
48
1
60
0
100
AcDbLine
10
63.939442
20
12.48447
30
0
11
63.435699
21
2.872483
31
0
39
0
210
0
220
0
230
1
0
LINE
5
85
100
AcDbEntity
8
1
62
256
6
ByLayer
370
-1
48
1
60
0
100
AcDbLine
10
57.269043
20
5.165323
30
0
11
63.230071
21
12.748223
31
0
39
0
210
0
220
0
230
1
0
LINE
5
86
100
AcDbEntity
8
1
62
256
6
ByLayer
370
-1
48
1
60
0
100
AcDbLine
10
61.013418
20
3.207299
30
0
11
61.0189
21
3.311904
31
0
39
0
210
0
220
0
230
1
0
LINE
5
87
100
AcDbEntity
8
1
62
256
6
ByLayer
370
-1
48
1
60
0
100
AcDbLine
10
61.161844
20
4.10752
30
0
11
61.167328
21
4.212162
31
0
39
0
210
0
220
0
230
1
0
LINE
5
88
100
AcDbEntity
8
1
62
256
6
ByLayer
370
-1
48
1
60
0
100
AcDbLine
10
60.452105
20
4.684356
30
0
11
60.457589
21
4.788999
31
0
39
0
210
0
220
0
230
1
0
LINE
5
89
100
AcDbEntity
8
1
62
256
6
ByLayer
370
-1
48
1
60
0
100
AcDbLine
10
59.869704
20
4.587953
30
0
11
59.875188
21
4.692596
31
0
39
0
210
0
220
0
230
1
0
LINE
5
8A
100
AcDbEntity
8
1
62
256
6
ByLayer
370
-1
48
1
60
0
100
AcDbLine
10
59.38783
20
3.811713
30
0
11
59.393312
21
3.916318
31
0
39
0
210
0
220
0
230
1
0
LINE
5
8B
100
AcDbEntity
8
1
62
256
6
ByLayer
370
-1
48
1
60
0
100
AcDbLine
10
59.598989
20
4.112643
30
0
11
59.59408
21
4.018975
31
0
39
0
210
0
220
0
230
1
0
LINE
5
8C
100
AcDbEntity
8
1
62
256
6
ByLayer
370
-1
48
1
60
0
100
AcDbLine
10
59.613825
20
4.071493
30
0
11
59.618734
21
4.165161
31
0
39
0
210
0
220
0
230
1
0
LINE
5
8D
100
AcDbEntity
8
SK1
62
256
6
ByLayer
370
-1
48
1
60
0
100
AcDbLine
10
-135.31
20
7.0075
30
0
11
0
21
7.0075
31
0
39
0
210
0
220
0
230
1
0
LINE
5
8E
100
AcDbEntity
8
SK1
62
256
6
ByLayer
370
-1
48
1
60
0
100
AcDbLine
10
0
20
7.0075
30
0
11
0
21
2.762256
31
0
39
0
210
0
220
0
230
1
0
LINE
5
8F
100
AcDbEntity
8
SK1
62
256
6
ByLayer
370
-1
48
1
60
0
100
AcDbLine
10
-135.31
20
-7.9925
30
0
11
-135.31
21
-2.762256
31
0
39
0
210
0
220
0
230
1
0
LINE
5
90
100
AcDbEntity
8
SK1
62
256
6
ByLayer
370
-1
48
1
60
0
100
AcDbLine
10
-137.31
20
-5.9925
30
0
11
-137.31
21
5.9925
31
0
39
0
210
0
220
0
230
1
0
LINE
5
91
100
AcDbEntity
8
2
62
256
6
ByLayer
370
-1
48
1
60
1
100
AcDbLine
10
63.94
20
0
30
0
11
63.941
21
0.001
31
0
39
0
210
0
220
0
230
1
0
MTEXT
5
EC
100
AcDbEntity
8
SK6
62
256
6
ByLayer
370
-1
48
1
60
0
100
AcDbMText
10
-33.31
20
-21.70265
30
0
210
0
220
0
230
1
1
\W00.728;\fsimplex.shx,bigfont.shx;A16R-SVUBR 11-E 
40
3.5
41
0
44
1.084337
50
0
71
7
72
5
7
DEFAULT
0
DIMENSION
5
11F
100
AcDbEntity
8
2
62
256
6
ByLayer
370
-3
48
1
60
0
100
AcDbDimension
2
DimnDraft3D1
10
76.19
20
0
30
0
11
76.19
21
23.155
31
0
70
32
71
5
72
1
41
1
210
0
220
0
230
1
3
Standard
100
AcDbAlignedDimension
13
65.94
23
12.9
33
0
14
65.94
24
0
34
0
50
90
100
AcDbRotatedDimension
1001
ACAD
1000
DSTYLE
1002
{
1070
    74
1070
     0
1070
   279
1070
     0
1070
   172
1070
     1
1070
   173
1070
     1
1070
   340
1005
ED
1070
    77
1070
     1
1070
    73
1070
     0
1070
   171
1070
     4
1070
   274
1070
     4
1070
   177
1070
     2
1070
   176
1070
     2
1070
   178
1070
     7
1070
    78
1070
     8
1070
    41
1041
3.175
1070
   147
1041
2.25
1070
    42
1041
2.0
1070
    44
1041
2.0
1070
   140
1041
4.5
1070
   343
1005
120
1070
   344
1005
120
1002
}
0
DIMENSION
5
135
100
AcDbEntity
8
SK2
62
256
6
ByLayer
370
-3
48
1
60
0
100
AcDbDimension
2
DimnDraft3D2
10
-147.06
20
7.9925
30
0
11
-147.06
21
-4.221711
31
0
70
32
71
5
72
1
41
1
210
0
220
0
230
1
3
Standard
100
AcDbAlignedDimension
13
-139.31
23
-7.9925
33
0
14
-139.31
24
7.9925
34
0
50
90
100
AcDbRotatedDimension
1001
ACAD
1000
DSTYLE
1002
{
1070
    74
1070
     0
1070
   279
1070
     0
1070
   172
1070
     1
1070
   173
1070
     1
1070
   340
1005
ED
1070
    77
1070
     1
1070
    73
1070
     0
1070
   171
1070
     4
1070
   274
1070
     4
1070
   177
1070
     2
1070
   176
1070
     2
1070
   178
1070
     7
1070
    78
1070
     8
1070
    41
1041
3.175
1070
   147
1041
2.25
1070
    42
1041
2.0
1070
    44
1041
2.0
1070
   140
1041
4.5
1070
   343
1005
120
1070
   344
1005
120
1002
}
0
DIMENSION
5
143
100
AcDbEntity
8
SK2
62
256
6
ByLayer
370
-3
48
1
60
0
100
AcDbDimension
2
DimnDraft3D3
10
-137.31
20
25.65
30
0
11
-43.500132
21
25.65
31
0
70
32
71
5
72
1
41
1
210
0
220
0
230
1
3
Standard
100
AcDbAlignedDimension
13
63.94
23
14.9
33
0
14
-137.31
24
9.9925
34
0
50
0
100
AcDbRotatedDimension
1001
ACAD
1000
DSTYLE
1002
{
1070
   279
1070
     0
1070
   172
1070
     1
1070
   173
1070
     1
1070
   340
1005
ED
1070
    77
1070
     1
1070
    73
1070
     0
1070
   171
1070
     4
1070
   274
1070
     4
1070
   177
1070
     2
1070
   176
1070
     2
1070
   178
1070
     7
1070
    78
1070
     8
1070
    41
1041
3.175
1070
   147
1041
2.25
1070
    42
1041
2.0
1070
    44
1041
2.0
1070
   140
1041
4.5
1070
   343
1005
120
1070
   344
1005
120
1002
}
0
DIMENSION
5
151
100
AcDbEntity
8
2
62
256
6
ByLayer
370
-3
48
1
60
0
100
AcDbDimension
2
DimnDraft3D4
10
112.190347
20
0
30
0
11
89.39575
21
-36.792664
31
0
70
34
71
5
72
1
41
1
210
0
220
0
230
1
3
Standard
100
AcDb2LineAngularDimension
13
63.259633
23
-0.082184
33
0
14
60.703329
24
-48.859355
34
0
15
65.94
25
0
35
0
16
92.468351
26
-30.775028
36
0
40
0
0
ENDSEC
0
SECTION
2
OBJECTS
0
DICTIONARY
5
182
330
0
100
AcDbDictionary
280
0
281
1
3
ACAD_GROUP
350
183
3
ACAD_MLINESTYLE
350
184
0
DICTIONARY
5
183
330
0
100
AcDbDictionary
280
0
281
1
0
DICTIONARY
5
184
330
0
100
AcDbDictionary
280
0
281
1
3
Standard
350
18
0
MLINESTYLE
5
18
330
184
100
AcDbMlineStyle
2
Standard
70
0
3

62
256
51
90
52
90
71
2
49
-0.5
62
256
6
ByLayer
49
0.5
62
256
6
ByLayer
0
RASTERVARIABLES
5
170
330

100
AcDbRasterVariables
90
0
70
1
71
1
72
1
0
ENDSEC
0
EOF
