0
SECTION
2
HEADER
9
$ACADVER
1
AC1015
9
$DWGCODEPAGE
3
ANSI_1252
9
$HANDSEED
5
181
9
$ANGBASE
50
0
9
$ANGDIR
70
0
9
$ATTMODE
70
1
9
$AUNITS
70
0
9
$AUPREC
70
0
9
$CECOLOR
62
256
9
$CELTSCALE
40
1
9
$CELTYPE
6
ByLayer
9
$CELWEIGHT
370
-1
9
$CLAYER
8
0
9
$CMLJUST
70
0
9
$CMLSCALE
40
1
9
$CMLSTYLE
2
Standard
9
$DIMSTYLE
2
Standard
9
$TEXTSIZE
40
0.2
9
$TEXTSTYLE
7
Standard
9
$LUNITS
70
2
9
$LUPREC
70
4
9
$EXTNAMES
290
1
9
$INSUNITS
70
4
9
$LTSCALE
40
1
9
$LWDISPLAY
290
0
9
$PDMODE
70
0
9
$PDSIZE
40
0
9
$PLINEGEN
70
0
0
ENDSEC
0
SECTION
2
CLASSES
0
CLASS
1
RASTERVARIABLES
2
AcDbRasterVariables
3
ISM
90
0
280
0
281
0
0
ENDSEC
0
SECTION
2
TABLES
0
TABLE
2
VPORT
5
177
100
AcDbSymbolTable
0
VPORT
5
1
100
AcDbSymbolTableRecord
100
AcDbViewportTableRecord
2
*Active
70
0
10
0
20
0
11
1
21
1
12
-1
22
1
13
0
23
0
14
0.5
24
0.5
15
10
25
10
16
0
26
0
36
1
17
0
27
0
37
0
0
ENDTAB
0
TABLE
2
LTYPE
5
178
100
AcDbSymbolTable
0
LTYPE
5
14
100
AcDbSymbolTableRecord
100
AcDbLinetypeTableRecord
70
0
2
ByBlock
3

72
65
73
0
40
0
0
LTYPE
5
15
100
AcDbSymbolTableRecord
100
AcDbLinetypeTableRecord
70
0
2
ByLayer
3

72
65
73
0
40
0
0
LTYPE
5
16
100
AcDbSymbolTableRecord
100
AcDbLinetypeTableRecord
70
0
2
CONTINUOUS
3
Solid line
72
65
73
0
40
0
0
LTYPE
5
3B
100
AcDbSymbolTableRecord
100
AcDbLinetypeTableRecord
70
0
2
DASHED
3
__ __ __ __ __ __ __ __ __
72
65
73
2
40
25.72
49
12.86
74
0
49
-12.86
74
0
0
LTYPE
5
3C
100
AcDbSymbolTableRecord
100
AcDbLinetypeTableRecord
70
0
2
HIDDEN
3
_ _ _ _ _ _ _ _ _ _ _ _ _ _ _
72
65
73
2
40
0.5
49
0.25
74
0
49
-0.25
74
0
0
LTYPE
5
3D
100
AcDbSymbolTableRecord
100
AcDbLinetypeTableRecord
70
0
2
PHANTOM
3
____ _ _ ____ _ _ _____ _ _ ____
72
65
73
6
40
50.5
49
18
74
0
49
-6.5
74
0
49
6.5
74
0
49
-6.5
74
0
49
6.5
74
0
49
-6.5
74
0
0
LTYPE
5
3E
100
AcDbSymbolTableRecord
100
AcDbLinetypeTableRecord
70
0
2
CENTER
3
____ _ ____ _ ____ _ ____
72
65
73
4
40
47.5
49
22
74
0
49
-8.5
74
0
49
8.5
74
0
49
-8.5
74
0
0
LTYPE
5
3F
100
AcDbSymbolTableRecord
100
AcDbLinetypeTableRecord
70
0
2
DOT
3
.........................
72
65
73
2
40
10
49
0
74
0
49
-10
74
0
0
LTYPE
5
40
100
AcDbSymbolTableRecord
100
AcDbLinetypeTableRecord
70
0
2
DASHDOT
3
_._._._._._._._._._._._._._._._.
72
65
73
4
40
70
49
31
74
0
49
-13
74
0
49
13
74
0
49
-13
74
0
0
ENDTAB
0
TABLE
2
LAYER
5
179
100
AcDbSymbolTable
0
LAYER
5
10
100
AcDbSymbolTableRecord
100
AcDbLayerTableRecord
2
0
70
0
62
7
6
CONTINUOUS
290
1
370
-3
390
0
0
LAYER
5
42
100
AcDbSymbolTableRecord
100
AcDbLayerTableRecord
2
80
70
0
62
-6
6
CONTINUOUS
290
1
370
-3
390
0
0
LAYER
5
44
100
AcDbSymbolTableRecord
100
AcDbLayerTableRecord
2
81
70
0
62
-3
6
CONTINUOUS
290
1
370
-3
390
0
0
LAYER
5
46
100
AcDbSymbolTableRecord
100
AcDbLayerTableRecord
2
1
70
0
62
4
6
CONTINUOUS
290
1
370
-3
390
0
0
LAYER
5
48
100
AcDbSymbolTableRecord
100
AcDbLayerTableRecord
2
2
70
0
62
7
6
CONTINUOUS
290
1
370
-3
390
0
0
LAYER
5
4F
100
AcDbSymbolTableRecord
100
AcDbLayerTableRecord
2
4
70
0
62
-2
6
CENTER
290
1
370
-3
390
0
0
LAYER
5
163
100
AcDbSymbolTableRecord
100
AcDbLayerTableRecord
2
SK4
70
0
62
2
6
CENTER
290
1
370
-3
390
0
0
LAYER
5
164
100
AcDbSymbolTableRecord
100
AcDbLayerTableRecord
2
SK1
70
0
62
4
6
CONTINUOUS
290
1
370
-3
390
0
0
LAYER
5
165
100
AcDbSymbolTableRecord
100
AcDbLayerTableRecord
2
SK6
70
0
62
5
6
CONTINUOUS
290
1
370
-3
390
0
0
LAYER
5
166
100
AcDbSymbolTableRecord
100
AcDbLayerTableRecord
2
SK2
70
0
62
7
6
CONTINUOUS
290
1
370
-3
390
0
0
ENDTAB
0
TABLE
2
STYLE
5
17a
100
AcDbSymbolTable
0
STYLE
5
11
100
AcDbSymbolTableRecord
100
AcDbTextStyleTableRecord
2
Standard
3
txt
70
0
71
0
40
0
41
1
42
0
50
0
0
STYLE
5
DF
100
AcDbSymbolTableRecord
100
AcDbTextStyleTableRecord
2
DEFAULT
3
simplex.shx
70
0
71
0
40
0
41
1
42
0
50
0
0
STYLE
5
102
100
AcDbSymbolTableRecord
100
AcDbTextStyleTableRecord
2
DWGDirectTextStyle
3
SIMPLEX
70
0
71
0
40
0
41
1
42
0
50
0
0
ENDTAB
0
TABLE
2
DIMSTYLE
5
17b
100
AcDbSymbolTable
100
AcDbDimStyleTable
0
DIMSTYLE
105
27
100
AcDbSymbolTableRecord
100
AcDbDimStyleTableRecord
2
Standard
70
0
3
<>
41
0.18
42
0.0625
44
0.18
140
0.18
147
0.09
73
0
74
0
77
1
271
2
275
0
278
52
280
0
340
11
0
ENDTAB
0
TABLE
2
VIEW
5
17c
100
AcDbSymbolTable
0
ENDTAB
0
TABLE
2
UCS
5
17d
100
AcDbSymbolTable
0
ENDTAB
0
TABLE
2
APPID
5
17e
100
AcDbSymbolTable
0
APPID
5
12
100
AcDbSymbolTableRecord
100
AcDbRegAppTableRecord
2
ACAD
70
0
0
ENDTAB
0
TABLE
2
BLOCK_RECORD
5
17f
100
AcDbSymbolTable
0
BLOCK_RECORD
5
1F
100
AcDbSymbolTableRecord
100
AcDbBlockTableRecord
2
*Model_Space
340
0
70
0
0
BLOCK_RECORD
5
1B
100
AcDbSymbolTableRecord
100
AcDbBlockTableRecord
2
*Paper_Space
340
0
70
0
0
BLOCK_RECORD
5
23
100
AcDbSymbolTableRecord
100
AcDbBlockTableRecord
2
*Paper_Space0
340
0
70
0
0
BLOCK_RECORD
5
104
100
AcDbSymbolTableRecord
100
AcDbBlockTableRecord
2
DimnDraft3D1
340
0
70
0
0
BLOCK_RECORD
5
112
100
AcDbSymbolTableRecord
100
AcDbBlockTableRecord
2
_CLOSED
340
0
70
0
0
BLOCK_RECORD
5
119
100
AcDbSymbolTableRecord
100
AcDbBlockTableRecord
2
DimnDraft3D2
340
0
70
0
0
BLOCK_RECORD
5
128
100
AcDbSymbolTableRecord
100
AcDbBlockTableRecord
2
DimnDraft3D3
340
0
70
0
0
BLOCK_RECORD
5
136
100
AcDbSymbolTableRecord
100
AcDbBlockTableRecord
2
DimnDraft3D4
340
0
70
0
0
ENDTAB
0
ENDSEC
0
SECTION
2
BLOCKS
0
BLOCK
5
20
100
AcDbEntity
8
0
100
AcDbBlockBegin
2
*Model_Space
70
0
10
0
20
0
30
0
3
*Model_Space
0
ENDBLK
5
21
100
AcDbEntity
8
0
100
AcDbBlockEnd
0
BLOCK
5
1C
100
AcDbEntity
8
0
100
AcDbBlockBegin
2
*Paper_Space
70
0
10
0
20
0
30
0
3
*Paper_Space
0
ENDBLK
5
1D
100
AcDbEntity
8
0
100
AcDbBlockEnd
0
BLOCK
5
24
100
AcDbEntity
8
0
100
AcDbBlockBegin
2
*Paper_Space0
70
0
10
0
20
0
30
0
3
*Paper_Space0
0
ENDBLK
5
25
100
AcDbEntity
8
0
100
AcDbBlockEnd
0
BLOCK
5
10F
100
AcDbEntity
8
0
100
AcDbBlockBegin
2
DimnDraft3D1
70
0
10
0
20
0
30
0
3
DimnDraft3D1
0
MTEXT
5
105
100
AcDbEntity
8
2
62
256
6
ByLayer
370
-1
48
1
60
0
100
AcDbMText
10
75.065
20
24.28
30
0
210
0
220
0
230
1
1
\W01.000;\fsimplex.shx,bigfont.shx;13.0 
40
4.5
41
0
44
1.084337
50
90
71
7
72
5
7
DEFAULT
0
LINE
5
106
100
AcDbEntity
8
2
62
256
6
ByLayer
370
-1
48
1
60
0
100
AcDbLine
10
65.94
20
12.9
30
0
11
78.19
21
12.9
31
0
39
0
210
0
220
0
230
1
0
LINE
5
107
100
AcDbEntity
8
2
62
256
6
ByLayer
370
-1
48
1
60
0
100
AcDbLine
10
65.94
20
0
30
0
11
78.19
21
0
31
0
39
0
210
0
220
0
230
1
0
LINE
5
108
100
AcDbEntity
8
2
62
256
6
ByLayer
370
-1
48
1
60
0
100
AcDbLine
10
76.19
20
0
30
0
11
76.19
21
32.356316
31
0
39
0
210
0
220
0
230
1
0
LINE
5
109
100
AcDbEntity
8
2
62
256
6
ByLayer
370
-1
48
1
60
0
100
AcDbLine
10
76.19
20
12.9
30
0
11
76.607997
21
9.725002
31
0
39
0
210
0
220
0
230
1
0
LINE
5
10A
100
AcDbEntity
8
2
62
256
6
ByLayer
370
-1
48
1
60
0
100
AcDbLine
10
76.19
20
12.9
30
0
11
75.772003
21
9.724998
31
0
39
0
210
0
220
0
230
1
0
LINE
5
10B
100
AcDbEntity
8
2
62
256
6
ByLayer
370
-1
48
1
60
0
100
AcDbLine
10
76.607997
20
9.725002
30
0
11
75.772003
21
9.724998
31
0
39
0
210
0
220
0
230
1
0
LINE
5
10C
100
AcDbEntity
8
2
62
256
6
ByLayer
370
-1
48
1
60
0
100
AcDbLine
10
76.19
20
0
30
0
11
75.772003
21
3.174998
31
0
39
0
210
0
220
0
230
1
0
LINE
5
10D
100
AcDbEntity
8
2
62
256
6
ByLayer
370
-1
48
1
60
0
100
AcDbLine
10
76.19
20
0
30
0
11
76.607997
21
3.175002
31
0
39
0
210
0
220
0
230
1
0
LINE
5
10E
100
AcDbEntity
8
2
62
256
6
ByLayer
370
-1
48
1
60
0
100
AcDbLine
10
75.772003
20
3.174998
30
0
11
76.607997
21
3.175002
31
0
39
0
210
0
220
0
230
1
0
ENDBLK
5
110
100
AcDbEntity
8
0
100
AcDbBlockEnd
0
BLOCK
5
113
100
AcDbEntity
8
0
100
AcDbBlockBegin
2
_CLOSED
70
0
10
0
20
0
30
0
3
_CLOSED
0
LINE
5
115
100
AcDbEntity
8
0
62
256
6
ByLayer
370
-2
48
1
60
0
100
AcDbLine
10
-1
20
0.166667
30
0
11
0
21
0
31
0
39
0
210
0
220
0
230
1
0
LINE
5
116
100
AcDbEntity
8
0
62
256
6
ByLayer
370
-2
48
1
60
0
100
AcDbLine
10
0
20
0
30
0
11
-1
21
-0.166667
31
0
39
0
210
0
220
0
230
1
0
LINE
5
117
100
AcDbEntity
8
0
62
256
6
ByLayer
370
-2
48
1
60
0
100
AcDbLine
10
-1
20
0.166667
30
0
11
-1
21
-0.166667
31
0
39
0
210
0
220
0
230
1
0
LINE
5
118
100
AcDbEntity
8
0
62
256
6
ByLayer
370
-2
48
1
60
0
100
AcDbLine
10
0
20
0
30
0
11
-1
21
0
31
0
39
0
210
0
220
0
230
1
0
ENDBLK
5
114
100
AcDbEntity
8
0
100
AcDbBlockEnd
0
BLOCK
5
125
100
AcDbEntity
8
0
100
AcDbBlockBegin
2
DimnDraft3D2
70
0
10
0
20
0
30
0
3
DimnDraft3D2
0
MTEXT
5
11A
100
AcDbEntity
8
SK2
62
256
6
ByLayer
370
-1
48
1
60
0
100
AcDbMText
10
-148.185
20
-3.096711
30
0
210
0
220
0
230
1
1
\W01.000;\fsimplex.shx,bigfont.shx;%%c16 
40
4.5
41
0
44
1.084337
50
90
71
7
72
5
7
DEFAULT
0
LINE
5
11C
100
AcDbEntity
8
SK2
62
256
6
ByLayer
370
-1
48
1
60
0
100
AcDbLine
10
-139.31
20
-7.9925
30
0
11
-149.06
21
-7.9925
31
0
39
0
210
0
220
0
230
1
0
LINE
5
11D
100
AcDbEntity
8
SK2
62
256
6
ByLayer
370
-1
48
1
60
0
100
AcDbLine
10
-139.31
20
7.9925
30
0
11
-149.06
21
7.9925
31
0
39
0
210
0
220
0
230
1
0
LINE
5
11E
100
AcDbEntity
8
SK2
62
256
6
ByLayer
370
-1
48
1
60
0
100
AcDbLine
10
-147.06
20
-19.2425
30
0
11
-147.06
21
19.2425
31
0
39
0
210
0
220
0
230
1
0
LINE
5
11F
100
AcDbEntity
8
SK2
62
256
6
ByLayer
370
-1
48
1
60
0
100
AcDbLine
10
-147.06
20
-7.9925
30
0
11
-146.642003
21
-11.167498
31
0
39
0
210
0
220
0
230
1
0
LINE
5
120
100
AcDbEntity
8
SK2
62
256
6
ByLayer
370
-1
48
1
60
0
100
AcDbLine
10
-147.06
20
-7.9925
30
0
11
-147.477997
21
-11.167502
31
0
39
0
210
0
220
0
230
1
0
LINE
5
121
100
AcDbEntity
8
SK2
62
256
6
ByLayer
370
-1
48
1
60
0
100
AcDbLine
10
-146.642003
20
-11.167498
30
0
11
-147.477997
21
-11.167502
31
0
39
0
210
0
220
0
230
1
0
LINE
5
122
100
AcDbEntity
8
SK2
62
256
6
ByLayer
370
-1
48
1
60
0
100
AcDbLine
10
-147.06
20
7.9925
30
0
11
-147.477997
21
11.167498
31
0
39
0
210
0
220
0
230
1
0
LINE
5
123
100
AcDbEntity
8
SK2
62
256
6
ByLayer
370
-1
48
1
60
0
100
AcDbLine
10
-147.06
20
7.9925
30
0
11
-146.642003
21
11.167502
31
0
39
0
210
0
220
0
230
1
0
LINE
5
124
100
AcDbEntity
8
SK2
62
256
6
ByLayer
370
-1
48
1
60
0
100
AcDbLine
10
-147.477997
20
11.167498
30
0
11
-146.642003
21
11.167502
31
0
39
0
210
0
220
0
230
1
0
ENDBLK
5
126
100
AcDbEntity
8
0
100
AcDbBlockEnd
0
BLOCK
5
133
100
AcDbEntity
8
0
100
AcDbBlockBegin
2
DimnDraft3D3
70
0
10
0
20
0
30
0
3
DimnDraft3D3
0
MTEXT
5
129
100
AcDbEntity
8
SK2
62
256
6
ByLayer
370
-1
48
1
60
0
100
AcDbMText
10
-42.375132
20
26.775
30
0
210
0
220
0
230
1
1
\W01.000;\fsimplex.shx,bigfont.shx;200.0 
40
4.5
41
0
44
1.084337
50
0
71
7
72
5
7
DEFAULT
0
LINE
5
12A
100
AcDbEntity
8
SK2
62
256
6
ByLayer
370
-1
48
1
60
0
100
AcDbLine
10
63.94
20
14.9
30
0
11
63.94
21
27.65
31
0
39
0
210
0
220
0
230
1
0
LINE
5
12B
100
AcDbEntity
8
SK2
62
256
6
ByLayer
370
-1
48
1
60
0
100
AcDbLine
10
-137.31
20
9.9925
30
0
11
-137.31
21
27.65
31
0
39
0
210
0
220
0
230
1
0
LINE
5
12C
100
AcDbEntity
8
SK2
62
256
6
ByLayer
370
-1
48
1
60
0
100
AcDbLine
10
63.94
20
25.65
30
0
11
-137.31
21
25.65
31
0
39
0
210
0
220
0
230
1
0
LINE
5
12D
100
AcDbEntity
8
SK2
62
256
6
ByLayer
370
-1
48
1
60
0
100
AcDbLine
10
63.94
20
25.65
30
0
11
60.765002
21
25.232003
31
0
39
0
210
0
220
0
230
1
0
LINE
5
12E
100
AcDbEntity
8
SK2
62
256
6
ByLayer
370
-1
48
1
60
0
100
AcDbLine
10
63.94
20
25.65
30
0
11
60.764998
21
26.067997
31
0
39
0
210
0
220
0
230
1
0
LINE
5
12F
100
AcDbEntity
8
SK2
62
256
6
ByLayer
370
-1
48
1
60
0
100
AcDbLine
10
60.765002
20
25.232003
30
0
11
60.764998
21
26.067997
31
0
39
0
210
0
220
0
230
1
0
LINE
5
130
100
AcDbEntity
8
SK2
62
256
6
ByLayer
370
-1
48
1
60
0
100
AcDbLine
10
-137.31
20
25.65
30
0
11
-134.135002
21
26.067997
31
0
39
0
210
0
220
0
230
1
0
LINE
5
131
100
AcDbEntity
8
SK2
62
256
6
ByLayer
370
-1
48
1
60
0
100
AcDbLine
10
-137.31
20
25.65
30
0
11
-134.134998
21
25.232003
31
0
39
0
210
0
220
0
230
1
0
LINE
5
132
100
AcDbEntity
8
SK2
62
256
6
ByLayer
370
-1
48
1
60
0
100
AcDbLine
10
-134.135002
20
26.067997
30
0
11
-134.134998
21
25.232003
31
0
39
0
210
0
220
0
230
1
0
ENDBLK
5
134
100
AcDbEntity
8
0
100
AcDbBlockEnd
0
BLOCK
5
141
100
AcDbEntity
8
0
100
AcDbBlockBegin
2
DimnDraft3D4
70
0
10
0
20
0
30
0
3
DimnDraft3D4
0
MTEXT
5
137
100
AcDbEntity
8
2
62
256
6
ByLayer
370
-1
48
1
60
0
100
AcDbMText
10
80.513983
20
-41.659383
30
0
210
0
220
0
230
1
1
\W01.000;\fsimplex.shx,bigfont.shx;107%%d30' 
40
4.5
41
0
44
1.084337
50
36.25
71
7
72
5
7
DEFAULT
0
LINE
5
138
100
AcDbEntity
8
2
62
256
6
ByLayer
370
-1
48
1
60
0
100
AcDbLine
10
60.030825
20
0.50168
30
0
11
45.160191
21
-46.661944
31
0
39
0
210
0
220
0
230
1
0
LINE
5
139
100
AcDbEntity
8
2
62
256
6
ByLayer
370
-1
48
1
60
0
100
AcDbLine
10
65.94
20
0
30
0
11
108.799052
21
0
31
0
39
0
210
0
220
0
230
1
0
ARC
5
13A
100
AcDbEntity
8
2
62
256
6
ByLayer
370
-1
48
1
60
0
100
AcDbCircle
39
0
10
59.872646
20
0
30
0
40
46.9264068782928
210
0
220
0
230
1
100
AcDbArc
50
252.5
51
0
0
LINE
5
13B
100
AcDbEntity
8
2
62
256
6
ByLayer
370
-1
48
1
60
0
100
AcDbLine
10
45.761603
20
-44.75451
30
0
11
48.924298
21
-45.257198
31
0
39
0
210
0
220
0
230
1
0
LINE
5
13C
100
AcDbEntity
8
2
62
256
6
ByLayer
370
-1
48
1
60
0
100
AcDbLine
10
45.761603
20
-44.75451
30
0
11
48.686429
21
-46.058636
31
0
39
0
210
0
220
0
230
1
0
LINE
5
13D
100
AcDbEntity
8
2
62
256
6
ByLayer
370
-1
48
1
60
0
100
AcDbLine
10
48.924298
20
-45.257198
30
0
11
48.686429
21
-46.058636
31
0
39
0
210
0
220
0
230
1
0
LINE
5
13E
100
AcDbEntity
8
2
62
256
6
ByLayer
370
-1
48
1
60
0
100
AcDbLine
10
106.799053
20
0
30
0
11
107.163308
21
-3.181612
31
0
39
0
210
0
220
0
230
1
0
LINE
5
13F
100
AcDbEntity
8
2
62
256
6
ByLayer
370
-1
48
1
60
0
100
AcDbLine
10
106.799053
20
0
30
0
11
106.327434
21
-3.16748
31
0
39
0
210
0
220
0
230
1
0
LINE
5
140
100
AcDbEntity
8
2
62
256
6
ByLayer
370
-1
48
1
60
0
100
AcDbLine
10
107.163308
20
-3.181612
30
0
11
106.327434
21
-3.16748
31
0
39
0
210
0
220
0
230
1
0
ENDBLK
5
142
100
AcDbEntity
8
0
100
AcDbBlockEnd
0
ENDSEC
0
SECTION
2
ENTITIES
0
ELLIPSE
5
8D
100
AcDbEntity
8
1
62
256
6
ByLayer
370
-1
48
1
60
0
100
AcDbEllipse
10
51.905409
20
-1.470294
30
0
11
1.33944847450028
21
0.849387028190534
31
0
210
0
220
0
230
-1
40
0.250817
41
-1.46349868432482
42
-1.31243727047424
0
ELLIPSE
5
8E
100
AcDbEntity
8
1
62
256
6
ByLayer
370
-1
48
1
60
0
100
AcDbEllipse
10
52.141125
20
-2.510498
30
0
11
1.46290972107095
21
0.331504371006048
31
0
210
0
220
0
230
1
40
0.997609
41
0.766620024128082
42
1.55263383982113
0
ELLIPSE
5
8F
100
AcDbEntity
8
1
62
256
6
ByLayer
370
-1
48
1
60
0
100
AcDbEllipse
10
47.046404
20
8.859364
30
0
11
28.9137812539153
21
-107.645002927106
31
-1.75227695010237E-14
210
3.08148791101958E-32
220
1.6278293487427E-16
230
-1
40
0.069062
41
1.48118974004899
42
1.53268290691649
0
ELLIPSE
5
90
100
AcDbEntity
8
1
62
256
6
ByLayer
370
-1
48
1
60
0
100
AcDbEllipse
10
52.096065
20
-2.311649
30
0
11
-1.46290972107095
21
-0.331504371006049
31
0
210
0
220
0
230
1
40
0.997609
41
2.06923685951136
42
2.70401488162544
0
ELLIPSE
5
91
100
AcDbEntity
8
1
62
256
6
ByLayer
370
-1
48
1
60
0
100
AcDbEllipse
10
52.096063
20
-2.311643
30
0
11
-1.46290972107095
21
-0.331504371006049
31
0
210
0
220
0
230
1
40
0.997609
41
-1.46716191006217
42
2.06932558138683
0
ELLIPSE
5
92
100
AcDbEntity
8
1
62
256
6
ByLayer
370
-1
48
1
60
0
100
AcDbEllipse
10
55.007909
20
9.279869
30
0
11
2.97761856893745
21
0.377380012678571
31
0
210
0
220
0
230
-1
40
0.997259
41
1.89067332022209
42
2.40600891757569
0
ELLIPSE
5
93
100
AcDbEntity
8
1
62
256
6
ByLayer
370
-1
48
1
60
0
100
AcDbEllipse
10
55.160137
20
7.023557
30
0
11
0.975273147380635
21
0.221002914004033
31
0
210
0
220
0
230
1
40
0.997609
41
-2.61345200308626
42
-2.40346260182845
0
ELLIPSE
5
94
100
AcDbEntity
8
1
62
256
6
ByLayer
370
-1
48
1
60
0
100
AcDbEllipse
10
54.95489
20
9.111713
30
0
11
2.97761856797927
21
0.377380020756023
31
0
210
0
220
0
230
-1
40
0.997259
41
1.5820165260266
42
1.78282258608511
0
ELLIPSE
5
95
100
AcDbEntity
8
1
62
256
6
ByLayer
370
-1
48
1
60
0
100
AcDbEllipse
10
52.291421
20
-3.173745
30
0
11
0.909825096200235
21
-2.21822652825488
31
0
210
0
220
0
230
-1
40
0.611763
41
-2.97730421375211
42
-2.70444589609535
0
ELLIPSE
5
96
100
AcDbEntity
8
1
62
256
6
ByLayer
370
-1
48
1
60
0
100
AcDbEllipse
10
52.145708
20
-2.53072
30
0
11
1.46290972107095
21
0.331504371006048
31
0
210
0
220
0
230
1
40
0.997609
41
0.773934401632187
42
3.06651159651525
0
ELLIPSE
5
97
100
AcDbEntity
8
1
62
256
6
ByLayer
370
-1
48
1
60
0
100
AcDbEllipse
10
22.102133
20
0.009373
30
0
11
530.012323511755
21
0.545480544184807
31
0
210
0
220
0
230
-1
40
0.01525
41
1.51176821393612
42
1.5152014464732
0
ELLIPSE
5
98
100
AcDbEntity
8
1
62
256
6
ByLayer
370
-1
48
1
60
0
100
AcDbEllipse
10
63.572102
20
3.108723
30
0
11
2.9776185677621
21
0.377380022236317
31
0
210
0
220
0
230
-1
40
0.997259
41
2.99871596379162
42
-3.13550982579526
0
ELLIPSE
5
99
100
AcDbEntity
8
1
62
256
6
ByLayer
370
-1
48
1
60
0
100
AcDbEllipse
10
55.861937
20
6.608411
30
0
11
-0.387061530366566
21
-0.0877105314953225
31
0
210
0
220
0
230
1
40
0.997609
41
-1.13809889413273
42
-0.527233655934817
0
ELLIPSE
5
9A
100
AcDbEntity
8
1
62
256
6
ByLayer
370
-1
48
1
60
0
100
AcDbEllipse
10
63.543171
20
12.504028
30
0
11
-0.387061530366557
21
-0.0877105314953207
31
0
210
0
220
0
230
1
40
0.997609
41
2.6143589976552
42
-1.13809889413278
0
ELLIPSE
5
9B
100
AcDbEntity
8
1
62
256
6
ByLayer
370
-1
48
1
60
0
100
AcDbEllipse
10
58.248682
20
4.945126
30
0
11
1.8575924660801
21
0.420941916772999
31
0
210
0
220
0
230
1
40
0.997609
41
0
42
6.28318530717959
0
ELLIPSE
5
9C
100
AcDbEntity
8
1
62
256
6
ByLayer
370
-1
48
1
60
0
100
AcDbEllipse
10
58.26071
20
4.892049
30
0
11
1.75687132609842
21
0.398117884861995
31
0
210
0
220
0
230
1
40
0.997609
41
0
42
6.28318530717959
0
ELLIPSE
5
9D
100
AcDbEntity
8
1
62
256
6
ByLayer
370
-1
48
1
60
0
100
AcDbEllipse
10
58.256892
20
4.908895
30
0
11
-1.83470498808472
21
-0.415755473011302
31
0
210
0
220
0
230
1
40
0.997609
41
-0.223359240998966
42
-9.4652018300814E-16
0
ELLIPSE
5
9E
100
AcDbEntity
8
1
62
256
6
ByLayer
370
-1
48
1
60
0
100
AcDbEllipse
10
58.256892
20
4.908895
30
0
11
-1.83470498808472
21
-0.415755473011302
31
0
210
0
220
0
230
1
40
0.997609
41
0
42
0.68187072118944
0
ELLIPSE
5
9F
100
AcDbEntity
8
1
62
256
6
ByLayer
370
-1
48
1
60
0
100
AcDbEllipse
10
58.256892
20
4.908895
30
0
11
-1.83470498808472
21
-0.415755473011302
31
0
210
0
220
0
230
1
40
0.997609
41
2.45971761958637
42
-0.223359240998955
0
ELLIPSE
5
A0
100
AcDbEntity
8
1
62
256
6
ByLayer
370
-1
48
1
60
0
100
AcDbEllipse
10
57.777043
20
4.181371
30
0
11
-0.180425532265417
21
-0.040885539090746
31
0
210
0
220
0
230
1
40
0.997609
41
-0.559939461859432
42
-0.190798990465411
0
ELLIPSE
5
A1
100
AcDbEntity
8
1
62
256
6
ByLayer
370
-1
48
1
60
0
100
AcDbEllipse
10
57.204376
20
4.381384
30
0
11
-0.411565268194627
21
-0.0932632297097016
31
0
210
0
220
0
230
1
40
0.997609
41
2.58165319173041
42
3.14159049276275
0
ELLIPSE
5
A2
100
AcDbEntity
8
1
62
256
6
ByLayer
370
-1
48
1
60
0
100
AcDbEllipse
10
57.417391
20
4.948697
30
0
11
-0.180425532265417
21
-0.040885539090746
31
0
210
0
220
0
230
1
40
0.997609
41
-1.60975247492523
42
-0.16713026089529
0
ELLIPSE
5
A3
100
AcDbEntity
8
1
62
256
6
ByLayer
370
-1
48
1
60
0
100
AcDbEllipse
10
57.306721
20
5.544048
30
0
11
-0.411565268194627
21
-0.0932632297097016
31
0
210
0
220
0
230
1
40
0.997609
41
1.53184017866434
42
2.24201305623996
0
ELLIPSE
5
A4
100
AcDbEntity
8
1
62
256
6
ByLayer
370
-1
48
1
60
0
100
AcDbEllipse
10
57.905232
20
5.645183
30
0
11
-0.180425532265417
21
-0.040885539090746
31
0
210
0
220
0
230
1
40
0.997609
41
-2.65519254391293
42
-0.0555800751411596
0
ELLIPSE
5
A5
100
AcDbEntity
8
1
62
256
6
ByLayer
370
-1
48
1
60
0
100
AcDbEllipse
10
58.366007
20
6.039835
30
0
11
-0.411565268194627
21
-0.0932632297097016
31
0
210
0
220
0
230
1
40
0.997609
41
0.48640010967723
42
1.26129983752965
0
ELLIPSE
5
A6
100
AcDbEntity
8
1
62
256
6
ByLayer
370
-1
48
1
60
0
100
AcDbEllipse
10
58.751276
20
5.572277
30
0
11
-0.180425532265417
21
-0.040885539090746
31
0
210
0
220
0
230
1
40
0.997609
41
-2.97790011589337
42
-1.10539308820773
0
ELLIPSE
5
A7
100
AcDbEntity
8
1
62
256
6
ByLayer
370
-1
48
1
60
0
100
AcDbEllipse
10
59.110928
20
4.804952
30
0
11
-0.180425532265417
21
-0.040885539090746
31
0
210
0
220
0
230
1
40
0.997609
41
-2.99875750554983
42
-2.15173265974511
0
ELLIPSE
5
A8
100
AcDbEntity
8
1
62
256
6
ByLayer
370
-1
48
1
60
0
100
AcDbEllipse
10
58.26416
20
4.876824
30
0
11
-0.729504314240712
21
-0.165310179675016
31
0
210
0
220
0
230
1
40
0.997609
41
1.43760557291966
42
2.15256412901306
0
ELLIPSE
5
A9
100
AcDbEntity
8
1
62
256
6
ByLayer
370
-1
48
1
60
0
100
AcDbEllipse
10
58.251416
20
4.933061
30
0
11
0.729504314240713
21
0.165310179675016
31
0
210
0
220
0
230
1
40
0.997609
41
2.27119502663903
42
2.34665773047331
0
ELLIPSE
5
AA
100
AcDbEntity
8
1
62
256
6
ByLayer
370
-1
48
1
60
0
100
AcDbEllipse
10
58.248885
20
4.944231
30
0
11
1.00940770753895
21
0.228738015994172
31
0
210
0
220
0
230
1
40
0.997609
41
-2.40346260182851
42
-1.35712303029172
0
ELLIPSE
5
AB
100
AcDbEntity
8
1
62
256
6
ByLayer
370
-1
48
1
60
0
100
AcDbEllipse
10
58.248885
20
4.944231
30
0
11
1.00940770753895
21
0.228738015994172
31
0
210
0
220
0
230
1
40
0.997609
41
2.83338313381438
42
-2.40346260182851
0
ELLIPSE
5
AC
100
AcDbEntity
8
1
62
256
6
ByLayer
370
-1
48
1
60
0
100
AcDbEllipse
10
58.26416
20
4.876824
30
0
11
-0.729504314240712
21
-0.165310179675016
31
0
210
0
220
0
230
1
40
0.997609
41
0.269140523492496
42
1.02044539221048
0
ELLIPSE
5
AD
100
AcDbEntity
8
1
62
256
6
ByLayer
370
-1
48
1
60
0
100
AcDbEllipse
10
58.251416
20
4.933061
30
0
11
0.729504314240713
21
0.165310179675016
31
0
210
0
220
0
230
1
40
0.997609
41
-0.870397626949721
42
-0.794934923117393
0
ELLIPSE
5
AE
100
AcDbEntity
8
1
62
256
6
ByLayer
370
-1
48
1
60
0
100
AcDbEllipse
10
58.26416
20
4.876824
30
0
11
0.729504314240711
21
0.165310179675015
31
0
210
0
220
0
230
1
40
0.997609
41
0.389257062168957
42
1.2612998375297
0
ELLIPSE
5
AF
100
AcDbEntity
8
1
62
256
6
ByLayer
370
-1
48
1
60
0
100
AcDbEllipse
10
58.26416
20
4.876824
30
0
11
-0.729504314240712
21
-0.165310179675016
31
0
210
0
220
0
230
1
40
0.997609
41
-1.88029281606009
42
-0.870397626950752
0
ELLIPSE
5
B0
100
AcDbEntity
8
1
62
256
6
ByLayer
370
-1
48
1
60
0
100
AcDbEllipse
10
58.248885
20
4.944231
30
0
11
1.00940770753895
21
0.228738015994172
31
0
210
0
220
0
230
1
40
0.997609
41
-1.35712303029172
42
-0.308209519775424
0
ELLIPSE
5
B1
100
AcDbEntity
8
1
62
256
6
ByLayer
370
-1
48
1
60
0
100
AcDbEllipse
10
58.366007
20
6.039835
30
0
11
-0.411565268194627
21
-0.0932632297097016
31
0
210
0
220
0
230
1
40
0.997609
41
1.26129983752965
42
2.03619956538219
0
ELLIPSE
5
B2
100
AcDbEntity
8
1
62
256
6
ByLayer
370
-1
48
1
60
0
100
AcDbEllipse
10
58.248885
20
4.944231
30
0
11
1.00940770753895
21
0.228738015994172
31
0
210
0
220
0
230
1
40
0.997609
41
1.78446962329796
42
2.83338313381438
0
ELLIPSE
5
B3
100
AcDbEntity
8
1
62
256
6
ByLayer
370
-1
48
1
60
0
100
AcDbEllipse
10
58.26416
20
4.876824
30
0
11
0.729504314240711
21
0.165310179675015
31
0
210
0
220
0
230
1
40
0.997609
41
2.27119502663906
42
2.34665773047331
0
ELLIPSE
5
B4
100
AcDbEntity
8
1
62
256
6
ByLayer
370
-1
48
1
60
0
100
AcDbEllipse
10
58.248885
20
4.944231
30
0
11
1.00940770753895
21
0.228738015994172
31
0
210
0
220
0
230
1
40
0.997609
41
-0.308209519775424
42
0.738130051761269
0
ELLIPSE
5
B5
100
AcDbEntity
8
1
62
256
6
ByLayer
370
-1
48
1
60
0
100
AcDbEllipse
10
57.306721
20
5.544048
30
0
11
-0.411565268194627
21
-0.0932632297097016
31
0
210
0
220
0
230
1
40
0.997609
41
2.37583970087259
42
3.08601257844807
0
ELLIPSE
5
B6
100
AcDbEntity
8
1
62
256
6
ByLayer
370
-1
48
1
60
0
100
AcDbEllipse
10
58.26416
20
4.876824
30
0
11
-0.729504314240712
21
-0.165310179675016
31
0
210
0
220
0
230
1
40
0.997609
41
-0.794934923116448
42
0.107075283951131
0
ELLIPSE
5
B7
100
AcDbEntity
8
1
62
256
6
ByLayer
370
-1
48
1
60
0
100
AcDbEllipse
10
58.248885
20
4.944231
30
0
11
1.00940770753895
21
0.228738015994172
31
0
210
0
220
0
230
1
40
0.997609
41
0.738130051761269
42
1.78446962329796
0
ELLIPSE
5
B8
100
AcDbEntity
8
1
62
256
6
ByLayer
370
-1
48
1
60
0
100
AcDbEllipse
10
58.26416
20
4.876824
30
0
11
-0.729504314240712
21
-0.165310179675016
31
0
210
0
220
0
230
1
40
0.997609
41
2.50887261489651
42
-2.92663238759678
0
ELLIPSE
5
B9
100
AcDbEntity
8
1
62
256
6
ByLayer
370
-1
48
1
60
0
100
AcDbEllipse
10
59.323943
20
5.372264
30
0
11
-0.411565268194627
21
-0.0932632297097016
31
0
210
0
220
0
230
1
40
0.997609
41
0.214960265992999
42
0.989859993845569
0
ELLIPSE
5
BA
100
AcDbEntity
8
1
62
256
6
ByLayer
370
-1
48
1
60
0
100
AcDbEllipse
10
58.251542
20
4.932507
30
0
11
1.68234617923159
21
0.381230026656955
31
0
210
0
220
0
230
1
40
0.997609
41
0
42
6.28318530717959
0
ELLIPSE
5
BB
100
AcDbEntity
8
1
62
256
6
ByLayer
370
-1
48
1
60
0
100
AcDbEllipse
10
58.248885
20
4.944231
30
0
11
1.26785509159483
21
0.287303788205243
31
0
210
0
220
0
230
1
40
0.997609
41
0
42
6.28318530717959
0
ELLIPSE
5
BC
100
AcDbEntity
8
1
62
256
6
ByLayer
370
-1
48
1
60
0
100
AcDbEllipse
10
58.262632
20
4.883565
30
0
11
1.68234617923159
21
0.381230026656954
31
0
210
0
220
0
230
1
40
0.997609
41
3.14153085796266
42
-0.223358944142713
0
ELLIPSE
5
BD
100
AcDbEntity
8
1
62
256
6
ByLayer
370
-1
48
1
60
0
100
AcDbEllipse
10
58.262632
20
4.883565
30
0
11
1.68234617923159
21
0.381230026656954
31
0
210
0
220
0
230
1
40
0.997609
41
-0.223359525174048
42
0
0
ELLIPSE
5
BE
100
AcDbEntity
8
1
62
256
6
ByLayer
370
-1
48
1
60
0
100
AcDbEllipse
10
60.635427
20
3.281841
30
0
11
-0.387061530366581
21
-0.0877105314953261
31
0
210
0
220
0
230
1
40
0.997609
41
2.00349375945712
42
2.6143589976552
0
ELLIPSE
5
BF
100
AcDbEntity
8
1
62
256
6
ByLayer
370
-1
48
1
60
0
100
AcDbEllipse
10
52.954193
20
-2.613775
30
0
11
-0.387061530366644
21
-0.0877105314953404
31
0
210
0
220
0
230
1
40
0.997609
41
-0.527233655934674
42
2.00349375945714
0
POINT
5
41
100
AcDbEntity
8
80
62
256
6
ByLayer
370
-1
48
1
60
0
100
AcDbPoint
10
0
20
0
30
0
39
0
210
0
220
0
230
1
50
360
0
POINT
5
43
100
AcDbEntity
8
81
62
256
6
ByLayer
370
-1
48
1
60
0
100
AcDbPoint
10
63.94
20
12.9
30
0
39
0
210
0
220
0
230
1
50
360
0
POINT
5
45
100
AcDbEntity
8
1
62
256
6
ByLayer
370
-1
48
1
60
0
100
AcDbPoint
10
-137.31
20
0
30
0
39
0
210
0
220
0
230
1
50
360
0
POINT
5
47
100
AcDbEntity
8
2
62
256
6
ByLayer
370
-1
48
1
60
0
100
AcDbPoint
10
63.94
20
12.9
30
0
39
0
210
0
220
0
230
1
50
360
0
POINT
5
49
100
AcDbEntity
8
2
62
256
6
ByLayer
370
-1
48
1
60
0
100
AcDbPoint
10
63.602968
20
11.58787
30
0
39
0
210
0
220
0
230
1
50
360
0
SPLINE
5
C0
100
AcDbEntity
8
1
62
256
6
ByLayer
370
-1
48
1
60
0
100
AcDbSpline
70
4
71
3
72
8
73
4
40
0
40
0
40
0
40
0
40
1
40
1
40
1
40
1
41
1
10
47.4636019602297
20
-8.0915
30
0
41
1
10
47.4636851821382
20
-8.0915
30
0
41
1
10
47.4637773182345
20
-8.00873750892129
30
0
41
1
10
47.4638783440316
20
-7.84343137332223
30
0
0
SPLINE
5
C1
100
AcDbEntity
8
1
62
256
6
ByLayer
370
-1
48
1
60
0
100
AcDbSpline
70
4
71
3
72
8
73
4
40
0
40
0
40
0
40
0
40
1
40
1
40
1
40
1
41
1
10
51.5612334021826
20
-8.03031641852326
30
0
41
1
10
50.1250153772211
20
-8.03301343729279
30
0
41
1
10
48.7077172629415
20
-8.00965050046409
30
0
41
1
10
47.4638783440316
20
-7.84343137332223
30
0
0
SPLINE
5
C2
100
AcDbEntity
8
1
62
256
6
ByLayer
370
-1
48
1
60
0
100
AcDbSpline
70
4
71
3
72
48
73
44
40
-0.0889281823858957
40
-0.0889281823858957
40
0
40
0
40
0.0597373880138101
40
0.0597373880138101
40
0.104027945494137
40
0.104027945494137
40
0.140722394451301
40
0.140722394451301
40
0.177737105994986
40
0.177737105994986
40
0.210188683298942
40
0.210188683298942
40
0.242132181392345
40
0.242132181392345
40
0.276617796299913
40
0.276617796299913
40
0.31566807320507
40
0.31566807320507
40
0.36133185015416
40
0.36133185015416
40
0.429986731660806
40
0.429986731660806
40
0.520062146791783
40
0.520062146791783
40
0.61189523849181
40
0.61189523849181
40
0.661539333815086
40
0.661539333815086
40
0.681715864731642
40
0.681715864731642
40
0.702273712774291
40
0.702273712774291
40
0.716084714199674
40
0.716084714199674
40
0.729835258266382
40
0.729835258266382
40
0.752392170503734
40
0.752392170503734
40
0.799238287456579
40
0.799238287456579
40
0.911071817614104
40
0.911071817614104
40
1
40
1
40
1.05973738801381
40
1.05973738801381
41
1
10
44.291635684994
20
1.50803907002765
30
0
41
1
10
43.8567639084297
20
1.28929371430638
30
0
41
1
10
43.6756927143278
20
1.22731947381811
30
0
41
1
10
43.3614524080734
20
1.19563083027174
30
0
41
1
10
43.2253293774115
20
1.20654724260908
30
0
41
1
10
42.9858636095827
20
1.28584240855508
30
0
41
1
10
42.8784717087581
20
1.34532720161698
30
0
41
1
10
42.6806547857447
20
1.51097756948616
30
0
41
1
10
42.5874257641349
20
1.6203270840895
30
0
41
1
10
42.4395831766977
20
1.85537387518789
30
0
41
1
10
42.3795677461538
20
1.98042990099197
30
0
41
1
10
42.2861556463691
20
2.23623601164351
30
0
41
1
10
42.2510981513498
20
2.37000340300131
30
0
41
1
10
42.2043841260514
20
2.64216908580522
30
0
41
1
10
42.1941748958307
20
2.78339231251817
30
0
41
1
10
42.2014910410321
20
3.06673574838655
30
0
41
1
10
42.2228935323233
20
3.20992601371211
30
0
41
1
10
42.3022790688036
20
3.49116229046879
30
0
41
1
10
42.3666778000563
20
3.62764096544708
30
0
41
1
10
42.5687623121088
20
3.92250329318776
30
0
41
1
10
42.7302312735071
20
4.06327742141411
30
0
41
1
10
43.1582443355456
20
4.3111124993581
30
0
41
1
10
43.4488231477145
20
4.40003414257143
30
0
41
1
10
44.0777733965175
20
4.49538962615412
30
0
41
1
10
44.4258576832157
20
4.50393335357671
30
0
41
1
10
44.9715152549695
20
4.43576807852889
30
0
41
1
10
45.16920982391
20
4.39641691373652
30
0
41
1
10
45.4349853283651
20
4.29265547645718
30
0
41
1
10
45.5112318294796
20
4.25615545458854
30
0
41
1
10
45.6533717366946
20
4.16352761781644
30
0
41
1
10
45.7208723979499
20
4.10524259042376
30
0
41
1
10
45.8066852109041
20
3.98798943126417
30
0
41
1
10
45.8343218464546
20
3.93423589548797
30
0
41
1
10
45.870082662623
20
3.82261781892939
30
0
41
1
10
45.8788551314993
20
3.76365454868761
30
0
41
1
10
45.882438383971
20
3.61094844931429
30
0
41
1
10
45.8658756011155
20
3.51633536313557
30
0
41
1
10
45.7883866667228
20
3.24127341641051
30
0
41
1
10
45.6998911133506
20
3.06917230319627
30
0
41
1
10
45.3730811833115
20
2.5290384087966
30
0
41
1
10
45.0836197641286
20
2.19747407646341
30
0
41
1
10
44.5453323356978
20
1.69838962450069
30
0
41
1
10
44.291635684994
20
1.50803907002765
30
0
41
1
10
43.8567639084297
20
1.28929371430638
30
0
0
SPLINE
5
C3
100
AcDbEntity
8
1
62
256
6
ByLayer
370
-1
48
1
60
0
100
AcDbSpline
70
4
71
3
72
8
73
4
40
0
40
0
40
0
40
0
40
1
40
1
40
1
40
1
41
1
10
47.2896018984363
20
-7.64890468952925
30
0
41
1
10
47.3474779917619
20
-7.71384309655301
30
0
41
1
10
47.4055753174869
20
-7.77868213495273
30
0
41
1
10
47.4638783440316
20
-7.84343137332223
30
0
0
SPLINE
5
C4
100
AcDbEntity
8
1
62
256
6
ByLayer
370
-1
48
1
60
0
100
AcDbSpline
70
4
71
3
72
10
73
6
40
0
40
0
40
0
40
0
40
0.5
40
0.5
40
1
40
1
40
1
40
1
41
1
10
45.3646018984364
20
-7.20441921900874
30
0
41
1
10
44.545034153403
20
-6.83993047993241
30
0
41
1
10
43.9091640716819
20
-6.28226719030974
30
0
41
1
10
42.9162641750302
20
-4.7651389005926
30
0
41
1
10
42.5529238680408
20
-3.8072510664212
30
0
41
1
10
42.2294916842709
20
-2.76225564530171
30
0
0
SPLINE
5
C5
100
AcDbEntity
8
1
62
256
6
ByLayer
370
-1
48
1
60
0
100
AcDbSpline
70
4
71
3
72
8
73
4
40
0
40
0
40
0
40
0
40
1
40
1
40
1
40
1
41
1
10
45.4396018984364
20
-7.16605055108147
30
0
41
1
10
45.9942330010687
20
-7.40113294717997
30
0
41
1
10
46.6084127805253
20
-7.54926251737064
30
0
41
1
10
47.2896018984364
20
-7.64890468952905
30
0
0
SPLINE
5
C6
100
AcDbEntity
8
1
62
256
6
ByLayer
370
-1
48
1
60
0
100
AcDbSpline
70
4
71
3
72
8
73
4
40
0
40
0
40
0
40
0
40
1
40
1
40
1
40
1
41
1
10
45.3646018984366
20
-7.20441921900863
30
0
41
1
10
45.3894793697459
20
-7.19199004404237
30
0
41
1
10
45.4144819166015
20
-7.1791964548961
30
0
41
1
10
45.4396018984366
20
-7.16605055108192
30
0
0
SPLINE
5
C7
100
AcDbEntity
8
1
62
256
6
ByLayer
370
-1
48
1
60
0
100
AcDbSpline
70
4
71
3
72
10
73
6
40
0
40
0
40
0
40
0
40
0.5
40
0.5
40
1
40
1
40
1
40
1
41
1
10
40.7194017417077
20
2.76225564530131
30
0
41
1
10
40.4942167141871
20
3.63876485552035
30
0
41
1
10
40.2943171242411
20
4.47605577407847
30
0
41
1
10
40.1476492849333
20
5.94071174263229
30
0
41
1
10
40.2148454380018
20
6.56981953600305
30
0
41
1
10
40.5286772064156
20
7.00749999999999
30
0
0
SPLINE
5
C8
100
AcDbEntity
8
SK1
62
256
6
ByLayer
370
-1
48
1
60
0
100
AcDbSpline
70
4
71
3
72
10
73
6
40
0
40
0
40
0
40
0
40
0.5
40
0.5
40
1
40
1
40
1
40
1
41
1
10
-135.31
20
2.76225564530151
30
0
41
1
10
-135.618496949467
20
1.86962940601529
30
0
41
1
10
-135.802263903757
20
0.947191057260369
30
0
41
1
10
-135.802735629345
20
-0.943448469663423
30
0
41
1
10
-135.615124150977
20
-1.87938849257091
30
0
41
1
10
-135.31
20
-2.76225564530151
30
0
0
SPLINE
5
C9
100
AcDbEntity
8
1
62
256
6
ByLayer
370
-1
48
1
60
0
100
AcDbSpline
70
4
71
3
72
18
73
14
40
0
40
0
40
0
40
0
40
0.211335469661875
40
0.211335469661875
40
0.387284264309174
40
0.387284264309174
40
0.564895120634313
40
0.564895120634313
40
0.719870890411438
40
0.719870890411438
40
0.925728910691729
40
0.925728910691729
40
1
40
1
40
1
40
1
41
1
10
58.0314288130978
20
5.82828968652436
30
0
41
1
10
58.059714260541
20
5.79429870082177
30
0
41
1
10
58.0939714238411
20
5.76362848371846
30
0
41
1
10
58.165360249946
20
5.71845742454258
30
0
41
1
10
58.2019097996735
20
5.70169064311474
30
0
41
1
10
58.2788901344474
20
5.67962568738571
30
0
41
1
10
58.3205165657291
20
5.67423370340495
30
0
41
1
10
58.3960756286685
20
5.67613886388435
30
0
41
1
10
58.4312159136028
20
5.68186824785047
30
0
41
1
10
58.5072309395036
20
5.70431319060171
30
0
41
1
10
58.5475631603686
20
5.72424826148978
30
0
41
1
10
58.5956803478183
20
5.75778401214163
30
0
41
1
10
58.6079620925682
20
5.76740927244921
30
0
41
1
10
58.6196180555698
20
5.77760409657347
30
0
0
SPLINE
5
CA
100
AcDbEntity
8
1
62
256
6
ByLayer
370
-1
48
1
60
0
100
AcDbSpline
70
4
71
3
72
16
73
12
40
0
40
0
40
0
40
0
40
0.0621749445933236
40
0.0621749445933236
40
0.286795441216408
40
0.286795441216408
40
0.514130800643467
40
0.514130800643467
40
0.75581338049467
40
0.75581338049467
40
1
40
1
40
1
40
1
41
1
10
59.2799500006777
20
4.85671547290821
30
0
41
1
10
59.2803989987893
20
4.86191988098068
30
0
41
1
10
59.2806281572719
20
4.86714172127026
30
0
41
1
10
59.2806664327862
20
4.89102266466543
30
0
41
1
10
59.2777716481206
20
4.90978918297998
30
0
41
1
10
59.2667784658509
20
4.94474983794584
30
0
41
1
10
59.2584916426713
20
4.96136018560642
30
0
41
1
10
59.2374083141499
20
4.99133279054703
30
0
41
1
10
59.2241124905894
20
5.00481114770039
30
0
41
1
10
59.1948091579508
20
5.026529811107
30
0
41
1
10
59.1784730252352
20
5.03497105636129
30
0
41
1
10
59.1616136063902
20
5.04068186939784
30
0
0
SPLINE
5
CB
100
AcDbEntity
8
1
62
256
6
ByLayer
370
-1
48
1
60
0
100
AcDbSpline
70
4
71
3
72
14
73
10
40
0
40
0
40
0
40
0
40
0.0499837020914869
40
0.0499837020914869
40
0.386960018209893
40
0.386960018209893
40
0.834533070481123
40
0.834533070481123
40
1
40
1
40
1
40
1
41
1
10
57.6551424516318
20
5.38294971265415
30
0
41
1
10
57.6578800325128
20
5.38750408846343
30
0
41
1
10
57.6605286397817
20
5.39211285809131
30
0
41
1
10
57.680169029585
20
5.42788367622353
30
0
41
1
10
57.6931733800479
20
5.46145164838532
30
0
41
1
10
57.7129628713366
20
5.53942784986251
30
0
41
1
10
57.7167992637036
20
5.58507964320498
30
0
41
1
10
57.7131806931881
20
5.64508184670305
30
0
41
1
10
57.7113026341381
20
5.66125322638987
30
0
41
1
10
57.7085872108271
20
5.67716258466501
30
0
0
SPLINE
5
CC
100
AcDbEntity
8
1
62
256
6
ByLayer
370
-1
48
1
60
0
100
AcDbSpline
70
4
71
3
72
18
73
14
40
0
40
0
40
0
40
0
40
0.207654480752071
40
0.207654480752071
40
0.384248033951198
40
0.384248033951198
40
0.562546728431377
40
0.562546728431377
40
0.717650391362917
40
0.717650391362917
40
0.922856949487012
40
0.922856949487012
40
1
40
1
40
1
40
1
41
1
10
58.9115756732177
20
5.57414347376738
30
0
41
1
10
58.8979330367785
20
5.53294163650969
30
0
41
1
10
58.8898720701824
20
5.48840946494349
30
0
41
1
10
58.8879472986398
20
5.40421942089128
30
0
41
1
10
58.8922186173242
20
5.36387230920141
30
0
41
1
10
58.9120965766762
20
5.28569050435186
30
0
41
1
10
58.9282177754708
20
5.24676528625281
30
0
41
1
10
58.9670236864465
20
5.18226056962794
30
0
41
1
10
58.9890003975955
20
5.15480024450395
30
0
41
1
10
59.0446785256605
20
5.100709018739
30
0
41
1
10
59.0807346774428
20
5.07615440056978
30
0
41
1
10
59.1323948085415
20
5.05153672933019
30
0
41
1
10
59.1469137434438
20
5.0456611732352
30
0
41
1
10
59.1616136063902
20
5.04068186939793
30
0
0
SPLINE
5
CD
100
AcDbEntity
8
1
62
256
6
ByLayer
370
-1
48
1
60
0
100
AcDbSpline
70
4
71
3
72
14
73
10
40
0
40
0
40
0
40
0
40
0.264419241690038
40
0.264419241690038
40
0.554149630868617
40
0.554149630868617
40
0.816436502637224
40
0.816436502637224
40
1
40
1
40
1
40
1
41
1
10
57.5882701374547
20
4.3051566339033
30
0
41
1
10
57.5816001576541
20
4.28731421072919
30
0
41
1
10
57.5777768361923
20
4.26785948933949
30
0
41
1
10
57.5770035531644
20
4.22646107883926
30
0
41
1
10
57.5807853831553
20
4.20379667230077
30
0
41
1
10
57.5962698821685
20
4.1631381776121
30
0
41
1
10
57.6074590482273
20
4.14430304529583
30
0
41
1
10
57.6315578222568
20
4.11660917761589
30
0
41
1
10
57.6431413572087
20
4.10620047032808
30
0
41
1
10
57.6557486978879
20
4.09741461501389
30
0
0
SPLINE
5
CE
100
AcDbEntity
8
1
62
256
6
ByLayer
370
-1
48
1
60
0
100
AcDbSpline
70
4
71
3
72
18
73
14
40
0
40
0
40
0
40
0
40
0.0248322285127559
40
0.0248322285127559
40
0.2503418177787
40
0.2503418177787
40
0.476432890403849
40
0.476432890403849
40
0.71513714703663
40
0.71513714703663
40
0.976032691870178
40
0.976032691870178
40
1
40
1
40
1
40
1
41
1
10
57.2178198399957
20
5.03174577095743
30
0
41
1
10
57.2176398286857
20
5.02965923141321
30
0
41
1
10
57.2174956408975
20
5.02756815874119
30
0
41
1
10
57.2164154163301
20
5.00667350127029
30
0
41
1
10
57.2184228689559
20
4.98740130819817
30
0
41
1
10
57.2278783568222
20
4.95099111622812
30
0
41
1
10
57.2354482001301
20
4.93338959416539
30
0
41
1
10
57.2552564688391
20
4.90099887490391
30
0
41
1
10
57.2679637374583
20
4.88600501096749
30
0
41
1
10
57.297519429965
20
4.85981405348406
30
0
41
1
10
57.314999372797
20
4.84875393387614
30
0
41
1
10
57.3348416322796
20
4.84002491819811
30
0
41
1
10
57.336533535591
20
4.83930900441516
30
0
41
1
10
57.3382322042834
20
4.83861823827201
30
0
0
SPLINE
5
CF
100
AcDbEntity
8
1
62
256
6
ByLayer
370
-1
48
1
60
0
100
AcDbSpline
70
4
71
3
72
18
73
14
40
0
40
0
40
0
40
0
40
0.185078465951871
40
0.185078465951871
40
0.365774503691734
40
0.365774503691734
40
0.548436227531912
40
0.548436227531912
40
0.704544065757047
40
0.704544065757047
40
0.905939026111459
40
0.905939026111459
40
1
40
1
40
1
40
1
41
1
10
58.4684169975791
20
4.05101042114251
30
0
41
1
10
58.4442382518607
20
4.07816550956633
30
0
41
1
10
58.4155175941369
20
4.10286390625674
30
0
41
1
10
58.3512289547219
20
4.14382696426165
30
0
41
1
10
58.3150112380221
20
4.16068074571734
30
0
41
1
10
58.2375700554454
20
4.18400853975538
30
0
41
1
10
58.1950546513976
20
4.19061197576426
30
0
41
1
10
58.1177745204753
20
4.19161927204985
30
0
41
1
10
58.0818553125526
20
4.18770859124047
30
0
41
1
10
58.0049934784342
20
4.17028146123386
30
0
41
1
10
57.9642773019919
20
4.15414042014066
30
0
41
1
10
57.9113779885063
20
4.12398130372642
30
0
41
1
10
57.8953008392295
20
4.11327229398634
30
0
41
1
10
57.8802277551046
20
4.10169601109862
30
0
0
SPLINE
5
D0
100
AcDbEntity
8
1
62
256
6
ByLayer
370
-1
48
1
60
0
100
AcDbSpline
70
4
71
3
72
18
73
14
40
0
40
0
40
0
40
0
40
0.122095753839786
40
0.122095753839786
40
0.315497012956283
40
0.315497012956283
40
0.475952738241006
40
0.475952738241006
40
0.636867202909738
40
0.636867202909738
40
0.792749182126898
40
0.792749182126898
40
1
40
1
40
1
40
1
41
1
10
57.5882701374547
20
4.3051566339033
30
0
41
1
10
57.5966949294673
20
4.32769323952101
30
0
41
1
10
57.6031593714472
20
4.35134621207985
30
0
41
1
10
57.614011647135
20
4.41437210600134
30
0
41
1
10
57.6150337636431
20
4.45574245290416
30
0
41
1
10
57.60451131284
20
4.53186046469679
30
0
41
1
10
57.5948647392588
20
4.56737546639067
30
0
41
1
10
57.5664637806875
20
4.63476308370392
30
0
41
1
10
57.5473102465118
20
4.6674581668205
30
0
41
1
10
57.5034791710254
20
4.72454366154309
30
0
41
1
10
57.47853835139
20
4.74986759179689
30
0
41
1
10
57.4168450209841
20
4.79986727072023
30
0
41
1
10
57.3780285308524
20
4.82243500304852
30
0
41
1
10
57.3382322042834
20
4.83861823827198
30
0
0
SPLINE
5
D1
100
AcDbEntity
8
1
62
256
6
ByLayer
370
-1
48
1
60
0
100
AcDbSpline
70
4
71
3
72
14
73
10
40
0
40
0
40
0
40
0
40
0.0269824460467354
40
0.0269824460467354
40
0.365166898844825
40
0.365166898844825
40
0.806226149444849
40
0.806226149444849
40
1
40
1
40
1
40
1
41
1
10
58.8476894152519
20
4.48317310071644
30
0
41
1
10
58.8462020353787
20
4.48073077115166
30
0
41
1
10
58.8447400294555
20
4.47827622972804
30
0
41
1
10
58.8254974841299
20
4.44523829658118
30
0
41
1
10
58.8116221199328
20
4.4126110517135
30
0
41
1
10
58.7900015535158
20
4.33828016223677
30
0
41
1
10
58.7848940505513
20
4.29558697788383
30
0
41
1
10
58.7866393274036
20
4.23706917843489
30
0
41
1
10
58.7883887628688
20
4.21938151116831
30
0
41
1
10
58.791268721983
20
4.20209285459305
30
0
0
SPLINE
5
D2
100
AcDbEntity
8
1
62
256
6
ByLayer
370
-1
48
1
60
0
100
AcDbSpline
70
4
71
3
72
14
73
10
40
0
40
0
40
0
40
0
40
0.190736148275448
40
0.190736148275448
40
0.489609768801632
40
0.489609768801632
40
0.759718673661604
40
0.759718673661604
40
1
40
1
40
1
40
1
41
1
10
58.0314288130984
20
5.8282896865264
30
0
41
1
10
58.0220699141974
20
5.83953639561233
30
0
41
1
10
58.0112978414925
20
5.84987765901934
30
0
41
1
10
57.9808559275542
20
5.87286359899332
30
0
41
1
10
57.9589973154758
20
5.88385394534262
30
0
41
1
10
57.9148224267588
20
5.89589945854396
30
0
41
1
10
57.8920632844832
20
5.89795095078418
30
0
41
1
10
57.8500394965892
20
5.89375286017599
30
0
41
1
10
57.8300700187228
20
5.88831503060118
30
0
41
1
10
57.8118372826263
20
5.87981988912884
30
0
0
SPLINE
5
D3
100
AcDbEntity
8
1
62
256
6
ByLayer
370
-1
48
1
60
0
100
AcDbSpline
70
4
71
3
72
14
73
10
40
0
40
0
40
0
40
0
40
0.22757460594349
40
0.22757460594349
40
0.521337739279428
40
0.521337739279428
40
0.786936447088272
40
0.786936447088272
40
1
40
1
40
1
40
1
41
1
10
57.3694296263313
20
5.19294991892514
30
0
41
1
10
57.3525995779415
20
5.19043376518721
30
0
41
1
10
57.3358314135771
20
5.1854939666392
30
0
41
1
10
57.2997420077331
20
5.16875988115433
30
0
41
1
10
57.2805147592339
20
5.15504581920126
30
0
41
1
10
57.2503157503956
20
5.12251995393228
30
0
41
1
10
57.2382996483562
20
5.10379839802764
30
0
41
1
10
57.223592813385
20
5.06723798819172
30
0
41
1
10
57.2193549681896
20
5.04953968447055
30
0
41
1
10
57.2178198399957
20
5.03174577095743
30
0
0
SPLINE
5
D4
100
AcDbEntity
8
1
62
256
6
ByLayer
370
-1
48
1
60
0
100
AcDbSpline
70
4
71
3
72
16
73
12
40
0
40
0
40
0
40
0
40
0.061932076133057
40
0.061932076133057
40
0.285893161273095
40
0.285893161273095
40
0.512557745327219
40
0.512557745327219
40
0.753524618512354
40
0.753524618512354
40
1
40
1
40
1
40
1
41
1
10
58.6859325580471
20
4.00864135473694
30
0
41
1
10
58.6906727862594
20
4.01084995958166
30
0
41
1
10
58.6953259209797
20
4.01325488394508
30
0
41
1
10
58.7161523553286
20
4.02512421574426
30
0
41
1
10
58.7311591105772
20
4.03695513069707
30
0
41
1
10
58.7565110740076
20
4.06378336181979
30
0
41
1
10
58.7671316068617
20
4.07914917397551
30
0
41
1
10
58.7834565294825
20
4.11211344998304
30
0
41
1
10
58.7890310425013
20
4.13019634424739
30
0
41
1
10
58.7944126977669
20
4.16627701877218
30
0
41
1
10
58.7941726103523
20
4.18466054852283
30
0
41
1
10
58.791268721983
20
4.20209285459305
30
0
0
SPLINE
5
D5
100
AcDbEntity
8
1
62
256
6
ByLayer
370
-1
48
1
60
0
100
AcDbSpline
70
4
71
3
72
14
73
10
40
0
40
0
40
0
40
0
40
0.316223988359041
40
0.316223988359041
40
0.607357706581293
40
0.607357706581293
40
0.863851866027633
40
0.863851866027633
40
1
40
1
40
1
40
1
41
1
10
58.9115756732177
20
5.57414347376738
30
0
41
1
10
58.9191586743863
20
5.59704473493289
30
0
41
1
10
58.9226997544596
20
5.62224564121777
30
0
41
1
10
58.9199135665483
20
5.67043680135859
30
0
41
1
10
58.9142497452997
20
5.69420511929079
30
0
41
1
10
58.8955617665069
20
5.73521592648274
30
0
41
1
10
58.8831818639937
20
5.75349523919323
30
0
41
1
10
58.8602156240788
20
5.7770292599028
30
0
41
1
10
58.8513984477441
20
5.78451173408692
30
0
41
1
10
58.8420211427854
20
5.79104662885177
30
0
0
SPLINE
5
D6
100
AcDbEntity
8
1
62
256
6
ByLayer
370
-1
48
1
60
0
100
AcDbSpline
70
4
71
3
72
12
73
8
40
0
40
0
40
0
40
0
40
0.42508708371309
40
0.42508708371309
40
0.813242689045983
40
0.813242689045983
40
1
40
1
40
1
40
1
41
1
10
59.1304263064868
20
4.68630552033542
30
0
41
1
10
59.0916062612288
20
4.67763873198629
30
0
41
1
10
59.0526481432087
20
4.66323892834285
30
0
41
1
10
58.9819292403733
20
4.62466572590648
30
0
41
1
10
58.9490579131444
20
4.60091170804645
30
0
41
1
10
58.9057300306067
20
4.5593586507083
30
0
41
1
10
58.8923465409359
20
4.54474429296653
30
0
41
1
10
58.8800297867551
20
4.52934519950622
30
0
0
SPLINE
5
D7
100
AcDbEntity
8
1
62
256
6
ByLayer
370
-1
48
1
60
0
100
AcDbSpline
70
4
71
3
72
14
73
10
40
0
40
0
40
0
40
0
40
0.277704414758523
40
0.277704414758523
40
0.56577130515366
40
0.56577130515366
40
0.826714711410771
40
0.826714711410771
40
1
40
1
40
1
40
1
41
1
10
58.4684169975781
20
4.05101042114177
30
0
41
1
10
58.4816975885664
20
4.03609502284905
30
0
41
1
10
58.4980858077002
20
4.02297068333417
30
0
41
1
10
58.5357323563858
20
4.00259399210663
30
0
41
1
10
58.5577589840601
20
3.9952981647408
30
0
41
1
10
58.6013594610217
20
3.98959734737213
30
0
41
1
10
58.6234440359332
20
3.99037060525862
30
0
41
1
10
58.6587646738659
20
3.99784263688761
30
0
41
1
10
58.6727645505841
20
4.00250601192741
30
0
41
1
10
58.6859325580471
20
4.00864135473694
30
0
0
SPLINE
5
D8
100
AcDbEntity
8
1
62
256
6
ByLayer
370
-1
48
1
60
0
100
AcDbSpline
70
4
71
3
72
18
73
14
40
0
40
0
40
0
40
0
40
0.0005246147432845
40
0.0005246147432845
40
0.226107470664175
40
0.226107470664175
40
0.450851750917377
40
0.450851750917377
40
0.687012441089911
40
0.687012441089911
40
0.944414612773616
40
0.944414612773616
40
1
40
1
40
1
40
1
41
1
10
57.8118372826263
20
5.87981988912884
30
0
41
1
10
57.8117968465744
20
5.87980104884178
30
0
41
1
10
57.811756417451
20
5.87978219344868
30
0
41
1
10
57.7945830131014
20
5.87176504558886
30
0
41
1
10
57.7785087055805
20
5.8608572680273
30
0
41
1
10
57.7510854927142
20
5.83521358000954
30
0
41
1
10
57.7393584541661
20
5.82017234959977
30
0
41
1
10
57.7207833024742
20
5.78731534623861
30
0
41
1
10
57.7139634845432
20
5.76899449471375
30
0
41
1
10
57.7057492138651
20
5.73050598352992
30
0
41
1
10
57.704773174125
20
5.70984286198401
30
0
41
1
10
57.7072736298862
20
5.68569910015779
30
0
41
1
10
57.7078618742557
20
5.68141224965675
30
0
41
1
10
57.7085872108269
20
5.67716258466493
30
0
0
SPLINE
5
D9
100
AcDbEntity
8
1
62
256
6
ByLayer
370
-1
48
1
60
0
100
AcDbSpline
70
4
71
3
72
14
73
10
40
0
40
0
40
0
40
0
40
0.279837521640116
40
0.279837521640116
40
0.567076524333712
40
0.567076524333712
40
0.82727109242096
40
0.82727109242096
40
1
40
1
40
1
40
1
41
1
10
59.1304263064867
20
4.6863055203352
30
0
41
1
10
59.1507769522621
20
4.69084891379555
30
0
41
1
10
59.1711104949637
20
4.69902271559013
30
0
41
1
10
59.2087253578377
20
4.72242275204943
30
0
41
1
10
59.2264757297513
20
4.7382294709796
30
0
41
1
10
59.2538037138236
20
4.77366857438872
30
0
41
1
10
59.2643761860972
20
4.79335794987401
30
0
41
1
10
59.2757238075043
20
4.82781322915889
30
0
41
1
10
59.2787043822794
20
4.842277313192
30
0
41
1
10
59.2799500006777
20
4.85671547290821
30
0
0
SPLINE
5
DA
100
AcDbEntity
8
1
62
256
6
ByLayer
370
-1
48
1
60
0
100
AcDbSpline
70
4
71
3
72
16
73
12
40
0
40
0
40
0
40
0
40
0.0525854120375713
40
0.0525854120375713
40
0.277400897878668
40
0.277400897878668
40
0.504389277447796
40
0.504389277447796
40
0.745285318888891
40
0.745285318888891
40
1
40
1
40
1
40
1
41
1
10
57.6557486978879
20
4.09741461501389
30
0
41
1
10
57.6593797226754
20
4.09488421155794
30
0
41
1
10
57.6631061858155
20
4.09247724099231
30
0
41
1
10
57.6830474474568
20
4.08056539693769
30
0
41
1
10
57.7008879937114
20
4.07326257155782
30
0
41
1
10
57.7371907940089
20
4.06424166153482
30
0
41
1
10
57.7561169481807
20
4.06244934765027
30
0
41
1
10
57.7936389900824
20
4.06418682039129
30
0
41
1
10
57.8126151529963
20
4.0680516590873
30
0
41
1
10
57.8483963993661
20
4.08092398060302
30
0
41
1
10
57.8654452678929
20
4.09034290961415
30
0
41
1
10
57.8802277551046
20
4.1016960110986
30
0
0
SPLINE
5
DB
100
AcDbEntity
8
1
62
256
6
ByLayer
370
-1
48
1
60
0
100
AcDbSpline
70
4
71
3
72
12
73
8
40
0
40
0
40
0
40
0
40
0.461202661408918
40
0.461202661408918
40
0.843150864328572
40
0.843150864328572
40
1
40
1
40
1
40
1
41
1
10
57.3694296263314
20
5.19294991892468
30
0
41
1
10
57.4122087700252
20
5.19934555723884
30
0
41
1
10
57.455172936578
20
5.21268965946302
30
0
41
1
10
57.5287976475452
20
5.25049824919881
30
0
41
1
10
57.5610873063872
20
5.27318125740055
30
0
41
1
10
57.6012540602557
20
5.31182823522792
30
0
41
1
10
57.6124152733836
20
5.32396414955383
30
0
41
1
10
57.6228020801277
20
5.33677761386321
30
0
0
SPLINE
5
DC
100
AcDbEntity
8
1
62
256
6
ByLayer
370
-1
48
1
60
0
100
AcDbSpline
70
4
71
3
72
16
73
12
40
0
40
0
40
0
40
0
40
0.0966473981793622
40
0.0966473981793622
40
0.320960499256752
40
0.320960499256752
40
0.549903726264172
40
0.549903726264172
40
0.794752642735203
40
0.794752642735203
40
1
40
1
40
1
40
1
41
1
10
58.8420211427854
20
5.79104662885177
30
0
41
1
10
58.8353766247897
20
5.79567708782233
30
0
41
1
10
58.8284111403075
20
5.79986353392675
30
0
41
1
10
58.804644693761
20
5.81205005024435
30
0
41
1
10
58.7865936893942
20
5.81793892732202
30
0
41
1
10
58.7501362209154
20
5.82389354846597
30
0
41
1
10
58.7312701458016
20
5.82392798931642
30
0
41
1
10
58.6941302329155
20
5.81837622407741
30
0
41
1
10
58.675520946047
20
5.81235054345734
30
0
41
1
10
58.6445060045206
20
5.79678204622161
30
0
41
1
10
58.6313332142122
20
5.78785069584026
30
0
41
1
10
58.6196180555698
20
5.77760409657347
30
0
0
SPLINE
5
DD
100
AcDbEntity
8
SK1
62
256
6
ByLayer
370
-1
48
1
60
0
100
AcDbSpline
70
4
71
3
72
8
73
4
40
0
40
0
40
0
40
0
40
1
40
1
40
1
40
1
41
1
10
-136.294989802577
20
7.00749999999999
30
0
41
1
10
-136.297269309068
20
7.00749999999999
30
0
41
1
10
-135.893332978056
20
7.00749999999999
30
0
41
1
10
-135.31
20
7.00749999999999
30
0
0
LINE
5
4A
100
AcDbEntity
8
80
62
256
6
ByLayer
370
-1
48
1
60
0
100
AcDbLine
10
0
20
0
30
0
11
-10
21
0
31
0
39
0
210
0
220
0
230
1
0
LINE
5
4B
100
AcDbEntity
8
81
62
256
6
ByLayer
370
-1
48
1
60
0
100
AcDbLine
10
63.94
20
12.9
30
0
11
73.94
21
12.9
31
0
39
0
210
0
220
0
230
1
0
LINE
5
4C
100
AcDbEntity
8
SK4
62
256
6
ByLayer
370
-1
48
0.05
60
0
100
AcDbLine
10
-142.31
20
0
30
0
11
68.602968
21
0
31
0
39
0
210
0
220
0
230
1
0
LINE
5
4E
100
AcDbEntity
8
4
62
256
6
ByLayer
370
-1
48
0.05
60
0
100
AcDbLine
10
0
20
0
30
0
11
68.602968
21
0
31
0
39
0
210
0
220
0
230
1
0
LINE
5
50
100
AcDbEntity
8
1
62
256
6
ByLayer
370
-1
48
1
60
0
100
AcDbLine
10
57.615941
20
4.474647
30
0
11
57.603025
21
4.531647
31
0
39
0
210
0
220
0
230
1
0
LINE
5
51
100
AcDbEntity
8
1
62
256
6
ByLayer
370
-1
48
1
60
0
100
AcDbLine
10
58.899485
20
5.335896
30
0
11
58.912378
21
5.279001
31
0
39
0
210
0
220
0
230
1
0
LINE
5
52
100
AcDbEntity
8
1
62
256
6
ByLayer
370
-1
48
1
60
0
100
AcDbLine
10
59.944978
20
5.264795
30
0
11
59.933888
21
5.313737
31
0
39
0
210
0
220
0
230
1
0
LINE
5
53
100
AcDbEntity
8
1
62
256
6
ByLayer
370
-1
48
1
60
0
100
AcDbLine
10
56.569195
20
4.551277
30
0
11
56.580286
21
4.502335
31
0
39
0
210
0
220
0
230
1
0
LINE
5
54
100
AcDbEntity
8
1
62
256
6
ByLayer
370
-1
48
1
60
0
100
AcDbLine
10
0
20
-7.9925
30
0
11
45.364602
21
-7.9925
31
0
39
0
210
0
220
0
230
1
0
LINE
5
55
100
AcDbEntity
8
1
62
256
6
ByLayer
370
-1
48
1
60
0
100
AcDbLine
10
45.364602
20
-7.9925
30
0
11
45.439602
21
-7.9175
31
0
39
0
210
0
220
0
230
1
0
LINE
5
56
100
AcDbEntity
8
1
62
256
6
ByLayer
370
-1
48
1
60
0
100
AcDbLine
10
45.439602
20
-7.9175
30
0
11
47.289602
21
-7.9175
31
0
39
0
210
0
220
0
230
1
0
LINE
5
57
100
AcDbEntity
8
1
62
256
6
ByLayer
370
-1
48
1
60
0
100
AcDbLine
10
47.289602
20
-7.9175
30
0
11
47.463587
21
-8.091485
31
0
39
0
210
0
220
0
230
1
0
LINE
5
58
100
AcDbEntity
8
SK1
62
256
6
ByLayer
370
-1
48
1
60
0
100
AcDbLine
10
-135.31
20
-7.9925
30
0
11
0
21
-7.9925
31
0
39
0
210
0
220
0
230
1
0
LINE
5
5A
100
AcDbEntity
8
SK1
62
256
6
ByLayer
370
-1
48
1
60
0
100
AcDbLine
10
-136.295
20
7.0075
30
0
11
-137.31
21
5.9925
31
0
39
0
210
0
220
0
230
1
0
LINE
5
5B
100
AcDbEntity
8
SK1
62
256
6
ByLayer
370
-1
48
1
60
0
100
AcDbLine
10
-137.31
20
-5.9925
30
0
11
-135.31
21
-7.9925
31
0
39
0
210
0
220
0
230
1
0
LINE
5
5C
100
AcDbEntity
8
1
62
256
6
ByLayer
370
-1
48
1
60
0
100
AcDbLine
10
53.077828
20
0.227811
30
0
11
53.077812
21
0.227776
31
0
39
0
210
0
220
0
230
1
0
LINE
5
5D
100
AcDbEntity
8
1
62
256
6
ByLayer
370
-1
48
1
60
0
100
AcDbLine
10
40.719402
20
2.762256
30
0
11
0
21
2.762256
31
0
39
0
210
0
220
0
230
1
0
LINE
5
5E
100
AcDbEntity
8
1
62
256
6
ByLayer
370
-1
48
1
60
0
100
AcDbLine
10
53.397883
20
0.112474
30
0
11
52.04166
21
-0.928474
31
0
39
0
210
0
220
0
230
1
0
LINE
5
5F
100
AcDbEntity
8
1
62
256
6
ByLayer
370
-1
48
1
60
0
100
AcDbLine
10
60.383333
20
2.166046
30
0
11
60.587432
21
2.023812
31
0
39
0
210
0
220
0
230
1
0
LINE
5
60
100
AcDbEntity
8
1
62
256
6
ByLayer
370
-1
48
1
60
0
100
AcDbLine
10
47.522029
20
7.0075
30
0
11
51.561233
21
-8.030316
31
0
39
0
210
0
220
0
230
1
0
LINE
5
61
100
AcDbEntity
8
1
62
256
6
ByLayer
370
-1
48
1
60
0
100
AcDbLine
10
54.587059
20
6.205377
30
0
11
54.917567
21
5.975051
31
0
39
0
210
0
220
0
230
1
0
LINE
5
62
100
AcDbEntity
8
1
62
256
6
ByLayer
370
-1
48
1
60
0
100
AcDbLine
10
53.077828
20
0.227811
30
0
11
54.917567
21
5.975051
31
0
39
0
210
0
220
0
230
1
0
LINE
5
63
100
AcDbEntity
8
1
62
256
6
ByLayer
370
-1
48
1
60
0
100
AcDbLine
10
53.548039
20
0.588692
30
0
11
53.077812
21
0.227776
31
0
39
0
210
0
220
0
230
1
0
LINE
5
64
100
AcDbEntity
8
1
62
256
6
ByLayer
370
-1
48
1
60
0
100
AcDbLine
10
0
20
7.0075
30
0
11
40.528677
21
7.0075
31
0
39
0
210
0
220
0
230
1
0
LINE
5
65
100
AcDbEntity
8
1
62
256
6
ByLayer
370
-1
48
1
60
0
100
AcDbLine
10
60.678412
20
2.312364
30
0
11
60.587434
21
2.023818
31
0
39
0
210
0
220
0
230
1
0
LINE
5
66
100
AcDbEntity
8
1
62
256
6
ByLayer
370
-1
48
1
60
0
100
AcDbLine
10
0
20
-2.762256
30
0
11
0
21
2.762256
31
0
39
0
210
0
220
0
230
1
0
LINE
5
67
100
AcDbEntity
8
1
62
256
6
ByLayer
370
-1
48
1
60
0
100
AcDbLine
10
0
20
7.0075
30
0
11
0
21
2.762256
31
0
39
0
210
0
220
0
230
1
0
LINE
5
68
100
AcDbEntity
8
1
62
256
6
ByLayer
370
-1
48
1
60
0
100
AcDbLine
10
47.289602
20
-7.9175
30
0
11
47.289602
21
-7.648905
31
0
39
0
210
0
220
0
230
1
0
LINE
5
69
100
AcDbEntity
8
1
62
256
6
ByLayer
370
-1
48
1
60
0
100
AcDbLine
10
45.439602
20
-7.9175
30
0
11
45.439602
21
-7.166051
31
0
39
0
210
0
220
0
230
1
0
LINE
5
6A
100
AcDbEntity
8
1
62
256
6
ByLayer
370
-1
48
1
60
0
100
AcDbLine
10
51.61579
20
-0.894355
30
0
11
53.077828
21
0.227811
31
0
39
0
210
0
220
0
230
1
0
LINE
5
6B
100
AcDbEntity
8
1
62
256
6
ByLayer
370
-1
48
1
60
0
100
AcDbLine
10
0
20
-2.762256
30
0
11
42.229492
21
-2.762256
31
0
39
0
210
0
220
0
230
1
0
LINE
5
6C
100
AcDbEntity
8
1
62
256
6
ByLayer
370
-1
48
1
60
0
100
AcDbLine
10
53.377899
20
-8.026857
30
0
11
53.307707
21
-8.0915
31
0
39
0
210
0
220
0
230
1
0
LINE
5
6D
100
AcDbEntity
8
1
62
256
6
ByLayer
370
-1
48
1
60
0
100
AcDbLine
10
60.383342
20
2.166034
30
0
11
60.094485
21
2.367334
31
0
39
0
210
0
220
0
230
1
0
LINE
5
6E
100
AcDbEntity
8
1
62
256
6
ByLayer
370
-1
48
1
60
0
100
AcDbLine
10
53.307707
20
-8.0915
30
0
11
47.463602
21
-8.0915
31
0
39
0
210
0
220
0
230
1
0
LINE
5
6F
100
AcDbEntity
8
1
62
256
6
ByLayer
370
-1
48
1
60
0
100
AcDbLine
10
55.187125
20
5.787195
30
0
11
54.917561
21
5.97505
31
0
39
0
210
0
220
0
230
1
0
LINE
5
70
100
AcDbEntity
8
1
62
256
6
ByLayer
370
-1
48
1
60
0
100
AcDbLine
10
47.522029
20
7.0075
30
0
11
53.052721
21
7.0075
31
0
39
0
210
0
220
0
230
1
0
LINE
5
71
100
AcDbEntity
8
1
62
256
6
ByLayer
370
-1
48
1
60
0
100
AcDbLine
10
60.383333
20
2.166046
30
0
11
53.08599
21
-3.434921
31
0
39
0
210
0
220
0
230
1
0
LINE
5
72
100
AcDbEntity
8
1
62
256
6
ByLayer
370
-1
48
1
60
0
100
AcDbLine
10
40.528677
20
7.0075
30
0
11
47.522029
21
7.0075
31
0
39
0
210
0
220
0
230
1
0
LINE
5
73
100
AcDbEntity
8
1
62
256
6
ByLayer
370
-1
48
1
60
0
100
AcDbLine
10
53.377899
20
-8.026857
30
0
11
59.071819
21
-2.783096
31
0
39
0
210
0
220
0
230
1
0
LINE
5
74
100
AcDbEntity
8
1
62
256
6
ByLayer
370
-1
48
1
60
0
100
AcDbLine
10
45.364602
20
-7.9925
30
0
11
45.364602
21
-7.204419
31
0
39
0
210
0
220
0
230
1
0
LINE
5
75
100
AcDbEntity
8
1
62
256
6
ByLayer
370
-1
48
1
60
0
100
AcDbLine
10
60.587432
20
2.023812
30
0
11
59.071819
21
-2.783096
31
0
39
0
210
0
220
0
230
1
0
LINE
5
76
100
AcDbEntity
8
1
62
256
6
ByLayer
370
-1
48
1
60
0
100
AcDbLine
10
0
20
-7.9925
30
0
11
0
21
-2.762256
31
0
39
0
210
0
220
0
230
1
0
LINE
5
77
100
AcDbEntity
8
SK1
62
256
6
ByLayer
370
-1
48
1
60
0
100
AcDbLine
10
-135.31
20
-2.762256
30
0
11
0
21
-2.762256
31
0
39
0
210
0
220
0
230
1
0
LINE
5
78
100
AcDbEntity
8
SK1
62
256
6
ByLayer
370
-1
48
1
60
0
100
AcDbLine
10
0
20
-2.762256
30
0
11
0
21
2.762256
31
0
39
0
210
0
220
0
230
1
0
LINE
5
79
100
AcDbEntity
8
SK1
62
256
6
ByLayer
370
-1
48
1
60
0
100
AcDbLine
10
0
20
2.762256
30
0
11
-135.31
21
2.762256
31
0
39
0
210
0
220
0
230
1
0
LINE
5
7A
100
AcDbEntity
8
SK1
62
256
6
ByLayer
370
-1
48
1
60
0
100
AcDbLine
10
0
20
-7.9925
30
0
11
0
21
-2.762256
31
0
39
0
210
0
220
0
230
1
0
LINE
5
7B
100
AcDbEntity
8
SK1
62
256
6
ByLayer
370
-1
48
1
60
0
100
AcDbLine
10
0
20
7.0075
30
0
11
0
21
2.762256
31
0
39
0
210
0
220
0
230
1
0
LINE
5
7C
100
AcDbEntity
8
1
62
256
6
ByLayer
370
-1
48
1
60
0
100
AcDbLine
10
60.877167
20
2.968071
30
0
11
53.195932
21
-2.927545
31
0
39
0
210
0
220
0
230
1
0
LINE
5
7D
100
AcDbEntity
8
1
62
256
6
ByLayer
370
-1
48
1
60
0
100
AcDbLine
10
63.921696
20
12.385545
30
0
11
61.013952
21
3.163359
31
0
39
0
210
0
220
0
230
1
0
LINE
5
7E
100
AcDbEntity
8
1
62
256
6
ByLayer
370
-1
48
1
60
0
100
AcDbLine
10
55.620197
20
6.922181
30
0
11
63.301432
21
12.817798
31
0
39
0
210
0
220
0
230
1
0
LINE
5
7F
100
AcDbEntity
8
1
62
256
6
ByLayer
370
-1
48
1
60
0
100
AcDbLine
10
52.575668
20
-2.495293
30
0
11
55.483412
21
6.726893
31
0
39
0
210
0
220
0
230
1
0
LINE
5
80
100
AcDbEntity
8
1
62
256
6
ByLayer
370
-1
48
1
60
0
100
AcDbLine
10
59.17585
20
4.977856
30
0
11
59.161614
21
5.040682
31
0
39
0
210
0
220
0
230
1
0
LINE
5
81
100
AcDbEntity
8
1
62
256
6
ByLayer
370
-1
48
1
60
0
100
AcDbLine
10
58.633855
20
5.714778
30
0
11
58.619618
21
5.777604
31
0
39
0
210
0
220
0
230
1
0
LINE
5
82
100
AcDbEntity
8
1
62
256
6
ByLayer
370
-1
48
1
60
0
100
AcDbLine
10
58.045666
20
5.765464
30
0
11
58.031429
21
5.82829
31
0
39
0
210
0
220
0
230
1
0
LINE
5
83
100
AcDbEntity
8
1
62
256
6
ByLayer
370
-1
48
1
60
0
100
AcDbLine
10
57.722819
20
5.614359
30
0
11
57.708587
21
5.677163
31
0
39
0
210
0
220
0
230
1
0
LINE
5
84
100
AcDbEntity
8
1
62
256
6
ByLayer
370
-1
48
1
60
0
100
AcDbLine
10
57.383661
20
5.130146
30
0
11
57.36943
21
5.19295
31
0
39
0
210
0
220
0
230
1
0
LINE
5
85
100
AcDbEntity
8
1
62
256
6
ByLayer
370
-1
48
1
60
0
100
AcDbLine
10
57.602507
20
4.242331
30
0
11
57.58827
21
4.305157
31
0
39
0
210
0
220
0
230
1
0
LINE
5
86
100
AcDbEntity
8
1
62
256
6
ByLayer
370
-1
48
1
60
0
100
AcDbLine
10
57.622802
20
5.336778
30
0
11
57.635546
21
5.28054
31
0
39
0
210
0
220
0
230
1
0
LINE
5
87
100
AcDbEntity
8
1
62
256
6
ByLayer
370
-1
48
1
60
0
100
AcDbLine
10
57.667886
20
5.326712
30
0
11
57.655142
21
5.38295
31
0
39
0
210
0
220
0
230
1
0
LINE
5
88
100
AcDbEntity
8
SK1
62
256
6
ByLayer
370
-1
48
1
60
0
100
AcDbLine
10
-135.31
20
2.762256
30
0
11
-135.31
21
7.0075
31
0
39
0
210
0
220
0
230
1
0
LINE
5
89
100
AcDbEntity
8
SK1
62
256
6
ByLayer
370
-1
48
1
60
0
100
AcDbLine
10
-135.31
20
7.0075
30
0
11
0
21
7.0075
31
0
39
0
210
0
220
0
230
1
0
LINE
5
8A
100
AcDbEntity
8
SK1
62
256
6
ByLayer
370
-1
48
1
60
0
100
AcDbLine
10
-135.31
20
-7.9925
30
0
11
-135.31
21
-2.762256
31
0
39
0
210
0
220
0
230
1
0
LINE
5
8B
100
AcDbEntity
8
SK1
62
256
6
ByLayer
370
-1
48
1
60
0
100
AcDbLine
10
-137.31
20
-5.9925
30
0
11
-137.31
21
5.9925
31
0
39
0
210
0
220
0
230
1
0
LINE
5
8C
100
AcDbEntity
8
2
62
256
6
ByLayer
370
-1
48
1
60
1
100
AcDbLine
10
63.94
20
0
30
0
11
63.941
21
0.001
31
0
39
0
210
0
220
0
230
1
0
MTEXT
5
DE
100
AcDbEntity
8
SK6
62
256
6
ByLayer
370
-1
48
1
60
0
100
AcDbMText
10
-33.31
20
-21.650202
30
0
210
0
220
0
230
1
1
\W00.728;\fsimplex.shx,bigfont.shx;A16R-SVQCR 11-E 
40
3.5
41
0
44
1.084337
50
0
71
7
72
5
7
DEFAULT
0
DIMENSION
5
111
100
AcDbEntity
8
2
62
256
6
ByLayer
370
-3
48
1
60
0
100
AcDbDimension
2
DimnDraft3D1
10
76.19
20
0
30
0
11
76.19
21
23.155
31
0
70
32
71
5
72
1
41
1
210
0
220
0
230
1
3
Standard
100
AcDbAlignedDimension
13
65.94
23
12.9
33
0
14
65.94
24
0
34
0
50
90
100
AcDbRotatedDimension
1001
ACAD
1000
DSTYLE
1002
{
1070
    74
1070
     0
1070
   279
1070
     0
1070
   172
1070
     1
1070
   173
1070
     1
1070
   340
1005
DF
1070
    77
1070
     1
1070
    73
1070
     0
1070
   171
1070
     4
1070
   274
1070
     4
1070
   177
1070
     2
1070
   176
1070
     2
1070
   178
1070
     7
1070
    78
1070
     8
1070
    41
1041
3.175
1070
   147
1041
2.25
1070
    42
1041
2.0
1070
    44
1041
2.0
1070
   140
1041
4.5
1070
   343
1005
112
1070
   344
1005
112
1002
}
0
DIMENSION
5
127
100
AcDbEntity
8
SK2
62
256
6
ByLayer
370
-3
48
1
60
0
100
AcDbDimension
2
DimnDraft3D2
10
-147.06
20
7.9925
30
0
11
-147.06
21
-4.221711
31
0
70
32
71
5
72
1
41
1
210
0
220
0
230
1
3
Standard
100
AcDbAlignedDimension
13
-139.31
23
-7.9925
33
0
14
-139.31
24
7.9925
34
0
50
90
100
AcDbRotatedDimension
1001
ACAD
1000
DSTYLE
1002
{
1070
    74
1070
     0
1070
   279
1070
     0
1070
   172
1070
     1
1070
   173
1070
     1
1070
   340
1005
DF
1070
    77
1070
     1
1070
    73
1070
     0
1070
   171
1070
     4
1070
   274
1070
     4
1070
   177
1070
     2
1070
   176
1070
     2
1070
   178
1070
     7
1070
    78
1070
     8
1070
    41
1041
3.175
1070
   147
1041
2.25
1070
    42
1041
2.0
1070
    44
1041
2.0
1070
   140
1041
4.5
1070
   343
1005
112
1070
   344
1005
112
1002
}
0
DIMENSION
5
135
100
AcDbEntity
8
SK2
62
256
6
ByLayer
370
-3
48
1
60
0
100
AcDbDimension
2
DimnDraft3D3
10
-137.31
20
25.65
30
0
11
-43.500132
21
25.65
31
0
70
32
71
5
72
1
41
1
210
0
220
0
230
1
3
Standard
100
AcDbAlignedDimension
13
63.94
23
14.9
33
0
14
-137.31
24
9.9925
34
0
50
0
100
AcDbRotatedDimension
1001
ACAD
1000
DSTYLE
1002
{
1070
   279
1070
     0
1070
   172
1070
     1
1070
   173
1070
     1
1070
   340
1005
DF
1070
    77
1070
     1
1070
    73
1070
     0
1070
   171
1070
     4
1070
   274
1070
     4
1070
   177
1070
     2
1070
   176
1070
     2
1070
   178
1070
     7
1070
    78
1070
     8
1070
    41
1041
3.175
1070
   147
1041
2.25
1070
    42
1041
2.0
1070
    44
1041
2.0
1070
   140
1041
4.5
1070
   343
1005
112
1070
   344
1005
112
1002
}
0
DIMENSION
5
143
100
AcDbEntity
8
2
62
256
6
ByLayer
370
-3
48
1
60
0
100
AcDbDimension
2
DimnDraft3D4
10
108.799052
20
0
30
0
11
78.94151
21
-41.417356
31
0
70
34
71
5
72
1
41
1
210
0
220
0
230
1
3
Standard
100
AcDb2LineAngularDimension
13
60.030825
23
0.50168
33
0
14
45.160191
24
-46.661944
34
0
15
65.94
25
0
35
0
16
84.959789
26
-34.214547
36
0
40
0
0
ENDSEC
0
SECTION
2
OBJECTS
0
DICTIONARY
5
174
330
0
100
AcDbDictionary
280
0
281
1
3
ACAD_GROUP
350
175
3
ACAD_MLINESTYLE
350
176
0
DICTIONARY
5
175
330
0
100
AcDbDictionary
280
0
281
1
0
DICTIONARY
5
176
330
0
100
AcDbDictionary
280
0
281
1
3
Standard
350
18
0
MLINESTYLE
5
18
330
176
100
AcDbMlineStyle
2
Standard
70
0
3

62
256
51
90
52
90
71
2
49
-0.5
62
256
6
ByLayer
49
0.5
62
256
6
ByLayer
0
RASTERVARIABLES
5
162
330

100
AcDbRasterVariables
90
0
70
1
71
1
72
1
0
ENDSEC
0
EOF
