0
SECTION
2
HEADER
9
$ACADVER
1
AC1015
9
$DWGCODEPAGE
3
ANSI_1252
9
$HANDSEED
5
169
9
$ANGBASE
50
0
9
$ANGDIR
70
0
9
$ATTMODE
70
1
9
$AUNITS
70
0
9
$AUPREC
70
0
9
$CECOLOR
62
256
9
$CELTSCALE
40
1
9
$CELTYPE
6
ByLayer
9
$CELWEIGHT
370
-1
9
$CLAYER
8
0
9
$CMLJUST
70
0
9
$CMLSCALE
40
1
9
$CMLSTYLE
2
Standard
9
$DIMSTYLE
2
Standard
9
$TEXTSIZE
40
0.2
9
$TEXTSTYLE
7
Standard
9
$LUNITS
70
2
9
$LUPREC
70
4
9
$EXTNAMES
290
1
9
$INSUNITS
70
4
9
$LTSCALE
40
1
9
$LWDISPLAY
290
0
9
$PDMODE
70
0
9
$PDSIZE
40
0
9
$PLINEGEN
70
0
0
ENDSEC
0
SECTION
2
CLASSES
0
CLASS
1
RASTERVARIABLES
2
AcDbRasterVariables
3
ISM
90
0
280
0
281
0
0
ENDSEC
0
SECTION
2
TABLES
0
TABLE
2
VPORT
5
15f
100
AcDbSymbolTable
0
VPORT
5
1
100
AcDbSymbolTableRecord
100
AcDbViewportTableRecord
2
*Active
70
0
10
0
20
0
11
1
21
1
12
-1
22
1
13
0
23
0
14
0.5
24
0.5
15
10
25
10
16
0
26
0
36
1
17
0
27
0
37
0
0
ENDTAB
0
TABLE
2
LTYPE
5
160
100
AcDbSymbolTable
0
LTYPE
5
14
100
AcDbSymbolTableRecord
100
AcDbLinetypeTableRecord
70
0
2
ByBlock
3

72
65
73
0
40
0
0
LTYPE
5
15
100
AcDbSymbolTableRecord
100
AcDbLinetypeTableRecord
70
0
2
ByLayer
3

72
65
73
0
40
0
0
LTYPE
5
16
100
AcDbSymbolTableRecord
100
AcDbLinetypeTableRecord
70
0
2
CONTINUOUS
3
Solid line
72
65
73
0
40
0
0
LTYPE
5
3B
100
AcDbSymbolTableRecord
100
AcDbLinetypeTableRecord
70
0
2
DASHED
3
__ __ __ __ __ __ __ __ __
72
65
73
2
40
25.72
49
12.86
74
0
49
-12.86
74
0
0
LTYPE
5
3C
100
AcDbSymbolTableRecord
100
AcDbLinetypeTableRecord
70
0
2
HIDDEN
3
_ _ _ _ _ _ _ _ _ _ _ _ _ _ _
72
65
73
2
40
0.5
49
0.25
74
0
49
-0.25
74
0
0
LTYPE
5
3D
100
AcDbSymbolTableRecord
100
AcDbLinetypeTableRecord
70
0
2
PHANTOM
3
____ _ _ ____ _ _ _____ _ _ ____
72
65
73
6
40
50.5
49
18
74
0
49
-6.5
74
0
49
6.5
74
0
49
-6.5
74
0
49
6.5
74
0
49
-6.5
74
0
0
LTYPE
5
3E
100
AcDbSymbolTableRecord
100
AcDbLinetypeTableRecord
70
0
2
CENTER
3
____ _ ____ _ ____ _ ____
72
65
73
4
40
47.5
49
22
74
0
49
-8.5
74
0
49
8.5
74
0
49
-8.5
74
0
0
LTYPE
5
3F
100
AcDbSymbolTableRecord
100
AcDbLinetypeTableRecord
70
0
2
DOT
3
.........................
72
65
73
2
40
10
49
0
74
0
49
-10
74
0
0
LTYPE
5
40
100
AcDbSymbolTableRecord
100
AcDbLinetypeTableRecord
70
0
2
DASHDOT
3
_._._._._._._._._._._._._._._._.
72
65
73
4
40
70
49
31
74
0
49
-13
74
0
49
13
74
0
49
-13
74
0
0
ENDTAB
0
TABLE
2
LAYER
5
161
100
AcDbSymbolTable
0
LAYER
5
10
100
AcDbSymbolTableRecord
100
AcDbLayerTableRecord
2
0
70
0
62
7
6
CONTINUOUS
290
1
370
-3
390
0
0
LAYER
5
42
100
AcDbSymbolTableRecord
100
AcDbLayerTableRecord
2
80
70
0
62
-6
6
CONTINUOUS
290
1
370
-3
390
0
0
LAYER
5
44
100
AcDbSymbolTableRecord
100
AcDbLayerTableRecord
2
81
70
0
62
-3
6
CONTINUOUS
290
1
370
-3
390
0
0
LAYER
5
46
100
AcDbSymbolTableRecord
100
AcDbLayerTableRecord
2
1
70
0
62
4
6
CONTINUOUS
290
1
370
-3
390
0
0
LAYER
5
48
100
AcDbSymbolTableRecord
100
AcDbLayerTableRecord
2
2
70
0
62
7
6
CONTINUOUS
290
1
370
-3
390
0
0
LAYER
5
4F
100
AcDbSymbolTableRecord
100
AcDbLayerTableRecord
2
4
70
0
62
-2
6
CENTER
290
1
370
-3
390
0
0
LAYER
5
14b
100
AcDbSymbolTableRecord
100
AcDbLayerTableRecord
2
SK4
70
0
62
2
6
CENTER
290
1
370
-3
390
0
0
LAYER
5
14c
100
AcDbSymbolTableRecord
100
AcDbLayerTableRecord
2
SK1
70
0
62
4
6
CONTINUOUS
290
1
370
-3
390
0
0
LAYER
5
14d
100
AcDbSymbolTableRecord
100
AcDbLayerTableRecord
2
SK6
70
0
62
5
6
CONTINUOUS
290
1
370
-3
390
0
0
LAYER
5
14e
100
AcDbSymbolTableRecord
100
AcDbLayerTableRecord
2
SK2
70
0
62
7
6
CONTINUOUS
290
1
370
-3
390
0
0
ENDTAB
0
TABLE
2
STYLE
5
162
100
AcDbSymbolTable
0
STYLE
5
11
100
AcDbSymbolTableRecord
100
AcDbTextStyleTableRecord
2
Standard
3
txt
70
0
71
0
40
0
41
1
42
0
50
0
0
STYLE
5
C7
100
AcDbSymbolTableRecord
100
AcDbTextStyleTableRecord
2
DEFAULT
3
simplex.shx
70
0
71
0
40
0
41
1
42
0
50
0
0
STYLE
5
EA
100
AcDbSymbolTableRecord
100
AcDbTextStyleTableRecord
2
DWGDirectTextStyle
3
SIMPLEX
70
0
71
0
40
0
41
1
42
0
50
0
0
ENDTAB
0
TABLE
2
DIMSTYLE
5
163
100
AcDbSymbolTable
100
AcDbDimStyleTable
0
DIMSTYLE
105
27
100
AcDbSymbolTableRecord
100
AcDbDimStyleTableRecord
2
Standard
70
0
3
<>
41
0.18
42
0.0625
44
0.18
140
0.18
147
0.09
73
0
74
0
77
1
271
2
275
0
278
52
280
0
340
11
0
ENDTAB
0
TABLE
2
VIEW
5
164
100
AcDbSymbolTable
0
ENDTAB
0
TABLE
2
UCS
5
165
100
AcDbSymbolTable
0
ENDTAB
0
TABLE
2
APPID
5
166
100
AcDbSymbolTable
0
APPID
5
12
100
AcDbSymbolTableRecord
100
AcDbRegAppTableRecord
2
ACAD
70
0
0
ENDTAB
0
TABLE
2
BLOCK_RECORD
5
167
100
AcDbSymbolTable
0
BLOCK_RECORD
5
1F
100
AcDbSymbolTableRecord
100
AcDbBlockTableRecord
2
*Model_Space
340
0
70
0
0
BLOCK_RECORD
5
1B
100
AcDbSymbolTableRecord
100
AcDbBlockTableRecord
2
*Paper_Space
340
0
70
0
0
BLOCK_RECORD
5
23
100
AcDbSymbolTableRecord
100
AcDbBlockTableRecord
2
*Paper_Space0
340
0
70
0
0
BLOCK_RECORD
5
EC
100
AcDbSymbolTableRecord
100
AcDbBlockTableRecord
2
DimnDraft3D1
340
0
70
0
0
BLOCK_RECORD
5
FA
100
AcDbSymbolTableRecord
100
AcDbBlockTableRecord
2
_CLOSED
340
0
70
0
0
BLOCK_RECORD
5
101
100
AcDbSymbolTableRecord
100
AcDbBlockTableRecord
2
DimnDraft3D2
340
0
70
0
0
BLOCK_RECORD
5
110
100
AcDbSymbolTableRecord
100
AcDbBlockTableRecord
2
DimnDraft3D3
340
0
70
0
0
BLOCK_RECORD
5
11E
100
AcDbSymbolTableRecord
100
AcDbBlockTableRecord
2
DimnDraft3D4
340
0
70
0
0
ENDTAB
0
ENDSEC
0
SECTION
2
BLOCKS
0
BLOCK
5
20
100
AcDbEntity
8
0
100
AcDbBlockBegin
2
*Model_Space
70
0
10
0
20
0
30
0
3
*Model_Space
0
ENDBLK
5
21
100
AcDbEntity
8
0
100
AcDbBlockEnd
0
BLOCK
5
1C
100
AcDbEntity
8
0
100
AcDbBlockBegin
2
*Paper_Space
70
0
10
0
20
0
30
0
3
*Paper_Space
0
ENDBLK
5
1D
100
AcDbEntity
8
0
100
AcDbBlockEnd
0
BLOCK
5
24
100
AcDbEntity
8
0
100
AcDbBlockBegin
2
*Paper_Space0
70
0
10
0
20
0
30
0
3
*Paper_Space0
0
ENDBLK
5
25
100
AcDbEntity
8
0
100
AcDbBlockEnd
0
BLOCK
5
F7
100
AcDbEntity
8
0
100
AcDbBlockBegin
2
DimnDraft3D1
70
0
10
0
20
0
30
0
3
DimnDraft3D1
0
MTEXT
5
ED
100
AcDbEntity
8
2
62
256
6
ByLayer
370
-1
48
1
60
0
100
AcDbMText
10
75.065
20
22.28
30
0
210
0
220
0
230
1
1
\W01.000;\fsimplex.shx,bigfont.shx;11.0 
40
4.5
41
0
44
1.084337
50
90
71
7
72
5
7
DEFAULT
0
LINE
5
EE
100
AcDbEntity
8
2
62
256
6
ByLayer
370
-1
48
1
60
0
100
AcDbLine
10
65.94
20
10.9
30
0
11
78.19
21
10.9
31
0
39
0
210
0
220
0
230
1
0
LINE
5
EF
100
AcDbEntity
8
2
62
256
6
ByLayer
370
-1
48
1
60
0
100
AcDbLine
10
65.94
20
0
30
0
11
78.19
21
0
31
0
39
0
210
0
220
0
230
1
0
LINE
5
F0
100
AcDbEntity
8
2
62
256
6
ByLayer
370
-1
48
1
60
0
100
AcDbLine
10
76.19
20
0
30
0
11
76.19
21
29.231316
31
0
39
0
210
0
220
0
230
1
0
LINE
5
F1
100
AcDbEntity
8
2
62
256
6
ByLayer
370
-1
48
1
60
0
100
AcDbLine
10
76.19
20
10.9
30
0
11
76.607997
21
7.725002
31
0
39
0
210
0
220
0
230
1
0
LINE
5
F2
100
AcDbEntity
8
2
62
256
6
ByLayer
370
-1
48
1
60
0
100
AcDbLine
10
76.19
20
10.9
30
0
11
75.772003
21
7.724998
31
0
39
0
210
0
220
0
230
1
0
LINE
5
F3
100
AcDbEntity
8
2
62
256
6
ByLayer
370
-1
48
1
60
0
100
AcDbLine
10
76.607997
20
7.725002
30
0
11
75.772003
21
7.724998
31
0
39
0
210
0
220
0
230
1
0
LINE
5
F4
100
AcDbEntity
8
2
62
256
6
ByLayer
370
-1
48
1
60
0
100
AcDbLine
10
76.19
20
0
30
0
11
75.772003
21
3.174998
31
0
39
0
210
0
220
0
230
1
0
LINE
5
F5
100
AcDbEntity
8
2
62
256
6
ByLayer
370
-1
48
1
60
0
100
AcDbLine
10
76.19
20
0
30
0
11
76.607997
21
3.175002
31
0
39
0
210
0
220
0
230
1
0
LINE
5
F6
100
AcDbEntity
8
2
62
256
6
ByLayer
370
-1
48
1
60
0
100
AcDbLine
10
75.772003
20
3.174998
30
0
11
76.607997
21
3.175002
31
0
39
0
210
0
220
0
230
1
0
ENDBLK
5
F8
100
AcDbEntity
8
0
100
AcDbBlockEnd
0
BLOCK
5
FB
100
AcDbEntity
8
0
100
AcDbBlockBegin
2
_CLOSED
70
0
10
0
20
0
30
0
3
_CLOSED
0
LINE
5
FD
100
AcDbEntity
8
0
62
256
6
ByLayer
370
-2
48
1
60
0
100
AcDbLine
10
-1
20
0.166667
30
0
11
0
21
0
31
0
39
0
210
0
220
0
230
1
0
LINE
5
FE
100
AcDbEntity
8
0
62
256
6
ByLayer
370
-2
48
1
60
0
100
AcDbLine
10
0
20
0
30
0
11
-1
21
-0.166667
31
0
39
0
210
0
220
0
230
1
0
LINE
5
FF
100
AcDbEntity
8
0
62
256
6
ByLayer
370
-2
48
1
60
0
100
AcDbLine
10
-1
20
0.166667
30
0
11
-1
21
-0.166667
31
0
39
0
210
0
220
0
230
1
0
LINE
5
100
100
AcDbEntity
8
0
62
256
6
ByLayer
370
-2
48
1
60
0
100
AcDbLine
10
0
20
0
30
0
11
-1
21
0
31
0
39
0
210
0
220
0
230
1
0
ENDBLK
5
FC
100
AcDbEntity
8
0
100
AcDbBlockEnd
0
BLOCK
5
10D
100
AcDbEntity
8
0
100
AcDbBlockBegin
2
DimnDraft3D2
70
0
10
0
20
0
30
0
3
DimnDraft3D2
0
MTEXT
5
102
100
AcDbEntity
8
SK2
62
256
6
ByLayer
370
-1
48
1
60
0
100
AcDbMText
10
-148.185
20
-3.096711
30
0
210
0
220
0
230
1
1
\W01.000;\fsimplex.shx,bigfont.shx;%%c16 
40
4.5
41
0
44
1.084337
50
90
71
7
72
5
7
DEFAULT
0
LINE
5
104
100
AcDbEntity
8
SK2
62
256
6
ByLayer
370
-1
48
1
60
0
100
AcDbLine
10
-139.31
20
-7.9925
30
0
11
-149.06
21
-7.9925
31
0
39
0
210
0
220
0
230
1
0
LINE
5
105
100
AcDbEntity
8
SK2
62
256
6
ByLayer
370
-1
48
1
60
0
100
AcDbLine
10
-139.31
20
7.9925
30
0
11
-149.06
21
7.9925
31
0
39
0
210
0
220
0
230
1
0
LINE
5
106
100
AcDbEntity
8
SK2
62
256
6
ByLayer
370
-1
48
1
60
0
100
AcDbLine
10
-147.06
20
-19.2425
30
0
11
-147.06
21
19.2425
31
0
39
0
210
0
220
0
230
1
0
LINE
5
107
100
AcDbEntity
8
SK2
62
256
6
ByLayer
370
-1
48
1
60
0
100
AcDbLine
10
-147.06
20
-7.9925
30
0
11
-146.642003
21
-11.167498
31
0
39
0
210
0
220
0
230
1
0
LINE
5
108
100
AcDbEntity
8
SK2
62
256
6
ByLayer
370
-1
48
1
60
0
100
AcDbLine
10
-147.06
20
-7.9925
30
0
11
-147.477997
21
-11.167502
31
0
39
0
210
0
220
0
230
1
0
LINE
5
109
100
AcDbEntity
8
SK2
62
256
6
ByLayer
370
-1
48
1
60
0
100
AcDbLine
10
-146.642003
20
-11.167498
30
0
11
-147.477997
21
-11.167502
31
0
39
0
210
0
220
0
230
1
0
LINE
5
10A
100
AcDbEntity
8
SK2
62
256
6
ByLayer
370
-1
48
1
60
0
100
AcDbLine
10
-147.06
20
7.9925
30
0
11
-147.477997
21
11.167498
31
0
39
0
210
0
220
0
230
1
0
LINE
5
10B
100
AcDbEntity
8
SK2
62
256
6
ByLayer
370
-1
48
1
60
0
100
AcDbLine
10
-147.06
20
7.9925
30
0
11
-146.642003
21
11.167502
31
0
39
0
210
0
220
0
230
1
0
LINE
5
10C
100
AcDbEntity
8
SK2
62
256
6
ByLayer
370
-1
48
1
60
0
100
AcDbLine
10
-147.477997
20
11.167498
30
0
11
-146.642003
21
11.167502
31
0
39
0
210
0
220
0
230
1
0
ENDBLK
5
10E
100
AcDbEntity
8
0
100
AcDbBlockEnd
0
BLOCK
5
11B
100
AcDbEntity
8
0
100
AcDbBlockBegin
2
DimnDraft3D3
70
0
10
0
20
0
30
0
3
DimnDraft3D3
0
MTEXT
5
111
100
AcDbEntity
8
SK2
62
256
6
ByLayer
370
-1
48
1
60
0
100
AcDbMText
10
-42.375132
20
24.775
30
0
210
0
220
0
230
1
1
\W01.000;\fsimplex.shx,bigfont.shx;200.0 
40
4.5
41
0
44
1.084337
50
0
71
7
72
5
7
DEFAULT
0
LINE
5
112
100
AcDbEntity
8
SK2
62
256
6
ByLayer
370
-1
48
1
60
0
100
AcDbLine
10
63.94
20
12.9
30
0
11
63.94
21
25.65
31
0
39
0
210
0
220
0
230
1
0
LINE
5
113
100
AcDbEntity
8
SK2
62
256
6
ByLayer
370
-1
48
1
60
0
100
AcDbLine
10
-137.31
20
9.9925
30
0
11
-137.31
21
25.65
31
0
39
0
210
0
220
0
230
1
0
LINE
5
114
100
AcDbEntity
8
SK2
62
256
6
ByLayer
370
-1
48
1
60
0
100
AcDbLine
10
63.94
20
23.65
30
0
11
-137.31
21
23.65
31
0
39
0
210
0
220
0
230
1
0
LINE
5
115
100
AcDbEntity
8
SK2
62
256
6
ByLayer
370
-1
48
1
60
0
100
AcDbLine
10
63.94
20
23.65
30
0
11
60.765002
21
23.232003
31
0
39
0
210
0
220
0
230
1
0
LINE
5
116
100
AcDbEntity
8
SK2
62
256
6
ByLayer
370
-1
48
1
60
0
100
AcDbLine
10
63.94
20
23.65
30
0
11
60.764998
21
24.067997
31
0
39
0
210
0
220
0
230
1
0
LINE
5
117
100
AcDbEntity
8
SK2
62
256
6
ByLayer
370
-1
48
1
60
0
100
AcDbLine
10
60.765002
20
23.232003
30
0
11
60.764998
21
24.067997
31
0
39
0
210
0
220
0
230
1
0
LINE
5
118
100
AcDbEntity
8
SK2
62
256
6
ByLayer
370
-1
48
1
60
0
100
AcDbLine
10
-137.31
20
23.65
30
0
11
-134.135002
21
24.067997
31
0
39
0
210
0
220
0
230
1
0
LINE
5
119
100
AcDbEntity
8
SK2
62
256
6
ByLayer
370
-1
48
1
60
0
100
AcDbLine
10
-137.31
20
23.65
30
0
11
-134.134998
21
23.232003
31
0
39
0
210
0
220
0
230
1
0
LINE
5
11A
100
AcDbEntity
8
SK2
62
256
6
ByLayer
370
-1
48
1
60
0
100
AcDbLine
10
-134.135002
20
24.067997
30
0
11
-134.134998
21
23.232003
31
0
39
0
210
0
220
0
230
1
0
ENDBLK
5
11C
100
AcDbEntity
8
0
100
AcDbBlockEnd
0
BLOCK
5
129
100
AcDbEntity
8
0
100
AcDbBlockBegin
2
DimnDraft3D4
70
0
10
0
20
0
30
0
3
DimnDraft3D4
0
MTEXT
5
11F
100
AcDbEntity
8
2
62
256
6
ByLayer
370
-1
48
1
60
0
100
AcDbMText
10
91.091011
20
-36.834311
30
0
210
0
220
0
230
1
1
\W01.000;\fsimplex.shx,bigfont.shx;93%%d0' 
40
4.5
41
0
44
1.084337
50
43.5
71
7
72
5
7
DEFAULT
0
LINE
5
120
100
AcDbEntity
8
2
62
256
6
ByLayer
370
-1
48
1
60
0
100
AcDbLine
10
63.468976
20
1.912334
30
0
11
60.808145
21
-48.859355
31
0
39
0
210
0
220
0
230
1
0
LINE
5
121
100
AcDbEntity
8
2
62
256
6
ByLayer
370
-1
48
1
60
0
100
AcDbLine
10
65.94
20
0
30
0
11
112.295162
21
0
31
0
39
0
210
0
220
0
230
1
0
ARC
5
122
100
AcDbEntity
8
2
62
256
6
ByLayer
370
-1
48
1
60
0
100
AcDbCircle
39
0
10
63.368755
20
0
30
0
40
46.9264068782928
210
0
220
0
230
1
100
AcDbArc
50
267
51
0
0
LINE
5
123
100
AcDbEntity
8
2
62
256
6
ByLayer
370
-1
48
1
60
0
100
AcDbLine
10
60.912817
20
-46.862096
30
0
11
64.100636
21
-46.556897
31
0
39
0
210
0
220
0
230
1
0
LINE
5
124
100
AcDbEntity
8
2
62
256
6
ByLayer
370
-1
48
1
60
0
100
AcDbLine
10
60.912817
20
-46.862096
30
0
11
64.071008
21
-47.392365
31
0
39
0
210
0
220
0
230
1
0
LINE
5
125
100
AcDbEntity
8
2
62
256
6
ByLayer
370
-1
48
1
60
0
100
AcDbLine
10
64.100636
20
-46.556897
30
0
11
64.071008
21
-47.392365
31
0
39
0
210
0
220
0
230
1
0
LINE
5
126
100
AcDbEntity
8
2
62
256
6
ByLayer
370
-1
48
1
60
0
100
AcDbLine
10
110.295162
20
0
30
0
11
110.659418
21
-3.181612
31
0
39
0
210
0
220
0
230
1
0
LINE
5
127
100
AcDbEntity
8
2
62
256
6
ByLayer
370
-1
48
1
60
0
100
AcDbLine
10
110.295162
20
0
30
0
11
109.823544
21
-3.16748
31
0
39
0
210
0
220
0
230
1
0
LINE
5
128
100
AcDbEntity
8
2
62
256
6
ByLayer
370
-1
48
1
60
0
100
AcDbLine
10
110.659418
20
-3.181612
30
0
11
109.823544
21
-3.16748
31
0
39
0
210
0
220
0
230
1
0
ENDBLK
5
12A
100
AcDbEntity
8
0
100
AcDbBlockEnd
0
ENDSEC
0
SECTION
2
ENTITIES
0
ELLIPSE
5
80
100
AcDbEntity
8
1
62
256
6
ByLayer
370
-1
48
1
60
0
100
AcDbEllipse
10
57.416136
20
-0.033589
30
0
11
-1.0485610114923
21
0.0549527540550895
31
0
210
0
220
0
230
1
40
0.997126
41
-2.78398620744039
42
-2.75909929579823
0
ELLIPSE
5
81
100
AcDbEntity
8
1
62
256
6
ByLayer
370
-1
48
1
60
0
100
AcDbEllipse
10
57.416136
20
-0.033589
30
0
11
-1.0485610114923
21
0.0549527540550895
31
0
210
0
220
0
230
1
40
0.997126
41
-1.19431336887271
42
-0.0889120777820782
0
ELLIPSE
5
82
100
AcDbEntity
8
1
62
256
6
ByLayer
370
-1
48
1
60
0
100
AcDbEllipse
10
56.719318
20
10.936223
30
0
11
-4.19424404596922
21
0.219811016220359
31
0
210
0
220
0
230
1
40
0.997126
41
0.83775804095726
42
1.7828293183793
0
ELLIPSE
5
83
100
AcDbEntity
8
1
62
256
6
ByLayer
370
-1
48
1
60
0
100
AcDbEllipse
10
57.424673
20
0.129301
30
0
11
1.0485610114923
21
-0.054952754055084
31
0
210
0
220
0
230
1
40
0.997126
41
3.0526805758077
42
0.263164752213119
0
ELLIPSE
5
84
100
AcDbEntity
8
1
62
256
6
ByLayer
370
-1
48
1
60
0
100
AcDbEllipse
10
57.238614
20
1.016335
30
0
11
-1.24828691844322
21
0.0654199453036782
31
0
210
0
220
0
230
1
40
0.997126
41
-0.959931088596919
42
-0.0654635128446391
0
ELLIPSE
5
85
100
AcDbEntity
8
1
62
256
6
ByLayer
370
-1
48
1
60
0
100
AcDbEllipse
10
57.247151
20
1.179225
30
0
11
-1.24828691844322
21
0.0654199453036782
31
0
210
0
220
0
230
1
40
0.997126
41
-0.959931088596794
42
0.862027290779738
0
ELLIPSE
5
86
100
AcDbEntity
8
1
62
256
6
ByLayer
370
-1
48
1
60
0
100
AcDbEllipse
10
57.414352
20
-0.067634
30
0
11
-1.0485610114923
21
0.0549527540550895
31
0
210
0
220
0
230
1
40
0.997126
41
-3.04728318741192
42
-2.73184732201763
0
ELLIPSE
5
87
100
AcDbEntity
8
1
62
256
6
ByLayer
370
-1
48
1
60
0
100
AcDbEllipse
10
57.414352
20
-0.067634
30
0
11
-1.0485610114923
21
0.0549527540550895
31
0
210
0
220
0
230
1
40
0.997126
41
-1.19433327964625
42
-0.0942853882071137
0
ELLIPSE
5
88
100
AcDbEntity
8
1
62
256
6
ByLayer
370
-1
48
1
60
0
100
AcDbEllipse
10
67.244095
20
4.75334
30
0
11
-4.19424404596919
21
0.219811016220357
31
0
210
0
220
0
230
1
40
0.997126
41
0.391928592698263
42
0.439975954790872
0
ELLIPSE
5
89
100
AcDbEntity
8
1
62
256
6
ByLayer
370
-1
48
1
60
0
100
AcDbEllipse
10
63.543128
20
10.504262
30
0
11
0.396331096605776
21
-0.0207708326339182
31
0
210
0
220
0
230
1
40
0.997126
41
0
42
2.18166156499269
0
ELLIPSE
5
8A
100
AcDbEntity
8
1
62
256
6
ByLayer
370
-1
48
1
60
0
100
AcDbEllipse
10
57.437492
20
0.166856
30
0
11
0.396331096605776
21
-0.0207708326339182
31
0
210
0
220
0
230
1
40
0.997126
41
-3.14159265358964
42
-0.959931088596886
0
ELLIPSE
5
8B
100
AcDbEntity
8
1
62
256
6
ByLayer
370
-1
48
1
60
0
100
AcDbEllipse
10
60.487232
20
5.276824
30
0
11
1.82225885974135
21
-0.0955005401178774
31
0
210
0
220
0
230
1
40
0.997126
41
0
42
6.28318530717959
0
ELLIPSE
5
8C
100
AcDbEntity
8
1
62
256
6
ByLayer
370
-1
48
1
60
0
100
AcDbEllipse
10
60.487812
20
5.287897
30
0
11
1.87243037766482
21
-0.0981299179555054
31
0
210
0
220
0
230
1
40
0.997126
41
-1.16897373312145
42
-9.50120961991568E-16
0
ELLIPSE
5
8D
100
AcDbEntity
8
1
62
256
6
ByLayer
370
-1
48
1
60
0
100
AcDbEllipse
10
60.487812
20
5.287897
30
0
11
1.87243037766482
21
-0.0981299179555054
31
0
210
0
220
0
230
1
40
0.997126
41
0
42
0.052510764041635
0
ELLIPSE
5
8E
100
AcDbEntity
8
1
62
256
6
ByLayer
370
-1
48
1
60
0
100
AcDbEllipse
10
60.487812
20
5.287897
30
0
11
1.87243037766482
21
-0.0981299179555054
31
0
210
0
220
0
230
1
40
0.997126
41
-1.9726325932707
42
-1.51798515271598
0
ELLIPSE
5
8F
100
AcDbEntity
8
1
62
256
6
ByLayer
370
-1
48
1
60
0
100
AcDbEllipse
10
60.487812
20
5.287897
30
0
11
1.87243037766482
21
-0.0981299179555054
31
0
210
0
220
0
230
1
40
0.997126
41
0.0525106300586697
42
-1.97263205970311
0
ELLIPSE
5
90
100
AcDbEntity
8
1
62
256
6
ByLayer
370
-1
48
1
60
0
100
AcDbEllipse
10
60.49031
20
5.335559
30
0
11
1.91642389486198
21
-0.100435520494658
31
0
210
0
220
0
230
1
40
0.997126
41
0
42
6.28318530717959
0
ELLIPSE
5
91
100
AcDbEntity
8
1
62
256
6
ByLayer
370
-1
48
1
60
0
100
AcDbEllipse
10
63.189157
20
3.750095
30
0
11
0.396331096605723
21
-0.0207708326339155
31
0
210
0
220
0
230
1
40
0.997126
41
-0.959931088596641
42
1.07730250808492E-13
0
ELLIPSE
5
92
100
AcDbEntity
8
1
62
256
6
ByLayer
370
-1
48
1
60
0
100
AcDbEllipse
10
57.791463
20
6.921023
30
0
11
0.396331096605723
21
-0.0207708326339155
31
0
210
0
220
0
230
1
40
0.997126
41
2.18166156499307
42
-3.14159265358964
0
ELLIPSE
5
93
100
AcDbEntity
8
1
62
256
6
ByLayer
370
-1
48
1
60
0
100
AcDbEllipse
10
60.486196
20
5.257059
30
0
11
-0.74697489199641
21
0.0391472952697204
31
0
210
0
220
0
230
1
40
0.997126
41
1.83185349421532
42
2.55601103022668
0
ELLIPSE
5
94
100
AcDbEntity
8
1
62
256
6
ByLayer
370
-1
48
1
60
0
100
AcDbEllipse
10
60.489504
20
5.320177
30
0
11
0.746974891996404
21
-0.0391472952697155
31
0
210
0
220
0
230
1
40
0.997126
41
2.62389575737446
42
2.69935846120814
0
ELLIPSE
5
95
100
AcDbEntity
8
1
62
256
6
ByLayer
370
-1
48
1
60
0
100
AcDbEllipse
10
60.490161
20
5.332713
30
0
11
1.03358156847097
21
-0.0541677147114384
31
0
210
0
220
0
230
1
40
0.997126
41
-2.0507618710934
42
-1.00442229955671
0
ELLIPSE
5
96
100
AcDbEntity
8
1
62
256
6
ByLayer
370
-1
48
1
60
0
100
AcDbEllipse
10
61.493111
20
4.665537
30
0
11
-0.42142166366643
21
0.0220857735345217
31
0
210
0
220
0
230
1
40
0.997126
41
-9.45024090099952E-06
42
0.297120655593506
0
ELLIPSE
5
97
100
AcDbEntity
8
1
62
256
6
ByLayer
370
-1
48
1
60
0
100
AcDbEllipse
10
60.490161
20
5.332713
30
0
11
1.03358156847097
21
-0.0541677147114384
31
0
210
0
220
0
230
1
40
0.997126
41
-3.09710144263014
42
-2.0507618710934
0
ELLIPSE
5
98
100
AcDbEntity
8
1
62
256
6
ByLayer
370
-1
48
1
60
0
100
AcDbEllipse
10
60.486196
20
5.257059
30
0
11
-0.74697489199641
21
0.0391472952697204
31
0
210
0
220
0
230
1
40
0.997126
41
0.668142091502468
42
1.3760068436828
0
ELLIPSE
5
99
100
AcDbEntity
8
1
62
256
6
ByLayer
370
-1
48
1
60
0
100
AcDbEllipse
10
60.489504
20
5.320177
30
0
11
0.746974891996404
21
-0.0391472952697155
31
0
210
0
220
0
230
1
40
0.997126
41
-0.517696896214855
42
-0.44223419238207
0
ELLIPSE
5
9A
100
AcDbEntity
8
1
62
256
6
ByLayer
370
-1
48
1
60
0
100
AcDbEllipse
10
60.486196
20
5.257059
30
0
11
0.746974891996409
21
-0.0391472952697158
31
0
210
0
220
0
230
1
40
0.997126
41
0.567660996728054
42
1.61400056826474
0
ELLIPSE
5
9B
100
AcDbEntity
8
1
62
256
6
ByLayer
370
-1
48
1
60
0
100
AcDbEllipse
10
60.486196
20
5.257059
30
0
11
-0.74697489199641
21
0.0391472952697204
31
0
210
0
220
0
230
1
40
0.997126
41
2.83678243653128
42
-2.57393165686169
0
ELLIPSE
5
9C
100
AcDbEntity
8
1
62
256
6
ByLayer
370
-1
48
1
60
0
100
AcDbEllipse
10
60.490161
20
5.332713
30
0
11
1.03358156847097
21
-0.0541677147114384
31
0
210
0
220
0
230
1
40
0.997126
41
-1.00442229955671
42
0.0444912109597886
0
ELLIPSE
5
9D
100
AcDbEntity
8
1
62
256
6
ByLayer
370
-1
48
1
60
0
100
AcDbEllipse
10
60.496732
20
6.423655
30
0
11
-0.42142166366643
21
0.0220857735345217
31
0
210
0
220
0
230
1
40
0.997126
41
1.61400056826468
42
2.38890029611733
0
ELLIPSE
5
9E
100
AcDbEntity
8
1
62
256
6
ByLayer
370
-1
48
1
60
0
100
AcDbEllipse
10
60.490161
20
5.332713
30
0
11
1.03358156847097
21
-0.0541677147114384
31
0
210
0
220
0
230
1
40
0.997126
41
2.13717035403305
42
-3.09710144263014
0
ELLIPSE
5
9F
100
AcDbEntity
8
1
62
256
6
ByLayer
370
-1
48
1
60
0
100
AcDbEllipse
10
60.490161
20
5.332713
30
0
11
1.03358156847097
21
-0.0541677147114384
31
0
210
0
220
0
230
1
40
0.997126
41
0.0444912109597886
42
1.09083078249645
0
ELLIPSE
5
A0
100
AcDbEntity
8
1
62
256
6
ByLayer
370
-1
48
1
60
0
100
AcDbEllipse
10
60.486196
20
5.257059
30
0
11
-0.74697489199641
21
0.0391472952697204
31
0
210
0
220
0
230
1
40
0.997126
41
-0.44223419238154
42
0.349839296834562
0
ELLIPSE
5
A1
100
AcDbEntity
8
1
62
256
6
ByLayer
370
-1
48
1
60
0
100
AcDbEllipse
10
60.490161
20
5.332713
30
0
11
1.03358156847097
21
-0.0541677147114384
31
0
210
0
220
0
230
1
40
0.997126
41
1.09083078249645
42
2.13717035403305
0
ELLIPSE
5
A2
100
AcDbEntity
8
1
62
256
6
ByLayer
370
-1
48
1
60
0
100
AcDbEllipse
10
60.486196
20
5.257059
30
0
11
-0.74697489199641
21
0.0391472952697204
31
0
210
0
220
0
230
1
40
0.997126
41
-1.52759208532498
42
-0.517696896215382
0
ELLIPSE
5
A3
100
AcDbEntity
8
1
62
256
6
ByLayer
370
-1
48
1
60
0
100
AcDbEllipse
10
61.504171
20
5.831826
30
0
11
-0.42142166366643
21
0.0220857735345217
31
0
210
0
220
0
230
1
40
0.997126
41
0.567660996728105
42
1.3425607245807
0
ELLIPSE
5
A4
100
AcDbEntity
8
1
62
256
6
ByLayer
370
-1
48
1
60
0
100
AcDbEllipse
10
59.636228
20
5.263856
30
0
11
-0.184746463929596
21
0.00968215190494435
31
0
210
0
220
0
230
1
40
0.997126
41
-1.25705174419063
42
-0.191010006987047
0
ELLIPSE
5
A5
100
AcDbEntity
8
1
62
256
6
ByLayer
370
-1
48
1
60
0
100
AcDbEllipse
10
60.068163
20
5.995162
30
0
11
-0.184746463929596
21
0.00968215190494435
31
0
210
0
220
0
230
1
40
0.997126
41
-2.30249181317762
42
-0.174340784779518
0
ELLIPSE
5
A6
100
AcDbEntity
8
1
62
256
6
ByLayer
370
-1
48
1
60
0
100
AcDbEllipse
10
60.496732
20
6.423655
30
0
11
-0.42142166366643
21
0.0220857735345217
31
0
210
0
220
0
230
1
40
0.997126
41
0.839100840412296
42
1.61400056826468
0
ELLIPSE
5
A7
100
AcDbEntity
8
1
62
256
6
ByLayer
370
-1
48
1
60
0
100
AcDbEllipse
10
60.91749
20
5.98728
30
0
11
-0.184746463929596
21
0.00968215190494435
31
0
210
0
220
0
230
1
40
0.997126
41
-2.94841523386487
42
-0.752692357472571
0
ELLIPSE
5
A8
100
AcDbEntity
8
1
62
256
6
ByLayer
370
-1
48
1
60
0
100
AcDbEllipse
10
61.504171
20
5.831826
30
0
11
-0.42142166366643
21
0.0220857735345217
31
0
210
0
220
0
230
1
40
0.997126
41
1.17165040831832E-05
42
0.567660996728105
0
ELLIPSE
5
A9
100
AcDbEntity
8
1
62
256
6
ByLayer
370
-1
48
1
60
0
100
AcDbEllipse
10
61.336164
20
5.250262
30
0
11
-0.184746463929596
21
0.00968215190494435
31
0
210
0
220
0
230
1
40
0.997126
41
-2.96560879547281
42
-1.79903192900939
0
ELLIPSE
5
AA
100
AcDbEntity
8
1
62
256
6
ByLayer
370
-1
48
1
60
0
100
AcDbEllipse
10
60.486593
20
5.264624
30
0
11
1.72263594745164
21
-0.0902795245190652
31
0
210
0
220
0
230
1
40
0.997126
41
3.14158587746232
42
0
0
ELLIPSE
5
AB
100
AcDbEntity
8
1
62
256
6
ByLayer
370
-1
48
1
60
0
100
AcDbEllipse
10
60.489472
20
5.319555
30
0
11
1.72263594745166
21
-0.0902795245190663
31
0
210
0
220
0
230
1
40
0.997126
41
0
42
6.28318530717959
0
ELLIPSE
5
AC
100
AcDbEntity
8
1
62
256
6
ByLayer
370
-1
48
1
60
0
100
AcDbEllipse
10
60.490161
20
5.332713
30
0
11
1.29821839518098
21
-0.0680367431158191
31
0
210
0
220
0
230
1
40
0.997126
41
0
42
6.28318530717959
0
POINT
5
41
100
AcDbEntity
8
80
62
256
6
ByLayer
370
-1
48
1
60
0
100
AcDbPoint
10
0
20
0
30
0
39
0
210
0
220
0
230
1
50
360
0
POINT
5
43
100
AcDbEntity
8
81
62
256
6
ByLayer
370
-1
48
1
60
0
100
AcDbPoint
10
63.94
20
10.9
30
0
39
0
210
0
220
0
230
1
50
360
0
POINT
5
45
100
AcDbEntity
8
1
62
256
6
ByLayer
370
-1
48
1
60
0
100
AcDbPoint
10
-137.31
20
0
30
0
39
0
210
0
220
0
230
1
50
360
0
POINT
5
47
100
AcDbEntity
8
2
62
256
6
ByLayer
370
-1
48
1
60
0
100
AcDbPoint
10
63.94
20
10.9
30
0
39
0
210
0
220
0
230
1
50
360
0
POINT
5
49
100
AcDbEntity
8
2
62
256
6
ByLayer
370
-1
48
1
60
0
100
AcDbPoint
10
63.711013
20
9.945945
30
0
39
0
210
0
220
0
230
1
50
360
0
SPLINE
5
AD
100
AcDbEntity
8
1
62
256
6
ByLayer
370
-1
48
1
60
0
100
AcDbSpline
70
4
71
3
72
28
73
24
40
-0.125000000000012
40
-0.125000000000012
40
0
40
0
40
0.124999999999995
40
0.124999999999995
40
0.187499999999993
40
0.187499999999993
40
0.24999999999999
40
0.24999999999999
40
0.374999999999985
40
0.374999999999985
40
0.499999999999981
40
0.499999999999981
40
0.624999999999976
40
0.624999999999976
40
0.687499999999973
40
0.687499999999973
40
0.718749999999975
40
0.718749999999975
40
0.749999999999976
40
0.749999999999976
40
0.874999999999988
40
0.874999999999988
40
1
40
1
40
1.12499999999999
40
1.12499999999999
41
1
10
48.6905751476691
20
2.6985842453598
30
0
41
1
10
47.616880885321
20
2.22475969632396
30
0
41
1
10
47.0600401973319
20
2.06466064827779
30
0
41
1
10
46.2158771984106
20
2.21429291774459
30
0
41
1
10
45.9343506673151
20
2.33879086691724
30
0
41
1
10
45.5127584945844
20
2.83199684244551
30
0
41
1
10
45.4166489586034
20
3.18326001749651
30
0
41
1
10
45.5007710829053
20
4.13108009841068
30
0
41
1
10
45.9163827920899
20
4.57535249373092
30
0
41
1
10
46.8401298410714
20
5.2070273211113
30
0
41
1
10
47.3909375092508
20
5.41265717908055
30
0
41
1
10
48.5473226454834
20
5.68832109644723
30
0
41
1
10
49.1689602631181
20
5.76758062607817
30
0
41
1
10
50.1229799073721
20
5.74052998509669
30
0
41
1
10
50.4531499722233
20
5.71852001045548
30
0
41
1
10
50.8988334049628
20
5.51952153646727
30
0
41
1
10
51.0451076527923
20
5.39979260513152
30
0
41
1
10
51.1078333072099
20
5.07441592636877
30
0
41
1
10
51.0442949020249
20
4.90999820825351
30
0
41
1
10
50.6671193929726
20
4.19566777650226
30
0
41
1
10
50.1632170875944
20
3.77892337571754
30
0
41
1
10
49.1955834951635
20
3.01954509339515
30
0
41
1
10
48.6905751476691
20
2.6985842453598
30
0
41
1
10
47.616880885321
20
2.22475969632396
30
0
0
SPLINE
5
AE
100
AcDbEntity
8
1
62
256
6
ByLayer
370
-1
48
1
60
0
100
AcDbSpline
70
4
71
3
72
12
73
8
40
0
40
0
40
0
40
0
40
0.265308849319156
40
0.265308849319156
40
0.646097410763758
40
0.646097410763758
40
1
40
1
40
1
40
1
41
1
10
42.427374844983
20
-0.208217351629116
30
0
41
1
10
42.4241299563816
20
-0.171328080096515
30
0
41
1
10
42.4182130222758
20
-0.133048584962637
30
0
41
1
10
42.3981417891467
20
-0.0402080649525374
30
0
41
1
10
42.3812562666919
20
0.0152475354597641
30
0
41
1
10
42.3422308799076
20
0.116762316543202
30
0
41
1
10
42.32025315577
20
0.164121893105829
30
0
41
1
10
42.2964627784489
20
0.208217351629116
30
0
0
SPLINE
5
AF
100
AcDbEntity
8
1
62
256
6
ByLayer
370
-1
48
1
60
0
100
AcDbSpline
70
4
71
3
72
14
73
10
40
0
40
0
40
0
40
0
40
0.25
40
0.25
40
0.5
40
0.5
40
0.75
40
0.75
40
1
40
1
40
1
40
1
41
1
10
42.296462778449
20
0.208217351629145
30
0
41
1
10
41.8279935079374
20
1.77830283390716
30
0
41
1
10
41.6023055872287
20
3.46928907189263
30
0
41
1
10
42.2192881748327
20
6.07301451490335
30
0
41
1
10
43.1320123579262
20
6.92538671809814
30
0
41
1
10
45.5998978223893
20
7.7907920815623
30
0
41
1
10
47.1035587955836
20
7.89952607143778
30
0
41
1
10
50.2256504898679
20
8.0034092101931
30
0
41
1
10
51.8847602759957
20
7.99241250947006
30
0
41
1
10
53.5471859218353
20
7.99243845790778
30
0
0
SPLINE
5
B0
100
AcDbEntity
8
1
62
256
6
ByLayer
370
-1
48
1
60
0
100
AcDbSpline
70
4
71
3
72
12
73
8
40
0
40
0
40
0
40
0
40
0.5
40
0.5
40
0.75
40
0.75
40
1
40
1
40
1
40
1
41
1
10
55.5421456592143
20
-7.87152032768026
30
0
41
1
10
52.5804395799016
20
-7.79764654329026
30
0
41
1
10
49.7535008022774
20
-7.61346520386024
30
0
41
1
10
46.2858124549784
20
-5.93658739991989
30
0
41
1
10
45.2640068006017
20
-5.12562962018137
30
0
41
1
10
43.5685873032449
20
-2.96382935332778
30
0
41
1
10
42.8968307645156
20
-1.62889957547745
30
0
41
1
10
42.427374844983
20
-0.208217351629116
30
0
0
SPLINE
5
B1
100
AcDbEntity
8
SK1
62
256
6
ByLayer
370
-1
48
1
60
0
100
AcDbSpline
70
4
71
3
72
24
73
20
40
0
40
0
40
0
40
0
40
0.250000000000022
40
0.250000000000022
40
0.375000000000034
40
0.375000000000034
40
0.437500000000044
40
0.437500000000044
40
0.500000000000053
40
0.500000000000053
40
0.531250000000055
40
0.531250000000055
40
0.562500000000057
40
0.562500000000057
40
0.625000000000052
40
0.625000000000052
40
0.750000000000035
40
0.750000000000035
40
1
40
1
40
1
40
1
41
1
10
-48.06
20
-0.208217351629059
30
0
41
1
10
-48.468842020981
20
-0.208217351629059
30
0
41
1
10
-48.8775700421798
20
-0.200628106757165
30
0
41
1
10
-49.4901123303116
20
-0.171073275450709
30
0
41
1
10
-49.6939608358335
20
-0.158342940298127
30
0
41
1
10
-49.9985633625024
20
-0.129106778533071
30
0
41
1
10
-50.0999152849483
20
-0.11778208857757
30
0
41
1
10
-50.3016559370235
20
-0.0867855292194974
30
0
41
1
10
-50.4176642593246
20
-0.0899171685785518
30
0
41
1
10
-50.5369313789907
20
0.013645893418726
30
0
41
1
10
-50.4484711277943
20
0.0489364234136644
30
0
41
1
10
-50.3478903856417
20
0.0766629766365838
30
0
41
1
10
-50.2966456087818
20
0.0864424784148241
30
0
41
1
10
-50.1421535471276
20
0.112538835792321
30
0
41
1
10
-50.0385119130168
20
0.124684589520399
30
0
41
1
10
-49.7273848627499
20
0.156042093009802
30
0
41
1
10
-49.5192790403735
20
0.169368026065086
30
0
41
1
10
-48.8942101016121
20
0.200370771894711
30
0
41
1
10
-48.4771903882063
20
0.208217351629059
30
0
41
1
10
-48.06
20
0.208217351629059
30
0
0
SPLINE
5
B2
100
AcDbEntity
8
1
62
256
6
ByLayer
370
-1
48
1
60
0
100
AcDbSpline
70
4
71
3
72
18
73
14
40
0
40
0
40
0
40
0
40
0.206876373433166
40
0.206876373433166
40
0.383621256606463
40
0.383621256606463
40
0.562080641773586
40
0.562080641773586
40
0.717223476469274
40
0.717223476469274
40
0.922304626406279
40
0.922304626406279
40
1
40
1
40
1
40
1
41
1
10
60.2024769742578
20
6.19626981848955
30
0
41
1
10
60.2321573793802
20
6.16502979487967
30
0
41
1
10
60.26730739491
20
6.13741890521635
30
0
41
1
10
60.3402094706038
20
6.09748352728792
30
0
41
1
10
60.3777184927409
20
6.08316129545275
30
0
41
1
10
60.4560836047045
20
6.06638223896567
30
0
41
1
10
60.4981570577381
20
6.06392192343529
30
0
41
1
10
60.5738059406143
20
6.07131809896126
30
0
41
1
10
60.6086807608178
20
6.07963573019953
30
0
41
1
10
60.6833445079738
20
6.10768190181767
30
0
41
1
10
60.7224430006541
20
6.1305494901105
30
0
41
1
10
60.769148091901
20
6.16806136446536
30
0
41
1
10
60.7814125857014
20
6.17914036042569
30
0
41
1
10
60.7929482924574
20
6.19079029962066
30
0
0
SPLINE
5
B3
100
AcDbEntity
8
1
62
256
6
ByLayer
370
-1
48
1
60
0
100
AcDbSpline
70
4
71
3
72
16
73
12
40
0
40
0
40
0
40
0
40
0.0543907866892845
40
0.0543907866892845
40
0.279062194117993
40
0.279062194117993
40
0.506009211152636
40
0.506009211152636
40
0.746941572282489
40
0.746941572282489
40
1
40
1
40
1
40
1
41
1
10
61.5251221780346
20
5.32443673746542
30
0
41
1
10
61.5251575669455
20
5.32900849576973
30
0
41
1
10
61.5250218763086
20
5.33357934835979
30
0
41
1
10
61.5234626516582
20
5.35676533435279
30
0
41
1
10
61.5192455862964
20
5.37529599879613
30
0
41
1
10
61.5057302444133
20
5.40939003176734
30
0
41
1
10
61.4962222072813
20
5.42536171104476
30
0
41
1
10
61.4728879373776
20
5.45372789401813
30
0
41
1
10
61.458554888769
20
5.46620952608828
30
0
41
1
10
61.4269225802066
20
5.4861375296602
30
0
41
1
10
61.4091601439183
20
5.49356335336407
30
0
41
1
10
61.3910642699156
20
5.49802264734262
30
0
0
SPLINE
5
B4
100
AcDbEntity
8
1
62
256
6
ByLayer
370
-1
48
1
60
0
100
AcDbSpline
70
4
71
3
72
14
73
10
40
0
40
0
40
0
40
0
40
0.0452133056895589
40
0.0452133056895589
40
0.382461826991002
40
0.382461826991002
40
0.828750225910593
40
0.828750225910593
40
1
40
1
40
1
40
1
41
1
10
59.8597294821151
20
5.72279520762874
30
0
41
1
10
59.8618842306996
20
5.72709407599052
30
0
41
1
10
59.8639645921782
20
5.73143233821841
30
0
41
1
10
59.8807799770867
20
5.7681194504629
30
0
41
1
10
59.8914336724238
20
5.80263891259386
30
0
41
1
10
59.9058817780488
20
5.88196128097968
30
0
41
1
10
59.9067425912841
20
5.92781102245891
30
0
41
1
10
59.8992850405755
20
5.98808992099089
30
0
41
1
10
59.8962655839353
20
6.0047059730565
30
0
41
1
10
59.8923793956541
20
6.02097493154139
30
0
0
SPLINE
5
B5
100
AcDbEntity
8
1
62
256
6
ByLayer
370
-1
48
1
60
0
100
AcDbSpline
70
4
71
3
72
18
73
14
40
0
40
0
40
0
40
0
40
0.207143737958704
40
0.207143737958704
40
0.383841779483498
40
0.383841779483498
40
0.562251207973149
40
0.562251207973149
40
0.717384491073557
40
0.717384491073557
40
0.922512797829304
40
0.922512797829304
40
1
40
1
40
1
40
1
41
1
10
61.099992872481
20
6.0104139737079
30
0
41
1
10
61.0891094599534
20
5.96821408008793
30
0
41
1
10
61.0840531088619
20
5.9231519453119
30
0
41
1
10
61.0879004051266
20
5.8389254250323
30
0
41
1
10
61.0950082997304
20
5.79891843186644
30
0
41
1
10
61.1205795027875
20
5.72235752866982
30
0
41
1
10
61.1396439795132
20
5.68475549516012
30
0
41
1
10
61.1835382043395
20
5.62347045228896
30
0
41
1
10
61.207771326693
20
5.59784237296643
30
0
41
1
10
61.2680609491235
20
5.54840631471853
30
0
41
1
10
61.3063555595226
20
5.52686112207726
30
0
41
1
10
61.3605252587919
20
5.50649551192527
30
0
41
1
10
61.3757365342776
20
5.50179980003625
30
0
41
1
10
61.3910642699156
20
5.49802264734254
30
0
0
SPLINE
5
B6
100
AcDbEntity
8
1
62
256
6
ByLayer
370
-1
48
1
60
0
100
AcDbSpline
70
4
71
3
72
14
73
10
40
0
40
0
40
0
40
0
40
0.262425510431627
40
0.262425510431627
40
0.552405489227044
40
0.552405489227044
40
0.814895908009991
40
0.814895908009991
40
1
40
1
40
1
40
1
41
1
10
59.87979055369
20
4.64472963699177
30
0
41
1
10
59.8748216933499
20
4.62667585180864
30
0
41
1
10
59.8727611629285
20
4.60725215952095
30
0
41
1
10
59.8755516870212
20
4.56625505516101
30
0
41
1
10
59.8812476218379
20
4.54401742456378
30
0
41
1
10
59.9000872130576
20
4.50474693938674
30
0
41
1
10
59.9127940539439
20
4.48684188161445
30
0
41
1
10
59.9391429442387
20
4.46098535572995
30
0
41
1
10
59.9516273797881
20
4.45141541959833
30
0
41
1
10
59.9649970132311
20
4.44356129835296
30
0
0
SPLINE
5
B7
100
AcDbEntity
8
1
62
256
6
ByLayer
370
-1
48
1
60
0
100
AcDbSpline
70
4
71
3
72
16
73
12
40
0
40
0
40
0
40
0
40
0.0644106298752366
40
0.0644106298752366
40
0.289015549661137
40
0.289015549661137
40
0.516461022914614
40
0.516461022914614
40
0.758356986817309
40
0.758356986817309
40
1
40
1
40
1
40
1
41
1
10
59.4552001075123
20
5.34098892264177
30
0
41
1
10
59.4551582613078
20
5.33558297122002
30
0
41
1
10
59.4553549070058
20
5.33016017597021
30
0
41
1
10
59.4572885020278
20
5.30604752074254
30
0
41
1
10
59.4617337542526
20
5.28728317349834
30
0
41
1
10
59.4756427258253
20
5.252373697096
30
0
41
1
10
59.4853325519648
20
5.23581482982775
30
0
41
1
10
59.508986332716
20
5.20596632947704
30
0
41
1
10
59.5234635313256
20
5.19256489518119
30
0
41
1
10
59.5545533454967
20
5.17110240114434
30
0
41
1
10
59.5714809706388
20
5.16278845645118
30
0
41
1
10
59.5887191562555
20
5.1571209633571
30
0
0
SPLINE
5
B8
100
AcDbEntity
8
1
62
256
6
ByLayer
370
-1
48
1
60
0
100
AcDbSpline
70
4
71
3
72
18
73
14
40
0
40
0
40
0
40
0
40
0.212836474269944
40
0.212836474269944
40
0.388538034482003
40
0.388538034482003
40
0.56588431334634
40
0.56588431334634
40
0.720821372044314
40
0.720821372044314
40
0.926958329847759
40
0.926958329847759
40
1
40
1
40
1
40
1
41
1
10
60.7773064519128
20
4.45887379221054
30
0
41
1
10
60.7465927414184
20
4.48764408536886
30
0
41
1
10
60.710076427027
20
4.5127816798877
30
0
41
1
10
60.6355074278522
20
4.5479489369659
30
0
41
1
10
60.5979474148991
20
4.56016745141974
30
0
41
1
10
60.5197413293337
20
4.57426205963466
30
0
41
1
10
60.4778994951238
20
4.57615120392782
30
0
41
1
10
60.4026816739288
20
4.56937593772037
30
0
41
1
10
60.3680018982142
20
4.56198141366625
30
0
41
1
10
60.2935889517836
20
4.53701892605153
30
0
41
1
10
60.2546272889309
20
4.51658920530707
30
0
41
1
10
60.2090421838798
20
4.48343768478534
30
0
41
1
10
60.1976165558185
20
4.47413396360702
30
0
41
1
10
60.1868351337137
20
4.46435331107892
30
0
0
SPLINE
5
B9
100
AcDbEntity
8
1
62
256
6
ByLayer
370
-1
48
1
60
0
100
AcDbSpline
70
4
71
3
72
18
73
14
40
0
40
0
40
0
40
0
40
0.112769639026764
40
0.112769639026764
40
0.308119981055544
40
0.308119981055544
40
0.469305635971335
40
0.469305635971335
40
0.631029386934836
40
0.631029386934836
40
0.786482431884683
40
0.786482431884683
40
1
40
1
40
1
40
1
41
1
10
59.8797905536902
20
4.64472963699174
30
0
41
1
10
59.8856353685339
20
4.6659661025796
30
0
41
1
10
59.8897451123252
20
4.68802139727836
30
0
41
1
10
59.8956668477716
20
4.74964485573332
30
0
41
1
10
59.8935853935246
20
4.79110453479805
30
0
41
1
10
59.8774329838273
20
4.86650277504029
30
0
41
1
10
59.8652493138282
20
4.90131472596423
30
0
41
1
10
59.8321350206573
20
4.96685257925776
30
0
41
1
10
59.8107358872614
20
4.99837885413626
30
0
41
1
10
59.7632554030548
20
5.05257341609377
30
0
41
1
10
59.7368841160137
20
5.07621237705041
30
0
41
1
10
59.6714523995403
20
5.12295313089913
30
0
41
1
10
59.6303113558689
20
5.1434464671359
30
0
41
1
10
59.5887191562555
20
5.15712096335713
30
0
0
SPLINE
5
BA
100
AcDbEntity
8
1
62
256
6
ByLayer
370
-1
48
1
60
0
100
AcDbSpline
70
4
71
3
72
14
73
10
40
0
40
0
40
0
40
0
40
0.0512682032942589
40
0.0512682032942589
40
0.387934804130005
40
0.387934804130005
40
0.835548167840629
40
0.835548167840629
40
1
40
1
40
1
40
1
41
1
10
61.1192788536708
20
4.9175587974845
30
0
41
1
10
61.1168376726554
20
4.91273295910753
30
0
41
1
10
61.1144928489736
20
4.90787052459808
30
0
41
1
10
61.0976285349303
20
4.87113663488668
30
0
41
1
10
61.0872030091388
20
4.83774755385775
30
0
41
1
10
61.0732523400832
20
4.76184144314516
30
0
41
1
10
61.0727410041833
20
4.71863464006771
30
0
41
1
10
61.0806319557003
20
4.66318929336182
30
0
41
1
10
61.0836188957251
20
4.64848058576598
30
0
41
1
10
61.0874014031143
20
4.63411854533072
30
0
0
SPLINE
5
BB
100
AcDbEntity
8
1
62
256
6
ByLayer
370
-1
48
1
60
0
100
AcDbSpline
70
4
71
3
72
14
73
10
40
0
40
0
40
0
40
0
40
0.282714959993157
40
0.282714959993157
40
0.570154590389286
40
0.570154590389286
40
0.830597265196035
40
0.830597265196035
40
1
40
1
40
1
40
1
41
1
10
60.2024769742578
20
6.19626981848953
30
0
41
1
10
60.1876287271446
20
6.21189829756403
30
0
41
1
10
60.169716160023
20
6.22535729219828
30
0
41
1
10
60.1298294555051
20
6.2452482867904
30
0
41
1
10
60.1071574066597
20
6.25183019651337
30
0
41
1
10
60.0630863987947
20
6.25558682863633
30
0
41
1
10
60.0411014341979
20
6.25360573782208
30
0
41
1
10
60.0067934163432
20
6.24393299666633
30
0
41
1
10
59.9935122786662
20
6.23842360497605
30
0
41
1
10
59.9811444713623
20
6.23146146331956
30
0
0
SPLINE
5
BC
100
AcDbEntity
8
1
62
256
6
ByLayer
370
-1
48
1
60
0
100
AcDbSpline
70
4
71
3
72
14
73
10
40
0
40
0
40
0
40
0
40
0.28292396431857
40
0.28292396431857
40
0.569776881870662
40
0.569776881870662
40
0.829662954905763
40
0.829662954905763
40
1
40
1
40
1
40
1
41
1
10
59.5920885165974
20
5.51255464910204
30
0
41
1
10
59.5717524244969
20
5.50794515213553
30
0
41
1
10
59.5517295429782
20
5.49956090508286
30
0
41
1
10
59.5156642191732
20
5.47566963790871
30
0
41
1
10
59.4991454895122
20
5.45966222313115
30
0
41
1
10
59.4746265819876
20
5.42388170768047
30
0
41
1
10
59.4656331988975
20
5.4040433127073
30
0
41
1
10
59.4571142033562
20
5.36959102855596
30
0
41
1
10
59.4553106570643
20
5.35527039725159
30
0
41
1
10
59.4552001075123
20
5.34098892264177
30
0
0
SPLINE
5
BD
100
AcDbEntity
8
1
62
256
6
ByLayer
370
-1
48
1
60
0
100
AcDbSpline
70
4
71
3
72
16
73
12
40
0
40
0
40
0
40
0
40
0.0516536825682849
40
0.0516536825682849
40
0.275745014056745
40
0.275745014056745
40
0.501959042320452
40
0.501959042320452
40
0.741999983717381
40
0.741999983717381
40
1
40
1
40
1
40
1
41
1
10
60.9991778141847
20
4.43396419678754
30
0
41
1
10
61.0029807852335
20
4.43610498233718
30
0
41
1
10
61.0067101655485
20
4.43837640882165
30
0
41
1
10
61.0260112567972
20
4.45106108489477
30
0
41
1
10
61.0402007673704
20
4.46381222832309
30
0
41
1
10
61.06362283323
20
4.49213883592708
30
0
41
1
10
61.0731171705881
20
4.50809237668452
30
0
41
1
10
61.0869906228564
20
4.54186632702124
30
0
41
1
10
61.0912140015602
20
4.56015751826399
30
0
41
1
10
61.0939583214276
20
4.59717665428394
30
0
41
1
10
61.0920979963254
20
4.61628575489144
30
0
41
1
10
61.0874014031143
20
4.63411854533069
30
0
0
SPLINE
5
BE
100
AcDbEntity
8
1
62
256
6
ByLayer
370
-1
48
1
60
0
100
AcDbSpline
70
4
71
3
72
16
73
12
40
0
40
0
40
0
40
0
40
0.0304743461051154
40
0.0304743461051154
40
0.351430277231289
40
0.351430277231289
40
0.638773309859397
40
0.638773309859397
40
0.891838789221552
40
0.891838789221552
40
1
40
1
40
1
40
1
41
1
10
61.099992872481
20
6.01041397370787
30
0
41
1
10
61.1005850111696
20
6.01270996217701
30
0
41
1
10
61.1011371541073
20
6.01502052454384
30
0
41
1
10
61.1069578851222
20
6.0414734213303
30
0
41
1
10
61.1078121989652
20
6.06752414136005
30
0
41
1
10
61.0995810618339
20
6.11544299201574
30
0
41
1
10
61.0913454101871
20
6.13820875088601
30
0
41
1
10
61.0683807825915
20
6.17639975023661
30
0
41
1
10
61.0541753282451
20
6.19292443700186
30
0
41
1
10
61.0307002317207
20
6.21202295784937
30
0
41
1
10
61.0231724251713
20
6.21725447546072
30
0
41
1
10
61.0153252723158
20
6.2218643617542
30
0
0
SPLINE
5
BF
100
AcDbEntity
8
1
62
256
6
ByLayer
370
-1
48
1
60
0
100
AcDbSpline
70
4
71
3
72
12
73
8
40
0
40
0
40
0
40
0
40
0.463244365477782
40
0.463244365477782
40
0.844851842581793
40
0.844851842581793
40
1
40
1
40
1
40
1
41
1
10
61.387692282171
20
5.14253882777007
30
0
41
1
10
61.345720686745
20
5.12968012020602
30
0
41
1
10
61.3040867531598
20
5.1100027141857
30
0
41
1
10
61.2340480488955
20
5.06213042826937
30
0
41
1
10
61.2038686902352
20
5.03543327107136
30
0
41
1
10
61.1671801574091
20
4.9926701834936
30
0
41
1
10
61.1571501810067
20
4.97959502773705
30
0
41
1
10
61.1479130904733
20
4.96603921356731
30
0
0
SPLINE
5
C0
100
AcDbEntity
8
1
62
256
6
ByLayer
370
-1
48
1
60
0
100
AcDbSpline
70
4
71
3
72
14
73
10
40
0
40
0
40
0
40
0
40
0.263355402482305
40
0.263355402482305
40
0.55321897474885
40
0.55321897474885
40
0.81561439603506
40
0.81561439603506
40
1
40
1
40
1
40
1
41
1
10
60.7773064519128
20
4.45887379221051
30
0
41
1
10
60.7912211959049
20
4.44583950695372
30
0
41
1
10
60.8077685312781
20
4.434625459534
30
0
41
1
10
60.8460478216044
20
4.4171236346296
30
0
41
1
10
60.8687675787872
20
4.4112112964421
30
0
41
1
10
60.9131085436388
20
4.40826536504866
30
0
41
1
10
60.9353041349083
20
4.41043684905929
30
0
41
1
10
60.971162593293
20
4.42039254734433
30
0
41
1
10
60.9857207797047
20
4.42638890247517
30
0
41
1
10
60.9991778141847
20
4.43396419678754
30
0
0
SPLINE
5
C1
100
AcDbEntity
8
1
62
256
6
ByLayer
370
-1
48
1
60
0
100
AcDbSpline
70
4
71
3
72
16
73
12
40
0
40
0
40
0
40
0
40
0.0655343505906976
40
0.0655343505906976
40
0.289449262567344
40
0.289449262567344
40
0.516270172068076
40
0.516270172068076
40
0.757558566552147
40
0.757558566552147
40
1
40
1
40
1
40
1
41
1
10
59.9811444713623
20
6.23146146331956
30
0
41
1
10
59.9763277504167
20
6.22875001312323
30
0
41
1
10
59.9716270503438
20
6.225810220699
30
0
41
1
10
59.9516287725073
20
6.21198449593962
30
0
41
1
10
59.9376979670027
20
6.19867919082543
30
0
41
1
10
59.9147728571579
20
6.1689407437012
30
0
41
1
10
59.9055412934409
20
6.15210002617735
30
0
41
1
10
59.8921984593964
20
6.11626472443649
30
0
41
1
10
59.8882653494808
20
6.09675973651929
30
0
41
1
10
59.8861932832345
20
6.05841445364715
30
0
41
1
10
59.8880336033952
20
6.03916795481518
30
0
41
1
10
59.8923793956541
20
6.02097493154139
30
0
0
SPLINE
5
C2
100
AcDbEntity
8
1
62
256
6
ByLayer
370
-1
48
1
60
0
100
AcDbSpline
70
4
71
3
72
14
73
10
40
0
40
0
40
0
40
0
40
0.269060881173369
40
0.269060881173369
40
0.557648235738589
40
0.557648235738589
40
0.818929759770464
40
0.818929759770464
40
1
40
1
40
1
40
1
41
1
10
61.387692282171
20
5.14253882777012
30
0
41
1
10
61.407117088163
20
5.14848994535822
30
0
41
1
10
61.4262406167943
20
5.1577697729162
30
0
41
1
10
61.462037294901
20
5.18318999327971
30
0
41
1
10
61.4789708263947
20
5.20022050602782
30
0
41
1
10
61.5042752324018
20
5.23756261258256
30
0
41
1
10
61.513655491183
20
5.25799709364466
30
0
41
1
10
61.5229632053687
20
5.29389251452866
30
0
41
1
10
61.5250046909283
20
5.30925902670091
30
0
41
1
10
61.5251221780346
20
5.32443673746542
30
0
0
SPLINE
5
C3
100
AcDbEntity
8
1
62
256
6
ByLayer
370
-1
48
1
60
0
100
AcDbSpline
70
4
71
3
72
16
73
12
40
0
40
0
40
0
40
0
40
0.0511648346820077
40
0.0511648346820077
40
0.27603496612126
40
0.27603496612126
40
0.502997278795702
40
0.502997278795702
40
0.743803013202561
40
0.743803013202561
40
1
40
1
40
1
40
1
41
1
10
59.9649970132311
20
4.44356129835296
30
0
41
1
10
59.968712626607
20
4.44137852512432
30
0
41
1
10
59.9725073565139
20
4.43931844705151
30
0
41
1
10
59.9931801127286
20
4.42898205032293
30
0
41
1
10
60.0114842968967
20
4.42301633593746
30
0
41
1
10
60.0482212044785
20
4.4166766982228
30
0
41
1
10
60.0671198785897
20
4.41626048156044
30
0
41
1
10
60.1041220401598
20
4.42068454820955
30
0
41
1
10
60.1225733729597
20
4.42588313712406
30
0
41
1
10
60.156989493628
20
4.44127420416254
30
0
41
1
10
60.1731391140424
20
4.45192860419695
30
0
41
1
10
60.1868351337136
20
4.46435331107898
30
0
0
SPLINE
5
C4
100
AcDbEntity
8
1
62
256
6
ByLayer
370
-1
48
1
60
0
100
AcDbSpline
70
4
71
3
72
12
73
8
40
0
40
0
40
0
40
0
40
0.453797723043184
40
0.453797723043184
40
0.836990959046035
40
0.836990959046035
40
1
40
1
40
1
40
1
41
1
10
59.5920885165974
20
5.51255464910199
30
0
41
1
10
59.6330350085748
20
5.52183581923171
30
0
41
1
10
59.6736517319247
20
5.53783967825382
30
0
41
1
10
59.74301283703
20
5.58011234407471
30
0
41
1
10
59.7733571087403
20
5.60497274385975
30
0
41
1
10
59.8108384186895
20
5.64682520567985
30
0
41
1
10
59.8214013410322
20
5.66023344841139
30
0
41
1
10
59.8310952453123
20
5.67431479154536
30
0
0
SPLINE
5
C5
100
AcDbEntity
8
1
62
256
6
ByLayer
370
-1
48
1
60
0
100
AcDbSpline
70
4
71
3
72
16
73
12
40
0
40
0
40
0
40
0
40
0.122942322249417
40
0.122942322249417
40
0.347103580567194
40
0.347103580567194
40
0.577324013060381
40
0.577324013060381
40
0.824599348258534
40
0.824599348258534
40
1
40
1
40
1
40
1
41
1
10
61.0153252723158
20
6.2218643617542
30
0
41
1
10
61.0064500953927
20
6.22707817078836
30
0
41
1
10
60.9970953328553
20
6.23153633893205
30
0
41
1
10
60.9700410377799
20
6.2416792118988
30
0
41
1
10
60.9514197221392
20
6.24544892847243
30
0
41
1
10
60.9143261854732
20
6.24719184324843
30
0
41
1
10
60.8954031245871
20
6.24504445940076
30
0
41
1
10
60.8586537708126
20
6.23518070634515
30
0
41
1
10
60.8405476258803
20
6.22696075918441
30
0
41
1
10
60.813015607549
20
6.20903868520566
30
0
41
1
10
60.8024217383815
20
6.20035755642763
30
0
41
1
10
60.7929482924573
20
6.19079029962066
30
0
0
LINE
5
4A
100
AcDbEntity
8
80
62
256
6
ByLayer
370
-1
48
1
60
0
100
AcDbLine
10
0
20
0
30
0
11
-10
21
0
31
0
39
0
210
0
220
0
230
1
0
LINE
5
4B
100
AcDbEntity
8
81
62
256
6
ByLayer
370
-1
48
1
60
0
100
AcDbLine
10
63.94
20
10.9
30
0
11
73.94
21
10.9
31
0
39
0
210
0
220
0
230
1
0
LINE
5
4C
100
AcDbEntity
8
SK4
62
256
6
ByLayer
370
-1
48
0.05
60
0
100
AcDbLine
10
-142.31
20
0
30
0
11
68.711013
21
0
31
0
39
0
210
0
220
0
230
1
0
LINE
5
4E
100
AcDbEntity
8
4
62
256
6
ByLayer
370
-1
48
0.05
60
0
100
AcDbLine
10
0
20
0
30
0
11
68.711013
21
0
31
0
39
0
210
0
220
0
230
1
0
LINE
5
50
100
AcDbEntity
8
SK1
62
256
6
ByLayer
370
-1
48
1
60
0
100
AcDbLine
10
-136.81
20
-7.9925
30
0
11
0
21
-7.9925
31
0
39
0
210
0
220
0
230
1
0
LINE
5
52
100
AcDbEntity
8
SK1
62
256
6
ByLayer
370
-1
48
1
60
0
100
AcDbLine
10
0
20
7.9925
30
0
11
-136.81
21
7.9925
31
0
39
0
210
0
220
0
230
1
0
LINE
5
53
100
AcDbEntity
8
SK1
62
256
6
ByLayer
370
-1
48
1
60
0
100
AcDbLine
10
-136.81
20
7.9925
30
0
11
-137.31
21
7.4925
31
0
39
0
210
0
220
0
230
1
0
LINE
5
54
100
AcDbEntity
8
SK1
62
256
6
ByLayer
370
-1
48
1
60
0
100
AcDbLine
10
-137.31
20
-7.4925
30
0
11
-136.81
21
-7.9925
31
0
39
0
210
0
220
0
230
1
0
LINE
5
55
100
AcDbEntity
8
1
62
256
6
ByLayer
370
-1
48
1
60
0
100
AcDbLine
10
59.889644
20
4.660206
30
0
11
59.893179
21
4.727673
31
0
39
0
210
0
220
0
230
1
0
LINE
5
56
100
AcDbEntity
8
1
62
256
6
ByLayer
370
-1
48
1
60
0
100
AcDbLine
10
61.075168
20
4.754004
30
0
11
61.071689
21
4.687623
31
0
39
0
210
0
220
0
230
1
0
LINE
5
57
100
AcDbEntity
8
1
62
256
6
ByLayer
370
-1
48
1
60
0
100
AcDbLine
10
62.209229
20
5.174345
30
0
11
62.212107
21
5.229275
31
0
39
0
210
0
220
0
230
1
0
LINE
5
58
100
AcDbEntity
8
1
62
256
6
ByLayer
370
-1
48
1
60
0
100
AcDbLine
10
58.766836
20
5.409834
30
0
11
58.763957
21
5.354904
31
0
39
0
210
0
220
0
230
1
0
LINE
5
59
100
AcDbEntity
8
1
62
256
6
ByLayer
370
-1
48
1
60
0
100
AcDbLine
10
61.086288
20
5.921432
30
0
11
61.082749
21
5.853912
31
0
39
0
210
0
220
0
230
1
0
LINE
5
5A
100
AcDbEntity
8
1
62
256
6
ByLayer
370
-1
48
1
60
0
100
AcDbLine
10
59.900703
20
5.826495
30
0
11
59.904182
21
5.892879
31
0
39
0
210
0
220
0
230
1
0
LINE
5
5B
100
AcDbEntity
8
1
62
256
6
ByLayer
370
-1
48
1
60
0
100
AcDbLine
10
0
20
-7.9925
30
0
11
55.415888
21
-7.9925
31
0
39
0
210
0
220
0
230
1
0
LINE
5
5C
100
AcDbEntity
8
1
62
256
6
ByLayer
370
-1
48
1
60
0
100
AcDbLine
10
53.54545
20
7.9925
30
0
11
0
21
7.9925
31
0
39
0
210
0
220
0
230
1
0
LINE
5
5D
100
AcDbEntity
8
1
62
256
6
ByLayer
370
-1
48
1
60
0
100
AcDbLine
10
57.159019
20
2.436634
30
0
11
56.576061
21
2.073456
31
0
39
0
210
0
220
0
230
1
0
LINE
5
5E
100
AcDbEntity
8
1
62
256
6
ByLayer
370
-1
48
1
60
0
100
AcDbLine
10
0
20
-0.208217
30
0
11
0
21
0.208217
31
0
39
0
210
0
220
0
230
1
0
LINE
5
5F
100
AcDbEntity
8
1
62
256
6
ByLayer
370
-1
48
1
60
0
100
AcDbLine
10
0
20
-0.208217
30
0
11
42.427375
21
-0.208217
31
0
39
0
210
0
220
0
230
1
0
LINE
5
60
100
AcDbEntity
8
1
62
256
6
ByLayer
370
-1
48
1
60
0
100
AcDbLine
10
55.542146
20
-7.87152
30
0
11
57.34547
21
-6.143577
31
0
39
0
210
0
220
0
230
1
0
LINE
5
61
100
AcDbEntity
8
1
62
256
6
ByLayer
370
-1
48
1
60
0
100
AcDbLine
10
53.749939
20
7.975331
30
0
11
53.73278
21
7.992441
31
0
39
0
210
0
220
0
230
1
0
LINE
5
62
100
AcDbEntity
8
1
62
256
6
ByLayer
370
-1
48
1
60
0
100
AcDbLine
10
56.376583
20
0.113986
30
0
11
56.385119
21
0.276876
31
0
39
0
210
0
220
0
230
1
0
LINE
5
63
100
AcDbEntity
8
1
62
256
6
ByLayer
370
-1
48
1
60
0
100
AcDbLine
10
55.542146
20
-7.87152
30
0
11
55.415888
21
-7.9925
31
0
39
0
210
0
220
0
230
1
0
LINE
5
64
100
AcDbEntity
8
1
62
256
6
ByLayer
370
-1
48
1
60
0
100
AcDbLine
10
42.296463
20
0.208217
30
0
11
0
21
0.208217
31
0
39
0
210
0
220
0
230
1
0
LINE
5
65
100
AcDbEntity
8
1
62
256
6
ByLayer
370
-1
48
1
60
0
100
AcDbLine
10
63.355951
20
3.170947
30
0
11
63.159774
21
-0.572321
31
0
39
0
210
0
220
0
230
1
0
LINE
5
66
100
AcDbEntity
8
1
62
256
6
ByLayer
370
-1
48
1
60
0
100
AcDbLine
10
56.576061
20
2.073456
30
0
11
56.584598
21
2.236347
31
0
39
0
210
0
220
0
230
1
0
LINE
5
67
100
AcDbEntity
8
1
62
256
6
ByLayer
370
-1
48
1
60
0
100
AcDbLine
10
0
20
-7.9925
30
0
11
0
21
-0.208217
31
0
39
0
210
0
220
0
230
1
0
LINE
5
68
100
AcDbEntity
8
1
62
256
6
ByLayer
370
-1
48
1
60
0
100
AcDbLine
10
0
20
0.208217
30
0
11
0
21
7.9925
31
0
39
0
210
0
220
0
230
1
0
LINE
5
69
100
AcDbEntity
8
1
62
256
6
ByLayer
370
-1
48
1
60
0
100
AcDbLine
10
57.16756
20
2.599527
30
0
11
56.584598
21
2.236347
31
0
39
0
210
0
220
0
230
1
0
LINE
5
6A
100
AcDbEntity
8
1
62
256
6
ByLayer
370
-1
48
1
60
0
100
AcDbLine
10
58.419158
20
0.311737
30
0
11
58.417542
21
0.280911
31
0
39
0
210
0
220
0
230
1
0
LINE
5
6B
100
AcDbEntity
8
1
62
256
6
ByLayer
370
-1
48
1
60
0
100
AcDbLine
10
57.34547
20
-6.143577
30
0
11
63.159774
21
-0.572321
31
0
39
0
210
0
220
0
230
1
0
LINE
5
6C
100
AcDbEntity
8
1
62
256
6
ByLayer
370
-1
48
1
60
0
100
AcDbLine
10
53.547186
20
7.992438
30
0
11
57.34547
21
-6.143577
31
0
39
0
210
0
220
0
230
1
0
LINE
5
6D
100
AcDbEntity
8
SK1
62
256
6
ByLayer
370
-1
48
1
60
0
100
AcDbLine
10
-136.81
20
-7.9925
30
0
11
-136.81
21
7.9925
31
0
39
0
210
0
220
0
230
1
0
LINE
5
6E
100
AcDbEntity
8
SK1
62
256
6
ByLayer
370
-1
48
1
60
0
100
AcDbLine
10
0
20
-0.208217
30
0
11
0
21
0.208217
31
0
39
0
210
0
220
0
230
1
0
LINE
5
6F
100
AcDbEntity
8
SK1
62
256
6
ByLayer
370
-1
48
1
60
0
100
AcDbLine
10
-48.06
20
-0.208217
30
0
11
0
21
-0.208217
31
0
39
0
210
0
220
0
230
1
0
LINE
5
70
100
AcDbEntity
8
SK1
62
256
6
ByLayer
370
-1
48
1
60
0
100
AcDbLine
10
-137.31
20
-7.4925
30
0
11
-137.31
21
7.4925
31
0
39
0
210
0
220
0
230
1
0
LINE
5
71
100
AcDbEntity
8
SK1
62
256
6
ByLayer
370
-1
48
1
60
0
100
AcDbLine
10
-48.06
20
-0.208217
30
0
11
-48.06
21
0.208217
31
0
39
0
210
0
220
0
230
1
0
LINE
5
72
100
AcDbEntity
8
SK1
62
256
6
ByLayer
370
-1
48
1
60
0
100
AcDbLine
10
0
20
0.208217
30
0
11
-48.06
21
0.208217
31
0
39
0
210
0
220
0
230
1
0
LINE
5
73
100
AcDbEntity
8
SK1
62
256
6
ByLayer
370
-1
48
1
60
0
100
AcDbLine
10
0
20
-7.9925
30
0
11
0
21
-0.208217
31
0
39
0
210
0
220
0
230
1
0
LINE
5
74
100
AcDbEntity
8
SK1
62
256
6
ByLayer
370
-1
48
1
60
0
100
AcDbLine
10
0
20
0.208217
30
0
11
0
21
7.9925
31
0
39
0
210
0
220
0
230
1
0
LINE
5
75
100
AcDbEntity
8
1
62
256
6
ByLayer
370
-1
48
1
60
0
100
AcDbLine
10
57.395132
20
6.941794
30
0
11
57.041161
21
0.187626
31
0
39
0
210
0
220
0
230
1
0
LINE
5
76
100
AcDbEntity
8
1
62
256
6
ByLayer
370
-1
48
1
60
0
100
AcDbLine
10
63.332768
20
10.839899
30
0
11
57.581103
21
7.256659
31
0
39
0
210
0
220
0
230
1
0
LINE
5
77
100
AcDbEntity
8
1
62
256
6
ByLayer
370
-1
48
1
60
0
100
AcDbLine
10
63.585488
20
3.729324
30
0
11
63.939459
21
10.483492
31
0
39
0
210
0
220
0
230
1
0
LINE
5
78
100
AcDbEntity
8
1
62
256
6
ByLayer
370
-1
48
1
60
0
100
AcDbLine
10
57.647853
20
-0.168781
30
0
11
63.399518
21
3.414459
31
0
39
0
210
0
220
0
230
1
0
LINE
5
79
100
AcDbEntity
8
1
62
256
6
ByLayer
370
-1
48
1
60
0
100
AcDbLine
10
61.083707
20
4.563631
30
0
11
61.087401
21
4.634119
31
0
39
0
210
0
220
0
230
1
0
LINE
5
7A
100
AcDbEntity
8
1
62
256
6
ByLayer
370
-1
48
1
60
0
100
AcDbLine
10
61.387369
20
5.42751
30
0
11
61.391064
21
5.498023
31
0
39
0
210
0
220
0
230
1
0
LINE
5
7B
100
AcDbEntity
8
1
62
256
6
ByLayer
370
-1
48
1
60
0
100
AcDbLine
10
60.789253
20
6.120277
30
0
11
60.792948
21
6.19079
31
0
39
0
210
0
220
0
230
1
0
LINE
5
7C
100
AcDbEntity
8
1
62
256
6
ByLayer
370
-1
48
1
60
0
100
AcDbLine
10
60.198782
20
6.125757
30
0
11
60.202477
21
6.19627
31
0
39
0
210
0
220
0
230
1
0
LINE
5
7D
100
AcDbEntity
8
1
62
256
6
ByLayer
370
-1
48
1
60
0
100
AcDbLine
10
59.588394
20
5.442067
30
0
11
59.592089
21
5.512555
31
0
39
0
210
0
220
0
230
1
0
LINE
5
7E
100
AcDbEntity
8
1
62
256
6
ByLayer
370
-1
48
1
60
0
100
AcDbLine
10
59.876095
20
4.574217
30
0
11
59.879791
21
4.64473
31
0
39
0
210
0
220
0
230
1
0
LINE
5
7F
100
AcDbEntity
8
2
62
256
6
ByLayer
370
-1
48
1
60
1
100
AcDbLine
10
63.94
20
0
30
0
11
63.941
21
0.001
31
0
39
0
210
0
220
0
230
1
0
MTEXT
5
C6
100
AcDbEntity
8
SK6
62
256
6
ByLayer
370
-1
48
1
60
0
100
AcDbMText
10
-33.31
20
-20.32125
30
0
210
0
220
0
230
1
1
\W00.745;\fsimplex.shx,bigfont.shx;A16R-SDUCR 07-R 
40
3.5
41
0
44
1.084337
50
0
71
7
72
5
7
DEFAULT
0
DIMENSION
5
F9
100
AcDbEntity
8
2
62
256
6
ByLayer
370
-3
48
1
60
0
100
AcDbDimension
2
DimnDraft3D1
10
76.19
20
0
30
0
11
76.19
21
21.155
31
0
70
32
71
5
72
1
41
1
210
0
220
0
230
1
3
Standard
100
AcDbAlignedDimension
13
65.94
23
10.9
33
0
14
65.94
24
0
34
0
50
90
100
AcDbRotatedDimension
1001
ACAD
1000
DSTYLE
1002
{
1070
    74
1070
     0
1070
   279
1070
     0
1070
   172
1070
     1
1070
   173
1070
     1
1070
   340
1005
C7
1070
    77
1070
     1
1070
    73
1070
     0
1070
   171
1070
     4
1070
   274
1070
     4
1070
   177
1070
     2
1070
   176
1070
     2
1070
   178
1070
     7
1070
    78
1070
     8
1070
    41
1041
3.175
1070
   147
1041
2.25
1070
    42
1041
2.0
1070
    44
1041
2.0
1070
   140
1041
4.5
1070
   343
1005
FA
1070
   344
1005
FA
1002
}
0
DIMENSION
5
10F
100
AcDbEntity
8
SK2
62
256
6
ByLayer
370
-3
48
1
60
0
100
AcDbDimension
2
DimnDraft3D2
10
-147.06
20
7.9925
30
0
11
-147.06
21
-4.221711
31
0
70
32
71
5
72
1
41
1
210
0
220
0
230
1
3
Standard
100
AcDbAlignedDimension
13
-139.31
23
-7.9925
33
0
14
-139.31
24
7.9925
34
0
50
90
100
AcDbRotatedDimension
1001
ACAD
1000
DSTYLE
1002
{
1070
    74
1070
     0
1070
   279
1070
     0
1070
   172
1070
     1
1070
   173
1070
     1
1070
   340
1005
C7
1070
    77
1070
     1
1070
    73
1070
     0
1070
   171
1070
     4
1070
   274
1070
     4
1070
   177
1070
     2
1070
   176
1070
     2
1070
   178
1070
     7
1070
    78
1070
     8
1070
    41
1041
3.175
1070
   147
1041
2.25
1070
    42
1041
2.0
1070
    44
1041
2.0
1070
   140
1041
4.5
1070
   343
1005
FA
1070
   344
1005
FA
1002
}
0
DIMENSION
5
11D
100
AcDbEntity
8
SK2
62
256
6
ByLayer
370
-3
48
1
60
0
100
AcDbDimension
2
DimnDraft3D3
10
-137.31
20
23.65
30
0
11
-43.500132
21
23.65
31
0
70
32
71
5
72
1
41
1
210
0
220
0
230
1
3
Standard
100
AcDbAlignedDimension
13
63.94
23
12.9
33
0
14
-137.31
24
9.9925
34
0
50
0
100
AcDbRotatedDimension
1001
ACAD
1000
DSTYLE
1002
{
1070
   279
1070
     0
1070
   172
1070
     1
1070
   173
1070
     1
1070
   340
1005
C7
1070
    77
1070
     1
1070
    73
1070
     0
1070
   171
1070
     4
1070
   274
1070
     4
1070
   177
1070
     2
1070
   176
1070
     2
1070
   178
1070
     7
1070
    78
1070
     8
1070
    41
1041
3.175
1070
   147
1041
2.25
1070
    42
1041
2.0
1070
    44
1041
2.0
1070
   140
1041
4.5
1070
   343
1005
FA
1070
   344
1005
FA
1002
}
0
DIMENSION
5
12B
100
AcDbEntity
8
2
62
256
6
ByLayer
370
-3
48
1
60
0
100
AcDbDimension
2
DimnDraft3D4
10
112.295162
20
0
30
0
11
89.500566
21
-36.792664
31
0
70
34
71
5
72
1
41
1
210
0
220
0
230
1
3
Standard
100
AcDb2LineAngularDimension
13
63.468976
23
1.912334
33
0
14
60.808145
24
-48.859355
34
0
15
65.94
25
0
35
0
16
92.573167
26
-30.775028
36
0
40
0
0
ENDSEC
0
SECTION
2
OBJECTS
0
DICTIONARY
5
15c
330
0
100
AcDbDictionary
280
0
281
1
3
ACAD_GROUP
350
15d
3
ACAD_MLINESTYLE
350
15e
0
DICTIONARY
5
15d
330
0
100
AcDbDictionary
280
0
281
1
0
DICTIONARY
5
15e
330
0
100
AcDbDictionary
280
0
281
1
3
Standard
350
18
0
MLINESTYLE
5
18
330
15e
100
AcDbMlineStyle
2
Standard
70
0
3

62
256
51
90
52
90
71
2
49
-0.5
62
256
6
ByLayer
49
0.5
62
256
6
ByLayer
0
RASTERVARIABLES
5
14a
330

100
AcDbRasterVariables
90
0
70
1
71
1
72
1
0
ENDSEC
0
EOF
