0
SECTION
2
HEADER
9
$ACADVER
1
AC1015
9
$DWGCODEPAGE
3
ANSI_1252
9
$HANDSEED
5
179
9
$ANGBASE
50
0
9
$ANGDIR
70
0
9
$ATTMODE
70
1
9
$AUNITS
70
0
9
$AUPREC
70
0
9
$CECOLOR
62
256
9
$CELTSCALE
40
1
9
$CELTYPE
6
ByLayer
9
$CELWEIGHT
370
-1
9
$CLAYER
8
0
9
$CMLJUST
70
0
9
$CMLSCALE
40
1
9
$CMLSTYLE
2
Standard
9
$DIMSTYLE
2
Standard
9
$TEXTSIZE
40
0.2
9
$TEXTSTYLE
7
Standard
9
$LUNITS
70
2
9
$LUPREC
70
4
9
$EXTNAMES
290
1
9
$INSUNITS
70
4
9
$LTSCALE
40
1
9
$LWDISPLAY
290
0
9
$PDMODE
70
0
9
$PDSIZE
40
0
9
$PLINEGEN
70
0
0
ENDSEC
0
SECTION
2
CLASSES
0
CLASS
1
RASTERVARIABLES
2
AcDbRasterVariables
3
ISM
90
0
280
0
281
0
0
ENDSEC
0
SECTION
2
TABLES
0
TABLE
2
VPORT
5
16f
100
AcDbSymbolTable
0
VPORT
5
1
100
AcDbSymbolTableRecord
100
AcDbViewportTableRecord
2
*Active
70
0
10
0
20
0
11
1
21
1
12
-1
22
1
13
0
23
0
14
0.5
24
0.5
15
10
25
10
16
0
26
0
36
1
17
0
27
0
37
0
0
ENDTAB
0
TABLE
2
LTYPE
5
170
100
AcDbSymbolTable
0
LTYPE
5
14
100
AcDbSymbolTableRecord
100
AcDbLinetypeTableRecord
70
0
2
ByBlock
3

72
65
73
0
40
0
0
LTYPE
5
15
100
AcDbSymbolTableRecord
100
AcDbLinetypeTableRecord
70
0
2
ByLayer
3

72
65
73
0
40
0
0
LTYPE
5
16
100
AcDbSymbolTableRecord
100
AcDbLinetypeTableRecord
70
0
2
CONTINUOUS
3
Solid line
72
65
73
0
40
0
0
LTYPE
5
3B
100
AcDbSymbolTableRecord
100
AcDbLinetypeTableRecord
70
0
2
DASHED
3
__ __ __ __ __ __ __ __ __
72
65
73
2
40
25.72
49
12.86
74
0
49
-12.86
74
0
0
LTYPE
5
3C
100
AcDbSymbolTableRecord
100
AcDbLinetypeTableRecord
70
0
2
HIDDEN
3
_ _ _ _ _ _ _ _ _ _ _ _ _ _ _
72
65
73
2
40
0.5
49
0.25
74
0
49
-0.25
74
0
0
LTYPE
5
3D
100
AcDbSymbolTableRecord
100
AcDbLinetypeTableRecord
70
0
2
PHANTOM
3
____ _ _ ____ _ _ _____ _ _ ____
72
65
73
6
40
50.5
49
18
74
0
49
-6.5
74
0
49
6.5
74
0
49
-6.5
74
0
49
6.5
74
0
49
-6.5
74
0
0
LTYPE
5
3E
100
AcDbSymbolTableRecord
100
AcDbLinetypeTableRecord
70
0
2
CENTER
3
____ _ ____ _ ____ _ ____
72
65
73
4
40
47.5
49
22
74
0
49
-8.5
74
0
49
8.5
74
0
49
-8.5
74
0
0
LTYPE
5
3F
100
AcDbSymbolTableRecord
100
AcDbLinetypeTableRecord
70
0
2
DOT
3
.........................
72
65
73
2
40
10
49
0
74
0
49
-10
74
0
0
LTYPE
5
40
100
AcDbSymbolTableRecord
100
AcDbLinetypeTableRecord
70
0
2
DASHDOT
3
_._._._._._._._._._._._._._._._.
72
65
73
4
40
70
49
31
74
0
49
-13
74
0
49
13
74
0
49
-13
74
0
0
ENDTAB
0
TABLE
2
LAYER
5
171
100
AcDbSymbolTable
0
LAYER
5
10
100
AcDbSymbolTableRecord
100
AcDbLayerTableRecord
2
0
70
0
62
7
6
CONTINUOUS
290
1
370
-3
390
0
0
LAYER
5
42
100
AcDbSymbolTableRecord
100
AcDbLayerTableRecord
2
80
70
0
62
-6
6
CONTINUOUS
290
1
370
-3
390
0
0
LAYER
5
44
100
AcDbSymbolTableRecord
100
AcDbLayerTableRecord
2
81
70
0
62
-3
6
CONTINUOUS
290
1
370
-3
390
0
0
LAYER
5
46
100
AcDbSymbolTableRecord
100
AcDbLayerTableRecord
2
1
70
0
62
4
6
CONTINUOUS
290
1
370
-3
390
0
0
LAYER
5
48
100
AcDbSymbolTableRecord
100
AcDbLayerTableRecord
2
2
70
0
62
7
6
CONTINUOUS
290
1
370
-3
390
0
0
LAYER
5
4F
100
AcDbSymbolTableRecord
100
AcDbLayerTableRecord
2
4
70
0
62
-2
6
CENTER
290
1
370
-3
390
0
0
LAYER
5
15b
100
AcDbSymbolTableRecord
100
AcDbLayerTableRecord
2
SK4
70
0
62
2
6
CENTER
290
1
370
-3
390
0
0
LAYER
5
15c
100
AcDbSymbolTableRecord
100
AcDbLayerTableRecord
2
SK1
70
0
62
4
6
CONTINUOUS
290
1
370
-3
390
0
0
LAYER
5
15d
100
AcDbSymbolTableRecord
100
AcDbLayerTableRecord
2
SK6
70
0
62
5
6
CONTINUOUS
290
1
370
-3
390
0
0
LAYER
5
15e
100
AcDbSymbolTableRecord
100
AcDbLayerTableRecord
2
SK2
70
0
62
7
6
CONTINUOUS
290
1
370
-3
390
0
0
ENDTAB
0
TABLE
2
STYLE
5
172
100
AcDbSymbolTable
0
STYLE
5
11
100
AcDbSymbolTableRecord
100
AcDbTextStyleTableRecord
2
Standard
3
txt
70
0
71
0
40
0
41
1
42
0
50
0
0
STYLE
5
D7
100
AcDbSymbolTableRecord
100
AcDbTextStyleTableRecord
2
DEFAULT
3
simplex.shx
70
0
71
0
40
0
41
1
42
0
50
0
0
STYLE
5
FA
100
AcDbSymbolTableRecord
100
AcDbTextStyleTableRecord
2
DWGDirectTextStyle
3
SIMPLEX
70
0
71
0
40
0
41
1
42
0
50
0
0
ENDTAB
0
TABLE
2
DIMSTYLE
5
173
100
AcDbSymbolTable
100
AcDbDimStyleTable
0
DIMSTYLE
105
27
100
AcDbSymbolTableRecord
100
AcDbDimStyleTableRecord
2
Standard
70
0
3
<>
41
0.18
42
0.0625
44
0.18
140
0.18
147
0.09
73
0
74
0
77
1
271
2
275
0
278
52
280
0
340
11
0
ENDTAB
0
TABLE
2
VIEW
5
174
100
AcDbSymbolTable
0
ENDTAB
0
TABLE
2
UCS
5
175
100
AcDbSymbolTable
0
ENDTAB
0
TABLE
2
APPID
5
176
100
AcDbSymbolTable
0
APPID
5
12
100
AcDbSymbolTableRecord
100
AcDbRegAppTableRecord
2
ACAD
70
0
0
ENDTAB
0
TABLE
2
BLOCK_RECORD
5
177
100
AcDbSymbolTable
0
BLOCK_RECORD
5
1F
100
AcDbSymbolTableRecord
100
AcDbBlockTableRecord
2
*Model_Space
340
0
70
0
0
BLOCK_RECORD
5
1B
100
AcDbSymbolTableRecord
100
AcDbBlockTableRecord
2
*Paper_Space
340
0
70
0
0
BLOCK_RECORD
5
23
100
AcDbSymbolTableRecord
100
AcDbBlockTableRecord
2
*Paper_Space0
340
0
70
0
0
BLOCK_RECORD
5
FC
100
AcDbSymbolTableRecord
100
AcDbBlockTableRecord
2
DimnDraft3D1
340
0
70
0
0
BLOCK_RECORD
5
10A
100
AcDbSymbolTableRecord
100
AcDbBlockTableRecord
2
_CLOSED
340
0
70
0
0
BLOCK_RECORD
5
111
100
AcDbSymbolTableRecord
100
AcDbBlockTableRecord
2
DimnDraft3D2
340
0
70
0
0
BLOCK_RECORD
5
120
100
AcDbSymbolTableRecord
100
AcDbBlockTableRecord
2
DimnDraft3D3
340
0
70
0
0
BLOCK_RECORD
5
12E
100
AcDbSymbolTableRecord
100
AcDbBlockTableRecord
2
DimnDraft3D4
340
0
70
0
0
ENDTAB
0
ENDSEC
0
SECTION
2
BLOCKS
0
BLOCK
5
20
100
AcDbEntity
8
0
100
AcDbBlockBegin
2
*Model_Space
70
0
10
0
20
0
30
0
3
*Model_Space
0
ENDBLK
5
21
100
AcDbEntity
8
0
100
AcDbBlockEnd
0
BLOCK
5
1C
100
AcDbEntity
8
0
100
AcDbBlockBegin
2
*Paper_Space
70
0
10
0
20
0
30
0
3
*Paper_Space
0
ENDBLK
5
1D
100
AcDbEntity
8
0
100
AcDbBlockEnd
0
BLOCK
5
24
100
AcDbEntity
8
0
100
AcDbBlockBegin
2
*Paper_Space0
70
0
10
0
20
0
30
0
3
*Paper_Space0
0
ENDBLK
5
25
100
AcDbEntity
8
0
100
AcDbBlockEnd
0
BLOCK
5
107
100
AcDbEntity
8
0
100
AcDbBlockBegin
2
DimnDraft3D1
70
0
10
0
20
0
30
0
3
DimnDraft3D1
0
MTEXT
5
FD
100
AcDbEntity
8
2
62
256
6
ByLayer
370
-1
48
1
60
0
100
AcDbMText
10
75.065
20
-28.106316
30
0
210
0
220
0
230
1
1
\W01.000;\fsimplex.shx,bigfont.shx;11.0 
40
4.5
41
0
44
1.084337
50
90
71
7
72
5
7
DEFAULT
0
LINE
5
FE
100
AcDbEntity
8
2
62
256
6
ByLayer
370
-1
48
1
60
0
100
AcDbLine
10
65.94
20
-10.9
30
0
11
78.19
21
-10.9
31
0
39
0
210
0
220
0
230
1
0
LINE
5
FF
100
AcDbEntity
8
2
62
256
6
ByLayer
370
-1
48
1
60
0
100
AcDbLine
10
65.94
20
0
30
0
11
78.19
21
0
31
0
39
0
210
0
220
0
230
1
0
LINE
5
100
100
AcDbEntity
8
2
62
256
6
ByLayer
370
-1
48
1
60
0
100
AcDbLine
10
76.19
20
0
30
0
11
76.19
21
-29.231316
31
0
39
0
210
0
220
0
230
1
0
LINE
5
101
100
AcDbEntity
8
2
62
256
6
ByLayer
370
-1
48
1
60
0
100
AcDbLine
10
76.19
20
-10.9
30
0
11
75.772003
21
-7.725002
31
0
39
0
210
0
220
0
230
1
0
LINE
5
102
100
AcDbEntity
8
2
62
256
6
ByLayer
370
-1
48
1
60
0
100
AcDbLine
10
76.19
20
-10.9
30
0
11
76.607997
21
-7.724998
31
0
39
0
210
0
220
0
230
1
0
LINE
5
103
100
AcDbEntity
8
2
62
256
6
ByLayer
370
-1
48
1
60
0
100
AcDbLine
10
75.772003
20
-7.725002
30
0
11
76.607997
21
-7.724998
31
0
39
0
210
0
220
0
230
1
0
LINE
5
104
100
AcDbEntity
8
2
62
256
6
ByLayer
370
-1
48
1
60
0
100
AcDbLine
10
76.19
20
0
30
0
11
76.607997
21
-3.174998
31
0
39
0
210
0
220
0
230
1
0
LINE
5
105
100
AcDbEntity
8
2
62
256
6
ByLayer
370
-1
48
1
60
0
100
AcDbLine
10
76.19
20
0
30
0
11
75.772003
21
-3.175002
31
0
39
0
210
0
220
0
230
1
0
LINE
5
106
100
AcDbEntity
8
2
62
256
6
ByLayer
370
-1
48
1
60
0
100
AcDbLine
10
76.607997
20
-3.174998
30
0
11
75.772003
21
-3.175002
31
0
39
0
210
0
220
0
230
1
0
ENDBLK
5
108
100
AcDbEntity
8
0
100
AcDbBlockEnd
0
BLOCK
5
10B
100
AcDbEntity
8
0
100
AcDbBlockBegin
2
_CLOSED
70
0
10
0
20
0
30
0
3
_CLOSED
0
LINE
5
10D
100
AcDbEntity
8
0
62
256
6
ByLayer
370
-2
48
1
60
0
100
AcDbLine
10
-1
20
0.166667
30
0
11
0
21
0
31
0
39
0
210
0
220
0
230
1
0
LINE
5
10E
100
AcDbEntity
8
0
62
256
6
ByLayer
370
-2
48
1
60
0
100
AcDbLine
10
0
20
0
30
0
11
-1
21
-0.166667
31
0
39
0
210
0
220
0
230
1
0
LINE
5
10F
100
AcDbEntity
8
0
62
256
6
ByLayer
370
-2
48
1
60
0
100
AcDbLine
10
-1
20
0.166667
30
0
11
-1
21
-0.166667
31
0
39
0
210
0
220
0
230
1
0
LINE
5
110
100
AcDbEntity
8
0
62
256
6
ByLayer
370
-2
48
1
60
0
100
AcDbLine
10
0
20
0
30
0
11
-1
21
0
31
0
39
0
210
0
220
0
230
1
0
ENDBLK
5
10C
100
AcDbEntity
8
0
100
AcDbBlockEnd
0
BLOCK
5
11D
100
AcDbEntity
8
0
100
AcDbBlockBegin
2
DimnDraft3D2
70
0
10
0
20
0
30
0
3
DimnDraft3D2
0
MTEXT
5
112
100
AcDbEntity
8
SK2
62
256
6
ByLayer
370
-1
48
1
60
0
100
AcDbMText
10
-148.185
20
-3.096711
30
0
210
0
220
0
230
1
1
\W01.000;\fsimplex.shx,bigfont.shx;%%c16 
40
4.5
41
0
44
1.084337
50
90
71
7
72
5
7
DEFAULT
0
LINE
5
114
100
AcDbEntity
8
SK2
62
256
6
ByLayer
370
-1
48
1
60
0
100
AcDbLine
10
-139.31
20
-7.9925
30
0
11
-149.06
21
-7.9925
31
0
39
0
210
0
220
0
230
1
0
LINE
5
115
100
AcDbEntity
8
SK2
62
256
6
ByLayer
370
-1
48
1
60
0
100
AcDbLine
10
-139.31
20
7.9925
30
0
11
-149.06
21
7.9925
31
0
39
0
210
0
220
0
230
1
0
LINE
5
116
100
AcDbEntity
8
SK2
62
256
6
ByLayer
370
-1
48
1
60
0
100
AcDbLine
10
-147.06
20
-19.2425
30
0
11
-147.06
21
19.2425
31
0
39
0
210
0
220
0
230
1
0
LINE
5
117
100
AcDbEntity
8
SK2
62
256
6
ByLayer
370
-1
48
1
60
0
100
AcDbLine
10
-147.06
20
-7.9925
30
0
11
-146.642003
21
-11.167498
31
0
39
0
210
0
220
0
230
1
0
LINE
5
118
100
AcDbEntity
8
SK2
62
256
6
ByLayer
370
-1
48
1
60
0
100
AcDbLine
10
-147.06
20
-7.9925
30
0
11
-147.477997
21
-11.167502
31
0
39
0
210
0
220
0
230
1
0
LINE
5
119
100
AcDbEntity
8
SK2
62
256
6
ByLayer
370
-1
48
1
60
0
100
AcDbLine
10
-146.642003
20
-11.167498
30
0
11
-147.477997
21
-11.167502
31
0
39
0
210
0
220
0
230
1
0
LINE
5
11A
100
AcDbEntity
8
SK2
62
256
6
ByLayer
370
-1
48
1
60
0
100
AcDbLine
10
-147.06
20
7.9925
30
0
11
-147.477997
21
11.167498
31
0
39
0
210
0
220
0
230
1
0
LINE
5
11B
100
AcDbEntity
8
SK2
62
256
6
ByLayer
370
-1
48
1
60
0
100
AcDbLine
10
-147.06
20
7.9925
30
0
11
-146.642003
21
11.167502
31
0
39
0
210
0
220
0
230
1
0
LINE
5
11C
100
AcDbEntity
8
SK2
62
256
6
ByLayer
370
-1
48
1
60
0
100
AcDbLine
10
-147.477997
20
11.167498
30
0
11
-146.642003
21
11.167502
31
0
39
0
210
0
220
0
230
1
0
ENDBLK
5
11E
100
AcDbEntity
8
0
100
AcDbBlockEnd
0
BLOCK
5
12B
100
AcDbEntity
8
0
100
AcDbBlockBegin
2
DimnDraft3D3
70
0
10
0
20
0
30
0
3
DimnDraft3D3
0
MTEXT
5
121
100
AcDbEntity
8
SK2
62
256
6
ByLayer
370
-1
48
1
60
0
100
AcDbMText
10
-42.375132
20
-27.025
30
0
210
0
220
0
230
1
1
\W01.000;\fsimplex.shx,bigfont.shx;200.0 
40
4.5
41
0
44
1.084337
50
0
71
7
72
5
7
DEFAULT
0
LINE
5
122
100
AcDbEntity
8
SK2
62
256
6
ByLayer
370
-1
48
1
60
0
100
AcDbLine
10
-137.31
20
-9.9925
30
0
11
-137.31
21
-30.15
31
0
39
0
210
0
220
0
230
1
0
LINE
5
123
100
AcDbEntity
8
SK2
62
256
6
ByLayer
370
-1
48
1
60
0
100
AcDbLine
10
63.94
20
-12.9
30
0
11
63.94
21
-30.15
31
0
39
0
210
0
220
0
230
1
0
LINE
5
124
100
AcDbEntity
8
SK2
62
256
6
ByLayer
370
-1
48
1
60
0
100
AcDbLine
10
-137.31
20
-28.15
30
0
11
63.94
21
-28.15
31
0
39
0
210
0
220
0
230
1
0
LINE
5
125
100
AcDbEntity
8
SK2
62
256
6
ByLayer
370
-1
48
1
60
0
100
AcDbLine
10
-137.31
20
-28.15
30
0
11
-134.135002
21
-27.732003
31
0
39
0
210
0
220
0
230
1
0
LINE
5
126
100
AcDbEntity
8
SK2
62
256
6
ByLayer
370
-1
48
1
60
0
100
AcDbLine
10
-137.31
20
-28.15
30
0
11
-134.134998
21
-28.567997
31
0
39
0
210
0
220
0
230
1
0
LINE
5
127
100
AcDbEntity
8
SK2
62
256
6
ByLayer
370
-1
48
1
60
0
100
AcDbLine
10
-134.135002
20
-27.732003
30
0
11
-134.134998
21
-28.567997
31
0
39
0
210
0
220
0
230
1
0
LINE
5
128
100
AcDbEntity
8
SK2
62
256
6
ByLayer
370
-1
48
1
60
0
100
AcDbLine
10
63.94
20
-28.15
30
0
11
60.765002
21
-28.567997
31
0
39
0
210
0
220
0
230
1
0
LINE
5
129
100
AcDbEntity
8
SK2
62
256
6
ByLayer
370
-1
48
1
60
0
100
AcDbLine
10
63.94
20
-28.15
30
0
11
60.764998
21
-27.732003
31
0
39
0
210
0
220
0
230
1
0
LINE
5
12A
100
AcDbEntity
8
SK2
62
256
6
ByLayer
370
-1
48
1
60
0
100
AcDbLine
10
60.765002
20
-28.567997
30
0
11
60.764998
21
-27.732003
31
0
39
0
210
0
220
0
230
1
0
ENDBLK
5
12C
100
AcDbEntity
8
0
100
AcDbBlockEnd
0
BLOCK
5
139
100
AcDbEntity
8
0
100
AcDbBlockBegin
2
DimnDraft3D4
70
0
10
0
20
0
30
0
3
DimnDraft3D4
0
MTEXT
5
12F
100
AcDbEntity
8
2
62
256
6
ByLayer
370
-1
48
1
60
0
100
AcDbMText
10
77.153241
20
36.215882
30
0
210
0
220
0
230
1
1
\W01.000;\fsimplex.shx,bigfont.shx;107%%d30' 
40
4.5
41
0
44
1.084337
50
323.75
71
7
72
5
7
DEFAULT
0
LINE
5
130
100
AcDbEntity
8
2
62
256
6
ByLayer
370
-1
48
1
60
0
100
AcDbLine
10
61.233648
20
-2.316547
30
0
11
48.497141
21
38.078491
31
0
39
0
210
0
220
0
230
1
0
LINE
5
131
100
AcDbEntity
8
2
62
256
6
ByLayer
370
-1
48
1
60
0
100
AcDbLine
10
65.94
20
0
30
0
11
100.42965
21
0
31
0
39
0
210
0
220
0
230
1
0
ARC
5
132
100
AcDbEntity
8
2
62
256
6
ByLayer
370
-1
48
1
60
0
100
AcDbCircle
39
0
10
60.503243
20
0
30
0
40
37.9264068640927
210
0
220
0
230
1
100
AcDbArc
50
0
51
107.5
0
LINE
5
133
100
AcDbEntity
8
2
62
256
6
ByLayer
370
-1
48
1
60
0
100
AcDbLine
10
49.098553
20
36.171057
30
0
11
52.02858
21
37.463449
31
0
39
0
210
0
220
0
230
1
0
LINE
5
134
100
AcDbEntity
8
2
62
256
6
ByLayer
370
-1
48
1
60
0
100
AcDbLine
10
49.098553
20
36.171057
30
0
11
52.26324
21
36.661066
31
0
39
0
210
0
220
0
230
1
0
LINE
5
135
100
AcDbEntity
8
2
62
256
6
ByLayer
370
-1
48
1
60
0
100
AcDbLine
10
52.02858
20
37.463449
30
0
11
52.26324
21
36.661066
31
0
39
0
210
0
220
0
230
1
0
LINE
5
136
100
AcDbEntity
8
2
62
256
6
ByLayer
370
-1
48
1
60
0
100
AcDbLine
10
98.42965
20
0
30
0
11
97.94534
21
3.165562
31
0
39
0
210
0
220
0
230
1
0
LINE
5
137
100
AcDbEntity
8
2
62
256
6
ByLayer
370
-1
48
1
60
0
100
AcDbLine
10
98.42965
20
0
30
0
11
98.78115
21
3.183049
31
0
39
0
210
0
220
0
230
1
0
LINE
5
138
100
AcDbEntity
8
2
62
256
6
ByLayer
370
-1
48
1
60
0
100
AcDbLine
10
97.94534
20
3.165562
30
0
11
98.78115
21
3.183049
31
0
39
0
210
0
220
0
230
1
0
ENDBLK
5
13A
100
AcDbEntity
8
0
100
AcDbBlockEnd
0
ENDSEC
0
SECTION
2
ENTITIES
0
ELLIPSE
5
87
100
AcDbEntity
8
1
62
256
6
ByLayer
370
-1
48
1
60
0
100
AcDbEllipse
10
55.059675
20
-2.883622
30
0
11
-1.19214618843528
21
-0.37588224938034
31
0
210
0
220
0
230
1
40
0.996412
41
0.0732354454630158
42
0.959931088596889
0
ELLIPSE
5
88
100
AcDbEntity
8
1
62
256
6
ByLayer
370
-1
48
1
60
0
100
AcDbEllipse
10
89.444297
20
-0.007125
30
0
11
313.78422420229
21
0.644665366358669
31
0
210
0
220
0
230
-1
40
0.025366
41
1.68830270301855
42
1.69117134583215
0
ELLIPSE
5
89
100
AcDbEntity
8
1
62
256
6
ByLayer
370
-1
48
1
60
0
100
AcDbEllipse
10
54.968887
20
-1.823403
30
0
11
-1.00140279828564
21
-0.315741089479486
31
0
210
0
220
0
230
1
40
0.996412
41
2.74200189746919
42
2.78398620744039
0
ELLIPSE
5
8A
100
AcDbEntity
8
1
62
256
6
ByLayer
370
-1
48
1
60
0
100
AcDbEllipse
10
54.968887
20
-1.823403
30
0
11
-1.00140279828564
21
-0.315741089479486
31
0
210
0
220
0
230
1
40
0.996412
41
0.0889120777820911
42
1.19431371025194
0
ELLIPSE
5
8B
100
AcDbEntity
8
1
62
256
6
ByLayer
370
-1
48
1
60
0
100
AcDbEllipse
10
55.023687
20
-1.997206
30
0
11
1.00140279828562
21
0.315741089479541
31
0
210
0
220
0
230
1
40
0.996412
41
-0.263164752213202
42
-3.05268057580775
0
ELLIPSE
5
8C
100
AcDbEntity
8
1
62
256
6
ByLayer
370
-1
48
1
60
0
100
AcDbEllipse
10
54.957434
20
-1.787078
30
0
11
-1.00140279828564
21
-0.315741089479486
31
0
210
0
220
0
230
1
40
0.996412
41
2.71162397538929
42
2.83512827222726
0
ELLIPSE
5
8D
100
AcDbEntity
8
1
62
256
6
ByLayer
370
-1
48
1
60
0
100
AcDbEllipse
10
54.957434
20
-1.787078
30
0
11
-1.00140279828564
21
-0.315741089479486
31
0
210
0
220
0
230
1
40
0.996412
41
0.105476224374724
42
1.19423418051338
0
ELLIPSE
5
8E
100
AcDbEntity
8
1
62
256
6
ByLayer
370
-1
48
1
60
0
100
AcDbEllipse
10
54.957434
20
-1.787078
30
0
11
-1.00140279828564
21
-0.315741089479486
31
0
210
0
220
0
230
1
40
0.996412
41
2.83512731673022
42
3.03618968739085
0
ELLIPSE
5
8F
100
AcDbEntity
8
1
62
256
6
ByLayer
370
-1
48
1
60
0
100
AcDbEllipse
10
89.481192
20
0.000807
30
0
11
310.9965016934
21
0.639860911273471
31
0
210
0
220
0
230
-1
40
0.025378
41
1.68377268856199
42
1.68923718905579
0
ELLIPSE
5
90
100
AcDbEntity
8
1
62
256
6
ByLayer
370
-1
48
1
60
0
100
AcDbEllipse
10
55.114475
20
-3.057425
30
0
11
-1.19214618843528
21
-0.37588224938034
31
0
210
0
220
0
230
1
40
0.996412
41
-0.862027290779796
42
0.959931088596799
0
ELLIPSE
5
91
100
AcDbEntity
8
1
62
256
6
ByLayer
370
-1
48
1
60
0
100
AcDbEllipse
10
57.044318
20
-12.629157
30
0
11
-4.00561119314257
21
-1.26296435791795
31
0
210
0
220
0
230
1
40
0.996412
41
-1.78284305049759
42
-1.69933334294812
0
ELLIPSE
5
92
100
AcDbEntity
8
1
62
256
6
ByLayer
370
-1
48
1
60
0
100
AcDbEllipse
10
65.686998
20
-4.011863
30
0
11
-4.0056111931425
21
-1.26296435791792
31
0
210
0
220
0
230
1
40
0.996412
41
-0.439975954790972
42
-0.391928592698344
0
ELLIPSE
5
93
100
AcDbEntity
8
1
62
256
6
ByLayer
370
-1
48
1
60
0
100
AcDbEllipse
10
59.274922
20
-6.205684
30
0
11
1.74030418959473
21
0.548715803260342
31
0
210
0
220
0
230
1
40
0.996412
41
0
42
6.28318530717959
0
ELLIPSE
5
94
100
AcDbEntity
8
1
62
256
6
ByLayer
370
-1
48
1
60
0
100
AcDbEllipse
10
59.278648
20
-6.217499
30
0
11
1.78821928265289
21
0.563823374070607
31
0
210
0
220
0
230
1
40
0.996412
41
2.83512754604949
42
-9.50801791173535E-16
0
ELLIPSE
5
95
100
AcDbEntity
8
1
62
256
6
ByLayer
370
-1
48
1
60
0
100
AcDbEllipse
10
59.278648
20
-6.217499
30
0
11
1.78821928265289
21
0.563823374070607
31
0
210
0
220
0
230
1
40
0.996412
41
0
42
0.966959771905531
0
ELLIPSE
5
96
100
AcDbEntity
8
1
62
256
6
ByLayer
370
-1
48
1
60
0
100
AcDbEllipse
10
59.278648
20
-6.217499
30
0
11
1.78821928265289
21
0.563823374070607
31
0
210
0
220
0
230
1
40
0.996412
41
2.17450975789524
42
2.8351275460495
0
ELLIPSE
5
97
100
AcDbEntity
8
1
62
256
6
ByLayer
370
-1
48
1
60
0
100
AcDbEllipse
10
61.510907
20
-4.058639
30
0
11
0.378506414828196
21
0.119342614178279
31
0
210
0
220
0
230
1
40
0.996412
41
0
42
0.959931088596877
0
ELLIPSE
5
98
100
AcDbEntity
8
1
62
256
6
ByLayer
370
-1
48
1
60
0
100
AcDbEllipse
10
57.078457
20
-8.478069
30
0
11
0.378506414828196
21
0.119342614178279
31
0
210
0
220
0
230
1
40
0.996412
41
-3.14159265358976
42
-2.18166156499285
0
ELLIPSE
5
99
100
AcDbEntity
8
1
62
256
6
ByLayer
370
-1
48
1
60
0
100
AcDbEllipse
10
63.543254
20
-10.50442
30
0
11
0.378506414828236
21
0.119342614178292
31
0
210
0
220
0
230
1
40
0.996412
41
-2.18166156499291
42
7.18716314587786E-14
0
ELLIPSE
5
9A
100
AcDbEntity
8
1
62
256
6
ByLayer
370
-1
48
1
60
0
100
AcDbEllipse
10
55.04611
20
-2.032287
30
0
11
0.378506414828236
21
0.119342614178292
31
0
210
0
220
0
230
1
40
0.996412
41
0.959931088596864
42
3.14159265358972
0
ELLIPSE
5
9B
100
AcDbEntity
8
1
62
256
6
ByLayer
370
-1
48
1
60
0
100
AcDbEllipse
10
59.294682
20
-6.268354
30
0
11
1.83023422574614
21
0.577070634742731
31
0
210
0
220
0
230
1
40
0.996412
41
0
42
6.28318530717959
0
ELLIPSE
5
9C
100
AcDbEntity
8
1
62
256
6
ByLayer
370
-1
48
1
60
0
100
AcDbEllipse
10
59.289507
20
-6.251941
30
0
11
0.713380279159665
21
0.224927938029236
31
0
210
0
220
0
230
1
40
0.996412
41
0.442234192381942
42
0.517696896214944
0
ELLIPSE
5
9D
100
AcDbEntity
8
1
62
256
6
ByLayer
370
-1
48
1
60
0
100
AcDbEllipse
10
59.293724
20
-6.265317
30
0
11
0.98709704402441
21
0.31123050248698
31
0
210
0
220
0
230
1
40
0.996412
41
3.09710144263007
42
-2.13717035403307
0
ELLIPSE
5
9E
100
AcDbEntity
8
1
62
256
6
ByLayer
370
-1
48
1
60
0
100
AcDbEllipse
10
59.048207
20
-7.003366
30
0
11
-0.176437635888422
21
-0.0556305729082904
31
0
210
0
220
0
230
1
40
0.996412
41
0.203184409792709
42
2.30249181317737
0
ELLIPSE
5
9F
100
AcDbEntity
8
1
62
256
6
ByLayer
370
-1
48
1
60
0
100
AcDbEllipse
10
59.293724
20
-6.265317
30
0
11
0.98709704402441
21
0.31123050248698
31
0
210
0
220
0
230
1
40
0.996412
41
-1.09083078249644
42
-0.0444912109597159
0
ELLIPSE
5
A0
100
AcDbEntity
8
1
62
256
6
ByLayer
370
-1
48
1
60
0
100
AcDbEllipse
10
59.268273
20
-6.184595
30
0
11
0.713380279159671
21
0.224927938029238
31
0
210
0
220
0
230
1
40
0.996412
41
-2.69935846120812
42
-2.62389575737459
0
ELLIPSE
5
A1
100
AcDbEntity
8
1
62
256
6
ByLayer
370
-1
48
1
60
0
100
AcDbEllipse
10
58.447088
20
-6.404016
30
0
11
-0.176437635888422
21
-0.0556305729082904
31
0
210
0
220
0
230
1
40
0.996412
41
0.217818607457078
42
1.25705174419014
0
ELLIPSE
5
A2
100
AcDbEntity
8
1
62
256
6
ByLayer
370
-1
48
1
60
0
100
AcDbEllipse
10
59.8685
20
-6.783055
30
0
11
-0.176437635888422
21
-0.0556305729082904
31
0
210
0
220
0
230
1
40
0.996412
41
0.75269235747245
42
2.89913088643605
0
ELLIPSE
5
A3
100
AcDbEntity
8
1
62
256
6
ByLayer
370
-1
48
1
60
0
100
AcDbEllipse
10
59.293724
20
-6.265317
30
0
11
0.98709704402441
21
0.31123050248698
31
0
210
0
220
0
230
1
40
0.996412
41
1.00442229955663
42
2.05076187109336
0
ELLIPSE
5
A4
100
AcDbEntity
8
1
62
256
6
ByLayer
370
-1
48
1
60
0
100
AcDbEllipse
10
60.089458
20
-5.965174
30
0
11
-0.176437635888422
21
-0.0556305729082904
31
0
210
0
220
0
230
1
40
0.996412
41
1.79903192900903
42
2.94261675368037
0
ELLIPSE
5
A5
100
AcDbEntity
8
1
62
256
6
ByLayer
370
-1
48
1
60
0
100
AcDbEllipse
10
59.570315
20
-7.310598
30
0
11
-0.402468553215752
21
-0.126897847390803
31
0
210
0
220
0
230
1
40
0.996412
41
-1.61400056826488
42
-0.839100840412341
0
ELLIPSE
5
A6
100
AcDbEntity
8
1
62
256
6
ByLayer
370
-1
48
1
60
0
100
AcDbEllipse
10
59.268273
20
-6.184595
30
0
11
-0.713380279159683
21
-0.224927938029199
31
0
210
0
220
0
230
1
40
0.996412
41
0.517696896215147
42
1.52759208532502
0
ELLIPSE
5
A7
100
AcDbEntity
8
1
62
256
6
ByLayer
370
-1
48
1
60
0
100
AcDbEllipse
10
59.293724
20
-6.265317
30
0
11
0.98709704402441
21
0.31123050248698
31
0
210
0
220
0
230
1
40
0.996412
41
-2.13717035403307
42
-1.09083078249644
0
ELLIPSE
5
A8
100
AcDbEntity
8
1
62
256
6
ByLayer
370
-1
48
1
60
0
100
AcDbEllipse
10
58.44142
20
-7.009019
30
0
11
-0.402468553215752
21
-0.126897847390803
31
0
210
0
220
0
230
1
40
0.996412
41
-3.1415831590531
42
-2.72854043160702
0
ELLIPSE
5
A9
100
AcDbEntity
8
1
62
256
6
ByLayer
370
-1
48
1
60
0
100
AcDbEllipse
10
59.268273
20
-6.184595
30
0
11
-0.713380279159683
21
-0.224927938029199
31
0
210
0
220
0
230
1
40
0.996412
41
-1.36266654878142
42
-0.672033205910308
0
ELLIPSE
5
AA
100
AcDbEntity
8
1
62
256
6
ByLayer
370
-1
48
1
60
0
100
AcDbEllipse
10
60.397597
20
-6.485745
30
0
11
-0.402468553215752
21
-0.126897847390803
31
0
210
0
220
0
230
1
40
0.996412
41
-1.34256072458056
42
-0.567660996728196
0
ELLIPSE
5
AB
100
AcDbEntity
8
1
62
256
6
ByLayer
370
-1
48
1
60
0
100
AcDbEllipse
10
59.268273
20
-6.184595
30
0
11
-0.713380279159683
21
-0.224927938029199
31
0
210
0
220
0
230
1
40
0.996412
41
-2.55033176819137
42
-1.85233686044421
0
ELLIPSE
5
AC
100
AcDbEntity
8
1
62
256
6
ByLayer
370
-1
48
1
60
0
100
AcDbEllipse
10
60.397597
20
-6.485745
30
0
11
-0.402468553215752
21
-0.126897847390803
31
0
210
0
220
0
230
1
40
0.996412
41
-0.567660996728196
42
-9.58390439239747E-06
0
ELLIPSE
5
AD
100
AcDbEntity
8
1
62
256
6
ByLayer
370
-1
48
1
60
0
100
AcDbEllipse
10
59.289507
20
-6.251941
30
0
11
0.713380279159665
21
0.224927938029236
31
0
210
0
220
0
230
1
40
0.996412
41
-2.69935846120805
42
-2.6238957573747
0
ELLIPSE
5
AE
100
AcDbEntity
8
1
62
256
6
ByLayer
370
-1
48
1
60
0
100
AcDbEllipse
10
59.268273
20
-6.184595
30
0
11
0.713380279159671
21
0.224927938029238
31
0
210
0
220
0
230
1
40
0.996412
41
-1.61400056826474
42
-0.567660996728103
0
ELLIPSE
5
AF
100
AcDbEntity
8
1
62
256
6
ByLayer
370
-1
48
1
60
0
100
AcDbEllipse
10
59.270818
20
-6.192667
30
0
11
1.64516174004068
21
0.518717504144964
31
0
210
0
220
0
230
1
40
0.996412
41
2.83512773216374
42
-3.14155622325235
0
ELLIPSE
5
B0
100
AcDbEntity
8
1
62
256
6
ByLayer
370
-1
48
1
60
0
100
AcDbEllipse
10
59.270818
20
-6.192667
30
0
11
1.64516174004068
21
0.518717504144964
31
0
210
0
220
0
230
1
40
0.996412
41
0
42
2.83512759626342
0
ELLIPSE
5
B1
100
AcDbEntity
8
1
62
256
6
ByLayer
370
-1
48
1
60
0
100
AcDbEllipse
10
59.293724
20
-6.265317
30
0
11
0.98709704402441
21
0.31123050248698
31
0
210
0
220
0
230
1
40
0.996412
41
-0.0444912109597159
42
1.00442229955663
0
ELLIPSE
5
B2
100
AcDbEntity
8
1
62
256
6
ByLayer
370
-1
48
1
60
0
100
AcDbEllipse
10
59.268273
20
-6.184595
30
0
11
-0.713380279159683
21
-0.224927938029199
31
0
210
0
220
0
230
1
40
0.996412
41
-0.339220053396052
42
0.442234192381669
0
ELLIPSE
5
B3
100
AcDbEntity
8
1
62
256
6
ByLayer
370
-1
48
1
60
0
100
AcDbEllipse
10
59.268273
20
-6.184595
30
0
11
-0.713380279159683
21
-0.224927938029199
31
0
210
0
220
0
230
1
40
0.996412
41
2.57393165686167
42
-2.85290921252317
0
ELLIPSE
5
B4
100
AcDbEntity
8
1
62
256
6
ByLayer
370
-1
48
1
60
0
100
AcDbEllipse
10
59.570315
20
-7.310598
30
0
11
-0.402468553215752
21
-0.126897847390803
31
0
210
0
220
0
230
1
40
0.996412
41
-2.38890029611714
42
-1.61400056826488
0
ELLIPSE
5
B5
100
AcDbEntity
8
1
62
256
6
ByLayer
370
-1
48
1
60
0
100
AcDbEllipse
10
59.289298
20
-6.251277
30
0
11
1.64516174004066
21
0.518717504144961
31
0
210
0
220
0
230
1
40
0.996412
41
0
42
6.28318530717959
0
ELLIPSE
5
B6
100
AcDbEntity
8
1
62
256
6
ByLayer
370
-1
48
1
60
0
100
AcDbEllipse
10
58.44142
20
-7.009019
30
0
11
-0.402468553215752
21
-0.126897847390803
31
0
210
0
220
0
230
1
40
0.996412
41
-2.59471378697566
42
-1.88454090939957
0
ELLIPSE
5
B7
100
AcDbEntity
8
1
62
256
6
ByLayer
370
-1
48
1
60
0
100
AcDbEllipse
10
59.293724
20
-6.265317
30
0
11
1.2398320359727
21
0.39091753935563
31
0
210
0
220
0
230
1
40
0.996412
41
0
42
6.28318530717959
0
ELLIPSE
5
B8
100
AcDbEntity
8
1
62
256
6
ByLayer
370
-1
48
1
60
0
100
AcDbEllipse
10
59.293724
20
-6.265317
30
0
11
0.98709704402441
21
0.31123050248698
31
0
210
0
220
0
230
1
40
0.996412
41
2.05076187109336
42
3.09710144263007
0
ELLIPSE
5
B9
100
AcDbEntity
8
1
62
256
6
ByLayer
370
-1
48
1
60
0
100
AcDbEllipse
10
60.095126
20
-5.360171
30
0
11
-0.402468553215752
21
-0.126897847390803
31
0
210
0
220
0
230
1
40
0.996412
41
-0.297120655593509
42
9.46068843505331E-06
0
POINT
5
41
100
AcDbEntity
8
80
62
256
6
ByLayer
370
-1
48
1
60
0
100
AcDbPoint
10
0
20
0
30
0
39
0
210
0
220
0
230
1
50
360
0
POINT
5
43
100
AcDbEntity
8
81
62
256
6
ByLayer
370
-1
48
1
60
0
100
AcDbPoint
10
63.94
20
-10.9
30
0
39
0
210
0
220
0
230
1
50
360
0
POINT
5
45
100
AcDbEntity
8
1
62
256
6
ByLayer
370
-1
48
1
60
0
100
AcDbPoint
10
-137.31
20
0
30
0
39
0
210
0
220
0
230
1
50
360
0
POINT
5
47
100
AcDbEntity
8
2
62
256
6
ByLayer
370
-1
48
1
60
0
100
AcDbPoint
10
63.94
20
10.9
30
0
39
0
210
0
220
0
230
1
50
360
0
POINT
5
49
100
AcDbEntity
8
2
62
256
6
ByLayer
370
-1
48
1
60
0
100
AcDbPoint
10
63.591105
20
10.001474
30
0
39
0
210
0
220
0
230
1
50
360
0
SPLINE
5
BA
100
AcDbEntity
8
1
62
256
6
ByLayer
370
-1
48
1
60
0
100
AcDbSpline
70
4
71
3
72
10
73
6
40
0
40
0
40
0
40
0
40
0.5
40
0.5
40
1
40
1
40
1
40
1
41
1
10
51.5739104601561
20
7.65092215347613
30
0
41
1
10
49.377138969383
20
7.41983976653759
30
0
41
1
10
47.3918920921973
20
6.9083542033751
30
0
41
1
10
44.2633224448101
20
4.42726451102394
30
0
41
1
10
43.1392039188623
20
2.43342459905688
30
0
41
1
10
42.4255945758858
20
0.208217351629145
30
0
0
SPLINE
5
BB
100
AcDbEntity
8
1
62
256
6
ByLayer
370
-1
48
1
60
0
100
AcDbSpline
70
4
71
3
72
28
73
24
40
-0.125000000000002
40
-0.125000000000002
40
0
40
0
40
0.124999999999998
40
0.124999999999998
40
0.187499999999998
40
0.187499999999998
40
0.249999999999997
40
0.249999999999997
40
0.374999999999995
40
0.374999999999995
40
0.499999999999994
40
0.499999999999994
40
0.624999999999992
40
0.624999999999992
40
0.687499999999994
40
0.687499999999994
40
0.718749999999995
40
0.718749999999995
40
0.749999999999996
40
0.749999999999996
40
0.874999999999998
40
0.874999999999998
40
1
40
1
40
1.125
40
1.125
41
1
10
47.4984967712714
20
-2.1693143198311
30
0
41
1
10
46.5149811753457
20
-1.73567794535202
30
0
41
1
10
46.0033391158459
20
-1.60129197847914
30
0
41
1
10
45.2415813857335
20
-1.80593834253193
30
0
41
1
10
44.9934373545611
20
-1.95341645898714
30
0
41
1
10
44.6309858889339
20
-2.44474687354162
30
0
41
1
10
44.5403831372399
20
-2.77484178378683
30
0
41
1
10
44.5715864223735
20
-3.67175278948335
30
0
41
1
10
44.9150890887956
20
-4.11243218601899
30
0
41
1
10
45.7320120062789
20
-4.71515479254444
30
0
41
1
10
46.235002125018
20
-4.90334058024933
30
0
41
1
10
47.3027716019211
20
-5.14101896071179
30
0
41
1
10
47.8846366225079
20
-5.19962996210037
30
0
41
1
10
48.7750324878012
20
-5.14251512921993
30
0
41
1
10
49.0781248666846
20
-5.11200617297487
30
0
41
1
10
49.4987628075301
20
-4.90044569467725
30
0
41
1
10
49.6298806487372
20
-4.78317922184874
30
0
41
1
10
49.69855024862
20
-4.47264209889485
30
0
41
1
10
49.6477088181887
20
-4.31351531438222
30
0
41
1
10
49.3227922547474
20
-3.62158011178835
30
0
41
1
10
48.8599732754217
20
-3.21648653388033
30
0
41
1
10
47.9692805476034
20
-2.48016351234926
30
0
41
1
10
47.4984967712714
20
-2.1693143198311
30
0
41
1
10
46.5149811753457
20
-1.73567794535202
30
0
0
SPLINE
5
BC
100
AcDbEntity
8
1
62
256
6
ByLayer
370
-1
48
1
60
0
100
AcDbSpline
70
4
71
3
72
8
73
4
40
0
40
0
40
0
40
0
40
1
40
1
40
1
40
1
41
1
10
54.4367677421496
20
-7.91342578878073
30
0
41
1
10
55.0610090480258
20
-8.11217149594557
30
0
41
1
10
55.6853318639548
20
-8.31066426847414
30
0
41
1
10
56.3097197981182
20
-8.50895420042173
30
0
0
SPLINE
5
BD
100
AcDbEntity
8
1
62
256
6
ByLayer
370
-1
48
1
60
0
100
AcDbSpline
70
4
71
3
72
8
73
4
40
0
40
0
40
0
40
0
40
1
40
1
40
1
40
1
41
1
10
52.7486828391361
20
-7.91191976748397
30
0
41
1
10
52.7236833530349
20
-7.93698918934325
30
0
41
1
10
52.6986833481702
20
-7.96205809694627
30
0
41
1
10
52.6736828391361
20
-7.98712650469886
30
0
0
SPLINE
5
BE
100
AcDbEntity
8
1
62
256
6
ByLayer
370
-1
48
1
60
0
100
AcDbSpline
70
4
71
3
72
12
73
8
40
0
40
0
40
0
40
0
40
0.275858516750948
40
0.275858516750948
40
0.676037064350815
40
0.676037064350815
40
1
40
1
40
1
40
1
41
1
10
42.4255945758859
20
0.208217351629145
30
0
41
1
10
42.4212177224248
20
0.170079293336272
30
0
41
1
10
42.4143668530549
20
0.130497794617583
30
0
41
1
10
42.3924109914586
20
0.0338296934182551
30
0
41
1
10
42.3746855556331
20
-0.0242392044566486
30
0
41
1
10
42.3371123526059
20
-0.123968905919867
30
0
41
1
10
42.3180818833236
20
-0.167374224899305
30
0
41
1
10
42.2977426633078
20
-0.208217351629457
30
0
0
SPLINE
5
BF
100
AcDbEntity
8
1
62
256
6
ByLayer
370
-1
48
1
60
0
100
AcDbSpline
70
4
71
3
72
8
73
4
40
0
40
0
40
0
40
0
40
1
40
1
40
1
40
1
41
1
10
56.2799049457103
20
-8.50095839949282
30
0
41
1
10
56.2888692069219
20
-8.50379773536301
30
0
41
1
10
56.2988075364094
20
-8.50646151806242
30
0
41
1
10
56.3097197981182
20
-8.50895420042173
30
0
0
SPLINE
5
C0
100
AcDbEntity
8
1
62
256
6
ByLayer
370
-1
48
1
60
0
100
AcDbSpline
70
4
71
3
72
14
73
10
40
0
40
0
40
0
40
0
40
0.25
40
0.25
40
0.5
40
0.5
40
0.75
40
0.75
40
1
40
1
40
1
40
1
41
1
10
42.2977426633078
20
-0.208217351629457
30
0
41
1
10
41.8723747009921
20
-1.65786662900231
30
0
41
1
10
41.6134461333739
20
-3.19607212260522
30
0
41
1
10
41.9005736176125
20
-5.70716096472208
30
0
41
1
10
42.5253494997533
20
-6.64192204371037
30
0
41
1
10
44.561156048277
20
-7.65897592452248
30
0
41
1
10
45.9043133384816
20
-7.82264404480307
30
0
41
1
10
48.7384556183211
20
-7.98546871531988
30
0
41
1
10
50.248096575527
20
-7.98470062679385
30
0
41
1
10
51.7799022711782
20
-7.98625344901629
30
0
0
SPLINE
5
C1
100
AcDbEntity
8
1
62
256
6
ByLayer
370
-1
48
1
60
0
100
AcDbSpline
70
4
71
3
72
12
73
8
40
0
40
0
40
0
40
0
40
0.399396463116587
40
0.399396463116587
40
0.792169474758166
40
0.792169474758166
40
1
40
1
40
1
40
1
41
1
10
58.4690743328321
20
-6.66361725516961
30
0
41
1
10
58.505983595566
20
-6.66233019868685
30
0
41
1
10
58.5438803888699
20
-6.66614355071391
30
0
41
1
10
58.6176987040713
20
-6.68504057947374
30
0
41
1
10
58.6544950668099
20
-6.70027523348284
30
0
41
1
10
58.7067160666758
20
-6.73237290781773
30
0
41
1
10
58.7242454843574
20
-6.74519505852905
30
0
41
1
10
58.7406703730728
20
-6.75943330134703
30
0
0
SPLINE
5
C2
100
AcDbEntity
8
1
62
256
6
ByLayer
370
-1
48
1
60
0
100
AcDbSpline
70
4
71
3
72
14
73
10
40
0
40
0
40
0
40
0
40
0.257838624942267
40
0.257838624942267
40
0.548392673223417
40
0.548392673223417
40
0.811353248286472
40
0.811353248286472
40
1
40
1
40
1
40
1
41
1
10
58.5305107596267
20
-5.75198454926863
30
0
41
1
10
58.521372810405
20
-5.73612919799655
30
0
41
1
10
58.5146214818372
20
-5.71829264374713
30
0
41
1
10
58.5069372415963
20
-5.67845600430667
30
0
41
1
10
58.5067805649472
20
-5.65556210673401
30
0
41
1
10
58.5150108738559
20
-5.61286601234232
30
0
41
1
10
58.5227510079274
20
-5.59233597272822
30
0
41
1
10
58.5418160133721
20
-5.56040188063588
30
0
41
1
10
58.5516715729355
20
-5.54775844904995
30
0
41
1
10
58.5628595934086
20
-5.53660329154096
30
0
0
SPLINE
5
C3
100
AcDbEntity
8
1
62
256
6
ByLayer
370
-1
48
1
60
0
100
AcDbSpline
70
4
71
3
72
18
73
14
40
0
40
0
40
0
40
0
40
0.20599405200365
40
0.20599405200365
40
0.382892717646176
40
0.382892717646176
40
0.561516138786067
40
0.561516138786067
40
0.716690074828499
40
0.716690074828499
40
0.921615087515497
40
0.921615087515497
40
1
40
1
40
1
40
1
41
1
10
60.0534791365051
20
-6.76767855568153
30
0
41
1
10
60.0324446107184
20
-6.72960452507167
30
0
41
1
10
60.0162853388366
20
-6.6873640885951
30
0
41
1
10
59.9987618528452
20
-6.60490861559541
30
0
41
1
10
59.9955333067728
20
-6.56429350461255
30
0
41
1
10
60.0009808998927
20
-6.48361206649557
30
0
41
1
10
60.0099775520336
20
-6.44237781486652
30
0
41
1
10
60.0370956245751
20
-6.37205466419456
30
0
41
1
10
60.0541360661896
20
-6.34121633999379
30
0
41
1
10
60.1001175414327
20
-6.27844834262646
30
0
41
1
10
60.1317888015828
20
-6.24815096204463
30
0
41
1
10
60.1792921945699
20
-6.21496599509959
30
0
41
1
10
60.1930175497394
20
-6.20657680296284
30
0
41
1
10
60.2070936686772
20
-6.19906896682505
30
0
0
SPLINE
5
C4
100
AcDbEntity
8
1
62
256
6
ByLayer
370
-1
48
1
60
0
100
AcDbSpline
70
4
71
3
72
20
73
16
40
0
40
0
40
0
40
0
40
0.0851304465067951
40
0.0851304465067951
40
0.286581872390058
40
0.286581872390058
40
0.450285447535177
40
0.450285447535177
40
0.614765748868969
40
0.614765748868969
40
0.769389151130728
40
0.769389151130728
40
0.989392635104059
40
0.989392635104059
40
1
40
1
40
1
40
1
41
1
10
58.5305107596268
20
-5.75198454926854
30
0
41
1
10
58.5387827596247
20
-5.766337382985
30
0
41
1
10
58.546207745732
20
-5.78138294601123
30
0
41
1
10
58.5679043596636
20
-5.83389864688661
30
0
41
1
10
58.5779886124483
20
-5.87487635431478
30
0
41
1
10
58.5838619914289
20
-5.95267744111052
30
0
41
1
10
58.581943962127
20
-5.98972141154988
30
0
41
1
10
58.5682634187543
20
-6.06269157009962
30
0
41
1
10
58.5562354828581
20
-6.09955226997801
30
0
41
1
10
58.5252079031754
20
-6.16529760319781
30
0
41
1
10
58.5063643606235
20
-6.19532126002238
30
0
41
1
10
58.4553254085017
20
-6.2596995197851
30
0
41
1
10
58.4200353846265
20
-6.29178065863789
30
0
41
1
10
58.3805889114447
20
-6.31818192772076
30
0
41
1
10
58.3787458509251
20
-6.31939567898445
30
0
41
1
10
58.3768962274552
20
-6.32059413812598
30
0
0
SPLINE
5
C5
100
AcDbEntity
8
1
62
256
6
ByLayer
370
-1
48
1
60
0
100
AcDbSpline
70
4
71
3
72
12
73
8
40
0
40
0
40
0
40
0
40
0.459447906946605
40
0.459447906946605
40
0.841689834223461
40
0.841689834223461
40
1
40
1
40
1
40
1
41
1
10
60.1148986972439
20
-5.85599235749976
30
0
41
1
10
60.0713454836901
20
-5.85388896293361
30
0
41
1
10
60.0264464729391
20
-5.84522601981567
30
0
41
1
10
59.9468433400889
20
-5.81651047262756
30
0
41
1
10
59.9108265073514
20
-5.79820581357748
30
0
41
1
10
59.8641940368964
20
-5.76582476514838
30
0
41
1
10
59.8509304723751
20
-5.75547847905375
30
0
41
1
10
59.8383439954522
20
-5.74444944610588
30
0
0
SPLINE
5
C6
100
AcDbEntity
8
1
62
256
6
ByLayer
370
-1
48
1
60
0
100
AcDbSpline
70
4
71
3
72
14
73
10
40
0
40
0
40
0
40
0
40
0.048814474831287
40
0.048814474831287
40
0.385605280526118
40
0.385605280526118
40
0.832543093142431
40
0.832543093142431
40
1
40
1
40
1
40
1
41
1
10
59.7984940562186
20
-5.70471680073729
30
0
41
1
10
59.7950943400633
20
-5.70085523306886
30
0
41
1
10
59.7917712035189
20
-5.69694045665685
30
0
41
1
10
59.7663551315031
20
-5.66588286783764
30
0
41
1
10
59.7478600946674
20
-5.63626121557422
30
0
41
1
10
59.7153163847233
20
-5.56659089718838
30
0
41
1
10
59.7039927805696
20
-5.52513827263533
30
0
41
1
10
59.6976917935289
20
-5.46953753566763
30
0
41
1
10
59.6968951249573
20
-5.45435263335551
30
0
41
1
10
59.6969873219488
20
-5.43931105786308
30
0
0
SPLINE
5
C7
100
AcDbEntity
8
1
62
256
6
ByLayer
370
-1
48
1
60
0
100
AcDbSpline
70
4
71
3
72
18
73
14
40
0
40
0
40
0
40
0
40
0.205976965663189
40
0.205976965663189
40
0.382878661193697
40
0.382878661193697
40
0.56150531162144
40
0.56150531162144
40
0.716679892401149
40
0.716679892401149
40
0.921601924261731
40
0.921601924261731
40
1
40
1
40
1
40
1
41
1
10
59.2310559496173
20
-7.17223973612445
30
0
41
1
10
59.2518266849051
20
-7.13456343597895
30
0
41
1
10
59.2787475550105
20
-7.09902300892804
30
0
41
1
10
59.3390430471572
20
-7.04190586323597
30
0
41
1
10
59.3717330473532
20
-7.01849748450502
30
0
41
1
10
59.4433769981995
20
-6.98240658836502
30
0
41
1
10
59.4835118348796
20
-6.96941528303668
30
0
41
1
10
59.5586557799556
20
-6.9576019821815
30
0
41
1
10
59.5945321483313
20
-6.9569430768525
30
0
41
1
10
59.6738866948876
20
-6.96550510025952
30
0
41
1
10
59.7174943567359
20
-6.97794284734044
30
0
41
1
10
59.7723078135818
20
-7.00276922228366
30
0
41
1
10
59.7871111177103
20
-7.01054729127392
30
0
41
1
10
59.8013419206437
20
-7.01907516007358
30
0
0
SPLINE
5
C8
100
AcDbEntity
8
1
62
256
6
ByLayer
370
-1
48
1
60
0
100
AcDbSpline
70
4
71
3
72
16
73
12
40
0
40
0
40
0
40
0
40
0.190760625651712
40
0.190760625651712
40
0.489057030483345
40
0.489057030483345
40
0.758643644741304
40
0.758643644741304
40
0.998924336633543
40
0.998924336633543
40
1
40
1
40
1
40
1
41
1
10
60.114898697245
20
-5.85599235749802
30
0
41
1
10
60.1293268893898
20
-5.85668916442592
30
0
41
1
10
60.1439816713484
20
-5.85902386789178
30
0
41
1
10
60.1806625127468
20
-5.86929590822106
30
0
41
1
10
60.2028464585615
20
-5.87990982397559
30
0
41
1
10
60.2400423858808
20
-5.90738993194896
30
0
41
1
10
60.256084916418
20
-5.92401341470986
30
0
41
1
10
60.27971563391
20
-5.95950880242833
30
0
41
1
10
60.2883542467516
20
-5.9784590199792
30
0
41
1
10
60.2935902826176
20
-5.99796282960418
30
0
41
1
10
60.2936139341389
20
-5.99805119359613
30
0
41
1
10
60.2936375188144
20
-5.99813957258161
30
0
0
SPLINE
5
C9
100
AcDbEntity
8
1
62
256
6
ByLayer
370
-1
48
1
60
0
100
AcDbSpline
70
4
71
3
72
18
73
14
40
0
40
0
40
0
40
0
40
0.0401335039408084
40
0.0401335039408084
40
0.265241327680766
40
0.265241327680766
40
0.491811898134144
40
0.491811898134144
40
0.731713728114395
40
0.731713728114395
40
0.994345203712749
40
0.994345203712749
40
1
40
1
40
1
40
1
41
1
10
60.0245893956917
20
-6.99403065468852
30
0
41
1
10
60.0221932185673
20
-6.99641979343795
30
0
41
1
10
60.0197290870929
20
-6.99874093673921
30
0
41
1
10
60.0031698182986
20
-7.01347451975138
30
0
41
1
10
59.9869707851087
20
-7.02379012587934
30
0
41
1
10
59.9528760635497
20
-7.03864769900281
30
0
41
1
10
59.9345404537831
20
-7.04335458929648
30
0
41
1
10
59.8971682727632
20
-7.04714201701591
30
0
41
1
10
59.8776878548491
20
-7.04594253438313
30
0
41
1
10
59.8391435959089
20
-7.03767284463669
30
0
41
1
10
59.8198057723944
20
-7.02997565828272
30
0
41
1
10
59.8020941123316
20
-7.01952418673881
30
0
41
1
10
59.8017175976798
20
-7.01930028612514
30
0
41
1
10
59.8013419206437
20
-7.01907516007358
30
0
0
SPLINE
5
CA
100
AcDbEntity
8
1
62
256
6
ByLayer
370
-1
48
1
60
0
100
AcDbSpline
70
4
71
3
72
14
73
10
40
0
40
0
40
0
40
0
40
0.0110922888630983
40
0.0110922888630983
40
0.350847198377317
40
0.350847198377317
40
0.788070234741999
40
0.788070234741999
40
1
40
1
40
1
40
1
41
1
10
58.7805203123066
20
-6.79916594671585
30
0
41
1
10
58.7812986771052
20
-6.80005743596013
30
0
41
1
10
58.7820732536328
20
-6.80095235611694
30
0
41
1
10
58.8061599580072
20
-6.82902498675296
30
0
41
1
10
58.8260900253973
20
-6.8596499301251
30
0
41
1
10
58.8614515581644
20
-6.93179295119734
30
0
41
1
10
58.8746797083683
20
-6.975058429635
30
0
41
1
10
58.8847529613619
20
-7.03859775143843
30
0
41
1
10
58.8865776517314
20
-7.05954305257569
30
0
41
1
10
58.8869857081325
20
-7.08029855480805
30
0
0
SPLINE
5
CB
100
AcDbEntity
8
1
62
256
6
ByLayer
370
-1
48
1
60
0
100
AcDbSpline
70
4
71
3
72
16
73
12
40
0
40
0
40
0
40
0
40
0.060216584807352
40
0.060216584807352
40
0.28487474339689
40
0.28487474339689
40
0.512137409323768
40
0.512137409323768
40
0.753657833639522
40
0.753657833639522
40
1
40
1
40
1
40
1
41
1
10
58.293811470286
20
-6.53249437364775
30
0
41
1
10
58.2925086435044
20
-6.52761228360191
30
0
41
1
10
58.2914038850908
20
-6.52266320903547
30
0
41
1
10
58.2871680874156
20
-6.49920821363455
30
0
41
1
10
58.286664440714
20
-6.47991671192074
30
0
41
1
10
58.2911790868379
20
-6.44257533651552
30
0
41
1
10
58.2963044483117
20
-6.42406513465932
30
0
41
1
10
58.3115118325298
20
-6.38910126995566
30
0
41
1
10
58.3220570787477
20
-6.37240345445588
30
0
41
1
10
58.346819478057
20
-6.34330603167646
30
0
41
1
10
58.3613599612348
20
-6.33066082498445
30
0
41
1
10
58.3768962274552
20
-6.32059413812598
30
0
0
SPLINE
5
CC
100
AcDbEntity
8
1
62
256
6
ByLayer
370
-1
48
1
60
0
100
AcDbSpline
70
4
71
3
72
14
73
10
40
0
40
0
40
0
40
0
40
0.269711965486899
40
0.269711965486899
40
0.558779654740734
40
0.558779654740734
40
0.82052859309375
40
0.82052859309375
40
1
40
1
40
1
40
1
41
1
10
59.2310559496173
20
-7.17223973612448
30
0
41
1
10
59.2210981273305
20
-7.19030235625192
30
0
41
1
10
59.2079589928995
20
-7.20713865510299
30
0
41
1
10
59.1755627011711
20
-7.2364452409432
30
0
41
1
10
59.1553909084764
20
-7.2489412679829
30
0
41
1
10
59.1137561262333
20
-7.26442116820013
30
0
41
1
10
59.0919534684729
20
-7.26838940737736
30
0
41
1
10
59.0554061075267
20
-7.26815515813095
30
0
41
1
10
59.0402894366215
20
-7.26614460223195
30
0
41
1
10
59.0257622145725
20
-7.26229070230792
30
0
0
SPLINE
5
CD
100
AcDbEntity
8
1
62
256
6
ByLayer
370
-1
48
1
60
0
100
AcDbSpline
70
4
71
3
72
18
73
14
40
0
40
0
40
0
40
0
40
0.209089453866948
40
0.209089453866948
40
0.385419752420162
40
0.385419752420162
40
0.563438201418737
40
0.563438201418737
40
0.718482312621798
40
0.718482312621798
40
0.923933043117802
40
0.923933043117802
40
1
40
1
40
1
40
1
41
1
10
59.3529339465151
20
-5.34742336882655
30
0
41
1
10
59.3307323044326
20
-5.38213975069175
30
0
41
1
10
59.3022461512845
20
-5.41486699745192
30
0
41
1
10
59.2396512627162
20
-5.46715799333896
30
0
41
1
10
59.206345541169
20
-5.48851044281798
30
0
41
1
10
59.134063726255
20
-5.52205577698672
30
0
41
1
10
59.0939213348994
20
-5.53456657947103
30
0
41
1
10
59.0192612593791
20
-5.54721567568924
30
0
41
1
10
58.9838017900016
20
-5.54893847943882
30
0
41
1
10
58.9056055376086
20
-5.54389339089772
30
0
41
1
10
58.862876726058
20
-5.53422883534139
30
0
41
1
10
58.8099534538171
20
-5.51384641361051
30
0
41
1
10
58.7960272090041
20
-5.50755295697641
30
0
41
1
10
58.7826479754885
20
-5.50058794487748
30
0
0
SPLINE
5
CE
100
AcDbEntity
8
1
62
256
6
ByLayer
370
-1
48
1
60
0
100
AcDbSpline
70
4
71
3
72
16
73
12
40
0
40
0
40
0
40
0
40
0.225234677715981
40
0.225234677715981
40
0.450615913101058
40
0.450615913101058
40
0.687370070312787
40
0.687370070312787
40
0.945369794716179
40
0.945369794716179
40
1
40
1
40
1
40
1
41
1
10
60.2936375188144
20
-5.99813957258161
30
0
41
1
10
60.2984735985316
20
-6.01626184100741
30
0
41
1
10
60.3004716333638
20
-6.03527841460908
30
0
41
1
10
60.2986308166496
20
-6.07198537645391
30
0
41
1
10
60.2947763302427
20
-6.09014684206761
30
0
41
1
10
60.2818823273091
20
-6.12427677519534
30
0
41
1
10
60.2724469213836
20
-6.14052382293224
30
0
41
1
10
60.2487522225264
20
-6.16982298008074
30
0
41
1
10
60.2338566651879
20
-6.18283860791618
30
0
41
1
10
60.2142092294188
20
-6.19511661048276
30
0
41
1
10
60.2106799088241
20
-6.19715615950261
30
0
41
1
10
60.2070936686772
20
-6.19906896682497
30
0
0
SPLINE
5
CF
100
AcDbEntity
8
1
62
256
6
ByLayer
370
-1
48
1
60
0
100
AcDbSpline
70
4
71
3
72
16
73
12
40
0
40
0
40
0
40
0
40
0.0478761250547314
40
0.0478761250547314
40
0.2727644133447
40
0.2727644133447
40
0.499558087401305
40
0.499558087401305
40
0.740040528036434
40
0.740040528036434
40
1
40
1
40
1
40
1
41
1
10
58.5628595934086
20
-5.53660329154096
30
0
41
1
10
58.5657162495044
20
-5.53375502640111
30
0
41
1
10
58.5686666368108
20
-5.53099301767352
30
0
41
1
10
58.5858251123297
20
-5.51591321311122
30
0
41
1
10
58.6020126625867
20
-5.5054667068959
30
0
41
1
10
58.6359201500302
20
-5.48993466186747
30
0
41
1
10
58.6540789005539
20
-5.48468429721405
30
0
41
1
10
58.6909493060332
20
-5.47944726002473
30
0
41
1
10
58.7100882453213
20
-5.47971247197125
30
0
41
1
10
58.7475171932718
20
-5.4857249850661
30
0
41
1
10
58.7660787706317
20
-5.49196228540583
30
0
41
1
10
58.7826479754885
20
-5.50058794487745
30
0
0
SPLINE
5
D0
100
AcDbEntity
8
1
62
256
6
ByLayer
370
-1
48
1
60
0
100
AcDbSpline
70
4
71
3
72
16
73
12
40
0
40
0
40
0
40
0
40
0.0141029395584224
40
0.0141029395584224
40
0.331330862126123
40
0.331330862126123
40
0.620731681953237
40
0.620731681953237
40
0.875767946318272
40
0.875767946318272
40
1
40
1
40
1
40
1
41
1
10
59.3529339465151
20
-5.34742336882653
30
0
41
1
10
59.353488816366
20
-5.3465557269846
30
0
41
1
10
59.354051973476
20
-5.34569179105301
30
0
41
1
10
59.3672801208313
20
-5.3257806774084
30
0
41
1
10
59.384350245639
20
-5.30832983001625
30
0
41
1
10
59.4230155447854
20
-5.28219151950631
30
0
41
1
10
59.4447235962885
20
-5.27249733446075
30
0
41
1
10
59.4878410715966
20
-5.26231455435217
30
0
41
1
10
59.5096298796463
20
-5.26075077982026
30
0
41
1
10
59.5412236357119
20
-5.26380614287399
30
0
41
1
10
59.5515980763764
20
-5.26566683180994
30
0
41
1
10
59.5616867745279
20
-5.26834324392152
30
0
0
SPLINE
5
D1
100
AcDbEntity
8
1
62
256
6
ByLayer
370
-1
48
1
60
0
100
AcDbSpline
70
4
71
3
72
16
73
12
40
0
40
0
40
0
40
0
40
0.0562154856674048
40
0.0562154856674048
40
0.280311020247342
40
0.280311020247342
40
0.506787360149018
40
0.506787360149018
40
0.747305474448453
40
0.747305474448453
40
1
40
1
40
1
40
1
41
1
10
59.0257622145725
20
-7.26229070230792
30
0
41
1
10
59.0211764248805
20
-7.26107414662468
30
0
41
1
10
59.0166317283329
20
-7.25967293232574
30
0
41
1
10
58.9944292749739
20
-7.25185125426884
30
0
41
1
10
58.9774705690082
20
-7.24265598765501
30
0
41
1
10
58.9475319233519
20
-7.21993650340681
30
0
41
1
10
58.9342058416089
20
-7.2060897114799
30
0
41
1
10
58.9119414279275
20
-7.1749786700201
30
0
41
1
10
58.9030312693926
20
-7.15717792942178
30
0
41
1
10
58.8906795771632
20
-7.11985227094857
30
0
41
1
10
58.8873702713818
20
-7.09985909437381
30
0
41
1
10
58.8869857081325
20
-7.08029855480805
30
0
0
SPLINE
5
D2
100
AcDbEntity
8
1
62
256
6
ByLayer
370
-1
48
1
60
0
100
AcDbSpline
70
4
71
3
72
14
73
10
40
0
40
0
40
0
40
0
40
0.27712175610243
40
0.27712175610243
40
0.564700527438103
40
0.564700527438103
40
0.825167586277587
40
0.825167586277587
40
1
40
1
40
1
40
1
41
1
10
58.4690743328322
20
-6.66361725517112
30
0
41
1
10
58.4486878669066
20
-6.66432814807945
30
0
41
1
10
58.4276923300918
20
-6.66145907616698
30
0
41
1
10
58.3871379697953
20
-6.64797809126608
30
0
41
1
10
58.3670446856079
20
-6.63682606367632
30
0
41
1
10
58.3341370371452
20
-6.60863453217237
30
0
41
1
10
58.3203432887434
20
-6.59179454913934
30
0
41
1
10
58.3031012614476
20
-6.56038604891563
30
0
41
1
10
58.2975879498083
20
-6.54664599636891
30
0
41
1
10
58.293811470286
20
-6.53249437364775
30
0
0
SPLINE
5
D3
100
AcDbEntity
8
1
62
256
6
ByLayer
370
-1
48
1
60
0
100
AcDbSpline
70
4
71
3
72
16
73
12
40
0
40
0
40
0
40
0
40
0.107508578270168
40
0.107508578270168
40
0.331055066309426
40
0.331055066309426
40
0.55982718264448
40
0.55982718264448
40
0.804947748820442
40
0.804947748820442
40
1
40
1
40
1
40
1
41
1
10
59.5616867745279
20
-5.26834324392152
30
0
41
1
10
59.5704171256685
20
-5.2706593026617
30
0
41
1
10
59.5789947705463
20
-5.27360076098597
30
0
41
1
10
59.6043769766493
20
-5.28437271764099
30
0
41
1
10
59.6204309202335
20
-5.29425746228492
30
0
41
1
10
59.6483716982434
20
-5.31772905084574
30
0
41
1
10
59.6605171847102
20
-5.33168267903764
30
0
41
1
10
59.6801621470124
20
-5.36246744394145
30
0
41
1
10
59.6875312492888
20
-5.37980766371612
30
0
41
1
10
59.6954045803881
20
-5.41117276064108
30
0
41
1
10
59.6970727342415
20
-5.42537637920017
30
0
41
1
10
59.6969873219488
20
-5.43931105786308
30
0
0
SPLINE
5
D4
100
AcDbEntity
8
1
62
256
6
ByLayer
370
-1
48
1
60
0
100
AcDbSpline
70
4
71
3
72
14
73
10
40
0
40
0
40
0
40
0
40
0.238746400994386
40
0.238746400994386
40
0.53872617083565
40
0.53872617083565
40
0.803118480391895
40
0.803118480391895
40
1
40
1
40
1
40
1
41
1
10
60.0534791365068
20
-6.76767855568073
30
0
41
1
10
60.0623916145643
20
-6.78381079302267
30
0
41
1
10
60.0692430675003
20
-6.80155310566792
30
0
41
1
10
60.0786538156764
20
-6.84317323220895
30
0
41
1
10
60.0797351265521
20
-6.86819646184625
30
0
41
1
10
60.0725940673295
20
-6.91384121524092
30
0
41
1
10
60.0653098322064
20
-6.93531880954132
30
0
41
1
10
60.0464529669511
20
-6.96892479948525
30
0
41
1
10
60.0362744844513
20
-6.98237988894914
30
0
41
1
10
60.0245893956917
20
-6.99403065468852
30
0
0
SPLINE
5
D5
100
AcDbEntity
8
SK1
62
256
6
ByLayer
370
-1
48
1
60
0
100
AcDbSpline
70
4
71
3
72
24
73
20
40
0
40
0
40
0
40
0
40
0.250000000000022
40
0.250000000000022
40
0.375000000000034
40
0.375000000000034
40
0.437500000000044
40
0.437500000000044
40
0.500000000000053
40
0.500000000000053
40
0.531250000000055
40
0.531250000000055
40
0.562500000000057
40
0.562500000000057
40
0.625000000000052
40
0.625000000000052
40
0.750000000000035
40
0.750000000000035
40
1
40
1
40
1
40
1
41
1
10
-48.06
20
0.208217351629059
30
0
41
1
10
-48.468842020981
20
0.208217351629059
30
0
41
1
10
-48.8775700421798
20
0.200628106757165
30
0
41
1
10
-49.4901123303116
20
0.171073275450709
30
0
41
1
10
-49.6939608358335
20
0.158342940298127
30
0
41
1
10
-49.9985633625024
20
0.129106778533071
30
0
41
1
10
-50.0999152849483
20
0.11778208857757
30
0
41
1
10
-50.3016559370235
20
0.0867855292194974
30
0
41
1
10
-50.4176642593246
20
0.0899171685785518
30
0
41
1
10
-50.5369313789907
20
-0.013645893418726
30
0
41
1
10
-50.4484711277943
20
-0.0489364234136644
30
0
41
1
10
-50.3478903856417
20
-0.0766629766365838
30
0
41
1
10
-50.2966456087818
20
-0.0864424784148241
30
0
41
1
10
-50.1421535471276
20
-0.112538835792321
30
0
41
1
10
-50.0385119130168
20
-0.124684589520399
30
0
41
1
10
-49.7273848627499
20
-0.156042093009802
30
0
41
1
10
-49.5192790403735
20
-0.169368026065086
30
0
41
1
10
-48.8942101016121
20
-0.200370771894711
30
0
41
1
10
-48.4771903882063
20
-0.208217351629059
30
0
41
1
10
-48.06
20
-0.208217351629059
30
0
0
LINE
5
4A
100
AcDbEntity
8
80
62
256
6
ByLayer
370
-1
48
1
60
0
100
AcDbLine
10
0
20
0
30
0
11
-10
21
0
31
0
39
0
210
0
220
0
230
1
0
LINE
5
4B
100
AcDbEntity
8
81
62
256
6
ByLayer
370
-1
48
1
60
0
100
AcDbLine
10
63.94
20
-10.9
30
0
11
73.94
21
-10.9
31
0
39
0
210
0
220
0
230
1
0
LINE
5
4C
100
AcDbEntity
8
SK4
62
256
6
ByLayer
370
-1
48
0.05
60
0
100
AcDbLine
10
-142.31
20
0
30
0
11
68.591105
21
0
31
0
39
0
210
0
220
0
230
1
0
LINE
5
4E
100
AcDbEntity
8
4
62
256
6
ByLayer
370
-1
48
0.05
60
0
100
AcDbLine
10
0
20
0
30
0
11
68.591105
21
0
31
0
39
0
210
0
220
0
230
1
0
LINE
5
50
100
AcDbEntity
8
1
62
256
6
ByLayer
370
-1
48
1
60
0
100
AcDbLine
10
58.564136
20
-5.828603
30
0
11
58.541417
21
-5.756547
31
0
39
0
210
0
220
0
230
1
0
LINE
5
51
100
AcDbEntity
8
1
62
256
6
ByLayer
370
-1
48
1
60
0
100
AcDbLine
10
59.692657
20
-5.487069
30
0
11
59.71499
21
-5.557898
31
0
39
0
210
0
220
0
230
1
0
LINE
5
52
100
AcDbEntity
8
1
62
256
6
ByLayer
370
-1
48
1
60
0
100
AcDbLine
10
57.625656
20
-6.711385
30
0
11
57.644136
21
-6.769995
31
0
39
0
210
0
220
0
230
1
0
LINE
5
53
100
AcDbEntity
8
1
62
256
6
ByLayer
370
-1
48
1
60
0
100
AcDbLine
10
60.93446
20
-5.73256
30
0
11
60.91598
21
-5.67395
31
0
39
0
210
0
220
0
230
1
0
LINE
5
54
100
AcDbEntity
8
1
62
256
6
ByLayer
370
-1
48
1
60
0
100
AcDbLine
10
59.995129
20
-6.612643
30
0
11
60.017843
21
-6.684684
31
0
39
0
210
0
220
0
230
1
0
LINE
5
55
100
AcDbEntity
8
1
62
256
6
ByLayer
370
-1
48
1
60
0
100
AcDbLine
10
58.866224
20
-6.95296
30
0
11
58.843889
21
-6.882121
31
0
39
0
210
0
220
0
230
1
0
LINE
5
56
100
AcDbEntity
8
1
62
256
6
ByLayer
370
-1
48
1
60
0
100
AcDbLine
10
0
20
-7.9925
30
0
11
52.673683
21
-7.9925
31
0
39
0
210
0
220
0
230
1
0
LINE
5
57
100
AcDbEntity
8
1
62
256
6
ByLayer
370
-1
48
1
60
0
100
AcDbLine
10
51.173683
20
7.9925
30
0
11
0
21
7.9925
31
0
39
0
210
0
220
0
230
1
0
LINE
5
58
100
AcDbEntity
8
1
62
256
6
ByLayer
370
-1
48
1
60
0
100
AcDbLine
10
54.436768
20
-7.9175
30
0
11
56.291168
21
-8.504546
31
0
39
0
210
0
220
0
230
1
0
LINE
5
59
100
AcDbEntity
8
1
62
256
6
ByLayer
370
-1
48
1
60
0
100
AcDbLine
10
52.748683
20
-7.9175
30
0
11
54.436768
21
-7.9175
31
0
39
0
210
0
220
0
230
1
0
LINE
5
5A
100
AcDbEntity
8
1
62
256
6
ByLayer
370
-1
48
1
60
0
100
AcDbLine
10
52.673683
20
-7.9925
30
0
11
52.748683
21
-7.9175
31
0
39
0
210
0
220
0
230
1
0
LINE
5
5B
100
AcDbEntity
8
SK1
62
256
6
ByLayer
370
-1
48
1
60
0
100
AcDbLine
10
-136.81
20
7.9925
30
0
11
-137.31
21
7.4925
31
0
39
0
210
0
220
0
230
1
0
LINE
5
5D
100
AcDbEntity
8
SK1
62
256
6
ByLayer
370
-1
48
1
60
0
100
AcDbLine
10
-137.31
20
-7.4925
30
0
11
-136.81
21
-7.9925
31
0
39
0
210
0
220
0
230
1
0
LINE
5
5E
100
AcDbEntity
8
SK1
62
256
6
ByLayer
370
-1
48
1
60
0
100
AcDbLine
10
-136.81
20
-7.9925
30
0
11
0
21
-7.9925
31
0
39
0
210
0
220
0
230
1
0
LINE
5
5F
100
AcDbEntity
8
SK1
62
256
6
ByLayer
370
-1
48
1
60
0
100
AcDbLine
10
0
20
7.9925
30
0
11
-136.81
21
7.9925
31
0
39
0
210
0
220
0
230
1
0
LINE
5
60
100
AcDbEntity
8
1
62
256
6
ByLayer
370
-1
48
1
60
0
100
AcDbLine
10
53.999375
20
-2.226498
30
0
11
54.054175
21
-2.4003
31
0
39
0
210
0
220
0
230
1
0
LINE
5
61
100
AcDbEntity
8
1
62
256
6
ByLayer
370
-1
48
1
60
0
100
AcDbLine
10
56.032741
20
-1.926631
30
0
11
56.017062
21
-1.876903
31
0
39
0
210
0
220
0
230
1
0
LINE
5
62
100
AcDbEntity
8
1
62
256
6
ByLayer
370
-1
48
1
60
0
100
AcDbLine
10
55.158267
20
4.591821
30
0
11
60.400517
21
0.117776
31
0
39
0
210
0
220
0
230
1
0
LINE
5
63
100
AcDbEntity
8
1
62
256
6
ByLayer
370
-1
48
1
60
0
100
AcDbLine
10
0
20
-0.208217
30
0
11
0
21
0.208217
31
0
39
0
210
0
220
0
230
1
0
LINE
5
64
100
AcDbEntity
8
1
62
256
6
ByLayer
370
-1
48
1
60
0
100
AcDbLine
10
61.526885
20
-3.454607
30
0
11
60.400517
21
0.117776
31
0
39
0
210
0
220
0
230
1
0
LINE
5
65
100
AcDbEntity
8
1
62
256
6
ByLayer
370
-1
48
1
60
0
100
AcDbLine
10
52.748683
20
-7.9175
30
0
11
52.748683
21
-7.91192
31
0
39
0
210
0
220
0
230
1
0
LINE
5
66
100
AcDbEntity
8
1
62
256
6
ByLayer
370
-1
48
1
60
0
100
AcDbLine
10
51.57391
20
7.650922
30
0
11
55.158267
21
4.591821
31
0
39
0
210
0
220
0
230
1
0
LINE
5
67
100
AcDbEntity
8
1
62
256
6
ByLayer
370
-1
48
1
60
0
100
AcDbLine
10
42.297743
20
-0.208217
30
0
11
0
21
-0.208217
31
0
39
0
210
0
220
0
230
1
0
LINE
5
68
100
AcDbEntity
8
1
62
256
6
ByLayer
370
-1
48
1
60
0
100
AcDbLine
10
55.39273
20
-4.451449
30
0
11
54.737488
21
-4.246067
31
0
39
0
210
0
220
0
230
1
0
LINE
5
69
100
AcDbEntity
8
1
62
256
6
ByLayer
370
-1
48
1
60
0
100
AcDbLine
10
51.779902
20
-7.986253
30
0
11
55.158267
21
4.591821
31
0
39
0
210
0
220
0
230
1
0
LINE
5
6A
100
AcDbEntity
8
1
62
256
6
ByLayer
370
-1
48
1
60
0
100
AcDbLine
10
54.436768
20
-7.9175
30
0
11
54.436768
21
-7.913426
31
0
39
0
210
0
220
0
230
1
0
LINE
5
6B
100
AcDbEntity
8
1
62
256
6
ByLayer
370
-1
48
1
60
0
100
AcDbLine
10
0
20
0.208217
30
0
11
42.425595
21
0.208217
31
0
39
0
210
0
220
0
230
1
0
LINE
5
6C
100
AcDbEntity
8
1
62
256
6
ByLayer
370
-1
48
1
60
0
100
AcDbLine
10
51.57391
20
7.650922
30
0
11
51.173683
21
7.9925
31
0
39
0
210
0
220
0
230
1
0
LINE
5
6D
100
AcDbEntity
8
1
62
256
6
ByLayer
370
-1
48
1
60
0
100
AcDbLine
10
54.682688
20
-4.072264
30
0
11
54.737488
21
-4.246067
31
0
39
0
210
0
220
0
230
1
0
LINE
5
6E
100
AcDbEntity
8
1
62
256
6
ByLayer
370
-1
48
1
60
0
100
AcDbLine
10
55.337926
20
-4.277645
30
0
11
54.682688
21
-4.072264
31
0
39
0
210
0
220
0
230
1
0
LINE
5
6F
100
AcDbEntity
8
1
62
256
6
ByLayer
370
-1
48
1
60
0
100
AcDbLine
10
0
20
-7.9925
30
0
11
0
21
-0.208217
31
0
39
0
210
0
220
0
230
1
0
LINE
5
70
100
AcDbEntity
8
1
62
256
6
ByLayer
370
-1
48
1
60
0
100
AcDbLine
10
0
20
0.208217
30
0
11
0
21
7.9925
31
0
39
0
210
0
220
0
230
1
0
LINE
5
71
100
AcDbEntity
8
1
62
256
6
ByLayer
370
-1
48
1
60
0
100
AcDbLine
10
52.673683
20
-7.9925
30
0
11
52.673683
21
-7.987127
31
0
39
0
210
0
220
0
230
1
0
LINE
5
72
100
AcDbEntity
8
SK1
62
256
6
ByLayer
370
-1
48
1
60
0
100
AcDbLine
10
-136.81
20
7.9925
30
0
11
-136.81
21
-7.9925
31
0
39
0
210
0
220
0
230
1
0
LINE
5
73
100
AcDbEntity
8
SK1
62
256
6
ByLayer
370
-1
48
1
60
0
100
AcDbLine
10
-137.31
20
7.4925
30
0
11
-137.31
21
-7.4925
31
0
39
0
210
0
220
0
230
1
0
LINE
5
74
100
AcDbEntity
8
SK1
62
256
6
ByLayer
370
-1
48
1
60
0
100
AcDbLine
10
0
20
-0.208217
30
0
11
0
21
0.208217
31
0
39
0
210
0
220
0
230
1
0
LINE
5
75
100
AcDbEntity
8
SK1
62
256
6
ByLayer
370
-1
48
1
60
0
100
AcDbLine
10
0
20
-0.208217
30
0
11
-48.06
21
-0.208217
31
0
39
0
210
0
220
0
230
1
0
LINE
5
76
100
AcDbEntity
8
SK1
62
256
6
ByLayer
370
-1
48
1
60
0
100
AcDbLine
10
-48.06
20
0.208217
30
0
11
0
21
0.208217
31
0
39
0
210
0
220
0
230
1
0
LINE
5
77
100
AcDbEntity
8
SK1
62
256
6
ByLayer
370
-1
48
1
60
0
100
AcDbLine
10
-48.06
20
0.208217
30
0
11
-48.06
21
-0.208217
31
0
39
0
210
0
220
0
230
1
0
LINE
5
78
100
AcDbEntity
8
1
62
256
6
ByLayer
370
-1
48
1
60
0
100
AcDbLine
10
63.42356
20
-10.881814
30
0
11
56.958764
21
-8.855462
31
0
39
0
210
0
220
0
230
1
0
LINE
5
79
100
AcDbEntity
8
1
62
256
6
ByLayer
370
-1
48
1
60
0
100
AcDbLine
10
56.699951
20
-8.597411
30
0
11
54.667604
21
-2.15163
31
0
39
0
210
0
220
0
230
1
0
LINE
5
7A
100
AcDbEntity
8
1
62
256
6
ByLayer
370
-1
48
1
60
0
100
AcDbLine
10
61.889413
20
-3.939296
30
0
11
63.92176
21
-10.385078
31
0
39
0
210
0
220
0
230
1
0
LINE
5
7B
100
AcDbEntity
8
1
62
256
6
ByLayer
370
-1
48
1
60
0
100
AcDbLine
10
55.165804
20
-1.654894
30
0
11
61.6306
21
-3.681245
31
0
39
0
210
0
220
0
230
1
0
LINE
5
7C
100
AcDbEntity
8
1
62
256
6
ByLayer
370
-1
48
1
60
0
100
AcDbLine
10
59.207334
20
-7.097003
30
0
11
59.231056
21
-7.17224
31
0
39
0
210
0
220
0
230
1
0
LINE
5
7D
100
AcDbEntity
8
1
62
256
6
ByLayer
370
-1
48
1
60
0
100
AcDbLine
10
58.511017
20
-5.690158
30
0
11
58.530511
21
-5.751985
31
0
39
0
210
0
220
0
230
1
0
LINE
5
7E
100
AcDbEntity
8
1
62
256
6
ByLayer
370
-1
48
1
60
0
100
AcDbLine
10
58.759286
20
-6.73182
30
0
11
58.78052
21
-6.799166
31
0
39
0
210
0
220
0
230
1
0
LINE
5
7F
100
AcDbEntity
8
1
62
256
6
ByLayer
370
-1
48
1
60
0
100
AcDbLine
10
58.445361
20
-6.588407
30
0
11
58.469074
21
-6.663617
31
0
39
0
210
0
220
0
230
1
0
LINE
5
80
100
AcDbEntity
8
1
62
256
6
ByLayer
370
-1
48
1
60
0
100
AcDbLine
10
60.183372
20
-6.123832
30
0
11
60.207094
21
-6.199069
31
0
39
0
210
0
220
0
230
1
0
LINE
5
81
100
AcDbEntity
8
1
62
256
6
ByLayer
370
-1
48
1
60
0
100
AcDbLine
10
59.77762
20
-6.943839
30
0
11
59.801342
21
-7.019075
31
0
39
0
210
0
220
0
230
1
0
LINE
5
82
100
AcDbEntity
8
1
62
256
6
ByLayer
370
-1
48
1
60
0
100
AcDbLine
10
59.673274
20
-5.364101
30
0
11
59.696987
21
-5.439311
31
0
39
0
210
0
220
0
230
1
0
LINE
5
83
100
AcDbEntity
8
1
62
256
6
ByLayer
370
-1
48
1
60
0
100
AcDbLine
10
58.74067
20
-6.759433
30
0
11
58.719436
21
-6.692087
31
0
39
0
210
0
220
0
230
1
0
LINE
5
84
100
AcDbEntity
8
SK1
62
256
6
ByLayer
370
-1
48
1
60
0
100
AcDbLine
10
0
20
-7.9925
30
0
11
0
21
-0.208217
31
0
39
0
210
0
220
0
230
1
0
LINE
5
85
100
AcDbEntity
8
SK1
62
256
6
ByLayer
370
-1
48
1
60
0
100
AcDbLine
10
0
20
0.208217
30
0
11
0
21
7.9925
31
0
39
0
210
0
220
0
230
1
0
LINE
5
86
100
AcDbEntity
8
2
62
256
6
ByLayer
370
-1
48
1
60
1
100
AcDbLine
10
63.94
20
0
30
0
11
63.941
21
0.001
31
0
39
0
210
0
220
0
230
1
0
MTEXT
5
D6
100
AcDbEntity
8
SK6
62
256
6
ByLayer
370
-1
48
1
60
0
100
AcDbMText
10
-33.31
20
15.66375
30
0
210
0
220
0
230
1
1
\W00.754;\fsimplex.shx,bigfont.shx;A16R-SDQCL 07-R 
40
3.5
41
0
44
1.084337
50
0
71
7
72
5
7
DEFAULT
0
DIMENSION
5
109
100
AcDbEntity
8
2
62
256
6
ByLayer
370
-3
48
1
60
0
100
AcDbDimension
2
DimnDraft3D1
10
76.19
20
0
30
0
11
76.19
21
-29.231316
31
0
70
32
71
5
72
1
41
1
210
0
220
0
230
1
3
Standard
100
AcDbAlignedDimension
13
65.94
23
-10.9
33
0
14
65.94
24
0
34
0
50
90
100
AcDbRotatedDimension
1001
ACAD
1000
DSTYLE
1002
{
1070
    74
1070
     0
1070
   279
1070
     0
1070
   172
1070
     1
1070
   173
1070
     1
1070
   340
1005
D7
1070
    77
1070
     1
1070
    73
1070
     0
1070
   171
1070
     4
1070
   274
1070
     4
1070
   177
1070
     2
1070
   176
1070
     2
1070
   178
1070
     7
1070
    78
1070
     8
1070
    41
1041
3.175
1070
   147
1041
2.25
1070
    42
1041
2.0
1070
    44
1041
2.0
1070
   140
1041
4.5
1070
   343
1005
10A
1070
   344
1005
10A
1002
}
0
DIMENSION
5
11F
100
AcDbEntity
8
SK2
62
256
6
ByLayer
370
-3
48
1
60
0
100
AcDbDimension
2
DimnDraft3D2
10
-147.06
20
7.9925
30
0
11
-147.06
21
-4.221711
31
0
70
32
71
5
72
1
41
1
210
0
220
0
230
1
3
Standard
100
AcDbAlignedDimension
13
-139.31
23
-7.9925
33
0
14
-139.31
24
7.9925
34
0
50
90
100
AcDbRotatedDimension
1001
ACAD
1000
DSTYLE
1002
{
1070
    74
1070
     0
1070
   279
1070
     0
1070
   172
1070
     1
1070
   173
1070
     1
1070
   340
1005
D7
1070
    77
1070
     1
1070
    73
1070
     0
1070
   171
1070
     4
1070
   274
1070
     4
1070
   177
1070
     2
1070
   176
1070
     2
1070
   178
1070
     7
1070
    78
1070
     8
1070
    41
1041
3.175
1070
   147
1041
2.25
1070
    42
1041
2.0
1070
    44
1041
2.0
1070
   140
1041
4.5
1070
   343
1005
10A
1070
   344
1005
10A
1002
}
0
DIMENSION
5
12D
100
AcDbEntity
8
SK2
62
256
6
ByLayer
370
-3
48
1
60
0
100
AcDbDimension
2
DimnDraft3D3
10
63.94
20
-28.15
30
0
11
-43.500132
21
-28.15
31
0
70
32
71
5
72
1
41
1
210
0
220
0
230
1
3
Standard
100
AcDbAlignedDimension
13
-137.31
23
-9.9925
33
0
14
63.94
24
-12.9
34
0
50
0
100
AcDbRotatedDimension
1001
ACAD
1000
DSTYLE
1002
{
1070
   279
1070
     0
1070
   172
1070
     1
1070
   173
1070
     1
1070
   340
1005
D7
1070
    77
1070
     1
1070
    73
1070
     0
1070
   171
1070
     4
1070
   274
1070
     4
1070
   177
1070
     2
1070
   176
1070
     2
1070
   178
1070
     7
1070
    78
1070
     8
1070
    41
1041
3.175
1070
   147
1041
2.25
1070
    42
1041
2.0
1070
    44
1041
2.0
1070
   140
1041
4.5
1070
   343
1005
10A
1070
   344
1005
10A
1002
}
0
DIMENSION
5
13B
100
AcDbEntity
8
2
62
256
6
ByLayer
370
-3
48
1
60
0
100
AcDbDimension
2
DimnDraft3D4
10
100.42965
20
0
30
0
11
76.911214
21
37.788356
31
0
70
34
71
5
72
1
41
1
210
0
220
0
230
1
3
Standard
100
AcDb2LineAngularDimension
13
61.233648
23
-2.316547
33
0
14
48.497141
24
38.078491
34
0
15
65.94
25
0
35
0
16
85.590387
26
34.214547
36
0
40
0
0
ENDSEC
0
SECTION
2
OBJECTS
0
DICTIONARY
5
16c
330
0
100
AcDbDictionary
280
0
281
1
3
ACAD_GROUP
350
16d
3
ACAD_MLINESTYLE
350
16e
0
DICTIONARY
5
16d
330
0
100
AcDbDictionary
280
0
281
1
0
DICTIONARY
5
16e
330
0
100
AcDbDictionary
280
0
281
1
3
Standard
350
18
0
MLINESTYLE
5
18
330
16e
100
AcDbMlineStyle
2
Standard
70
0
3

62
256
51
90
52
90
71
2
49
-0.5
62
256
6
ByLayer
49
0.5
62
256
6
ByLayer
0
RASTERVARIABLES
5
15a
330

100
AcDbRasterVariables
90
0
70
1
71
1
72
1
0
ENDSEC
0
EOF
