0
SECTION
2
HEADER
9
$ACADVER
1
AC1015
9
$DWGCODEPAGE
3
ANSI_1252
9
$HANDSEED
5
17d
9
$ANGBASE
50
0
9
$ANGDIR
70
0
9
$ATTMODE
70
1
9
$AUNITS
70
0
9
$AUPREC
70
0
9
$CECOLOR
62
256
9
$CELTSCALE
40
1
9
$CELTYPE
6
ByLayer
9
$CELWEIGHT
370
-1
9
$CLAYER
8
0
9
$CMLJUST
70
0
9
$CMLSCALE
40
1
9
$CMLSTYLE
2
Standard
9
$DIMSTYLE
2
Standard
9
$TEXTSIZE
40
0.2
9
$TEXTSTYLE
7
Standard
9
$LUNITS
70
2
9
$LUPREC
70
4
9
$EXTNAMES
290
1
9
$INSUNITS
70
4
9
$LTSCALE
40
1
9
$LWDISPLAY
290
0
9
$PDMODE
70
0
9
$PDSIZE
40
0
9
$PLINEGEN
70
0
0
ENDSEC
0
SECTION
2
CLASSES
0
CLASS
1
RASTERVARIABLES
2
AcDbRasterVariables
3
ISM
90
0
280
0
281
0
0
ENDSEC
0
SECTION
2
TABLES
0
TABLE
2
VPORT
5
173
100
AcDbSymbolTable
0
VPORT
5
1
100
AcDbSymbolTableRecord
100
AcDbViewportTableRecord
2
*Active
70
0
10
0
20
0
11
1
21
1
12
-1
22
1
13
0
23
0
14
0.5
24
0.5
15
10
25
10
16
0
26
0
36
1
17
0
27
0
37
0
0
ENDTAB
0
TABLE
2
LTYPE
5
174
100
AcDbSymbolTable
0
LTYPE
5
14
100
AcDbSymbolTableRecord
100
AcDbLinetypeTableRecord
70
0
2
ByBlock
3

72
65
73
0
40
0
0
LTYPE
5
15
100
AcDbSymbolTableRecord
100
AcDbLinetypeTableRecord
70
0
2
ByLayer
3

72
65
73
0
40
0
0
LTYPE
5
16
100
AcDbSymbolTableRecord
100
AcDbLinetypeTableRecord
70
0
2
CONTINUOUS
3
Solid line
72
65
73
0
40
0
0
LTYPE
5
3B
100
AcDbSymbolTableRecord
100
AcDbLinetypeTableRecord
70
0
2
DASHED
3
__ __ __ __ __ __ __ __ __
72
65
73
2
40
25.72
49
12.86
74
0
49
-12.86
74
0
0
LTYPE
5
3C
100
AcDbSymbolTableRecord
100
AcDbLinetypeTableRecord
70
0
2
HIDDEN
3
_ _ _ _ _ _ _ _ _ _ _ _ _ _ _
72
65
73
2
40
0.5
49
0.25
74
0
49
-0.25
74
0
0
LTYPE
5
3D
100
AcDbSymbolTableRecord
100
AcDbLinetypeTableRecord
70
0
2
PHANTOM
3
____ _ _ ____ _ _ _____ _ _ ____
72
65
73
6
40
50.5
49
18
74
0
49
-6.5
74
0
49
6.5
74
0
49
-6.5
74
0
49
6.5
74
0
49
-6.5
74
0
0
LTYPE
5
3E
100
AcDbSymbolTableRecord
100
AcDbLinetypeTableRecord
70
0
2
CENTER
3
____ _ ____ _ ____ _ ____
72
65
73
4
40
47.5
49
22
74
0
49
-8.5
74
0
49
8.5
74
0
49
-8.5
74
0
0
LTYPE
5
3F
100
AcDbSymbolTableRecord
100
AcDbLinetypeTableRecord
70
0
2
DOT
3
.........................
72
65
73
2
40
10
49
0
74
0
49
-10
74
0
0
LTYPE
5
40
100
AcDbSymbolTableRecord
100
AcDbLinetypeTableRecord
70
0
2
DASHDOT
3
_._._._._._._._._._._._._._._._.
72
65
73
4
40
70
49
31
74
0
49
-13
74
0
49
13
74
0
49
-13
74
0
0
ENDTAB
0
TABLE
2
LAYER
5
175
100
AcDbSymbolTable
0
LAYER
5
10
100
AcDbSymbolTableRecord
100
AcDbLayerTableRecord
2
0
70
0
62
7
6
CONTINUOUS
290
1
370
-3
390
0
0
LAYER
5
42
100
AcDbSymbolTableRecord
100
AcDbLayerTableRecord
2
80
70
0
62
-6
6
CONTINUOUS
290
1
370
-3
390
0
0
LAYER
5
44
100
AcDbSymbolTableRecord
100
AcDbLayerTableRecord
2
81
70
0
62
-3
6
CONTINUOUS
290
1
370
-3
390
0
0
LAYER
5
46
100
AcDbSymbolTableRecord
100
AcDbLayerTableRecord
2
1
70
0
62
4
6
CONTINUOUS
290
1
370
-3
390
0
0
LAYER
5
48
100
AcDbSymbolTableRecord
100
AcDbLayerTableRecord
2
2
70
0
62
7
6
CONTINUOUS
290
1
370
-3
390
0
0
LAYER
5
4E
100
AcDbSymbolTableRecord
100
AcDbLayerTableRecord
2
4
70
0
62
-2
6
CENTER
290
1
370
-3
390
0
0
LAYER
5
15f
100
AcDbSymbolTableRecord
100
AcDbLayerTableRecord
2
SK4
70
0
62
2
6
CENTER
290
1
370
-3
390
0
0
LAYER
5
160
100
AcDbSymbolTableRecord
100
AcDbLayerTableRecord
2
SK1
70
0
62
4
6
CONTINUOUS
290
1
370
-3
390
0
0
LAYER
5
161
100
AcDbSymbolTableRecord
100
AcDbLayerTableRecord
2
SK6
70
0
62
5
6
CONTINUOUS
290
1
370
-3
390
0
0
LAYER
5
162
100
AcDbSymbolTableRecord
100
AcDbLayerTableRecord
2
SK2
70
0
62
7
6
CONTINUOUS
290
1
370
-3
390
0
0
ENDTAB
0
TABLE
2
STYLE
5
176
100
AcDbSymbolTable
0
STYLE
5
11
100
AcDbSymbolTableRecord
100
AcDbTextStyleTableRecord
2
Standard
3
txt
70
0
71
0
40
0
41
1
42
0
50
0
0
STYLE
5
DB
100
AcDbSymbolTableRecord
100
AcDbTextStyleTableRecord
2
DEFAULT
3
simplex.shx
70
0
71
0
40
0
41
1
42
0
50
0
0
STYLE
5
FE
100
AcDbSymbolTableRecord
100
AcDbTextStyleTableRecord
2
DWGDirectTextStyle
3
SIMPLEX
70
0
71
0
40
0
41
1
42
0
50
0
0
ENDTAB
0
TABLE
2
DIMSTYLE
5
177
100
AcDbSymbolTable
100
AcDbDimStyleTable
0
DIMSTYLE
105
27
100
AcDbSymbolTableRecord
100
AcDbDimStyleTableRecord
2
Standard
70
0
3
<>
41
0.18
42
0.0625
44
0.18
140
0.18
147
0.09
73
0
74
0
77
1
271
2
275
0
278
52
280
0
340
11
0
ENDTAB
0
TABLE
2
VIEW
5
178
100
AcDbSymbolTable
0
ENDTAB
0
TABLE
2
UCS
5
179
100
AcDbSymbolTable
0
ENDTAB
0
TABLE
2
APPID
5
17a
100
AcDbSymbolTable
0
APPID
5
12
100
AcDbSymbolTableRecord
100
AcDbRegAppTableRecord
2
ACAD
70
0
0
ENDTAB
0
TABLE
2
BLOCK_RECORD
5
17b
100
AcDbSymbolTable
0
BLOCK_RECORD
5
1F
100
AcDbSymbolTableRecord
100
AcDbBlockTableRecord
2
*Model_Space
340
0
70
0
0
BLOCK_RECORD
5
1B
100
AcDbSymbolTableRecord
100
AcDbBlockTableRecord
2
*Paper_Space
340
0
70
0
0
BLOCK_RECORD
5
23
100
AcDbSymbolTableRecord
100
AcDbBlockTableRecord
2
*Paper_Space0
340
0
70
0
0
BLOCK_RECORD
5
100
100
AcDbSymbolTableRecord
100
AcDbBlockTableRecord
2
DimnDraft3D1
340
0
70
0
0
BLOCK_RECORD
5
10E
100
AcDbSymbolTableRecord
100
AcDbBlockTableRecord
2
_CLOSED
340
0
70
0
0
BLOCK_RECORD
5
115
100
AcDbSymbolTableRecord
100
AcDbBlockTableRecord
2
DimnDraft3D2
340
0
70
0
0
BLOCK_RECORD
5
124
100
AcDbSymbolTableRecord
100
AcDbBlockTableRecord
2
DimnDraft3D3
340
0
70
0
0
BLOCK_RECORD
5
132
100
AcDbSymbolTableRecord
100
AcDbBlockTableRecord
2
DimnDraft3D4
340
0
70
0
0
ENDTAB
0
ENDSEC
0
SECTION
2
BLOCKS
0
BLOCK
5
20
100
AcDbEntity
8
0
100
AcDbBlockBegin
2
*Model_Space
70
0
10
0
20
0
30
0
3
*Model_Space
0
ENDBLK
5
21
100
AcDbEntity
8
0
100
AcDbBlockEnd
0
BLOCK
5
1C
100
AcDbEntity
8
0
100
AcDbBlockBegin
2
*Paper_Space
70
0
10
0
20
0
30
0
3
*Paper_Space
0
ENDBLK
5
1D
100
AcDbEntity
8
0
100
AcDbBlockEnd
0
BLOCK
5
24
100
AcDbEntity
8
0
100
AcDbBlockBegin
2
*Paper_Space0
70
0
10
0
20
0
30
0
3
*Paper_Space0
0
ENDBLK
5
25
100
AcDbEntity
8
0
100
AcDbBlockEnd
0
BLOCK
5
10B
100
AcDbEntity
8
0
100
AcDbBlockBegin
2
DimnDraft3D1
70
0
10
0
20
0
30
0
3
DimnDraft3D1
0
MTEXT
5
101
100
AcDbEntity
8
2
62
256
6
ByLayer
370
-1
48
1
60
0
100
AcDbMText
10
59.065
20
20.28
30
0
210
0
220
0
230
1
1
\W01.000;\fsimplex.shx,bigfont.shx;9.0 
40
4.5
41
0
44
1.084337
50
90
71
7
72
5
7
DEFAULT
0
LINE
5
102
100
AcDbEntity
8
2
62
256
6
ByLayer
370
-1
48
1
60
0
100
AcDbLine
10
49.94
20
8.9
30
0
11
62.19
21
8.9
31
0
39
0
210
0
220
0
230
1
0
LINE
5
103
100
AcDbEntity
8
2
62
256
6
ByLayer
370
-1
48
1
60
0
100
AcDbLine
10
49.94
20
0
30
0
11
62.19
21
0
31
0
39
0
210
0
220
0
230
1
0
LINE
5
104
100
AcDbEntity
8
2
62
256
6
ByLayer
370
-1
48
1
60
0
100
AcDbLine
10
60.19
20
0
30
0
11
60.19
21
26.177368
31
0
39
0
210
0
220
0
230
1
0
LINE
5
105
100
AcDbEntity
8
2
62
256
6
ByLayer
370
-1
48
1
60
0
100
AcDbLine
10
60.19
20
8.9
30
0
11
60.607997
21
5.725002
31
0
39
0
210
0
220
0
230
1
0
LINE
5
106
100
AcDbEntity
8
2
62
256
6
ByLayer
370
-1
48
1
60
0
100
AcDbLine
10
60.19
20
8.9
30
0
11
59.772003
21
5.724998
31
0
39
0
210
0
220
0
230
1
0
LINE
5
107
100
AcDbEntity
8
2
62
256
6
ByLayer
370
-1
48
1
60
0
100
AcDbLine
10
60.607997
20
5.725002
30
0
11
59.772003
21
5.724998
31
0
39
0
210
0
220
0
230
1
0
LINE
5
108
100
AcDbEntity
8
2
62
256
6
ByLayer
370
-1
48
1
60
0
100
AcDbLine
10
60.19
20
0
30
0
11
59.772003
21
3.174998
31
0
39
0
210
0
220
0
230
1
0
LINE
5
109
100
AcDbEntity
8
2
62
256
6
ByLayer
370
-1
48
1
60
0
100
AcDbLine
10
60.19
20
0
30
0
11
60.607997
21
3.175002
31
0
39
0
210
0
220
0
230
1
0
LINE
5
10A
100
AcDbEntity
8
2
62
256
6
ByLayer
370
-1
48
1
60
0
100
AcDbLine
10
59.772003
20
3.174998
30
0
11
60.607997
21
3.175002
31
0
39
0
210
0
220
0
230
1
0
ENDBLK
5
10C
100
AcDbEntity
8
0
100
AcDbBlockEnd
0
BLOCK
5
10F
100
AcDbEntity
8
0
100
AcDbBlockBegin
2
_CLOSED
70
0
10
0
20
0
30
0
3
_CLOSED
0
LINE
5
111
100
AcDbEntity
8
0
62
256
6
ByLayer
370
-2
48
1
60
0
100
AcDbLine
10
-1
20
0.166667
30
0
11
0
21
0
31
0
39
0
210
0
220
0
230
1
0
LINE
5
112
100
AcDbEntity
8
0
62
256
6
ByLayer
370
-2
48
1
60
0
100
AcDbLine
10
0
20
0
30
0
11
-1
21
-0.166667
31
0
39
0
210
0
220
0
230
1
0
LINE
5
113
100
AcDbEntity
8
0
62
256
6
ByLayer
370
-2
48
1
60
0
100
AcDbLine
10
-1
20
0.166667
30
0
11
-1
21
-0.166667
31
0
39
0
210
0
220
0
230
1
0
LINE
5
114
100
AcDbEntity
8
0
62
256
6
ByLayer
370
-2
48
1
60
0
100
AcDbLine
10
0
20
0
30
0
11
-1
21
0
31
0
39
0
210
0
220
0
230
1
0
ENDBLK
5
110
100
AcDbEntity
8
0
100
AcDbBlockEnd
0
BLOCK
5
121
100
AcDbEntity
8
0
100
AcDbBlockBegin
2
DimnDraft3D2
70
0
10
0
20
0
30
0
3
DimnDraft3D2
0
MTEXT
5
116
100
AcDbEntity
8
SK2
62
256
6
ByLayer
370
-1
48
1
60
0
100
AcDbMText
10
-114.185
20
17.3725
30
0
210
0
220
0
230
1
1
\W01.000;\fsimplex.shx,bigfont.shx;%%c12 
40
4.5
41
0
44
1.084337
50
90
71
7
72
5
7
DEFAULT
0
LINE
5
118
100
AcDbEntity
8
SK2
62
256
6
ByLayer
370
-1
48
1
60
0
100
AcDbLine
10
-105.31
20
-5.9925
30
0
11
-115.06
21
-5.9925
31
0
39
0
210
0
220
0
230
1
0
LINE
5
119
100
AcDbEntity
8
SK2
62
256
6
ByLayer
370
-1
48
1
60
0
100
AcDbLine
10
-105.31
20
5.9925
30
0
11
-115.06
21
5.9925
31
0
39
0
210
0
220
0
230
1
0
LINE
5
11A
100
AcDbEntity
8
SK2
62
256
6
ByLayer
370
-1
48
1
60
0
100
AcDbLine
10
-113.06
20
-5.9925
30
0
11
-113.06
21
24.690921
31
0
39
0
210
0
220
0
230
1
0
LINE
5
11B
100
AcDbEntity
8
SK2
62
256
6
ByLayer
370
-1
48
1
60
0
100
AcDbLine
10
-113.06
20
-5.9925
30
0
11
-113.477997
21
-2.817502
31
0
39
0
210
0
220
0
230
1
0
LINE
5
11C
100
AcDbEntity
8
SK2
62
256
6
ByLayer
370
-1
48
1
60
0
100
AcDbLine
10
-113.06
20
-5.9925
30
0
11
-112.642003
21
-2.817498
31
0
39
0
210
0
220
0
230
1
0
LINE
5
11D
100
AcDbEntity
8
SK2
62
256
6
ByLayer
370
-1
48
1
60
0
100
AcDbLine
10
-113.477997
20
-2.817502
30
0
11
-112.642003
21
-2.817498
31
0
39
0
210
0
220
0
230
1
0
LINE
5
11E
100
AcDbEntity
8
SK2
62
256
6
ByLayer
370
-1
48
1
60
0
100
AcDbLine
10
-113.06
20
5.9925
30
0
11
-112.642003
21
2.817502
31
0
39
0
210
0
220
0
230
1
0
LINE
5
11F
100
AcDbEntity
8
SK2
62
256
6
ByLayer
370
-1
48
1
60
0
100
AcDbLine
10
-113.06
20
5.9925
30
0
11
-113.477997
21
2.817498
31
0
39
0
210
0
220
0
230
1
0
LINE
5
120
100
AcDbEntity
8
SK2
62
256
6
ByLayer
370
-1
48
1
60
0
100
AcDbLine
10
-112.642003
20
2.817502
30
0
11
-113.477997
21
2.817498
31
0
39
0
210
0
220
0
230
1
0
ENDBLK
5
122
100
AcDbEntity
8
0
100
AcDbBlockEnd
0
BLOCK
5
12F
100
AcDbEntity
8
0
100
AcDbBlockBegin
2
DimnDraft3D3
70
0
10
0
20
0
30
0
3
DimnDraft3D3
0
MTEXT
5
125
100
AcDbEntity
8
SK2
62
256
6
ByLayer
370
-1
48
1
60
0
100
AcDbMText
10
-32.812632
20
22.775
30
0
210
0
220
0
230
1
1
\W01.000;\fsimplex.shx,bigfont.shx;150.0 
40
4.5
41
0
44
1.084337
50
0
71
7
72
5
7
DEFAULT
0
LINE
5
126
100
AcDbEntity
8
SK2
62
256
6
ByLayer
370
-1
48
1
60
0
100
AcDbLine
10
47.94
20
10.9
30
0
11
47.94
21
23.65
31
0
39
0
210
0
220
0
230
1
0
LINE
5
127
100
AcDbEntity
8
SK2
62
256
6
ByLayer
370
-1
48
1
60
0
100
AcDbLine
10
-103.31
20
7.9925
30
0
11
-103.31
21
23.65
31
0
39
0
210
0
220
0
230
1
0
LINE
5
128
100
AcDbEntity
8
SK2
62
256
6
ByLayer
370
-1
48
1
60
0
100
AcDbLine
10
47.94
20
21.65
30
0
11
-103.31
21
21.65
31
0
39
0
210
0
220
0
230
1
0
LINE
5
129
100
AcDbEntity
8
SK2
62
256
6
ByLayer
370
-1
48
1
60
0
100
AcDbLine
10
47.94
20
21.65
30
0
11
44.765002
21
21.232003
31
0
39
0
210
0
220
0
230
1
0
LINE
5
12A
100
AcDbEntity
8
SK2
62
256
6
ByLayer
370
-1
48
1
60
0
100
AcDbLine
10
47.94
20
21.65
30
0
11
44.764998
21
22.067997
31
0
39
0
210
0
220
0
230
1
0
LINE
5
12B
100
AcDbEntity
8
SK2
62
256
6
ByLayer
370
-1
48
1
60
0
100
AcDbLine
10
44.765002
20
21.232003
30
0
11
44.764998
21
22.067997
31
0
39
0
210
0
220
0
230
1
0
LINE
5
12C
100
AcDbEntity
8
SK2
62
256
6
ByLayer
370
-1
48
1
60
0
100
AcDbLine
10
-103.31
20
21.65
30
0
11
-100.135002
21
22.067997
31
0
39
0
210
0
220
0
230
1
0
LINE
5
12D
100
AcDbEntity
8
SK2
62
256
6
ByLayer
370
-1
48
1
60
0
100
AcDbLine
10
-103.31
20
21.65
30
0
11
-100.134998
21
21.232003
31
0
39
0
210
0
220
0
230
1
0
LINE
5
12E
100
AcDbEntity
8
SK2
62
256
6
ByLayer
370
-1
48
1
60
0
100
AcDbLine
10
-100.135002
20
22.067997
30
0
11
-100.134998
21
21.232003
31
0
39
0
210
0
220
0
230
1
0
ENDBLK
5
130
100
AcDbEntity
8
0
100
AcDbBlockEnd
0
BLOCK
5
13D
100
AcDbEntity
8
0
100
AcDbBlockBegin
2
DimnDraft3D4
70
0
10
0
20
0
30
0
3
DimnDraft3D4
0
MTEXT
5
133
100
AcDbEntity
8
2
62
256
6
ByLayer
370
-1
48
1
60
0
100
AcDbMText
10
74.236537
20
-37.312521
30
0
210
0
220
0
230
1
1
\W01.000;\fsimplex.shx,bigfont.shx;95%%d0' 
40
4.5
41
0
44
1.084337
50
42.5000000000001
71
7
72
5
7
DEFAULT
0
LINE
5
134
100
AcDbEntity
8
2
62
256
6
ByLayer
370
-1
48
1
60
0
100
AcDbLine
10
47.417066
20
2.922832
30
0
11
42.897134
21
-48.740227
31
0
39
0
210
0
220
0
230
1
0
LINE
5
135
100
AcDbEntity
8
2
62
256
6
ByLayer
370
-1
48
1
60
0
100
AcDbLine
10
49.94
20
0
30
0
11
96.087758
21
0
31
0
39
0
210
0
220
0
230
1
0
ARC
5
136
100
AcDbEntity
8
2
62
256
6
ByLayer
370
-1
48
1
60
0
100
AcDbCircle
39
0
10
47.161351
20
0
30
0
40
46.9264068782929
210
0
220
0
230
1
100
AcDbArc
50
265
51
0
0
LINE
5
137
100
AcDbEntity
8
2
62
256
6
ByLayer
370
-1
48
1
60
0
100
AcDbLine
10
43.071445
20
-46.747838
30
0
11
46.267973
21
-46.554078
31
0
39
0
210
0
220
0
230
1
0
LINE
5
138
100
AcDbEntity
8
2
62
256
6
ByLayer
370
-1
48
1
60
0
100
AcDbLine
10
43.071445
20
-46.747838
30
0
11
46.209206
21
-47.388003
31
0
39
0
210
0
220
0
230
1
0
LINE
5
139
100
AcDbEntity
8
2
62
256
6
ByLayer
370
-1
48
1
60
0
100
AcDbLine
10
46.267973
20
-46.554078
30
0
11
46.209206
21
-47.388003
31
0
39
0
210
0
220
0
230
1
0
LINE
5
13A
100
AcDbEntity
8
2
62
256
6
ByLayer
370
-1
48
1
60
0
100
AcDbLine
10
94.087758
20
0
30
0
11
94.452013
21
-3.181612
31
0
39
0
210
0
220
0
230
1
0
LINE
5
13B
100
AcDbEntity
8
2
62
256
6
ByLayer
370
-1
48
1
60
0
100
AcDbLine
10
94.087758
20
0
30
0
11
93.616139
21
-3.16748
31
0
39
0
210
0
220
0
230
1
0
LINE
5
13C
100
AcDbEntity
8
2
62
256
6
ByLayer
370
-1
48
1
60
0
100
AcDbLine
10
94.452013
20
-3.181612
30
0
11
93.616139
21
-3.16748
31
0
39
0
210
0
220
0
230
1
0
ENDBLK
5
13E
100
AcDbEntity
8
0
100
AcDbBlockEnd
0
ENDSEC
0
SECTION
2
ENTITIES
0
ELLIPSE
5
8F
100
AcDbEntity
8
1
62
256
6
ByLayer
370
-1
48
1
60
0
100
AcDbEllipse
10
43.048102
20
3.931837
30
0
11
-0.637006607103566
21
-1.07551038233315
31
0
210
0
220
0
230
1
40
0.993273
41
-0.8864438427223
42
0.406274492571365
0
ELLIPSE
5
90
100
AcDbEntity
8
1
62
256
6
ByLayer
370
-1
48
1
60
0
100
AcDbEllipse
10
43.262313
20
3.804963
30
0
11
-0.637006607103566
21
-1.07551038233315
31
0
210
0
220
0
230
1
40
0.993273
41
-0.685213549203939
42
-0.100442925811853
0
ELLIPSE
5
91
100
AcDbEntity
8
1
62
256
6
ByLayer
370
-1
48
1
60
0
100
AcDbEllipse
10
42.928094
20
3.817783
30
0
11
0.637006607103565
21
1.07551038233315
31
0
210
0
220
0
230
1
40
0.993273
41
2.71466276461252
42
3.06809193814136
0
ELLIPSE
5
92
100
AcDbEntity
8
1
62
256
6
ByLayer
370
-1
48
1
60
0
100
AcDbEllipse
10
42.882113
20
3.845017
30
0
11
1.25325588224513
21
-0.0872477017517937
31
0
210
0
220
0
230
-1
40
0.993728
41
2.11204550475173
42
2.46547467827747
0
ELLIPSE
5
93
100
AcDbEntity
8
1
62
256
6
ByLayer
370
-1
48
1
60
0
100
AcDbEllipse
10
45.866812
20
-2.569354
30
0
11
6.32972804857877
21
-8.99993679901382
31
0
210
0
220
0
230
-1
40
0.037636
41
-3.12074455924425
42
-3.02649824799229
0
ELLIPSE
5
94
100
AcDbEntity
8
1
62
256
6
ByLayer
370
-1
48
1
60
0
100
AcDbEllipse
10
47.5451
20
8.503817
30
0
11
0.202249597755375
21
0.341474546390764
31
0
210
0
220
0
230
1
40
0.993273
41
-1.12069826664497
42
0.624630985349296
0
ELLIPSE
5
95
100
AcDbEntity
8
1
62
256
6
ByLayer
370
-1
48
1
60
0
100
AcDbEllipse
10
40.349612
20
6.529352
30
0
11
0.202249597755375
21
0.341474546390764
31
0
210
0
220
0
230
1
40
0.993273
41
0.973696835748212
42
2.71902608774258
0
ELLIPSE
5
96
100
AcDbEntity
8
1
62
256
6
ByLayer
370
-1
48
1
60
0
100
AcDbEllipse
10
45.614898
20
1.274873
30
0
11
0.202249597755375
21
0.341474546390764
31
0
210
0
220
0
230
1
40
0.993273
41
3.06809193814147
42
-1.46976411704376
0
ELLIPSE
5
97
100
AcDbEntity
8
1
62
256
6
ByLayer
370
-1
48
1
60
0
100
AcDbEllipse
10
44.609948
20
5.372791
30
0
11
0.403199702032276
21
0.680755051601599
31
0
210
0
220
0
230
1
40
0.993273
41
0
42
-3.14153609202102
0
ELLIPSE
5
98
100
AcDbEntity
8
1
62
256
6
ByLayer
370
-1
48
1
60
0
100
AcDbEllipse
10
44.500352
20
5.437703
30
0
11
0.52746695094603
21
0.890565616987134
31
0
210
0
220
0
230
1
40
0.993273
41
-1.77504408243128
42
-0.771632024897787
0
ELLIPSE
5
99
100
AcDbEntity
8
1
62
256
6
ByLayer
370
-1
48
1
60
0
100
AcDbEllipse
10
44.506523
20
5.434048
30
0
11
0.47279684138681
21
0.798261597250849
31
0
210
0
220
0
230
1
40
0.993273
41
-1.55896763534662
42
-1.55691980831123
0
ELLIPSE
5
9A
100
AcDbEntity
8
1
62
256
6
ByLayer
370
-1
48
1
60
0
100
AcDbEllipse
10
44.506523
20
5.434048
30
0
11
0.47279684138681
21
0.798261597250849
31
0
210
0
220
0
230
1
40
0.993273
41
0.0136549758188841
42
0.0138765184836833
0
ELLIPSE
5
9B
100
AcDbEntity
8
1
62
256
6
ByLayer
370
-1
48
1
60
0
100
AcDbEllipse
10
44.506523
20
5.434048
30
0
11
0.47279684138681
21
0.798261597250849
31
0
210
0
220
0
230
1
40
0.993273
41
0.537253751417259
42
0.537475294081964
0
ELLIPSE
5
9C
100
AcDbEntity
8
1
62
256
6
ByLayer
370
-1
48
1
60
0
100
AcDbEllipse
10
44.506523
20
5.434048
30
0
11
0.47279684138681
21
0.798261597250849
31
0
210
0
220
0
230
1
40
0.993273
41
1.06085252701565
42
1.06290035405088
0
ELLIPSE
5
9D
100
AcDbEntity
8
1
62
256
6
ByLayer
370
-1
48
1
60
0
100
AcDbEllipse
10
45.142624
20
4.796749
30
0
11
0.177658295087212
21
0.165863825019006
31
0
210
0
220
0
230
-1
40
0.497247
41
1.36569933863599
42
1.51767591409483
0
ELLIPSE
5
9E
100
AcDbEntity
8
1
62
256
6
ByLayer
370
-1
48
1
60
0
100
AcDbEllipse
10
44.506523
20
5.434048
30
0
11
0.47279684138681
21
0.798261597250849
31
0
210
0
220
0
230
1
40
0.993273
41
-3.12793767777082
42
-3.1277161351061
0
ELLIPSE
5
9F
100
AcDbEntity
8
1
62
256
6
ByLayer
370
-1
48
1
60
0
100
AcDbEllipse
10
44.506523
20
5.434048
30
0
11
0.47279684138681
21
0.798261597250849
31
0
210
0
220
0
230
1
40
0.993273
41
-2.60433890217259
42
-2.60411735950782
0
ELLIPSE
5
A0
100
AcDbEntity
8
1
62
256
6
ByLayer
370
-1
48
1
60
0
100
AcDbEllipse
10
43.858079
20
6.078657
30
0
11
0.164017925241834
21
0.179447582820733
31
0
210
0
220
0
230
-1
40
0.496994
41
-1.51344643656714
42
-1.3614698512522
0
ELLIPSE
5
A1
100
AcDbEntity
8
1
62
256
6
ByLayer
370
-1
48
1
60
0
100
AcDbEllipse
10
44.500352
20
5.437703
30
0
11
0.52746695094603
21
0.890565616987134
31
0
210
0
220
0
230
1
40
0.993273
41
1.31441977210976
42
2.3699598459953
0
ELLIPSE
5
A2
100
AcDbEntity
8
1
62
256
6
ByLayer
370
-1
48
1
60
0
100
AcDbEllipse
10
44.500352
20
5.437703
30
0
11
0.52746695094603
21
0.890565616987134
31
0
210
0
220
0
230
1
40
0.993273
41
-0.771632024897787
42
1.27897680113689
0
ELLIPSE
5
A3
100
AcDbEntity
8
1
62
256
6
ByLayer
370
-1
48
1
60
0
100
AcDbEllipse
10
44.599985
20
5.378692
30
0
11
-0.403199702032272
21
-0.68075505160159
31
0
210
0
220
0
230
1
40
0.993273
41
-1.03902476193211
42
0
0
ELLIPSE
5
A4
100
AcDbEntity
8
1
62
256
6
ByLayer
370
-1
48
1
60
0
100
AcDbEllipse
10
44.599985
20
5.378692
30
0
11
-0.403199702032272
21
-0.68075505160159
31
0
210
0
220
0
230
1
40
0.993273
41
0
42
0.504772757420506
0
ELLIPSE
5
A5
100
AcDbEntity
8
1
62
256
6
ByLayer
370
-1
48
1
60
0
100
AcDbEllipse
10
44.599985
20
5.378692
30
0
11
-0.403199702032272
21
-0.68075505160159
31
0
210
0
220
0
230
1
40
0.993273
41
0.971594585984642
42
1.60992667337943
0
ELLIPSE
5
A6
100
AcDbEntity
8
1
62
256
6
ByLayer
370
-1
48
1
60
0
100
AcDbEllipse
10
44.599985
20
5.378692
30
0
11
-0.403199702032272
21
-0.68075505160159
31
0
210
0
220
0
230
1
40
0.993273
41
2.15312730666803
42
2.84781136776818
0
ELLIPSE
5
A7
100
AcDbEntity
8
1
62
256
6
ByLayer
370
-1
48
1
60
0
100
AcDbEllipse
10
44.599985
20
5.378692
30
0
11
-0.403199702032272
21
-0.68075505160159
31
0
210
0
220
0
230
1
40
0.993273
41
-3.14153596595182
42
-1.03902476193212
0
ELLIPSE
5
A8
100
AcDbEntity
8
1
62
256
6
ByLayer
370
-1
48
1
60
0
100
AcDbEllipse
10
44.500352
20
5.437703
30
0
11
0.52746695094603
21
0.890565616987134
31
0
210
0
220
0
230
1
40
0.993273
41
2.3699598459953
42
-1.81048705340678
0
ELLIPSE
5
A9
100
AcDbEntity
8
1
62
256
6
ByLayer
370
-1
48
1
60
0
100
AcDbEllipse
10
43.957712
20
6.019646
30
0
11
0.164017928333421
21
0.179447587399617
31
0
210
0
220
0
230
-1
40
0.496994
41
-3.1264813953603
42
-0.415051420767049
0
ELLIPSE
5
AA
100
AcDbEntity
8
1
62
256
6
ByLayer
370
-1
48
1
60
0
100
AcDbEllipse
10
44.365106
20
6.257857
30
0
11
0.233058984262107
21
0.0644619311870256
31
0
210
0
220
0
230
-1
40
0.481195
41
0.150041119722594
42
2.7078813201195
0
ELLIPSE
5
AB
100
AcDbEntity
8
1
62
256
6
ByLayer
370
-1
48
1
60
0
100
AcDbEllipse
10
44.599985
20
5.378692
30
0
11
-0.472796841386811
21
-0.798261597250848
31
0
210
0
220
0
230
1
40
0.993273
41
-2.60433890217256
42
-2.60411735950786
0
ELLIPSE
5
AC
100
AcDbEntity
8
1
62
256
6
ByLayer
370
-1
48
1
60
0
100
AcDbEllipse
10
44.835435
20
6.260496
30
0
11
0.233213942184327
21
-0.0611185572201265
31
0
210
0
220
0
230
-1
40
0.484072
41
2.99801136030592
42
-1.03743289308208
0
ELLIPSE
5
AD
100
AcDbEntity
8
1
62
256
6
ByLayer
370
-1
48
1
60
0
100
AcDbEllipse
10
45.242676
20
6.026856
30
0
11
0.170467587006376
21
-0.170452696335911
31
0
210
0
220
0
230
-1
40
0.484163
41
0.119325309945938
42
1.08441165580454
0
ELLIPSE
5
AE
100
AcDbEntity
8
1
62
256
6
ByLayer
370
-1
48
1
60
0
100
AcDbEllipse
10
44.364534
20
4.496888
30
0
11
0.233213942184326
21
-0.0611185572201417
31
0
210
0
220
0
230
-1
40
0.484072
41
2.1041602443468
42
-2.99354206016559
0
ELLIPSE
5
AF
100
AcDbEntity
8
1
62
256
6
ByLayer
370
-1
48
1
60
0
100
AcDbEllipse
10
43.957294
20
4.730527
30
0
11
0.170467587006393
21
-0.170452696335872
31
0
210
0
220
0
230
-1
40
0.484163
41
-2.05717666370323
42
-0.147847735072825
0
ELLIPSE
5
B0
100
AcDbEntity
8
1
62
256
6
ByLayer
370
-1
48
1
60
0
100
AcDbEllipse
10
43.722262
20
5.137842
30
0
11
0.0618688336151381
21
-0.233714463770777
31
0
210
0
220
0
230
-1
40
0.502547
41
0.76324682960679
42
-3.02960200646392
0
ELLIPSE
5
B1
100
AcDbEntity
8
1
62
256
6
ByLayer
370
-1
48
1
60
0
100
AcDbEllipse
10
43.722415
20
5.609692
30
0
11
0.06279907867657
21
0.234206805310763
31
0
210
0
220
0
230
-1
40
0.478537
41
0.0650389437817735
42
3.0180417219889
0
ELLIPSE
5
B2
100
AcDbEntity
8
1
62
256
6
ByLayer
370
-1
48
1
60
0
100
AcDbEllipse
10
44.51768
20
5.427439
30
0
11
0.879069117802924
21
1.48420432761976
31
0
210
0
220
0
230
1
40
0.993273
41
0
42
6.28318530717959
0
ELLIPSE
5
B3
100
AcDbEntity
8
1
62
256
6
ByLayer
370
-1
48
1
60
0
100
AcDbEllipse
10
44.500352
20
5.437703
30
0
11
0.662486871387707
21
1.11853079762648
31
0
210
0
220
0
230
1
40
0.993273
41
0
42
6.28318530717959
0
ELLIPSE
5
B4
100
AcDbEntity
8
1
62
256
6
ByLayer
370
-1
48
1
60
0
100
AcDbEllipse
10
44.590021
20
5.384593
30
0
11
0.879069117802913
21
1.48420432761974
31
0
210
0
220
0
230
1
40
0.993273
41
-3.14153625777002
42
-1.03902566338629
0
ELLIPSE
5
B5
100
AcDbEntity
8
1
62
256
6
ByLayer
370
-1
48
1
60
0
100
AcDbEllipse
10
44.590021
20
5.384593
30
0
11
0.879069117802913
21
1.48420432761974
31
0
210
0
220
0
230
1
40
0.993273
41
-1.03902508267423
42
0
0
ELLIPSE
5
B6
100
AcDbEntity
8
1
62
256
6
ByLayer
370
-1
48
1
60
0
100
AcDbEllipse
10
44.503203
20
5.436014
30
0
11
-0.95550991065534
21
-1.61326557349971
31
0
210
0
220
0
230
1
40
0.993273
41
0
42
6.28318530717959
0
ELLIPSE
5
B7
100
AcDbEntity
8
1
62
256
6
ByLayer
370
-1
48
1
60
0
100
AcDbEllipse
10
44.581398
20
5.389701
30
0
11
-0.905304601122631
21
-1.52849984101195
31
0
210
0
220
0
230
1
40
0.993273
41
-0.777585578242416
42
0
0
ELLIPSE
5
B8
100
AcDbEntity
8
1
62
256
6
ByLayer
370
-1
48
1
60
0
100
AcDbEllipse
10
44.581398
20
5.389701
30
0
11
-0.905304601122631
21
-1.52849984101195
31
0
210
0
220
0
230
1
40
0.993273
41
0
42
-2.36418807829438
0
ELLIPSE
5
B9
100
AcDbEntity
8
1
62
256
6
ByLayer
370
-1
48
1
60
0
100
AcDbEllipse
10
44.557281
20
5.403985
30
0
11
0.943433525699583
21
1.5928760245435
31
0
210
0
220
0
230
1
40
0.993273
41
-0.383905062764091
42
-9.66015735880391E-16
0
ELLIPSE
5
BA
100
AcDbEntity
8
1
62
256
6
ByLayer
370
-1
48
1
60
0
100
AcDbEllipse
10
44.557281
20
5.403985
30
0
11
0.943433525699583
21
1.5928760245435
31
0
210
0
220
0
230
1
40
0.993273
41
0
42
-2.75767294213406
0
ELLIPSE
5
BB
100
AcDbEntity
8
1
62
256
6
ByLayer
370
-1
48
1
60
0
100
AcDbEllipse
10
44.503203
20
5.436014
30
0
11
-1.61799678204307
21
-2.73179637112623
31
0
210
0
220
0
230
1
40
0.993273
41
-0.422566565847354
42
-0.0735007154484818
0
ELLIPSE
5
BC
100
AcDbEntity
8
1
62
256
6
ByLayer
370
-1
48
1
60
0
100
AcDbEllipse
10
44.503203
20
5.436014
30
0
11
-1.61799678204307
21
-2.73179637112623
31
0
210
0
220
0
230
1
40
0.993273
41
-2.51696166824055
42
-2.16789581784169
0
ELLIPSE
5
BD
100
AcDbEntity
8
1
62
256
6
ByLayer
370
-1
48
1
60
0
100
AcDbEllipse
10
44.503203
20
5.436014
30
0
11
-1.61799678204307
21
-2.73179637112623
31
0
210
0
220
0
230
1
40
0.993273
41
1.67182853654584
42
2.02089438694471
0
POINT
5
41
100
AcDbEntity
8
80
62
256
6
ByLayer
370
-1
48
1
60
0
100
AcDbPoint
10
0
20
0
30
0
39
0
210
0
220
0
230
1
50
360
0
POINT
5
43
100
AcDbEntity
8
81
62
256
6
ByLayer
370
-1
48
1
60
0
100
AcDbPoint
10
47.94
20
8.9
30
0
39
0
210
0
220
0
230
1
50
360
0
POINT
5
45
100
AcDbEntity
8
1
62
256
6
ByLayer
370
-1
48
1
60
0
100
AcDbPoint
10
-103.31
20
0
30
0
39
0
210
0
220
0
230
1
50
360
0
POINT
5
47
100
AcDbEntity
8
2
62
256
6
ByLayer
370
-1
48
1
60
0
100
AcDbPoint
10
47.94
20
8.9
30
0
39
0
210
0
220
0
230
1
50
360
0
SPLINE
5
BE
100
AcDbEntity
8
1
62
256
6
ByLayer
370
-1
48
1
60
0
100
AcDbSpline
70
4
71
3
72
10
73
6
40
0
40
0
40
0
40
0
40
0.5
40
0.5
40
1
40
1
40
1
40
1
41
1
10
36.458987848402
20
-4.94855999724717
30
0
41
1
10
35.4964923038332
20
-4.51985791934135
30
0
41
1
10
34.6368965771707
20
-3.90415429110496
30
0
41
1
10
33.1011473053388
20
-2.28574407719805
30
0
41
1
10
32.4216672232646
20
-1.28640876667484
30
0
41
1
10
31.8644275415201
20
-0.205965906324195
30
0
0
SPLINE
5
BF
100
AcDbEntity
8
1
62
256
6
ByLayer
370
-1
48
1
60
0
100
AcDbSpline
70
4
71
3
72
14
73
10
40
0
40
0
40
0
40
0
40
0.25
40
0.25
40
0.5
40
0.5
40
0.75
40
0.75
40
1
40
1
40
1
40
1
41
1
10
31.660143834144
20
0.205965906324252
30
0
41
1
10
31.224333520687
20
1.12117402384695
30
0
41
1
10
30.874026212971
20
2.08948523273963
30
0
41
1
10
30.666141593407
20
3.83944973891241
30
0
41
1
10
30.8637344036225
20
4.59343615574014
30
0
41
1
10
31.9454834369155
20
5.52204279364776
30
0
41
1
10
32.7555625545962
20
5.72517013362659
30
0
41
1
10
34.5053399010419
20
5.9509734699453
30
0
41
1
10
35.4692707802163
20
5.9756661708013
30
0
41
1
10
36.458987848402
20
5.9863653522649
30
0
0
SPLINE
5
C0
100
AcDbEntity
8
1
62
256
6
ByLayer
370
-1
48
1
60
0
100
AcDbSpline
70
4
71
3
72
8
73
4
40
0
40
0
40
0
40
0
40
1
40
1
40
1
40
1
41
1
10
38.2746005421495
20
5.91746806617221
30
0
41
1
10
38.6278218493576
20
6.06098760274804
30
0
41
1
10
38.9803080148635
20
6.20384740729764
30
0
41
1
10
39.3318205014227
20
6.34672925914327
30
0
0
SPLINE
5
C1
100
AcDbEntity
8
1
62
256
6
ByLayer
370
-1
48
1
60
0
100
AcDbSpline
70
4
71
3
72
8
73
4
40
0
40
0
40
0
40
0
40
1
40
1
40
1
40
1
41
1
10
39.9471241833187
20
6.53710115057015
30
0
41
1
10
39.8373526640598
20
6.49090754279442
30
0
41
1
10
39.7275978404995
20
6.44467350728971
30
0
41
1
10
39.6178608331949
20
6.39839647000738
30
0
0
SPLINE
5
C2
100
AcDbEntity
8
1
62
256
6
ByLayer
370
-1
48
1
60
0
100
AcDbSpline
70
4
71
3
72
8
73
4
40
0
40
0
40
0
40
0
40
1
40
1
40
1
40
1
41
1
10
39.3318205014226
20
6.34672925914327
30
0
41
1
10
39.4030537448713
20
6.37568395670337
30
0
41
1
10
39.4742870720143
20
6.40463844888927
30
0
41
1
10
39.5455204794999
20
6.4335927439208
30
0
0
SPLINE
5
C3
100
AcDbEntity
8
1
62
256
6
ByLayer
370
-1
48
1
60
0
100
AcDbSpline
70
4
71
3
72
12
73
8
40
0
40
0
40
0
40
0
40
0.214061009162338
40
0.214061009162338
40
0.599594622003905
40
0.599594622003905
40
1
40
1
40
1
40
1
41
1
10
31.8644275415201
20
-0.205965906324224
30
0
41
1
10
31.8557500299491
20
-0.175627916872372
30
0
41
1
10
31.8453164812952
20
-0.144710705231233
30
0
41
1
10
31.8122555645884
20
-0.0587013716547915
30
0
41
1
10
31.786178497902
20
-0.0031736809511074
30
0
41
1
10
31.727715183793
20
0.104289469910753
30
0
41
1
10
31.6946230576507
20
0.157037196245
30
0
41
1
10
31.660143834144
20
0.205965906324252
30
0
0
SPLINE
5
C4
100
AcDbEntity
8
1
62
256
6
ByLayer
370
-1
48
1
60
0
100
AcDbSpline
70
4
71
3
72
8
73
4
40
0
40
0
40
0
40
0
40
1
40
1
40
1
40
1
41
1
10
36.533987848402
20
5.91154341612483
30
0
41
1
10
36.5089875824702
20
5.93648548523913
30
0
41
1
10
36.4839875752621
20
5.96142614569669
30
0
41
1
10
36.458987848402
20
5.98636535226473
30
0
0
SPLINE
5
C5
100
AcDbEntity
8
1
62
256
6
ByLayer
370
-1
48
1
60
0
100
AcDbSpline
70
4
71
3
72
8
73
4
40
0
40
0
40
0
40
0
40
1
40
1
40
1
40
1
41
1
10
36.533987848402
20
-4.91183934023604
30
0
41
1
10
36.9066912951935
20
-5.07299516156937
30
0
41
1
10
37.2935712142561
20
-5.20705454646915
30
0
41
1
10
37.6919505411692
20
-5.31777413827089
30
0
0
SPLINE
5
C6
100
AcDbEntity
8
1
62
256
6
ByLayer
370
-1
48
1
60
0
100
AcDbSpline
70
4
71
3
72
8
73
4
40
0
40
0
40
0
40
0
40
1
40
1
40
1
40
1
41
1
10
38.2746005421497
20
5.91746806617192
30
0
41
1
10
37.6893013384826
20
5.91765049185196
30
0
41
1
10
37.1062535809254
20
5.91759011766936
30
0
41
1
10
36.533987848402
20
5.91154341612483
30
0
0
SPLINE
5
C7
100
AcDbEntity
8
1
62
256
6
ByLayer
370
-1
48
1
60
0
100
AcDbSpline
70
4
71
3
72
28
73
24
40
-0.124999999999989
40
-0.124999999999989
40
0
40
0
40
0.125000000000003
40
0.125000000000003
40
0.187500000000005
40
0.187500000000005
40
0.250000000000007
40
0.250000000000007
40
0.37500000000001
40
0.37500000000001
40
0.500000000000014
40
0.500000000000014
40
0.625000000000018
40
0.625000000000018
40
0.687500000000024
40
0.687500000000024
40
0.718750000000023
40
0.718750000000023
40
0.750000000000022
40
0.750000000000022
40
0.875000000000011
40
0.875000000000011
40
1
40
1
40
1.125
40
1.125
41
1
10
36.3498462741331
20
2.59093324529218
30
0
41
1
10
35.6229482731681
20
2.25935989983822
30
0
41
1
10
35.2438056863605
20
2.14877451752986
30
0
41
1
10
34.6568173955156
20
2.21039266235619
30
0
41
1
10
34.456925075455
20
2.27274959631688
30
0
41
1
10
34.1209929197164
20
2.54210563948868
30
0
41
1
10
34.0013737128201
20
2.76313209356042
30
0
41
1
10
33.9664515905283
20
3.40357663267972
30
0
41
1
10
34.2580635502258
20
3.71815827718967
30
0
41
1
10
34.8864913806499
20
4.15287905834413
30
0
41
1
10
35.2632576846996
20
4.29793826363382
30
0
41
1
10
36.0495970500083
20
4.50571287798832
30
0
41
1
10
36.4699774871156
20
4.57318091761672
30
0
41
1
10
37.1171338873378
20
4.58841595772702
30
0
41
1
10
37.3383938041207
20
4.58383250998656
30
0
41
1
10
37.6550949840252
20
4.49287035485335
30
0
41
1
10
37.7667891750862
20
4.44436118451569
30
0
41
1
10
37.8866999265973
20
4.25619170467564
30
0
41
1
10
37.8701004298068
20
4.13159576359067
30
0
41
1
10
37.6736585133182
20
3.62262221465687
30
0
41
1
10
37.3243794569111
20
3.33453980455673
30
0
41
1
10
36.6854288456588
20
2.81065530374823
30
0
41
1
10
36.3498462741331
20
2.59093324529218
30
0
41
1
10
35.6229482731681
20
2.25935989983822
30
0
0
SPLINE
5
C8
100
AcDbEntity
8
1
62
256
6
ByLayer
370
-1
48
1
60
0
100
AcDbSpline
70
4
71
3
72
8
73
4
40
0
40
0
40
0
40
0
40
1
40
1
40
1
40
1
41
1
10
36.4589878484019
20
-4.94855999724709
30
0
41
1
10
36.4839432345748
20
-4.9365400247795
30
0
41
1
10
36.5089440358966
20
-4.92429832061583
30
0
41
1
10
36.5339878484021
20
-4.9118393402363
30
0
0
SPLINE
5
C9
100
AcDbEntity
8
1
62
256
6
ByLayer
370
-1
48
1
60
0
100
AcDbSpline
70
4
71
3
72
22
73
18
40
0
40
0
40
0
40
0
40
0.167842784245731
40
0.167842784245731
40
0.335898034469839
40
0.335898034469839
40
0.454065247808146
40
0.454065247808146
40
0.642558083166932
40
0.642558083166932
40
0.755508761174786
40
0.755508761174786
40
0.870151412063566
40
0.870151412063566
40
0.967012982269933
40
0.967012982269933
40
1
40
1
40
1
40
1
41
1
10
43.8049247696203
20
6.19568291010657
30
0
41
1
10
43.8167594743047
20
6.20614165385973
30
0
41
1
10
43.8291664801328
20
6.21600361296186
30
0
41
1
10
43.8550462568132
20
6.23414984003153
30
0
41
1
10
43.8685763782614
20
6.24247674059382
30
0
41
1
10
43.8925158083655
20
6.25478134309591
30
0
41
1
10
43.9027016956914
20
6.25933498028257
30
0
41
1
10
43.9296153725412
20
6.26916208051179
30
0
41
1
10
43.947044872426
20
6.27344483688606
30
0
41
1
10
43.9747733586119
20
6.27483021467322
30
0
41
1
10
43.9853350557689
20
6.27407582503423
30
0
41
1
10
44.0052184611281
20
6.26911557125177
30
0
41
1
10
44.014786007229
20
6.26471938130399
30
0
41
1
10
44.0294158334756
20
6.25356455079455
30
0
41
1
10
44.0351289878668
20
6.24715431523703
30
0
41
1
10
44.0410437845143
20
6.23769459603309
30
0
41
1
10
44.0424199441377
20
6.23518323378391
30
0
41
1
10
44.0436579753653
20
6.23261091839177
30
0
0
SPLINE
5
CA
100
AcDbEntity
8
1
62
256
6
ByLayer
370
-1
48
1
60
0
100
AcDbSpline
70
4
71
3
72
24
73
20
40
0
40
0
40
0
40
0
40
0.157271741032845
40
0.157271741032845
40
0.348948952038797
40
0.348948952038797
40
0.444424851182217
40
0.444424851182217
40
0.539981403189403
40
0.539981403189403
40
0.63570361308943
40
0.63570361308943
40
0.713564507856487
40
0.713564507856487
40
0.838051590548279
40
0.838051590548279
40
0.924253033978969
40
0.924253033978969
40
1
40
1
40
1
40
1
41
1
10
45.4952451441047
20
5.71070537553783
30
0
41
1
10
45.4995390619192
20
5.69463304924275
30
0
41
1
10
45.5030379519386
20
5.67829228131882
30
0
41
1
10
45.5088815649811
20
5.64175922011106
30
0
41
1
10
45.5108312915118
20
5.62140036593544
30
0
41
1
10
45.5114209368195
20
5.59092694197983
30
0
41
1
10
45.5112273449783
20
5.58076411489523
30
0
41
1
10
45.509929042206
20
5.56053978239157
30
0
41
1
10
45.5088224969037
20
5.55044909261014
30
0
41
1
10
45.505503836102
20
5.53054125669834
30
0
41
1
10
45.5032827928924
20
5.52067683213383
30
0
41
1
10
45.4980034862987
20
5.50336106991725
30
0
41
1
10
45.4951632611899
20
5.49575997707069
30
0
41
1
10
45.4864244279731
20
5.47714017586856
30
0
41
1
10
45.4795135793295
20
5.4664337973488
30
0
41
1
10
45.4653464919269
20
5.45225374253891
30
0
41
1
10
45.4586927579656
20
5.44747031468083
30
0
41
1
10
45.4455147682411
20
5.44144179269458
30
0
41
1
10
45.4389475586386
20
5.43977698681738
30
0
41
1
10
45.432431351035
20
5.43927294169075
30
0
0
SPLINE
5
CB
100
AcDbEntity
8
1
62
256
6
ByLayer
370
-1
48
1
60
0
100
AcDbSpline
70
4
71
3
72
22
73
18
40
0
40
0
40
0
40
0
40
0.0991354884066211
40
0.0991354884066211
40
0.206229847800353
40
0.206229847800353
40
0.367627630833058
40
0.367627630833058
40
0.507529288582347
40
0.507529288582347
40
0.647011593781504
40
0.647011593781504
40
0.786332448955977
40
0.786332448955977
40
0.892876682573825
40
0.892876682573825
40
1
40
1
40
1
40
1
41
1
10
44.9715076915901
20
4.62659681040003
30
0
41
1
10
44.9772606146421
20
4.62048137241786
30
0
41
1
10
44.9847288386852
20
4.61565363035297
30
0
41
1
10
45.0019283209734
20
4.60906039015242
30
0
41
1
10
45.0120146080662
20
4.60741382252291
30
0
41
1
10
45.0375811847637
20
4.60679775941796
30
0
41
1
10
45.0536697496059
20
4.60946108564946
30
0
41
1
10
45.0828315038536
20
4.61757743132182
30
0
41
1
10
45.0962751702405
20
4.62269055673173
30
0
41
1
10
45.1223941465721
20
4.63463659182185
30
0
41
1
10
45.1351548155578
20
4.64150768591316
30
0
41
1
10
45.159906498781
20
4.65654928270851
30
0
41
1
10
45.1719435221801
20
4.66474845415931
30
0
41
1
10
45.1924957685675
20
4.68016692587167
30
0
41
1
10
45.2011906074155
20
4.68717782566162
30
0
41
1
10
45.2181441750169
20
4.70180814199205
30
0
41
1
10
45.226412009068
20
4.70944086809283
30
0
41
1
10
45.2344156983424
20
4.71734024625931
30
0
0
SPLINE
5
CC
100
AcDbEntity
8
1
62
256
6
ByLayer
370
-1
48
1
60
0
100
AcDbSpline
70
4
71
3
72
42
73
38
40
0
40
0
40
0
40
0
40
0.0453868446055385
40
0.0453868446055385
40
0.0855289172227042
40
0.0855289172227042
40
0.136755260759458
40
0.136755260759458
40
0.176187381922974
40
0.176187381922974
40
0.232899104725431
40
0.232899104725431
40
0.289415721421843
40
0.289415721421843
40
0.345854377934122
40
0.345854377934122
40
0.459254087222067
40
0.459254087222067
40
0.515653380606079
40
0.515653380606079
40
0.572053913253382
40
0.572053913253382
40
0.659762760606354
40
0.659762760606354
40
0.726494882950593
40
0.726494882950593
40
0.778219441680292
40
0.778219441680292
40
0.86134893330109
40
0.86134893330109
40
0.909456127368883
40
0.909456127368883
40
0.950205311078194
40
0.950205311078194
40
0.9911172020006
40
0.9911172020006
40
1
40
1
40
1
40
1
41
1
10
44.0447735439612
20
4.62934682406012
30
0
41
1
10
44.039947698671
20
4.62261258281933
30
0
41
1
10
44.0365050557344
20
4.6148429693217
30
0
41
1
10
44.0337114245298
20
4.59959650307116
30
0
41
1
10
44.0338936600007
20
4.59201198963177
30
0
41
1
10
44.0372369429301
20
4.57528451988981
30
0
41
1
10
44.0411934930215
20
4.56602516831106
30
0
41
1
10
44.0503008240589
20
4.5508172349177
30
0
41
1
10
44.055027666361
20
4.54447500478963
30
0
41
1
10
44.0676641756025
20
4.52988086440701
30
0
41
1
10
44.0761242228606
20
4.52191812621172
30
0
41
1
10
44.0940864296588
20
4.50724428485827
30
0
41
1
10
44.103648323699
20
4.50048201091039
30
0
41
1
10
44.1234568506099
20
4.48799116423527
30
0
41
1
10
44.1337394570095
20
4.48224059639409
30
0
41
1
10
44.1653667860766
20
4.46632354045175
30
0
41
1
10
44.1875579039317
20
4.45744804721716
30
0
41
1
10
44.2215532475294
20
4.44658678290051
30
0
41
1
10
44.2330181743988
20
4.44337263347927
30
0
41
1
10
44.2561591397284
20
4.43776094245112
30
0
41
1
10
44.2678519070624
20
4.4353592945391
30
0
41
1
10
44.2978998187703
20
4.43032611613864
30
0
41
1
10
44.3164263062084
20
4.42828485062628
30
0
41
1
10
44.3491239094821
20
4.42685537556252
30
0
41
1
10
44.3633307636315
20
4.42694830079577
30
0
41
1
10
44.3883958401162
20
4.42869361815974
30
0
41
1
10
44.3993281790538
20
4.42999428903198
30
0
41
1
10
44.4272696933196
20
4.43512200370273
30
0
41
1
10
44.4443848434954
20
4.44004090141306
30
0
41
1
10
44.4686433975933
20
4.45195794906525
30
0
41
1
10
44.4770925237579
20
4.45733284283813
30
0
41
1
10
44.4902178167623
20
4.46907558437258
30
0
41
1
10
44.4953728790758
20
4.47530181133553
30
0
41
1
10
44.5027392143459
20
4.48864290947259
30
0
41
1
10
44.5050194469246
20
4.49592877774072
30
0
41
1
10
44.5059761938011
20
4.50472830413091
30
0
41
1
10
44.5060806009741
20
4.50631968706927
30
0
41
1
10
44.5061195691051
20
4.507908035805
30
0
0
SPLINE
5
CD
100
AcDbEntity
8
1
62
256
6
ByLayer
370
-1
48
1
60
0
100
AcDbSpline
70
4
71
3
72
36
73
32
40
0
40
0
40
0
40
0
40
0.0492962859145673
40
0.0492962859145673
40
0.128955121084829
40
0.128955121084829
40
0.19339085886123
40
0.19339085886123
40
0.257664558572299
40
0.257664558572299
40
0.321869855696738
40
0.321869855696738
40
0.386043638223399
40
0.386043638223399
40
0.490448583703204
40
0.490448583703204
40
0.594841290247936
40
0.594841290247936
40
0.692807648700131
40
0.692807648700131
40
0.776462598778574
40
0.776462598778574
40
0.84222339028634
40
0.84222339028634
40
0.892525018755193
40
0.892525018755193
40
0.931489584935647
40
0.931489584935647
40
0.988987173585561
40
0.988987173585561
40
1
40
1
40
1
40
1
41
1
10
45.3058984322409
20
4.97555368590866
30
0
41
1
10
45.2994392560494
20
4.97957586387716
30
0
41
1
10
45.2937927740518
20
4.98504244571058
30
0
41
1
10
45.2814203716217
20
5.00126937852721
30
0
41
1
10
45.2758436989018
20
5.01344758136676
30
0
41
1
10
45.2685077979865
20
5.03671415938592
30
0
41
1
10
45.2661724623089
20
5.04776192719314
30
0
41
1
10
45.2629803843731
20
5.07035322252341
30
0
41
1
10
45.2621128970037
20
5.08197086553633
30
0
41
1
10
45.2615548050609
20
5.10547529184691
30
0
41
1
10
45.2618636000652
20
5.1174122098291
30
0
41
1
10
45.2634780625944
20
5.14140185937001
30
0
41
1
10
45.2647867863399
20
5.15349390901022
30
0
41
1
10
45.2693806263424
20
5.18520827688047
30
0
41
1
10
45.2734044506488
20
5.20494013054156
30
0
41
1
10
45.2835040270861
20
5.2438243381487
30
0
41
1
10
45.2896154833161
20
5.26311421003263
30
0
41
1
10
45.3033812819744
20
5.2994161816116
30
0
41
1
10
45.3109617174357
20
5.31661693473117
30
0
41
1
10
45.3267214260764
20
5.34702114718587
30
0
41
1
10
45.3346981566968
20
5.36053452700159
30
0
41
1
10
45.3503030385207
20
5.38305663549392
30
0
41
1
10
45.3576837713725
20
5.39247128652056
30
0
41
1
10
45.3716596503431
20
5.4075837986727
30
0
41
1
10
45.3780685860734
20
5.41367194199995
30
0
41
1
10
45.3900447649335
20
5.4231652614115
30
0
41
1
10
45.3955078104672
20
5.42688772545352
30
0
41
1
10
45.4094367117494
20
5.43451950707922
30
0
41
1
10
45.4183069198338
20
5.43777890846576
30
0
41
1
10
45.4289569797568
20
5.43909111612624
30
0
41
1
10
45.4306952005028
20
5.43922470096183
30
0
41
1
10
45.4324313510348
20
5.43927294169362
30
0
0
SPLINE
5
CE
100
AcDbEntity
8
1
62
256
6
ByLayer
370
-1
48
1
60
0
100
AcDbSpline
70
4
71
3
72
24
73
20
40
0
40
0
40
0
40
0
40
0.157271741131977
40
0.157271741131977
40
0.348948952191807
40
0.348948952191807
40
0.444424851362002
40
0.444424851362002
40
0.539981403396023
40
0.539981403396023
40
0.635703613323071
40
0.635703613323071
40
0.71356450808201
40
0.71356450808201
40
0.83805159077903
40
0.83805159077903
40
0.924253034226599
40
0.924253034226599
40
1
40
1
40
1
40
1
41
1
10
43.505457829075
20
5.1647014185877
30
0
41
1
10
43.5097517146669
20
5.14862908344367
30
0
41
1
10
43.5149068022386
20
5.13274278137956
30
0
41
1
10
43.528239004855
20
5.09826461291973
30
0
41
1
10
43.5368613232501
20
5.07973673913659
30
0
41
1
10
43.5519133595005
20
5.0532318411735
30
0
41
1
10
43.5572929699729
20
5.04459831849869
30
0
41
1
10
43.5688462954906
20
5.02790051360208
30
0
41
1
10
43.5750365882159
20
5.01981209934317
30
0
41
1
10
43.5883120785324
20
5.0044577511857
30
0
41
1
10
43.595429693959
20
4.99715588420187
30
0
41
1
10
43.6092264842874
20
4.98507466355213
30
0
41
1
10
43.6157761683842
20
4.98005019160826
30
0
41
1
10
43.6335122351234
20
4.96869518701976
30
0
41
1
10
43.645501395386
20
4.96317503095594
30
0
41
1
10
43.6661781478804
20
4.95855623644951
30
0
41
1
10
43.6749475576647
20
4.9580049682063
30
0
41
1
10
43.6905968940539
20
4.95988675604096
30
0
41
1
10
43.6977275711084
20
4.96198069375038
30
0
41
1
10
43.7042316857014
20
4.96504946636381
30
0
0
SPLINE
5
CF
100
AcDbEntity
8
1
62
256
6
ByLayer
370
-1
48
1
60
0
100
AcDbSpline
70
4
71
3
72
22
73
18
40
0
40
0
40
0
40
0
40
0.099135488406321
40
0.099135488406321
40
0.206229847799506
40
0.206229847799506
40
0.367627630831588
40
0.367627630831588
40
0.507529288580317
40
0.507529288580317
40
0.647011593778971
40
0.647011593778971
40
0.786332448952832
40
0.786332448952832
40
0.892876682570248
40
0.892876682570248
40
1
40
1
40
1
40
1
41
1
10
43.6983664761213
20
5.89712466525958
30
0
41
1
10
43.6914384564872
20
5.90366413995548
30
0
41
1
10
43.6858086283547
20
5.91190756386274
30
0
41
1
10
43.6777226802314
20
5.93054785099574
30
0
41
1
10
43.675373774993
20
5.94131095013796
30
0
41
1
10
43.6732305685938
20
5.96834779061419
30
0
41
1
10
43.6751482890013
20
5.98515287297019
30
0
41
1
10
43.6821004524617
20
6.01543322008826
30
0
41
1
10
43.6867560450198
20
6.02931638016079
30
0
41
1
10
43.6979073366702
20
6.05619937595819
30
0
41
1
10
43.7044389550539
20
6.06928673435939
30
0
41
1
10
43.7188885427257
20
6.09460927972705
30
0
41
1
10
43.726834285914
20
6.10689133327028
30
0
41
1
10
43.7418677921751
20
6.12781721686196
30
0
41
1
10
43.7487323399084
20
6.13665465075167
30
0
41
1
10
43.7631078625882
20
6.15385772008395
30
0
41
1
10
43.7706321899663
20
6.16223242667124
30
0
41
1
10
43.7784427414482
20
6.17032454617876
30
0
0
SPLINE
5
D0
100
AcDbEntity
8
1
62
256
6
ByLayer
370
-1
48
1
60
0
100
AcDbSpline
70
4
71
3
72
36
73
32
40
0
40
0
40
0
40
0
40
0.0492962859085434
40
0.0492962859085434
40
0.128955121069224
40
0.128955121069224
40
0.193390858837898
40
0.193390858837898
40
0.257664558541241
40
0.257664558541241
40
0.321869855657986
40
0.321869855657986
40
0.386043638176942
40
0.386043638176942
40
0.490448583644035
40
0.490448583644035
40
0.594841290176016
40
0.594841290176016
40
0.69280764861623
40
0.69280764861623
40
0.77646259868431
40
0.77646259868431
40
0.842223390183885
40
0.842223390183885
40
0.89252501864657
40
0.89252501864657
40
0.931489584822217
40
0.931489584822217
40
0.988987173441935
40
0.988987173441935
40
1
40
1
40
1
40
1
41
1
10
44.0445964594522
20
4.62944841985845
30
0
41
1
10
44.0489115286799
20
4.63642708497892
30
0
41
1
10
44.0518074654831
20
4.64423773365408
30
0
41
1
10
44.0562387291653
20
4.66507564580473
30
0
41
1
10
44.0560437877975
20
4.6787306128146
30
0
41
1
10
44.0524915161125
20
4.70303543070796
30
0
41
1
10
44.0497048333798
20
4.71395934745021
30
0
41
1
10
44.0424691797776
20
4.73544107277905
30
0
41
1
10
44.037996852112
20
4.7460695361691
30
0
41
1
10
44.0277682056213
20
4.76692033160714
30
0
41
1
10
44.0219895733546
20
4.77718684021818
30
0
41
1
10
44.0093808237734
20
4.79727359519637
30
0
41
1
10
44.0025296788768
20
4.80712655097312
30
0
41
1
10
43.983382727744
20
4.83232637037727
30
0
41
1
10
43.9702865657623
20
4.84736044544383
30
0
41
1
10
43.9422543607731
20
4.8757811711566
30
0
41
1
10
43.9272192067148
20
4.88926834603555
30
0
41
1
10
43.8966199855445
20
4.91339641531164
30
0
41
1
10
43.8810449028569
20
4.92424322073083
30
0
41
1
10
43.8511563358358
20
4.9421214014076
30
0
41
1
10
43.8369010129177
20
4.94953423514409
30
0
41
1
10
43.8108761410137
20
4.96063300703614
30
0
41
1
10
43.7991561476324
20
4.96480635813833
30
0
41
1
10
43.7782803360988
20
4.97035545575969
30
0
41
1
10
43.7691157537843
20
4.97217017628847
30
0
41
1
10
43.7529154728562
20
4.97393178567197
30
0
41
1
10
43.7458243036325
20
4.9742093333241
30
0
41
1
10
43.7286646467817
20
4.97331031588899
30
0
41
1
10
43.7185297379306
20
4.97135465284617
30
0
41
1
10
43.7076563394976
20
4.96676075519446
30
0
41
1
10
43.7059217771537
20
4.9659413973186
30
0
41
1
10
43.7042316857014
20
4.96504946636384
30
0
0
SPLINE
5
D1
100
AcDbEntity
8
1
62
256
6
ByLayer
370
-1
48
1
60
0
100
AcDbSpline
70
4
71
3
72
22
73
18
40
0
40
0
40
0
40
0
40
0.16784278425008
40
0.16784278425008
40
0.335898034472954
40
0.335898034472954
40
0.45406524781034
40
0.45406524781034
40
0.642558083168125
40
0.642558083168125
40
0.755508761175923
40
0.755508761175923
40
0.870151412064699
40
0.870151412064699
40
0.967012982271223
40
0.967012982271223
40
1
40
1
40
1
40
1
41
1
10
45.2595528749296
20
4.74404070121665
30
0
41
1
10
45.2699462096386
20
4.75593785626342
30
0
41
1
10
45.2797820695852
20
4.76836568348858
30
0
41
1
10
45.2979776454739
20
4.79418033808938
30
0
41
1
10
45.3063797532238
20
4.80762472614177
30
0
41
1
10
45.3189384031272
20
4.8312867476628
30
0
41
1
10
45.3236341410947
20
4.84131926464858
30
0
41
1
10
45.333961065468
20
4.86769906994013
30
0
41
1
10
45.3386828123595
20
4.88466349426625
30
0
41
1
10
45.3411315763021
20
4.9112767029354
30
0
41
1
10
45.3408690819345
20
4.92132428614198
30
0
41
1
10
45.3370958317559
20
4.93997212818437
30
0
41
1
10
45.3334196677854
20
4.94879246311436
30
0
41
1
10
45.3237098134746
20
4.9619273514127
30
0
41
1
10
45.3180235262832
20
4.96689315795047
30
0
41
1
10
45.3095349052494
20
4.97180729071744
30
0
41
1
10
45.3072738172862
20
4.97292570992357
30
0
41
1
10
45.3049511744816
20
4.9739067596139
30
0
0
SPLINE
5
D2
100
AcDbEntity
8
1
62
256
6
ByLayer
370
-1
48
1
60
0
100
AcDbSpline
70
4
71
3
72
34
73
30
40
0
40
0
40
0
40
0
40
0.0484619167057161
40
0.0484619167057161
40
0.123250895849085
40
0.123250895849085
40
0.183570929309629
40
0.183570929309629
40
0.243735544402797
40
0.243735544402797
40
0.303833391333687
40
0.303833391333687
40
0.401539481582392
40
0.401539481582392
40
0.499173133035598
40
0.499173133035598
40
0.596804264320194
40
0.596804264320194
40
0.692486849042189
40
0.692486849042189
40
0.773267829408422
40
0.773267829408422
40
0.83655569412934
40
0.83655569412934
40
0.884954691232699
40
0.884954691232699
40
0.961866476551681
40
0.961866476551681
40
1
40
1
40
1
40
1
41
1
10
43.58027551135
20
5.42902326972435
30
0
41
1
10
43.5889261889046
20
5.42867727924727
30
0
41
1
10
43.5976629293877
20
5.43004117201846
30
0
41
1
10
43.6186645481237
20
5.43649971081905
30
0
41
1
10
43.6306997787078
20
5.44322833166095
30
0
41
1
10
43.6505151743311
20
5.457862566899
30
0
41
1
10
43.6588252101014
20
5.46541490808102
30
0
41
1
10
43.6742961404838
20
5.48170893469626
30
0
41
1
10
43.681508366111
20
5.49050338516594
30
0
41
1
10
43.6949336315929
20
5.50894120367414
30
0
41
1
10
43.701174388753
20
5.51862337807407
30
0
41
1
10
43.7163410921634
20
5.54485079220302
30
0
41
1
10
43.7245801476924
20
5.56201637581859
30
0
41
1
10
43.7387532486862
20
5.59733572979675
30
0
41
1
10
43.744734444131
20
5.61561127563098
30
0
41
1
10
43.754356513553
20
5.65269229655715
30
0
41
1
10
43.7580283981172
20
5.6716163258281
30
0
41
1
10
43.7627906782844
20
5.70916451149512
30
0
41
1
10
43.7639502230749
20
5.72791214350326
30
0
41
1
10
43.7634838858032
20
5.76210694376633
30
0
41
1
10
43.7622636762552
20
5.77771625953031
30
0
41
1
10
43.7578716497933
20
5.80487609808714
30
0
41
1
10
43.7551668678
20
5.81664667345703
30
0
41
1
10
43.7486912664188
20
5.83661861786121
30
0
41
1
10
43.745302224426
20
5.84505820256374
30
0
41
1
10
43.7347923740641
20
5.86557269532156
30
0
41
1
10
43.7264250734182
20
5.87731573747999
30
0
41
1
10
43.7106167075397
20
5.89062822938971
30
0
41
1
10
43.7047019295816
20
5.89440241879657
30
0
41
1
10
43.6983664761213
20
5.89712466525961
30
0
0
SPLINE
5
D3
100
AcDbEntity
8
1
62
256
6
ByLayer
370
-1
48
1
60
0
100
AcDbSpline
70
4
71
3
72
42
73
38
40
0
40
0
40
0
40
0
40
0.0453868446055243
40
0.0453868446055243
40
0.0855289172227085
40
0.0855289172227085
40
0.136755260759448
40
0.136755260759448
40
0.17618738192302
40
0.17618738192302
40
0.23289910472553
40
0.23289910472553
40
0.289415721422045
40
0.289415721422045
40
0.345854377934381
40
0.345854377934381
40
0.459254087222405
40
0.459254087222405
40
0.515653380606449
40
0.515653380606449
40
0.572053913253779
40
0.572053913253779
40
0.659762760606704
40
0.659762760606704
40
0.726494882950847
40
0.726494882950847
40
0.778219441680464
40
0.778219441680464
40
0.861348933301188
40
0.861348933301188
40
0.909456127368959
40
0.909456127368959
40
0.950205311078222
40
0.950205311078222
40
0.991117202000586
40
0.991117202000586
40
1
40
1
40
1
40
1
41
1
10
44.5069257197276
20
6.36018795697152
30
0
41
1
10
44.5061716705572
20
6.36870330791794
30
0
41
1
10
44.5071376969564
20
6.37744493601554
30
0
41
1
10
44.5124566606279
20
6.39258156356502
30
0
41
1
10
44.5164609207085
20
6.39931120410444
30
0
41
1
10
44.5278347586786
20
6.41265957455852
30
0
41
1
10
44.5359510775955
20
6.41897928841345
30
0
41
1
10
44.5515385302612
20
6.4280405495594
30
0
41
1
10
44.5588424711525
20
6.43135000663654
30
0
41
1
10
44.5771726071411
20
6.43807949921703
30
0
41
1
10
44.5885287307295
20
6.44096307593543
30
0
41
1
10
44.6115105893018
20
6.44508871280402
30
0
41
1
10
44.6232139267221
20
6.44634652072654
30
0
41
1
10
44.6466919546994
20
6.44759860054995
30
0
41
1
10
44.6585089208924
20
6.44759447983697
30
0
41
1
10
44.6939624254204
20
6.44600712354026
30
0
41
1
10
44.7176816975425
20
6.44285483664626
30
0
41
1
10
44.7526404705271
20
6.43560178473027
30
0
41
1
10
44.7642042451268
20
6.43275783743428
30
0
41
1
10
44.7871036333507
20
6.42624139768216
30
0
41
1
10
44.7984558266361
20
6.42256424009361
30
0
41
1
10
44.8270548883726
20
6.4121048638788
30
0
41
1
10
44.8441530298488
20
6.40471419167193
30
0
41
1
10
44.8732331706291
20
6.38973668371216
30
0
41
1
10
44.8855079796887
20
6.38259376047967
30
0
41
1
10
44.9063649158399
20
6.36857885261014
30
0
41
1
10
44.915189134742
20
6.36198424339537
30
0
41
1
10
44.9368293370304
20
6.34351243709963
30
0
41
1
10
44.9491845745179
20
6.33060462512009
30
0
41
1
10
44.9641856795915
20
6.30785089895065
30
0
41
1
10
44.9687888085129
20
6.29882185701899
30
0
41
1
10
44.9742144387324
20
6.28172800801772
30
0
41
1
10
44.9755246921377
20
6.27355474979947
30
0
41
1
10
44.9751362866428
20
6.25785298068453
30
0
41
1
10
44.9734105028771
20
6.25013561358676
30
0
41
1
10
44.9697648820418
20
6.24169846391629
30
0
41
1
10
44.9690459656197
20
6.24020635527145
30
0
41
1
10
44.9682717448715
20
6.2387491687164
30
0
0
SPLINE
5
D4
100
AcDbEntity
8
1
62
256
6
ByLayer
370
-1
48
1
60
0
100
AcDbSpline
70
4
71
3
72
22
73
18
40
0
40
0
40
0
40
0
40
0.0986115253808669
40
0.0986115253808669
40
0.183915875236214
40
0.183915875236214
40
0.299838198387032
40
0.299838198387032
40
0.483762819016665
40
0.483762819016665
40
0.582277256960581
40
0.582277256960581
40
0.774223519347801
40
0.774223519347801
40
0.965774542235095
40
0.965774542235095
40
1
40
1
40
1
40
1
41
1
10
45.3084758946967
20
5.90324694206458
30
0
41
1
10
45.315863749279
20
5.9078345921703
30
0
41
1
10
45.3243508977554
20
5.91076717403433
30
0
41
1
10
45.3406378705184
20
5.91226417727179
30
0
41
1
10
45.3485616252306
20
5.91140051048311
30
0
41
1
10
45.3665948989936
20
5.90639374431424
30
0
41
1
10
45.3767661128081
20
5.90117718397207
30
0
41
1
10
45.4009323430779
20
5.88449203280587
30
0
41
1
10
45.4142478191538
20
5.87095500507888
30
0
41
1
10
45.4322399632302
20
5.84832988164862
30
0
41
1
10
45.438137829789
20
5.83996799287317
30
0
41
1
10
45.454361323803
20
5.81454109994738
30
0
41
1
10
45.4636888026067
20
5.79661731283417
30
0
41
1
10
45.4798164670494
20
5.75971604580334
30
0
41
1
10
45.4866671909558
20
5.74061691889739
30
0
41
1
10
45.4933351574228
20
5.71769974504079
30
0
41
1
10
45.4943093130175
20
5.71420823312351
30
0
41
1
10
45.4952451441047
20
5.71070537553783
30
0
0
SPLINE
5
D5
100
AcDbEntity
8
1
62
256
6
ByLayer
370
-1
48
1
60
0
100
AcDbSpline
70
4
71
3
72
34
73
30
40
0
40
0
40
0
40
0
40
0.049580513600625
40
0.049580513600625
40
0.129698637862891
40
0.129698637862891
40
0.194505892890767
40
0.194505892890767
40
0.259150175590135
40
0.259150175590135
40
0.323725661313929
40
0.323725661313929
40
0.425534197335469
40
0.425534197335469
40
0.527282435054624
40
0.527282435054624
40
0.629041292372101
40
0.629041292372101
40
0.72416948347528
40
0.72416948347528
40
0.802896330501549
40
0.802896330501549
40
0.863925138213266
40
0.863925138213266
40
0.910648821183614
40
0.910648821183614
40
0.947136701919333
40
0.947136701919333
40
1
40
1
40
1
40
1
41
1
10
44.5067212016727
20
6.36018680931932
30
0
41
1
10
44.5069100017891
20
6.35171187132389
30
0
41
1
10
44.5054507671535
20
6.34321163743135
30
0
41
1
10
44.4987116672422
20
6.32221457445687
30
0
41
1
10
44.4916189565083
20
6.31003618273741
30
0
41
1
10
44.4762287032561
20
6.29000567884344
30
0
41
1
10
44.4682845649891
20
6.2816140180594
30
0
41
1
10
44.4511495281762
20
6.26602081320294
30
0
41
1
10
44.4419026409401
20
6.25876771175422
30
0
41
1
10
44.4225101664394
20
6.24529836052562
30
0
41
1
10
44.4123229317608
20
6.23905387818306
30
0
41
1
10
44.3852308600685
20
6.22421279373276
30
0
41
1
10
44.3677210568102
20
6.21626340576961
30
0
41
1
10
44.3316861072154
20
6.20265854791003
30
0
41
1
10
44.3130358666131
20
6.19695723708034
30
0
41
1
10
44.27518969714
20
6.18792179878236
30
0
41
1
10
44.2558679214343
20
6.18455692503647
30
0
41
1
10
44.2184180993056
20
6.18057869324517
30
0
41
1
10
44.2001723576345
20
6.1797846088524
30
0
41
1
10
44.1672111824233
20
6.1808145293821
30
0
41
1
10
44.152332851578
20
6.18221290137808
30
0
41
1
10
44.1265838652868
20
6.18676473608758
30
0
41
1
10
44.1154963196087
20
6.18946640920319
30
0
41
1
10
44.0966928872969
20
6.19580792188481
30
0
41
1
10
44.0887491544946
20
6.19909779612283
30
0
41
1
10
44.0753912257564
20
6.20610208117245
30
0
41
1
10
44.0697713390746
20
6.2095857522076
30
0
41
1
10
44.0571050208281
20
6.21918246441922
30
0
41
1
10
44.0503884895518
20
6.22591252249154
30
0
41
1
10
44.0452946063703
20
6.23356988650843
30
0
0
SPLINE
5
D6
100
AcDbEntity
8
1
62
256
6
ByLayer
370
-1
48
1
60
0
100
AcDbSpline
70
4
71
3
72
34
73
30
40
0
40
0
40
0
40
0
40
0.0489352209448059
40
0.0489352209448059
40
0.11720004221748
40
0.11720004221748
40
0.171506955646241
40
0.171506955646241
40
0.2256686492392
40
0.2256686492392
40
0.279765320459287
40
0.279765320459287
40
0.37322532159259
40
0.37322532159259
40
0.466583477789844
40
0.466583477789844
40
0.559915867375342
40
0.559915867375342
40
0.653268378335824
40
0.653268378335824
40
0.744703146931423
40
0.744703146931423
40
0.818565955739702
40
0.818565955739702
40
0.875584577609751
40
0.875584577609751
40
0.965112275153914
40
0.965112275153914
40
1
40
1
40
1
40
1
41
1
10
44.9715076915901
20
4.6265968104
30
0
41
1
10
44.9687778657827
20
4.63388420690026
30
0
41
1
10
44.9643730525058
20
4.64045983518699
30
0
41
1
10
44.9515219068145
20
4.65377622780531
30
0
41
1
10
44.9420136341907
20
4.65986815766914
30
0
41
1
10
44.9235644450423
20
4.66833090794734
30
0
41
1
10
44.9147560465787
20
4.67127482189315
30
0
41
1
10
44.8965736064287
20
4.67585228694449
30
0
41
1
10
44.88714102006
20
4.67750233880446
30
0
41
1
10
44.8679290301706
20
4.67976375567721
30
0
41
1
10
44.8581107141719
20
4.68037955526518
30
0
41
1
10
44.8310729980031
20
4.68087275453018
30
0
41
1
10
44.8135361725487
20
4.67989878354149
30
0
41
1
10
44.7783690154972
20
4.67587835342303
30
0
41
1
10
44.7606204895142
20
4.67281642896879
30
0
41
1
10
44.7253799475807
20
4.66486824552746
30
0
41
1
10
44.7077851227488
20
4.65995831711976
30
0
41
1
10
44.6732291145946
20
4.64842178768956
30
0
41
1
10
44.6561662243521
20
4.64176205010349
30
0
41
1
10
44.6234889834621
20
4.62687278164023
30
0
41
1
10
44.6077435186242
20
4.61863288468084
30
0
41
1
10
44.5808231657757
20
4.60210598571638
30
0
41
1
10
44.5692743311537
20
4.5940851879987
30
0
41
1
10
44.5503480430291
20
4.57868240604259
30
0
41
1
10
44.5425715756208
20
4.57153047842073
30
0
41
1
10
44.5247325612079
20
4.55213953945375
30
0
41
1
10
44.5154604047386
20
4.53890617724667
30
0
41
1
10
44.5082703842747
20
4.51935192127274
30
0
41
1
10
44.5068696722107
20
4.51362535963867
30
0
41
1
10
44.5063240871605
20
4.50790918347298
30
0
0
SPLINE
5
D7
100
AcDbEntity
8
1
62
256
6
ByLayer
370
-1
48
1
60
0
100
AcDbSpline
70
4
71
3
72
34
73
30
40
0
40
0
40
0
40
0
40
0.0493619475591273
40
0.0493619475591273
40
0.125539901664609
40
0.125539901664609
40
0.186980193981093
40
0.186980193981093
40
0.248262181512682
40
0.248262181512682
40
0.340547871919056
40
0.340547871919056
40
0.432709445704961
40
0.432709445704961
40
0.524833165867088
40
0.524833165867088
40
0.61696225176741
40
0.61696225176741
40
0.709145696794314
40
0.709145696794314
40
0.791292482820987
40
0.791292482820987
40
0.854807499469475
40
0.854807499469475
40
0.903519774516408
40
0.903519774516408
40
0.980968575571311
40
0.980968575571311
40
1
40
1
40
1
40
1
41
1
10
45.3084758946971
20
5.90324694206399
30
0
41
1
10
45.3019207540157
20
5.89872842678392
30
0
41
1
10
45.2944476649857
20
5.89564429086988
30
0
41
1
10
45.2748969780179
20
5.89097514822995
30
0
41
1
10
45.2621820434755
20
5.89091224517844
30
0
41
1
10
45.2394501413082
20
5.89387136681356
30
0
41
1
10
45.229201720386
20
5.89633120855555
30
0
41
1
10
45.208977618182
20
5.90283040489635
30
0
41
1
10
45.1989355781924
20
5.9068902300981
30
0
41
1
10
45.174185356845
20
5.9185727755349
30
0
41
1
10
45.1595665711918
20
5.92700771325721
30
0
41
1
10
45.1312278893345
20
5.94586818264963
30
0
41
1
10
45.1174124837428
20
5.9563598708506
30
0
41
1
10
45.0908269004813
20
5.97893206891234
30
0
41
1
10
45.0779818851311
20
5.99107711283605
30
0
41
1
10
45.0535637538397
20
6.01667319443777
30
0
41
1
10
45.0419235155983
20
6.03019410843035
30
0
41
1
10
45.0202445824279
20
6.05832436223119
30
0
41
1
10
45.0101390838897
20
6.07301767183338
30
0
41
1
10
44.9930411608435
20
6.10164810855377
30
0
41
1
10
44.9857753872705
20
6.11557946285151
30
0
41
1
10
44.9749689219426
20
6.14076450590608
30
0
41
1
10
44.9709293878826
20
6.15197663082032
30
0
41
1
10
44.9655222535463
20
6.17192164098154
30
0
41
1
10
44.9637398161024
20
6.18067446350031
30
0
41
1
10
44.9611809700312
20
6.20304262151319
30
0
41
1
10
44.9615566820266
20
6.216971191993
30
0
41
1
10
44.96603294725
20
6.23264227740918
30
0
41
1
10
44.9671334936584
20
6.23570610807275
30
0
41
1
10
44.9684488293806
20
6.2386475729181
30
0
0
SPLINE
5
D8
100
AcDbEntity
8
1
62
256
6
ByLayer
370
-1
48
1
60
0
100
AcDbSpline
70
4
71
3
72
22
73
18
40
0
40
0
40
0
40
0
40
0.0986115253821071
40
0.0986115253821071
40
0.183915875237216
40
0.183915875237216
40
0.299838198393977
40
0.299838198393977
40
0.483762819036699
40
0.483762819036699
40
0.58227725698801
40
0.58227725698801
40
0.774223519387882
40
0.774223519387882
40
0.965774542287849
40
0.965774542287849
40
1
40
1
40
1
40
1
41
1
10
43.58027551135
20
5.42902326972489
30
0
41
1
10
43.570800834125
20
5.4289837875626
30
0
41
1
10
43.5611898230212
20
5.42695017697437
30
0
41
1
10
43.5449892556077
20
5.41953249603645
30
0
41
1
10
43.537971572579
20
5.41456885129125
30
0
41
1
10
43.5236392813097
20
5.40068087131382
30
0
41
1
10
43.5168440397835
20
5.3908086617559
30
0
41
1
10
43.5029795649008
20
5.36368776434381
30
0
41
1
10
43.4976470199457
20
5.34503366043586
30
0
41
1
10
43.4926965992624
20
5.31611302438924
30
0
41
1
10
43.4915666601872
20
5.30582268343329
30
0
41
1
10
43.4897127704496
20
5.27543529900709
30
0
41
1
10
43.4903551969438
20
5.25512830596327
30
0
41
1
10
43.4944911640748
20
5.21493647911319
30
0
41
1
10
43.4980013260378
20
5.19492069140222
30
0
41
1
10
43.5036268968707
20
5.17171748087861
30
0
41
1
10
43.5045220050125
20
5.16820427809509
30
0
41
1
10
43.505457829075
20
5.1647014185877
30
0
0
SPLINE
5
D9
100
AcDbEntity
8
SK1
62
256
6
ByLayer
370
-1
48
1
60
0
100
AcDbSpline
70
4
71
3
72
24
73
20
40
0
40
0
40
0
40
0
40
0.250000000000021
40
0.250000000000021
40
0.375000000000035
40
0.375000000000035
40
0.437500000000043
40
0.437500000000043
40
0.50000000000005
40
0.50000000000005
40
0.53125000000005
40
0.53125000000005
40
0.562500000000051
40
0.562500000000051
40
0.625000000000044
40
0.625000000000044
40
0.750000000000029
40
0.750000000000029
40
1
40
1
40
1
40
1
41
1
10
-36.06
20
-0.205965906324167
30
0
41
1
10
-36.4686343160637
20
-0.205965906324167
30
0
41
1
10
-36.8771555453826
20
-0.198452469570327
30
0
41
1
10
-37.4894028804979
20
-0.169226931094073
30
0
41
1
10
-37.6931603208312
20
-0.156639601261418
30
0
41
1
10
-37.9976543175629
20
-0.127755978988347
30
0
41
1
10
-38.0989743184841
20
-0.116569291728922
30
0
41
1
10
-38.3006761329046
20
-0.0859785784400344
30
0
41
1
10
-38.4156960546351
20
-0.0885727857958045
30
0
41
1
10
-38.5368423438109
20
0.0124242265503085
30
0
41
1
10
-38.448845174621
20
0.0482532820548442
30
0
41
1
10
-38.3481780242785
20
0.0757348561222955
30
0
41
1
10
-38.2969166658135
20
0.0854113493555815
30
0
41
1
10
-38.1424015195539
20
0.111238405852816
30
0
41
1
10
-38.0387091696868
20
0.123262241085399
30
0
41
1
10
-37.7275189777037
20
0.15429910626429
30
0
41
1
10
-37.5194067051518
20
0.167490929837157
30
0
41
1
10
-36.894297633513
20
0.198188957833423
30
0
41
1
10
-36.4772192765597
20
0.205965906324138
30
0
41
1
10
-36.06
20
0.205965906324138
30
0
0
LINE
5
49
100
AcDbEntity
8
80
62
256
6
ByLayer
370
-1
48
1
60
0
100
AcDbLine
10
0
20
0
30
0
11
-10
21
0
31
0
39
0
210
0
220
0
230
1
0
LINE
5
4A
100
AcDbEntity
8
81
62
256
6
ByLayer
370
-1
48
1
60
0
100
AcDbLine
10
47.94
20
8.9
30
0
11
57.94
21
8.9
31
0
39
0
210
0
220
0
230
1
0
LINE
5
4B
100
AcDbEntity
8
SK4
62
256
6
ByLayer
370
-1
48
0.05
60
0
100
AcDbLine
10
-108.31
20
0
30
0
11
52.543392
21
0
31
0
39
0
210
0
220
0
230
1
0
LINE
5
4D
100
AcDbEntity
8
4
62
256
6
ByLayer
370
-1
48
0.05
60
0
100
AcDbLine
10
0
20
0
30
0
11
52.543392
21
0
31
0
39
0
210
0
220
0
230
1
0
LINE
5
4F
100
AcDbEntity
8
SK1
62
256
6
ByLayer
370
-1
48
1
60
0
100
AcDbLine
10
-102.81
20
5.9925
30
0
11
-103.31
21
5.4925
31
0
39
0
210
0
220
0
230
1
0
LINE
5
51
100
AcDbEntity
8
SK1
62
256
6
ByLayer
370
-1
48
1
60
0
100
AcDbLine
10
-103.31
20
-5.4925
30
0
11
-102.81
21
-5.9925
31
0
39
0
210
0
220
0
230
1
0
LINE
5
52
100
AcDbEntity
8
SK1
62
256
6
ByLayer
370
-1
48
1
60
0
100
AcDbLine
10
-102.81
20
-5.9925
30
0
11
0
21
-5.9925
31
0
39
0
210
0
220
0
230
1
0
LINE
5
53
100
AcDbEntity
8
SK1
62
256
6
ByLayer
370
-1
48
1
60
0
100
AcDbLine
10
0
20
5.9925
30
0
11
-102.81
21
5.9925
31
0
39
0
210
0
220
0
230
1
0
LINE
5
54
100
AcDbEntity
8
1
62
256
6
ByLayer
370
-1
48
1
60
0
100
AcDbLine
10
0
20
-5.9925
30
0
11
36.458988
21
-5.9925
31
0
39
0
210
0
220
0
230
1
0
LINE
5
55
100
AcDbEntity
8
1
62
256
6
ByLayer
370
-1
48
1
60
0
100
AcDbLine
10
36.458988
20
5.9925
30
0
11
0
21
5.9925
31
0
39
0
210
0
220
0
230
1
0
LINE
5
56
100
AcDbEntity
8
1
62
256
6
ByLayer
370
-1
48
1
60
0
100
AcDbLine
10
36.458988
20
-5.9925
30
0
11
36.533988
21
-5.9175
31
0
39
0
210
0
220
0
230
1
0
LINE
5
57
100
AcDbEntity
8
1
62
256
6
ByLayer
370
-1
48
1
60
0
100
AcDbLine
10
36.533988
20
5.9175
30
0
11
36.458988
21
5.9925
31
0
39
0
210
0
220
0
230
1
0
LINE
5
58
100
AcDbEntity
8
1
62
256
6
ByLayer
370
-1
48
1
60
0
100
AcDbLine
10
38.155876
20
5.9175
30
0
11
36.533988
21
5.9175
31
0
39
0
210
0
220
0
230
1
0
LINE
5
59
100
AcDbEntity
8
1
62
256
6
ByLayer
370
-1
48
1
60
0
100
AcDbLine
10
36.533988
20
-5.9175
30
0
11
36.596039
21
-5.9175
31
0
39
0
210
0
220
0
230
1
0
LINE
5
5A
100
AcDbEntity
8
1
62
256
6
ByLayer
370
-1
48
1
60
0
100
AcDbLine
10
45.033312
20
4.605148
30
0
11
44.94192
21
4.659277
31
0
39
0
210
0
220
0
230
1
0
LINE
5
5B
100
AcDbEntity
8
1
62
256
6
ByLayer
370
-1
48
1
60
0
100
AcDbLine
10
45.469091
20
6.868797
30
0
11
45.39675
21
6.911644
31
0
39
0
210
0
220
0
230
1
0
LINE
5
5C
100
AcDbEntity
8
1
62
256
6
ByLayer
370
-1
48
1
60
0
100
AcDbLine
10
43.638611
20
3.943235
30
0
11
43.710952
21
3.900389
31
0
39
0
210
0
220
0
230
1
0
LINE
5
5D
100
AcDbEntity
8
1
62
256
6
ByLayer
370
-1
48
1
60
0
100
AcDbLine
10
45.162212
20
5.92586
30
0
11
45.249404
21
5.874217
31
0
39
0
210
0
220
0
230
1
0
LINE
5
5E
100
AcDbEntity
8
1
62
256
6
ByLayer
370
-1
48
1
60
0
100
AcDbLine
10
43.950565
20
4.883167
30
0
11
43.863429
21
4.934776
31
0
39
0
210
0
220
0
230
1
0
LINE
5
5F
100
AcDbEntity
8
1
62
256
6
ByLayer
370
-1
48
1
60
0
100
AcDbLine
10
44.075292
20
6.206351
30
0
11
44.166658
21
6.152236
31
0
39
0
210
0
220
0
230
1
0
LINE
5
60
100
AcDbEntity
8
1
62
256
6
ByLayer
370
-1
48
1
60
0
100
AcDbLine
10
43.799529
20
5.837841
30
0
11
43.705992
21
5.893242
31
0
39
0
210
0
220
0
230
1
0
LINE
5
61
100
AcDbEntity
8
1
62
256
6
ByLayer
370
-1
48
1
60
0
100
AcDbLine
10
31.660144
20
0.205966
30
0
11
0
21
0.205966
31
0
39
0
210
0
220
0
230
1
0
LINE
5
62
100
AcDbEntity
8
1
62
256
6
ByLayer
370
-1
48
1
60
0
100
AcDbLine
10
0
20
-0.205966
30
0
11
31.864428
21
-0.205966
31
0
39
0
210
0
220
0
230
1
0
LINE
5
63
100
AcDbEntity
8
1
62
256
6
ByLayer
370
-1
48
1
60
0
100
AcDbLine
10
39.331821
20
6.346729
30
0
11
43.335945
21
-2.229157
31
0
39
0
210
0
220
0
230
1
0
LINE
5
64
100
AcDbEntity
8
1
62
256
6
ByLayer
370
-1
48
1
60
0
100
AcDbLine
10
45.362953
20
0.595068
30
0
11
45.363633
21
0.596535
31
0
39
0
210
0
220
0
230
1
0
LINE
5
65
100
AcDbEntity
8
1
62
256
6
ByLayer
370
-1
48
1
60
0
100
AcDbLine
10
42.162119
20
2.822581
30
0
11
42.214359
21
2.79164
31
0
39
0
210
0
220
0
230
1
0
LINE
5
66
100
AcDbEntity
8
1
62
256
6
ByLayer
370
-1
48
1
60
0
100
AcDbLine
10
36.458988
20
-4.94856
30
0
11
36.458988
21
-5.9925
31
0
39
0
210
0
220
0
230
1
0
LINE
5
67
100
AcDbEntity
8
1
62
256
6
ByLayer
370
-1
48
1
60
0
100
AcDbLine
10
43.335945
20
-2.229157
30
0
11
44.296635
21
-1.70343
31
0
39
0
210
0
220
0
230
1
0
LINE
5
68
100
AcDbEntity
8
1
62
256
6
ByLayer
370
-1
48
1
60
0
100
AcDbLine
10
45.363633
20
0.596535
30
0
11
45.501904
21
0.894585
31
0
39
0
210
0
220
0
230
1
0
LINE
5
69
100
AcDbEntity
8
1
62
256
6
ByLayer
370
-1
48
1
60
0
100
AcDbLine
10
45.363633
20
0.596535
30
0
11
42.214359
21
2.79164
31
0
39
0
210
0
220
0
230
1
0
LINE
5
6A
100
AcDbEntity
8
1
62
256
6
ByLayer
370
-1
48
1
60
0
100
AcDbLine
10
41.905915
20
3.100805
30
0
11
39.617861
21
6.398396
31
0
39
0
210
0
220
0
230
1
0
LINE
5
6B
100
AcDbEntity
8
1
62
256
6
ByLayer
370
-1
48
1
60
0
100
AcDbLine
10
36.533988
20
-4.911839
30
0
11
36.533988
21
-5.9175
31
0
39
0
210
0
220
0
230
1
0
LINE
5
6C
100
AcDbEntity
8
1
62
256
6
ByLayer
370
-1
48
1
60
0
100
AcDbLine
10
36.533988
20
5.9175
30
0
11
36.533988
21
5.911543
31
0
39
0
210
0
220
0
230
1
0
LINE
5
6D
100
AcDbEntity
8
1
62
256
6
ByLayer
370
-1
48
1
60
0
100
AcDbLine
10
42.162119
20
2.822581
30
0
11
45.362953
21
0.595068
31
0
39
0
210
0
220
0
230
1
0
LINE
5
6E
100
AcDbEntity
8
1
62
256
6
ByLayer
370
-1
48
1
60
0
100
AcDbLine
10
36.458988
20
5.9925
30
0
11
36.458988
21
5.986365
31
0
39
0
210
0
220
0
230
1
0
LINE
5
6F
100
AcDbEntity
8
1
62
256
6
ByLayer
370
-1
48
1
60
0
100
AcDbLine
10
45.362953
20
0.595068
30
0
11
44.296635
21
-1.70343
31
0
39
0
210
0
220
0
230
1
0
LINE
5
70
100
AcDbEntity
8
1
62
256
6
ByLayer
370
-1
48
1
60
0
100
AcDbLine
10
41.905915
20
3.100805
30
0
11
41.850309
21
3.13374
31
0
39
0
210
0
220
0
230
1
0
LINE
5
71
100
AcDbEntity
8
1
62
256
6
ByLayer
370
-1
48
1
60
0
100
AcDbLine
10
0
20
-0.205966
30
0
11
0
21
0.205966
31
0
39
0
210
0
220
0
230
1
0
LINE
5
72
100
AcDbEntity
8
1
62
256
6
ByLayer
370
-1
48
1
60
0
100
AcDbLine
10
39.54552
20
6.433593
30
0
11
41.850309
21
3.13374
31
0
39
0
210
0
220
0
230
1
0
LINE
5
73
100
AcDbEntity
8
1
62
256
6
ByLayer
370
-1
48
1
60
0
100
AcDbLine
10
37.691951
20
-5.317774
30
0
11
43.335945
21
-2.229157
31
0
39
0
210
0
220
0
230
1
0
LINE
5
74
100
AcDbEntity
8
1
62
256
6
ByLayer
370
-1
48
1
60
0
100
AcDbLine
10
0
20
-5.9925
30
0
11
0
21
-0.205966
31
0
39
0
210
0
220
0
230
1
0
LINE
5
75
100
AcDbEntity
8
1
62
256
6
ByLayer
370
-1
48
1
60
0
100
AcDbLine
10
0
20
0.205966
30
0
11
0
21
5.9925
31
0
39
0
210
0
220
0
230
1
0
LINE
5
76
100
AcDbEntity
8
1
62
256
6
ByLayer
370
-1
48
1
60
0
100
AcDbLine
10
39.954734
20
6.526133
30
0
11
39.947124
21
6.537101
31
0
39
0
210
0
220
0
230
1
0
LINE
5
77
100
AcDbEntity
8
1
62
256
6
ByLayer
370
-1
48
1
60
0
100
AcDbLine
10
36.596039
20
-5.9175
30
0
11
37.691951
21
-5.317774
31
0
39
0
210
0
220
0
230
1
0
LINE
5
78
100
AcDbEntity
8
1
62
256
6
ByLayer
370
-1
48
1
60
0
100
AcDbLine
10
40.026055
20
6.300299
30
0
11
41.914746
21
3.603589
31
0
39
0
210
0
220
0
230
1
0
LINE
5
79
100
AcDbEntity
8
1
62
256
6
ByLayer
370
-1
48
1
60
0
100
AcDbLine
10
43.169
20
8.30099
30
0
11
40.182836
21
6.887474
31
0
39
0
210
0
220
0
230
1
0
LINE
5
7A
100
AcDbEntity
8
1
62
256
6
ByLayer
370
-1
48
1
60
0
100
AcDbLine
10
47.51081
20
8.898293
30
0
11
44.228886
21
8.591826
31
0
39
0
210
0
220
0
230
1
0
LINE
5
7B
100
AcDbEntity
8
1
62
256
6
ByLayer
370
-1
48
1
60
0
100
AcDbLine
10
47.650294
20
5.177441
30
0
11
47.938486
21
8.471495
31
0
39
0
210
0
220
0
230
1
0
LINE
5
7C
100
AcDbEntity
8
1
62
256
6
ByLayer
370
-1
48
1
60
0
100
AcDbLine
10
45.972745
20
1.10945
30
0
11
47.365977
21
4.112627
31
0
39
0
210
0
220
0
230
1
0
LINE
5
7D
100
AcDbEntity
8
1
62
256
6
ByLayer
370
-1
48
1
60
0
100
AcDbLine
10
42.690316
20
2.829611
30
0
11
45.388288
21
0.949073
31
0
39
0
210
0
220
0
230
1
0
LINE
5
7E
100
AcDbEntity
8
1
62
256
6
ByLayer
370
-1
48
1
60
0
100
AcDbLine
10
43.673907
20
5.373567
30
0
11
43.580276
21
5.429023
31
0
39
0
210
0
220
0
230
1
0
LINE
5
7F
100
AcDbEntity
8
1
62
256
6
ByLayer
370
-1
48
1
60
0
100
AcDbLine
10
44.138236
20
4.573991
30
0
11
44.044774
21
4.629347
31
0
39
0
210
0
220
0
230
1
0
LINE
5
80
100
AcDbEntity
8
1
62
256
6
ByLayer
370
-1
48
1
60
0
100
AcDbLine
10
44.996368
20
4.611873
30
0
11
44.971508
21
4.626597
31
0
39
0
210
0
220
0
230
1
0
LINE
5
81
100
AcDbEntity
8
1
62
256
6
ByLayer
370
-1
48
1
60
0
100
AcDbLine
10
45.313874
20
4.968622
30
0
11
45.304951
21
4.973907
31
0
39
0
210
0
220
0
230
1
0
LINE
5
82
100
AcDbEntity
8
1
62
256
6
ByLayer
370
-1
48
1
60
0
100
AcDbLine
10
45.402107
20
5.847791
30
0
11
45.308476
21
5.903247
31
0
39
0
210
0
220
0
230
1
0
LINE
5
83
100
AcDbEntity
8
1
62
256
6
ByLayer
370
-1
48
1
60
0
100
AcDbLine
10
44.600388
20
6.304832
30
0
11
44.506926
21
6.360188
31
0
39
0
210
0
220
0
230
1
0
LINE
5
84
100
AcDbEntity
8
1
62
256
6
ByLayer
370
-1
48
1
60
0
100
AcDbLine
10
44.600183
20
6.304831
30
0
11
44.506721
21
6.360187
31
0
39
0
210
0
220
0
230
1
0
LINE
5
85
100
AcDbEntity
8
1
62
256
6
ByLayer
370
-1
48
1
60
0
100
AcDbLine
10
44.049605
20
6.229089
30
0
11
44.043658
21
6.232611
31
0
39
0
210
0
220
0
230
1
0
LINE
5
86
100
AcDbEntity
8
SK1
62
256
6
ByLayer
370
-1
48
1
60
0
100
AcDbLine
10
-36.06
20
-0.205966
30
0
11
0
21
-0.205966
31
0
39
0
210
0
220
0
230
1
0
LINE
5
87
100
AcDbEntity
8
SK1
62
256
6
ByLayer
370
-1
48
1
60
0
100
AcDbLine
10
0
20
0.205966
30
0
11
-36.06
21
0.205966
31
0
39
0
210
0
220
0
230
1
0
LINE
5
88
100
AcDbEntity
8
SK1
62
256
6
ByLayer
370
-1
48
1
60
0
100
AcDbLine
10
-102.81
20
-5.9925
30
0
11
-102.81
21
5.9925
31
0
39
0
210
0
220
0
230
1
0
LINE
5
89
100
AcDbEntity
8
SK1
62
256
6
ByLayer
370
-1
48
1
60
0
100
AcDbLine
10
0
20
-5.9925
30
0
11
0
21
-0.205966
31
0
39
0
210
0
220
0
230
1
0
LINE
5
8A
100
AcDbEntity
8
SK1
62
256
6
ByLayer
370
-1
48
1
60
0
100
AcDbLine
10
0
20
0.205966
30
0
11
0
21
5.9925
31
0
39
0
210
0
220
0
230
1
0
LINE
5
8B
100
AcDbEntity
8
SK1
62
256
6
ByLayer
370
-1
48
1
60
0
100
AcDbLine
10
-36.06
20
-0.205966
30
0
11
-36.06
21
0.205966
31
0
39
0
210
0
220
0
230
1
0
LINE
5
8C
100
AcDbEntity
8
SK1
62
256
6
ByLayer
370
-1
48
1
60
0
100
AcDbLine
10
-103.31
20
-5.4925
30
0
11
-103.31
21
5.4925
31
0
39
0
210
0
220
0
230
1
0
LINE
5
8D
100
AcDbEntity
8
SK1
62
256
6
ByLayer
370
-1
48
1
60
0
100
AcDbLine
10
0
20
-0.205966
30
0
11
0
21
0.205966
31
0
39
0
210
0
220
0
230
1
0
LINE
5
8E
100
AcDbEntity
8
2
62
256
6
ByLayer
370
-1
48
1
60
1
100
AcDbLine
10
47.94
20
0
30
0
11
47.941
21
0.001
31
0
39
0
210
0
220
0
230
1
0
MTEXT
5
DA
100
AcDbEntity
8
SK6
62
256
6
ByLayer
370
-1
48
1
60
0
100
AcDbMText
10
-24.31
20
-18.32125
30
0
210
0
220
0
230
1
1
\W00.780;\fsimplex.shx,bigfont.shx;A12M-SWLPR 04-R 
40
3.5
41
0
44
1.084337
50
0
71
7
72
5
7
DEFAULT
0
DIMENSION
5
10D
100
AcDbEntity
8
2
62
256
6
ByLayer
370
-3
48
1
60
0
100
AcDbDimension
2
DimnDraft3D1
10
60.19
20
0
30
0
11
60.19
21
19.155
31
0
70
32
71
5
72
1
41
1
210
0
220
0
230
1
3
Standard
100
AcDbAlignedDimension
13
49.94
23
8.9
33
0
14
49.94
24
0
34
0
50
90
100
AcDbRotatedDimension
1001
ACAD
1000
DSTYLE
1002
{
1070
    74
1070
     0
1070
   279
1070
     0
1070
   172
1070
     1
1070
   173
1070
     1
1070
   340
1005
DB
1070
    77
1070
     1
1070
    73
1070
     0
1070
   171
1070
     4
1070
   274
1070
     4
1070
   177
1070
     2
1070
   176
1070
     2
1070
   178
1070
     7
1070
    78
1070
     8
1070
    41
1041
3.175
1070
   147
1041
2.25
1070
    42
1041
2.0
1070
    44
1041
2.0
1070
   140
1041
4.5
1070
   343
1005
10E
1070
   344
1005
10E
1002
}
0
DIMENSION
5
123
100
AcDbEntity
8
SK2
62
256
6
ByLayer
370
-3
48
1
60
0
100
AcDbDimension
2
DimnDraft3D2
10
-113.06
20
5.9925
30
0
11
-113.06
21
16.2475
31
0
70
32
71
5
72
1
41
1
210
0
220
0
230
1
3
Standard
100
AcDbAlignedDimension
13
-105.31
23
-5.9925
33
0
14
-105.31
24
5.9925
34
0
50
90
100
AcDbRotatedDimension
1001
ACAD
1000
DSTYLE
1002
{
1070
    74
1070
     0
1070
   279
1070
     0
1070
   172
1070
     1
1070
   173
1070
     1
1070
   340
1005
DB
1070
    77
1070
     1
1070
    73
1070
     0
1070
   171
1070
     4
1070
   274
1070
     4
1070
   177
1070
     2
1070
   176
1070
     2
1070
   178
1070
     7
1070
    78
1070
     8
1070
    41
1041
3.175
1070
   147
1041
2.25
1070
    42
1041
2.0
1070
    44
1041
2.0
1070
   140
1041
4.5
1070
   343
1005
10E
1070
   344
1005
10E
1002
}
0
DIMENSION
5
131
100
AcDbEntity
8
SK2
62
256
6
ByLayer
370
-3
48
1
60
0
100
AcDbDimension
2
DimnDraft3D3
10
-103.31
20
21.65
30
0
11
-33.937632
21
21.65
31
0
70
32
71
5
72
1
41
1
210
0
220
0
230
1
3
Standard
100
AcDbAlignedDimension
13
47.94
23
10.9
33
0
14
-103.31
24
7.9925
34
0
50
0
100
AcDbRotatedDimension
1001
ACAD
1000
DSTYLE
1002
{
1070
   279
1070
     0
1070
   172
1070
     1
1070
   173
1070
     1
1070
   340
1005
DB
1070
    77
1070
     1
1070
    73
1070
     0
1070
   171
1070
     4
1070
   274
1070
     4
1070
   177
1070
     2
1070
   176
1070
     2
1070
   178
1070
     7
1070
    78
1070
     8
1070
    41
1041
3.175
1070
   147
1041
2.25
1070
    42
1041
2.0
1070
    44
1041
2.0
1070
   140
1041
4.5
1070
   343
1005
10E
1070
   344
1005
10E
1002
}
0
DIMENSION
5
13F
100
AcDbEntity
8
2
62
256
6
ByLayer
370
-3
48
1
60
0
100
AcDbDimension
2
DimnDraft3D4
10
96.087758
20
0
30
0
11
72.647061
21
-37.243123
31
0
70
34
71
5
72
1
41
1
210
0
220
0
230
1
3
Standard
100
AcDb2LineAngularDimension
13
47.417066
23
2.922832
33
0
14
42.897134
24
-48.740227
34
0
15
49.94
25
0
35
0
16
75.824216
26
-31.280028
36
0
40
0
0
ENDSEC
0
SECTION
2
OBJECTS
0
DICTIONARY
5
170
330
0
100
AcDbDictionary
280
0
281
1
3
ACAD_GROUP
350
171
3
ACAD_MLINESTYLE
350
172
0
DICTIONARY
5
171
330
0
100
AcDbDictionary
280
0
281
1
0
DICTIONARY
5
172
330
0
100
AcDbDictionary
280
0
281
1
3
Standard
350
18
0
MLINESTYLE
5
18
330
172
100
AcDbMlineStyle
2
Standard
70
0
3

62
256
51
90
52
90
71
2
49
-0.5
62
256
6
ByLayer
49
0.5
62
256
6
ByLayer
0
RASTERVARIABLES
5
15e
330

100
AcDbRasterVariables
90
0
70
1
71
1
72
1
0
ENDSEC
0
EOF
