0
SECTION
2
HEADER
9
$ACADVER
1
AC1015
9
$DWGCODEPAGE
3
ANSI_1252
9
$HANDSEED
5
192
9
$ANGBASE
50
0
9
$ANGDIR
70
0
9
$ATTMODE
70
1
9
$AUNITS
70
0
9
$AUPREC
70
0
9
$CECOLOR
62
256
9
$CELTSCALE
40
1
9
$CELTYPE
6
ByLayer
9
$CELWEIGHT
370
-1
9
$CLAYER
8
0
9
$CMLJUST
70
0
9
$CMLSCALE
40
1
9
$CMLSTYLE
2
Standard
9
$DIMSTYLE
2
Standard
9
$TEXTSIZE
40
0.2
9
$TEXTSTYLE
7
Standard
9
$LUNITS
70
2
9
$LUPREC
70
4
9
$EXTNAMES
290
1
9
$INSUNITS
70
4
9
$LTSCALE
40
1
9
$LWDISPLAY
290
0
9
$PDMODE
70
0
9
$PDSIZE
40
0
9
$PLINEGEN
70
0
0
ENDSEC
0
SECTION
2
CLASSES
0
CLASS
1
RASTERVARIABLES
2
AcDbRasterVariables
3
ISM
90
0
280
0
281
0
0
ENDSEC
0
SECTION
2
TABLES
0
TABLE
2
VPORT
5
188
100
AcDbSymbolTable
0
VPORT
5
1
100
AcDbSymbolTableRecord
100
AcDbViewportTableRecord
2
*Active
70
0
10
0
20
0
11
1
21
1
12
-1
22
1
13
0
23
0
14
0.5
24
0.5
15
10
25
10
16
0
26
0
36
1
17
0
27
0
37
0
0
ENDTAB
0
TABLE
2
LTYPE
5
189
100
AcDbSymbolTable
0
LTYPE
5
14
100
AcDbSymbolTableRecord
100
AcDbLinetypeTableRecord
70
0
2
ByBlock
3

72
65
73
0
40
0
0
LTYPE
5
15
100
AcDbSymbolTableRecord
100
AcDbLinetypeTableRecord
70
0
2
ByLayer
3

72
65
73
0
40
0
0
LTYPE
5
16
100
AcDbSymbolTableRecord
100
AcDbLinetypeTableRecord
70
0
2
CONTINUOUS
3
Solid line
72
65
73
0
40
0
0
LTYPE
5
3B
100
AcDbSymbolTableRecord
100
AcDbLinetypeTableRecord
70
0
2
DASHED
3
__ __ __ __ __ __ __ __ __
72
65
73
2
40
25.72
49
12.86
74
0
49
-12.86
74
0
0
LTYPE
5
3C
100
AcDbSymbolTableRecord
100
AcDbLinetypeTableRecord
70
0
2
HIDDEN
3
_ _ _ _ _ _ _ _ _ _ _ _ _ _ _
72
65
73
2
40
0.5
49
0.25
74
0
49
-0.25
74
0
0
LTYPE
5
3D
100
AcDbSymbolTableRecord
100
AcDbLinetypeTableRecord
70
0
2
PHANTOM
3
____ _ _ ____ _ _ _____ _ _ ____
72
65
73
6
40
50.5
49
18
74
0
49
-6.5
74
0
49
6.5
74
0
49
-6.5
74
0
49
6.5
74
0
49
-6.5
74
0
0
LTYPE
5
3E
100
AcDbSymbolTableRecord
100
AcDbLinetypeTableRecord
70
0
2
CENTER
3
____ _ ____ _ ____ _ ____
72
65
73
4
40
47.5
49
22
74
0
49
-8.5
74
0
49
8.5
74
0
49
-8.5
74
0
0
LTYPE
5
3F
100
AcDbSymbolTableRecord
100
AcDbLinetypeTableRecord
70
0
2
DOT
3
.........................
72
65
73
2
40
10
49
0
74
0
49
-10
74
0
0
LTYPE
5
40
100
AcDbSymbolTableRecord
100
AcDbLinetypeTableRecord
70
0
2
DASHDOT
3
_._._._._._._._._._._._._._._._.
72
65
73
4
40
70
49
31
74
0
49
-13
74
0
49
13
74
0
49
-13
74
0
0
ENDTAB
0
TABLE
2
LAYER
5
18a
100
AcDbSymbolTable
0
LAYER
5
10
100
AcDbSymbolTableRecord
100
AcDbLayerTableRecord
2
0
70
0
62
7
6
CONTINUOUS
290
1
370
-3
390
0
0
LAYER
5
42
100
AcDbSymbolTableRecord
100
AcDbLayerTableRecord
2
80
70
0
62
-6
6
CONTINUOUS
290
1
370
-3
390
0
0
LAYER
5
44
100
AcDbSymbolTableRecord
100
AcDbLayerTableRecord
2
81
70
0
62
-3
6
CONTINUOUS
290
1
370
-3
390
0
0
LAYER
5
46
100
AcDbSymbolTableRecord
100
AcDbLayerTableRecord
2
1
70
0
62
4
6
CONTINUOUS
290
1
370
-3
390
0
0
LAYER
5
48
100
AcDbSymbolTableRecord
100
AcDbLayerTableRecord
2
2
70
0
62
7
6
CONTINUOUS
290
1
370
-3
390
0
0
LAYER
5
4E
100
AcDbSymbolTableRecord
100
AcDbLayerTableRecord
2
4
70
0
62
-2
6
CENTER
290
1
370
-3
390
0
0
LAYER
5
174
100
AcDbSymbolTableRecord
100
AcDbLayerTableRecord
2
SK4
70
0
62
2
6
CENTER
290
1
370
-3
390
0
0
LAYER
5
175
100
AcDbSymbolTableRecord
100
AcDbLayerTableRecord
2
SK1
70
0
62
4
6
CONTINUOUS
290
1
370
-3
390
0
0
LAYER
5
176
100
AcDbSymbolTableRecord
100
AcDbLayerTableRecord
2
SK6
70
0
62
5
6
CONTINUOUS
290
1
370
-3
390
0
0
LAYER
5
177
100
AcDbSymbolTableRecord
100
AcDbLayerTableRecord
2
SK2
70
0
62
7
6
CONTINUOUS
290
1
370
-3
390
0
0
ENDTAB
0
TABLE
2
STYLE
5
18b
100
AcDbSymbolTable
0
STYLE
5
11
100
AcDbSymbolTableRecord
100
AcDbTextStyleTableRecord
2
Standard
3
txt
70
0
71
0
40
0
41
1
42
0
50
0
0
STYLE
5
F0
100
AcDbSymbolTableRecord
100
AcDbTextStyleTableRecord
2
DEFAULT
3
simplex.shx
70
0
71
0
40
0
41
1
42
0
50
0
0
STYLE
5
113
100
AcDbSymbolTableRecord
100
AcDbTextStyleTableRecord
2
DWGDirectTextStyle
3
SIMPLEX
70
0
71
0
40
0
41
1
42
0
50
0
0
ENDTAB
0
TABLE
2
DIMSTYLE
5
18c
100
AcDbSymbolTable
100
AcDbDimStyleTable
0
DIMSTYLE
105
27
100
AcDbSymbolTableRecord
100
AcDbDimStyleTableRecord
2
Standard
70
0
3
<>
41
0.18
42
0.0625
44
0.18
140
0.18
147
0.09
73
0
74
0
77
1
271
2
275
0
278
52
280
0
340
11
0
ENDTAB
0
TABLE
2
VIEW
5
18d
100
AcDbSymbolTable
0
ENDTAB
0
TABLE
2
UCS
5
18e
100
AcDbSymbolTable
0
ENDTAB
0
TABLE
2
APPID
5
18f
100
AcDbSymbolTable
0
APPID
5
12
100
AcDbSymbolTableRecord
100
AcDbRegAppTableRecord
2
ACAD
70
0
0
ENDTAB
0
TABLE
2
BLOCK_RECORD
5
190
100
AcDbSymbolTable
0
BLOCK_RECORD
5
1F
100
AcDbSymbolTableRecord
100
AcDbBlockTableRecord
2
*Model_Space
340
0
70
0
0
BLOCK_RECORD
5
1B
100
AcDbSymbolTableRecord
100
AcDbBlockTableRecord
2
*Paper_Space
340
0
70
0
0
BLOCK_RECORD
5
23
100
AcDbSymbolTableRecord
100
AcDbBlockTableRecord
2
*Paper_Space0
340
0
70
0
0
BLOCK_RECORD
5
115
100
AcDbSymbolTableRecord
100
AcDbBlockTableRecord
2
DimnDraft3D1
340
0
70
0
0
BLOCK_RECORD
5
123
100
AcDbSymbolTableRecord
100
AcDbBlockTableRecord
2
_CLOSED
340
0
70
0
0
BLOCK_RECORD
5
12A
100
AcDbSymbolTableRecord
100
AcDbBlockTableRecord
2
DimnDraft3D2
340
0
70
0
0
BLOCK_RECORD
5
139
100
AcDbSymbolTableRecord
100
AcDbBlockTableRecord
2
DimnDraft3D3
340
0
70
0
0
BLOCK_RECORD
5
147
100
AcDbSymbolTableRecord
100
AcDbBlockTableRecord
2
DimnDraft3D4
340
0
70
0
0
ENDTAB
0
ENDSEC
0
SECTION
2
BLOCKS
0
BLOCK
5
20
100
AcDbEntity
8
0
100
AcDbBlockBegin
2
*Model_Space
70
0
10
0
20
0
30
0
3
*Model_Space
0
ENDBLK
5
21
100
AcDbEntity
8
0
100
AcDbBlockEnd
0
BLOCK
5
1C
100
AcDbEntity
8
0
100
AcDbBlockBegin
2
*Paper_Space
70
0
10
0
20
0
30
0
3
*Paper_Space
0
ENDBLK
5
1D
100
AcDbEntity
8
0
100
AcDbBlockEnd
0
BLOCK
5
24
100
AcDbEntity
8
0
100
AcDbBlockBegin
2
*Paper_Space0
70
0
10
0
20
0
30
0
3
*Paper_Space0
0
ENDBLK
5
25
100
AcDbEntity
8
0
100
AcDbBlockEnd
0
BLOCK
5
120
100
AcDbEntity
8
0
100
AcDbBlockBegin
2
DimnDraft3D1
70
0
10
0
20
0
30
0
3
DimnDraft3D1
0
MTEXT
5
116
100
AcDbEntity
8
2
62
256
6
ByLayer
370
-1
48
1
60
0
100
AcDbMText
10
59.065
20
20.28
30
0
210
0
220
0
230
1
1
\W01.000;\fsimplex.shx,bigfont.shx;9.0 
40
4.5
41
0
44
1.084337
50
90
71
7
72
5
7
DEFAULT
0
LINE
5
117
100
AcDbEntity
8
2
62
256
6
ByLayer
370
-1
48
1
60
0
100
AcDbLine
10
49.94
20
8.9
30
0
11
62.19
21
8.9
31
0
39
0
210
0
220
0
230
1
0
LINE
5
118
100
AcDbEntity
8
2
62
256
6
ByLayer
370
-1
48
1
60
0
100
AcDbLine
10
49.94
20
0
30
0
11
62.19
21
0
31
0
39
0
210
0
220
0
230
1
0
LINE
5
119
100
AcDbEntity
8
2
62
256
6
ByLayer
370
-1
48
1
60
0
100
AcDbLine
10
60.19
20
0
30
0
11
60.19
21
26.177368
31
0
39
0
210
0
220
0
230
1
0
LINE
5
11A
100
AcDbEntity
8
2
62
256
6
ByLayer
370
-1
48
1
60
0
100
AcDbLine
10
60.19
20
8.9
30
0
11
60.607997
21
5.725002
31
0
39
0
210
0
220
0
230
1
0
LINE
5
11B
100
AcDbEntity
8
2
62
256
6
ByLayer
370
-1
48
1
60
0
100
AcDbLine
10
60.19
20
8.9
30
0
11
59.772003
21
5.724998
31
0
39
0
210
0
220
0
230
1
0
LINE
5
11C
100
AcDbEntity
8
2
62
256
6
ByLayer
370
-1
48
1
60
0
100
AcDbLine
10
60.607997
20
5.725002
30
0
11
59.772003
21
5.724998
31
0
39
0
210
0
220
0
230
1
0
LINE
5
11D
100
AcDbEntity
8
2
62
256
6
ByLayer
370
-1
48
1
60
0
100
AcDbLine
10
60.19
20
0
30
0
11
59.772003
21
3.174998
31
0
39
0
210
0
220
0
230
1
0
LINE
5
11E
100
AcDbEntity
8
2
62
256
6
ByLayer
370
-1
48
1
60
0
100
AcDbLine
10
60.19
20
0
30
0
11
60.607997
21
3.175002
31
0
39
0
210
0
220
0
230
1
0
LINE
5
11F
100
AcDbEntity
8
2
62
256
6
ByLayer
370
-1
48
1
60
0
100
AcDbLine
10
59.772003
20
3.174998
30
0
11
60.607997
21
3.175002
31
0
39
0
210
0
220
0
230
1
0
ENDBLK
5
121
100
AcDbEntity
8
0
100
AcDbBlockEnd
0
BLOCK
5
124
100
AcDbEntity
8
0
100
AcDbBlockBegin
2
_CLOSED
70
0
10
0
20
0
30
0
3
_CLOSED
0
LINE
5
126
100
AcDbEntity
8
0
62
256
6
ByLayer
370
-2
48
1
60
0
100
AcDbLine
10
-1
20
0.166667
30
0
11
0
21
0
31
0
39
0
210
0
220
0
230
1
0
LINE
5
127
100
AcDbEntity
8
0
62
256
6
ByLayer
370
-2
48
1
60
0
100
AcDbLine
10
0
20
0
30
0
11
-1
21
-0.166667
31
0
39
0
210
0
220
0
230
1
0
LINE
5
128
100
AcDbEntity
8
0
62
256
6
ByLayer
370
-2
48
1
60
0
100
AcDbLine
10
-1
20
0.166667
30
0
11
-1
21
-0.166667
31
0
39
0
210
0
220
0
230
1
0
LINE
5
129
100
AcDbEntity
8
0
62
256
6
ByLayer
370
-2
48
1
60
0
100
AcDbLine
10
0
20
0
30
0
11
-1
21
0
31
0
39
0
210
0
220
0
230
1
0
ENDBLK
5
125
100
AcDbEntity
8
0
100
AcDbBlockEnd
0
BLOCK
5
136
100
AcDbEntity
8
0
100
AcDbBlockBegin
2
DimnDraft3D2
70
0
10
0
20
0
30
0
3
DimnDraft3D2
0
MTEXT
5
12B
100
AcDbEntity
8
SK2
62
256
6
ByLayer
370
-1
48
1
60
0
100
AcDbMText
10
-114.185
20
17.3725
30
0
210
0
220
0
230
1
1
\W01.000;\fsimplex.shx,bigfont.shx;%%c12 
40
4.5
41
0
44
1.084337
50
90
71
7
72
5
7
DEFAULT
0
LINE
5
12D
100
AcDbEntity
8
SK2
62
256
6
ByLayer
370
-1
48
1
60
0
100
AcDbLine
10
-105.31
20
-5.9925
30
0
11
-115.06
21
-5.9925
31
0
39
0
210
0
220
0
230
1
0
LINE
5
12E
100
AcDbEntity
8
SK2
62
256
6
ByLayer
370
-1
48
1
60
0
100
AcDbLine
10
-105.31
20
5.9925
30
0
11
-115.06
21
5.9925
31
0
39
0
210
0
220
0
230
1
0
LINE
5
12F
100
AcDbEntity
8
SK2
62
256
6
ByLayer
370
-1
48
1
60
0
100
AcDbLine
10
-113.06
20
-5.9925
30
0
11
-113.06
21
24.690921
31
0
39
0
210
0
220
0
230
1
0
LINE
5
130
100
AcDbEntity
8
SK2
62
256
6
ByLayer
370
-1
48
1
60
0
100
AcDbLine
10
-113.06
20
-5.9925
30
0
11
-113.477997
21
-2.817502
31
0
39
0
210
0
220
0
230
1
0
LINE
5
131
100
AcDbEntity
8
SK2
62
256
6
ByLayer
370
-1
48
1
60
0
100
AcDbLine
10
-113.06
20
-5.9925
30
0
11
-112.642003
21
-2.817498
31
0
39
0
210
0
220
0
230
1
0
LINE
5
132
100
AcDbEntity
8
SK2
62
256
6
ByLayer
370
-1
48
1
60
0
100
AcDbLine
10
-113.477997
20
-2.817502
30
0
11
-112.642003
21
-2.817498
31
0
39
0
210
0
220
0
230
1
0
LINE
5
133
100
AcDbEntity
8
SK2
62
256
6
ByLayer
370
-1
48
1
60
0
100
AcDbLine
10
-113.06
20
5.9925
30
0
11
-112.642003
21
2.817502
31
0
39
0
210
0
220
0
230
1
0
LINE
5
134
100
AcDbEntity
8
SK2
62
256
6
ByLayer
370
-1
48
1
60
0
100
AcDbLine
10
-113.06
20
5.9925
30
0
11
-113.477997
21
2.817498
31
0
39
0
210
0
220
0
230
1
0
LINE
5
135
100
AcDbEntity
8
SK2
62
256
6
ByLayer
370
-1
48
1
60
0
100
AcDbLine
10
-112.642003
20
2.817502
30
0
11
-113.477997
21
2.817498
31
0
39
0
210
0
220
0
230
1
0
ENDBLK
5
137
100
AcDbEntity
8
0
100
AcDbBlockEnd
0
BLOCK
5
144
100
AcDbEntity
8
0
100
AcDbBlockBegin
2
DimnDraft3D3
70
0
10
0
20
0
30
0
3
DimnDraft3D3
0
MTEXT
5
13A
100
AcDbEntity
8
SK2
62
256
6
ByLayer
370
-1
48
1
60
0
100
AcDbMText
10
-32.812632
20
22.775
30
0
210
0
220
0
230
1
1
\W01.000;\fsimplex.shx,bigfont.shx;150.0 
40
4.5
41
0
44
1.084337
50
0
71
7
72
5
7
DEFAULT
0
LINE
5
13B
100
AcDbEntity
8
SK2
62
256
6
ByLayer
370
-1
48
1
60
0
100
AcDbLine
10
47.94
20
10.9
30
0
11
47.94
21
23.65
31
0
39
0
210
0
220
0
230
1
0
LINE
5
13C
100
AcDbEntity
8
SK2
62
256
6
ByLayer
370
-1
48
1
60
0
100
AcDbLine
10
-103.31
20
7.9925
30
0
11
-103.31
21
23.65
31
0
39
0
210
0
220
0
230
1
0
LINE
5
13D
100
AcDbEntity
8
SK2
62
256
6
ByLayer
370
-1
48
1
60
0
100
AcDbLine
10
47.94
20
21.65
30
0
11
-103.31
21
21.65
31
0
39
0
210
0
220
0
230
1
0
LINE
5
13E
100
AcDbEntity
8
SK2
62
256
6
ByLayer
370
-1
48
1
60
0
100
AcDbLine
10
47.94
20
21.65
30
0
11
44.765002
21
21.232003
31
0
39
0
210
0
220
0
230
1
0
LINE
5
13F
100
AcDbEntity
8
SK2
62
256
6
ByLayer
370
-1
48
1
60
0
100
AcDbLine
10
47.94
20
21.65
30
0
11
44.764998
21
22.067997
31
0
39
0
210
0
220
0
230
1
0
LINE
5
140
100
AcDbEntity
8
SK2
62
256
6
ByLayer
370
-1
48
1
60
0
100
AcDbLine
10
44.765002
20
21.232003
30
0
11
44.764998
21
22.067997
31
0
39
0
210
0
220
0
230
1
0
LINE
5
141
100
AcDbEntity
8
SK2
62
256
6
ByLayer
370
-1
48
1
60
0
100
AcDbLine
10
-103.31
20
21.65
30
0
11
-100.135002
21
22.067997
31
0
39
0
210
0
220
0
230
1
0
LINE
5
142
100
AcDbEntity
8
SK2
62
256
6
ByLayer
370
-1
48
1
60
0
100
AcDbLine
10
-103.31
20
21.65
30
0
11
-100.134998
21
21.232003
31
0
39
0
210
0
220
0
230
1
0
LINE
5
143
100
AcDbEntity
8
SK2
62
256
6
ByLayer
370
-1
48
1
60
0
100
AcDbLine
10
-100.135002
20
22.067997
30
0
11
-100.134998
21
21.232003
31
0
39
0
210
0
220
0
230
1
0
ENDBLK
5
145
100
AcDbEntity
8
0
100
AcDbBlockEnd
0
BLOCK
5
152
100
AcDbEntity
8
0
100
AcDbBlockBegin
2
DimnDraft3D4
70
0
10
0
20
0
30
0
3
DimnDraft3D4
0
MTEXT
5
148
100
AcDbEntity
8
2
62
256
6
ByLayer
370
-1
48
1
60
0
100
AcDbMText
10
76.546734
20
-35.950619
30
0
210
0
220
0
230
1
1
\W01.000;\fsimplex.shx,bigfont.shx;91%%d0' 
40
4.5
41
0
44
1.084337
50
44.5
71
7
72
5
7
DEFAULT
0
LINE
5
149
100
AcDbEntity
8
2
62
256
6
ByLayer
370
-1
48
1
60
0
100
AcDbLine
10
47.713119
20
-4.09802
30
0
11
46.930766
21
-48.918955
31
0
39
0
210
0
220
0
230
1
0
LINE
5
14A
100
AcDbEntity
8
2
62
256
6
ByLayer
370
-1
48
1
60
0
100
AcDbLine
10
49.94
20
0
30
0
11
96.711057
21
0
31
0
39
0
210
0
220
0
230
1
0
ARC
5
14B
100
AcDbEntity
8
2
62
256
6
ByLayer
370
-1
48
1
60
0
100
AcDbCircle
39
0
10
47.78465
20
0
30
0
40
46.9264068782928
210
0
220
0
230
1
100
AcDbArc
50
269
51
0
0
LINE
5
14C
100
AcDbEntity
8
2
62
256
6
ByLayer
370
-1
48
1
60
0
100
AcDbLine
10
46.965671
20
-46.91926
30
0
11
50.140897
21
-46.502993
31
0
39
0
210
0
220
0
230
1
0
LINE
5
14D
100
AcDbEntity
8
2
62
256
6
ByLayer
370
-1
48
1
60
0
100
AcDbLine
10
46.965671
20
-46.91926
30
0
11
50.140444
21
-47.338987
31
0
39
0
210
0
220
0
230
1
0
LINE
5
14E
100
AcDbEntity
8
2
62
256
6
ByLayer
370
-1
48
1
60
0
100
AcDbLine
10
50.140897
20
-46.502993
30
0
11
50.140444
21
-47.338987
31
0
39
0
210
0
220
0
230
1
0
LINE
5
14F
100
AcDbEntity
8
2
62
256
6
ByLayer
370
-1
48
1
60
0
100
AcDbLine
10
94.711057
20
0
30
0
11
95.075312
21
-3.181612
31
0
39
0
210
0
220
0
230
1
0
LINE
5
150
100
AcDbEntity
8
2
62
256
6
ByLayer
370
-1
48
1
60
0
100
AcDbLine
10
94.711057
20
0
30
0
11
94.239438
21
-3.16748
31
0
39
0
210
0
220
0
230
1
0
LINE
5
151
100
AcDbEntity
8
2
62
256
6
ByLayer
370
-1
48
1
60
0
100
AcDbLine
10
95.075312
20
-3.181612
30
0
11
94.239438
21
-3.16748
31
0
39
0
210
0
220
0
230
1
0
ENDBLK
5
153
100
AcDbEntity
8
0
100
AcDbBlockEnd
0
ENDSEC
0
SECTION
2
ENTITIES
0
ELLIPSE
5
9C
100
AcDbEntity
8
1
62
256
6
ByLayer
370
-1
48
1
60
0
100
AcDbEllipse
10
40.569056
20
4.410016
30
0
11
-0.354485682489085
21
-1.19868256886894
31
0
210
0
220
0
230
1
40
0.994106
41
-1.82279019153445
42
-1.57084911916267
0
ELLIPSE
5
9D
100
AcDbEntity
8
1
62
256
6
ByLayer
370
-1
48
1
60
0
100
AcDbEllipse
10
64.108347
20
0.053649
30
0
11
84.6181258556934
21
0.276340037568372
31
0
210
0
220
0
230
-1
40
0.102452
41
-1.81331688591109
42
-1.80121853351855
0
ELLIPSE
5
9E
100
AcDbEntity
8
1
62
256
6
ByLayer
370
-1
48
1
60
0
100
AcDbEllipse
10
39.153582
20
3.807249
30
0
11
0.297767973290838
21
1.00689335784997
31
0
210
0
220
0
230
1
40
0.994106
41
-2.81708327227945
42
-2.19439245276374
0
ELLIPSE
5
9F
100
AcDbEntity
8
1
62
256
6
ByLayer
370
-1
48
1
60
0
100
AcDbEllipse
10
39.058679
20
3.835315
30
0
11
1.05558423136664
21
-0.0170867895640162
31
0
210
0
220
0
230
-1
40
0.994159
41
1.5191521125926
42
-1.66646519183399
0
ELLIPSE
5
A0
100
AcDbEntity
8
1
62
256
6
ByLayer
370
-1
48
1
60
0
100
AcDbEllipse
10
44.577766
20
0.002492
30
0
11
0.122951982329349
21
8.44495093685301
31
0
210
0
220
0
230
-1
40
0.105004
41
0.0614805962675002
42
0.418805617503083
0
ELLIPSE
5
A1
100
AcDbEntity
8
1
62
256
6
ByLayer
370
-1
48
1
60
0
100
AcDbEllipse
10
43.572158
20
0.002486
30
0
11
0.122651957477086
21
8.42434392904721
31
0
210
0
220
0
230
-1
40
0.105004
41
0.0222968802718526
42
0.073921619377242
0
ELLIPSE
5
A2
100
AcDbEntity
8
1
62
256
6
ByLayer
370
-1
48
1
60
0
100
AcDbEllipse
10
40.697136
20
4.624608
30
0
11
-0.354485682489085
21
-1.19868256886894
31
0
210
0
220
0
230
1
40
0.994106
41
-2.9803686755354
42
-1.82279019153447
0
ELLIPSE
5
A3
100
AcDbEntity
8
1
62
256
6
ByLayer
370
-1
48
1
60
0
100
AcDbEllipse
10
40.308882
20
4.739426
30
0
11
1.2566478944843
21
-0.0203414161484047
31
0
210
0
220
0
230
-1
40
0.994159
41
-2.61673362174253
42
-1.11844493061842
0
ELLIPSE
5
A4
100
AcDbEntity
8
1
62
256
6
ByLayer
370
-1
48
1
60
0
100
AcDbEllipse
10
93.617696
20
0.057267
30
0
11
90.4032097044329
21
0.295220985371163
31
0
210
0
220
0
230
-1
40
0.102452
41
-2.13760689790028
42
-2.13353601916715
0
ELLIPSE
5
A5
100
AcDbEntity
8
1
62
256
6
ByLayer
370
-1
48
1
60
0
100
AcDbEllipse
10
40.390442
20
4.715307
30
0
11
-0.354485682489085
21
-1.19868256886894
31
0
210
0
220
0
230
1
40
0.994106
41
2.88959878885021
42
2.96210642452062
0
ELLIPSE
5
A6
100
AcDbEntity
8
1
62
256
6
ByLayer
370
-1
48
1
60
0
100
AcDbEllipse
10
39.460276
20
3.716551
30
0
11
-0.29776797329085
21
-1.00689335784997
31
0
210
0
220
0
230
1
40
0.994106
41
3.00044780111078
42
-2.77305862144259
0
ELLIPSE
5
A7
100
AcDbEntity
8
1
62
256
6
ByLayer
370
-1
48
1
60
0
100
AcDbEllipse
10
28.522556
20
37.314403
30
0
11
60.4195052294372
21
-225.393237461504
31
-4.89355369650672E-14
210
-1.23259516440783E-32
220
2.17111824277448E-16
230
-1
40
0.028099
41
1.4013024540056
42
1.42270820066864
0
ELLIPSE
5
A8
100
AcDbEntity
8
1
62
256
6
ByLayer
370
-1
48
1
60
0
100
AcDbEllipse
10
39.491465
20
3.707327
30
0
11
0.297767973290855
21
1.00689335785003
31
0
210
0
220
0
230
1
40
0.994106
41
0
42
2.92338786602815
0
ELLIPSE
5
A9
100
AcDbEntity
8
1
62
256
6
ByLayer
370
-1
48
1
60
0
100
AcDbEllipse
10
44.882954
20
1.550705
30
0
11
-0.410271248059468
21
-1.38731976452147
31
0
210
0
220
0
230
1
40
0.994106
41
-0.251993864739562
42
0.00911424481051051
0
ELLIPSE
5
AA
100
AcDbEntity
8
1
62
256
6
ByLayer
370
-1
48
1
60
0
100
AcDbEllipse
10
40.179442
20
4.525236
30
0
11
1.25664789504543
21
-0.0203414550885186
31
0
210
0
220
0
230
-1
40
0.994159
41
-2.86867472502685
42
-2.6167336527837
0
ELLIPSE
5
AB
100
AcDbEntity
8
1
62
256
6
ByLayer
370
-1
48
1
60
0
100
AcDbEllipse
10
43.177999
20
2.57493
30
0
11
-0.410271248059468
21
-1.38731976452147
31
0
210
0
220
0
230
1
40
0.994106
41
-0.51310190671075
42
-0.251993864739521
0
ELLIPSE
5
AC
100
AcDbEntity
8
1
62
256
6
ByLayer
370
-1
48
1
60
0
100
AcDbEllipse
10
47.545276
20
8.503313
30
0
11
0.112549204190281
21
0.38058171561589
31
0
210
0
220
0
230
1
40
0.994106
41
-1.29919141593608
42
0.795203686456993
0
ELLIPSE
5
AD
100
AcDbEntity
8
1
62
256
6
ByLayer
370
-1
48
1
60
0
100
AcDbEllipse
10
44.698687
20
3.734005
30
0
11
0.531728523733609
21
1.79802385330342
31
0
210
0
220
0
230
1
40
0.994106
41
0
42
6.28318530717959
0
ELLIPSE
5
AE
100
AcDbEntity
8
1
62
256
6
ByLayer
370
-1
48
1
60
0
100
AcDbEllipse
10
44.755115
20
3.717318
30
0
11
0.525008176542053
21
1.7752992033861
31
0
210
0
220
0
230
1
40
0.994106
41
-0.411993818026693
42
-2.41301568450733E-16
0
ELLIPSE
5
AF
100
AcDbEntity
8
1
62
256
6
ByLayer
370
-1
48
1
60
0
100
AcDbEllipse
10
44.755115
20
3.717318
30
0
11
0.525008176542053
21
1.7752992033861
31
0
210
0
220
0
230
1
40
0.994106
41
0
42
-2.72960551030578
0
ELLIPSE
5
B0
100
AcDbEntity
8
1
62
256
6
ByLayer
370
-1
48
1
60
0
100
AcDbEllipse
10
44.780281
20
3.709876
30
0
11
-0.503789938457081
21
-1.70355037574375
31
0
210
0
220
0
230
1
40
0.994106
41
-0.843668320289215
42
-2.51464522767267E-16
0
ELLIPSE
5
B1
100
AcDbEntity
8
1
62
256
6
ByLayer
370
-1
48
1
60
0
100
AcDbEllipse
10
44.780281
20
3.709876
30
0
11
-0.503789938457081
21
-1.70355037574375
31
0
210
0
220
0
230
1
40
0.994106
41
0
42
-2.29783289048158
0
ELLIPSE
5
B2
100
AcDbEntity
8
1
62
256
6
ByLayer
370
-1
48
1
60
0
100
AcDbEllipse
10
39.173396
20
3.813562
30
0
11
0.112549204190281
21
0.38058171561589
31
0
210
0
220
0
230
1
40
0.994106
41
0.795203686457118
42
2.88959878885027
0
ELLIPSE
5
B3
100
AcDbEntity
8
1
62
256
6
ByLayer
370
-1
48
1
60
0
100
AcDbEllipse
10
47.37739
20
-1.114858
30
0
11
0.112549204190281
21
0.38058171561589
31
0
210
0
220
0
230
1
40
0.994106
41
2.88959878885035
42
-1.29919141593615
0
ELLIPSE
5
B4
100
AcDbEntity
8
1
62
256
6
ByLayer
370
-1
48
1
60
0
100
AcDbEllipse
10
44.695712
20
3.734886
30
0
11
0.293528324528253
21
0.992557114326247
31
0
210
0
220
0
230
1
40
0.994106
41
2.36599962190358
42
-1.81444727749948
0
ELLIPSE
5
B5
100
AcDbEntity
8
1
62
256
6
ByLayer
370
-1
48
1
60
0
100
AcDbEllipse
10
45.474151
20
3.26725
30
0
11
0.132559090846323
21
0.203734382164264
31
0
210
0
220
0
230
-1
40
0.49761
41
1.36542620011057
42
1.51740277808261
0
ELLIPSE
5
B6
100
AcDbEntity
8
1
62
256
6
ByLayer
370
-1
48
1
60
0
100
AcDbEllipse
10
44.695712
20
3.734886
30
0
11
0.293528324528253
21
0.992557114326247
31
0
210
0
220
0
230
1
40
0.994106
41
1.31045954801685
42
2.36599962190358
0
ELLIPSE
5
B7
100
AcDbEntity
8
1
62
256
6
ByLayer
370
-1
48
1
60
0
100
AcDbEllipse
10
44.695712
20
3.734886
30
0
11
0.293528324528253
21
0.992557114326247
31
0
210
0
220
0
230
1
40
0.994106
41
-1.77900430652197
42
-0.775592248989498
0
ELLIPSE
5
B8
100
AcDbEntity
8
1
62
256
6
ByLayer
370
-1
48
1
60
0
100
AcDbEllipse
10
44.695712
20
3.734886
30
0
11
0.293528324528253
21
0.992557114326247
31
0
210
0
220
0
230
1
40
0.994106
41
-0.775592248989498
42
1.27501657704617
0
ELLIPSE
5
B9
100
AcDbEntity
8
1
62
256
6
ByLayer
370
-1
48
1
60
0
100
AcDbEllipse
10
43.917272
20
4.202521
30
0
11
0.116026598435776
21
0.213644974064319
31
0
210
0
220
0
230
-1
40
0.497385
41
-1.51363970520653
42
-1.3616631298984
0
ELLIPSE
5
BA
100
AcDbEntity
8
1
62
256
6
ByLayer
370
-1
48
1
60
0
100
AcDbEllipse
10
44.810072
20
3.701066
30
0
11
-0.224375257588292
21
-0.758718118791288
31
0
210
0
220
0
230
1
40
0.994106
41
-1.28486524035057
42
0
0
ELLIPSE
5
BB
100
AcDbEntity
8
1
62
256
6
ByLayer
370
-1
48
1
60
0
100
AcDbEllipse
10
44.810072
20
3.701066
30
0
11
-0.224375257588292
21
-0.758718118791288
31
0
210
0
220
0
230
1
40
0.994106
41
0
42
0.507609541946955
0
ELLIPSE
5
BC
100
AcDbEntity
8
1
62
256
6
ByLayer
370
-1
48
1
60
0
100
AcDbEllipse
10
44.810072
20
3.701066
30
0
11
-0.224375257588292
21
-0.758718118791288
31
0
210
0
220
0
230
1
40
0.994106
41
0.948610296724977
42
1.59901815823478
0
ELLIPSE
5
BD
100
AcDbEntity
8
1
62
256
6
ByLayer
370
-1
48
1
60
0
100
AcDbEllipse
10
44.810072
20
3.701066
30
0
11
-0.224375257588292
21
-0.758718118791288
31
0
210
0
220
0
230
1
40
0.994106
41
2.14064841279518
42
2.84250037960166
0
ELLIPSE
5
BE
100
AcDbEntity
8
1
62
256
6
ByLayer
370
-1
48
1
60
0
100
AcDbEllipse
10
44.810072
20
3.701066
30
0
11
-0.224375257588292
21
-0.758718118791288
31
0
210
0
220
0
230
1
40
0.994106
41
3.05524453256793
42
-1.28486524035057
0
ELLIPSE
5
BF
100
AcDbEntity
8
1
62
256
6
ByLayer
370
-1
48
1
60
0
100
AcDbEllipse
10
44.702151
20
3.732981
30
0
11
0.263105137574237
21
0.889682031656739
31
0
210
0
220
0
230
1
40
0.994106
41
-3.13189790186248
42
-3.13167635919774
0
ELLIPSE
5
C0
100
AcDbEntity
8
1
62
256
6
ByLayer
370
-1
48
1
60
0
100
AcDbEllipse
10
44.702151
20
3.732981
30
0
11
0.263105137574237
21
0.889682031656739
31
0
210
0
220
0
230
1
40
0.994106
41
0.533293527325416
42
0.533515069990188
0
ELLIPSE
5
C1
100
AcDbEntity
8
1
62
256
6
ByLayer
370
-1
48
1
60
0
100
AcDbEllipse
10
44.702151
20
3.732981
30
0
11
0.263105137574237
21
0.889682031656739
31
0
210
0
220
0
230
1
40
0.994106
41
-1.56292785943825
42
-1.56088003240295
0
ELLIPSE
5
C2
100
AcDbEntity
8
1
62
256
6
ByLayer
370
-1
48
1
60
0
100
AcDbEllipse
10
44.702151
20
3.732981
30
0
11
0.263105137574237
21
0.889682031656739
31
0
210
0
220
0
230
1
40
0.994106
41
-2.60829912626422
42
-2.60807758359946
0
ELLIPSE
5
C3
100
AcDbEntity
8
1
62
256
6
ByLayer
370
-1
48
1
60
0
100
AcDbEllipse
10
44.702151
20
3.732981
30
0
11
0.263105137574237
21
0.889682031656739
31
0
210
0
220
0
230
1
40
0.994106
41
1.05689230292374
42
1.0589401299591
0
ELLIPSE
5
C4
100
AcDbEntity
8
1
62
256
6
ByLayer
370
-1
48
1
60
0
100
AcDbEllipse
10
44.702151
20
3.732981
30
0
11
0.263105137574237
21
0.889682031656739
31
0
210
0
220
0
230
1
40
0.994106
41
0.00969475172719142
42
0.00991629439183983
0
ELLIPSE
5
C5
100
AcDbEntity
8
1
62
256
6
ByLayer
370
-1
48
1
60
0
100
AcDbEllipse
10
44.794142
20
2.788441
30
0
11
0.241251728377652
21
-0.00324843821848089
31
0
210
0
220
0
230
-1
40
0.48374
41
2.09725664650739
42
-2.99384697999797
0
ELLIPSE
5
C6
100
AcDbEntity
8
1
62
256
6
ByLayer
370
-1
48
1
60
0
100
AcDbEllipse
10
44.342245
20
2.917247
30
0
11
0.206702820458473
21
-0.124419005952861
31
0
210
0
220
0
230
-1
40
0.483796
41
-2.06377699849804
42
-0.147619207960805
0
ELLIPSE
5
C7
100
AcDbEntity
8
1
62
256
6
ByLayer
370
-1
48
1
60
0
100
AcDbEllipse
10
44.015702
20
3.256077
30
0
11
0.116536615126527
21
-0.211948112560496
31
0
210
0
220
0
230
-1
40
0.502517
41
0.785010252731107
42
-3.02903896300207
0
ELLIPSE
5
C8
100
AcDbEntity
8
1
62
256
6
ByLayer
370
-1
48
1
60
0
100
AcDbEllipse
10
43.90201
20
3.714141
30
0
11
0.00445261582789107
21
0.242456819102835
31
0
210
0
220
0
230
-1
40
0.478868
41
0.0653340999228285
42
3.01833687812608
0
ELLIPSE
5
C9
100
AcDbEntity
8
1
62
256
6
ByLayer
370
-1
48
1
60
0
100
AcDbEllipse
10
44.031632
20
4.168701
30
0
11
0.11602659502584
21
0.213644963652071
31
0
210
0
220
0
230
-1
40
0.497385
41
-3.12667468331515
42
-0.836086596849739
0
ELLIPSE
5
CA
100
AcDbEntity
8
1
62
256
6
ByLayer
370
-1
48
1
60
0
100
AcDbEllipse
10
44.369837
20
4.497959
30
0
11
0.210833371606137
21
0.118598336247997
31
0
210
0
220
0
230
-1
40
0.481232
41
0.149517582111882
42
2.70432959238567
0
ELLIPSE
5
CB
100
AcDbEntity
8
1
62
256
6
ByLayer
370
-1
48
1
60
0
100
AcDbEllipse
10
44.810072
20
3.701066
30
0
11
-0.263105137574246
21
-0.889682031656736
31
0
210
0
220
0
230
1
40
0.994106
41
-2.60829912626429
42
-2.60807758359951
0
ELLIPSE
5
CC
100
AcDbEntity
8
1
62
256
6
ByLayer
370
-1
48
1
60
0
100
AcDbEllipse
10
44.826002
20
4.61369
30
0
11
0.241251728377646
21
-0.00324843821846045
31
0
210
0
220
0
230
-1
40
0.48374
41
2.99770644047387
42
-1.04433292376927
0
ELLIPSE
5
CD
100
AcDbEntity
8
1
62
256
6
ByLayer
370
-1
48
1
60
0
100
AcDbEllipse
10
45.277899
20
4.484885
30
0
11
0.206702820458451
21
-0.12441900595286
31
0
210
0
220
0
230
-1
40
0.483796
41
0.119553837058554
42
1.07781303753394
0
ELLIPSE
5
CE
100
AcDbEntity
8
1
62
256
6
ByLayer
370
-1
48
1
60
0
100
AcDbEllipse
10
44.789279
20
3.707215
30
0
11
0.489190241834918
21
1.65418194503914
31
0
210
0
220
0
230
1
40
0.994106
41
-3.14154722386584
42
-1.28486607997478
0
ELLIPSE
5
CF
100
AcDbEntity
8
1
62
256
6
ByLayer
370
-1
48
1
60
0
100
AcDbEllipse
10
44.789279
20
3.707215
30
0
11
0.489190241834918
21
1.65418194503914
31
0
210
0
220
0
230
1
40
0.994106
41
-1.28486549999341
42
-2.58969385762621E-16
0
ELLIPSE
5
D0
100
AcDbEntity
8
1
62
256
6
ByLayer
370
-1
48
1
60
0
100
AcDbEllipse
10
44.713794
20
3.729538
30
0
11
0.48919024183492
21
1.65418194503914
31
0
210
0
220
0
230
1
40
0.994106
41
0
42
6.28318530717959
0
ELLIPSE
5
D1
100
AcDbEntity
8
1
62
256
6
ByLayer
370
-1
48
1
60
0
100
AcDbEllipse
10
44.695712
20
3.734886
30
0
11
0.368665109788644
21
1.24662987162373
31
0
210
0
220
0
230
1
40
0.994106
41
0
42
6.28318530717959
0
POINT
5
41
100
AcDbEntity
8
80
62
256
6
ByLayer
370
-1
48
1
60
0
100
AcDbPoint
10
0
20
0
30
0
39
0
210
0
220
0
230
1
50
360
0
POINT
5
43
100
AcDbEntity
8
81
62
256
6
ByLayer
370
-1
48
1
60
0
100
AcDbPoint
10
47.94
20
8.9
30
0
39
0
210
0
220
0
230
1
50
360
0
POINT
5
45
100
AcDbEntity
8
1
62
256
6
ByLayer
370
-1
48
1
60
0
100
AcDbPoint
10
-103.31
20
0
30
0
39
0
210
0
220
0
230
1
50
360
0
POINT
5
47
100
AcDbEntity
8
2
62
256
6
ByLayer
370
-1
48
1
60
0
100
AcDbPoint
10
47.94
20
8.9
30
0
39
0
210
0
220
0
230
1
50
360
0
SPLINE
5
D2
100
AcDbEntity
8
1
62
256
6
ByLayer
370
-1
48
1
60
0
100
AcDbSpline
70
4
71
3
72
8
73
4
40
0
40
0
40
0
40
0
40
1
40
1
40
1
40
1
41
1
10
43.7145016107146
20
8.42444897552295
30
0
41
1
10
41.7660222137523
20
8.38453821827991
30
0
41
1
10
39.8175428168465
20
8.34462745827099
30
0
41
1
10
37.86906342
20
8.30471669537471
30
0
0
SPLINE
5
D3
100
AcDbEntity
8
1
62
256
6
ByLayer
370
-1
48
1
60
0
100
AcDbSpline
70
4
71
3
72
8
73
4
40
0
40
0
40
0
40
0
40
1
40
1
40
1
40
1
41
1
10
32.869063421009
20
-3.37455100765703
30
0
41
1
10
32.8934901875885
20
-3.40965556019134
30
0
41
1
10
32.9184692470538
20
-3.44323681634168
30
0
41
1
10
32.944063421009
20
-3.47525556349265
30
0
0
SPLINE
5
D4
100
AcDbEntity
8
1
62
256
6
ByLayer
370
-1
48
1
60
0
100
AcDbSpline
70
4
71
3
72
10
73
6
40
0
40
0
40
0
40
0
40
0.5
40
0.5
40
1
40
1
40
1
40
1
41
1
10
31.173401819923
20
2.37908727246381
30
0
41
1
10
31.0286529424701
20
3.08276268273252
30
0
41
1
10
30.9343587977868
20
3.74245950199324
30
0
41
1
10
31.0476029017364
20
4.82914157432327
30
0
41
1
10
31.2691019785591
20
5.24440421253553
30
0
41
1
10
31.6887263903497
20
5.50750000000286
30
0
0
SPLINE
5
D5
100
AcDbEntity
8
1
62
256
6
ByLayer
370
-1
48
1
60
0
100
AcDbSpline
70
4
71
3
72
8
73
4
40
0
40
0
40
0
40
0
40
1
40
1
40
1
40
1
41
1
10
36.5256227033194
20
7.2684573309117
30
0
41
1
10
36.9734361388423
20
7.6138772961435
30
0
41
1
10
37.4212497281286
20
7.95929706220028
30
0
41
1
10
37.86906342
20
8.30471669537471
30
0
0
SPLINE
5
D6
100
AcDbEntity
8
1
62
256
6
ByLayer
370
-1
48
1
60
0
100
AcDbSpline
70
4
71
3
72
8
73
4
40
0
40
0
40
0
40
0
40
1
40
1
40
1
40
1
41
1
10
34.930567011812
20
-5.55785802024047
30
0
41
1
10
34.8770670728174
20
-5.49663003923547
30
0
41
1
10
34.8241641211134
20
-5.43487007928607
30
0
41
1
10
34.7718715455207
20
-5.37252331306843
30
0
0
SPLINE
5
D7
100
AcDbEntity
8
1
62
256
6
ByLayer
370
-1
48
1
60
0
100
AcDbSpline
70
4
71
3
72
8
73
4
40
0
40
0
40
0
40
0
40
1
40
1
40
1
40
1
41
1
10
32.944063421009
20
-3.47525556349262
30
0
41
1
10
33.3899812919848
20
-4.37032148915267
30
0
41
1
10
33.9649834852291
20
-5.00446999289403
30
0
41
1
10
34.7718715455208
20
-5.37252331306823
30
0
0
SPLINE
5
D8
100
AcDbEntity
8
1
62
256
6
ByLayer
370
-1
48
1
60
0
100
AcDbSpline
70
4
71
3
72
8
73
4
40
0
40
0
40
0
40
0
40
1
40
1
40
1
40
1
41
1
10
32.869063421009
20
-3.37455100765737
30
0
41
1
10
32.7237848447972
20
-3.06133804781152
30
0
41
1
10
32.5942309039548
20
-2.7287657687537
30
0
41
1
10
32.471867067568
20
-2.37908727246415
30
0
0
SPLINE
5
D9
100
AcDbEntity
8
1
62
256
6
ByLayer
370
-1
48
1
60
0
100
AcDbSpline
70
4
71
3
72
8
73
4
40
0
40
0
40
0
40
0
40
1
40
1
40
1
40
1
41
1
10
34.7718715455205
20
-5.59131695378565
30
0
41
1
10
34.8204237089996
20
-5.58108034369661
30
0
41
1
10
34.8735331562076
20
-5.56988288792627
30
0
41
1
10
34.930567011812
20
-5.55785802024047
30
0
0
SPLINE
5
DA
100
AcDbEntity
8
1
62
256
6
ByLayer
370
-1
48
1
60
0
100
AcDbSpline
70
4
71
3
72
8
73
4
40
0
40
0
40
0
40
0
40
1
40
1
40
1
40
1
41
1
10
34.7718715455207
20
5.91469861851229
30
0
41
1
10
35.3405326381136
20
6.36086878733312
30
0
41
1
10
35.9285117062902
20
6.80787700108652
30
0
41
1
10
36.5256227033194
20
7.26845733091173
30
0
0
SPLINE
5
DB
100
AcDbEntity
8
1
62
256
6
ByLayer
370
-1
48
1
60
0
100
AcDbSpline
70
4
71
3
72
8
73
4
40
0
40
0
40
0
40
0
40
1
40
1
40
1
40
1
41
1
10
34.7718715455208
20
5.91469861851209
30
0
41
1
10
34.3441401150316
20
5.91049247354286
30
0
41
1
10
33.9367350303827
20
5.90082391594925
30
0
41
1
10
33.55100471596
20
5.87444129595985
30
0
0
SPLINE
5
DC
100
AcDbEntity
8
1
62
256
6
ByLayer
370
-1
48
1
60
0
100
AcDbSpline
70
4
71
3
72
50
73
46
40
-0.0398496491730957
40
-0.0398496491730957
40
0
40
0
40
0.0806674723520761
40
0.0806674723520761
40
0.119904986549229
40
0.119904986549229
40
0.153281101139542
40
0.153281101139542
40
0.187034056823832
40
0.187034056823832
40
0.215508711035526
40
0.215508711035526
40
0.243102059383564
40
0.243102059383564
40
0.273460527189488
40
0.273460527189488
40
0.318644721548647
40
0.318644721548647
40
0.380631833349231
40
0.380631833349231
40
0.46942049246146
40
0.46942049246146
40
0.588121882040442
40
0.588121882040442
40
0.588121882040442
40
0.628469243139366
40
0.628469243139366
40
0.669162780663517
40
0.669162780663517
40
0.688442442299029
40
0.688442442299029
40
0.700657647385643
40
0.700657647385643
40
0.712987301732925
40
0.712987301732925
40
0.726889472842203
40
0.726889472842203
40
0.750366598570749
40
0.750366598570749
40
0.820074165420355
40
0.820074165420355
40
0.960150350826904
40
0.960150350826904
40
0.960150350826904
40
1
40
1
40
1.08066747235208
40
1.08066747235208
41
1
10
34.3293904166501
20
1.65989679249617
30
0
41
1
10
34.0560932928827
20
1.53568748353413
30
0
41
1
10
33.8649487082405
20
1.48172029464388
30
0
41
1
10
33.5854684270702
20
1.48959149103919
30
0
41
1
10
33.4925925177541
20
1.50698937068705
30
0
41
1
10
33.3289840795304
20
1.57468493129866
30
0
41
1
10
33.2553897823484
20
1.62066527702979
30
0
41
1
10
33.1228026149603
20
1.74202560665438
30
0
41
1
10
33.0619748868003
20
1.81992936577825
30
0
41
1
10
32.9730693160816
20
1.98095027377801
30
0
41
1
10
32.9401478689459
20
2.06345804794745
30
0
41
1
10
32.8951740153996
20
2.22833190513086
30
0
41
1
10
32.8818817789112
20
2.31259806323328
30
0
41
1
10
32.8723299096839
20
2.48396028102675
30
0
41
1
10
32.8777104820271
20
2.57249457283447
30
0
41
1
10
32.912687354234
20
2.77807124747477
30
0
41
1
10
32.9531831852838
20
2.89169467123102
30
0
41
1
10
33.0807199369544
20
3.12770461553455
30
0
41
1
10
33.1814107190431
20
3.24255960570812
30
0
41
1
10
33.4622097555965
20
3.47011765554342
30
0
41
1
10
33.6627030394467
20
3.56601004207974
30
0
41
1
10
34.1652830038949
20
3.72110844291816
30
0
41
1
10
34.4884546789218
20
3.76321095123544
30
0
41
1
10
34.8193351610819
20
3.75591186153485
30
0
41
1
10
34.9331541992206
20
3.75340105955709
30
0
41
1
10
35.0488116597524
20
3.74477744709989
30
0
41
1
10
35.2801867400983
20
3.70827521187363
30
0
41
1
10
35.3982965286246
20
3.68103581796373
30
0
41
1
10
35.5601250848063
20
3.60738023004987
30
0
41
1
10
35.6111751494098
20
3.57769455424247
30
0
41
1
10
35.6824823776917
20
3.51468566883082
30
0
41
1
10
35.7075107683482
20
3.48598715296325
30
0
41
1
10
35.7460014563571
20
3.42186606267859
30
0
41
1
10
35.7596572297238
20
3.38552242015618
30
0
41
1
10
35.7744787143399
20
3.30703712161244
30
0
41
1
10
35.7743633833274
20
3.26372004091903
30
0
41
1
10
35.7600675625079
20
3.15180716093883
30
0
41
1
10
35.7370268213746
20
3.08379642412842
30
0
41
1
10
35.6260821088602
20
2.83165582020891
30
0
41
1
10
35.5004246370877
20
2.66659410451916
30
0
41
1
10
35.1123579617951
20
2.21338231591829
30
0
41
1
10
34.8142925877897
20
1.95440358422087
30
0
41
1
10
34.5077622100241
20
1.76397148093639
30
0
41
1
10
34.4193443193874
20
1.70904183577474
30
0
41
1
10
34.3293904166501
20
1.65989679249617
30
0
41
1
10
34.0560932928827
20
1.53568748353413
30
0
0
SPLINE
5
DD
100
AcDbEntity
8
1
62
256
6
ByLayer
370
-1
48
1
60
0
100
AcDbSpline
70
4
71
3
72
22
73
18
40
0
40
0
40
0
40
0
40
0.167842784246648
40
0.167842784246648
40
0.335898034469932
40
0.335898034469932
40
0.454065247807697
40
0.454065247807697
40
0.642558083166134
40
0.642558083166134
40
0.75550876117482
40
0.75550876117482
40
0.870151412064503
40
0.870151412064503
40
0.96701298227188
40
0.96701298227188
40
1
40
1
40
1
40
1
41
1
10
45.6004339699397
20
3.24422088684037
30
0
41
1
10
45.6076566498866
20
3.25827081777908
30
0
41
1
10
45.614208066583
20
3.27270238837539
30
0
41
1
10
45.6256413173271
20
3.30214289644295
30
0
41
1
10
45.630550427738
20
3.31721791172623
30
0
41
1
10
45.6370204542717
20
3.34321534150669
30
0
41
1
10
45.639151317517
20
3.35408722067953
30
0
41
1
10
45.6427868731302
20
3.3821899124359
30
0
41
1
10
45.6432557675216
20
3.39980227398749
30
0
41
1
10
45.6391594919115
20
3.42624463136957
30
0
41
1
10
45.6364562709873
20
3.43594349768989
30
0
41
1
10
45.6282359630844
20
3.45315771136691
30
0
41
1
10
45.622503994786
20
3.4608473004437
30
0
41
1
10
45.6098385968145
20
3.47128500828541
30
0
41
1
10
45.6030852964477
20
3.47474894990228
30
0
41
1
10
45.5936121703302
20
3.47749228680391
30
0
41
1
10
45.5911352313465
20
3.47803790792315
30
0
41
1
10
45.5886317180066
20
3.47843534806208
30
0
0
SPLINE
5
DE
100
AcDbEntity
8
1
62
256
6
ByLayer
370
-1
48
1
60
0
100
AcDbSpline
70
4
71
3
72
22
73
18
40
0
40
0
40
0
40
0
40
0.0991354884071036
40
0.0991354884071036
40
0.206229847801159
40
0.206229847801159
40
0.367627630834596
40
0.367627630834596
40
0.507529288584514
40
0.507529288584514
40
0.647011593784376
40
0.647011593784376
40
0.786332448959386
40
0.786332448959386
40
0.892876682574081
40
0.892876682574081
40
1
40
1
40
1
40
1
41
1
10
45.3486103490325
20
3.0610539693802
30
0
41
1
10
45.3557087726479
20
3.056489002766
30
0
41
1
10
45.3641614376761
20
3.05358712098641
30
0
41
1
10
45.3825199989988
20
3.05130256523736
30
0
41
1
10
45.3927424382983
20
3.05212061103316
30
0
41
1
10
45.4177840793387
20
3.05765185991791
30
0
41
1
10
45.4327962355524
20
3.06409782576219
30
0
41
1
10
45.4592046639802
20
3.0789773379434
30
0
41
1
10
45.4710444498378
20
3.08716947616887
30
0
41
1
10
45.493557444538
20
3.1050402401853
30
0
41
1
10
45.5043044197606
20
3.11477644330259
30
0
41
1
10
45.5247334929725
20
3.13532640383352
30
0
41
1
10
45.5344533848685
20
3.14617905168592
30
0
41
1
10
45.5507046319984
20
3.16608739253516
30
0
41
1
10
45.5574613608926
20
3.17498377434893
30
0
41
1
10
45.5704027735508
20
3.19326289851176
30
0
41
1
10
45.5765930836736
20
3.2026607535592
30
0
41
1
10
45.5824616690071
20
3.21225419836009
30
0
0
SPLINE
5
DF
100
AcDbEntity
8
1
62
256
6
ByLayer
370
-1
48
1
60
0
100
AcDbSpline
70
4
71
3
72
22
73
18
40
0
40
0
40
0
40
0
40
0.0991354884058765
40
0.0991354884058765
40
0.206229847798707
40
0.206229847798707
40
0.367627630830143
40
0.367627630830143
40
0.507529288578311
40
0.507529288578311
40
0.647011593776421
40
0.647011593776421
40
0.786332448949728
40
0.786332448949728
40
0.892876682568976
40
0.892876682568976
40
1
40
1
40
1
40
1
41
1
10
43.8055518916506
20
3.98802207251845
30
0
41
1
10
43.7972809001362
20
3.99269004035409
30
0
41
1
10
43.7898586096299
20
3.99932478847259
30
0
41
1
10
43.7775710047843
20
4.01545043512749
30
0
41
1
10
43.7727218805663
20
4.02532248570085
30
0
41
1
10
43.7641790184578
20
4.05102909672416
30
0
41
1
10
43.7620159853936
20
4.06779278744131
30
0
41
1
10
43.7615061925881
20
4.09884299772995
30
0
41
1
10
43.7626947549357
20
4.11343369098478
30
0
41
1
10
43.767066782904
20
4.14220235549232
30
0
41
1
10
43.7702640934891
20
4.15647390091942
30
0
41
1
10
43.7782069354203
20
4.18452476854185
30
0
41
1
10
43.7829681593744
20
4.19835625818357
30
0
41
1
10
43.7925306444707
20
4.22228276764207
30
0
41
1
10
43.7970690442829
20
4.2325117757685
30
0
41
1
10
43.8068858436064
20
4.25266796225802
30
0
41
1
10
43.81217501704
20
4.26260716100145
30
0
41
1
10
43.8178095176544
20
4.27234122851701
30
0
0
SPLINE
5
E0
100
AcDbEntity
8
1
62
256
6
ByLayer
370
-1
48
1
60
0
100
AcDbSpline
70
4
71
3
72
34
73
30
40
0
40
0
40
0
40
0
40
0.0495805136006419
40
0.0495805136006419
40
0.129698637862938
40
0.129698637862938
40
0.194505892890872
40
0.194505892890872
40
0.259150175590241
40
0.259150175590241
40
0.323725661314062
40
0.323725661314062
40
0.425534197335596
40
0.425534197335596
40
0.527282435054742
40
0.527282435054742
40
0.629041292372301
40
0.629041292372301
40
0.724169483475416
40
0.724169483475416
40
0.802896330501685
40
0.802896330501685
40
0.863925138213436
40
0.863925138213436
40
0.910648821183743
40
0.910648821183743
40
0.947136701919441
40
0.947136701919441
40
1
40
1
40
1
40
1
41
1
10
44.4788984221216
20
4.63203633759039
30
0
41
1
10
44.4810931351395
20
4.62386725262246
30
0
41
1
10
44.4816932437249
20
4.61527709410882
30
0
41
1
10
44.4801315131098
20
4.59330357801446
30
0
41
1
10
44.4761335897004
20
4.57979260008156
30
0
41
1
10
44.4659422076094
20
4.55667357243595
30
0
41
1
10
44.4602197743164
20
4.54662768519682
30
0
41
1
10
44.4472831287588
20
4.52738889286144
30
0
41
1
10
44.4400267850804
20
4.51813253887448
30
0
41
1
10
44.424397121322
20
4.50040786889079
30
0
41
1
10
44.4159900673961
20
4.49190216122355
30
0
41
1
10
44.3932156377284
20
4.47099240555193
30
0
41
1
10
44.3781088296765
20
4.4590694861744
30
0
41
1
10
44.3463707152205
20
4.43720056317244
30
0
41
1
10
44.3296288989394
20
4.42717998843622
30
0
41
1
10
44.2950592028163
20
4.40929989359404
30
0
41
1
10
44.2771165378666
20
4.40138023824426
30
0
41
1
10
44.2417402660523
20
4.38849415009531
30
0
41
1
10
44.2242351283992
20
4.38332426579686
30
0
41
1
10
44.192029304148
20
4.37637267052415
30
0
41
1
10
44.1772712682497
20
4.37413926526398
30
0
41
1
10
44.1512251243779
20
4.37234009412921
30
0
41
1
10
44.1398338085741
20
4.37228415335528
30
0
41
1
10
44.1200972690767
20
4.37389505059252
30
0
41
1
10
44.1116142586008
20
4.3751676899607
30
0
41
1
10
44.0969994933905
20
4.37873484730912
30
0
41
1
10
44.0907231950706
20
4.38075605201212
30
0
41
1
10
44.0761623227376
20
4.38700332316563
30
0
41
1
10
44.0680507544426
20
4.39190717932985
30
0
41
1
10
44.0612913551025
20
4.39810164249727
30
0
0
SPLINE
5
E1
100
AcDbEntity
8
1
62
256
6
ByLayer
370
-1
48
1
60
0
100
AcDbSpline
70
4
71
3
72
42
73
38
40
0
40
0
40
0
40
0
40
0.0453868446055309
40
0.0453868446055309
40
0.0855289172227052
40
0.0855289172227052
40
0.136755260759476
40
0.136755260759476
40
0.176187381923012
40
0.176187381923012
40
0.232899104725513
40
0.232899104725513
40
0.289415721421982
40
0.289415721421982
40
0.345854377934249
40
0.345854377934249
40
0.459254087222289
40
0.459254087222289
40
0.515653380606287
40
0.515653380606287
40
0.572053913253612
40
0.572053913253612
40
0.659762760606615
40
0.659762760606615
40
0.7264948829508
40
0.7264948829508
40
0.778219441680414
40
0.778219441680414
40
0.861348933301128
40
0.861348933301128
40
0.909456127368931
40
0.909456127368931
40
0.95020531107822
40
0.95020531107822
40
0.991117202000595
40
0.991117202000595
40
1
40
1
40
1
40
1
41
1
10
44.4790967810774
20
4.63208666212651
30
0
41
1
10
44.4763434976445
20
4.64015890517828
30
0
41
1
10
44.4752070598158
20
4.64886437195864
30
0
41
1
10
44.476780683115
20
4.66481570535422
30
0
41
1
10
44.4790726822418
20
4.67230202991203
30
0
41
1
10
44.4869520299462
20
4.68797674676057
30
0
41
1
10
44.4933357696815
20
4.69605493078552
30
0
41
1
10
44.5063267141176
20
4.70858751721266
30
0
41
1
10
44.512636521325
20
4.71355223335195
30
0
41
1
10
44.5288466410282
20
4.72448391857142
30
0
41
1
10
44.5391951503611
20
4.73001013952569
30
0
41
1
10
44.5605452780594
20
4.73953577036252
30
0
41
1
10
44.5716185456697
20
4.74356911068654
30
0
41
1
10
44.5941359209029
20
4.75042764434141
30
0
41
1
10
44.6056207229565
20
4.75326456200906
30
0
41
1
10
44.6404539501045
20
4.7602484355522
30
0
41
1
10
44.6642576917283
20
4.76289352220351
30
0
41
1
10
44.6999648104338
20
4.76426320419603
30
0
41
1
10
44.7118825371696
20
4.76428486692518
30
0
41
1
10
44.7356945274449
20
4.763469662467
30
0
41
1
10
44.7476060189276
20
4.76263225630626
30
0
41
1
10
44.777900105273
20
4.7593628618736
30
0
41
1
10
44.7962837357204
20
4.75630493697869
30
0
41
1
10
44.828125434584
20
4.74876905789858
30
0
41
1
10
44.8417620285141
20
4.74479201588147
30
0
41
1
10
44.8653808965855
20
4.73621331304037
30
0
41
1
10
44.8755323330365
20
4.73193880570579
30
0
41
1
10
44.900975297786
20
4.7192265839482
30
0
41
1
10
44.9160645317133
20
4.709678840355
30
0
41
1
10
44.9360699173108
20
4.69122085576907
30
0
41
1
10
44.9426955936748
20
4.68357245323972
30
0
41
1
10
44.952039076381
20
4.66830316930449
30
0
41
1
10
44.955257241838
20
4.6606942041733
30
0
41
1
10
44.9586120459885
20
4.64537944859592
30
0
41
1
10
44.9587671691967
20
4.6374840755451
30
0
41
1
10
44.9572249037855
20
4.62843040107293
30
0
41
1
10
44.9568799493332
20
4.62681146357522
30
0
41
1
10
44.9564728669572
20
4.62521311385558
30
0
0
SPLINE
5
E2
100
AcDbEntity
8
1
62
256
6
ByLayer
370
-1
48
1
60
0
100
AcDbSpline
70
4
71
3
72
34
73
30
40
0
40
0
40
0
40
0
40
0.0489352209447995
40
0.0489352209447995
40
0.117200042217509
40
0.117200042217509
40
0.171506955646268
40
0.171506955646268
40
0.22566864923933
40
0.22566864923933
40
0.279765320459483
40
0.279765320459483
40
0.373225321592725
40
0.373225321592725
40
0.466583477789932
40
0.466583477789932
40
0.559915867375419
40
0.559915867375419
40
0.653268378335857
40
0.653268378335857
40
0.744703146931567
40
0.744703146931567
40
0.81856595573976
40
0.81856595573976
40
0.875584577609799
40
0.875584577609799
40
0.965112275153992
40
0.965112275153992
40
1
40
1
40
1
40
1
41
1
10
45.3486103490324
20
3.06105396938017
30
0
41
1
10
45.3441675461524
20
3.06748315995262
30
0
41
1
10
45.3382686461958
20
3.07281877099419
30
0
41
1
10
45.3224963274724
20
3.08268125523818
30
0
41
1
10
45.3117482113018
20
3.08632272318735
30
0
41
1
10
45.2917168296275
20
3.09012423660784
30
0
41
1
10
45.2824219804613
20
3.090873209249
30
0
41
1
10
45.2636037335955
20
3.09096137145968
30
0
41
1
10
45.2540193092917
20
3.09030255879344
30
0
41
1
10
45.234768672604
20
3.08789160305921
30
0
41
1
10
45.2250635030989
20
3.08613443584656
30
0
41
1
10
45.198634073665
20
3.08012579188369
30
0
41
1
10
45.1818110389319
20
3.07497000953347
30
0
41
1
10
45.1485872942299
20
3.06261939383893
30
0
41
1
10
45.1320753949436
20
3.05538115439617
30
0
41
1
10
45.0997540697102
20
3.03919070264951
30
0
41
1
10
45.0838504685534
20
3.03019078909929
30
0
41
1
10
45.0530859644108
20
3.01067227214398
30
0
41
1
10
45.0381343135137
20
3.00009701628562
30
0
41
1
10
45.0100290339073
20
2.97776672417544
30
0
41
1
10
44.9967504171506
20
2.96597013033173
30
0
41
1
10
44.9746495788858
20
2.94342882399695
30
0
41
1
10
44.9653980067088
20
2.93285324334354
30
0
41
1
10
44.9507923020853
20
2.91332582915064
30
0
41
1
10
44.9449936939889
20
2.9045018250049
30
0
41
1
10
44.932425313135
20
2.88135774364179
30
0
41
1
10
44.9266679265438
20
2.86626086953927
30
0
41
1
10
44.9244846811019
20
2.84551948488408
30
0
41
1
10
44.9245299985107
20
2.83961486636329
30
0
41
1
10
44.925403316302
20
2.8339260967046
30
0
0
SPLINE
5
E3
100
AcDbEntity
8
1
62
256
6
ByLayer
370
-1
48
1
60
0
100
AcDbSpline
70
4
71
3
72
24
73
20
40
0
40
0
40
0
40
0
40
0.157271741130352
40
0.157271741130352
40
0.348948952189862
40
0.348948952189862
40
0.444424851359979
40
0.444424851359979
40
0.539981403393961
40
0.539981403393961
40
0.635703613320855
40
0.635703613320855
40
0.713564508080496
40
0.713564508080496
40
0.838051590778041
40
0.838051590778041
40
0.924253034225562
40
0.924253034225562
40
1
40
1
40
1
40
1
41
1
10
43.795298125068
20
3.23049329338244
30
0
41
1
10
43.8033462119689
20
3.21592498284258
30
0
41
1
10
43.8121839946001
20
3.20174515017305
30
0
41
1
10
43.833442557189
20
3.17148810550646
30
0
41
1
10
43.846279339398
20
3.15558048344684
30
0
41
1
10
43.867275574972
20
3.13348023612596
30
0
41
1
10
43.8745765319949
20
3.12639657211355
30
0
41
1
10
43.8898097649175
20
3.11297383314633
30
0
41
1
10
43.8977639429716
20
3.10661532960916
30
0
41
1
10
43.9143395808577
20
3.09491329295429
30
0
41
1
10
43.9230011426987
20
3.08954269894602
30
0
41
1
10
43.9392880382243
20
3.08114528667025
30
0
41
1
10
43.9468474553915
20
3.07784911422408
30
0
41
1
10
43.9667714594863
20
3.0711094729588
30
0
41
1
10
43.9797164211698
20
3.06864718531827
30
0
41
1
10
44.0008504050957
20
3.0691616085976
30
0
41
1
10
44.00947161432
20
3.07074711113603
30
0
41
1
10
44.0241596098558
20
3.07636010637418
30
0
41
1
10
44.0305515395646
20
3.08011882750344
30
0
41
1
10
44.0360999439983
20
3.08467298736545
30
0
0
SPLINE
5
E4
100
AcDbEntity
8
1
62
256
6
ByLayer
370
-1
48
1
60
0
100
AcDbSpline
70
4
71
3
72
36
73
32
40
0
40
0
40
0
40
0
40
0.0492962859085469
40
0.0492962859085469
40
0.128955121069239
40
0.128955121069239
40
0.193390858837909
40
0.193390858837909
40
0.257664558541256
40
0.257664558541256
40
0.321869855657977
40
0.321869855657977
40
0.38604363817695
40
0.38604363817695
40
0.490448583644029
40
0.490448583644029
40
0.594841290176065
40
0.594841290176065
40
0.692807648616233
40
0.692807648616233
40
0.77646259868436
40
0.77646259868436
40
0.842223390184073
40
0.842223390184073
40
0.892525018646742
40
0.892525018646742
40
0.93148958482244
40
0.93148958482244
40
0.988987173442107
40
0.988987173442107
40
1
40
1
40
1
40
1
41
1
10
44.44763236859
20
2.84080533041851
30
0
41
1
10
44.4501062533101
20
2.84862998155896
30
0
41
1
10
44.4510010204821
20
2.85692080216236
30
0
41
1
10
44.4501950450867
20
2.87824447360643
30
0
41
1
10
44.446663805251
20
2.89146977971114
30
0
41
1
10
44.4372733475244
20
2.91423567816523
30
0
41
1
10
44.4318998530916
20
2.9241804848387
30
0
41
1
10
44.4196329718142
20
2.94331246242504
30
0
41
1
10
44.4126996613377
20
2.95256266817637
30
0
41
1
10
44.3976899962743
20
2.97035769964168
30
0
41
1
10
44.3895812159235
20
2.97894007364832
30
0
41
1
10
44.3724560781764
20
2.99541644367463
30
0
41
1
10
44.3634113529524
20
3.00333715071636
30
0
41
1
10
44.338707873005
20
3.02320162207303
30
0
41
1
10
44.3223521140213
20
3.03464740974886
30
0
41
1
10
44.288267171825
20
3.05549126363744
30
0
41
1
10
44.2704174671833
20
3.06496306428795
30
0
41
1
10
44.2349059667697
20
3.08101107675375
30
0
41
1
10
44.2171829329445
20
3.08778483000697
30
0
41
1
10
44.1838922309605
20
3.09792877553309
30
0
41
1
10
44.1682873258249
20
3.10168386236285
30
0
41
1
10
44.1403935671023
20
3.10617349313546
30
0
41
1
10
44.1280335352238
20
3.10739371867015
30
0
41
1
10
44.1064772596306
20
3.10773608941164
30
0
41
1
10
44.0971654792293
20
3.10728264607124
30
0
41
1
10
44.0810572189721
20
3.10507598294694
30
0
41
1
10
44.0741265232937
20
3.10363059344647
30
0
41
1
10
44.0577374138875
20
3.09860712215212
30
0
41
1
10
44.0484042992079
20
3.09425611406186
30
0
41
1
10
44.0389981602091
20
3.08716365856551
30
0
41
1
10
44.0375187059263
20
3.0859481946421
30
0
41
1
10
44.0360999439982
20
3.08467298736548
30
0
0
SPLINE
5
E5
100
AcDbEntity
8
1
62
256
6
ByLayer
370
-1
48
1
60
0
100
AcDbSpline
70
4
71
3
72
42
73
38
40
0
40
0
40
0
40
0
40
0.0453868446055281
40
0.0453868446055281
40
0.0855289172227089
40
0.0855289172227089
40
0.136755260759439
40
0.136755260759439
40
0.176187381922963
40
0.176187381922963
40
0.232899104725491
40
0.232899104725491
40
0.289415721421975
40
0.289415721421975
40
0.345854377934242
40
0.345854377934242
40
0.459254087222287
40
0.459254087222287
40
0.515653380606329
40
0.515653380606329
40
0.572053913253666
40
0.572053913253666
40
0.659762760606665
40
0.659762760606665
40
0.726494882950889
40
0.726494882950889
40
0.778219441680531
40
0.778219441680531
40
0.861348933301207
40
0.861348933301207
40
0.909456127368974
40
0.909456127368974
40
0.950205311078263
40
0.950205311078263
40
0.991117202000637
40
0.991117202000637
40
1
40
1
40
1
40
1
41
1
10
44.4478288714697
20
2.8407493204239
30
0
41
1
10
44.4448001018231
20
2.83303896886821
30
0
41
1
10
44.4433653858914
20
2.82465609457265
30
0
41
1
10
44.4443901339574
20
2.80916238691532
30
0
41
1
10
44.4464235457048
20
2.80183425042901
30
0
41
1
10
44.4537595687592
20
2.78638191892989
30
0
41
1
10
44.4598618702963
20
2.77833651938059
30
0
41
1
10
44.4724143880238
20
2.76575165649098
30
0
41
1
10
44.4785498360266
20
2.76072734049299
30
0
41
1
10
44.4943747410412
20
2.74959009098402
30
0
41
1
10
44.5045273100375
20
2.74389089756875
30
0
41
1
10
44.5255378222884
20
2.73395997245518
30
0
41
1
10
44.5364662058939
20
2.72969291370458
30
0
41
1
10
44.5587353130595
20
2.72232817928881
30
0
41
1
10
44.5701163046675
20
2.71921780050786
30
0
41
1
10
44.6046906636012
20
2.71137112398924
30
0
41
1
10
44.6283910146276
20
2.7080929672895
30
0
41
1
10
44.6640329504246
20
2.70572832295525
30
0
41
1
10
44.6759439894025
20
2.70536684428666
30
0
41
1
10
44.6997723241018
20
2.70548801125119
30
0
41
1
10
44.7117068578617
20
2.70597069627027
30
0
41
1
10
44.7420989693
20
2.70831715564623
30
0
41
1
10
44.7605792375969
20
2.71079560944352
30
0
41
1
10
44.7926656837455
20
2.71728129292728
30
0
41
1
10
44.8064329943841
20
2.72079300612239
30
0
41
1
10
44.8303365733331
20
2.72852537853689
30
0
41
1
10
44.8406306392256
20
2.73242210643252
30
0
41
1
10
44.8664999329283
20
2.74413425404637
30
0
41
1
10
44.8819112090908
20
2.75303629775027
30
0
41
1
10
44.9025429275165
20
2.77046089685817
30
0
41
1
10
44.9094288131804
20
2.77771987514171
30
0
41
1
10
44.9192932333021
20
2.79229507574746
30
0
41
1
10
44.9227715276596
20
2.79958888535154
30
0
41
1
10
44.926650995646
20
2.81433210079729
30
0
41
1
10
44.9270771545943
20
2.82196435489041
30
0
41
1
10
44.9258462723705
20
2.83074981128195
30
0
41
1
10
44.9255570216648
20
2.83232213929716
30
0
41
1
10
44.9252049573494
20
2.83387577215302
30
0
0
SPLINE
5
E6
100
AcDbEntity
8
1
62
256
6
ByLayer
370
-1
48
1
60
0
100
AcDbSpline
70
4
71
3
72
22
73
18
40
0
40
0
40
0
40
0
40
0.0986115253808815
40
0.0986115253808815
40
0.1839158752362
40
0.1839158752362
40
0.299838198386904
40
0.299838198386904
40
0.483762819016442
40
0.483762819016442
40
0.582277256960268
40
0.582277256960268
40
0.774223519347235
40
0.774223519347235
40
0.965774542234325
40
0.965774542234325
40
1
40
1
40
1
40
1
41
1
10
45.3678493343684
20
4.38139403485133
30
0
41
1
10
45.3739544550577
20
4.38761160793891
30
0
41
1
10
45.381527065456
20
4.39248692428612
30
0
41
1
10
45.3970471983866
20
4.39783613848985
30
0
41
1
10
45.4049787449105
20
4.39889441630834
30
0
41
1
10
45.4237578580106
20
4.39835284852961
30
0
41
1
10
45.4349226112857
20
4.39572646132521
30
0
41
1
10
45.462478169897
20
4.38532348899943
30
0
41
1
10
45.4787026038139
20
4.37537752613386
30
0
41
1
10
45.5016665438948
20
4.35773327907231
30
0
41
1
10
45.5094212491295
20
4.35103219094847
30
0
41
1
10
45.5313355075094
20
4.33024555152497
30
0
41
1
10
45.5447293430895
20
4.31508746812568
30
0
41
1
10
45.5693101185191
20
4.28314273775774
30
0
41
1
10
45.5805755059689
20
4.26625016286638
30
0
41
1
10
45.5925819919563
20
4.24560835040677
30
0
41
1
10
45.5943705998761
20
4.24245348906595
30
0
41
1
10
45.5961246337278
20
4.23927842536315
30
0
0
SPLINE
5
E7
100
AcDbEntity
8
1
62
256
6
ByLayer
370
-1
48
1
60
0
100
AcDbSpline
70
4
71
3
72
22
73
18
40
0
40
0
40
0
40
0
40
0.167842784245469
40
0.167842784245469
40
0.335898034469887
40
0.335898034469887
40
0.454065247808171
40
0.454065247808171
40
0.642558083167186
40
0.642558083167186
40
0.755508761174682
40
0.755508761174682
40
0.870151412063209
40
0.870151412063209
40
0.967012982269429
40
0.967012982269429
40
1
40
1
40
1
40
1
41
1
10
43.8374117906465
20
4.30332873690301
30
0
41
1
10
43.8463814238017
20
4.31632921317379
30
0
41
1
10
43.8560490921357
20
4.32888874460346
30
0
41
1
10
43.8767956624678
20
4.35273442238477
30
0
41
1
10
43.8879199710127
20
4.36407575512578
30
0
41
1
10
43.9081836041998
20
4.3817868926194
30
0
41
1
10
43.9169685772144
20
4.38866141998682
30
0
41
1
10
43.9407074241032
20
4.40468737564163
30
0
41
1
10
43.9565782279549
20
4.4130472822859
30
0
41
1
10
43.9831212001627
20
4.42108359335501
30
0
41
1
10
43.9935369954744
20
4.42290141697302
30
0
41
1
10
44.013988764131
20
4.42289133153577
30
0
41
1
10
44.0243082900302
20
4.420938237889
30
0
41
1
10
44.0411428010066
20
4.41365433932702
30
0
41
1
10
44.0482057250536
20
4.40881840139238
30
0
41
1
10
44.0561896690539
20
4.40107467793931
30
0
41
1
10
44.0581211064404
20
4.39897203627737
30
0
41
1
10
44.0599331616427
20
4.39677696647826
30
0
0
SPLINE
5
E8
100
AcDbEntity
8
1
62
256
6
ByLayer
370
-1
48
1
60
0
100
AcDbSpline
70
4
71
3
72
34
73
30
40
0
40
0
40
0
40
0
40
0.0493619475591095
40
0.0493619475591095
40
0.125539901664534
40
0.125539901664534
40
0.186980193981
40
0.186980193981
40
0.248262181512477
40
0.248262181512477
40
0.34054787191877
40
0.34054787191877
40
0.432709445704624
40
0.432709445704624
40
0.524833165866696
40
0.524833165866696
40
0.616962251766953
40
0.616962251766953
40
0.709145696793834
40
0.709145696793834
40
0.791292482820617
40
0.791292482820617
40
0.854807499469205
40
0.854807499469205
40
0.903519774516199
40
0.903519774516199
40
0.98096857557119
40
0.98096857557119
40
1
40
1
40
1
40
1
41
1
10
45.3678493343688
20
4.38139403485087
30
0
41
1
10
45.3625394795474
20
4.37544277781293
30
0
41
1
10
45.3559916699492
20
4.37066313013415
30
0
41
1
10
45.3380488174116
20
4.3614560277085
30
0
41
1
10
45.3256685366445
20
4.358352368455
30
0
41
1
10
45.3028016246944
20
4.35578238442747
30
0
41
1
10
45.2922235722963
20
4.3557154773562
30
0
41
1
10
45.2709570178483
20
4.35717844074946
30
0
41
1
10
45.2601989363159
20
4.35871228445663
30
0
41
1
10
45.2332853314191
20
4.36411788718596
30
0
41
1
10
45.2170238962888
20
4.36879840592849
30
0
41
1
10
45.1849062494428
20
4.380303477724
30
0
41
1
10
45.1689411666817
20
4.38716932171209
30
0
41
1
10
45.1376553519898
20
4.40269022991802
30
0
41
1
10
45.1222463129499
20
4.41138994938612
30
0
41
1
10
45.0923609575638
20
4.43035861329236
30
0
41
1
10
45.0778026055761
20
4.44067923082454
30
0
41
1
10
45.0499910719718
20
4.46275788984727
30
0
41
1
10
45.0366528377061
20
4.47458133487325
30
0
41
1
10
45.0131913528076
20
4.49823997447484
30
0
41
1
10
45.0028029196652
20
4.51000418912537
30
0
41
1
10
44.9862917386433
20
4.53182908956509
30
0
41
1
10
44.9796927811946
20
4.54173003371236
30
0
41
1
10
44.9696862717158
20
4.55976889286245
30
0
41
1
10
44.9658699797
20
4.56782671704198
30
0
41
1
10
44.9580607337666
20
4.58889743355314
30
0
41
1
10
44.9551149364351
20
4.60249024060926
30
0
41
1
10
44.9557458041991
20
4.61875591345216
30
0
41
1
10
44.9560885184068
20
4.62199005875149
30
0
41
1
10
44.9566693698368
20
4.62515710386106
30
0
0
SPLINE
5
E9
100
AcDbEntity
8
1
62
256
6
ByLayer
370
-1
48
1
60
0
100
AcDbSpline
70
4
71
3
72
34
73
30
40
0
40
0
40
0
40
0
40
0.0484619167058552
40
0.0484619167058552
40
0.123250895849295
40
0.123250895849295
40
0.183570929309902
40
0.183570929309902
40
0.243735544403123
40
0.243735544403123
40
0.303833391334073
40
0.303833391334073
40
0.401539481582835
40
0.401539481582835
40
0.49917313303611
40
0.49917313303611
40
0.596804264320782
40
0.596804264320782
40
0.692486849042733
40
0.692486849042733
40
0.773267829408885
40
0.773267829408885
40
0.836555694129685
40
0.836555694129685
40
0.884954691232997
40
0.884954691232997
40
0.961866476551913
40
0.961866476551913
40
1
40
1
40
1
40
1
41
1
10
43.8037680684465
20
3.50522860820783
30
0
41
1
10
43.8122200063345
20
3.50698641798291
30
0
41
1
10
43.820342654462
20
3.51042485214657
30
0
41
1
10
43.8391010445886
20
3.52177701389499
30
0
41
1
10
43.849120521382
20
3.53122122767479
30
0
41
1
10
43.8647603891039
20
3.55022193167534
30
0
41
1
10
43.8709783834589
20
3.55956381671027
30
0
41
1
10
43.8820170710959
20
3.5791234972171
30
0
41
1
10
43.886874698175
20
3.58940493243037
30
0
41
1
10
43.8954201940377
20
3.61054942609661
30
0
41
1
10
43.8991255247597
20
3.62145685811083
30
0
41
1
10
43.9074830398685
20
3.6505817586108
30
0
41
1
10
43.9113227116481
20
3.66923455837897
30
0
41
1
10
43.9165394937987
20
3.7069394664195
30
0
41
1
10
43.9179329269417
20
3.72612116090048
30
0
41
1
10
43.9183335117539
20
3.76443052401257
30
0
41
1
10
43.9173421831306
20
3.78368073394466
30
0
41
1
10
43.9129386661512
20
3.82126380623802
30
0
41
1
10
43.9095636517793
20
3.83973323678603
30
0
41
1
10
43.9009135692551
20
3.87279483418755
30
0
41
1
10
43.895991606098
20
3.88764265791005
30
0
41
1
10
43.8852336262055
20
3.91292803351021
30
0
41
1
10
43.8797964474836
20
3.92369217723058
30
0
41
1
10
43.868746051474
20
3.94149996351214
30
0
41
1
10
43.8634450892716
20
3.94886709437003
30
0
41
1
10
43.8483612330702
20
3.9662251256338
30
0
41
1
10
43.8374515866289
20
3.97559256373714
30
0
41
1
10
43.8189640112948
20
3.98468291467668
30
0
41
1
10
43.8123356455413
20
3.98691355649922
30
0
41
1
10
43.8055518916506
20
3.98802207251845
30
0
0
SPLINE
5
EA
100
AcDbEntity
8
1
62
256
6
ByLayer
370
-1
48
1
60
0
100
AcDbSpline
70
4
71
3
72
36
73
32
40
0
40
0
40
0
40
0
40
0.0492962859146267
40
0.0492962859146267
40
0.128955121085184
40
0.128955121085184
40
0.193390858861829
40
0.193390858861829
40
0.257664558573119
40
0.257664558573119
40
0.321869855697782
40
0.321869855697782
40
0.386043638224661
40
0.386043638224661
40
0.490448583704561
40
0.490448583704561
40
0.594841290249371
40
0.594841290249371
40
0.692807648701456
40
0.692807648701456
40
0.776462598779686
40
0.776462598779686
40
0.842223390287218
40
0.842223390287218
40
0.892525018755915
40
0.892525018755915
40
0.931489584936282
40
0.931489584936282
40
0.988987173586174
40
0.988987173586174
40
1
40
1
40
1
40
1
41
1
10
45.5891543849716
20
3.48026195348373
30
0
41
1
10
45.5818772040299
20
3.48262426274221
30
0
41
1
10
45.5750407860101
20
3.48658423601717
30
0
41
1
10
45.5590269101778
20
3.49938876151595
30
0
41
1
10
45.5506250168768
20
3.50988562999766
30
0
41
1
10
45.5378102435132
20
3.53073329885822
30
0
41
1
10
45.532845233814
20
3.54090693008754
30
0
41
1
10
45.5242379287109
20
3.56208892527201
30
0
41
1
10
45.520567123687
20
3.57316671795516
30
0
41
1
10
45.5143096457804
20
3.59586454057427
30
0
41
1
10
45.5117101981691
20
3.60753312689948
30
0
41
1
10
45.5074575605195
20
3.63122040072329
30
0
41
1
10
45.5057977993301
20
3.64327800928351
30
0
41
1
10
45.5025805584849
20
3.67517861984868
30
0
41
1
10
45.5017189806645
20
3.69530392191118
30
0
41
1
10
45.5021446227385
20
3.73547987922024
30
0
41
1
10
45.5034333335886
20
3.75567261767625
30
0
41
1
10
45.5080737143138
20
3.79421286941062
30
0
41
1
10
45.5113072272458
20
3.81272603936199
30
0
41
1
10
45.5193297974218
20
3.84601281097824
30
0
41
1
10
45.5238456715533
20
3.8610391351375
30
0
41
1
10
45.5336282833132
20
3.88663427617826
30
0
41
1
10
45.5385550709231
20
3.89753821438336
30
0
41
1
10
45.5485407835904
20
3.91554974350134
30
0
41
1
10
45.5533235769742
20
3.92299178393327
30
0
41
1
10
45.5627159897404
20
3.93507006146137
30
0
41
1
10
45.5671472936887
20
3.93998942516612
30
0
41
1
10
45.578894407274
20
3.95072727418167
30
0
41
1
10
45.5867615823536
20
3.95601150662733
30
0
41
1
10
45.5968349194133
20
3.95983104389319
30
0
41
1
10
45.5984984542315
20
3.96037621636106
30
0
41
1
10
45.6001805600896
20
3.96083805000376
30
0
0
SPLINE
5
EB
100
AcDbEntity
8
1
62
256
6
ByLayer
370
-1
48
1
60
0
100
AcDbSpline
70
4
71
3
72
22
73
18
40
0
40
0
40
0
40
0
40
0.0986115253816977
40
0.0986115253816977
40
0.183915875236942
40
0.183915875236942
40
0.299838198393529
40
0.299838198393529
40
0.483762819035958
40
0.483762819035958
40
0.582277256987123
40
0.582277256987123
40
0.774223519386738
40
0.774223519386738
40
0.965774542286447
40
0.965774542286447
40
1
40
1
40
1
40
1
41
1
10
43.8037680684463
20
3.50522860820837
30
0
41
1
10
43.794612013204
20
3.50289719153858
30
0
41
1
10
43.785805161695
20
3.49859707784657
30
0
41
1
10
43.7719229443802
20
3.48747571388415
30
0
41
1
10
43.7663319717092
20
3.48095896087884
30
0
41
1
10
43.7558191262984
20
3.46400865406161
30
0
41
1
10
43.7516286492409
20
3.45278058980253
30
0
41
1
10
43.7447651011148
20
3.42309675784389
30
0
41
1
10
43.7441124294474
20
3.40369659541764
30
0
41
1
10
43.7463125529723
20
3.37442089506038
30
0
41
1
10
43.747706850445
20
3.36415684029083
30
0
41
1
10
43.7532604497635
20
3.33420530378513
30
0
41
1
10
43.7587940118814
20
3.31464406052217
30
0
41
1
10
43.7725218854765
20
3.27661976282121
30
0
41
1
10
43.7807639485461
20
3.25803358520264
30
0
41
1
10
43.7918270303423
20
3.2368632975635
30
0
41
1
10
43.793544097575
20
3.23366836064096
30
0
41
1
10
43.795298125068
20
3.23049329338244
30
0
0
SPLINE
5
EC
100
AcDbEntity
8
1
62
256
6
ByLayer
370
-1
48
1
60
0
100
AcDbSpline
70
4
71
3
72
24
73
20
40
0
40
0
40
0
40
0
40
0.157271741031848
40
0.157271741031848
40
0.348948952037579
40
0.348948952037579
40
0.444424851180864
40
0.444424851180864
40
0.539981403187954
40
0.539981403187954
40
0.635703613087858
40
0.635703613087858
40
0.713564507855306
40
0.713564507855306
40
0.838051590547269
40
0.838051590547269
40
0.924253033978006
40
0.924253033978006
40
1
40
1
40
1
40
1
41
1
10
45.5961246337278
20
4.23927842536315
30
0
41
1
10
45.6041727497897
20
4.22471013116626
30
0
41
1
10
45.6115116162119
20
4.20969063717197
30
0
41
1
10
45.6259927455953
20
4.17563701698728
30
0
41
1
10
45.6327906008194
20
4.1563465150532
30
0
41
1
10
45.6406978711597
20
4.12691410472004
30
0
41
1
10
45.6429548868585
20
4.11700493087139
30
0
41
1
10
45.6465569505957
20
4.09706665557434
30
0
41
1
10
45.6479072372436
20
4.08700879097643
30
0
41
1
10
45.6494645930266
20
4.06689382857854
30
0
41
1
10
45.6496743450185
20
4.05678870846609
30
0
41
1
10
45.6486967114369
20
4.03872007011873
30
0
41
1
10
45.6477579352131
20
4.03066338848063
30
0
41
1
10
45.6437212369293
20
4.01050146572001
30
0
41
1
10
45.6395610352652
20
3.9984572253546
30
0
41
1
10
45.6291601360032
20
3.9813064703649
30
0
41
1
10
45.6238228653975
20
3.97507272610022
30
0
41
1
10
45.6124211313201
20
3.96607080356728
30
0
41
1
10
45.6064159986792
20
3.96288495112947
30
0
41
1
10
45.6001805600904
20
3.96083805000117
30
0
0
SPLINE
5
ED
100
AcDbEntity
8
SK1
62
256
6
ByLayer
370
-1
48
1
60
0
100
AcDbSpline
70
4
71
3
72
8
73
4
40
0
40
0
40
0
40
0
40
1
40
1
40
1
40
1
41
1
10
-102.294999997074
20
5.50749999999999
30
0
41
1
10
-102.295019051864
20
5.50749999999999
30
0
41
1
10
-102.108837467164
20
5.50749999999999
30
0
41
1
10
-101.81
20
5.50749999999999
30
0
0
SPLINE
5
EE
100
AcDbEntity
8
SK1
62
256
6
ByLayer
370
-1
48
1
60
0
100
AcDbSpline
70
4
71
3
72
10
73
6
40
0
40
0
40
0
40
0
40
0.5
40
0.5
40
1
40
1
40
1
40
1
41
1
10
-101.81
20
2.37908727246406
30
0
41
1
10
-102.110605723759
20
1.62191462878994
30
0
41
1
10
-102.302681606333
20
0.818569788065645
30
0
41
1
10
-102.302318123354
20
-0.821008410924293
30
0
41
1
10
-102.107009922509
20
-1.63097181607304
30
0
41
1
10
-101.81
20
-2.37908727246398
30
0
0
LINE
5
49
100
AcDbEntity
8
80
62
256
6
ByLayer
370
-1
48
1
60
0
100
AcDbLine
10
0
20
0
30
0
11
-10
21
0
31
0
39
0
210
0
220
0
230
1
0
LINE
5
4A
100
AcDbEntity
8
81
62
256
6
ByLayer
370
-1
48
1
60
0
100
AcDbLine
10
47.94
20
8.9
30
0
11
57.94
21
8.9
31
0
39
0
210
0
220
0
230
1
0
LINE
5
4B
100
AcDbEntity
8
SK4
62
256
6
ByLayer
370
-1
48
0.05
60
0
100
AcDbLine
10
-108.31
20
0
30
0
11
52.39091
21
0
31
0
39
0
210
0
220
0
230
1
0
LINE
5
4D
100
AcDbEntity
8
4
62
256
6
ByLayer
370
-1
48
0.05
60
0
100
AcDbLine
10
0
20
0
30
0
11
52.39091
21
0
31
0
39
0
210
0
220
0
230
1
0
LINE
5
4F
100
AcDbEntity
8
SK1
62
256
6
ByLayer
370
-1
48
1
60
0
100
AcDbLine
10
-102.295
20
5.5075
30
0
11
-103.31
21
4.4925
31
0
39
0
210
0
220
0
230
1
0
LINE
5
51
100
AcDbEntity
8
SK1
62
256
6
ByLayer
370
-1
48
1
60
0
100
AcDbLine
10
-103.31
20
-4.4925
30
0
11
-101.81
21
-5.9925
31
0
39
0
210
0
220
0
230
1
0
LINE
5
52
100
AcDbEntity
8
SK1
62
256
6
ByLayer
370
-1
48
1
60
0
100
AcDbLine
10
-101.81
20
-5.9925
30
0
11
0
21
-5.9925
31
0
39
0
210
0
220
0
230
1
0
LINE
5
53
100
AcDbEntity
8
1
62
256
6
ByLayer
370
-1
48
1
60
0
100
AcDbLine
10
45.417136
20
3.054576
30
0
11
45.3114
21
3.085846
31
0
39
0
210
0
220
0
230
1
0
LINE
5
54
100
AcDbEntity
8
1
62
256
6
ByLayer
370
-1
48
1
60
0
100
AcDbLine
10
45.278469
20
5.361397
30
0
11
45.202984
21
5.38372
31
0
39
0
210
0
220
0
230
1
0
LINE
5
55
100
AcDbEntity
8
1
62
256
6
ByLayer
370
-1
48
1
60
0
100
AcDbLine
10
44.224603
20
2.075356
30
0
11
44.300089
21
2.053033
31
0
39
0
210
0
220
0
230
1
0
LINE
5
56
100
AcDbEntity
8
1
62
256
6
ByLayer
370
-1
48
1
60
0
100
AcDbLine
10
45.221286
20
4.367898
30
0
11
45.322702
21
4.337906
31
0
39
0
210
0
220
0
230
1
0
LINE
5
57
100
AcDbEntity
8
1
62
256
6
ByLayer
370
-1
48
1
60
0
100
AcDbLine
10
44.297442
20
3.064225
30
0
11
44.196081
21
3.094201
31
0
39
0
210
0
220
0
230
1
0
LINE
5
58
100
AcDbEntity
8
1
62
256
6
ByLayer
370
-1
48
1
60
0
100
AcDbLine
10
44.097298
20
4.378817
30
0
11
44.203008
21
4.347555
31
0
39
0
210
0
220
0
230
1
0
LINE
5
59
100
AcDbEntity
8
1
62
256
6
ByLayer
370
-1
48
1
60
0
100
AcDbLine
10
0
20
-5.9925
30
0
11
32.869063
21
-5.9925
31
0
39
0
210
0
220
0
230
1
0
LINE
5
5A
100
AcDbEntity
8
1
62
256
6
ByLayer
370
-1
48
1
60
0
100
AcDbLine
10
32.869063
20
-5.9925
30
0
11
32.944063
21
-5.9175
31
0
39
0
210
0
220
0
230
1
0
LINE
5
5B
100
AcDbEntity
8
1
62
256
6
ByLayer
370
-1
48
1
60
0
100
AcDbLine
10
34.771872
20
5.9175
30
0
11
33.594063
21
5.9175
31
0
39
0
210
0
220
0
230
1
0
LINE
5
5C
100
AcDbEntity
8
1
62
256
6
ByLayer
370
-1
48
1
60
0
100
AcDbLine
10
32.944063
20
-5.9175
30
0
11
33.224788
21
-5.9175
31
0
39
0
210
0
220
0
230
1
0
LINE
5
5D
100
AcDbEntity
8
1
62
256
6
ByLayer
370
-1
48
1
60
0
100
AcDbLine
10
35.363745
20
6.374231
30
0
11
34.771872
21
5.9175
31
0
39
0
210
0
220
0
230
1
0
LINE
5
5E
100
AcDbEntity
8
1
62
256
6
ByLayer
370
-1
48
1
60
0
100
AcDbLine
10
43.759806
20
8.402872
30
0
11
43.74193
21
7.378748
31
0
39
0
210
0
220
0
230
1
0
LINE
5
5F
100
AcDbEntity
8
1
62
256
6
ByLayer
370
-1
48
1
60
0
100
AcDbLine
10
39.503459
20
5.050157
30
0
11
39.10208
21
5.168856
31
0
39
0
210
0
220
0
230
1
0
LINE
5
60
100
AcDbEntity
8
1
62
256
6
ByLayer
370
-1
48
1
60
0
100
AcDbLine
10
40.876328
20
5.85419
30
0
11
40.951966
21
5.831822
31
0
39
0
210
0
220
0
230
1
0
LINE
5
61
100
AcDbEntity
8
1
62
256
6
ByLayer
370
-1
48
1
60
0
100
AcDbLine
10
0
20
-2.379087
30
0
11
0
21
2.379087
31
0
39
0
210
0
220
0
230
1
0
LINE
5
62
100
AcDbEntity
8
1
62
256
6
ByLayer
370
-1
48
1
60
0
100
AcDbLine
10
42.436816
20
1.333118
30
0
11
42.483017
21
1.362555
31
0
39
0
210
0
220
0
230
1
0
LINE
5
63
100
AcDbEntity
8
1
62
256
6
ByLayer
370
-1
48
1
60
0
100
AcDbLine
10
39.10208
20
5.168856
30
0
11
39.231519
21
5.383047
31
0
39
0
210
0
220
0
230
1
0
LINE
5
64
100
AcDbEntity
8
1
62
256
6
ByLayer
370
-1
48
1
60
0
100
AcDbLine
10
31.173402
20
2.379087
30
0
11
0
21
2.379087
31
0
39
0
210
0
220
0
230
1
0
LINE
5
65
100
AcDbEntity
8
1
62
256
6
ByLayer
370
-1
48
1
60
0
100
AcDbLine
10
39.190505
20
2.758526
30
0
11
39.096205
21
2.786413
31
0
39
0
210
0
220
0
230
1
0
LINE
5
66
100
AcDbEntity
8
1
62
256
6
ByLayer
370
-1
48
1
60
0
100
AcDbLine
10
47.217561
20
-2.063601
30
0
11
47.217532
21
-2.065293
31
0
39
0
210
0
220
0
230
1
0
LINE
5
67
100
AcDbEntity
8
1
62
256
6
ByLayer
370
-1
48
1
60
0
100
AcDbLine
10
44.141771
20
0.308893
30
0
11
44.187972
21
0.33833
31
0
39
0
210
0
220
0
230
1
0
LINE
5
68
100
AcDbEntity
8
1
62
256
6
ByLayer
370
-1
48
1
60
0
100
AcDbLine
10
47.217532
20
-2.065293
30
0
11
47.201729
21
-2.970639
31
0
39
0
210
0
220
0
230
1
0
LINE
5
69
100
AcDbEntity
8
1
62
256
6
ByLayer
370
-1
48
1
60
0
100
AcDbLine
10
33.551005
20
5.874441
30
0
11
33.594063
21
5.9175
31
0
39
0
210
0
220
0
230
1
0
LINE
5
6A
100
AcDbEntity
8
1
62
256
6
ByLayer
370
-1
48
1
60
0
100
AcDbLine
10
41.444891
20
5.539535
30
0
11
41.030845
21
5.788267
31
0
39
0
210
0
220
0
230
1
0
LINE
5
6B
100
AcDbEntity
8
1
62
256
6
ByLayer
370
-1
48
1
60
0
100
AcDbLine
10
39.377457
20
4.762476
30
0
11
38.974756
21
4.881566
31
0
39
0
210
0
220
0
230
1
0
LINE
5
6C
100
AcDbEntity
8
1
62
256
6
ByLayer
370
-1
48
1
60
0
100
AcDbLine
10
43.696483
20
7.392188
30
0
11
43.74193
21
7.378748
31
0
39
0
210
0
220
0
230
1
0
LINE
5
6D
100
AcDbEntity
8
1
62
256
6
ByLayer
370
-1
48
1
60
0
100
AcDbLine
10
44.141771
20
0.308893
30
0
11
42.436816
21
1.333118
31
0
39
0
210
0
220
0
230
1
0
LINE
5
6E
100
AcDbEntity
8
1
62
256
6
ByLayer
370
-1
48
1
60
0
100
AcDbLine
10
40.951966
20
5.831822
30
0
11
43.74193
21
7.378748
31
0
39
0
210
0
220
0
230
1
0
LINE
5
6F
100
AcDbEntity
8
1
62
256
6
ByLayer
370
-1
48
1
60
0
100
AcDbLine
10
43.696483
20
7.392188
30
0
11
40.876328
21
5.85419
31
0
39
0
210
0
220
0
230
1
0
LINE
5
70
100
AcDbEntity
8
1
62
256
6
ByLayer
370
-1
48
1
60
0
100
AcDbLine
10
34.771872
20
-5.372523
30
0
11
34.771872
21
-5.591317
31
0
39
0
210
0
220
0
230
1
0
LINE
5
71
100
AcDbEntity
8
1
62
256
6
ByLayer
370
-1
48
1
60
0
100
AcDbLine
10
0
20
-2.379087
30
0
11
32.471867
21
-2.379087
31
0
39
0
210
0
220
0
230
1
0
LINE
5
72
100
AcDbEntity
8
1
62
256
6
ByLayer
370
-1
48
1
60
0
100
AcDbLine
10
0
20
5.5075
30
0
11
31.688726
21
5.5075
31
0
39
0
210
0
220
0
230
1
0
LINE
5
73
100
AcDbEntity
8
1
62
256
6
ByLayer
370
-1
48
1
60
0
100
AcDbLine
10
34.771872
20
5.9175
30
0
11
34.771872
21
5.914699
31
0
39
0
210
0
220
0
230
1
0
LINE
5
74
100
AcDbEntity
8
1
62
256
6
ByLayer
370
-1
48
1
60
0
100
AcDbLine
10
39.190505
20
2.758526
30
0
11
47.217561
21
-2.063601
31
0
39
0
210
0
220
0
230
1
0
LINE
5
75
100
AcDbEntity
8
1
62
256
6
ByLayer
370
-1
48
1
60
0
100
AcDbLine
10
32.869063
20
-3.374551
30
0
11
32.869063
21
-5.9925
31
0
39
0
210
0
220
0
230
1
0
LINE
5
76
100
AcDbEntity
8
1
62
256
6
ByLayer
370
-1
48
1
60
0
100
AcDbLine
10
0
20
-5.9925
30
0
11
0
21
-2.379087
31
0
39
0
210
0
220
0
230
1
0
LINE
5
77
100
AcDbEntity
8
1
62
256
6
ByLayer
370
-1
48
1
60
0
100
AcDbLine
10
32.944063
20
-5.9175
30
0
11
32.944063
21
-3.475256
31
0
39
0
210
0
220
0
230
1
0
LINE
5
78
100
AcDbEntity
8
1
62
256
6
ByLayer
370
-1
48
1
60
0
100
AcDbLine
10
39.694625
20
-4.553417
30
0
11
47.201729
21
-2.970639
31
0
39
0
210
0
220
0
230
1
0
LINE
5
79
100
AcDbEntity
8
1
62
256
6
ByLayer
370
-1
48
1
60
0
100
AcDbLine
10
33.224788
20
-5.9175
30
0
11
34.771872
21
-5.591317
31
0
39
0
210
0
220
0
230
1
0
LINE
5
7A
100
AcDbEntity
8
1
62
256
6
ByLayer
370
-1
48
1
60
0
100
AcDbLine
10
45.050708
20
7.71234
30
0
11
45.048012
21
7.557917
31
0
39
0
210
0
220
0
230
1
0
LINE
5
7B
100
AcDbEntity
8
1
62
256
6
ByLayer
370
-1
48
1
60
0
100
AcDbLine
10
31.688726
20
5.5075
30
0
11
33.184063
21
5.5075
31
0
39
0
210
0
220
0
230
1
0
LINE
5
7C
100
AcDbEntity
8
1
62
256
6
ByLayer
370
-1
48
1
60
0
100
AcDbLine
10
39.503459
20
5.050157
30
0
11
39.631539
21
5.264749
31
0
39
0
210
0
220
0
230
1
0
LINE
5
7D
100
AcDbEntity
8
1
62
256
6
ByLayer
370
-1
48
1
60
0
100
AcDbLine
10
0
20
5.5075
30
0
11
0
21
2.379087
31
0
39
0
210
0
220
0
230
1
0
LINE
5
7E
100
AcDbEntity
8
1
62
256
6
ByLayer
370
-1
48
1
60
0
100
AcDbLine
10
43.696483
20
7.392188
30
0
11
43.714502
21
8.424449
31
0
39
0
210
0
220
0
230
1
0
LINE
5
7F
100
AcDbEntity
8
1
62
256
6
ByLayer
370
-1
48
1
60
0
100
AcDbLine
10
34.930567
20
-5.557858
30
0
11
39.694625
21
-4.553417
31
0
39
0
210
0
220
0
230
1
0
LINE
5
80
100
AcDbEntity
8
1
62
256
6
ByLayer
370
-1
48
1
60
0
100
AcDbLine
10
47.227706
20
-1.482406
30
0
11
47.217561
21
-2.063601
31
0
39
0
210
0
220
0
230
1
0
LINE
5
81
100
AcDbEntity
8
1
62
256
6
ByLayer
370
-1
48
1
60
0
100
AcDbLine
10
47.217532
20
-2.065293
30
0
11
39.096205
21
2.786413
31
0
39
0
210
0
220
0
230
1
0
LINE
5
82
100
AcDbEntity
8
1
62
256
6
ByLayer
370
-1
48
1
60
0
100
AcDbLine
10
33.184063
20
5.5075
30
0
11
33.551005
21
5.874441
31
0
39
0
210
0
220
0
230
1
0
LINE
5
83
100
AcDbEntity
8
1
62
256
6
ByLayer
370
-1
48
1
60
0
100
AcDbLine
10
39.631539
20
5.264749
30
0
11
39.231519
21
5.383047
31
0
39
0
210
0
220
0
230
1
0
LINE
5
84
100
AcDbEntity
8
1
62
256
6
ByLayer
370
-1
48
1
60
0
100
AcDbLine
10
36.525623
20
7.268457
30
0
11
39.694625
21
-4.553417
31
0
39
0
210
0
220
0
230
1
0
LINE
5
85
100
AcDbEntity
8
1
62
256
6
ByLayer
370
-1
48
1
60
0
100
AcDbLine
10
44.75497
20
8.430694
30
0
11
44.736691
21
7.383534
31
0
39
0
210
0
220
0
230
1
0
LINE
5
86
100
AcDbEntity
8
1
62
256
6
ByLayer
370
-1
48
1
60
0
100
AcDbLine
10
38.970069
20
3.472897
30
0
11
47.174062
21
-1.455523
31
0
39
0
210
0
220
0
230
1
0
LINE
5
87
100
AcDbEntity
8
1
62
256
6
ByLayer
370
-1
48
1
60
0
100
AcDbLine
10
47.35394
20
8.84966
30
0
11
38.982061
21
4.159909
31
0
39
0
210
0
220
0
230
1
0
LINE
5
88
100
AcDbEntity
8
1
62
256
6
ByLayer
370
-1
48
1
60
0
100
AcDbLine
10
47.772053
20
-1.120541
30
0
11
47.939939
21
8.49763
31
0
39
0
210
0
220
0
230
1
0
LINE
5
89
100
AcDbEntity
8
1
62
256
6
ByLayer
370
-1
48
1
60
0
100
AcDbLine
10
45.376775
20
3.052725
30
0
11
45.34861
21
3.061054
31
0
39
0
210
0
220
0
230
1
0
LINE
5
8A
100
AcDbEntity
8
1
62
256
6
ByLayer
370
-1
48
1
60
0
100
AcDbLine
10
45.598417
20
3.475542
30
0
11
45.588632
21
3.478435
31
0
39
0
210
0
220
0
230
1
0
LINE
5
8B
100
AcDbEntity
8
1
62
256
6
ByLayer
370
-1
48
1
60
0
100
AcDbLine
10
45.475947
20
4.349426
30
0
11
45.367849
21
4.381394
31
0
39
0
210
0
220
0
230
1
0
LINE
5
8C
100
AcDbEntity
8
1
62
256
6
ByLayer
370
-1
48
1
60
0
100
AcDbLine
10
44.587018
20
4.600171
30
0
11
44.479097
21
4.632087
31
0
39
0
210
0
220
0
230
1
0
LINE
5
8D
100
AcDbEntity
8
1
62
256
6
ByLayer
370
-1
48
1
60
0
100
AcDbLine
10
44.58682
20
4.600121
30
0
11
44.478898
21
4.632036
31
0
39
0
210
0
220
0
230
1
0
LINE
5
8E
100
AcDbEntity
8
1
62
256
6
ByLayer
370
-1
48
1
60
0
100
AcDbLine
10
44.066454
20
4.394849
30
0
11
44.059933
21
4.396777
31
0
39
0
210
0
220
0
230
1
0
LINE
5
8F
100
AcDbEntity
8
1
62
256
6
ByLayer
370
-1
48
1
60
0
100
AcDbLine
10
43.914033
20
3.955941
30
0
11
43.805552
21
3.988022
31
0
39
0
210
0
220
0
230
1
0
LINE
5
90
100
AcDbEntity
8
1
62
256
6
ByLayer
370
-1
48
1
60
0
100
AcDbLine
10
43.911866
20
3.473261
30
0
11
43.803768
21
3.505229
31
0
39
0
210
0
220
0
230
1
0
LINE
5
91
100
AcDbEntity
8
1
62
256
6
ByLayer
370
-1
48
1
60
0
100
AcDbLine
10
44.55575
20
2.808834
30
0
11
44.447829
21
2.840749
31
0
39
0
210
0
220
0
230
1
0
LINE
5
92
100
AcDbEntity
8
SK1
62
256
6
ByLayer
370
-1
48
1
60
0
100
AcDbLine
10
0
20
2.379087
30
0
11
-101.81
21
2.379087
31
0
39
0
210
0
220
0
230
1
0
LINE
5
93
100
AcDbEntity
8
SK1
62
256
6
ByLayer
370
-1
48
1
60
0
100
AcDbLine
10
0
20
-5.9925
30
0
11
0
21
-2.379087
31
0
39
0
210
0
220
0
230
1
0
LINE
5
94
100
AcDbEntity
8
SK1
62
256
6
ByLayer
370
-1
48
1
60
0
100
AcDbLine
10
-101.81
20
2.379087
30
0
11
-101.81
21
5.5075
31
0
39
0
210
0
220
0
230
1
0
LINE
5
95
100
AcDbEntity
8
SK1
62
256
6
ByLayer
370
-1
48
1
60
0
100
AcDbLine
10
-101.81
20
-2.379087
30
0
11
0
21
-2.379087
31
0
39
0
210
0
220
0
230
1
0
LINE
5
96
100
AcDbEntity
8
SK1
62
256
6
ByLayer
370
-1
48
1
60
0
100
AcDbLine
10
0
20
-2.379087
30
0
11
0
21
2.379087
31
0
39
0
210
0
220
0
230
1
0
LINE
5
97
100
AcDbEntity
8
SK1
62
256
6
ByLayer
370
-1
48
1
60
0
100
AcDbLine
10
0
20
5.5075
30
0
11
0
21
2.379087
31
0
39
0
210
0
220
0
230
1
0
LINE
5
98
100
AcDbEntity
8
SK1
62
256
6
ByLayer
370
-1
48
1
60
0
100
AcDbLine
10
-101.81
20
5.5075
30
0
11
0
21
5.5075
31
0
39
0
210
0
220
0
230
1
0
LINE
5
99
100
AcDbEntity
8
SK1
62
256
6
ByLayer
370
-1
48
1
60
0
100
AcDbLine
10
-103.31
20
-4.4925
30
0
11
-103.31
21
4.4925
31
0
39
0
210
0
220
0
230
1
0
LINE
5
9A
100
AcDbEntity
8
SK1
62
256
6
ByLayer
370
-1
48
1
60
0
100
AcDbLine
10
-101.81
20
-5.9925
30
0
11
-101.81
21
-2.379087
31
0
39
0
210
0
220
0
230
1
0
LINE
5
9B
100
AcDbEntity
8
2
62
256
6
ByLayer
370
-1
48
1
60
1
100
AcDbLine
10
47.94
20
0
30
0
11
47.941
21
0.001
31
0
39
0
210
0
220
0
230
1
0
MTEXT
5
EF
100
AcDbEntity
8
SK6
62
256
6
ByLayer
370
-1
48
1
60
0
100
AcDbMText
10
-24.31
20
-19.376405
30
0
210
0
220
0
230
1
1
\W00.755;\fsimplex.shx,bigfont.shx;A12M-STFPR 11 
40
3.5
41
0
44
1.084337
50
0
71
7
72
5
7
DEFAULT
0
DIMENSION
5
122
100
AcDbEntity
8
2
62
256
6
ByLayer
370
-3
48
1
60
0
100
AcDbDimension
2
DimnDraft3D1
10
60.19
20
0
30
0
11
60.19
21
19.155
31
0
70
32
71
5
72
1
41
1
210
0
220
0
230
1
3
Standard
100
AcDbAlignedDimension
13
49.94
23
8.9
33
0
14
49.94
24
0
34
0
50
90
100
AcDbRotatedDimension
1001
ACAD
1000
DSTYLE
1002
{
1070
    74
1070
     0
1070
   279
1070
     0
1070
   172
1070
     1
1070
   173
1070
     1
1070
   340
1005
F0
1070
    77
1070
     1
1070
    73
1070
     0
1070
   171
1070
     4
1070
   274
1070
     4
1070
   177
1070
     2
1070
   176
1070
     2
1070
   178
1070
     7
1070
    78
1070
     8
1070
    41
1041
3.175
1070
   147
1041
2.25
1070
    42
1041
2.0
1070
    44
1041
2.0
1070
   140
1041
4.5
1070
   343
1005
123
1070
   344
1005
123
1002
}
0
DIMENSION
5
138
100
AcDbEntity
8
SK2
62
256
6
ByLayer
370
-3
48
1
60
0
100
AcDbDimension
2
DimnDraft3D2
10
-113.06
20
5.9925
30
0
11
-113.06
21
16.2475
31
0
70
32
71
5
72
1
41
1
210
0
220
0
230
1
3
Standard
100
AcDbAlignedDimension
13
-105.31
23
-5.9925
33
0
14
-105.31
24
5.9925
34
0
50
90
100
AcDbRotatedDimension
1001
ACAD
1000
DSTYLE
1002
{
1070
    74
1070
     0
1070
   279
1070
     0
1070
   172
1070
     1
1070
   173
1070
     1
1070
   340
1005
F0
1070
    77
1070
     1
1070
    73
1070
     0
1070
   171
1070
     4
1070
   274
1070
     4
1070
   177
1070
     2
1070
   176
1070
     2
1070
   178
1070
     7
1070
    78
1070
     8
1070
    41
1041
3.175
1070
   147
1041
2.25
1070
    42
1041
2.0
1070
    44
1041
2.0
1070
   140
1041
4.5
1070
   343
1005
123
1070
   344
1005
123
1002
}
0
DIMENSION
5
146
100
AcDbEntity
8
SK2
62
256
6
ByLayer
370
-3
48
1
60
0
100
AcDbDimension
2
DimnDraft3D3
10
-103.31
20
21.65
30
0
11
-33.937632
21
21.65
31
0
70
32
71
5
72
1
41
1
210
0
220
0
230
1
3
Standard
100
AcDbAlignedDimension
13
47.94
23
10.9
33
0
14
-103.31
24
7.9925
34
0
50
0
100
AcDbRotatedDimension
1001
ACAD
1000
DSTYLE
1002
{
1070
   279
1070
     0
1070
   172
1070
     1
1070
   173
1070
     1
1070
   340
1005
F0
1070
    77
1070
     1
1070
    73
1070
     0
1070
   171
1070
     4
1070
   274
1070
     4
1070
   177
1070
     2
1070
   176
1070
     2
1070
   178
1070
     7
1070
    78
1070
     8
1070
    41
1041
3.175
1070
   147
1041
2.25
1070
    42
1041
2.0
1070
    44
1041
2.0
1070
   140
1041
4.5
1070
   343
1005
123
1070
   344
1005
123
1002
}
0
DIMENSION
5
154
100
AcDbEntity
8
2
62
256
6
ByLayer
370
-3
48
1
60
0
100
AcDbDimension
2
DimnDraft3D4
10
96.711057
20
0
30
0
11
74.955805
21
-35.936736
31
0
70
34
71
5
72
1
41
1
210
0
220
0
230
1
3
Standard
100
AcDb2LineAngularDimension
13
47.713119
23
-4.09802
33
0
14
46.930766
24
-48.918955
34
0
15
49.94
25
0
35
0
16
77.521712
26
-30.260654
36
0
40
0
0
ENDSEC
0
SECTION
2
OBJECTS
0
DICTIONARY
5
185
330
0
100
AcDbDictionary
280
0
281
1
3
ACAD_GROUP
350
186
3
ACAD_MLINESTYLE
350
187
0
DICTIONARY
5
186
330
0
100
AcDbDictionary
280
0
281
1
0
DICTIONARY
5
187
330
0
100
AcDbDictionary
280
0
281
1
3
Standard
350
18
0
MLINESTYLE
5
18
330
187
100
AcDbMlineStyle
2
Standard
70
0
3

62
256
51
90
52
90
71
2
49
-0.5
62
256
6
ByLayer
49
0.5
62
256
6
ByLayer
0
RASTERVARIABLES
5
173
330

100
AcDbRasterVariables
90
0
70
1
71
1
72
1
0
ENDSEC
0
EOF
