0
SECTION
2
HEADER
9
$ACADVER
1
AC1015
9
$DWGCODEPAGE
3
ANSI_1252
9
$HANDSEED
5
18f
9
$ANGBASE
50
0
9
$ANGDIR
70
0
9
$ATTMODE
70
1
9
$AUNITS
70
0
9
$AUPREC
70
0
9
$CECOLOR
62
256
9
$CELTSCALE
40
1
9
$CELTYPE
6
ByLayer
9
$CELWEIGHT
370
-1
9
$CLAYER
8
0
9
$CMLJUST
70
0
9
$CMLSCALE
40
1
9
$CMLSTYLE
2
Standard
9
$DIMSTYLE
2
Standard
9
$TEXTSIZE
40
0.2
9
$TEXTSTYLE
7
Standard
9
$LUNITS
70
2
9
$LUPREC
70
4
9
$EXTNAMES
290
1
9
$INSUNITS
70
4
9
$LTSCALE
40
1
9
$LWDISPLAY
290
0
9
$PDMODE
70
0
9
$PDSIZE
40
0
9
$PLINEGEN
70
0
0
ENDSEC
0
SECTION
2
CLASSES
0
CLASS
1
RASTERVARIABLES
2
AcDbRasterVariables
3
ISM
90
0
280
0
281
0
0
ENDSEC
0
SECTION
2
TABLES
0
TABLE
2
VPORT
5
185
100
AcDbSymbolTable
0
VPORT
5
1
100
AcDbSymbolTableRecord
100
AcDbViewportTableRecord
2
*Active
70
0
10
0
20
0
11
1
21
1
12
-1
22
1
13
0
23
0
14
0.5
24
0.5
15
10
25
10
16
0
26
0
36
1
17
0
27
0
37
0
0
ENDTAB
0
TABLE
2
LTYPE
5
186
100
AcDbSymbolTable
0
LTYPE
5
14
100
AcDbSymbolTableRecord
100
AcDbLinetypeTableRecord
70
0
2
ByBlock
3

72
65
73
0
40
0
0
LTYPE
5
15
100
AcDbSymbolTableRecord
100
AcDbLinetypeTableRecord
70
0
2
ByLayer
3

72
65
73
0
40
0
0
LTYPE
5
16
100
AcDbSymbolTableRecord
100
AcDbLinetypeTableRecord
70
0
2
CONTINUOUS
3
Solid line
72
65
73
0
40
0
0
LTYPE
5
3B
100
AcDbSymbolTableRecord
100
AcDbLinetypeTableRecord
70
0
2
DASHED
3
__ __ __ __ __ __ __ __ __
72
65
73
2
40
25.72
49
12.86
74
0
49
-12.86
74
0
0
LTYPE
5
3C
100
AcDbSymbolTableRecord
100
AcDbLinetypeTableRecord
70
0
2
HIDDEN
3
_ _ _ _ _ _ _ _ _ _ _ _ _ _ _
72
65
73
2
40
0.5
49
0.25
74
0
49
-0.25
74
0
0
LTYPE
5
3D
100
AcDbSymbolTableRecord
100
AcDbLinetypeTableRecord
70
0
2
PHANTOM
3
____ _ _ ____ _ _ _____ _ _ ____
72
65
73
6
40
50.5
49
18
74
0
49
-6.5
74
0
49
6.5
74
0
49
-6.5
74
0
49
6.5
74
0
49
-6.5
74
0
0
LTYPE
5
3E
100
AcDbSymbolTableRecord
100
AcDbLinetypeTableRecord
70
0
2
CENTER
3
____ _ ____ _ ____ _ ____
72
65
73
4
40
47.5
49
22
74
0
49
-8.5
74
0
49
8.5
74
0
49
-8.5
74
0
0
LTYPE
5
3F
100
AcDbSymbolTableRecord
100
AcDbLinetypeTableRecord
70
0
2
DOT
3
.........................
72
65
73
2
40
10
49
0
74
0
49
-10
74
0
0
LTYPE
5
40
100
AcDbSymbolTableRecord
100
AcDbLinetypeTableRecord
70
0
2
DASHDOT
3
_._._._._._._._._._._._._._._._.
72
65
73
4
40
70
49
31
74
0
49
-13
74
0
49
13
74
0
49
-13
74
0
0
ENDTAB
0
TABLE
2
LAYER
5
187
100
AcDbSymbolTable
0
LAYER
5
10
100
AcDbSymbolTableRecord
100
AcDbLayerTableRecord
2
0
70
0
62
7
6
CONTINUOUS
290
1
370
-3
390
0
0
LAYER
5
42
100
AcDbSymbolTableRecord
100
AcDbLayerTableRecord
2
80
70
0
62
-6
6
CONTINUOUS
290
1
370
-3
390
0
0
LAYER
5
44
100
AcDbSymbolTableRecord
100
AcDbLayerTableRecord
2
81
70
0
62
-3
6
CONTINUOUS
290
1
370
-3
390
0
0
LAYER
5
46
100
AcDbSymbolTableRecord
100
AcDbLayerTableRecord
2
1
70
0
62
4
6
CONTINUOUS
290
1
370
-3
390
0
0
LAYER
5
48
100
AcDbSymbolTableRecord
100
AcDbLayerTableRecord
2
2
70
0
62
7
6
CONTINUOUS
290
1
370
-3
390
0
0
LAYER
5
5F
100
AcDbSymbolTableRecord
100
AcDbLayerTableRecord
2
4
70
0
62
-2
6
CENTER
290
1
370
-3
390
0
0
LAYER
5
171
100
AcDbSymbolTableRecord
100
AcDbLayerTableRecord
2
SK1
70
0
62
4
6
CONTINUOUS
290
1
370
-3
390
0
0
LAYER
5
172
100
AcDbSymbolTableRecord
100
AcDbLayerTableRecord
2
SK4
70
0
62
2
6
CENTER
290
1
370
-3
390
0
0
LAYER
5
173
100
AcDbSymbolTableRecord
100
AcDbLayerTableRecord
2
SK6
70
0
62
5
6
CONTINUOUS
290
1
370
-3
390
0
0
LAYER
5
174
100
AcDbSymbolTableRecord
100
AcDbLayerTableRecord
2
SK2
70
0
62
7
6
CONTINUOUS
290
1
370
-3
390
0
0
ENDTAB
0
TABLE
2
STYLE
5
188
100
AcDbSymbolTable
0
STYLE
5
11
100
AcDbSymbolTableRecord
100
AcDbTextStyleTableRecord
2
Standard
3
txt
70
0
71
0
40
0
41
1
42
0
50
0
0
STYLE
5
ED
100
AcDbSymbolTableRecord
100
AcDbTextStyleTableRecord
2
DEFAULT
3
simplex.shx
70
0
71
0
40
0
41
1
42
0
50
0
0
STYLE
5
110
100
AcDbSymbolTableRecord
100
AcDbTextStyleTableRecord
2
DWGDirectTextStyle
3
SIMPLEX
70
0
71
0
40
0
41
1
42
0
50
0
0
ENDTAB
0
TABLE
2
DIMSTYLE
5
189
100
AcDbSymbolTable
100
AcDbDimStyleTable
0
DIMSTYLE
105
27
100
AcDbSymbolTableRecord
100
AcDbDimStyleTableRecord
2
Standard
70
0
3
<>
41
0.18
42
0.0625
44
0.18
140
0.18
147
0.09
73
0
74
0
77
1
271
2
275
0
278
52
280
0
340
11
0
ENDTAB
0
TABLE
2
VIEW
5
18a
100
AcDbSymbolTable
0
ENDTAB
0
TABLE
2
UCS
5
18b
100
AcDbSymbolTable
0
ENDTAB
0
TABLE
2
APPID
5
18c
100
AcDbSymbolTable
0
APPID
5
12
100
AcDbSymbolTableRecord
100
AcDbRegAppTableRecord
2
ACAD
70
0
0
ENDTAB
0
TABLE
2
BLOCK_RECORD
5
18d
100
AcDbSymbolTable
0
BLOCK_RECORD
5
1F
100
AcDbSymbolTableRecord
100
AcDbBlockTableRecord
2
*Model_Space
340
0
70
0
0
BLOCK_RECORD
5
1B
100
AcDbSymbolTableRecord
100
AcDbBlockTableRecord
2
*Paper_Space
340
0
70
0
0
BLOCK_RECORD
5
23
100
AcDbSymbolTableRecord
100
AcDbBlockTableRecord
2
*Paper_Space0
340
0
70
0
0
BLOCK_RECORD
5
112
100
AcDbSymbolTableRecord
100
AcDbBlockTableRecord
2
DimnDraft3D1
340
0
70
0
0
BLOCK_RECORD
5
120
100
AcDbSymbolTableRecord
100
AcDbBlockTableRecord
2
_CLOSED
340
0
70
0
0
BLOCK_RECORD
5
127
100
AcDbSymbolTableRecord
100
AcDbBlockTableRecord
2
DimnDraft3D2
340
0
70
0
0
BLOCK_RECORD
5
136
100
AcDbSymbolTableRecord
100
AcDbBlockTableRecord
2
DimnDraft3D3
340
0
70
0
0
BLOCK_RECORD
5
144
100
AcDbSymbolTableRecord
100
AcDbBlockTableRecord
2
DimnDraft3D4
340
0
70
0
0
ENDTAB
0
ENDSEC
0
SECTION
2
BLOCKS
0
BLOCK
5
20
100
AcDbEntity
8
0
100
AcDbBlockBegin
2
*Model_Space
70
0
10
0
20
0
30
0
3
*Model_Space
0
ENDBLK
5
21
100
AcDbEntity
8
0
100
AcDbBlockEnd
0
BLOCK
5
1C
100
AcDbEntity
8
0
100
AcDbBlockBegin
2
*Paper_Space
70
0
10
0
20
0
30
0
3
*Paper_Space
0
ENDBLK
5
1D
100
AcDbEntity
8
0
100
AcDbBlockEnd
0
BLOCK
5
24
100
AcDbEntity
8
0
100
AcDbBlockBegin
2
*Paper_Space0
70
0
10
0
20
0
30
0
3
*Paper_Space0
0
ENDBLK
5
25
100
AcDbEntity
8
0
100
AcDbBlockEnd
0
BLOCK
5
11D
100
AcDbEntity
8
0
100
AcDbBlockBegin
2
DimnDraft3D1
70
0
10
0
20
0
30
0
3
DimnDraft3D1
0
MTEXT
5
113
100
AcDbEntity
8
2
62
256
6
ByLayer
370
-1
48
1
60
0
100
AcDbMText
10
59.065
20
20.28
30
0
210
0
220
0
230
1
1
\W01.000;\fsimplex.shx,bigfont.shx;9.0 
40
4.5
41
0
44
1.084337
50
90
71
7
72
5
7
DEFAULT
0
LINE
5
114
100
AcDbEntity
8
2
62
256
6
ByLayer
370
-1
48
1
60
0
100
AcDbLine
10
49.94
20
8.9
30
0
11
62.19
21
8.9
31
0
39
0
210
0
220
0
230
1
0
LINE
5
115
100
AcDbEntity
8
2
62
256
6
ByLayer
370
-1
48
1
60
0
100
AcDbLine
10
49.94
20
0
30
0
11
62.19
21
0
31
0
39
0
210
0
220
0
230
1
0
LINE
5
116
100
AcDbEntity
8
2
62
256
6
ByLayer
370
-1
48
1
60
0
100
AcDbLine
10
60.19
20
0
30
0
11
60.19
21
26.177368
31
0
39
0
210
0
220
0
230
1
0
LINE
5
117
100
AcDbEntity
8
2
62
256
6
ByLayer
370
-1
48
1
60
0
100
AcDbLine
10
60.19
20
8.9
30
0
11
60.607997
21
5.725002
31
0
39
0
210
0
220
0
230
1
0
LINE
5
118
100
AcDbEntity
8
2
62
256
6
ByLayer
370
-1
48
1
60
0
100
AcDbLine
10
60.19
20
8.9
30
0
11
59.772003
21
5.724998
31
0
39
0
210
0
220
0
230
1
0
LINE
5
119
100
AcDbEntity
8
2
62
256
6
ByLayer
370
-1
48
1
60
0
100
AcDbLine
10
60.607997
20
5.725002
30
0
11
59.772003
21
5.724998
31
0
39
0
210
0
220
0
230
1
0
LINE
5
11A
100
AcDbEntity
8
2
62
256
6
ByLayer
370
-1
48
1
60
0
100
AcDbLine
10
60.19
20
0
30
0
11
59.772003
21
3.174998
31
0
39
0
210
0
220
0
230
1
0
LINE
5
11B
100
AcDbEntity
8
2
62
256
6
ByLayer
370
-1
48
1
60
0
100
AcDbLine
10
60.19
20
0
30
0
11
60.607997
21
3.175002
31
0
39
0
210
0
220
0
230
1
0
LINE
5
11C
100
AcDbEntity
8
2
62
256
6
ByLayer
370
-1
48
1
60
0
100
AcDbLine
10
59.772003
20
3.174998
30
0
11
60.607997
21
3.175002
31
0
39
0
210
0
220
0
230
1
0
ENDBLK
5
11E
100
AcDbEntity
8
0
100
AcDbBlockEnd
0
BLOCK
5
121
100
AcDbEntity
8
0
100
AcDbBlockBegin
2
_CLOSED
70
0
10
0
20
0
30
0
3
_CLOSED
0
LINE
5
123
100
AcDbEntity
8
0
62
256
6
ByLayer
370
-2
48
1
60
0
100
AcDbLine
10
-1
20
0.166667
30
0
11
0
21
0
31
0
39
0
210
0
220
0
230
1
0
LINE
5
124
100
AcDbEntity
8
0
62
256
6
ByLayer
370
-2
48
1
60
0
100
AcDbLine
10
0
20
0
30
0
11
-1
21
-0.166667
31
0
39
0
210
0
220
0
230
1
0
LINE
5
125
100
AcDbEntity
8
0
62
256
6
ByLayer
370
-2
48
1
60
0
100
AcDbLine
10
-1
20
0.166667
30
0
11
-1
21
-0.166667
31
0
39
0
210
0
220
0
230
1
0
LINE
5
126
100
AcDbEntity
8
0
62
256
6
ByLayer
370
-2
48
1
60
0
100
AcDbLine
10
0
20
0
30
0
11
-1
21
0
31
0
39
0
210
0
220
0
230
1
0
ENDBLK
5
122
100
AcDbEntity
8
0
100
AcDbBlockEnd
0
BLOCK
5
133
100
AcDbEntity
8
0
100
AcDbBlockBegin
2
DimnDraft3D2
70
0
10
0
20
0
30
0
3
DimnDraft3D2
0
MTEXT
5
128
100
AcDbEntity
8
SK2
62
256
6
ByLayer
370
-1
48
1
60
0
100
AcDbMText
10
-114.185
20
17.3725
30
0
210
0
220
0
230
1
1
\W01.000;\fsimplex.shx,bigfont.shx;%%c12 
40
4.5
41
0
44
1.084337
50
90
71
7
72
5
7
DEFAULT
0
LINE
5
12A
100
AcDbEntity
8
SK2
62
256
6
ByLayer
370
-1
48
1
60
0
100
AcDbLine
10
-105.31
20
-5.9925
30
0
11
-115.06
21
-5.9925
31
0
39
0
210
0
220
0
230
1
0
LINE
5
12B
100
AcDbEntity
8
SK2
62
256
6
ByLayer
370
-1
48
1
60
0
100
AcDbLine
10
-105.31
20
5.9925
30
0
11
-115.06
21
5.9925
31
0
39
0
210
0
220
0
230
1
0
LINE
5
12C
100
AcDbEntity
8
SK2
62
256
6
ByLayer
370
-1
48
1
60
0
100
AcDbLine
10
-113.06
20
-5.9925
30
0
11
-113.06
21
24.690921
31
0
39
0
210
0
220
0
230
1
0
LINE
5
12D
100
AcDbEntity
8
SK2
62
256
6
ByLayer
370
-1
48
1
60
0
100
AcDbLine
10
-113.06
20
-5.9925
30
0
11
-113.477997
21
-2.817502
31
0
39
0
210
0
220
0
230
1
0
LINE
5
12E
100
AcDbEntity
8
SK2
62
256
6
ByLayer
370
-1
48
1
60
0
100
AcDbLine
10
-113.06
20
-5.9925
30
0
11
-112.642003
21
-2.817498
31
0
39
0
210
0
220
0
230
1
0
LINE
5
12F
100
AcDbEntity
8
SK2
62
256
6
ByLayer
370
-1
48
1
60
0
100
AcDbLine
10
-113.477997
20
-2.817502
30
0
11
-112.642003
21
-2.817498
31
0
39
0
210
0
220
0
230
1
0
LINE
5
130
100
AcDbEntity
8
SK2
62
256
6
ByLayer
370
-1
48
1
60
0
100
AcDbLine
10
-113.06
20
5.9925
30
0
11
-112.642003
21
2.817502
31
0
39
0
210
0
220
0
230
1
0
LINE
5
131
100
AcDbEntity
8
SK2
62
256
6
ByLayer
370
-1
48
1
60
0
100
AcDbLine
10
-113.06
20
5.9925
30
0
11
-113.477997
21
2.817498
31
0
39
0
210
0
220
0
230
1
0
LINE
5
132
100
AcDbEntity
8
SK2
62
256
6
ByLayer
370
-1
48
1
60
0
100
AcDbLine
10
-112.642003
20
2.817502
30
0
11
-113.477997
21
2.817498
31
0
39
0
210
0
220
0
230
1
0
ENDBLK
5
134
100
AcDbEntity
8
0
100
AcDbBlockEnd
0
BLOCK
5
141
100
AcDbEntity
8
0
100
AcDbBlockBegin
2
DimnDraft3D3
70
0
10
0
20
0
30
0
3
DimnDraft3D3
0
MTEXT
5
137
100
AcDbEntity
8
SK2
62
256
6
ByLayer
370
-1
48
1
60
0
100
AcDbMText
10
-32.812632
20
22.775
30
0
210
0
220
0
230
1
1
\W01.000;\fsimplex.shx,bigfont.shx;150.0 
40
4.5
41
0
44
1.084337
50
0
71
7
72
5
7
DEFAULT
0
LINE
5
138
100
AcDbEntity
8
SK2
62
256
6
ByLayer
370
-1
48
1
60
0
100
AcDbLine
10
47.94
20
10.9
30
0
11
47.94
21
23.65
31
0
39
0
210
0
220
0
230
1
0
LINE
5
139
100
AcDbEntity
8
SK2
62
256
6
ByLayer
370
-1
48
1
60
0
100
AcDbLine
10
-103.31
20
7.9925
30
0
11
-103.31
21
23.65
31
0
39
0
210
0
220
0
230
1
0
LINE
5
13A
100
AcDbEntity
8
SK2
62
256
6
ByLayer
370
-1
48
1
60
0
100
AcDbLine
10
47.94
20
21.65
30
0
11
-103.31
21
21.65
31
0
39
0
210
0
220
0
230
1
0
LINE
5
13B
100
AcDbEntity
8
SK2
62
256
6
ByLayer
370
-1
48
1
60
0
100
AcDbLine
10
47.94
20
21.65
30
0
11
44.765002
21
21.232003
31
0
39
0
210
0
220
0
230
1
0
LINE
5
13C
100
AcDbEntity
8
SK2
62
256
6
ByLayer
370
-1
48
1
60
0
100
AcDbLine
10
47.94
20
21.65
30
0
11
44.764998
21
22.067997
31
0
39
0
210
0
220
0
230
1
0
LINE
5
13D
100
AcDbEntity
8
SK2
62
256
6
ByLayer
370
-1
48
1
60
0
100
AcDbLine
10
44.765002
20
21.232003
30
0
11
44.764998
21
22.067997
31
0
39
0
210
0
220
0
230
1
0
LINE
5
13E
100
AcDbEntity
8
SK2
62
256
6
ByLayer
370
-1
48
1
60
0
100
AcDbLine
10
-103.31
20
21.65
30
0
11
-100.135002
21
22.067997
31
0
39
0
210
0
220
0
230
1
0
LINE
5
13F
100
AcDbEntity
8
SK2
62
256
6
ByLayer
370
-1
48
1
60
0
100
AcDbLine
10
-103.31
20
21.65
30
0
11
-100.134998
21
21.232003
31
0
39
0
210
0
220
0
230
1
0
LINE
5
140
100
AcDbEntity
8
SK2
62
256
6
ByLayer
370
-1
48
1
60
0
100
AcDbLine
10
-100.135002
20
22.067997
30
0
11
-100.134998
21
21.232003
31
0
39
0
210
0
220
0
230
1
0
ENDBLK
5
142
100
AcDbEntity
8
0
100
AcDbBlockEnd
0
BLOCK
5
14F
100
AcDbEntity
8
0
100
AcDbBlockBegin
2
DimnDraft3D4
70
0
10
0
20
0
30
0
3
DimnDraft3D4
0
MTEXT
5
145
100
AcDbEntity
8
2
62
256
6
ByLayer
370
-1
48
1
60
0
100
AcDbMText
10
76.546734
20
-35.950619
30
0
210
0
220
0
230
1
1
\W01.000;\fsimplex.shx,bigfont.shx;91%%d0' 
40
4.5
41
0
44
1.084337
50
44.5
71
7
72
5
7
DEFAULT
0
LINE
5
146
100
AcDbEntity
8
2
62
256
6
ByLayer
370
-1
48
1
60
0
100
AcDbLine
10
47.713119
20
-4.09802
30
0
11
46.930766
21
-48.918955
31
0
39
0
210
0
220
0
230
1
0
LINE
5
147
100
AcDbEntity
8
2
62
256
6
ByLayer
370
-1
48
1
60
0
100
AcDbLine
10
49.94
20
0
30
0
11
96.711057
21
0
31
0
39
0
210
0
220
0
230
1
0
ARC
5
148
100
AcDbEntity
8
2
62
256
6
ByLayer
370
-1
48
1
60
0
100
AcDbCircle
39
0
10
47.78465
20
0
30
0
40
46.9264068782929
210
0
220
0
230
1
100
AcDbArc
50
269
51
0
0
LINE
5
149
100
AcDbEntity
8
2
62
256
6
ByLayer
370
-1
48
1
60
0
100
AcDbLine
10
46.965671
20
-46.91926
30
0
11
50.140897
21
-46.502993
31
0
39
0
210
0
220
0
230
1
0
LINE
5
14A
100
AcDbEntity
8
2
62
256
6
ByLayer
370
-1
48
1
60
0
100
AcDbLine
10
46.965671
20
-46.91926
30
0
11
50.140444
21
-47.338987
31
0
39
0
210
0
220
0
230
1
0
LINE
5
14B
100
AcDbEntity
8
2
62
256
6
ByLayer
370
-1
48
1
60
0
100
AcDbLine
10
50.140897
20
-46.502993
30
0
11
50.140444
21
-47.338987
31
0
39
0
210
0
220
0
230
1
0
LINE
5
14C
100
AcDbEntity
8
2
62
256
6
ByLayer
370
-1
48
1
60
0
100
AcDbLine
10
94.711057
20
0
30
0
11
95.075312
21
-3.181612
31
0
39
0
210
0
220
0
230
1
0
LINE
5
14D
100
AcDbEntity
8
2
62
256
6
ByLayer
370
-1
48
1
60
0
100
AcDbLine
10
94.711057
20
0
30
0
11
94.239438
21
-3.16748
31
0
39
0
210
0
220
0
230
1
0
LINE
5
14E
100
AcDbEntity
8
2
62
256
6
ByLayer
370
-1
48
1
60
0
100
AcDbLine
10
95.075312
20
-3.181612
30
0
11
94.239438
21
-3.16748
31
0
39
0
210
0
220
0
230
1
0
ENDBLK
5
150
100
AcDbEntity
8
0
100
AcDbBlockEnd
0
ENDSEC
0
SECTION
2
ENTITIES
0
ELLIPSE
5
9C
100
AcDbEntity
8
1
62
256
6
ByLayer
370
-1
48
1
60
0
100
AcDbEllipse
10
39.082402
20
3.84688
30
0
11
-1.04984007991421
21
0.0183250267591476
31
0
210
0
220
0
230
1
40
0.993199
41
-1.33403695251198
42
2.28117460931961
0
ELLIPSE
5
9D
100
AcDbEntity
8
1
62
256
6
ByLayer
370
-1
48
1
60
0
100
AcDbEllipse
10
40.238818
20
4.601863
30
0
11
1.34414779067387
21
-0.0234621869593446
31
0
210
0
220
0
230
1
40
0.993199
41
1.04719755119662
42
2.61799387799152
0
ELLIPSE
5
9E
100
AcDbEntity
8
1
62
256
6
ByLayer
370
-1
48
1
60
0
100
AcDbEllipse
10
40.110084
20
4.389044
30
0
11
1.34414779067387
21
-0.0234621869593446
31
0
210
0
220
0
230
1
40
0.993199
41
2.6179938779915
42
2.79485247176909
0
ELLIPSE
5
9F
100
AcDbEntity
8
1
62
256
6
ByLayer
370
-1
48
1
60
0
100
AcDbEllipse
10
39.078033
20
3.596576
30
0
11
-1.04984007991421
21
0.0183250267591476
31
0
210
0
220
0
230
1
40
0.993199
41
-1.99034375213126
42
-1.43966706516317
0
ELLIPSE
5
A0
100
AcDbEntity
8
1
62
256
6
ByLayer
370
-1
48
1
60
0
100
AcDbEllipse
10
40.234449
20
4.35156
30
0
11
-1.24980961894549
21
0.0218155080466043
31
0
210
0
220
0
230
1
40
0.993199
41
-2.0943951023932
42
-0.523598775598302
0
ELLIPSE
5
A1
100
AcDbEntity
8
1
62
256
6
ByLayer
370
-1
48
1
60
0
100
AcDbEllipse
10
40.105715
20
4.13874
30
0
11
-1.24980961894549
21
0.0218155080466043
31
0
210
0
220
0
230
1
40
0.993199
41
-0.523598775598302
42
-0.391642402973999
0
ELLIPSE
5
A2
100
AcDbEntity
8
1
62
256
6
ByLayer
370
-1
48
1
60
0
100
AcDbEllipse
10
40.108356
20
4.29008
30
0
11
-1.24980961894549
21
0.0218155080466043
31
0
210
0
220
0
230
1
40
0.993199
41
-0.523598775598282
42
-0.391642402972505
0
ELLIPSE
5
A3
100
AcDbEntity
8
1
62
256
6
ByLayer
370
-1
48
1
60
0
100
AcDbEllipse
10
40.23709
20
4.502899
30
0
11
-1.24980961894549
21
0.0218155080466043
31
0
210
0
220
0
230
1
40
0.993199
41
-2.09439510239322
42
-0.523598775598302
0
ELLIPSE
5
A4
100
AcDbEntity
8
1
62
256
6
ByLayer
370
-1
48
1
60
0
100
AcDbEllipse
10
39.077119
20
3.54419
30
0
11
1.04984007991421
21
-0.0183250267591571
31
0
210
0
220
0
230
1
40
0.993199
41
1.20607635966123
42
2.99599901751662
0
ELLIPSE
5
A5
100
AcDbEntity
8
1
62
256
6
ByLayer
370
-1
48
1
60
0
100
AcDbEllipse
10
44.720157
20
0.003045
30
0
11
0.0374250197382668
21
8.15834227886832
31
0
210
0
220
0
230
-1
40
0.110229
41
0.0073709482385446
42
0.111804811752952
0
ELLIPSE
5
A6
100
AcDbEntity
8
1
62
256
6
ByLayer
370
-1
48
1
60
0
100
AcDbEllipse
10
34.641904
20
12.479708
30
0
11
14.1534818639459
21
-52.4658189078816
31
-1.13909496553004E-14
210
2.46519032881566E-32
220
2.17111824277448E-16
230
-1
40
0.111926
41
1.31397690261619
42
1.40734264995928
0
ELLIPSE
5
A7
100
AcDbEntity
8
1
62
256
6
ByLayer
370
-1
48
1
60
0
100
AcDbEllipse
10
44.682002
20
3.775072
30
0
11
0.927629373985772
21
-0.0161918309522518
31
0
210
0
220
0
230
1
40
0.993199
41
2.35608371885997
42
2.35813154589535
0
ELLIPSE
5
A8
100
AcDbEntity
8
1
62
256
6
ByLayer
370
-1
48
1
60
0
100
AcDbEllipse
10
44.682002
20
3.775072
30
0
11
0.927629373985772
21
-0.0161918309522518
31
0
210
0
220
0
230
1
40
0.993199
41
1.30888616766344
42
1.30910771032813
0
ELLIPSE
5
A9
100
AcDbEntity
8
1
62
256
6
ByLayer
370
-1
48
1
60
0
100
AcDbEllipse
10
44.682002
20
3.775072
30
0
11
0.927629373985772
21
-0.0161918309522518
31
0
210
0
220
0
230
1
40
0.993199
41
1.83248494326176
42
1.83270648592641
0
ELLIPSE
5
AA
100
AcDbEntity
8
1
62
256
6
ByLayer
370
-1
48
1
60
0
100
AcDbEllipse
10
44.682002
20
3.775072
30
0
11
0.927629373985772
21
-0.0161918309522518
31
0
210
0
220
0
230
1
40
0.993199
41
-0.263736443502158
42
-0.261688616466847
0
ELLIPSE
5
AB
100
AcDbEntity
8
1
62
256
6
ByLayer
370
-1
48
1
60
0
100
AcDbEllipse
10
44.682002
20
3.775072
30
0
11
0.927629373985772
21
-0.0161918309522518
31
0
210
0
220
0
230
1
40
0.993199
41
-1.30910771032813
42
-1.30888616766344
0
ELLIPSE
5
AC
100
AcDbEntity
8
1
62
256
6
ByLayer
370
-1
48
1
60
0
100
AcDbEllipse
10
44.682128
20
3.782283
30
0
11
1.03489235687162
21
-0.0180641132829195
31
0
210
0
220
0
230
1
40
0.993199
41
-2.61799373359982
42
-0.515255861563288
0
ELLIPSE
5
AD
100
AcDbEntity
8
1
62
256
6
ByLayer
370
-1
48
1
60
0
100
AcDbEllipse
10
45.464904
20
3.315081
30
0
11
0.133877292013569
21
0.201597947393308
31
0
210
0
220
0
230
-1
40
0.501526
41
1.35914003042704
42
1.51111661218259
0
ELLIPSE
5
AE
100
AcDbEntity
8
1
62
256
6
ByLayer
370
-1
48
1
60
0
100
AcDbEllipse
10
44.682128
20
3.782283
30
0
11
1.03489235687162
21
-0.0180641132829195
31
0
210
0
220
0
230
1
40
0.993199
41
2.60965096395605
42
-2.61799373359982
0
ELLIPSE
5
AF
100
AcDbEntity
8
1
62
256
6
ByLayer
370
-1
48
1
60
0
100
AcDbEllipse
10
44.682128
20
3.782283
30
0
11
1.03489235687162
21
-0.0180641132829195
31
0
210
0
220
0
230
1
40
0.993199
41
-0.479812890585977
42
0.523598631206601
0
ELLIPSE
5
B0
100
AcDbEntity
8
1
62
256
6
ByLayer
370
-1
48
1
60
0
100
AcDbEllipse
10
44.682128
20
3.782283
30
0
11
1.03489235687162
21
-0.0180641132829195
31
0
210
0
220
0
230
1
40
0.993199
41
0.523598631206601
42
2.57420799297953
0
ELLIPSE
5
B1
100
AcDbEntity
8
1
62
256
6
ByLayer
370
-1
48
1
60
0
100
AcDbEllipse
10
43.899351
20
4.249485
30
0
11
0.117187496861786
21
0.211604234279273
31
0
210
0
220
0
230
-1
40
0.502003
41
-1.51901797167698
42
-1.36704140109479
0
ELLIPSE
5
B2
100
AcDbEntity
8
1
62
256
6
ByLayer
370
-1
48
1
60
0
100
AcDbEllipse
10
44.679893
20
3.654227
30
0
11
-0.791079496407736
21
0.0138083439731786
31
0
210
0
220
0
230
1
40
0.993199
41
0.0175726554429679
42
0.72457068223069
0
ELLIPSE
5
B3
100
AcDbEntity
8
1
62
256
6
ByLayer
370
-1
48
1
60
0
100
AcDbEllipse
10
44.679893
20
3.654227
30
0
11
-0.791079496407736
21
0.0138083439731786
31
0
210
0
220
0
230
1
40
0.993199
41
1.26345275058431
42
1.86791434358885
0
ELLIPSE
5
B4
100
AcDbEntity
8
1
62
256
6
ByLayer
370
-1
48
1
60
0
100
AcDbEllipse
10
44.679893
20
3.654227
30
0
11
-0.791079496407736
21
0.0138083439731786
31
0
210
0
220
0
230
1
40
0.993199
41
2.42564504310354
42
0
0
ELLIPSE
5
B5
100
AcDbEntity
8
1
62
256
6
ByLayer
370
-1
48
1
60
0
100
AcDbEllipse
10
44.679893
20
3.654227
30
0
11
-0.791079496407736
21
0.0138083439731786
31
0
210
0
220
0
230
1
40
0.993199
41
0
42
0.0175727421710584
0
ELLIPSE
5
B6
100
AcDbEntity
8
1
62
256
6
ByLayer
370
-1
48
1
60
0
100
AcDbEllipse
10
43.766882
20
3.670163
30
0
11
0.00420515706667025
21
0.240913286999308
31
0
210
0
220
0
230
-1
40
0.484598
41
1.57077338192699
42
3.0202355519505
0
ELLIPSE
5
B7
100
AcDbEntity
8
1
62
256
6
ByLayer
370
-1
48
1
60
0
100
AcDbEllipse
10
43.897116
20
4.121429
30
0
11
0.117187490728007
21
0.211604216678532
31
0
210
0
220
0
230
-1
40
0.502003
41
-2.16323838194569
42
0.21210231511917
0
ELLIPSE
5
B8
100
AcDbEntity
8
1
62
256
6
ByLayer
370
-1
48
1
60
0
100
AcDbEllipse
10
44.679893
20
3.654227
30
0
11
-0.927629373985772
21
0.0161918309522434
31
0
210
0
220
0
230
1
40
0.993199
41
-0.785508934729791
42
-0.783461107694425
0
ELLIPSE
5
B9
100
AcDbEntity
8
1
62
256
6
ByLayer
370
-1
48
1
60
0
100
AcDbEllipse
10
44.237095
20
4.447508
30
0
11
0.212375379678325
21
0.116415652567147
31
0
210
0
220
0
230
-1
40
0.479649
41
0.142133940170721
42
2.99209470705249
0
ELLIPSE
5
BA
100
AcDbEntity
8
1
62
256
6
ByLayer
370
-1
48
1
60
0
100
AcDbEllipse
10
44.695721
20
4.561028
30
0
11
0.242563050844952
21
-0.00423395380168133
31
0
210
0
220
0
230
-1
40
0.478028
41
-2.95781552882091
42
-0.183769894889748
0
ELLIPSE
5
BB
100
AcDbEntity
8
1
62
256
6
ByLayer
370
-1
48
1
60
0
100
AcDbEllipse
10
45.150106
20
4.431571
30
0
11
0.20818315865231
21
-0.123756529159829
31
0
210
0
220
0
230
-1
40
0.479649
41
0.125039104846495
42
2.99945871341924
0
ELLIPSE
5
BC
100
AcDbEntity
8
1
62
256
6
ByLayer
370
-1
48
1
60
0
100
AcDbEllipse
10
45.478497
20
4.093826
30
0
11
0.118064816778455
21
-0.210517823960729
31
0
210
0
220
0
230
-1
40
0.504176
41
3.02906083682423
42
-1.0300201688815
0
ELLIPSE
5
BD
100
AcDbEntity
8
1
62
256
6
ByLayer
370
-1
48
1
60
0
100
AcDbEllipse
10
45.592904
20
3.63829
30
0
11
0.00420515706665132
21
0.240913286999315
31
0
210
0
220
0
230
-1
40
0.484598
41
-2.99577671023521
42
-1.57078380208827
0
ELLIPSE
5
BE
100
AcDbEntity
8
1
62
256
6
ByLayer
370
-1
48
1
60
0
100
AcDbEllipse
10
45.462669
20
3.187024
30
0
11
0.133877291685633
21
0.20159794720019
31
0
210
0
220
0
230
-1
40
0.501526
41
-0.220003695573193
42
0.665306800660052
0
ELLIPSE
5
BF
100
AcDbEntity
8
1
62
256
6
ByLayer
370
-1
48
1
60
0
100
AcDbEllipse
10
44.682002
20
3.775072
30
0
11
0.927629373985772
21
-0.0161918309522518
31
0
210
0
220
0
230
1
40
0.993199
41
-1.83270648592648
42
-1.83248494326173
0
ELLIPSE
5
C0
100
AcDbEntity
8
1
62
256
6
ByLayer
370
-1
48
1
60
0
100
AcDbEllipse
10
44.682128
20
3.782283
30
0
11
1.2998020037033
21
-0.02268812836848
31
0
210
0
220
0
230
1
40
0.993199
41
0
42
6.28318530717959
0
ELLIPSE
5
C1
100
AcDbEntity
8
1
62
256
6
ByLayer
370
-1
48
1
60
0
100
AcDbEllipse
10
44.680299
20
3.67751
30
0
11
1.72473727414477
21
-0.0301054011043294
31
0
210
0
220
0
230
1
40
0.993199
41
3.14153595763642
42
-2.59205879388658E-16
0
ELLIPSE
5
C2
100
AcDbEntity
8
1
62
256
6
ByLayer
370
-1
48
1
60
0
100
AcDbEllipse
10
44.681775
20
3.762035
30
0
11
1.72473727414476
21
-0.0301054011043292
31
0
210
0
220
0
230
1
40
0.993199
41
0
42
6.28318530717959
0
ELLIPSE
5
C3
100
AcDbEntity
8
1
62
256
6
ByLayer
370
-1
48
1
60
0
100
AcDbEllipse
10
47.37619
20
-1.050756
30
0
11
0.396939534977047
21
-0.0069286053556044
31
0
210
0
220
0
230
1
40
0.993199
41
-2.0943951023933
42
1.40784049730943E-14
0
ELLIPSE
5
C4
100
AcDbEntity
8
1
62
256
6
ByLayer
370
-1
48
1
60
0
100
AcDbEllipse
10
44.680504
20
3.689257
30
0
11
-1.82965886345997
21
0.0319368142581824
31
0
210
0
220
0
230
1
40
0.993199
41
0
42
6.28318530717959
0
ELLIPSE
5
C5
100
AcDbEntity
8
1
62
256
6
ByLayer
370
-1
48
1
60
0
100
AcDbEllipse
10
44.680803
20
3.706403
30
0
11
1.88051284066892
21
-0.0328244737322397
31
0
210
0
220
0
230
1
40
0.993199
41
-0.639076616492738
42
-2.37734107521471E-16
0
ELLIPSE
5
C6
100
AcDbEntity
8
1
62
256
6
ByLayer
370
-1
48
1
60
0
100
AcDbEllipse
10
44.680803
20
3.706403
30
0
11
1.88051284066892
21
-0.0328244737322397
31
0
210
0
220
0
230
1
40
0.993199
41
0
42
0.0175727243955221
0
ELLIPSE
5
C7
100
AcDbEntity
8
1
62
256
6
ByLayer
370
-1
48
1
60
0
100
AcDbEllipse
10
44.680803
20
3.706403
30
0
11
1.88051284066892
21
-0.0328244737322397
31
0
210
0
220
0
230
1
40
0.993199
41
0.017572951142414
42
-2.50243341701112
0
ELLIPSE
5
C8
100
AcDbEntity
8
1
62
256
6
ByLayer
370
-1
48
1
60
0
100
AcDbEllipse
10
39.126863
20
3.872875
30
0
11
0.396939534977024
21
-0.006928605355604
31
0
210
0
220
0
230
1
40
0.993199
41
2.09439510239311
42
-2.09439510239327
0
ELLIPSE
5
C9
100
AcDbEntity
8
1
62
256
6
ByLayer
370
-1
48
1
60
0
100
AcDbEllipse
10
44.682017
20
3.77591
30
0
11
1.92225741840915
21
-0.0335531280470968
31
0
210
0
220
0
230
1
40
0.993199
41
0
42
6.28318530717959
0
ELLIPSE
5
CA
100
AcDbEntity
8
1
62
256
6
ByLayer
370
-1
48
1
60
0
100
AcDbEllipse
10
47.542997
20
8.505611
30
0
11
0.396939534977016
21
-0.00692860535560386
31
0
210
0
220
0
230
1
40
0.993199
41
0
42
2.09439510239312
0
POINT
5
41
100
AcDbEntity
8
80
62
256
6
ByLayer
370
-1
48
1
60
0
100
AcDbPoint
10
0
20
0
30
0
39
0
210
0
220
0
230
1
50
360
0
POINT
5
43
100
AcDbEntity
8
81
62
256
6
ByLayer
370
-1
48
1
60
0
100
AcDbPoint
10
47.94
20
8.9
30
0
39
0
210
0
220
0
230
1
50
360
0
POINT
5
45
100
AcDbEntity
8
1
62
256
6
ByLayer
370
-1
48
1
60
0
100
AcDbPoint
10
-103.31
20
0
30
0
39
0
210
0
220
0
230
1
50
360
0
POINT
5
47
100
AcDbEntity
8
2
62
256
6
ByLayer
370
-1
48
1
60
0
100
AcDbPoint
10
47.94
20
8.9
30
0
39
0
210
0
220
0
230
1
50
360
0
SPLINE
5
CB
100
AcDbEntity
8
1
62
256
6
ByLayer
370
-1
48
1
60
0
100
AcDbSpline
70
4
71
3
72
8
73
4
40
0
40
0
40
0
40
0
40
1
40
1
40
1
40
1
41
1
10
45.6500742397283
20
7.91449829618256
30
0
41
1
10
45.3844245359678
20
7.89262124090595
30
0
41
1
10
45.1187749749659
20
7.87074248053818
30
0
41
1
10
44.8531255602044
20
7.84886197388164
30
0
0
SPLINE
5
CC
100
AcDbEntity
8
1
62
256
6
ByLayer
370
-1
48
1
60
0
100
AcDbSpline
70
4
71
3
72
8
73
4
40
0
40
0
40
0
40
0
40
1
40
1
40
1
40
1
41
1
10
34.5827182280669
20
5.90671974141412
30
0
41
1
10
34.1612041374725
20
5.89986350043733
30
0
41
1
10
33.7596538542421
20
5.88773579253217
30
0
41
1
10
33.3796262516183
20
5.85950421161806
30
0
0
SPLINE
5
CD
100
AcDbEntity
8
1
62
256
6
ByLayer
370
-1
48
1
60
0
100
AcDbSpline
70
4
71
3
72
8
73
4
40
0
40
0
40
0
40
0
40
1
40
1
40
1
40
1
41
1
10
32.7126220386345
20
-2.73072447930457
30
0
41
1
10
32.6588629236716
20
-2.61540882424353
30
0
41
1
10
32.6072198075626
20
-2.49815410982407
30
0
41
1
10
32.557282514637
20
-2.37908727246412
30
0
0
SPLINE
5
CE
100
AcDbEntity
8
1
62
256
6
ByLayer
370
-1
48
1
60
0
100
AcDbSpline
70
4
71
3
72
10
73
6
40
0
40
0
40
0
40
0
40
0.5
40
0.5
40
1
40
1
40
1
40
1
41
1
10
31.1510462005845
20
2.37908727246381
30
0
41
1
10
31.0010233803137
20
3.07404291884657
30
0
41
1
10
30.8934264331195
20
3.73110024907282
30
0
41
1
10
30.9711288365519
20
4.82520239684817
30
0
41
1
10
31.1776363471859
20
5.24748775547752
30
0
41
1
10
31.5900075598095
20
5.50749999999999
30
0
0
SPLINE
5
CF
100
AcDbEntity
8
1
62
256
6
ByLayer
370
-1
48
1
60
0
100
AcDbSpline
70
4
71
3
72
8
73
4
40
0
40
0
40
0
40
0
40
1
40
1
40
1
40
1
41
1
10
32.7876220386345
20
-2.82902291258696
30
0
41
1
10
33.233545552771
20
-3.72835061442208
30
0
41
1
10
33.8023716602873
20
-4.42143167363352
30
0
41
1
10
34.5827182280669
20
-4.87462747008826
30
0
0
SPLINE
5
D0
100
AcDbEntity
8
1
62
256
6
ByLayer
370
-1
48
1
60
0
100
AcDbSpline
70
4
71
3
72
8
73
4
40
0
40
0
40
0
40
0
40
1
40
1
40
1
40
1
41
1
10
38.9614485709903
20
4.78405963236909
30
0
41
1
10
38.9259498132777
20
4.81297098976955
30
0
41
1
10
38.8900461115306
20
4.83994853323395
30
0
41
1
10
38.8538512744067
20
4.86478958116197
30
0
0
SPLINE
5
D1
100
AcDbEntity
8
1
62
256
6
ByLayer
370
-1
48
1
60
0
100
AcDbSpline
70
4
71
3
72
8
73
4
40
0
40
0
40
0
40
0
40
1
40
1
40
1
40
1
41
1
10
34.5827182280668
20
5.90671974141438
30
0
41
1
10
35.0386330331857
20
6.18087648835623
30
0
41
1
10
35.5094211923329
20
6.45212278093177
30
0
41
1
10
35.9897024956554
20
6.72965606202655
30
0
0
SPLINE
5
D2
100
AcDbEntity
8
1
62
256
6
ByLayer
370
-1
48
1
60
0
100
AcDbSpline
70
4
71
3
72
8
73
4
40
0
40
0
40
0
40
0
40
1
40
1
40
1
40
1
41
1
10
34.885250247549
20
-5.20080718979688
30
0
41
1
10
34.8851502160152
20
-5.33407763155699
30
0
41
1
10
34.8850525549884
20
-5.45249557707811
30
0
41
1
10
34.8849572012867
20
-5.55645787098914
30
0
0
SPLINE
5
D3
100
AcDbEntity
8
1
62
256
6
ByLayer
370
-1
48
1
60
0
100
AcDbSpline
70
4
71
3
72
8
73
4
40
0
40
0
40
0
40
0
40
1
40
1
40
1
40
1
41
1
10
44.7642094038456
20
8.16113570527475
30
0
41
1
10
42.3172730192932
20
7.96001641652637
30
0
41
1
10
39.870346208069
20
7.75878250681168
30
0
41
1
10
37.4234315300001
20
7.55740361288974
30
0
0
SPLINE
5
D4
100
AcDbEntity
8
1
62
256
6
ByLayer
370
-1
48
1
60
0
100
AcDbSpline
70
4
71
3
72
8
73
4
40
0
40
0
40
0
40
0
40
1
40
1
40
1
40
1
41
1
10
32.7126220386345
20
-2.7307244793042
30
0
41
1
10
32.7370843901495
20
-2.76477663509306
30
0
41
1
10
32.7620831481302
20
-2.79757430000802
30
0
41
1
10
32.7876220386345
20
-2.82902291258699
30
0
0
SPLINE
5
D5
100
AcDbEntity
8
1
62
256
6
ByLayer
370
-1
48
1
60
0
100
AcDbSpline
70
4
71
3
72
8
73
4
40
0
40
0
40
0
40
0
40
1
40
1
40
1
40
1
41
1
10
35.4739605535923
20
-5.43823013148125
30
0
41
1
10
35.2689286953494
20
-5.3697910559971
30
0
41
1
10
35.0712709447124
20
-5.29055230090955
30
0
41
1
10
34.885250247549
20
-5.20080718979688
30
0
0
SPLINE
5
D6
100
AcDbEntity
8
1
62
256
6
ByLayer
370
-1
48
1
60
0
100
AcDbSpline
70
4
71
3
72
8
73
4
40
0
40
0
40
0
40
0
40
1
40
1
40
1
40
1
41
1
10
34.885250247549
20
-5.20080718979688
30
0
41
1
10
34.7821614445358
20
-5.09443919164374
30
0
41
1
10
34.6812995494479
20
-4.98581705691845
30
0
41
1
10
34.5827182280669
20
-4.87462747008846
30
0
0
SPLINE
5
D7
100
AcDbEntity
8
1
62
256
6
ByLayer
370
-1
48
1
60
0
100
AcDbSpline
70
4
71
3
72
48
73
44
40
-0.0161752201612964
40
-0.0161752201612964
40
0
40
0
40
0.0807728723234566
40
0.0807728723234566
40
0.12525177808047
40
0.12525177808047
40
0.162569774581614
40
0.162569774581614
40
0.200253486408411
40
0.200253486408411
40
0.232731580948198
40
0.232731580948198
40
0.264239528386357
40
0.264239528386357
40
0.298247344782258
40
0.298247344782258
40
0.337272801791587
40
0.337272801791587
40
0.395636448318168
40
0.395636448318168
40
0.473328673965279
40
0.473328673965279
40
0.573605176020144
40
0.573605176020144
40
0.647402561429326
40
0.647402561429326
40
0.676107918210623
40
0.676107918210623
40
0.705248482702368
40
0.705248482702368
40
0.721915489543943
40
0.721915489543943
40
0.738695565312054
40
0.738695565312054
40
0.758486749469225
40
0.758486749469225
40
0.791547221177445
40
0.791547221177445
40
0.862960713198807
40
0.862960713198807
40
0.983824779838704
40
0.983824779838704
40
1
40
1
40
1.08077287232346
40
1.08077287232346
41
1
10
33.8135249020831
20
1.47480004070451
30
0
41
1
10
33.6204421180971
20
1.38519137793702
30
0
41
1
10
33.4512132704811
20
1.33894426727781
30
0
41
1
10
33.1908774730662
20
1.3467560988133
30
0
41
1
10
33.0966463769094
20
1.36580812997047
30
0
41
1
10
32.9308688390761
20
1.43840873153758
30
0
41
1
10
32.856432750753
20
1.48694543687907
30
0
41
1
10
32.7208818872255
20
1.61320892884993
30
0
41
1
10
32.657856740274
20
1.69337942401748
30
0
41
1
10
32.5618209216044
20
1.85944843424414
30
0
41
1
10
32.5245424851031
20
1.9452159103694
30
0
41
1
10
32.470491514356
20
2.11620305224867
30
0
41
1
10
32.4524054788236
20
2.20346144956204
30
0
41
1
10
32.4335044257566
20
2.37837612516253
30
0
41
1
10
32.4338830099169
20
2.46761737334219
30
0
41
1
10
32.4544064452859
20
2.64562018181226
30
0
41
1
10
32.4776253332258
20
2.73449896430029
30
0
41
1
10
32.5596111381241
20
2.93217097869675
30
0
41
1
10
32.631508068962
20
3.03281978648576
30
0
41
1
10
32.8328388895052
20
3.22300700351667
30
0
41
1
10
32.9766827626063
20
3.30203758781823
30
0
41
1
10
33.3388931706559
20
3.42589936124426
30
0
41
1
10
33.5730972024943
20
3.45783266125773
30
0
41
1
10
33.9972265406689
20
3.45265466365061
30
0
41
1
10
34.1873007939246
20
3.43234748848488
30
0
41
1
10
34.4477614793785
20
3.36011783729603
30
0
41
1
10
34.5212469712954
20
3.33451326687538
30
0
41
1
10
34.6630048960459
20
3.26672120515153
30
0
41
1
10
34.7330836778448
20
3.22338046671041
30
0
41
1
10
34.8247948576592
20
3.13452369681795
30
0
41
1
10
34.8547602352267
20
3.09689111161816
30
0
41
1
10
34.9003095203315
20
3.01451974499577
30
0
41
1
10
34.9161946966406
20
2.96870386356124
30
0
41
1
10
34.9337202193989
20
2.86849048367321
30
0
41
1
10
34.9329521579037
20
2.81264772205876
30
0
41
1
10
34.9132110743207
20
2.67041278638493
30
0
41
1
10
34.8832231265372
20
2.58533632961897
30
0
41
1
10
34.7679791310296
20
2.33611599653625
30
0
41
1
10
34.6573664336528
20
2.1856349670546
30
0
41
1
10
34.3424096594682
20
1.82557616390878
30
0
41
1
10
34.1144044345262
20
1.63725488886752
30
0
41
1
10
33.8459123880418
20
1.49116809645614
30
0
41
1
10
33.8135249020831
20
1.47480004070451
30
0
41
1
10
33.6204421180971
20
1.38519137793702
30
0
0
SPLINE
5
D8
100
AcDbEntity
8
1
62
256
6
ByLayer
370
-1
48
1
60
0
100
AcDbSpline
70
4
71
3
72
8
73
4
40
0
40
0
40
0
40
0
40
1
40
1
40
1
40
1
41
1
10
35.9897024956554
20
6.72965606202655
30
0
41
1
10
36.4675041006725
20
7.00575643536064
30
0
41
1
10
36.9454257932109
20
7.28165191096494
30
0
41
1
10
37.4234315300001
20
7.55740361288971
30
0
0
SPLINE
5
D9
100
AcDbEntity
8
1
62
256
6
ByLayer
370
-1
48
1
60
0
100
AcDbSpline
70
4
71
3
72
8
73
4
40
0
40
0
40
0
40
0
40
1
40
1
40
1
40
1
41
1
10
34.5827182280665
20
-5.61712481024364
30
0
41
1
10
34.6717951571908
20
-5.59924483735139
30
0
41
1
10
34.7736189482671
20
-5.57880624969317
30
0
41
1
10
34.8849572012866
20
-5.55645787098916
30
0
0
SPLINE
5
DA
100
AcDbEntity
8
SK1
62
256
6
ByLayer
370
-1
48
1
60
0
100
AcDbSpline
70
4
71
3
72
8
73
4
40
0
40
0
40
0
40
0
40
1
40
1
40
1
40
1
41
1
10
-102.294999997074
20
5.50749999999999
30
0
41
1
10
-102.295019051864
20
5.50749999999999
30
0
41
1
10
-102.108837467164
20
5.50749999999999
30
0
41
1
10
-101.81
20
5.50749999999999
30
0
0
SPLINE
5
DB
100
AcDbEntity
8
SK1
62
256
6
ByLayer
370
-1
48
1
60
0
100
AcDbSpline
70
4
71
3
72
10
73
6
40
0
40
0
40
0
40
0
40
0.5
40
0.5
40
1
40
1
40
1
40
1
41
1
10
-101.81
20
2.37908727246406
30
0
41
1
10
-102.110605723759
20
1.62191462878994
30
0
41
1
10
-102.302681606333
20
0.818569788065645
30
0
41
1
10
-102.302318123354
20
-0.821008410924293
30
0
41
1
10
-102.107009922509
20
-1.63097181607304
30
0
41
1
10
-101.81
20
-2.37908727246398
30
0
0
SPLINE
5
DC
100
AcDbEntity
8
1
62
256
6
ByLayer
370
-1
48
1
60
0
100
AcDbSpline
70
4
71
3
72
34
73
30
40
0
40
0
40
0
40
0
40
0.0484619167058946
40
0.0484619167058946
40
0.123250895849407
40
0.123250895849407
40
0.183570929310055
40
0.183570929310055
40
0.243735544403376
40
0.243735544403376
40
0.303833391334395
40
0.303833391334395
40
0.4015394815832
40
0.4015394815832
40
0.499173133036517
40
0.499173133036517
40
0.596804264321232
40
0.596804264321232
40
0.692486849043134
40
0.692486849043134
40
0.773267829409155
40
0.773267829409155
40
0.836555694129891
40
0.836555694129891
40
0.884954691233118
40
0.884954691233118
40
0.961866476551857
40
0.961866476551857
40
1
40
1
40
1
40
1
41
1
10
43.7789535627348
20
3.55181832697528
30
0
41
1
10
43.7869454913004
20
3.55313177533992
30
0
41
1
10
43.7946008182271
20
3.55611213671384
30
0
41
1
10
43.8122334826223
20
3.56634810152255
30
0
41
1
10
43.8216060048698
20
3.57513864686834
30
0
41
1
10
43.8361938537995
20
3.59305894727388
30
0
41
1
10
43.8419758748101
20
3.60194606245096
30
0
41
1
10
43.852221655705
20
3.62066488165192
30
0
41
1
10
43.8567196542488
20
3.63055738927156
30
0
41
1
10
43.8646227082771
20
3.65099100059768
30
0
41
1
10
43.868043865501
20
3.66157497999359
30
0
41
1
10
43.8757566855344
20
3.68993947204541
30
0
41
1
10
43.8792962483324
20
3.70820730571236
30
0
41
1
10
43.8841198243573
20
3.7453247102836
30
0
41
1
10
43.8854188467067
20
3.76430189075637
30
0
41
1
10
43.8858383433424
20
3.80238744483469
30
0
41
1
10
43.8849603816546
20
3.82161762904036
30
0
41
1
10
43.880983002666
20
3.85934476442327
30
0
41
1
10
43.8779179673281
20
3.87797491891288
30
0
41
1
10
43.8700141001077
20
3.91149763840951
30
0
41
1
10
43.8655033138099
20
3.92662148570457
30
0
41
1
10
43.8555965616173
20
3.95251620268846
30
0
41
1
10
43.8505762126826
20
3.96358997992661
30
0
41
1
10
43.8403322234058
20
3.98201941535638
30
0
41
1
10
43.8354062971608
20
3.98968252211898
30
0
41
1
10
43.8213439423875
20
4.00786830841679
30
0
41
1
10
43.8111325902216
20
4.01782153993716
30
0
41
1
10
43.7937224870553
20
4.02786140013456
30
0
41
1
10
43.7874643529664
20
4.03042590345157
30
0
41
1
10
43.7810409938489
20
4.03186848036768
30
0
0
SPLINE
5
DD
100
AcDbEntity
8
1
62
256
6
ByLayer
370
-1
48
1
60
0
100
AcDbSpline
70
4
71
3
72
36
73
32
40
0
40
0
40
0
40
0
40
0.0492962859145356
40
0.0492962859145356
40
0.128955121084939
40
0.128955121084939
40
0.193390858861484
40
0.193390858861484
40
0.257664558572678
40
0.257664558572678
40
0.321869855697259
40
0.321869855697259
40
0.386043638224056
40
0.386043638224056
40
0.490448583703922
40
0.490448583703922
40
0.594841290248697
40
0.594841290248697
40
0.692807648700862
40
0.692807648700862
40
0.776462598779222
40
0.776462598779222
40
0.842223390286846
40
0.842223390286846
40
0.892525018755657
40
0.892525018755657
40
0.931489584936074
40
0.931489584936074
40
0.988987173586031
40
0.988987173586031
40
1
40
1
40
1
40
1
41
1
10
45.5738892922963
20
3.52107507907394
30
0
41
1
10
45.5660669604297
20
3.5230407377901
30
0
41
1
10
45.5586863671421
20
3.52659164792615
30
0
41
1
10
45.5413366285107
20
3.53836714824283
30
0
41
1
10
45.5321688677709
20
3.54824869518771
30
0
41
1
10
45.5181230022041
20
3.56807752862988
30
0
41
1
10
45.5126536390552
20
3.5778215383551
30
0
41
1
10
45.503139361035
20
3.59821072498784
30
0
41
1
10
45.4990628601895
20
3.60892265117698
30
0
41
1
10
45.4920910865109
20
3.63095507094738
30
0
41
1
10
45.4891815092215
20
3.64232269145717
30
0
41
1
10
45.4844044811838
20
3.66547561225039
30
0
41
1
10
45.4825296075692
20
3.67729896038071
30
0
41
1
10
45.4788739218518
20
3.70867572625528
30
0
41
1
10
45.4778664107022
20
3.72856652347957
30
0
41
1
10
45.4782551774386
20
3.7684622130858
30
0
41
1
10
45.4796528052006
20
3.78860818905042
30
0
41
1
10
45.484748166497
20
3.82724089467942
30
0
41
1
10
45.4883140473734
20
3.84588216894031
30
0
41
1
10
45.4971547060262
20
3.87955940922899
30
0
41
1
10
45.5021291382895
20
3.89482682215393
30
0
41
1
10
45.5128732388676
20
3.92096148729783
30
0
41
1
10
45.5182751133761
20
3.93214203929881
30
0
41
1
10
45.5291882363833
20
3.95071090168989
30
0
41
1
10
45.5344048988278
20
3.95841889374981
30
0
41
1
10
45.5446193261088
20
3.97101097773486
30
0
41
1
10
45.5494292081062
20
3.97617013196478
30
0
41
1
10
45.5621479097351
20
3.98753215405452
30
0
41
1
10
45.5706390653972
20
3.99322471664874
30
0
41
1
10
45.5814654051157
20
3.99754835341363
30
0
41
1
10
45.5832519658143
20
3.99817623642707
30
0
41
1
10
45.5850570816422
20
3.99872113970346
30
0
0
SPLINE
5
DE
100
AcDbEntity
8
1
62
256
6
ByLayer
370
-1
48
1
60
0
100
AcDbSpline
70
4
71
3
72
24
73
20
40
0
40
0
40
0
40
0
40
0.157270274760276
40
0.157270274760276
40
0.348947819267328
40
0.348947819267328
40
0.444423884530224
40
0.444423884530224
40
0.539980602797224
40
0.539980602797224
40
0.635702979245276
40
0.635702979245276
40
0.713564009483654
40
0.713564009483654
40
0.838051308771963
40
0.838051308771963
40
0.924252902185499
40
0.924252902185499
40
1
40
1
40
1
40
1
41
1
10
45.5873416929091
20
4.28056546956844
30
0
41
1
10
45.5954365494281
20
4.26606336493987
30
0
41
1
10
45.6027903466423
20
4.25109270974212
30
0
41
1
10
45.6172274670334
20
4.21710346205549
30
0
41
1
10
45.6239500520811
20
4.19781959666887
30
0
41
1
10
45.6316400805901
20
4.16833389725548
30
0
41
1
10
45.6338070092535
20
4.15839626645791
30
0
41
1
10
45.637184480325
20
4.13837311155376
30
0
41
1
10
45.6383999786308
20
4.12825873466326
30
0
41
1
10
45.6396293376255
20
4.10799256249837
30
0
41
1
10
45.6396451056561
20
4.09779239784916
30
0
41
1
10
45.6382441704134
20
4.07950276182478
30
0
41
1
10
45.6370882172154
20
4.07132855141114
30
0
41
1
10
45.6324052617151
20
4.05080288195396
30
0
41
1
10
45.6277526951933
20
4.03846934722665
30
0
41
1
10
45.6163537175846
20
4.02070240431354
30
0
41
1
10
45.6105499912589
20
4.01417333629186
30
0
41
1
10
45.5982217267427
20
4.00457008085124
30
0
41
1
10
45.5917537097316
20
4.0010780849567
30
0
41
1
10
45.585057081643
20
3.99872113970073
30
0
0
SPLINE
5
DF
100
AcDbEntity
8
1
62
256
6
ByLayer
370
-1
48
1
60
0
100
AcDbSpline
70
4
71
3
72
42
73
38
40
0
40
0
40
0
40
0
40
0.0453868446055165
40
0.0453868446055165
40
0.0855289172226813
40
0.0855289172226813
40
0.136755260759439
40
0.136755260759439
40
0.176187381922998
40
0.176187381922998
40
0.232899104725477
40
0.232899104725477
40
0.289415721421919
40
0.289415721421919
40
0.345854377934178
40
0.345854377934178
40
0.459254087222196
40
0.459254087222196
40
0.515653380606242
40
0.515653380606242
40
0.572053913253526
40
0.572053913253526
40
0.659762760606549
40
0.659762760606549
40
0.726494882950747
40
0.726494882950747
40
0.778219441680419
40
0.778219441680419
40
0.861348933301114
40
0.861348933301114
40
0.909456127368922
40
0.909456127368922
40
0.950205311078191
40
0.950205311078191
40
0.991117202000534
40
0.991117202000534
40
1
40
1
40
1
40
1
41
1
10
44.4575473644045
20
4.6692147067368
30
0
41
1
10
44.4552850382374
20
4.67765221740385
30
0
41
1
10
44.4546608652672
20
4.68672384143565
30
0
41
1
10
44.4571416253148
20
4.70329297681781
30
0
41
1
10
44.459846210596
20
4.71104686499882
30
0
41
1
10
44.4685695002376
20
4.72724235746702
30
0
41
1
10
44.4753735960907
20
4.73555954057323
30
0
41
1
10
44.4890075160961
20
4.74843204773069
30
0
41
1
10
44.4955685444112
20
4.75351976136869
30
0
41
1
10
44.5123305283469
20
4.76470359394253
30
0
41
1
10
44.5229569148784
20
4.7703399957266
30
0
41
1
10
44.5447941821682
20
4.78003535164643
30
0
41
1
10
44.5560782782976
20
4.78412873860179
30
0
41
1
10
44.5789695039422
20
4.79107361525377
30
0
41
1
10
44.5906178877474
20
4.79393689654145
30
0
41
1
10
44.6258882117218
20
4.80096332455005
30
0
41
1
10
44.6499138372433
20
4.80358894811769
30
0
41
1
10
44.6858741320616
20
4.80488150106453
30
0
41
1
10
44.6978627551086
20
4.80486918460878
30
0
41
1
10
44.7217898920419
20
4.80397010313007
30
0
41
1
10
44.7337457217656
20
4.80308274181593
30
0
41
1
10
44.7641159754644
20
4.79966394631631
30
0
41
1
10
44.782511683996
20
4.79649457138086
30
0
41
1
10
44.8142920589187
20
4.78871343972617
30
0
41
1
10
44.8278748593264
20
4.78461388769847
30
0
41
1
10
44.8513288865099
20
4.77577588719083
30
0
41
1
10
44.8613845761851
20
4.77137356882756
30
0
41
1
10
44.8864928116068
20
4.75827727343199
30
0
41
1
10
44.9012899437234
20
4.7484390129722
30
0
41
1
10
44.9205914581573
20
4.72937748878493
30
0
41
1
10
44.9268997787688
20
4.72147104732898
30
0
41
1
10
44.935536679349
20
4.70565759141317
30
0
41
1
10
44.9383754534953
20
4.69776650315686
30
0
41
1
10
44.9409002291054
20
4.6818543824474
30
0
41
1
10
44.9405937265757
20
4.67363597539185
30
0
41
1
10
44.9384835482748
20
4.66419402391293
30
0
41
1
10
44.9380355001935
20
4.6625049456334
30
0
41
1
10
44.9375251521096
20
4.66083666328825
30
0
0
SPLINE
5
E0
100
AcDbEntity
8
1
62
256
6
ByLayer
370
-1
48
1
60
0
100
AcDbSpline
70
4
71
3
72
34
73
30
40
0
40
0
40
0
40
0
40
0.048935220944804
40
0.048935220944804
40
0.117200042217523
40
0.117200042217523
40
0.171506955646267
40
0.171506955646267
40
0.225668649239311
40
0.225668649239311
40
0.27976532045938
40
0.27976532045938
40
0.373225321592568
40
0.373225321592568
40
0.466583477789771
40
0.466583477789771
40
0.559915867375187
40
0.559915867375187
40
0.653268378335636
40
0.653268378335636
40
0.744703146931324
40
0.744703146931324
40
0.818565955739602
40
0.818565955739602
40
0.875584577609738
40
0.875584577609738
40
0.965112275153902
40
0.965112275153902
40
1
40
1
40
1
40
1
41
1
10
45.3326959209039
20
3.1057592993273
30
0
41
1
10
45.3277236733889
20
3.11175781622055
30
0
41
1
10
45.3212723431745
20
3.11666212847612
30
0
41
1
10
45.3042314449013
20
3.12556586573322
30
0
41
1
10
45.2927649991748
20
3.1286902487717
30
0
41
1
10
45.2715483911124
20
3.13166966745777
30
0
41
1
10
45.2617558462285
20
3.13208537375766
30
0
41
1
10
45.2420121002733
20
3.13157351813413
30
0
41
1
10
45.2319967444878
20
3.13064589587046
30
0
41
1
10
45.2119514527286
20
3.1277586149746
30
0
41
1
10
45.2018809271162
20
3.12579294958783
30
0
41
1
10
45.174546519659
20
3.11929625840713
30
0
41
1
10
45.1572457883841
20
3.11391694674526
30
0
41
1
10
45.1232679778355
20
3.10129019011527
30
0
41
1
10
45.106477211413
20
3.09399844835252
30
0
41
1
10
45.0738020008217
20
3.07786979826278
30
0
41
1
10
45.057822365804
20
3.06898538443264
30
0
41
1
10
45.0271101730988
20
3.04986330553734
30
0
41
1
10
45.0122869763154
20
3.03957011522627
30
0
41
1
10
44.9846364393112
20
3.01795630188738
30
0
41
1
10
44.9716812312467
20
3.00659301770668
30
0
41
1
10
44.9503407102813
20
2.98496901015687
30
0
41
1
10
44.9414944105295
20
2.97485425648855
30
0
41
1
10
44.927722516371
20
2.95622749211108
30
0
41
1
10
44.9223283065049
20
2.94782653441547
30
0
41
1
10
44.9108949275409
20
2.92583158587863
30
0
41
1
10
44.9059468609316
20
2.91152104761142
30
0
41
1
10
44.9050003669142
20
2.89191658318887
30
0
41
1
10
44.9054122464532
20
2.88634216935179
30
0
41
1
10
44.9066561925087
20
2.88097923376299
30
0
0
SPLINE
5
E1
100
AcDbEntity
8
1
62
256
6
ByLayer
370
-1
48
1
60
0
100
AcDbSpline
70
4
71
3
72
24
73
20
40
0
40
0
40
0
40
0
40
0.157270274858751
40
0.157270274858751
40
0.348947819419535
40
0.348947819419535
40
0.444423884709126
40
0.444423884709126
40
0.539980603002982
40
0.539980603002982
40
0.635702979478052
40
0.635702979478052
40
0.713564009708436
40
0.713564009708436
40
0.838051309002631
40
0.838051309002631
40
0.924252902432744
40
0.924252902432744
40
1
40
1
40
1
40
1
41
1
10
43.7769142980857
20
3.28399977242293
30
0
41
1
10
43.785009158824
20
3.2694976701093
30
0
41
1
10
43.7938698639607
20
3.2553565056356
30
0
41
1
10
43.8151205166525
20
3.22511782677654
30
0
41
1
10
43.8279142244854
20
3.20917586437159
30
0
41
1
10
43.8487630004444
20
3.18693351333062
30
0
41
1
10
43.8560007615878
20
3.17978716691115
30
0
41
1
10
43.8710714119999
20
3.16620062551257
30
0
41
1
10
43.8789260095508
20
3.15974079924698
30
0
41
1
10
43.8952537187816
20
3.14778564688425
30
0
41
1
10
43.9037663564513
20
3.14226265892813
30
0
41
1
10
43.91972199404
20
3.13352710121706
30
0
41
1
10
43.927109541311
20
3.13005573585065
30
0
41
1
10
43.9465150317422
20
3.12278976351988
30
0
41
1
10
43.9590588226532
20
3.11992211512913
30
0
41
1
10
43.9793628526031
20
3.11960637182113
30
0
41
1
10
43.9875920240345
20
3.12080183590689
30
0
41
1
10
44.0014925833335
20
3.12563646744206
30
0
41
1
10
44.0074877220945
20
3.12900492535482
30
0
41
1
10
44.012637761147
20
3.13316908230414
30
0
0
SPLINE
5
E2
100
AcDbEntity
8
1
62
256
6
ByLayer
370
-1
48
1
60
0
100
AcDbSpline
70
4
71
3
72
36
73
32
40
0
40
0
40
0
40
0
40
0.0492962859085578
40
0.0492962859085578
40
0.128955121069239
40
0.128955121069239
40
0.19339085883788
40
0.19339085883788
40
0.257664558541205
40
0.257664558541205
40
0.32186985565788
40
0.32186985565788
40
0.386043638176868
40
0.386043638176868
40
0.490448583643988
40
0.490448583643988
40
0.594841290176003
40
0.594841290176003
40
0.692807648616154
40
0.692807648616154
40
0.776462598684365
40
0.776462598684365
40
0.842223390183966
40
0.842223390183966
40
0.892525018646679
40
0.892525018646679
40
0.931489584822408
40
0.931489584822408
40
0.988987173442034
40
0.988987173442034
40
1
40
1
40
1
40
1
41
1
10
44.4262813909727
20
2.88936420709851
30
0
41
1
10
44.4282621113812
20
2.8967260422383
30
0
41
1
10
44.4286539211531
20
2.90455534006094
30
0
41
1
10
44.4265931620189
20
2.92474679373476
30
0
41
1
10
44.4223220220373
20
2.9373237286822
30
0
41
1
10
44.4117187284272
20
2.9590475561638
30
0
41
1
10
44.4058387027583
20
2.96856551308974
30
0
41
1
10
44.3926453379814
20
2.98692951402924
30
0
41
1
10
44.3852889380346
20
2.9958359908843
30
0
41
1
10
44.3695183159845
20
3.01302500710994
30
0
41
1
10
44.3610700336223
20
3.02134379865379
30
0
41
1
10
44.343351877328
20
3.03737316147402
30
0
41
1
10
44.3340526676469
20
3.04510971845812
30
0
41
1
10
44.3087961915728
20
3.06459613912347
30
0
41
1
10
44.2922118939291
20
3.07591255709551
30
0
41
1
10
44.2579060874382
20
3.09671031344348
30
0
41
1
10
44.2400632655882
20
3.10626521454046
30
0
41
1
10
44.2047926809048
20
3.12267812985292
30
0
41
1
10
44.1872902877595
20
3.12972218720901
30
0
41
1
10
44.1545974175972
20
3.14053693093101
30
0
41
1
10
44.1393437991211
20
3.14466963525356
30
0
41
1
10
44.1122106622579
20
3.14995444160473
30
0
41
1
10
44.1002335547152
20
3.15156857994393
30
0
41
1
10
44.0794365272114
20
3.15268231083348
30
0
41
1
10
44.0704834723755
20
3.15259045727672
30
0
41
1
10
44.0550612729153
20
3.15107063438614
30
0
41
1
10
44.0484485801754
20
3.14994213179597
30
0
41
1
10
44.0328810539827
20
3.1457337507693
30
0
41
1
10
44.0240802186453
20
3.14190778469214
30
0
41
1
10
44.0153232298635
20
3.1354516058862
30
0
41
1
10
44.013950045001
20
3.13434017913394
30
0
41
1
10
44.012637761147
20
3.13316908230416
30
0
0
SPLINE
5
E3
100
AcDbEntity
8
1
62
256
6
ByLayer
370
-1
48
1
60
0
100
AcDbSpline
70
4
71
3
72
42
73
38
40
0
40
0
40
0
40
0
40
0.0453868446055404
40
0.0453868446055404
40
0.0855289172227204
40
0.0855289172227204
40
0.136755260759455
40
0.136755260759455
40
0.176187381923018
40
0.176187381923018
40
0.232899104725582
40
0.232899104725582
40
0.28941572142208
40
0.28941572142208
40
0.345854377934411
40
0.345854377934411
40
0.459254087222444
40
0.459254087222444
40
0.515653380606493
40
0.515653380606493
40
0.572053913253827
40
0.572053913253827
40
0.659762760606787
40
0.659762760606787
40
0.726494882950959
40
0.726494882950959
40
0.778219441680603
40
0.778219441680603
40
0.861348933301248
40
0.861348933301248
40
0.909456127369038
40
0.909456127369038
40
0.950205311078272
40
0.950205311078272
40
0.991117202000587
40
0.991117202000587
40
1
40
1
40
1
40
1
41
1
10
44.4264789757737
20
2.88930791414308
30
0
41
1
10
44.4239429212744
20
2.88206353916382
30
0
41
1
10
44.423022373518
20
2.87415586306764
30
0
41
1
10
44.424957760713
20
2.85948060865204
30
0
41
1
10
44.4274054086646
20
2.85251456707601
30
0
41
1
10
44.4355888406186
20
2.83778163333568
30
0
41
1
10
44.4421132941347
20
2.83007811768425
30
0
41
1
10
44.4553115850385
20
2.81799345032704
30
0
41
1
10
44.4616993667376
20
2.81315587198424
30
0
41
1
10
44.4780785940452
20
2.80241159201665
30
0
41
1
10
44.4885102905381
20
2.79689420896025
30
0
41
1
10
44.5100101094716
20
2.78725716149054
30
0
41
1
10
44.5211502461031
20
2.78310311433609
30
0
41
1
10
44.5437947878821
20
2.7759154817937
30
0
41
1
10
44.5553400236576
20
2.77286941641617
30
0
41
1
10
44.5903531312596
20
2.76515992831435
30
0
41
1
10
44.6142760259207
20
2.76190010483117
30
0
41
1
10
44.6501715537635
20
2.75948216024079
30
0
41
1
10
44.6621535317271
20
2.75908914721799
30
0
41
1
10
44.6860969087906
20
2.7591204621626
30
0
41
1
10
44.6980756337584
20
2.75954476850771
30
0
41
1
10
44.7285432870505
20
2.76170599197346
30
0
41
1
10
44.7470350167842
20
2.76403766801886
30
0
41
1
10
44.779058577256
20
2.77018862713749
30
0
41
1
10
44.7927712602668
20
2.77353004446826
30
0
41
1
10
44.8165081815837
20
2.78089903801259
30
0
41
1
10
44.82670559058
20
2.78461581411102
30
0
41
1
10
44.8522374345438
20
2.79578803583786
30
0
41
1
10
44.8673545539394
20
2.80428183431943
30
0
41
1
10
44.8872784045628
20
2.82087392654799
30
0
41
1
10
44.893845274075
20
2.82777974169551
30
0
41
1
10
44.9029997879615
20
2.84162033223944
30
0
41
1
10
44.9060970311223
20
2.84853692390044
30
0
41
1
10
44.9091431226808
20
2.86249097387255
30
0
41
1
10
44.909105926408
20
2.8697011119508
30
0
41
1
10
44.907305144354
20
2.87798445958728
30
0
41
1
10
44.9069124445732
20
2.87946628330997
30
0
41
1
10
44.9064567634787
20
2.88092987069462
30
0
0
SPLINE
5
E4
100
AcDbEntity
8
1
62
256
6
ByLayer
370
-1
48
1
60
0
100
AcDbSpline
70
4
71
3
72
22
73
18
40
0
40
0
40
0
40
0
40
0.0986113538167233
40
0.0986113538167233
40
0.183915555259507
40
0.183915555259507
40
0.299837676728639
40
0.299837676728639
40
0.483761977366435
40
0.483761977366435
40
0.58227624391509
40
0.58227624391509
40
0.774222172354351
40
0.774222172354351
40
0.965772861981278
40
0.965772861981278
40
1
40
1
40
1
40
1
41
1
10
45.3513735365286
20
4.41737074397318
30
0
41
1
10
45.3580644706399
20
4.42397368452302
30
0
41
1
10
45.3662387659252
20
4.42924419885034
30
0
41
1
10
45.3827923979568
20
4.43527173156829
30
0
41
1
10
45.3911803814785
20
4.43662941357559
30
0
41
1
10
45.4109176710308
20
4.43671717925437
30
0
41
1
10
45.4225600296468
20
4.43440525952471
30
0
41
1
10
45.4511582697017
20
4.42469334844307
30
0
41
1
10
45.4678653186459
20
4.41507242748813
30
0
41
1
10
45.4914213390027
20
4.39783716957254
30
0
41
1
10
45.4993564074712
20
4.39126305658544
30
0
41
1
10
45.5217385521942
20
4.37081307990235
30
0
41
1
10
45.5353634160077
20
4.35583177981425
30
0
41
1
10
45.5602960223741
20
4.32417898800665
30
0
41
1
10
45.571682868537
20
4.30740214991235
30
0
41
1
10
45.5837769222635
20
4.28686608945526
30
0
41
1
10
45.5855773631531
20
4.28372630319925
30
0
41
1
10
45.5873416929091
20
4.28056546956844
30
0
0
SPLINE
5
E5
100
AcDbEntity
8
1
62
256
6
ByLayer
370
-1
48
1
60
0
100
AcDbSpline
70
4
71
3
72
22
73
18
40
0
40
0
40
0
40
0
40
0.167842784210222
40
0.167842784210222
40
0.335898034442662
40
0.335898034442662
40
0.454065247786506
40
0.454065247786506
40
0.642558083153675
40
0.642558083153675
40
0.755508761164238
40
0.755508761164238
40
0.87015141205593
40
0.87015141205593
40
0.967012982263868
40
0.967012982263868
40
1
40
1
40
1
40
1
41
1
10
43.8190355923748
20
4.3499140825937
30
0
41
1
10
43.8280308712979
20
4.36278677824336
30
0
41
1
10
43.8377009959159
20
4.37519731899735
30
0
41
1
10
43.8583920022078
20
4.39869357689477
30
0
41
1
10
43.8694583932031
20
4.40983387729878
30
0
41
1
10
43.8895473484929
20
4.42714145802907
30
0
41
1
10
43.8982376995968
20
4.43383081784893
30
0
41
1
10
43.9216512420846
20
4.44931624893889
30
0
41
1
10
43.9372417070897
20
4.45727883989326
30
0
41
1
10
43.9631138774902
20
4.46452520193591
30
0
41
1
10
43.9732206351322
20
4.46600450384665
30
0
41
1
10
43.9929286237999
20
4.46524183566248
30
0
41
1
10
44.0027978175968
20
4.46286078133571
30
0
41
1
10
44.0187293471857
20
4.45476887257999
30
0
41
1
10
44.0253401253793
20
4.44954606930995
30
0
41
1
10
44.03271774154
20
4.44130263702007
30
0
41
1
10
44.0344929307544
20
4.43907284148423
30
0
41
1
10
44.036149129286
20
4.43675241024718
30
0
0
SPLINE
5
E6
100
AcDbEntity
8
1
62
256
6
ByLayer
370
-1
48
1
60
0
100
AcDbSpline
70
4
71
3
72
34
73
30
40
0
40
0
40
0
40
0
40
0.0493619475591861
40
0.0493619475591861
40
0.125539901664487
40
0.125539901664487
40
0.186980193980792
40
0.186980193980792
40
0.248262181512276
40
0.248262181512276
40
0.340547871918552
40
0.340547871918552
40
0.432709445704338
40
0.432709445704338
40
0.524833165866347
40
0.524833165866347
40
0.616962251766527
40
0.616962251766527
40
0.709145696793381
40
0.709145696793381
40
0.791292482820225
40
0.791292482820225
40
0.854807499468903
40
0.854807499468903
40
0.903519774516001
40
0.903519774516001
40
0.980968575571063
40
0.980968575571063
40
1
40
1
40
1
40
1
41
1
10
45.351373536529
20
4.41737074397275
30
0
41
1
10
45.3455303030713
20
4.4110685056076
30
0
41
1
10
45.3384369585223
20
4.40593033093168
30
0
41
1
10
45.319172712069
20
4.39585606635166
30
0
41
1
10
45.3060260551896
20
4.39225073130558
30
0
41
1
10
45.2819018302636
20
4.38886162986606
30
0
41
1
10
45.2707982584533
20
4.38845392182725
30
0
41
1
10
45.2485665658183
20
4.38929522981732
30
0
41
1
10
45.237365602511
20
4.39054610568473
30
0
41
1
10
45.2094470299741
20
4.39531680387279
30
0
41
1
10
45.1926715574574
20
4.39967977278127
30
0
41
1
10
45.1597160197456
20
4.41068608726886
30
0
41
1
10
45.1434242517367
20
4.41736902580826
30
0
41
1
10
45.1116775958523
20
4.43266271221921
30
0
41
1
10
45.0961331232771
20
4.4413174873761
30
0
41
1
10
45.0661707912506
20
4.46033510331063
30
0
41
1
10
45.0516706637402
20
4.47074973704923
30
0
41
1
10
45.0241683945616
20
4.49315238226893
30
0
41
1
10
45.0110820646167
20
4.50520673579237
30
0
41
1
10
44.98827819456
20
4.52942607791058
30
0
41
1
10
44.9782775729744
20
4.54150817803836
30
0
41
1
10
44.9625915378624
20
4.56398660588064
30
0
41
1
10
44.9564009793078
20
4.57420457951622
30
0
41
1
10
44.9472012433746
20
4.59285601075055
30
0
41
1
10
44.9437656186436
20
4.60119877193463
30
0
41
1
10
44.937009358053
20
4.62304425537229
30
0
41
1
10
44.9347981496418
20
4.63716532313313
30
0
41
1
10
44.9364013649095
20
4.65410637530704
30
0
41
1
10
44.9369423049311
20
4.6574770792765
30
0
41
1
10
44.9377227369104
20
4.6607803703329
30
0
0
SPLINE
5
E7
100
AcDbEntity
8
1
62
256
6
ByLayer
370
-1
48
1
60
0
100
AcDbSpline
70
4
71
3
72
22
73
18
40
0
40
0
40
0
40
0
40
0.0986113538176893
40
0.0986113538176893
40
0.183915555260491
40
0.183915555260491
40
0.299837676735543
40
0.299837676735543
40
0.48376197738617
40
0.48376197738617
40
0.582276243942062
40
0.582276243942062
40
0.774222172393891
40
0.774222172393891
40
0.965772862033419
40
0.965772862033419
40
1
40
1
40
1
40
1
41
1
10
43.7789535627347
20
3.55181832697579
30
0
41
1
10
43.7703019578223
20
3.54997583185519
30
0
41
1
10
43.7620094661035
20
3.54618205831409
30
0
41
1
10
43.7490039928573
20
3.53593852131439
30
0
41
1
10
43.7437973635278
20
3.52981292900046
30
0
41
1
10
43.7340865280767
20
3.51369071503063
30
0
41
1
10
43.7302917918288
20
3.50288131053557
30
0
41
1
10
43.7242874238906
20
3.47412208926616
30
0
41
1
10
43.7240273890274
20
3.45516148766222
30
0
41
1
10
43.726708893081
20
3.42643566848145
30
0
41
1
10
43.7282496440519
20
3.4163417471361
30
0
41
1
10
43.7341839048616
20
3.38683788795569
30
0
41
1
10
43.7399065891269
20
3.36750676356894
30
0
41
1
10
43.7539284327407
20
3.32984804635112
30
0
41
1
10
43.7622758360395
20
3.31139812017389
30
0
41
1
10
43.7734214486171
20
3.29033998194211
30
0
41
1
10
43.7751499674134
20
3.28716060554305
30
0
41
1
10
43.7769142980857
20
3.28399977242293
30
0
0
SPLINE
5
E8
100
AcDbEntity
8
1
62
256
6
ByLayer
370
-1
48
1
60
0
100
AcDbSpline
70
4
71
3
72
22
73
18
40
0
40
0
40
0
40
0
40
0.167842784246352
40
0.167842784246352
40
0.335898034469689
40
0.335898034469689
40
0.454065247807485
40
0.454065247807485
40
0.642558083166047
40
0.642558083166047
40
0.755508761174812
40
0.755508761174812
40
0.870151412064481
40
0.870151412064481
40
0.96701298227205
40
0.96701298227205
40
1
40
1
40
1
40
1
41
1
10
45.5918796722141
20
3.2917875943929
30
0
41
1
10
45.5991182655496
20
3.30570877229252
30
0
41
1
10
45.6056547777083
20
3.31998961759408
30
0
41
1
10
45.6169805793591
20
3.3490755216462
30
0
41
1
10
45.6217971469849
20
3.36394604498796
30
0
41
1
10
45.6280156506247
20
3.38953223998414
30
0
41
1
10
45.6300148215209
20
3.40021524769105
30
0
41
1
10
45.6332130761113
20
3.4277662246632
30
0
41
1
10
45.6333158267097
20
3.44497269726489
30
0
41
1
10
45.628378056235
20
3.47060805070723
30
0
41
1
10
45.625292710828
20
3.47996109280149
30
0
41
1
10
45.616168889106
20
3.49640676381722
30
0
41
1
10
45.6098971648842
20
3.50365945737207
30
0
41
1
10
45.5961644397923
20
3.51327273430439
30
0
41
1
10
45.5888820225708
20
3.51634211997603
30
0
41
1
10
45.578705314246
20
3.51857603080501
30
0
41
1
10
45.5760475677652
20
3.51899204418913
30
0
41
1
10
45.5733641554675
20
3.51926172068912
30
0
0
SPLINE
5
E9
100
AcDbEntity
8
1
62
256
6
ByLayer
370
-1
48
1
60
0
100
AcDbSpline
70
4
71
3
72
22
73
18
40
0
40
0
40
0
40
0
40
0.099135488406982
40
0.099135488406982
40
0.206229847800873
40
0.206229847800873
40
0.367627630833804
40
0.367627630833804
40
0.507529288583367
40
0.507529288583367
40
0.64701159378286
40
0.64701159378286
40
0.786332448957492
40
0.786332448957492
40
0.892876682573277
40
0.892876682573277
40
1
40
1
40
1
40
1
41
1
10
45.3326959209039
20
3.10575929932733
30
0
41
1
10
45.3403715441831
20
3.10163163064536
30
0
41
1
10
45.3493925690991
20
3.09913939851873
30
0
41
1
10
45.3688057177845
20
3.09757548764148
30
0
41
1
10
45.3795224103436
20
3.09870732336736
30
0
41
1
10
45.4056340593381
20
3.10487257143598
30
0
41
1
10
45.4211638994844
20
3.11158000098945
30
0
41
1
10
45.4483729944046
20
3.12680937176972
30
0
41
1
10
45.4605237680872
20
3.13511049031536
30
0
41
1
10
45.4835704205644
20
3.15312806302828
30
0
41
1
10
45.4945415901795
20
3.16290240169044
30
0
41
1
10
45.5153546607257
20
3.1834784276893
30
0
41
1
10
45.5252349288747
20
3.19431893829164
30
0
41
1
10
45.5417227754965
20
3.21417081256863
30
0
41
1
10
45.5485667348245
20
3.22303096401492
30
0
41
1
10
45.5616542052358
20
3.24121619278594
30
0
41
1
10
45.5679032805739
20
3.25055619705279
30
0
41
1
10
45.5738160754075
20
3.26008135445454
30
0
0
SPLINE
5
EA
100
AcDbEntity
8
1
62
256
6
ByLayer
370
-1
48
1
60
0
100
AcDbSpline
70
4
71
3
72
22
73
18
40
0
40
0
40
0
40
0
40
0.0991354884069646
40
0.0991354884069646
40
0.206229847800785
40
0.206229847800785
40
0.367627630833822
40
0.367627630833822
40
0.50752928858333
40
0.50752928858333
40
0.647011593782788
40
0.647011593782788
40
0.786332448957416
40
0.786332448957416
40
0.892876682576375
40
0.892876682576375
40
1
40
1
40
1
40
1
41
1
10
43.781040993849
20
4.03186848036768
30
0
41
1
10
43.7732615780803
20
4.03696519096366
30
0
41
1
10
43.7663192071481
20
4.04400075216122
30
0
41
1
10
43.754915458066
20
4.0608299849244
30
0
41
1
10
43.7504766225383
20
4.07100743605099
30
0
41
1
10
43.7428166671363
20
4.0973293519101
30
0
41
1
10
43.7410756340122
20
4.11434494600547
30
0
41
1
10
43.741216544701
20
4.1457300312386
30
0
41
1
10
43.7426567562795
20
4.16042377595773
30
0
41
1
10
43.7474613776292
20
4.18932915124418
30
0
41
1
10
43.7508408229799
20
4.20363462980004
30
0
41
1
10
43.7590981007144
20
4.23170461260293
30
0
41
1
10
43.76399207589
20
4.24552120482082
30
0
41
1
10
43.7737538969902
20
4.26938752450027
30
0
41
1
10
43.7783671687941
20
4.27957906745689
30
0
41
1
10
43.7883126184651
20
4.29963961928146
30
0
41
1
10
43.7936555368283
20
4.30952046563883
30
0
41
1
10
43.7993329428429
20
4.31918611545501
30
0
0
SPLINE
5
EB
100
AcDbEntity
8
1
62
256
6
ByLayer
370
-1
48
1
60
0
100
AcDbSpline
70
4
71
3
72
34
73
30
40
0
40
0
40
0
40
0
40
0.0495805136006454
40
0.0495805136006454
40
0.129698637862944
40
0.129698637862944
40
0.194505892890806
40
0.194505892890806
40
0.259150175590143
40
0.259150175590143
40
0.323725661313944
40
0.323725661313944
40
0.425534197335411
40
0.425534197335411
40
0.52728243505451
40
0.52728243505451
40
0.629041292371961
40
0.629041292371961
40
0.724169483475089
40
0.724169483475089
40
0.802896330501476
40
0.802896330501476
40
0.863925138213154
40
0.863925138213154
40
0.91064882118355
40
0.91064882118355
40
0.947136701919196
40
0.947136701919196
40
1
40
1
40
1
40
1
41
1
10
44.4573479353712
20
4.66916534368366
30
0
41
1
10
44.4590512654761
20
4.66063549897308
30
0
41
1
10
44.459150296882
20
4.65169153544704
30
0
41
1
10
44.456338605013
20
4.62886208155319
30
0
41
1
10
44.4516037593721
20
4.61487333707257
30
0
41
1
10
44.4402046521075
20
4.59100503082192
30
0
41
1
10
44.4339779141623
20
4.580659854738
30
0
41
1
10
44.4201190588805
20
4.56089793018558
30
0
41
1
10
44.4124416870114
20
4.55141593792379
30
0
41
1
10
44.3960550224867
20
4.53331190442165
30
0
41
1
10
44.3873103698374
20
4.52465165358436
30
0
41
1
10
44.3637774412156
20
4.50343534958537
30
0
41
1
10
44.3483104575817
20
4.49141182671809
30
0
41
1
10
44.3160716045238
20
4.46951737957713
30
0
41
1
10
44.2991875289067
20
4.45957182351566
30
0
41
1
10
44.2645547358807
20
4.44201442846457
30
0
41
1
10
44.2466909866874
20
4.43434350061079
30
0
41
1
10
44.2116791566156
20
4.42209861859894
30
0
41
1
10
44.1944467311223
20
4.4173127268397
30
0
41
1
10
44.1629119082434
20
4.41118767825407
30
0
41
1
10
44.1485242797796
20
4.4093776691158
30
0
41
1
10
44.1232518510037
20
4.40840884445001
30
0
41
1
10
44.1122398177732
20
4.40874437735414
30
0
41
1
10
44.0932440791702
20
4.41109016163048
30
0
41
1
10
44.085107867317
20
4.41269787794093
30
0
41
1
10
44.0711523407447
20
4.41688341829322
30
0
41
1
10
44.0651811174072
20
4.41918480208264
30
0
41
1
10
44.0513948162138
20
4.42612610005028
30
0
41
1
10
44.0437756241254
20
4.43145667473908
30
0
41
1
10
44.037514447377
20
4.43806430431346
30
0
0
LINE
5
49
100
AcDbEntity
8
80
62
256
6
ByLayer
370
-1
48
1
60
0
100
AcDbLine
10
0
20
0
30
0
11
-10
21
0
31
0
39
0
210
0
220
0
230
1
0
LINE
5
4A
100
AcDbEntity
8
81
62
256
6
ByLayer
370
-1
48
1
60
0
100
AcDbLine
10
47.94
20
8.9
30
0
11
57.94
21
8.9
31
0
39
0
210
0
220
0
230
1
0
LINE
5
4B
100
AcDbEntity
8
1
62
256
6
ByLayer
370
-1
48
1
60
0
100
AcDbLine
10
44.9052
20
2.895389
30
0
11
44.904374
21
2.848059
31
0
39
0
210
0
220
0
230
1
0
LINE
5
4C
100
AcDbEntity
8
1
62
256
6
ByLayer
370
-1
48
1
60
0
100
AcDbLine
10
44.427416
20
2.85653
30
0
11
44.42824
21
2.903725
31
0
39
0
210
0
220
0
230
1
0
LINE
5
4D
100
AcDbEntity
8
1
62
256
6
ByLayer
370
-1
48
1
60
0
100
AcDbLine
10
46.405036
20
3.647404
30
0
11
46.406512
21
3.73193
31
0
39
0
210
0
220
0
230
1
0
LINE
5
4E
100
AcDbEntity
8
1
62
256
6
ByLayer
370
-1
48
1
60
0
100
AcDbLine
10
42.957037
20
3.792141
30
0
11
42.955562
21
3.707615
31
0
39
0
210
0
220
0
230
1
0
LINE
5
4F
100
AcDbEntity
8
1
62
256
6
ByLayer
370
-1
48
1
60
0
100
AcDbLine
10
43.883628
20
3.668125
30
0
11
43.885583
21
3.78016
31
0
39
0
210
0
220
0
230
1
0
LINE
5
50
100
AcDbEntity
8
1
62
256
6
ByLayer
370
-1
48
1
60
0
100
AcDbLine
10
45.478113
20
3.752367
30
0
11
45.476158
21
3.640328
31
0
39
0
210
0
220
0
230
1
0
LINE
5
51
100
AcDbEntity
8
1
62
256
6
ByLayer
370
-1
48
1
60
0
100
AcDbLine
10
44.935729
20
4.644391
30
0
11
44.933637
21
4.524551
31
0
39
0
210
0
220
0
230
1
0
LINE
5
52
100
AcDbEntity
8
1
62
256
6
ByLayer
370
-1
48
1
60
0
100
AcDbLine
10
44.456677
20
4.532876
30
0
11
44.458768
21
4.652699
31
0
39
0
210
0
220
0
230
1
0
LINE
5
53
100
AcDbEntity
8
SK1
62
256
6
ByLayer
370
-1
48
1
60
0
100
AcDbLine
10
-102.295
20
5.5075
30
0
11
-103.31
21
4.4925
31
0
39
0
210
0
220
0
230
1
0
LINE
5
55
100
AcDbEntity
8
SK1
62
256
6
ByLayer
370
-1
48
1
60
0
100
AcDbLine
10
-103.31
20
-4.4925
30
0
11
-101.81
21
-5.9925
31
0
39
0
210
0
220
0
230
1
0
LINE
5
56
100
AcDbEntity
8
SK1
62
256
6
ByLayer
370
-1
48
1
60
0
100
AcDbLine
10
-101.81
20
-5.9925
30
0
11
0
21
-5.9925
31
0
39
0
210
0
220
0
230
1
0
LINE
5
57
100
AcDbEntity
8
1
62
256
6
ByLayer
370
-1
48
1
60
0
100
AcDbLine
10
0
20
-5.9925
30
0
11
32.712622
21
-5.9925
31
0
39
0
210
0
220
0
230
1
0
LINE
5
58
100
AcDbEntity
8
1
62
256
6
ByLayer
370
-1
48
1
60
0
100
AcDbLine
10
32.712622
20
-5.9925
30
0
11
32.787622
21
-5.9175
31
0
39
0
210
0
220
0
230
1
0
LINE
5
59
100
AcDbEntity
8
1
62
256
6
ByLayer
370
-1
48
1
60
0
100
AcDbLine
10
34.582718
20
5.9175
30
0
11
33.437622
21
5.9175
31
0
39
0
210
0
220
0
230
1
0
LINE
5
5A
100
AcDbEntity
8
1
62
256
6
ByLayer
370
-1
48
1
60
0
100
AcDbLine
10
32.787622
20
-5.9175
30
0
11
33.086267
21
-5.9175
31
0
39
0
210
0
220
0
230
1
0
LINE
5
5B
100
AcDbEntity
8
1
62
256
6
ByLayer
370
-1
48
1
60
0
100
AcDbLine
10
36.669022
20
7.122028
30
0
11
34.582718
21
5.9175
31
0
39
0
210
0
220
0
230
1
0
LINE
5
5C
100
AcDbEntity
8
SK4
62
256
6
ByLayer
370
-1
48
0.05
60
0
100
AcDbLine
10
-108.31
20
0
30
0
11
52.367121
21
0
31
0
39
0
210
0
220
0
230
1
0
LINE
5
5E
100
AcDbEntity
8
4
62
256
6
ByLayer
370
-1
48
0.05
60
0
100
AcDbLine
10
0
20
0
30
0
11
52.367121
21
0
31
0
39
0
210
0
220
0
230
1
0
LINE
5
60
100
AcDbEntity
8
1
62
256
6
ByLayer
370
-1
48
1
60
0
100
AcDbLine
10
35.989702
20
6.729656
30
0
11
39.077077
21
-4.714994
31
0
39
0
210
0
220
0
230
1
0
LINE
5
61
100
AcDbEntity
8
1
62
256
6
ByLayer
370
-1
48
1
60
0
100
AcDbLine
10
39.077077
20
-4.714994
30
0
11
47.367121
21
-3.050975
31
0
39
0
210
0
220
0
230
1
0
LINE
5
62
100
AcDbEntity
8
1
62
256
6
ByLayer
370
-1
48
1
60
0
100
AcDbLine
10
0
20
5.5075
30
0
11
0
21
2.379087
31
0
39
0
210
0
220
0
230
1
0
LINE
5
63
100
AcDbEntity
8
1
62
256
6
ByLayer
370
-1
48
1
60
0
100
AcDbLine
10
47.367121
20
-1.499929
30
0
11
47.226026
21
-1.415716
31
0
39
0
210
0
220
0
230
1
0
LINE
5
64
100
AcDbEntity
8
1
62
256
6
ByLayer
370
-1
48
1
60
0
100
AcDbLine
10
39.162915
20
4.991107
30
0
11
39.165557
21
5.142446
31
0
39
0
210
0
220
0
230
1
0
LINE
5
65
100
AcDbEntity
8
1
62
256
6
ByLayer
370
-1
48
1
60
0
100
AcDbLine
10
38.957669
20
5.076865
30
0
11
39.036823
21
4.929627
31
0
39
0
210
0
220
0
230
1
0
LINE
5
66
100
AcDbEntity
8
1
62
256
6
ByLayer
370
-1
48
1
60
0
100
AcDbLine
10
39.034181
20
4.778288
30
0
11
39.036823
21
4.929627
31
0
39
0
210
0
220
0
230
1
0
LINE
5
67
100
AcDbEntity
8
1
62
256
6
ByLayer
370
-1
48
1
60
0
100
AcDbLine
10
40.931072
20
5.746281
30
0
11
41.30534
21
5.522898
31
0
39
0
210
0
220
0
230
1
0
LINE
5
68
100
AcDbEntity
8
1
62
256
6
ByLayer
370
-1
48
1
60
0
100
AcDbLine
10
39.086403
20
5.289685
30
0
11
39.165557
21
5.142446
31
0
39
0
210
0
220
0
230
1
0
LINE
5
69
100
AcDbEntity
8
1
62
256
6
ByLayer
370
-1
48
1
60
0
100
AcDbLine
10
0
20
-2.379087
30
0
11
32.557283
21
-2.379087
31
0
39
0
210
0
220
0
230
1
0
LINE
5
6A
100
AcDbEntity
8
1
62
256
6
ByLayer
370
-1
48
1
60
0
100
AcDbLine
10
39.034181
20
4.778288
30
0
11
39.162915
21
4.991107
31
0
39
0
210
0
220
0
230
1
0
LINE
5
6B
100
AcDbEntity
8
1
62
256
6
ByLayer
370
-1
48
1
60
0
100
AcDbLine
10
47.367121
20
-3.050975
30
0
11
47.367121
21
-1.499929
31
0
39
0
210
0
220
0
230
1
0
LINE
5
6C
100
AcDbEntity
8
1
62
256
6
ByLayer
370
-1
48
1
60
0
100
AcDbLine
10
35.473961
20
-5.43823
30
0
11
39.077077
21
-4.714994
31
0
39
0
210
0
220
0
230
1
0
LINE
5
6D
100
AcDbEntity
8
1
62
256
6
ByLayer
370
-1
48
1
60
0
100
AcDbLine
10
44.751268
20
7.419743
30
0
11
44.764209
21
8.161136
31
0
39
0
210
0
220
0
230
1
0
LINE
5
6E
100
AcDbEntity
8
1
62
256
6
ByLayer
370
-1
48
1
60
0
100
AcDbLine
10
44.857684
20
8.10999
30
0
11
44.846551
21
7.472191
31
0
39
0
210
0
220
0
230
1
0
LINE
5
6F
100
AcDbEntity
8
1
62
256
6
ByLayer
370
-1
48
1
60
0
100
AcDbLine
10
0
20
-5.9925
30
0
11
0
21
-2.379087
31
0
39
0
210
0
220
0
230
1
0
LINE
5
70
100
AcDbEntity
8
1
62
256
6
ByLayer
370
-1
48
1
60
0
100
AcDbLine
10
39.086403
20
5.289685
30
0
11
38.957669
21
5.076865
31
0
39
0
210
0
220
0
230
1
0
LINE
5
71
100
AcDbEntity
8
1
62
256
6
ByLayer
370
-1
48
1
60
0
100
AcDbLine
10
34.582718
20
-4.874627
30
0
11
34.582718
21
-5.617125
31
0
39
0
210
0
220
0
230
1
0
LINE
5
72
100
AcDbEntity
8
1
62
256
6
ByLayer
370
-1
48
1
60
0
100
AcDbLine
10
0
20
-2.379087
30
0
11
0
21
2.379087
31
0
39
0
210
0
220
0
230
1
0
LINE
5
73
100
AcDbEntity
8
1
62
256
6
ByLayer
370
-1
48
1
60
0
100
AcDbLine
10
32.712622
20
-2.730724
30
0
11
32.712622
21
-5.9925
31
0
39
0
210
0
220
0
230
1
0
LINE
5
74
100
AcDbEntity
8
1
62
256
6
ByLayer
370
-1
48
1
60
0
100
AcDbLine
10
39.036823
20
4.929627
30
0
11
39.165557
21
5.142446
31
0
39
0
210
0
220
0
230
1
0
LINE
5
75
100
AcDbEntity
8
1
62
256
6
ByLayer
370
-1
48
1
60
0
100
AcDbLine
10
47.367121
20
-1.499929
30
0
11
47.367121
21
-1.491231
31
0
39
0
210
0
220
0
230
1
0
LINE
5
76
100
AcDbEntity
8
1
62
256
6
ByLayer
370
-1
48
1
60
0
100
AcDbLine
10
35.473961
20
-5.43823
30
0
11
34.884957
21
-5.556458
31
0
39
0
210
0
220
0
230
1
0
LINE
5
77
100
AcDbEntity
8
1
62
256
6
ByLayer
370
-1
48
1
60
0
100
AcDbLine
10
33.086267
20
-5.9175
30
0
11
34.582718
21
-5.617125
31
0
39
0
210
0
220
0
230
1
0
LINE
5
78
100
AcDbEntity
8
1
62
256
6
ByLayer
370
-1
48
1
60
0
100
AcDbLine
10
40.931072
20
5.746281
30
0
11
40.880759
21
5.566997
31
0
39
0
210
0
220
0
230
1
0
LINE
5
79
100
AcDbEntity
8
1
62
256
6
ByLayer
370
-1
48
1
60
0
100
AcDbLine
10
47.360203
20
-1.486477
30
0
11
47.367121
21
-1.491231
31
0
39
0
210
0
220
0
230
1
0
LINE
5
7A
100
AcDbEntity
8
1
62
256
6
ByLayer
370
-1
48
1
60
0
100
AcDbLine
10
31.151046
20
2.379087
30
0
11
0
21
2.379087
31
0
39
0
210
0
220
0
230
1
0
LINE
5
7B
100
AcDbEntity
8
1
62
256
6
ByLayer
370
-1
48
1
60
0
100
AcDbLine
10
31.590008
20
5.5075
30
0
11
33.027622
21
5.5075
31
0
39
0
210
0
220
0
230
1
0
LINE
5
7C
100
AcDbEntity
8
1
62
256
6
ByLayer
370
-1
48
1
60
0
100
AcDbLine
10
33.379626
20
5.859504
30
0
11
33.437622
21
5.9175
31
0
39
0
210
0
220
0
230
1
0
LINE
5
7D
100
AcDbEntity
8
1
62
256
6
ByLayer
370
-1
48
1
60
0
100
AcDbLine
10
38.961449
20
4.78406
30
0
11
38.958807
21
4.632721
31
0
39
0
210
0
220
0
230
1
0
LINE
5
7E
100
AcDbEntity
8
1
62
256
6
ByLayer
370
-1
48
1
60
0
100
AcDbLine
10
40.989627
20
5.349103
30
0
11
40.878118
21
5.415658
31
0
39
0
210
0
220
0
230
1
0
LINE
5
7F
100
AcDbEntity
8
1
62
256
6
ByLayer
370
-1
48
1
60
0
100
AcDbLine
10
47.263648
20
-1.428848
30
0
11
47.360203
21
-1.486477
31
0
39
0
210
0
220
0
230
1
0
LINE
5
80
100
AcDbEntity
8
1
62
256
6
ByLayer
370
-1
48
1
60
0
100
AcDbLine
10
41.122904
20
5.422472
30
0
11
40.880759
21
5.566997
31
0
39
0
210
0
220
0
230
1
0
LINE
5
81
100
AcDbEntity
8
1
62
256
6
ByLayer
370
-1
48
1
60
0
100
AcDbLine
10
40.878118
20
5.415658
30
0
11
40.880759
21
5.566997
31
0
39
0
210
0
220
0
230
1
0
LINE
5
82
100
AcDbEntity
8
1
62
256
6
ByLayer
370
-1
48
1
60
0
100
AcDbLine
10
32.787622
20
-5.9175
30
0
11
32.787622
21
-2.829023
31
0
39
0
210
0
220
0
230
1
0
LINE
5
83
100
AcDbEntity
8
1
62
256
6
ByLayer
370
-1
48
1
60
0
100
AcDbLine
10
0
20
5.5075
30
0
11
31.590008
21
5.5075
31
0
39
0
210
0
220
0
230
1
0
LINE
5
84
100
AcDbEntity
8
1
62
256
6
ByLayer
370
-1
48
1
60
0
100
AcDbLine
10
34.582718
20
5.9175
30
0
11
34.582718
21
5.90672
31
0
39
0
210
0
220
0
230
1
0
LINE
5
85
100
AcDbEntity
8
1
62
256
6
ByLayer
370
-1
48
1
60
0
100
AcDbLine
10
33.027622
20
5.5075
30
0
11
33.379626
21
5.859504
31
0
39
0
210
0
220
0
230
1
0
LINE
5
86
100
AcDbEntity
8
SK1
62
256
6
ByLayer
370
-1
48
1
60
0
100
AcDbLine
10
0
20
5.5075
30
0
11
0
21
2.379087
31
0
39
0
210
0
220
0
230
1
0
LINE
5
87
100
AcDbEntity
8
SK1
62
256
6
ByLayer
370
-1
48
1
60
0
100
AcDbLine
10
-101.81
20
-2.379087
30
0
11
0
21
-2.379087
31
0
39
0
210
0
220
0
230
1
0
LINE
5
88
100
AcDbEntity
8
SK1
62
256
6
ByLayer
370
-1
48
1
60
0
100
AcDbLine
10
-101.81
20
2.379087
30
0
11
-101.81
21
5.5075
31
0
39
0
210
0
220
0
230
1
0
LINE
5
89
100
AcDbEntity
8
SK1
62
256
6
ByLayer
370
-1
48
1
60
0
100
AcDbLine
10
0
20
-2.379087
30
0
11
0
21
2.379087
31
0
39
0
210
0
220
0
230
1
0
LINE
5
8A
100
AcDbEntity
8
1
62
256
6
ByLayer
370
-1
48
1
60
0
100
AcDbLine
10
45.571255
20
3.398416
30
0
11
45.573364
21
3.519262
31
0
39
0
210
0
220
0
230
1
0
LINE
5
8B
100
AcDbEntity
8
1
62
256
6
ByLayer
370
-1
48
1
60
0
100
AcDbLine
10
45.349261
20
4.296328
30
0
11
45.351374
21
4.417371
31
0
39
0
210
0
220
0
230
1
0
LINE
5
8C
100
AcDbEntity
8
1
62
256
6
ByLayer
370
-1
48
1
60
0
100
AcDbLine
10
44.9375
20
4.659417
30
0
11
44.937525
21
4.660837
31
0
39
0
210
0
220
0
230
1
0
LINE
5
8D
100
AcDbEntity
8
1
62
256
6
ByLayer
370
-1
48
1
60
0
100
AcDbLine
10
44.455438
20
4.548369
30
0
11
44.457547
21
4.669215
31
0
39
0
210
0
220
0
230
1
0
LINE
5
8E
100
AcDbEntity
8
1
62
256
6
ByLayer
370
-1
48
1
60
0
100
AcDbLine
10
44.035405
20
4.317219
30
0
11
44.037514
21
4.438064
31
0
39
0
210
0
220
0
230
1
0
LINE
5
8F
100
AcDbEntity
8
1
62
256
6
ByLayer
370
-1
48
1
60
0
100
AcDbLine
10
44.03404
20
4.315907
30
0
11
44.036149
21
4.436752
31
0
39
0
210
0
220
0
230
1
0
LINE
5
90
100
AcDbEntity
8
1
62
256
6
ByLayer
370
-1
48
1
60
0
100
AcDbLine
10
43.776841
20
3.430775
30
0
11
43.778954
21
3.551818
31
0
39
0
210
0
220
0
230
1
0
LINE
5
91
100
AcDbEntity
8
1
62
256
6
ByLayer
370
-1
48
1
60
0
100
AcDbLine
10
44.42598
20
2.86073
30
0
11
44.426479
21
2.889308
31
0
39
0
210
0
220
0
230
1
0
LINE
5
92
100
AcDbEntity
8
1
62
256
6
ByLayer
370
-1
48
1
60
0
100
AcDbLine
10
44.905946
20
2.851666
30
0
11
44.906457
21
2.88093
31
0
39
0
210
0
220
0
230
1
0
LINE
5
93
100
AcDbEntity
8
1
62
256
6
ByLayer
370
-1
48
1
60
0
100
AcDbLine
10
47.350487
20
8.850497
30
0
11
38.934353
21
4.217761
31
0
39
0
210
0
220
0
230
1
0
LINE
5
94
100
AcDbEntity
8
1
62
256
6
ByLayer
370
-1
48
1
60
0
100
AcDbLine
10
47.77313
20
-1.057685
30
0
11
47.939937
21
8.498682
31
0
39
0
210
0
220
0
230
1
0
LINE
5
95
100
AcDbEntity
8
1
62
256
6
ByLayer
370
-1
48
1
60
0
100
AcDbLine
10
38.922434
20
3.534918
30
0
11
47.171761
21
-1.388714
31
0
39
0
210
0
220
0
230
1
0
LINE
5
96
100
AcDbEntity
8
SK1
62
256
6
ByLayer
370
-1
48
1
60
0
100
AcDbLine
10
-101.81
20
5.5075
30
0
11
0
21
5.5075
31
0
39
0
210
0
220
0
230
1
0
LINE
5
97
100
AcDbEntity
8
SK1
62
256
6
ByLayer
370
-1
48
1
60
0
100
AcDbLine
10
0
20
-5.9925
30
0
11
0
21
-2.379087
31
0
39
0
210
0
220
0
230
1
0
LINE
5
98
100
AcDbEntity
8
SK1
62
256
6
ByLayer
370
-1
48
1
60
0
100
AcDbLine
10
0
20
2.379087
30
0
11
-101.81
21
2.379087
31
0
39
0
210
0
220
0
230
1
0
LINE
5
99
100
AcDbEntity
8
SK1
62
256
6
ByLayer
370
-1
48
1
60
0
100
AcDbLine
10
-103.31
20
-4.4925
30
0
11
-103.31
21
4.4925
31
0
39
0
210
0
220
0
230
1
0
LINE
5
9A
100
AcDbEntity
8
SK1
62
256
6
ByLayer
370
-1
48
1
60
0
100
AcDbLine
10
-101.81
20
-5.9925
30
0
11
-101.81
21
-2.379087
31
0
39
0
210
0
220
0
230
1
0
LINE
5
9B
100
AcDbEntity
8
2
62
256
6
ByLayer
370
-1
48
1
60
1
100
AcDbLine
10
47.94
20
0
30
0
11
47.941
21
0.001
31
0
39
0
210
0
220
0
230
1
0
MTEXT
5
EC
100
AcDbEntity
8
SK6
62
256
6
ByLayer
370
-1
48
1
60
0
100
AcDbMText
10
-24.31
20
-18.864958
30
0
210
0
220
0
230
1
1
\W00.747;\fsimplex.shx,bigfont.shx;A12M-STFCR 11 
40
3.5
41
0
44
1.084337
50
0
71
7
72
5
7
DEFAULT
0
DIMENSION
5
11F
100
AcDbEntity
8
2
62
256
6
ByLayer
370
-3
48
1
60
0
100
AcDbDimension
2
DimnDraft3D1
10
60.19
20
0
30
0
11
60.19
21
19.155
31
0
70
32
71
5
72
1
41
1
210
0
220
0
230
1
3
Standard
100
AcDbAlignedDimension
13
49.94
23
8.9
33
0
14
49.94
24
0
34
0
50
90
100
AcDbRotatedDimension
1001
ACAD
1000
DSTYLE
1002
{
1070
    74
1070
     0
1070
   279
1070
     0
1070
   172
1070
     1
1070
   173
1070
     1
1070
   340
1005
ED
1070
    77
1070
     1
1070
    73
1070
     0
1070
   171
1070
     4
1070
   274
1070
     4
1070
   177
1070
     2
1070
   176
1070
     2
1070
   178
1070
     7
1070
    78
1070
     8
1070
    41
1041
3.175
1070
   147
1041
2.25
1070
    42
1041
2.0
1070
    44
1041
2.0
1070
   140
1041
4.5
1070
   343
1005
120
1070
   344
1005
120
1002
}
0
DIMENSION
5
135
100
AcDbEntity
8
SK2
62
256
6
ByLayer
370
-3
48
1
60
0
100
AcDbDimension
2
DimnDraft3D2
10
-113.06
20
5.9925
30
0
11
-113.06
21
16.2475
31
0
70
32
71
5
72
1
41
1
210
0
220
0
230
1
3
Standard
100
AcDbAlignedDimension
13
-105.31
23
-5.9925
33
0
14
-105.31
24
5.9925
34
0
50
90
100
AcDbRotatedDimension
1001
ACAD
1000
DSTYLE
1002
{
1070
    74
1070
     0
1070
   279
1070
     0
1070
   172
1070
     1
1070
   173
1070
     1
1070
   340
1005
ED
1070
    77
1070
     1
1070
    73
1070
     0
1070
   171
1070
     4
1070
   274
1070
     4
1070
   177
1070
     2
1070
   176
1070
     2
1070
   178
1070
     7
1070
    78
1070
     8
1070
    41
1041
3.175
1070
   147
1041
2.25
1070
    42
1041
2.0
1070
    44
1041
2.0
1070
   140
1041
4.5
1070
   343
1005
120
1070
   344
1005
120
1002
}
0
DIMENSION
5
143
100
AcDbEntity
8
SK2
62
256
6
ByLayer
370
-3
48
1
60
0
100
AcDbDimension
2
DimnDraft3D3
10
-103.31
20
21.65
30
0
11
-33.937632
21
21.65
31
0
70
32
71
5
72
1
41
1
210
0
220
0
230
1
3
Standard
100
AcDbAlignedDimension
13
47.94
23
10.9
33
0
14
-103.31
24
7.9925
34
0
50
0
100
AcDbRotatedDimension
1001
ACAD
1000
DSTYLE
1002
{
1070
   279
1070
     0
1070
   172
1070
     1
1070
   173
1070
     1
1070
   340
1005
ED
1070
    77
1070
     1
1070
    73
1070
     0
1070
   171
1070
     4
1070
   274
1070
     4
1070
   177
1070
     2
1070
   176
1070
     2
1070
   178
1070
     7
1070
    78
1070
     8
1070
    41
1041
3.175
1070
   147
1041
2.25
1070
    42
1041
2.0
1070
    44
1041
2.0
1070
   140
1041
4.5
1070
   343
1005
120
1070
   344
1005
120
1002
}
0
DIMENSION
5
151
100
AcDbEntity
8
2
62
256
6
ByLayer
370
-3
48
1
60
0
100
AcDbDimension
2
DimnDraft3D4
10
96.711057
20
0
30
0
11
74.955805
21
-35.936736
31
0
70
34
71
5
72
1
41
1
210
0
220
0
230
1
3
Standard
100
AcDb2LineAngularDimension
13
47.713119
23
-4.09802
33
0
14
46.930766
24
-48.918955
34
0
15
49.94
25
0
35
0
16
77.521712
26
-30.260654
36
0
40
0
0
ENDSEC
0
SECTION
2
OBJECTS
0
DICTIONARY
5
182
330
0
100
AcDbDictionary
280
0
281
1
3
ACAD_GROUP
350
183
3
ACAD_MLINESTYLE
350
184
0
DICTIONARY
5
183
330
0
100
AcDbDictionary
280
0
281
1
0
DICTIONARY
5
184
330
0
100
AcDbDictionary
280
0
281
1
3
Standard
350
18
0
MLINESTYLE
5
18
330
184
100
AcDbMlineStyle
2
Standard
70
0
3

62
256
51
90
52
90
71
2
49
-0.5
62
256
6
ByLayer
49
0.5
62
256
6
ByLayer
0
RASTERVARIABLES
5
170
330

100
AcDbRasterVariables
90
0
70
1
71
1
72
1
0
ENDSEC
0
EOF
