0
SECTION
2
HEADER
9
$ACADVER
1
AC1015
9
$DWGCODEPAGE
3
ANSI_1252
9
$HANDSEED
5
188
9
$ANGBASE
50
0
9
$ANGDIR
70
0
9
$ATTMODE
70
1
9
$AUNITS
70
0
9
$AUPREC
70
0
9
$CECOLOR
62
256
9
$CELTSCALE
40
1
9
$CELTYPE
6
ByLayer
9
$CELWEIGHT
370
-1
9
$CLAYER
8
0
9
$CMLJUST
70
0
9
$CMLSCALE
40
1
9
$CMLSTYLE
2
Standard
9
$DIMSTYLE
2
Standard
9
$TEXTSIZE
40
0.2
9
$TEXTSTYLE
7
Standard
9
$LUNITS
70
2
9
$LUPREC
70
4
9
$EXTNAMES
290
1
9
$INSUNITS
70
4
9
$LTSCALE
40
1
9
$LWDISPLAY
290
0
9
$PDMODE
70
0
9
$PDSIZE
40
0
9
$PLINEGEN
70
0
0
ENDSEC
0
SECTION
2
CLASSES
0
CLASS
1
RASTERVARIABLES
2
AcDbRasterVariables
3
ISM
90
0
280
0
281
0
0
ENDSEC
0
SECTION
2
TABLES
0
TABLE
2
VPORT
5
17e
100
AcDbSymbolTable
0
VPORT
5
1
100
AcDbSymbolTableRecord
100
AcDbViewportTableRecord
2
*Active
70
0
10
0
20
0
11
1
21
1
12
-1
22
1
13
0
23
0
14
0.5
24
0.5
15
10
25
10
16
0
26
0
36
1
17
0
27
0
37
0
0
ENDTAB
0
TABLE
2
LTYPE
5
17f
100
AcDbSymbolTable
0
LTYPE
5
14
100
AcDbSymbolTableRecord
100
AcDbLinetypeTableRecord
70
0
2
ByBlock
3

72
65
73
0
40
0
0
LTYPE
5
15
100
AcDbSymbolTableRecord
100
AcDbLinetypeTableRecord
70
0
2
ByLayer
3

72
65
73
0
40
0
0
LTYPE
5
16
100
AcDbSymbolTableRecord
100
AcDbLinetypeTableRecord
70
0
2
CONTINUOUS
3
Solid line
72
65
73
0
40
0
0
LTYPE
5
3B
100
AcDbSymbolTableRecord
100
AcDbLinetypeTableRecord
70
0
2
DASHED
3
__ __ __ __ __ __ __ __ __
72
65
73
2
40
25.72
49
12.86
74
0
49
-12.86
74
0
0
LTYPE
5
3C
100
AcDbSymbolTableRecord
100
AcDbLinetypeTableRecord
70
0
2
HIDDEN
3
_ _ _ _ _ _ _ _ _ _ _ _ _ _ _
72
65
73
2
40
0.5
49
0.25
74
0
49
-0.25
74
0
0
LTYPE
5
3D
100
AcDbSymbolTableRecord
100
AcDbLinetypeTableRecord
70
0
2
PHANTOM
3
____ _ _ ____ _ _ _____ _ _ ____
72
65
73
6
40
50.5
49
18
74
0
49
-6.5
74
0
49
6.5
74
0
49
-6.5
74
0
49
6.5
74
0
49
-6.5
74
0
0
LTYPE
5
3E
100
AcDbSymbolTableRecord
100
AcDbLinetypeTableRecord
70
0
2
CENTER
3
____ _ ____ _ ____ _ ____
72
65
73
4
40
47.5
49
22
74
0
49
-8.5
74
0
49
8.5
74
0
49
-8.5
74
0
0
LTYPE
5
3F
100
AcDbSymbolTableRecord
100
AcDbLinetypeTableRecord
70
0
2
DOT
3
.........................
72
65
73
2
40
10
49
0
74
0
49
-10
74
0
0
LTYPE
5
40
100
AcDbSymbolTableRecord
100
AcDbLinetypeTableRecord
70
0
2
DASHDOT
3
_._._._._._._._._._._._._._._._.
72
65
73
4
40
70
49
31
74
0
49
-13
74
0
49
13
74
0
49
-13
74
0
0
ENDTAB
0
TABLE
2
LAYER
5
180
100
AcDbSymbolTable
0
LAYER
5
10
100
AcDbSymbolTableRecord
100
AcDbLayerTableRecord
2
0
70
0
62
7
6
CONTINUOUS
290
1
370
-3
390
0
0
LAYER
5
42
100
AcDbSymbolTableRecord
100
AcDbLayerTableRecord
2
80
70
0
62
-6
6
CONTINUOUS
290
1
370
-3
390
0
0
LAYER
5
44
100
AcDbSymbolTableRecord
100
AcDbLayerTableRecord
2
81
70
0
62
-3
6
CONTINUOUS
290
1
370
-3
390
0
0
LAYER
5
46
100
AcDbSymbolTableRecord
100
AcDbLayerTableRecord
2
1
70
0
62
4
6
CONTINUOUS
290
1
370
-3
390
0
0
LAYER
5
48
100
AcDbSymbolTableRecord
100
AcDbLayerTableRecord
2
2
70
0
62
7
6
CONTINUOUS
290
1
370
-3
390
0
0
LAYER
5
60
100
AcDbSymbolTableRecord
100
AcDbLayerTableRecord
2
4
70
0
62
-2
6
CENTER
290
1
370
-3
390
0
0
LAYER
5
16a
100
AcDbSymbolTableRecord
100
AcDbLayerTableRecord
2
SK1
70
0
62
4
6
CONTINUOUS
290
1
370
-3
390
0
0
LAYER
5
16b
100
AcDbSymbolTableRecord
100
AcDbLayerTableRecord
2
SK4
70
0
62
2
6
CENTER
290
1
370
-3
390
0
0
LAYER
5
16c
100
AcDbSymbolTableRecord
100
AcDbLayerTableRecord
2
SK6
70
0
62
5
6
CONTINUOUS
290
1
370
-3
390
0
0
LAYER
5
16d
100
AcDbSymbolTableRecord
100
AcDbLayerTableRecord
2
SK2
70
0
62
7
6
CONTINUOUS
290
1
370
-3
390
0
0
ENDTAB
0
TABLE
2
STYLE
5
181
100
AcDbSymbolTable
0
STYLE
5
11
100
AcDbSymbolTableRecord
100
AcDbTextStyleTableRecord
2
Standard
3
txt
70
0
71
0
40
0
41
1
42
0
50
0
0
STYLE
5
E6
100
AcDbSymbolTableRecord
100
AcDbTextStyleTableRecord
2
DEFAULT
3
simplex.shx
70
0
71
0
40
0
41
1
42
0
50
0
0
STYLE
5
109
100
AcDbSymbolTableRecord
100
AcDbTextStyleTableRecord
2
DWGDirectTextStyle
3
SIMPLEX
70
0
71
0
40
0
41
1
42
0
50
0
0
ENDTAB
0
TABLE
2
DIMSTYLE
5
182
100
AcDbSymbolTable
100
AcDbDimStyleTable
0
DIMSTYLE
105
27
100
AcDbSymbolTableRecord
100
AcDbDimStyleTableRecord
2
Standard
70
0
3
<>
41
0.18
42
0.0625
44
0.18
140
0.18
147
0.09
73
0
74
0
77
1
271
2
275
0
278
52
280
0
340
11
0
ENDTAB
0
TABLE
2
VIEW
5
183
100
AcDbSymbolTable
0
ENDTAB
0
TABLE
2
UCS
5
184
100
AcDbSymbolTable
0
ENDTAB
0
TABLE
2
APPID
5
185
100
AcDbSymbolTable
0
APPID
5
12
100
AcDbSymbolTableRecord
100
AcDbRegAppTableRecord
2
ACAD
70
0
0
ENDTAB
0
TABLE
2
BLOCK_RECORD
5
186
100
AcDbSymbolTable
0
BLOCK_RECORD
5
1F
100
AcDbSymbolTableRecord
100
AcDbBlockTableRecord
2
*Model_Space
340
0
70
0
0
BLOCK_RECORD
5
1B
100
AcDbSymbolTableRecord
100
AcDbBlockTableRecord
2
*Paper_Space
340
0
70
0
0
BLOCK_RECORD
5
23
100
AcDbSymbolTableRecord
100
AcDbBlockTableRecord
2
*Paper_Space0
340
0
70
0
0
BLOCK_RECORD
5
10B
100
AcDbSymbolTableRecord
100
AcDbBlockTableRecord
2
DimnDraft3D1
340
0
70
0
0
BLOCK_RECORD
5
119
100
AcDbSymbolTableRecord
100
AcDbBlockTableRecord
2
_CLOSED
340
0
70
0
0
BLOCK_RECORD
5
120
100
AcDbSymbolTableRecord
100
AcDbBlockTableRecord
2
DimnDraft3D2
340
0
70
0
0
BLOCK_RECORD
5
12F
100
AcDbSymbolTableRecord
100
AcDbBlockTableRecord
2
DimnDraft3D3
340
0
70
0
0
BLOCK_RECORD
5
13D
100
AcDbSymbolTableRecord
100
AcDbBlockTableRecord
2
DimnDraft3D4
340
0
70
0
0
ENDTAB
0
ENDSEC
0
SECTION
2
BLOCKS
0
BLOCK
5
20
100
AcDbEntity
8
0
100
AcDbBlockBegin
2
*Model_Space
70
0
10
0
20
0
30
0
3
*Model_Space
0
ENDBLK
5
21
100
AcDbEntity
8
0
100
AcDbBlockEnd
0
BLOCK
5
1C
100
AcDbEntity
8
0
100
AcDbBlockBegin
2
*Paper_Space
70
0
10
0
20
0
30
0
3
*Paper_Space
0
ENDBLK
5
1D
100
AcDbEntity
8
0
100
AcDbBlockEnd
0
BLOCK
5
24
100
AcDbEntity
8
0
100
AcDbBlockBegin
2
*Paper_Space0
70
0
10
0
20
0
30
0
3
*Paper_Space0
0
ENDBLK
5
25
100
AcDbEntity
8
0
100
AcDbBlockEnd
0
BLOCK
5
116
100
AcDbEntity
8
0
100
AcDbBlockBegin
2
DimnDraft3D1
70
0
10
0
20
0
30
0
3
DimnDraft3D1
0
MTEXT
5
10C
100
AcDbEntity
8
2
62
256
6
ByLayer
370
-1
48
1
60
0
100
AcDbMText
10
59.065
20
22.28
30
0
210
0
220
0
230
1
1
\W01.000;\fsimplex.shx,bigfont.shx;11.0 
40
4.5
41
0
44
1.084337
50
90
71
7
72
5
7
DEFAULT
0
LINE
5
10D
100
AcDbEntity
8
2
62
256
6
ByLayer
370
-1
48
1
60
0
100
AcDbLine
10
49.94
20
10.9
30
0
11
62.19
21
10.9
31
0
39
0
210
0
220
0
230
1
0
LINE
5
10E
100
AcDbEntity
8
2
62
256
6
ByLayer
370
-1
48
1
60
0
100
AcDbLine
10
49.94
20
0
30
0
11
62.19
21
0
31
0
39
0
210
0
220
0
230
1
0
LINE
5
10F
100
AcDbEntity
8
2
62
256
6
ByLayer
370
-1
48
1
60
0
100
AcDbLine
10
60.19
20
0
30
0
11
60.19
21
29.231316
31
0
39
0
210
0
220
0
230
1
0
LINE
5
110
100
AcDbEntity
8
2
62
256
6
ByLayer
370
-1
48
1
60
0
100
AcDbLine
10
60.19
20
10.9
30
0
11
60.607997
21
7.725002
31
0
39
0
210
0
220
0
230
1
0
LINE
5
111
100
AcDbEntity
8
2
62
256
6
ByLayer
370
-1
48
1
60
0
100
AcDbLine
10
60.19
20
10.9
30
0
11
59.772003
21
7.724998
31
0
39
0
210
0
220
0
230
1
0
LINE
5
112
100
AcDbEntity
8
2
62
256
6
ByLayer
370
-1
48
1
60
0
100
AcDbLine
10
60.607997
20
7.725002
30
0
11
59.772003
21
7.724998
31
0
39
0
210
0
220
0
230
1
0
LINE
5
113
100
AcDbEntity
8
2
62
256
6
ByLayer
370
-1
48
1
60
0
100
AcDbLine
10
60.19
20
0
30
0
11
59.772003
21
3.174998
31
0
39
0
210
0
220
0
230
1
0
LINE
5
114
100
AcDbEntity
8
2
62
256
6
ByLayer
370
-1
48
1
60
0
100
AcDbLine
10
60.19
20
0
30
0
11
60.607997
21
3.175002
31
0
39
0
210
0
220
0
230
1
0
LINE
5
115
100
AcDbEntity
8
2
62
256
6
ByLayer
370
-1
48
1
60
0
100
AcDbLine
10
59.772003
20
3.174998
30
0
11
60.607997
21
3.175002
31
0
39
0
210
0
220
0
230
1
0
ENDBLK
5
117
100
AcDbEntity
8
0
100
AcDbBlockEnd
0
BLOCK
5
11A
100
AcDbEntity
8
0
100
AcDbBlockBegin
2
_CLOSED
70
0
10
0
20
0
30
0
3
_CLOSED
0
LINE
5
11C
100
AcDbEntity
8
0
62
256
6
ByLayer
370
-2
48
1
60
0
100
AcDbLine
10
-1
20
0.166667
30
0
11
0
21
0
31
0
39
0
210
0
220
0
230
1
0
LINE
5
11D
100
AcDbEntity
8
0
62
256
6
ByLayer
370
-2
48
1
60
0
100
AcDbLine
10
0
20
0
30
0
11
-1
21
-0.166667
31
0
39
0
210
0
220
0
230
1
0
LINE
5
11E
100
AcDbEntity
8
0
62
256
6
ByLayer
370
-2
48
1
60
0
100
AcDbLine
10
-1
20
0.166667
30
0
11
-1
21
-0.166667
31
0
39
0
210
0
220
0
230
1
0
LINE
5
11F
100
AcDbEntity
8
0
62
256
6
ByLayer
370
-2
48
1
60
0
100
AcDbLine
10
0
20
0
30
0
11
-1
21
0
31
0
39
0
210
0
220
0
230
1
0
ENDBLK
5
11B
100
AcDbEntity
8
0
100
AcDbBlockEnd
0
BLOCK
5
12C
100
AcDbEntity
8
0
100
AcDbBlockBegin
2
DimnDraft3D2
70
0
10
0
20
0
30
0
3
DimnDraft3D2
0
MTEXT
5
121
100
AcDbEntity
8
SK2
62
256
6
ByLayer
370
-1
48
1
60
0
100
AcDbMText
10
-114.185
20
17.3725
30
0
210
0
220
0
230
1
1
\W01.000;\fsimplex.shx,bigfont.shx;%%c12 
40
4.5
41
0
44
1.084337
50
90
71
7
72
5
7
DEFAULT
0
LINE
5
123
100
AcDbEntity
8
SK2
62
256
6
ByLayer
370
-1
48
1
60
0
100
AcDbLine
10
-105.31
20
-5.9925
30
0
11
-115.06
21
-5.9925
31
0
39
0
210
0
220
0
230
1
0
LINE
5
124
100
AcDbEntity
8
SK2
62
256
6
ByLayer
370
-1
48
1
60
0
100
AcDbLine
10
-105.31
20
5.9925
30
0
11
-115.06
21
5.9925
31
0
39
0
210
0
220
0
230
1
0
LINE
5
125
100
AcDbEntity
8
SK2
62
256
6
ByLayer
370
-1
48
1
60
0
100
AcDbLine
10
-113.06
20
-5.9925
30
0
11
-113.06
21
24.690921
31
0
39
0
210
0
220
0
230
1
0
LINE
5
126
100
AcDbEntity
8
SK2
62
256
6
ByLayer
370
-1
48
1
60
0
100
AcDbLine
10
-113.06
20
-5.9925
30
0
11
-113.477997
21
-2.817502
31
0
39
0
210
0
220
0
230
1
0
LINE
5
127
100
AcDbEntity
8
SK2
62
256
6
ByLayer
370
-1
48
1
60
0
100
AcDbLine
10
-113.06
20
-5.9925
30
0
11
-112.642003
21
-2.817498
31
0
39
0
210
0
220
0
230
1
0
LINE
5
128
100
AcDbEntity
8
SK2
62
256
6
ByLayer
370
-1
48
1
60
0
100
AcDbLine
10
-113.477997
20
-2.817502
30
0
11
-112.642003
21
-2.817498
31
0
39
0
210
0
220
0
230
1
0
LINE
5
129
100
AcDbEntity
8
SK2
62
256
6
ByLayer
370
-1
48
1
60
0
100
AcDbLine
10
-113.06
20
5.9925
30
0
11
-112.642003
21
2.817502
31
0
39
0
210
0
220
0
230
1
0
LINE
5
12A
100
AcDbEntity
8
SK2
62
256
6
ByLayer
370
-1
48
1
60
0
100
AcDbLine
10
-113.06
20
5.9925
30
0
11
-113.477997
21
2.817498
31
0
39
0
210
0
220
0
230
1
0
LINE
5
12B
100
AcDbEntity
8
SK2
62
256
6
ByLayer
370
-1
48
1
60
0
100
AcDbLine
10
-112.642003
20
2.817502
30
0
11
-113.477997
21
2.817498
31
0
39
0
210
0
220
0
230
1
0
ENDBLK
5
12D
100
AcDbEntity
8
0
100
AcDbBlockEnd
0
BLOCK
5
13A
100
AcDbEntity
8
0
100
AcDbBlockBegin
2
DimnDraft3D3
70
0
10
0
20
0
30
0
3
DimnDraft3D3
0
MTEXT
5
130
100
AcDbEntity
8
SK2
62
256
6
ByLayer
370
-1
48
1
60
0
100
AcDbMText
10
-32.812632
20
24.775
30
0
210
0
220
0
230
1
1
\W01.000;\fsimplex.shx,bigfont.shx;150.0 
40
4.5
41
0
44
1.084337
50
0
71
7
72
5
7
DEFAULT
0
LINE
5
131
100
AcDbEntity
8
SK2
62
256
6
ByLayer
370
-1
48
1
60
0
100
AcDbLine
10
47.94
20
12.9
30
0
11
47.94
21
25.65
31
0
39
0
210
0
220
0
230
1
0
LINE
5
132
100
AcDbEntity
8
SK2
62
256
6
ByLayer
370
-1
48
1
60
0
100
AcDbLine
10
-103.31
20
7.9925
30
0
11
-103.31
21
25.65
31
0
39
0
210
0
220
0
230
1
0
LINE
5
133
100
AcDbEntity
8
SK2
62
256
6
ByLayer
370
-1
48
1
60
0
100
AcDbLine
10
47.94
20
23.65
30
0
11
-103.31
21
23.65
31
0
39
0
210
0
220
0
230
1
0
LINE
5
134
100
AcDbEntity
8
SK2
62
256
6
ByLayer
370
-1
48
1
60
0
100
AcDbLine
10
47.94
20
23.65
30
0
11
44.765002
21
23.232003
31
0
39
0
210
0
220
0
230
1
0
LINE
5
135
100
AcDbEntity
8
SK2
62
256
6
ByLayer
370
-1
48
1
60
0
100
AcDbLine
10
47.94
20
23.65
30
0
11
44.764998
21
24.067997
31
0
39
0
210
0
220
0
230
1
0
LINE
5
136
100
AcDbEntity
8
SK2
62
256
6
ByLayer
370
-1
48
1
60
0
100
AcDbLine
10
44.765002
20
23.232003
30
0
11
44.764998
21
24.067997
31
0
39
0
210
0
220
0
230
1
0
LINE
5
137
100
AcDbEntity
8
SK2
62
256
6
ByLayer
370
-1
48
1
60
0
100
AcDbLine
10
-103.31
20
23.65
30
0
11
-100.135002
21
24.067997
31
0
39
0
210
0
220
0
230
1
0
LINE
5
138
100
AcDbEntity
8
SK2
62
256
6
ByLayer
370
-1
48
1
60
0
100
AcDbLine
10
-103.31
20
23.65
30
0
11
-100.134998
21
23.232003
31
0
39
0
210
0
220
0
230
1
0
LINE
5
139
100
AcDbEntity
8
SK2
62
256
6
ByLayer
370
-1
48
1
60
0
100
AcDbLine
10
-100.135002
20
24.067997
30
0
11
-100.134998
21
23.232003
31
0
39
0
210
0
220
0
230
1
0
ENDBLK
5
13B
100
AcDbEntity
8
0
100
AcDbBlockEnd
0
BLOCK
5
148
100
AcDbEntity
8
0
100
AcDbBlockBegin
2
DimnDraft3D4
70
0
10
0
20
0
30
0
3
DimnDraft3D4
0
MTEXT
5
13E
100
AcDbEntity
8
2
62
256
6
ByLayer
370
-1
48
1
60
0
100
AcDbMText
10
75.091011
20
-36.834311
30
0
210
0
220
0
230
1
1
\W01.000;\fsimplex.shx,bigfont.shx;93%%d0' 
40
4.5
41
0
44
1.084337
50
43.5
71
7
72
5
7
DEFAULT
0
LINE
5
13F
100
AcDbEntity
8
2
62
256
6
ByLayer
370
-1
48
1
60
0
100
AcDbLine
10
47.468976
20
1.912334
30
0
11
44.808145
21
-48.859355
31
0
39
0
210
0
220
0
230
1
0
LINE
5
140
100
AcDbEntity
8
2
62
256
6
ByLayer
370
-1
48
1
60
0
100
AcDbLine
10
49.94
20
0
30
0
11
96.295162
21
0
31
0
39
0
210
0
220
0
230
1
0
ARC
5
141
100
AcDbEntity
8
2
62
256
6
ByLayer
370
-1
48
1
60
0
100
AcDbCircle
39
0
10
47.368755
20
0
30
0
40
46.9264068782928
210
0
220
0
230
1
100
AcDbArc
50
267
51
0
0
LINE
5
142
100
AcDbEntity
8
2
62
256
6
ByLayer
370
-1
48
1
60
0
100
AcDbLine
10
44.912817
20
-46.862096
30
0
11
48.100636
21
-46.556897
31
0
39
0
210
0
220
0
230
1
0
LINE
5
143
100
AcDbEntity
8
2
62
256
6
ByLayer
370
-1
48
1
60
0
100
AcDbLine
10
44.912817
20
-46.862096
30
0
11
48.071008
21
-47.392365
31
0
39
0
210
0
220
0
230
1
0
LINE
5
144
100
AcDbEntity
8
2
62
256
6
ByLayer
370
-1
48
1
60
0
100
AcDbLine
10
48.100636
20
-46.556897
30
0
11
48.071008
21
-47.392365
31
0
39
0
210
0
220
0
230
1
0
LINE
5
145
100
AcDbEntity
8
2
62
256
6
ByLayer
370
-1
48
1
60
0
100
AcDbLine
10
94.295162
20
0
30
0
11
94.659418
21
-3.181612
31
0
39
0
210
0
220
0
230
1
0
LINE
5
146
100
AcDbEntity
8
2
62
256
6
ByLayer
370
-1
48
1
60
0
100
AcDbLine
10
94.295162
20
0
30
0
11
93.823544
21
-3.16748
31
0
39
0
210
0
220
0
230
1
0
LINE
5
147
100
AcDbEntity
8
2
62
256
6
ByLayer
370
-1
48
1
60
0
100
AcDbLine
10
94.659418
20
-3.181612
30
0
11
93.823544
21
-3.16748
31
0
39
0
210
0
220
0
230
1
0
ENDBLK
5
149
100
AcDbEntity
8
0
100
AcDbBlockEnd
0
ENDSEC
0
SECTION
2
ENTITIES
0
ELLIPSE
5
93
100
AcDbEntity
8
1
62
256
6
ByLayer
370
-1
48
1
60
0
100
AcDbEllipse
10
41.652423
20
0.128195
30
0
11
0.127206021227863
21
1.04226610237664
31
0
210
0
220
0
230
1
40
0.994496
41
0.65687739529963
42
2.98695725116955
0
ELLIPSE
5
94
100
AcDbEntity
8
1
62
256
6
ByLayer
370
-1
48
1
60
0
100
AcDbEllipse
10
50.182146
20
4.692514
30
0
11
2.99998876556536
21
-0.00798804092635537
31
0
210
0
220
0
230
-1
40
0.999973
41
2.60127147190158
42
2.64419937747333
0
ELLIPSE
5
95
100
AcDbEntity
8
1
62
256
6
ByLayer
370
-1
48
1
60
0
100
AcDbEllipse
10
-40.794115
20
300.351805
30
0
11
288.421031211307
21
-1076.37339709762
31
-2.33693391847578E-13
210
6.16297582203915E-33
220
2.17111824277448E-16
230
-1
40
0.007035
41
1.28758451069233
42
1.29218791881073
0
ELLIPSE
5
96
100
AcDbEntity
8
1
62
256
6
ByLayer
370
-1
48
1
60
0
100
AcDbEllipse
10
41.196276
20
1.232351
30
0
11
1.25512888011868
21
-0.0654584150597838
31
0
210
0
220
0
230
-1
40
0.994536
41
2.31898894576198
42
-2.18140861457745
0
ELLIPSE
5
97
100
AcDbEntity
8
1
62
256
6
ByLayer
370
-1
48
1
60
0
100
AcDbEllipse
10
37.860169
20
6.817807
30
0
11
8.11544902100906
21
2.93790938747871E-07
31
0
210
0
220
0
230
-1
40
0.007015
41
1.57080149061405
42
1.69479838293795
0
ELLIPSE
5
98
100
AcDbEntity
8
1
62
256
6
ByLayer
370
-1
48
1
60
0
100
AcDbEllipse
10
41.621221
20
0.132003
30
0
11
0.127206021227863
21
1.04226610237664
31
0
210
0
220
0
230
1
40
0.994496
41
0.621172010967144
42
1.50637562054985
0
ELLIPSE
5
99
100
AcDbEntity
8
1
62
256
6
ByLayer
370
-1
48
1
60
0
100
AcDbEllipse
10
41.397613
20
0.159294
30
0
11
-0.12720602122785
21
-1.04226610237664
31
0
210
0
220
0
230
1
40
0.994496
41
1.46074645217978
42
1.79790438463172
0
ELLIPSE
5
9A
100
AcDbEntity
8
1
62
256
6
ByLayer
370
-1
48
1
60
0
100
AcDbEllipse
10
41.487369
20
1.196823
30
0
11
-0.151435739556964
21
-1.2407929790198
31
0
210
0
220
0
230
1
40
0.994496
41
-2.46125923521912
42
-0.67847148837896
0
ELLIPSE
5
9B
100
AcDbEntity
8
1
62
256
6
ByLayer
370
-1
48
1
60
0
100
AcDbEllipse
10
50.182249
20
4.694462
30
0
11
2.26422049923676
21
1.96975904946576
31
0
210
0
220
0
230
-1
40
0.999236
41
-2.92074129650091
42
-2.84991386710523
0
ELLIPSE
5
9C
100
AcDbEntity
8
1
62
256
6
ByLayer
370
-1
48
1
60
0
100
AcDbEllipse
10
41.332202
20
0.167277
30
0
11
1.05430825929933
21
-0.0549850686536864
31
0
210
0
220
0
230
-1
40
0.994536
41
0.227132177942805
42
-3.00745081675994
0
ELLIPSE
5
9D
100
AcDbEntity
8
1
62
256
6
ByLayer
370
-1
48
1
60
0
100
AcDbEllipse
10
44.506751
20
5.316374
30
0
11
-0.23075044332088
21
-1.89066022866125
31
0
210
0
220
0
230
1
40
0.994496
41
0
42
6.28318530717959
0
ELLIPSE
5
9E
100
AcDbEntity
8
1
62
256
6
ByLayer
370
-1
48
1
60
0
100
AcDbEllipse
10
44.588646
20
5.306379
30
0
11
-0.218238846656396
21
-1.78814611050766
31
0
210
0
220
0
230
1
40
0.994496
41
0
42
6.28318530717959
0
ELLIPSE
5
9F
100
AcDbEntity
8
1
62
256
6
ByLayer
370
-1
48
1
60
0
100
AcDbEllipse
10
44.562653
20
5.309551
30
0
11
0.227907357019474
21
1.86736532131717
31
0
210
0
220
0
230
1
40
0.994496
41
-0.427324660639129
42
-9.49483007725118E-16
0
ELLIPSE
5
A0
100
AcDbEntity
8
1
62
256
6
ByLayer
370
-1
48
1
60
0
100
AcDbEllipse
10
44.562653
20
5.309551
30
0
11
0.227907357019474
21
1.86736532131717
31
0
210
0
220
0
230
1
40
0.994496
41
0
42
-2.71420800762565
0
ELLIPSE
5
A1
100
AcDbEntity
8
1
62
256
6
ByLayer
370
-1
48
1
60
0
100
AcDbEllipse
10
44.601152
20
4.133644
30
0
11
-0.0511247056744309
21
-0.418891709717085
31
0
210
0
220
0
230
1
40
0.994496
41
2.47936534737967
42
3.14158999643847
0
ELLIPSE
5
A2
100
AcDbEntity
8
1
62
256
6
ByLayer
370
-1
48
1
60
0
100
AcDbEllipse
10
44.182861
20
4.570736
30
0
11
-0.0224124894544306
21
-0.183637360894931
31
0
210
0
220
0
230
1
40
0.994496
41
-1.70856687774673
42
-0.260329521392654
0
ELLIPSE
5
A3
100
AcDbEntity
8
1
62
256
6
ByLayer
370
-1
48
1
60
0
100
AcDbEllipse
10
43.599426
20
4.725924
30
0
11
-0.0511247056744309
21
-0.418891709717085
31
0
210
0
220
0
230
1
40
0.994496
41
1.43302577584319
42
2.20792550369552
0
ELLIPSE
5
A4
100
AcDbEntity
8
1
62
256
6
ByLayer
370
-1
48
1
60
0
100
AcDbEllipse
10
43.766774
20
5.309313
30
0
11
-0.0224124894544306
21
-0.183637360894931
31
0
210
0
220
0
230
1
40
0.994496
41
-2.75837989081238
42
-0.158767422041782
0
ELLIPSE
5
A5
100
AcDbEntity
8
1
62
256
6
ByLayer
370
-1
48
1
60
0
100
AcDbEllipse
10
43.610931
20
5.895484
30
0
11
-0.0511247056744309
21
-0.418891709717085
31
0
210
0
220
0
230
1
40
0.994496
41
0.383212762777331
42
1.09338564035522
0
ELLIPSE
5
A6
100
AcDbEntity
8
1
62
256
6
ByLayer
370
-1
48
1
60
0
100
AcDbEllipse
10
44.196687
20
6.043177
30
0
11
-0.0224124894544306
21
-0.183637360894931
31
0
210
0
220
0
230
1
40
0.994496
41
-2.87092351246989
42
-1.20420749102885
0
ELLIPSE
5
A7
100
AcDbEntity
8
1
62
256
6
ByLayer
370
-1
48
1
60
0
100
AcDbEllipse
10
44.623121
20
6.473379
30
0
11
-0.0511247056744309
21
-0.418891709717085
31
0
210
0
220
0
230
1
40
0.994496
41
-1.99894362646192E-06
42
0.112672421642483
0
ELLIPSE
5
A8
100
AcDbEntity
8
1
62
256
6
ByLayer
370
-1
48
1
60
0
100
AcDbEllipse
10
45.041412
20
6.036287
30
0
11
-0.0224124894544306
21
-0.183637360894931
31
0
210
0
220
0
230
1
40
0.994496
41
-2.83803160285789
42
-2.25402050409472
0
ELLIPSE
5
A9
100
AcDbEntity
8
1
62
256
6
ByLayer
370
-1
48
1
60
0
100
AcDbEllipse
10
45.027586
20
4.563846
30
0
11
-0.0224124894544306
21
-0.183637360894931
31
0
210
0
220
0
230
1
40
0.994496
41
-0.662227306209908
42
-0.297308940393483
0
ELLIPSE
5
AA
100
AcDbEntity
8
1
62
256
6
ByLayer
370
-1
48
1
60
0
100
AcDbEllipse
10
44.612137
20
5.303512
30
0
11
-0.0906191465508868
21
-0.742490518645448
31
0
210
0
220
0
230
1
40
0.994496
41
0.140965517027544
42
0.8604523039228
0
ELLIPSE
5
AB
100
AcDbEntity
8
1
62
256
6
ByLayer
370
-1
48
1
60
0
100
AcDbEllipse
10
44.525366
20
5.314102
30
0
11
0.0906191465508958
21
0.742490518645443
31
0
210
0
220
0
230
1
40
0.994496
41
1.12256761075375
42
1.19803031458444
0
ELLIPSE
5
AC
100
AcDbEntity
8
1
62
256
6
ByLayer
370
-1
48
1
60
0
100
AcDbEllipse
10
44.508133
20
5.316205
30
0
11
0.12538879235318
21
1.0273765866284
31
0
210
0
220
0
230
1
40
0.994496
41
2.73109528946394
42
-2.50575044617882
0
ELLIPSE
5
AD
100
AcDbEntity
8
1
62
256
6
ByLayer
370
-1
48
1
60
0
100
AcDbEllipse
10
44.508133
20
5.316205
30
0
11
0.12538879235318
21
1.0273765866284
31
0
210
0
220
0
230
1
40
0.994496
41
1.68475571792721
42
2.73109528946394
0
ELLIPSE
5
AE
100
AcDbEntity
8
1
62
256
6
ByLayer
370
-1
48
1
60
0
100
AcDbEllipse
10
44.612137
20
5.303512
30
0
11
-0.0906191465508868
21
-0.742490518645448
31
0
210
0
220
0
230
1
40
0.994496
41
-0.933667149894204
42
0.00216940656793089
0
ELLIPSE
5
AF
100
AcDbEntity
8
1
62
256
6
ByLayer
370
-1
48
1
60
0
100
AcDbEllipse
10
44.525366
20
5.314102
30
0
11
0.0906191465508958
21
0.742490518645443
31
0
210
0
220
0
230
1
40
0.994496
41
-2.01902504283871
42
-1.94356233900272
0
ELLIPSE
5
B0
100
AcDbEntity
8
1
62
256
6
ByLayer
370
-1
48
1
60
0
100
AcDbEllipse
10
44.612137
20
5.303512
30
0
11
-0.0906191465508868
21
-0.742490518645448
31
0
210
0
220
0
230
1
40
0.994496
41
2.48844264088621
42
-3.02892023194725
0
ELLIPSE
5
B1
100
AcDbEntity
8
1
62
256
6
ByLayer
370
-1
48
1
60
0
100
AcDbEllipse
10
44.612137
20
5.303512
30
0
11
-0.0906191465508868
21
-0.742490518645448
31
0
210
0
220
0
230
1
40
0.994496
41
1.385791664488
42
2.00608888075195
0
ELLIPSE
5
B2
100
AcDbEntity
8
1
62
256
6
ByLayer
370
-1
48
1
60
0
100
AcDbEllipse
10
44.508133
20
5.316205
30
0
11
0.12538879235318
21
1.0273765866284
31
0
210
0
220
0
230
1
40
0.994496
41
-2.50575044617882
42
-1.45683693566244
0
ELLIPSE
5
B3
100
AcDbEntity
8
1
62
256
6
ByLayer
370
-1
48
1
60
0
100
AcDbEllipse
10
44.623121
20
6.473379
30
0
11
-0.0511247056744309
21
-0.418891709717085
31
0
210
0
220
0
230
1
40
0.994496
41
0.112672421642485
42
0.887572149495004
0
ELLIPSE
5
B4
100
AcDbEntity
8
1
62
256
6
ByLayer
370
-1
48
1
60
0
100
AcDbEllipse
10
44.508133
20
5.316205
30
0
11
0.12538879235318
21
1.0273765866284
31
0
210
0
220
0
230
1
40
0.994496
41
0.635842207410912
42
1.68475571792721
0
ELLIPSE
5
B5
100
AcDbEntity
8
1
62
256
6
ByLayer
370
-1
48
1
60
0
100
AcDbEllipse
10
44.612137
20
5.303512
30
0
11
0.0906191465508965
21
0.742490518645449
31
0
210
0
220
0
230
1
40
0.994496
41
1.12256761075337
42
1.19803031458483
0
ELLIPSE
5
B6
100
AcDbEntity
8
1
62
256
6
ByLayer
370
-1
48
1
60
0
100
AcDbEllipse
10
43.599426
20
4.725924
30
0
11
-0.0511247056744309
21
-0.418891709717085
31
0
210
0
220
0
230
1
40
0.994496
41
2.20792550369552
42
2.98282523154787
0
ELLIPSE
5
B7
100
AcDbEntity
8
1
62
256
6
ByLayer
370
-1
48
1
60
0
100
AcDbEllipse
10
44.508133
20
5.316205
30
0
11
0.12538879235318
21
1.0273765866284
31
0
210
0
220
0
230
1
40
0.994496
41
-1.45683693566244
42
-0.41049736412584
0
ELLIPSE
5
B8
100
AcDbEntity
8
1
62
256
6
ByLayer
370
-1
48
1
60
0
100
AcDbEllipse
10
43.610931
20
5.895484
30
0
11
-0.0511247056744309
21
-0.418891709717085
31
0
210
0
220
0
230
1
40
0.994496
41
1.22721228498284
42
1.93738516256099
0
ELLIPSE
5
B9
100
AcDbEntity
8
1
62
256
6
ByLayer
370
-1
48
1
60
0
100
AcDbEllipse
10
44.612137
20
5.303512
30
0
11
-0.0906191465508868
21
-0.742490518645448
31
0
210
0
220
0
230
1
40
0.994496
41
-1.94356233900498
42
-0.933667149894204
0
ELLIPSE
5
BA
100
AcDbEntity
8
1
62
256
6
ByLayer
370
-1
48
1
60
0
100
AcDbEllipse
10
44.508133
20
5.316205
30
0
11
0.12538879235318
21
1.0273765866284
31
0
210
0
220
0
230
1
40
0.994496
41
-0.41049736412584
42
0.635842207410912
0
ELLIPSE
5
BB
100
AcDbEntity
8
1
62
256
6
ByLayer
370
-1
48
1
60
0
100
AcDbEllipse
10
44.612137
20
5.303512
30
0
11
-0.0906191465508862
21
-0.742490518645443
31
0
210
0
220
0
230
1
40
0.994496
41
-3.02892023194725
42
-2.01902504283643
0
ELLIPSE
5
BC
100
AcDbEntity
8
1
62
256
6
ByLayer
370
-1
48
1
60
0
100
AcDbEllipse
10
44.508133
20
5.316205
30
0
11
0.157493169139256
21
1.29042469818057
31
0
210
0
220
0
230
1
40
0.994496
41
0
42
6.28318530717959
0
ELLIPSE
5
BD
100
AcDbEntity
8
1
62
256
6
ByLayer
370
-1
48
1
60
0
100
AcDbEllipse
10
44.601736
20
5.304781
30
0
11
0.208981320588631
21
1.71229431104732
31
0
210
0
220
0
230
1
40
0.994496
41
-3.14156261822713
42
-1.45001122045818
0
ELLIPSE
5
BE
100
AcDbEntity
8
1
62
256
6
ByLayer
370
-1
48
1
60
0
100
AcDbEllipse
10
44.601736
20
5.304781
30
0
11
0.208981320588631
21
1.71229431104732
31
0
210
0
220
0
230
1
40
0.994496
41
-1.45001122045817
42
0
0
ELLIPSE
5
BF
100
AcDbEntity
8
1
62
256
6
ByLayer
370
-1
48
1
60
0
100
AcDbEllipse
10
44.526222
20
5.313997
30
0
11
0.208981320588631
21
1.71229431104732
31
0
210
0
220
0
230
1
40
0.994496
41
0
42
6.28318530717959
0
ELLIPSE
5
C0
100
AcDbEntity
8
1
62
256
6
ByLayer
370
-1
48
1
60
0
100
AcDbEllipse
10
47.190296
20
3.729703
30
0
11
0.0480808473093376
21
0.393951770838759
31
0
210
0
220
0
230
1
40
0.994496
41
-2.46125923521929
42
-1.50132814662231
0
ELLIPSE
5
C1
100
AcDbEntity
8
1
62
256
6
ByLayer
370
-1
48
1
60
0
100
AcDbEllipse
10
41.468224
20
0.12959
30
0
11
0.048080847309343
21
0.393951770838803
31
0
210
0
220
0
230
1
40
0.994496
41
1.64026450696753
42
-2.4612592352191
0
ELLIPSE
5
C2
100
AcDbEntity
8
1
62
256
6
ByLayer
370
-1
48
1
60
0
100
AcDbEllipse
10
47.545277
20
10.503157
30
0
11
0.048080847309343
21
0.393951770838803
31
0
210
0
220
0
230
1
40
0.994496
41
-1.50132814662228
42
0.680333418370693
0
ELLIPSE
5
C3
100
AcDbEntity
8
1
62
256
6
ByLayer
370
-1
48
1
60
0
100
AcDbEllipse
10
41.823206
20
6.903044
30
0
11
0.0480808473093376
21
0.393951770838759
31
0
210
0
220
0
230
1
40
0.994496
41
0.680333418370582
42
1.64026450696752
0
POINT
5
41
100
AcDbEntity
8
80
62
256
6
ByLayer
370
-1
48
1
60
0
100
AcDbPoint
10
0
20
0
30
0
39
0
210
0
220
0
230
1
50
360
0
POINT
5
43
100
AcDbEntity
8
81
62
256
6
ByLayer
370
-1
48
1
60
0
100
AcDbPoint
10
47.94
20
10.9
30
0
39
0
210
0
220
0
230
1
50
360
0
POINT
5
45
100
AcDbEntity
8
1
62
256
6
ByLayer
370
-1
48
1
60
0
100
AcDbPoint
10
-103.31
20
0
30
0
39
0
210
0
220
0
230
1
50
360
0
POINT
5
47
100
AcDbEntity
8
2
62
256
6
ByLayer
370
-1
48
1
60
0
100
AcDbPoint
10
47.94
20
10.9
30
0
39
0
210
0
220
0
230
1
50
360
0
POINT
5
49
100
AcDbEntity
8
2
62
256
6
ByLayer
370
-1
48
1
60
0
100
AcDbPoint
10
47.95827
20
9.889017
30
0
39
0
210
0
220
0
230
1
50
360
0
SPLINE
5
C4
100
AcDbEntity
8
1
62
256
6
ByLayer
370
-1
48
1
60
0
100
AcDbSpline
70
4
71
3
72
8
73
4
40
0
40
0
40
0
40
0
40
1
40
1
40
1
40
1
41
1
10
34.0861371399999
20
-4.81377093354297
30
0
41
1
10
34.1109312587588
20
-4.81197659245836
30
0
41
1
10
34.1359296563195
20
-4.80951114267469
30
0
41
1
10
34.16113714
20
-4.80638625881116
30
0
0
SPLINE
5
C5
100
AcDbEntity
8
1
62
256
6
ByLayer
370
-1
48
1
60
0
100
AcDbSpline
70
4
71
3
72
8
73
4
40
0
40
0
40
0
40
0
40
1
40
1
40
1
40
1
41
1
10
39.9596783931812
20
-6.0915
30
0
41
1
10
38.5796638180163
20
-6.0915
30
0
41
1
10
37.2840987649457
20
-6.09543803276242
30
0
41
1
10
36.1854357690916
20
-5.87662543859037
30
0
0
SPLINE
5
C6
100
AcDbEntity
8
1
62
256
6
ByLayer
370
-1
48
1
60
0
100
AcDbSpline
70
4
71
3
72
10
73
6
40
0
40
0
40
0
40
0
40
0.5
40
0.5
40
1
40
1
40
1
40
1
41
1
10
31.2470281758942
20
2.37908727246378
30
0
41
1
10
31.1443369902693
20
3.10252069307984
30
0
41
1
10
31.1201493169125
20
3.78005234858199
30
0
41
1
10
31.4042336962628
20
4.85763969460581
30
0
41
1
10
31.7239092159605
20
5.25612351585031
30
0
41
1
10
32.2077826630121
20
5.50749999999999
30
0
0
SPLINE
5
C7
100
AcDbEntity
8
1
62
256
6
ByLayer
370
-1
48
1
60
0
100
AcDbSpline
70
4
71
3
72
8
73
4
40
0
40
0
40
0
40
0
40
1
40
1
40
1
40
1
41
1
10
36.01113714
20
5.91713272148436
30
0
41
1
10
35.5918978299657
20
5.91593740634784
30
0
41
1
10
35.1851346108153
20
5.91176346043804
30
0
41
1
10
34.7913678894033
20
5.89773074940322
30
0
0
SPLINE
5
C8
100
AcDbEntity
8
1
62
256
6
ByLayer
370
-1
48
1
60
0
100
AcDbSpline
70
4
71
3
72
8
73
4
40
0
40
0
40
0
40
0
40
1
40
1
40
1
40
1
41
1
10
36.1851372220816
20
-6.0915
30
0
41
1
10
36.1852257662086
20
-6.0915
30
0
41
1
10
36.1853270450729
20
-6.01860647000356
30
0
41
1
10
36.1854357690915
20
-5.87662543859037
30
0
0
SPLINE
5
C9
100
AcDbEntity
8
1
62
256
6
ByLayer
370
-1
48
1
60
0
100
AcDbSpline
70
4
71
3
72
46
73
42
40
-0.109188734554483
40
-0.109188734554483
40
0
40
0
40
0.0847021912337219
40
0.0847021912337219
40
0.119664497733246
40
0.119664497733246
40
0.155171593085109
40
0.155171593085109
40
0.180361194100439
40
0.180361194100439
40
0.205573364012797
40
0.205573364012797
40
0.230689768607373
40
0.230689768607373
40
0.266210232442951
40
0.266210232442951
40
0.314971832584664
40
0.314971832584664
40
0.385591868394375
40
0.385591868394375
40
0.487851017819613
40
0.487851017819613
40
0.593495764127835
40
0.593495764127835
40
0.651365864524448
40
0.651365864524448
40
0.675318438200235
40
0.675318438200235
40
0.688487494724598
40
0.688487494724598
40
0.701838431673057
40
0.701838431673057
40
0.713471416496817
40
0.713471416496817
40
0.732483787791359
40
0.732483787791359
40
0.771244514662373
40
0.771244514662373
40
0.890811265445517
40
0.890811265445517
40
1
40
1
40
1.08470219123372
40
1.08470219123372
41
1
10
34.8342050589034
20
2.50139078746818
30
0
41
1
10
34.3922550212658
20
2.2563600220868
30
0
41
1
10
34.1873828871526
20
2.17835833500686
30
0
41
1
10
33.8971517181428
20
2.16538472815557
30
0
41
1
10
33.8101777159087
20
2.17405617318156
30
0
41
1
10
33.6414995055986
20
2.2259143124551
30
0
41
1
10
33.5574326338084
20
2.27092508087685
30
0
41
1
10
33.4309762038862
20
2.38154089701797
30
0
41
1
10
33.3822851921321
20
2.43872574788006
30
0
41
1
10
33.3010905551065
20
2.56716225584898
30
0
41
1
10
33.2675517562685
20
2.64003469637893
30
0
41
1
10
33.2186858119263
20
2.79002317856623
30
0
41
1
10
33.2026108205247
20
2.86883441458863
30
0
41
1
10
33.1832121414465
20
3.05533351317973
30
0
41
1
10
33.1873295449578
20
3.16461023718523
30
0
41
1
10
33.2251578078617
20
3.40654398521346
30
0
41
1
10
33.2696005725982
20
3.53746668532457
30
0
41
1
10
33.4134695364145
20
3.82266438787519
30
0
41
1
10
33.5309316996025
20
3.96737473694131
30
0
41
1
10
33.8607899226018
20
4.26267063334936
30
0
41
1
10
34.0981814413051
20
4.39408412949089
30
0
41
1
10
34.6192790042306
20
4.58631907617118
30
0
41
1
10
34.9116018409923
20
4.64959520269704
30
0
41
1
10
35.3792965549814
20
4.67130142333639
30
0
41
1
10
35.5523339926992
20
4.66573148758283
30
0
41
1
10
35.7885152703046
20
4.60378063042867
30
0
41
1
10
35.858114881945
20
4.57806953937833
30
0
41
1
10
35.9544195594167
20
4.51729445409029
30
0
41
1
10
35.9868035381627
20
4.49096317388617
30
0
41
1
10
36.0409488917238
20
4.4285856304476
30
0
41
1
10
36.063026144015
20
4.39139372196601
30
0
41
1
10
36.0896808650256
20
4.31752255104163
30
0
41
1
10
36.0965816014441
20
4.28065557249684
30
0
41
1
10
36.1025077259456
20
4.18463819216856
30
0
41
1
10
36.0945057200484
20
4.12448343023303
30
0
41
1
10
36.0529652926747
20
3.95060457555715
30
0
41
1
10
36.0022964171662
20
3.84080663835763
30
0
41
1
10
35.7726147042079
20
3.42251773654914
30
0
41
1
10
35.5378624805082
20
3.14937037311719
30
0
41
1
10
35.0734760404766
20
2.69336043815971
30
0
41
1
10
34.8342050589034
20
2.50139078746818
30
0
41
1
10
34.3922550212658
20
2.2563600220868
30
0
0
SPLINE
5
CA
100
AcDbEntity
8
1
62
256
6
ByLayer
370
-1
48
1
60
0
100
AcDbSpline
70
4
71
3
72
8
73
4
40
0
40
0
40
0
40
0
40
1
40
1
40
1
40
1
41
1
10
36.0111371399998
20
-5.66902995227255
30
0
41
1
10
36.0688200068314
20
-5.73848060756373
30
0
41
1
10
36.1269290862978
20
-5.8076684655332
30
0
41
1
10
36.1854357690915
20
-5.87662543859039
30
0
0
SPLINE
5
CB
100
AcDbEntity
8
1
62
256
6
ByLayer
370
-1
48
1
60
0
100
AcDbSpline
70
4
71
3
72
8
73
4
40
0
40
0
40
0
40
0
40
1
40
1
40
1
40
1
41
1
10
39.9596783931812
20
-6.0915
30
0
41
1
10
40.2064615956668
20
-6.09149865670594
30
0
41
1
10
40.4552874692787
20
-6.09123412940215
30
0
41
1
10
40.7046633717827
20
-6.09104987637028
30
0
0
SPLINE
5
CC
100
AcDbEntity
8
1
62
256
6
ByLayer
370
-1
48
1
60
0
100
AcDbSpline
70
4
71
3
72
8
73
4
40
0
40
0
40
0
40
0
40
1
40
1
40
1
40
1
41
1
10
34.1611371399999
20
-4.80638625881119
30
0
41
1
10
34.6873895896723
20
-5.24254532162314
30
0
41
1
10
35.293414577375
20
-5.50729833234345
30
0
41
1
10
36.0111371399999
20
-5.66902995227238
30
0
0
SPLINE
5
CD
100
AcDbEntity
8
1
62
256
6
ByLayer
370
-1
48
1
60
0
100
AcDbSpline
70
4
71
3
72
8
73
4
40
0
40
0
40
0
40
0
40
1
40
1
40
1
40
1
41
1
10
36.856413654075
20
6.76131160563136
30
0
41
1
10
36.5720262792592
20
6.47780895421937
30
0
41
1
10
36.2888486373702
20
6.19588799032911
30
0
41
1
10
36.0111371399998
20
5.91713272148453
30
0
0
SPLINE
5
CE
100
AcDbEntity
8
1
62
256
6
ByLayer
370
-1
48
1
60
0
100
AcDbSpline
70
4
71
3
72
8
73
4
40
0
40
0
40
0
40
0
40
1
40
1
40
1
40
1
41
1
10
34.0861371399999
20
-4.81377093354342
30
0
41
1
10
33.4205699311451
20
-4.23114736256093
30
0
41
1
10
32.9348483758162
20
-3.38390224993898
30
0
41
1
10
32.5323679899747
20
-2.37908727246415
30
0
0
SPLINE
5
CF
100
AcDbEntity
8
SK1
62
256
6
ByLayer
370
-1
48
1
60
0
100
AcDbSpline
70
4
71
3
72
8
73
4
40
0
40
0
40
0
40
0
40
1
40
1
40
1
40
1
41
1
10
-102.294999997074
20
5.50749999999999
30
0
41
1
10
-102.295019051864
20
5.50749999999999
30
0
41
1
10
-102.108837467164
20
5.50749999999999
30
0
41
1
10
-101.81
20
5.50749999999999
30
0
0
SPLINE
5
D0
100
AcDbEntity
8
SK1
62
256
6
ByLayer
370
-1
48
1
60
0
100
AcDbSpline
70
4
71
3
72
10
73
6
40
0
40
0
40
0
40
0
40
0.5
40
0.5
40
1
40
1
40
1
40
1
41
1
10
-101.81
20
2.37908727246406
30
0
41
1
10
-102.110605723759
20
1.62191462878994
30
0
41
1
10
-102.302681606333
20
0.818569788065645
30
0
41
1
10
-102.302318123354
20
-0.821008410924293
30
0
41
1
10
-102.107009922509
20
-1.63097181607304
30
0
41
1
10
-101.81
20
-2.37908727246398
30
0
0
SPLINE
5
D1
100
AcDbEntity
8
1
62
256
6
ByLayer
370
-1
48
1
60
0
100
AcDbSpline
70
4
71
3
72
18
73
14
40
0
40
0
40
0
40
0
40
0.211825693901091
40
0.211825693901091
40
0.387699530763788
40
0.387699530763788
40
0.565229882876313
40
0.565229882876313
40
0.720197320952911
40
0.720197320952911
40
0.926150960679849
40
0.926150960679849
40
1
40
1
40
1
40
1
41
1
10
44.229718369529
20
6.18612359385244
30
0
41
1
10
44.2623266448617
20
6.15548231717742
30
0
41
1
10
44.300520791425
20
6.12857178497208
30
0
41
1
10
44.3774965984988
20
6.09065733383221
30
0
41
1
10
44.4159824135008
20
6.07739032804417
30
0
41
1
10
44.4950942043092
20
6.06209601188459
30
0
41
1
10
44.5369045829912
20
6.06006394265788
30
0
41
1
10
44.6110647504165
20
6.06751205697901
30
0
41
1
10
44.6448408253214
20
6.07559504958232
30
0
41
1
10
44.7165194681881
20
6.10272581899866
30
0
41
1
10
44.7534407659334
20
6.12483231760152
30
0
41
1
10
44.7961906860874
20
6.16059893249124
30
0
41
1
10
44.8069271788388
20
6.1707138598739
30
0
41
1
10
44.8169897561579
20
6.18133358079157
30
0
0
SPLINE
5
D2
100
AcDbEntity
8
1
62
256
6
ByLayer
370
-1
48
1
60
0
100
AcDbSpline
70
4
71
3
72
16
73
12
40
0
40
0
40
0
40
0
40
0.0430844025095628
40
0.0430844025095628
40
0.268010265292515
40
0.268010265292515
40
0.494568477407662
40
0.494568477407662
40
0.734589612040055
40
0.734589612040055
40
1
40
1
40
1
40
1
41
1
10
45.5374854750567
20
5.30914115411082
30
0
41
1
10
45.5375149580789
20
5.31277673541317
30
0
41
1
10
45.5374430085995
20
5.3164143335261
30
0
41
1
10
45.536374626625
20
5.33881570479048
30
0
41
1
10
45.5326749679609
20
5.35762251427769
30
0
41
1
10
45.5204388721384
20
5.39243743170798
30
0
41
1
10
45.5117241662866
20
5.40887377051692
30
0
41
1
10
45.4902133895677
20
5.43833469155638
30
0
41
1
10
45.476950979794
20
5.45148000770379
30
0
41
1
10
45.4468178196786
20
5.4734752271477
30
0
41
1
10
45.4293436325344
20
5.48203632501384
30
0
41
1
10
45.4115664972667
20
5.48734499481091
30
0
0
SPLINE
5
D3
100
AcDbEntity
8
1
62
256
6
ByLayer
370
-1
48
1
60
0
100
AcDbSpline
70
4
71
3
72
14
73
10
40
0
40
0
40
0
40
0
40
0.0398429536689383
40
0.0398429536689383
40
0.377438995858348
40
0.377438995858348
40
0.822309353262114
40
0.822309353262114
40
1
40
1
40
1
40
1
41
1
10
43.8991762398933
20
5.71709267197306
30
0
41
1
10
43.9010396400849
20
5.7208792332963
30
0
41
1
10
43.902839364323
20
5.72469272612662
30
0
41
1
10
43.9191326472197
20
5.76072792819295
30
0
41
1
10
43.9291156111097
20
5.79491046815988
30
0
41
1
10
43.941302441725
20
5.87288991163862
30
0
41
1
10
43.9404054556423
20
5.91760629485432
30
0
41
1
10
43.9301831434723
20
5.97684206631675
30
0
41
1
10
43.9261981141386
20
5.99361184428597
30
0
41
1
10
43.921259846017
20
6.0099899042612
30
0
0
SPLINE
5
D4
100
AcDbEntity
8
1
62
256
6
ByLayer
370
-1
48
1
60
0
100
AcDbSpline
70
4
71
3
72
18
73
14
40
0
40
0
40
0
40
0
40
0.21226392491884
40
0.21226392491884
40
0.388015897010116
40
0.388015897010116
40
0.565418353702673
40
0.565418353702673
40
0.720336667871656
40
0.720336667871656
40
0.926332473906271
40
0.926332473906271
40
1
40
1
40
1
40
1
41
1
10
45.1222934249406
20
6.00081997253071
30
0
41
1
10
45.1135796115988
20
5.95883515256136
30
0
41
1
10
45.1108150667677
20
5.91373731848464
30
0
41
1
10
45.1186258278867
20
5.83020630851786
30
0
41
1
10
45.1271630836664
20
5.79102333262705
30
0
41
1
10
45.1543647622409
20
5.71563447093538
30
0
41
1
10
45.1736109147925
20
5.67839001130608
30
0
41
1
10
45.2166352052481
20
5.61703241515227
30
0
41
1
10
45.2400082913658
20
5.59108876814901
30
0
41
1
10
45.2977226078773
20
5.54037062461816
30
0
41
1
10
45.3340663789413
20
5.51780215343661
30
0
41
1
10
45.3844360071407
20
5.4962873408987
30
0
41
1
10
45.3979587182408
20
5.49140859698272
30
0
41
1
10
45.4115664972665
20
5.48734499480892
30
0
0
SPLINE
5
D5
100
AcDbEntity
8
1
62
256
6
ByLayer
370
-1
48
1
60
0
100
AcDbSpline
70
4
71
3
72
14
73
10
40
0
40
0
40
0
40
0
40
0.280975865384442
40
0.280975865384442
40
0.568633185974471
40
0.568633185974471
40
0.82924928043113
40
0.82924928043113
40
1
40
1
40
1
40
1
41
1
10
43.9081068608283
20
4.62986485999863
30
0
41
1
10
43.901645699011
20
4.60979867015564
30
0
41
1
10
43.8985611770165
20
4.58816974145643
30
0
41
1
10
43.9004730265977
20
4.54464404803542
30
0
41
1
10
43.9057348676448
20
4.52208061648332
30
0
41
1
10
43.9239290019897
20
4.4825696668137
30
0
41
1
10
43.9364023888571
20
4.46471460773696
30
0
41
1
10
43.9617344050753
20
4.43995695853349
30
0
41
1
10
43.9731599276618
20
4.43119624947326
30
0
41
1
10
43.9854269777189
20
4.42394324305721
30
0
0
SPLINE
5
D6
100
AcDbEntity
8
1
62
256
6
ByLayer
370
-1
48
1
60
0
100
AcDbSpline
70
4
71
3
72
16
73
12
40
0
40
0
40
0
40
0
40
0.0532535966562767
40
0.0532535966562767
40
0.278054634808171
40
0.278054634808171
40
0.505066460308491
40
0.505066460308491
40
0.74601669696035
40
0.74601669696035
40
1
40
1
40
1
40
1
41
1
10
43.4787797479356
20
5.32326882816329
30
0
41
1
10
43.4787433593741
20
5.31878171781997
30
0
41
1
10
43.4788777115498
20
5.31428888235607
30
0
41
1
10
43.4804558802796
20
5.29105969729764
30
0
41
1
10
43.4848184842293
20
5.27228973524501
30
0
41
1
10
43.4988507229966
20
5.2375101343994
30
0
41
1
10
43.5087371939288
20
5.22108072212046
30
0
41
1
10
43.5330358765476
20
5.19160993777408
30
0
41
1
10
43.5479772591403
20
5.17845681081417
30
0
41
1
10
43.5810937588851
20
5.15697534333933
30
0
41
1
10
43.5997740367492
20
5.14867413167156
30
0
41
1
10
43.6188337885041
20
5.14333983772281
30
0
0
SPLINE
5
D7
100
AcDbEntity
8
1
62
256
6
ByLayer
370
-1
48
1
60
0
100
AcDbSpline
70
4
71
3
72
18
73
14
40
0
40
0
40
0
40
0
40
0.192944344584506
40
0.192944344584506
40
0.37217678412988
40
0.37217678412988
40
0.553284783110926
40
0.553284783110926
40
0.708996768866796
40
0.708996768866796
40
0.911679874323568
40
0.911679874323568
40
1
40
1
40
1
40
1
41
1
10
44.8006819162417
20
4.44456123868156
30
0
41
1
10
44.775181482305
20
4.47195881116411
30
0
41
1
10
44.744878369957
20
4.49625714571829
30
0
41
1
10
44.6787069361264
20
4.53372667601147
30
0
41
1
10
44.642547379887
20
4.54791241987544
30
0
41
1
10
44.5654988382567
20
4.56508907051727
30
0
41
1
10
44.5233406472812
20
4.56809824360033
30
0
41
1
10
44.446623333351
20
4.56221663107056
30
0
41
1
10
44.4109140415059
20
4.55491184260802
30
0
41
1
10
44.3342443397161
20
4.52977858886621
30
0
41
1
10
44.29361137079
20
4.50914860676153
30
0
41
1
10
44.2422661187318
20
4.47355701557231
30
0
41
1
10
44.2273824802244
20
4.46180935217774
30
0
41
1
10
44.2134105296125
20
4.44935125174223
30
0
0
SPLINE
5
D8
100
AcDbEntity
8
1
62
256
6
ByLayer
370
-1
48
1
60
0
100
AcDbSpline
70
4
71
3
72
18
73
14
40
0
40
0
40
0
40
0
40
0.198252473245707
40
0.198252473245707
40
0.376529162216519
40
0.376529162216519
40
0.556620400918056
40
0.556620400918056
40
0.712101364212814
40
0.712101364212814
40
0.91568670192986
40
0.91568670192986
40
1
40
1
40
1
40
1
41
1
10
43.9081068608285
20
4.62986485999858
30
0
41
1
10
43.9205603155689
20
4.66854109100066
30
0
41
1
10
43.9275916083733
20
4.70990820496135
30
0
41
1
10
43.9280482456736
20
4.78991336552625
30
0
41
1
10
43.9226611069402
20
4.82933471072676
30
0
41
1
10
43.8994064649849
20
4.90574652519675
30
0
41
1
10
43.8809218227458
20
4.94382504442302
30
0
41
1
10
43.8369534481575
20
5.00664929898909
30
0
41
1
10
43.8122958207306
20
5.0332848817294
30
0
41
1
10
43.7506069622651
20
5.08526044826749
30
0
41
1
10
43.7111667868836
20
5.10865352761752
30
0
41
1
10
43.6536195330349
20
5.13249055079959
30
0
41
1
10
43.6363064858071
20
5.13844971613617
30
0
41
1
10
43.6188337885041
20
5.14333983772278
30
0
0
SPLINE
5
D9
100
AcDbEntity
8
1
62
256
6
ByLayer
370
-1
48
1
60
0
100
AcDbSpline
70
4
71
3
72
14
73
10
40
0
40
0
40
0
40
0
40
0.0451278851673823
40
0.0451278851673823
40
0.382355737519862
40
0.382355737519862
40
0.828588325456066
40
0.828588325456066
40
1
40
1
40
1
40
1
41
1
10
45.1515557905651
20
4.91111072099128
30
0
41
1
10
45.1493858188277
20
4.90683065834548
30
0
41
1
10
45.1472822433625
20
4.90251779240401
30
0
41
1
10
45.1301786254607
20
4.86603936471545
30
0
41
1
10
45.1188349711242
20
4.83205735295647
30
0
41
1
10
45.1020986559341
20
4.75455923658316
30
0
41
1
10
45.0993988691791
20
4.7101945977831
30
0
41
1
10
45.1040000458849
20
4.65221512809472
30
0
41
1
10
45.1061838820808
20
4.6362665282177
30
0
41
1
10
45.1092093603335
20
4.62068651667991
30
0
0
SPLINE
5
DA
100
AcDbEntity
8
1
62
256
6
ByLayer
370
-1
48
1
60
0
100
AcDbSpline
70
4
71
3
72
16
73
12
40
0
40
0
40
0
40
0
40
0.0301607202115756
40
0.0301607202115756
40
0.349576822691435
40
0.349576822691435
40
0.637051034391862
40
0.637051034391862
40
0.890310152507833
40
0.890310152507833
40
1
40
1
40
1
40
1
41
1
10
44.2297183695291
20
6.18612359385247
30
0
41
1
10
44.2280006567548
20
6.18773769063705
30
0
41
1
10
44.2262513918569
20
6.18932520598599
30
0
41
1
10
44.2058908110435
20
6.20716426188085
30
0
41
1
10
44.183500294607
20
6.2205967613973
30
0
41
1
10
44.1374558251553
20
6.23703700760547
30
0
41
1
10
44.1134092679281
20
6.24116280200965
30
0
41
1
10
44.068577122424
20
6.24023362920596
30
0
41
1
10
44.0470814614052
20
6.23616589304191
30
0
41
1
10
44.0186605171227
20
6.22535708058101
30
0
41
1
10
44.0102602527459
20
6.22140428044719
30
0
41
1
10
44.0022619634426
20
6.2168562060566
30
0
0
SPLINE
5
DB
100
AcDbEntity
8
1
62
256
6
ByLayer
370
-1
48
1
60
0
100
AcDbSpline
70
4
71
3
72
14
73
10
40
0
40
0
40
0
40
0
40
0.267442227322087
40
0.267442227322087
40
0.556232093894328
40
0.556232093894328
40
0.817678171275048
40
0.817678171275048
40
1
40
1
40
1
40
1
41
1
10
43.6223747443409
20
5.4997911880757
30
0
41
1
10
43.6021388307979
20
5.49474775803233
30
0
41
1
10
43.582247537648
20
5.48636525111618
30
0
41
1
10
43.5448812889111
20
5.46256886160708
30
0
41
1
10
43.5271619647173
20
5.44622905527254
30
0
41
1
10
43.5006784680871
20
5.40985951682248
30
0
41
1
10
43.4908572607971
20
5.3897533897364
30
0
41
1
10
43.4810610946718
20
5.35403244677889
30
0
41
1
10
43.4789040273244
20
5.33859384533201
30
0
41
1
10
43.4787797479356
20
5.32326882816329
30
0
0
SPLINE
5
DC
100
AcDbEntity
8
1
62
256
6
ByLayer
370
-1
48
1
60
0
100
AcDbSpline
70
4
71
3
72
16
73
12
40
0
40
0
40
0
40
0
40
0.0346839593772538
40
0.0346839593772538
40
0.259177430020294
40
0.259177430020294
40
0.484824044168949
40
0.484824044168949
40
0.723509328945747
40
0.723509328945747
40
1
40
1
40
1
40
1
41
1
10
45.0140032595497
20
4.41555377621745
30
0
41
1
10
45.0165480914504
20
4.41700084625418
30
0
41
1
10
45.0190630256334
20
4.41850894769087
30
0
41
1
10
45.0374365064641
20
4.43011133181096
30
0
41
1
10
45.0520869828747
20
4.44275308969645
30
0
41
1
10
45.0767262624349
20
4.47110588255157
30
0
41
1
10
45.0870158477092
20
4.48718577404566
30
0
41
1
10
45.1027793369939
20
4.52142172814249
30
0
41
1
10
45.1081558116131
20
4.54006583310064
30
0
41
1
10
45.1137196345964
20
4.57956682166508
30
0
41
1
10
45.1130595255574
20
4.60085969473363
30
0
41
1
10
45.1092093603336
20
4.62068651667991
30
0
0
SPLINE
5
DD
100
AcDbEntity
8
1
62
256
6
ByLayer
370
-1
48
1
60
0
100
AcDbSpline
70
4
71
3
72
14
73
10
40
0
40
0
40
0
40
0
40
0.235882171580478
40
0.235882171580478
40
0.529178666489776
40
0.529178666489776
40
0.794424494439565
40
0.794424494439565
40
1
40
1
40
1
40
1
41
1
10
45.1222934249409
20
6.00081997253062
30
0
41
1
10
45.1258395702102
20
6.01790597895246
30
0
41
1
10
45.1270908342225
20
6.03604030794759
30
0
41
1
10
45.124050762338
20
6.07684677248417
30
0
41
1
10
45.1182238382726
20
6.10022834076105
30
0
41
1
10
45.0993079709901
20
6.14154677851405
30
0
41
1
10
45.0866425037767
20
6.16040318442495
30
0
41
1
10
45.0593925764064
20
6.18877189403463
30
0
41
1
10
45.0455955156018
20
6.1997413671121
30
0
41
1
10
45.0308382452734
20
6.20846673921682
30
0
0
SPLINE
5
DE
100
AcDbEntity
8
1
62
256
6
ByLayer
370
-1
48
1
60
0
100
AcDbSpline
70
4
71
3
72
12
73
8
40
0
40
0
40
0
40
0
40
0.453670010607571
40
0.453670010607571
40
0.836884846586673
40
0.836884846586673
40
1
40
1
40
1
40
1
41
1
10
45.4080944620086
20
5.13088523287044
30
0
41
1
10
45.3695691184744
20
5.11959108008247
30
0
41
1
10
45.3312445226745
20
5.10166984080783
30
0
41
1
10
45.2653277474167
20
5.05648097739223
30
0
41
1
10
45.2362840944541
20
5.03049806467388
30
0
41
1
10
45.1999255913547
20
4.98763701102632
30
0
41
1
10
45.1896059183019
20
4.97399401930602
30
0
41
1
10
45.1800559794664
20
4.95976071962622
30
0
0
SPLINE
5
DF
100
AcDbEntity
8
1
62
256
6
ByLayer
370
-1
48
1
60
0
100
AcDbSpline
70
4
71
3
72
14
73
10
40
0
40
0
40
0
40
0
40
0.239447486154261
40
0.239447486154261
40
0.532299512850316
40
0.532299512850316
40
0.797170468811172
40
0.797170468811172
40
1
40
1
40
1
40
1
41
1
10
44.8006819162413
20
4.44456123868119
30
0
41
1
10
44.812272869369
20
4.43210796124896
30
0
41
1
10
44.8260506499672
20
4.42120014807688
30
0
41
1
10
44.8600892017522
20
4.4022443114267
30
0
41
1
10
44.8817061652744
20
4.39511695721944
30
0
41
1
10
44.9245975199657
20
4.39019736395366
30
0
41
1
10
44.9463653193672
20
4.39154367677699
30
0
41
1
10
44.9833433263343
20
4.40079880799468
30
0
41
1
10
44.9992827943849
20
4.40718326496247
30
0
41
1
10
45.0140032595497
20
4.41555377621745
30
0
0
SPLINE
5
E0
100
AcDbEntity
8
1
62
256
6
ByLayer
370
-1
48
1
60
0
100
AcDbSpline
70
4
71
3
72
16
73
12
40
0
40
0
40
0
40
0
40
0.121118050820703
40
0.121118050820703
40
0.344563055653686
40
0.344563055653686
40
0.573970789922438
40
0.573970789922438
40
0.82031692238625
40
0.82031692238625
40
1
40
1
40
1
40
1
41
1
10
44.0022619634426
20
6.2168562060566
30
0
41
1
10
43.9934438942142
20
6.21184197947497
30
0
41
1
10
43.9850462893324
20
6.20606374860563
30
0
41
1
10
43.9629591692013
20
6.18789967531023
30
0
41
1
10
43.950514583402
20
6.17376584982526
30
0
41
1
10
43.9307993176603
20
6.1427828740859
30
0
41
1
10
43.9234118904974
20
6.12548831347686
30
0
41
1
10
43.9140784012345
20
6.08911527117507
30
0
41
1
10
43.9124371137091
20
6.06955005033868
30
0
41
1
10
43.914746417535
20
6.03679615070791
30
0
41
1
10
43.9173039286474
20
6.0231099395323
30
0
41
1
10
43.9212598460169
20
6.00998990426118
30
0
0
SPLINE
5
E1
100
AcDbEntity
8
1
62
256
6
ByLayer
370
-1
48
1
60
0
100
AcDbSpline
70
4
71
3
72
14
73
10
40
0
40
0
40
0
40
0
40
0.253270410058874
40
0.253270410058874
40
0.543832258530255
40
0.543832258530255
40
0.806732985602579
40
0.806732985602579
40
1
40
1
40
1
40
1
41
1
10
45.4080944620086
20
5.13088523287038
30
0
41
1
10
45.4252337800802
20
5.13590982341844
30
0
41
1
10
45.4421422315082
20
5.14390807205905
30
0
41
1
10
45.47532581916
20
5.16694719373098
30
0
41
1
10
45.4916499061284
20
5.18327210385897
30
0
41
1
10
45.5162562176608
20
5.21968406849172
30
0
41
1
10
45.5254982439112
20
5.23984055398901
30
0
41
1
10
45.5351486929831
20
5.27649682640913
30
0
41
1
10
45.5373537669417
20
5.29290009320502
30
0
41
1
10
45.5374854750567
20
5.30914115411082
30
0
0
SPLINE
5
E2
100
AcDbEntity
8
1
62
256
6
ByLayer
370
-1
48
1
60
0
100
AcDbSpline
70
4
71
3
72
16
73
12
40
0
40
0
40
0
40
0
40
0.064468960744376
40
0.064468960744376
40
0.289046748701311
40
0.289046748701311
40
0.516468459027221
40
0.516468459027221
40
0.758341987540746
40
0.758341987540746
40
1
40
1
40
1
40
1
41
1
10
43.9854269777189
20
4.42394324305721
30
0
41
1
10
43.9900770453913
20
4.42119384768461
30
0
41
1
10
43.9948653507557
20
4.41864622765678
30
0
41
1
10
44.0166884820513
20
4.40826021490884
30
0
41
1
10
44.0351885044602
20
4.40276671977173
30
0
41
1
10
44.072527129961
20
4.39750970031079
30
0
41
1
10
44.0918401066256
20
4.39773796943896
30
0
41
1
10
44.1298649171706
20
4.40360026195194
30
0
41
1
10
44.148939738633
20
4.40963052888225
30
0
41
1
10
44.1835953512019
20
4.42625600314784
30
0
41
1
10
44.1995588211911
20
4.43700036534773
30
0
41
1
10
44.2134105296125
20
4.44935125174217
30
0
0
SPLINE
5
E3
100
AcDbEntity
8
1
62
256
6
ByLayer
370
-1
48
1
60
0
100
AcDbSpline
70
4
71
3
72
12
73
8
40
0
40
0
40
0
40
0
40
0.445400796425694
40
0.445400796425694
40
0.830023301347705
40
0.830023301347705
40
1
40
1
40
1
40
1
41
1
10
43.6223747443409
20
5.49979118807573
30
0
41
1
10
43.6646774872274
20
5.51033437032137
30
0
41
1
10
43.7065237345029
20
5.52728917860088
30
0
41
1
10
43.7784658920758
20
5.57087947797663
30
0
41
1
10
43.8101448981642
20
5.5964676661213
30
0
41
1
10
43.8492756091872
20
5.63950725456135
30
0
41
1
10
43.860502142829
20
5.65364205107841
30
0
41
1
10
43.870676050994
20
5.6684426733415
30
0
0
SPLINE
5
E4
100
AcDbEntity
8
1
62
256
6
ByLayer
370
-1
48
1
60
0
100
AcDbSpline
70
4
71
3
72
18
73
14
40
0
40
0
40
0
40
0
40
0.0322731787995467
40
0.0322731787995467
40
0.257584157447064
40
0.257584157447064
40
0.483906664410129
40
0.483906664410129
40
0.723193039765489
40
0.723193039765489
40
0.984934756523291
40
0.984934756523291
40
1
40
1
40
1
40
1
41
1
10
45.0308382452734
20
6.20846673921682
30
0
41
1
10
45.0285031063913
20
6.2098474116047
30
0
41
1
10
45.0261398053101
20
6.21117617802779
30
0
41
1
10
45.0072548276253
20
6.22125873066813
30
0
41
1
10
44.9893270409703
20
6.22752820755352
30
0
41
1
10
44.9535096154901
20
6.23418896426142
30
0
41
1
10
44.9351647012433
20
6.23465255850812
30
0
41
1
10
44.8994122671965
20
6.23009625647222
30
0
41
1
10
44.8816674503702
20
6.22472307299685
30
0
41
1
10
44.8482308881143
20
6.20853966805825
30
0
41
1
10
44.8324586092292
20
6.1970838351983
30
0
41
1
10
44.8185007344728
20
6.1829128675563
30
0
41
1
10
44.8177411886802
20
6.18212661854136
30
0
41
1
10
44.816989756158
20
6.18133358079157
30
0
0
LINE
5
4A
100
AcDbEntity
8
80
62
256
6
ByLayer
370
-1
48
1
60
0
100
AcDbLine
10
0
20
0
30
0
11
-10
21
0
31
0
39
0
210
0
220
0
230
1
0
LINE
5
4B
100
AcDbEntity
8
1
62
256
6
ByLayer
370
-1
48
1
60
0
100
AcDbLine
10
47.939453
20
10.482801
30
0
11
47.584471
21
3.709347
31
0
39
0
210
0
220
0
230
1
0
LINE
5
4C
100
AcDbEntity
8
1
62
256
6
ByLayer
370
-1
48
1
60
0
100
AcDbLine
10
47.399372
20
3.393381
30
0
11
41.6773
21
-0.206732
31
0
39
0
210
0
220
0
230
1
0
LINE
5
4D
100
AcDbEntity
8
1
62
256
6
ByLayer
370
-1
48
1
60
0
100
AcDbLine
10
41.074049
20
0.149946
30
0
11
41.42903
21
6.9234
31
0
39
0
210
0
220
0
230
1
0
LINE
5
4E
100
AcDbEntity
8
SK1
62
256
6
ByLayer
370
-1
48
1
60
0
100
AcDbLine
10
-102.295
20
5.5075
30
0
11
-103.31
21
4.4925
31
0
39
0
210
0
220
0
230
1
0
LINE
5
50
100
AcDbEntity
8
SK1
62
256
6
ByLayer
370
-1
48
1
60
0
100
AcDbLine
10
-103.31
20
-4.4925
30
0
11
-101.81
21
-5.9925
31
0
39
0
210
0
220
0
230
1
0
LINE
5
51
100
AcDbEntity
8
SK1
62
256
6
ByLayer
370
-1
48
1
60
0
100
AcDbLine
10
-101.81
20
-5.9925
30
0
11
0
21
-5.9925
31
0
39
0
210
0
220
0
230
1
0
LINE
5
52
100
AcDbEntity
8
1
62
256
6
ByLayer
370
-1
48
1
60
0
100
AcDbLine
10
44.810717
20
7.017075
30
0
11
44.735203
21
7.026292
31
0
39
0
210
0
220
0
230
1
0
LINE
5
53
100
AcDbEntity
8
1
62
256
6
ByLayer
370
-1
48
1
60
0
100
AcDbLine
10
44.31724
20
3.601703
30
0
11
44.392755
21
3.592487
31
0
39
0
210
0
220
0
230
1
0
LINE
5
54
100
AcDbEntity
8
1
62
256
6
ByLayer
370
-1
48
1
60
0
100
AcDbLine
10
44.652277
20
4.552536
30
0
11
44.564886
21
4.563202
31
0
39
0
210
0
220
0
230
1
0
LINE
5
55
100
AcDbEntity
8
1
62
256
6
ByLayer
370
-1
48
1
60
0
100
AcDbLine
10
44.484675
20
6.065144
30
0
11
44.571997
21
6.054487
31
0
39
0
210
0
220
0
230
1
0
LINE
5
56
100
AcDbEntity
8
1
62
256
6
ByLayer
370
-1
48
1
60
0
100
AcDbLine
10
0
20
-5.9925
30
0
11
34.086137
21
-5.9925
31
0
39
0
210
0
220
0
230
1
0
LINE
5
57
100
AcDbEntity
8
1
62
256
6
ByLayer
370
-1
48
1
60
0
100
AcDbLine
10
34.086137
20
-5.9925
30
0
11
34.161137
21
-5.9175
31
0
39
0
210
0
220
0
230
1
0
LINE
5
58
100
AcDbEntity
8
1
62
256
6
ByLayer
370
-1
48
1
60
0
100
AcDbLine
10
36.011137
20
5.9175
30
0
11
34.811137
21
5.9175
31
0
39
0
210
0
220
0
230
1
0
LINE
5
59
100
AcDbEntity
8
1
62
256
6
ByLayer
370
-1
48
1
60
0
100
AcDbLine
10
34.161137
20
-5.9175
30
0
11
36.011137
21
-5.9175
31
0
39
0
210
0
220
0
230
1
0
LINE
5
5A
100
AcDbEntity
8
1
62
256
6
ByLayer
370
-1
48
1
60
0
100
AcDbLine
10
36.280402
20
6.186765
30
0
11
36.011137
21
5.9175
31
0
39
0
210
0
220
0
230
1
0
LINE
5
5B
100
AcDbEntity
8
1
62
256
6
ByLayer
370
-1
48
1
60
0
100
AcDbLine
10
36.011137
20
-5.9175
30
0
11
36.185113
21
-6.091476
31
0
39
0
210
0
220
0
230
1
0
LINE
5
5C
100
AcDbEntity
8
81
62
256
6
ByLayer
370
-1
48
1
60
0
100
AcDbLine
10
47.94
20
10.9
30
0
11
57.94
21
10.9
31
0
39
0
210
0
220
0
230
1
0
LINE
5
5D
100
AcDbEntity
8
SK4
62
256
6
ByLayer
370
-1
48
0.05
60
0
100
AcDbLine
10
-108.31
20
0
30
0
11
52.95827
21
0
31
0
39
0
210
0
220
0
230
1
0
LINE
5
5F
100
AcDbEntity
8
4
62
256
6
ByLayer
370
-1
48
0.05
60
0
100
AcDbLine
10
0
20
0
30
0
11
52.95827
21
0
31
0
39
0
210
0
220
0
230
1
0
LINE
5
61
100
AcDbEntity
8
1
62
256
6
ByLayer
370
-1
48
1
60
0
100
AcDbLine
10
0
20
5.5075
30
0
11
32.207783
21
5.5075
31
0
39
0
210
0
220
0
230
1
0
LINE
5
62
100
AcDbEntity
8
1
62
256
6
ByLayer
370
-1
48
1
60
0
100
AcDbLine
10
41.145756
20
6.755878
30
0
11
41.420258
21
6.756086
31
0
39
0
210
0
220
0
230
1
0
LINE
5
63
100
AcDbEntity
8
1
62
256
6
ByLayer
370
-1
48
1
60
0
100
AcDbLine
10
41.205653
20
2.661146
30
0
11
40.902513
21
2.470422
31
0
39
0
210
0
220
0
230
1
0
LINE
5
64
100
AcDbEntity
8
1
62
256
6
ByLayer
370
-1
48
1
60
0
100
AcDbLine
10
41.073595
20
6.760874
30
0
11
37.860127
21
6.760874
31
0
39
0
210
0
220
0
230
1
0
LINE
5
65
100
AcDbEntity
8
1
62
256
6
ByLayer
370
-1
48
1
60
0
100
AcDbLine
10
36.011137
20
-5.66903
30
0
11
36.011137
21
-5.9175
31
0
39
0
210
0
220
0
230
1
0
LINE
5
66
100
AcDbEntity
8
1
62
256
6
ByLayer
370
-1
48
1
60
0
100
AcDbLine
10
36.011137
20
5.9175
30
0
11
36.011137
21
5.917133
31
0
39
0
210
0
220
0
230
1
0
LINE
5
67
100
AcDbEntity
8
1
62
256
6
ByLayer
370
-1
48
1
60
0
100
AcDbLine
10
34.401137
20
5.5075
30
0
11
34.791368
21
5.897731
31
0
39
0
210
0
220
0
230
1
0
LINE
5
68
100
AcDbEntity
8
1
62
256
6
ByLayer
370
-1
48
1
60
0
100
AcDbLine
10
40.294679
20
0.362001
30
0
11
40.595031
21
0.325344
31
0
39
0
210
0
220
0
230
1
0
LINE
5
69
100
AcDbEntity
8
1
62
256
6
ByLayer
370
-1
48
1
60
0
100
AcDbLine
10
0
20
-5.9925
30
0
11
0
21
-2.379087
31
0
39
0
210
0
220
0
230
1
0
LINE
5
6A
100
AcDbEntity
8
1
62
256
6
ByLayer
370
-1
48
1
60
0
100
AcDbLine
10
34.086137
20
-5.9925
30
0
11
34.086137
21
-4.813771
31
0
39
0
210
0
220
0
230
1
0
LINE
5
6B
100
AcDbEntity
8
1
62
256
6
ByLayer
370
-1
48
1
60
0
100
AcDbLine
10
39.959678
20
-6.0915
30
0
11
36.185137
21
-6.0915
31
0
39
0
210
0
220
0
230
1
0
LINE
5
6C
100
AcDbEntity
8
1
62
256
6
ByLayer
370
-1
48
1
60
0
100
AcDbLine
10
41.073595
20
6.760874
30
0
11
41.145756
21
6.755878
31
0
39
0
210
0
220
0
230
1
0
LINE
5
6D
100
AcDbEntity
8
1
62
256
6
ByLayer
370
-1
48
1
60
0
100
AcDbLine
10
0
20
5.5075
30
0
11
0
21
2.379087
31
0
39
0
210
0
220
0
230
1
0
LINE
5
6E
100
AcDbEntity
8
1
62
256
6
ByLayer
370
-1
48
1
60
0
100
AcDbLine
10
40.52996
20
2.292587
30
0
11
40.830363
21
2.479227
31
0
39
0
210
0
220
0
230
1
0
LINE
5
6F
100
AcDbEntity
8
1
62
256
6
ByLayer
370
-1
48
1
60
0
100
AcDbLine
10
41.19364
20
-5.679636
30
0
11
47.416757
21
-0.443649
31
0
39
0
210
0
220
0
230
1
0
LINE
5
70
100
AcDbEntity
8
1
62
256
6
ByLayer
370
-1
48
1
60
0
100
AcDbLine
10
40.52996
20
2.292587
30
0
11
40.828862
21
2.256107
31
0
39
0
210
0
220
0
230
1
0
LINE
5
71
100
AcDbEntity
8
1
62
256
6
ByLayer
370
-1
48
1
60
0
100
AcDbLine
10
0
20
-2.379087
30
0
11
32.532368
21
-2.379087
31
0
39
0
210
0
220
0
230
1
0
LINE
5
72
100
AcDbEntity
8
1
62
256
6
ByLayer
370
-1
48
1
60
0
100
AcDbLine
10
47.533022
20
3.099598
30
0
11
42.347118
21
-0.122412
31
0
39
0
210
0
220
0
230
1
0
LINE
5
73
100
AcDbEntity
8
1
62
256
6
ByLayer
370
-1
48
1
60
0
100
AcDbLine
10
34.791368
20
5.897731
30
0
11
34.811137
21
5.9175
31
0
39
0
210
0
220
0
230
1
0
LINE
5
74
100
AcDbEntity
8
1
62
256
6
ByLayer
370
-1
48
1
60
0
100
AcDbLine
10
34.161137
20
-5.9175
30
0
11
34.161137
21
-4.806386
31
0
39
0
210
0
220
0
230
1
0
LINE
5
75
100
AcDbEntity
8
1
62
256
6
ByLayer
370
-1
48
1
60
0
100
AcDbLine
10
47.541857
20
3.268168
30
0
11
47.533022
21
3.099598
31
0
39
0
210
0
220
0
230
1
0
LINE
5
76
100
AcDbEntity
8
1
62
256
6
ByLayer
370
-1
48
1
60
0
100
AcDbLine
10
40.830363
20
2.479227
30
0
11
41.073595
21
6.760874
31
0
39
0
210
0
220
0
230
1
0
LINE
5
77
100
AcDbEntity
8
1
62
256
6
ByLayer
370
-1
48
1
60
0
100
AcDbLine
10
37.860127
20
6.760874
30
0
11
41.19364
21
-5.679636
31
0
39
0
210
0
220
0
230
1
0
LINE
5
78
100
AcDbEntity
8
1
62
256
6
ByLayer
370
-1
48
1
60
0
100
AcDbLine
10
40.704663
20
-6.09105
30
0
11
41.19364
21
-5.679636
31
0
39
0
210
0
220
0
230
1
0
LINE
5
79
100
AcDbEntity
8
1
62
256
6
ByLayer
370
-1
48
1
60
0
100
AcDbLine
10
32.207783
20
5.5075
30
0
11
34.401137
21
5.5075
31
0
39
0
210
0
220
0
230
1
0
LINE
5
7A
100
AcDbEntity
8
1
62
256
6
ByLayer
370
-1
48
1
60
0
100
AcDbLine
10
40.830363
20
2.479227
30
0
11
40.902513
21
2.470422
31
0
39
0
210
0
220
0
230
1
0
LINE
5
7B
100
AcDbEntity
8
1
62
256
6
ByLayer
370
-1
48
1
60
0
100
AcDbLine
10
41.196553
20
2.487444
30
0
11
40.828862
21
2.256107
31
0
39
0
210
0
220
0
230
1
0
LINE
5
7C
100
AcDbEntity
8
1
62
256
6
ByLayer
370
-1
48
1
60
0
100
AcDbLine
10
31.247028
20
2.379087
30
0
11
0
21
2.379087
31
0
39
0
210
0
220
0
230
1
0
LINE
5
7D
100
AcDbEntity
8
1
62
256
6
ByLayer
370
-1
48
1
60
0
100
AcDbLine
10
47.605416
20
3.156176
30
0
11
47.416757
21
-0.443649
31
0
39
0
210
0
220
0
230
1
0
LINE
5
7E
100
AcDbEntity
8
1
62
256
6
ByLayer
370
-1
48
1
60
0
100
AcDbLine
10
0
20
-2.379087
30
0
11
0
21
2.379087
31
0
39
0
210
0
220
0
230
1
0
LINE
5
7F
100
AcDbEntity
8
1
62
256
6
ByLayer
370
-1
48
1
60
0
100
AcDbLine
10
41.145756
20
6.755878
30
0
11
40.902513
21
2.470422
31
0
39
0
210
0
220
0
230
1
0
LINE
5
80
100
AcDbEntity
8
SK1
62
256
6
ByLayer
370
-1
48
1
60
0
100
AcDbLine
10
-101.81
20
5.5075
30
0
11
0
21
5.5075
31
0
39
0
210
0
220
0
230
1
0
LINE
5
81
100
AcDbEntity
8
SK1
62
256
6
ByLayer
370
-1
48
1
60
0
100
AcDbLine
10
-101.81
20
2.379087
30
0
11
-101.81
21
5.5075
31
0
39
0
210
0
220
0
230
1
0
LINE
5
82
100
AcDbEntity
8
SK1
62
256
6
ByLayer
370
-1
48
1
60
0
100
AcDbLine
10
0
20
2.379087
30
0
11
-101.81
21
2.379087
31
0
39
0
210
0
220
0
230
1
0
LINE
5
83
100
AcDbEntity
8
SK1
62
256
6
ByLayer
370
-1
48
1
60
0
100
AcDbLine
10
0
20
5.5075
30
0
11
0
21
2.379087
31
0
39
0
210
0
220
0
230
1
0
LINE
5
84
100
AcDbEntity
8
SK1
62
256
6
ByLayer
370
-1
48
1
60
0
100
AcDbLine
10
0
20
-2.379087
30
0
11
0
21
2.379087
31
0
39
0
210
0
220
0
230
1
0
LINE
5
85
100
AcDbEntity
8
SK1
62
256
6
ByLayer
370
-1
48
1
60
0
100
AcDbLine
10
0
20
-5.9925
30
0
11
0
21
-2.379087
31
0
39
0
210
0
220
0
230
1
0
LINE
5
86
100
AcDbEntity
8
SK1
62
256
6
ByLayer
370
-1
48
1
60
0
100
AcDbLine
10
-101.81
20
-2.379087
30
0
11
0
21
-2.379087
31
0
39
0
210
0
220
0
230
1
0
LINE
5
87
100
AcDbEntity
8
1
62
256
6
ByLayer
370
-1
48
1
60
0
100
AcDbLine
10
44.913926
20
6.169503
30
0
11
44.81699
21
6.181334
31
0
39
0
210
0
220
0
230
1
0
LINE
5
88
100
AcDbEntity
8
1
62
256
6
ByLayer
370
-1
48
1
60
0
100
AcDbLine
10
44.018162
20
5.998163
30
0
11
43.92126
21
6.00999
31
0
39
0
210
0
220
0
230
1
0
LINE
5
89
100
AcDbEntity
8
1
62
256
6
ByLayer
370
-1
48
1
60
0
100
AcDbLine
10
43.719277
20
5.487965
30
0
11
43.622375
21
5.499791
31
0
39
0
210
0
220
0
230
1
0
LINE
5
8A
100
AcDbEntity
8
1
62
256
6
ByLayer
370
-1
48
1
60
0
100
AcDbLine
10
43.71577
20
5.131509
30
0
11
43.618834
21
5.14334
31
0
39
0
210
0
220
0
230
1
0
LINE
5
8B
100
AcDbEntity
8
1
62
256
6
ByLayer
370
-1
48
1
60
0
100
AcDbLine
10
44.005043
20
4.618034
30
0
11
43.908107
21
4.629865
31
0
39
0
210
0
220
0
230
1
0
LINE
5
8C
100
AcDbEntity
8
1
62
256
6
ByLayer
370
-1
48
1
60
0
100
AcDbLine
10
44.897618
20
4.43273
30
0
11
44.800682
21
4.444561
31
0
39
0
210
0
220
0
230
1
0
LINE
5
8D
100
AcDbEntity
8
1
62
256
6
ByLayer
370
-1
48
1
60
0
100
AcDbLine
10
43.870676
20
5.668443
30
0
11
43.957447
21
5.657853
31
0
39
0
210
0
220
0
230
1
0
LINE
5
8E
100
AcDbEntity
8
1
62
256
6
ByLayer
370
-1
48
1
60
0
100
AcDbLine
10
43.985947
20
5.706503
30
0
11
43.899176
21
5.717093
31
0
39
0
210
0
220
0
230
1
0
LINE
5
8F
100
AcDbEntity
8
1
62
256
6
ByLayer
370
-1
48
1
60
0
100
AcDbLine
10
41.61413
20
7.239367
30
0
11
47.336201
21
10.839479
31
0
39
0
210
0
220
0
230
1
0
LINE
5
90
100
AcDbEntity
8
SK1
62
256
6
ByLayer
370
-1
48
1
60
0
100
AcDbLine
10
-103.31
20
-4.4925
30
0
11
-103.31
21
4.4925
31
0
39
0
210
0
220
0
230
1
0
LINE
5
91
100
AcDbEntity
8
SK1
62
256
6
ByLayer
370
-1
48
1
60
0
100
AcDbLine
10
-101.81
20
-5.9925
30
0
11
-101.81
21
-2.379087
31
0
39
0
210
0
220
0
230
1
0
LINE
5
92
100
AcDbEntity
8
2
62
256
6
ByLayer
370
-1
48
1
60
1
100
AcDbLine
10
47.94
20
0
30
0
11
47.941
21
0.001
31
0
39
0
210
0
220
0
230
1
0
MTEXT
5
E5
100
AcDbEntity
8
SK6
62
256
6
ByLayer
370
-1
48
1
60
0
100
AcDbMText
10
-24.31
20
-19.715752
30
0
210
0
220
0
230
1
1
\W00.747;\fsimplex.shx,bigfont.shx;A12M-SDUPR 07-E 
40
3.5
41
0
44
1.084337
50
0
71
7
72
5
7
DEFAULT
0
DIMENSION
5
118
100
AcDbEntity
8
2
62
256
6
ByLayer
370
-3
48
1
60
0
100
AcDbDimension
2
DimnDraft3D1
10
60.19
20
0
30
0
11
60.19
21
21.155
31
0
70
32
71
5
72
1
41
1
210
0
220
0
230
1
3
Standard
100
AcDbAlignedDimension
13
49.94
23
10.9
33
0
14
49.94
24
0
34
0
50
90
100
AcDbRotatedDimension
1001
ACAD
1000
DSTYLE
1002
{
1070
    74
1070
     0
1070
   279
1070
     0
1070
   172
1070
     1
1070
   173
1070
     1
1070
   340
1005
E6
1070
    77
1070
     1
1070
    73
1070
     0
1070
   171
1070
     4
1070
   274
1070
     4
1070
   177
1070
     2
1070
   176
1070
     2
1070
   178
1070
     7
1070
    78
1070
     8
1070
    41
1041
3.175
1070
   147
1041
2.25
1070
    42
1041
2.0
1070
    44
1041
2.0
1070
   140
1041
4.5
1070
   343
1005
119
1070
   344
1005
119
1002
}
0
DIMENSION
5
12E
100
AcDbEntity
8
SK2
62
256
6
ByLayer
370
-3
48
1
60
0
100
AcDbDimension
2
DimnDraft3D2
10
-113.06
20
5.9925
30
0
11
-113.06
21
16.2475
31
0
70
32
71
5
72
1
41
1
210
0
220
0
230
1
3
Standard
100
AcDbAlignedDimension
13
-105.31
23
-5.9925
33
0
14
-105.31
24
5.9925
34
0
50
90
100
AcDbRotatedDimension
1001
ACAD
1000
DSTYLE
1002
{
1070
    74
1070
     0
1070
   279
1070
     0
1070
   172
1070
     1
1070
   173
1070
     1
1070
   340
1005
E6
1070
    77
1070
     1
1070
    73
1070
     0
1070
   171
1070
     4
1070
   274
1070
     4
1070
   177
1070
     2
1070
   176
1070
     2
1070
   178
1070
     7
1070
    78
1070
     8
1070
    41
1041
3.175
1070
   147
1041
2.25
1070
    42
1041
2.0
1070
    44
1041
2.0
1070
   140
1041
4.5
1070
   343
1005
119
1070
   344
1005
119
1002
}
0
DIMENSION
5
13C
100
AcDbEntity
8
SK2
62
256
6
ByLayer
370
-3
48
1
60
0
100
AcDbDimension
2
DimnDraft3D3
10
-103.31
20
23.65
30
0
11
-33.937632
21
23.65
31
0
70
32
71
5
72
1
41
1
210
0
220
0
230
1
3
Standard
100
AcDbAlignedDimension
13
47.94
23
12.9
33
0
14
-103.31
24
7.9925
34
0
50
0
100
AcDbRotatedDimension
1001
ACAD
1000
DSTYLE
1002
{
1070
   279
1070
     0
1070
   172
1070
     1
1070
   173
1070
     1
1070
   340
1005
E6
1070
    77
1070
     1
1070
    73
1070
     0
1070
   171
1070
     4
1070
   274
1070
     4
1070
   177
1070
     2
1070
   176
1070
     2
1070
   178
1070
     7
1070
    78
1070
     8
1070
    41
1041
3.175
1070
   147
1041
2.25
1070
    42
1041
2.0
1070
    44
1041
2.0
1070
   140
1041
4.5
1070
   343
1005
119
1070
   344
1005
119
1002
}
0
DIMENSION
5
14A
100
AcDbEntity
8
2
62
256
6
ByLayer
370
-3
48
1
60
0
100
AcDbDimension
2
DimnDraft3D4
10
96.295162
20
0
30
0
11
73.500566
21
-36.792664
31
0
70
34
71
5
72
1
41
1
210
0
220
0
230
1
3
Standard
100
AcDb2LineAngularDimension
13
47.468976
23
1.912334
33
0
14
44.808145
24
-48.859355
34
0
15
49.94
25
0
35
0
16
76.573167
26
-30.775028
36
0
40
0
0
ENDSEC
0
SECTION
2
OBJECTS
0
DICTIONARY
5
17b
330
0
100
AcDbDictionary
280
0
281
1
3
ACAD_GROUP
350
17c
3
ACAD_MLINESTYLE
350
17d
0
DICTIONARY
5
17c
330
0
100
AcDbDictionary
280
0
281
1
0
DICTIONARY
5
17d
330
0
100
AcDbDictionary
280
0
281
1
3
Standard
350
18
0
MLINESTYLE
5
18
330
17d
100
AcDbMlineStyle
2
Standard
70
0
3

62
256
51
90
52
90
71
2
49
-0.5
62
256
6
ByLayer
49
0.5
62
256
6
ByLayer
0
RASTERVARIABLES
5
169
330

100
AcDbRasterVariables
90
0
70
1
71
1
72
1
0
ENDSEC
0
EOF
