0
SECTION
2
HEADER
9
$ACADVER
1
AC1015
9
$DWGCODEPAGE
3
ANSI_1252
9
$HANDSEED
5
181
9
$ANGBASE
50
0
9
$ANGDIR
70
0
9
$ATTMODE
70
1
9
$AUNITS
70
0
9
$AUPREC
70
0
9
$CECOLOR
62
256
9
$CELTSCALE
40
1
9
$CELTYPE
6
ByLayer
9
$CELWEIGHT
370
-1
9
$CLAYER
8
0
9
$CMLJUST
70
0
9
$CMLSCALE
40
1
9
$CMLSTYLE
2
Standard
9
$DIMSTYLE
2
Standard
9
$TEXTSIZE
40
0.2
9
$TEXTSTYLE
7
Standard
9
$LUNITS
70
2
9
$LUPREC
70
4
9
$EXTNAMES
290
1
9
$INSUNITS
70
4
9
$LTSCALE
40
1
9
$LWDISPLAY
290
0
9
$PDMODE
70
0
9
$PDSIZE
40
0
9
$PLINEGEN
70
0
0
ENDSEC
0
SECTION
2
CLASSES
0
CLASS
1
RASTERVARIABLES
2
AcDbRasterVariables
3
ISM
90
0
280
0
281
0
0
ENDSEC
0
SECTION
2
TABLES
0
TABLE
2
VPORT
5
177
100
AcDbSymbolTable
0
VPORT
5
1
100
AcDbSymbolTableRecord
100
AcDbViewportTableRecord
2
*Active
70
0
10
0
20
0
11
1
21
1
12
-1
22
1
13
0
23
0
14
0.5
24
0.5
15
10
25
10
16
0
26
0
36
1
17
0
27
0
37
0
0
ENDTAB
0
TABLE
2
LTYPE
5
178
100
AcDbSymbolTable
0
LTYPE
5
14
100
AcDbSymbolTableRecord
100
AcDbLinetypeTableRecord
70
0
2
ByBlock
3

72
65
73
0
40
0
0
LTYPE
5
15
100
AcDbSymbolTableRecord
100
AcDbLinetypeTableRecord
70
0
2
ByLayer
3

72
65
73
0
40
0
0
LTYPE
5
16
100
AcDbSymbolTableRecord
100
AcDbLinetypeTableRecord
70
0
2
CONTINUOUS
3
Solid line
72
65
73
0
40
0
0
LTYPE
5
3B
100
AcDbSymbolTableRecord
100
AcDbLinetypeTableRecord
70
0
2
DASHED
3
__ __ __ __ __ __ __ __ __
72
65
73
2
40
25.72
49
12.86
74
0
49
-12.86
74
0
0
LTYPE
5
3C
100
AcDbSymbolTableRecord
100
AcDbLinetypeTableRecord
70
0
2
HIDDEN
3
_ _ _ _ _ _ _ _ _ _ _ _ _ _ _
72
65
73
2
40
0.5
49
0.25
74
0
49
-0.25
74
0
0
LTYPE
5
3D
100
AcDbSymbolTableRecord
100
AcDbLinetypeTableRecord
70
0
2
PHANTOM
3
____ _ _ ____ _ _ _____ _ _ ____
72
65
73
6
40
50.5
49
18
74
0
49
-6.5
74
0
49
6.5
74
0
49
-6.5
74
0
49
6.5
74
0
49
-6.5
74
0
0
LTYPE
5
3E
100
AcDbSymbolTableRecord
100
AcDbLinetypeTableRecord
70
0
2
CENTER
3
____ _ ____ _ ____ _ ____
72
65
73
4
40
47.5
49
22
74
0
49
-8.5
74
0
49
8.5
74
0
49
-8.5
74
0
0
LTYPE
5
3F
100
AcDbSymbolTableRecord
100
AcDbLinetypeTableRecord
70
0
2
DOT
3
.........................
72
65
73
2
40
10
49
0
74
0
49
-10
74
0
0
LTYPE
5
40
100
AcDbSymbolTableRecord
100
AcDbLinetypeTableRecord
70
0
2
DASHDOT
3
_._._._._._._._._._._._._._._._.
72
65
73
4
40
70
49
31
74
0
49
-13
74
0
49
13
74
0
49
-13
74
0
0
ENDTAB
0
TABLE
2
LAYER
5
179
100
AcDbSymbolTable
0
LAYER
5
10
100
AcDbSymbolTableRecord
100
AcDbLayerTableRecord
2
0
70
0
62
7
6
CONTINUOUS
290
1
370
-3
390
0
0
LAYER
5
42
100
AcDbSymbolTableRecord
100
AcDbLayerTableRecord
2
1
70
0
62
4
6
CONTINUOUS
290
1
370
-3
390
0
0
LAYER
5
44
100
AcDbSymbolTableRecord
100
AcDbLayerTableRecord
2
2
70
0
62
7
6
CONTINUOUS
290
1
370
-3
390
0
0
LAYER
5
46
100
AcDbSymbolTableRecord
100
AcDbLayerTableRecord
2
80
70
0
62
-6
6
CONTINUOUS
290
1
370
-3
390
0
0
LAYER
5
48
100
AcDbSymbolTableRecord
100
AcDbLayerTableRecord
2
81
70
0
62
-3
6
CONTINUOUS
290
1
370
-3
390
0
0
LAYER
5
4F
100
AcDbSymbolTableRecord
100
AcDbLayerTableRecord
2
4
70
0
62
-2
6
CENTER
290
1
370
-3
390
0
0
LAYER
5
163
100
AcDbSymbolTableRecord
100
AcDbLayerTableRecord
2
SK4
70
0
62
2
6
CENTER
290
1
370
-3
390
0
0
LAYER
5
164
100
AcDbSymbolTableRecord
100
AcDbLayerTableRecord
2
SK1
70
0
62
4
6
CONTINUOUS
290
1
370
-3
390
0
0
LAYER
5
165
100
AcDbSymbolTableRecord
100
AcDbLayerTableRecord
2
SK6
70
0
62
5
6
CONTINUOUS
290
1
370
-3
390
0
0
LAYER
5
166
100
AcDbSymbolTableRecord
100
AcDbLayerTableRecord
2
SK2
70
0
62
7
6
CONTINUOUS
290
1
370
-3
390
0
0
ENDTAB
0
TABLE
2
STYLE
5
17a
100
AcDbSymbolTable
0
STYLE
5
11
100
AcDbSymbolTableRecord
100
AcDbTextStyleTableRecord
2
Standard
3
txt
70
0
71
0
40
0
41
1
42
0
50
0
0
STYLE
5
DF
100
AcDbSymbolTableRecord
100
AcDbTextStyleTableRecord
2
DEFAULT
3
simplex.shx
70
0
71
0
40
0
41
1
42
0
50
0
0
STYLE
5
102
100
AcDbSymbolTableRecord
100
AcDbTextStyleTableRecord
2
DWGDirectTextStyle
3
SIMPLEX
70
0
71
0
40
0
41
1
42
0
50
0
0
ENDTAB
0
TABLE
2
DIMSTYLE
5
17b
100
AcDbSymbolTable
100
AcDbDimStyleTable
0
DIMSTYLE
105
27
100
AcDbSymbolTableRecord
100
AcDbDimStyleTableRecord
2
Standard
70
0
3
<>
41
0.18
42
0.0625
44
0.18
140
0.18
147
0.09
73
0
74
0
77
1
271
2
275
0
278
52
280
0
340
11
0
ENDTAB
0
TABLE
2
VIEW
5
17c
100
AcDbSymbolTable
0
ENDTAB
0
TABLE
2
UCS
5
17d
100
AcDbSymbolTable
0
ENDTAB
0
TABLE
2
APPID
5
17e
100
AcDbSymbolTable
0
APPID
5
12
100
AcDbSymbolTableRecord
100
AcDbRegAppTableRecord
2
ACAD
70
0
0
ENDTAB
0
TABLE
2
BLOCK_RECORD
5
17f
100
AcDbSymbolTable
0
BLOCK_RECORD
5
1F
100
AcDbSymbolTableRecord
100
AcDbBlockTableRecord
2
*Model_Space
340
0
70
0
0
BLOCK_RECORD
5
1B
100
AcDbSymbolTableRecord
100
AcDbBlockTableRecord
2
*Paper_Space
340
0
70
0
0
BLOCK_RECORD
5
23
100
AcDbSymbolTableRecord
100
AcDbBlockTableRecord
2
*Paper_Space0
340
0
70
0
0
BLOCK_RECORD
5
104
100
AcDbSymbolTableRecord
100
AcDbBlockTableRecord
2
DimnDraft3D1
340
0
70
0
0
BLOCK_RECORD
5
112
100
AcDbSymbolTableRecord
100
AcDbBlockTableRecord
2
_CLOSED
340
0
70
0
0
BLOCK_RECORD
5
119
100
AcDbSymbolTableRecord
100
AcDbBlockTableRecord
2
DimnDraft3D2
340
0
70
0
0
BLOCK_RECORD
5
128
100
AcDbSymbolTableRecord
100
AcDbBlockTableRecord
2
DimnDraft3D3
340
0
70
0
0
BLOCK_RECORD
5
136
100
AcDbSymbolTableRecord
100
AcDbBlockTableRecord
2
DimnDraft3D4
340
0
70
0
0
ENDTAB
0
ENDSEC
0
SECTION
2
BLOCKS
0
BLOCK
5
20
100
AcDbEntity
8
0
100
AcDbBlockBegin
2
*Model_Space
70
0
10
0
20
0
30
0
3
*Model_Space
0
ENDBLK
5
21
100
AcDbEntity
8
0
100
AcDbBlockEnd
0
BLOCK
5
1C
100
AcDbEntity
8
0
100
AcDbBlockBegin
2
*Paper_Space
70
0
10
0
20
0
30
0
3
*Paper_Space
0
ENDBLK
5
1D
100
AcDbEntity
8
0
100
AcDbBlockEnd
0
BLOCK
5
24
100
AcDbEntity
8
0
100
AcDbBlockBegin
2
*Paper_Space0
70
0
10
0
20
0
30
0
3
*Paper_Space0
0
ENDBLK
5
25
100
AcDbEntity
8
0
100
AcDbBlockEnd
0
BLOCK
5
10F
100
AcDbEntity
8
0
100
AcDbBlockBegin
2
DimnDraft3D1
70
0
10
0
20
0
30
0
3
DimnDraft3D1
0
MTEXT
5
105
100
AcDbEntity
8
2
62
256
6
ByLayer
370
-1
48
1
60
0
100
AcDbMText
10
59.065
20
20.28
30
0
210
0
220
0
230
1
1
\W01.000;\fsimplex.shx,bigfont.shx;9.0 
40
4.5
41
0
44
1.084337
50
90
71
7
72
5
7
DEFAULT
0
LINE
5
106
100
AcDbEntity
8
2
62
256
6
ByLayer
370
-1
48
1
60
0
100
AcDbLine
10
49.94
20
8.9
30
0
11
62.19
21
8.9
31
0
39
0
210
0
220
0
230
1
0
LINE
5
107
100
AcDbEntity
8
2
62
256
6
ByLayer
370
-1
48
1
60
0
100
AcDbLine
10
49.94
20
0
30
0
11
62.19
21
0
31
0
39
0
210
0
220
0
230
1
0
LINE
5
108
100
AcDbEntity
8
2
62
256
6
ByLayer
370
-1
48
1
60
0
100
AcDbLine
10
60.19
20
0
30
0
11
60.19
21
26.177368
31
0
39
0
210
0
220
0
230
1
0
LINE
5
109
100
AcDbEntity
8
2
62
256
6
ByLayer
370
-1
48
1
60
0
100
AcDbLine
10
60.19
20
8.9
30
0
11
60.607997
21
5.725002
31
0
39
0
210
0
220
0
230
1
0
LINE
5
10A
100
AcDbEntity
8
2
62
256
6
ByLayer
370
-1
48
1
60
0
100
AcDbLine
10
60.19
20
8.9
30
0
11
59.772003
21
5.724998
31
0
39
0
210
0
220
0
230
1
0
LINE
5
10B
100
AcDbEntity
8
2
62
256
6
ByLayer
370
-1
48
1
60
0
100
AcDbLine
10
60.607997
20
5.725002
30
0
11
59.772003
21
5.724998
31
0
39
0
210
0
220
0
230
1
0
LINE
5
10C
100
AcDbEntity
8
2
62
256
6
ByLayer
370
-1
48
1
60
0
100
AcDbLine
10
60.19
20
0
30
0
11
59.772003
21
3.174998
31
0
39
0
210
0
220
0
230
1
0
LINE
5
10D
100
AcDbEntity
8
2
62
256
6
ByLayer
370
-1
48
1
60
0
100
AcDbLine
10
60.19
20
0
30
0
11
60.607997
21
3.175002
31
0
39
0
210
0
220
0
230
1
0
LINE
5
10E
100
AcDbEntity
8
2
62
256
6
ByLayer
370
-1
48
1
60
0
100
AcDbLine
10
59.772003
20
3.174998
30
0
11
60.607997
21
3.175002
31
0
39
0
210
0
220
0
230
1
0
ENDBLK
5
110
100
AcDbEntity
8
0
100
AcDbBlockEnd
0
BLOCK
5
113
100
AcDbEntity
8
0
100
AcDbBlockBegin
2
_CLOSED
70
0
10
0
20
0
30
0
3
_CLOSED
0
LINE
5
115
100
AcDbEntity
8
0
62
256
6
ByLayer
370
-2
48
1
60
0
100
AcDbLine
10
-1
20
0.166667
30
0
11
0
21
0
31
0
39
0
210
0
220
0
230
1
0
LINE
5
116
100
AcDbEntity
8
0
62
256
6
ByLayer
370
-2
48
1
60
0
100
AcDbLine
10
0
20
0
30
0
11
-1
21
-0.166667
31
0
39
0
210
0
220
0
230
1
0
LINE
5
117
100
AcDbEntity
8
0
62
256
6
ByLayer
370
-2
48
1
60
0
100
AcDbLine
10
-1
20
0.166667
30
0
11
-1
21
-0.166667
31
0
39
0
210
0
220
0
230
1
0
LINE
5
118
100
AcDbEntity
8
0
62
256
6
ByLayer
370
-2
48
1
60
0
100
AcDbLine
10
0
20
0
30
0
11
-1
21
0
31
0
39
0
210
0
220
0
230
1
0
ENDBLK
5
114
100
AcDbEntity
8
0
100
AcDbBlockEnd
0
BLOCK
5
125
100
AcDbEntity
8
0
100
AcDbBlockBegin
2
DimnDraft3D2
70
0
10
0
20
0
30
0
3
DimnDraft3D2
0
MTEXT
5
11A
100
AcDbEntity
8
SK2
62
256
6
ByLayer
370
-1
48
1
60
0
100
AcDbMText
10
-114.185
20
17.3725
30
0
210
0
220
0
230
1
1
\W01.000;\fsimplex.shx,bigfont.shx;%%c12 
40
4.5
41
0
44
1.084337
50
90
71
7
72
5
7
DEFAULT
0
LINE
5
11C
100
AcDbEntity
8
SK2
62
256
6
ByLayer
370
-1
48
1
60
0
100
AcDbLine
10
-105.31
20
-5.9925
30
0
11
-115.06
21
-5.9925
31
0
39
0
210
0
220
0
230
1
0
LINE
5
11D
100
AcDbEntity
8
SK2
62
256
6
ByLayer
370
-1
48
1
60
0
100
AcDbLine
10
-105.31
20
5.9925
30
0
11
-115.06
21
5.9925
31
0
39
0
210
0
220
0
230
1
0
LINE
5
11E
100
AcDbEntity
8
SK2
62
256
6
ByLayer
370
-1
48
1
60
0
100
AcDbLine
10
-113.06
20
-5.9925
30
0
11
-113.06
21
24.690921
31
0
39
0
210
0
220
0
230
1
0
LINE
5
11F
100
AcDbEntity
8
SK2
62
256
6
ByLayer
370
-1
48
1
60
0
100
AcDbLine
10
-113.06
20
-5.9925
30
0
11
-113.477997
21
-2.817502
31
0
39
0
210
0
220
0
230
1
0
LINE
5
120
100
AcDbEntity
8
SK2
62
256
6
ByLayer
370
-1
48
1
60
0
100
AcDbLine
10
-113.06
20
-5.9925
30
0
11
-112.642003
21
-2.817498
31
0
39
0
210
0
220
0
230
1
0
LINE
5
121
100
AcDbEntity
8
SK2
62
256
6
ByLayer
370
-1
48
1
60
0
100
AcDbLine
10
-113.477997
20
-2.817502
30
0
11
-112.642003
21
-2.817498
31
0
39
0
210
0
220
0
230
1
0
LINE
5
122
100
AcDbEntity
8
SK2
62
256
6
ByLayer
370
-1
48
1
60
0
100
AcDbLine
10
-113.06
20
5.9925
30
0
11
-112.642003
21
2.817502
31
0
39
0
210
0
220
0
230
1
0
LINE
5
123
100
AcDbEntity
8
SK2
62
256
6
ByLayer
370
-1
48
1
60
0
100
AcDbLine
10
-113.06
20
5.9925
30
0
11
-113.477997
21
2.817498
31
0
39
0
210
0
220
0
230
1
0
LINE
5
124
100
AcDbEntity
8
SK2
62
256
6
ByLayer
370
-1
48
1
60
0
100
AcDbLine
10
-112.642003
20
2.817502
30
0
11
-113.477997
21
2.817498
31
0
39
0
210
0
220
0
230
1
0
ENDBLK
5
126
100
AcDbEntity
8
0
100
AcDbBlockEnd
0
BLOCK
5
133
100
AcDbEntity
8
0
100
AcDbBlockBegin
2
DimnDraft3D3
70
0
10
0
20
0
30
0
3
DimnDraft3D3
0
MTEXT
5
129
100
AcDbEntity
8
SK2
62
256
6
ByLayer
370
-1
48
1
60
0
100
AcDbMText
10
-32.812632
20
22.775
30
0
210
0
220
0
230
1
1
\W01.000;\fsimplex.shx,bigfont.shx;150.0 
40
4.5
41
0
44
1.084337
50
0
71
7
72
5
7
DEFAULT
0
LINE
5
12A
100
AcDbEntity
8
SK2
62
256
6
ByLayer
370
-1
48
1
60
0
100
AcDbLine
10
47.94
20
10.9
30
0
11
47.94
21
23.65
31
0
39
0
210
0
220
0
230
1
0
LINE
5
12B
100
AcDbEntity
8
SK2
62
256
6
ByLayer
370
-1
48
1
60
0
100
AcDbLine
10
-103.31
20
7.9925
30
0
11
-103.31
21
23.65
31
0
39
0
210
0
220
0
230
1
0
LINE
5
12C
100
AcDbEntity
8
SK2
62
256
6
ByLayer
370
-1
48
1
60
0
100
AcDbLine
10
47.94
20
21.65
30
0
11
-103.31
21
21.65
31
0
39
0
210
0
220
0
230
1
0
LINE
5
12D
100
AcDbEntity
8
SK2
62
256
6
ByLayer
370
-1
48
1
60
0
100
AcDbLine
10
47.94
20
21.65
30
0
11
44.765002
21
21.232003
31
0
39
0
210
0
220
0
230
1
0
LINE
5
12E
100
AcDbEntity
8
SK2
62
256
6
ByLayer
370
-1
48
1
60
0
100
AcDbLine
10
47.94
20
21.65
30
0
11
44.764998
21
22.067997
31
0
39
0
210
0
220
0
230
1
0
LINE
5
12F
100
AcDbEntity
8
SK2
62
256
6
ByLayer
370
-1
48
1
60
0
100
AcDbLine
10
44.765002
20
21.232003
30
0
11
44.764998
21
22.067997
31
0
39
0
210
0
220
0
230
1
0
LINE
5
130
100
AcDbEntity
8
SK2
62
256
6
ByLayer
370
-1
48
1
60
0
100
AcDbLine
10
-103.31
20
21.65
30
0
11
-100.135002
21
22.067997
31
0
39
0
210
0
220
0
230
1
0
LINE
5
131
100
AcDbEntity
8
SK2
62
256
6
ByLayer
370
-1
48
1
60
0
100
AcDbLine
10
-103.31
20
21.65
30
0
11
-100.134998
21
21.232003
31
0
39
0
210
0
220
0
230
1
0
LINE
5
132
100
AcDbEntity
8
SK2
62
256
6
ByLayer
370
-1
48
1
60
0
100
AcDbLine
10
-100.135002
20
22.067997
30
0
11
-100.134998
21
21.232003
31
0
39
0
210
0
220
0
230
1
0
ENDBLK
5
134
100
AcDbEntity
8
0
100
AcDbBlockEnd
0
BLOCK
5
141
100
AcDbEntity
8
0
100
AcDbBlockBegin
2
DimnDraft3D4
70
0
10
0
20
0
30
0
3
DimnDraft3D4
0
MTEXT
5
137
100
AcDbEntity
8
2
62
256
6
ByLayer
370
-1
48
1
60
0
100
AcDbMText
10
74.236537
20
-37.312521
30
0
210
0
220
0
230
1
1
\W01.000;\fsimplex.shx,bigfont.shx;95%%d0' 
40
4.5
41
0
44
1.084337
50
42.5000000000001
71
7
72
5
7
DEFAULT
0
LINE
5
138
100
AcDbEntity
8
2
62
256
6
ByLayer
370
-1
48
1
60
0
100
AcDbLine
10
47.242754
20
0.930442
30
0
11
42.897134
21
-48.740227
31
0
39
0
210
0
220
0
230
1
0
LINE
5
139
100
AcDbEntity
8
2
62
256
6
ByLayer
370
-1
48
1
60
0
100
AcDbLine
10
49.94
20
0
30
0
11
96.087758
21
0
31
0
39
0
210
0
220
0
230
1
0
ARC
5
13A
100
AcDbEntity
8
2
62
256
6
ByLayer
370
-1
48
1
60
0
100
AcDbCircle
39
0
10
47.161351
20
0
30
0
40
46.9264068782928
210
0
220
0
230
1
100
AcDbArc
50
265
51
0
0
LINE
5
13B
100
AcDbEntity
8
2
62
256
6
ByLayer
370
-1
48
1
60
0
100
AcDbLine
10
43.071445
20
-46.747838
30
0
11
46.267973
21
-46.554078
31
0
39
0
210
0
220
0
230
1
0
LINE
5
13C
100
AcDbEntity
8
2
62
256
6
ByLayer
370
-1
48
1
60
0
100
AcDbLine
10
43.071445
20
-46.747838
30
0
11
46.209206
21
-47.388003
31
0
39
0
210
0
220
0
230
1
0
LINE
5
13D
100
AcDbEntity
8
2
62
256
6
ByLayer
370
-1
48
1
60
0
100
AcDbLine
10
46.267973
20
-46.554078
30
0
11
46.209206
21
-47.388003
31
0
39
0
210
0
220
0
230
1
0
LINE
5
13E
100
AcDbEntity
8
2
62
256
6
ByLayer
370
-1
48
1
60
0
100
AcDbLine
10
94.087758
20
0
30
0
11
94.452013
21
-3.181612
31
0
39
0
210
0
220
0
230
1
0
LINE
5
13F
100
AcDbEntity
8
2
62
256
6
ByLayer
370
-1
48
1
60
0
100
AcDbLine
10
94.087758
20
0
30
0
11
93.616139
21
-3.16748
31
0
39
0
210
0
220
0
230
1
0
LINE
5
140
100
AcDbEntity
8
2
62
256
6
ByLayer
370
-1
48
1
60
0
100
AcDbLine
10
94.452013
20
-3.181612
30
0
11
93.616139
21
-3.16748
31
0
39
0
210
0
220
0
230
1
0
ENDBLK
5
142
100
AcDbEntity
8
0
100
AcDbBlockEnd
0
ENDSEC
0
SECTION
2
ENTITIES
0
ELLIPSE
5
92
100
AcDbEntity
8
1
62
256
6
ByLayer
370
-1
48
1
60
0
100
AcDbEllipse
10
41.689209
20
3.611495
30
0
11
1.24524337261468
21
-0.108944678434598
31
0
210
0
220
0
230
1
40
0.991842
41
2.02469010453225
42
-2.96705972839029
0
ELLIPSE
5
93
100
AcDbEntity
8
1
62
256
6
ByLayer
370
-1
48
1
60
0
100
AcDbEllipse
10
41.49039
20
2.17406
30
0
11
1.04600443299633
21
-0.0915135298850625
31
0
210
0
220
0
230
1
40
0.991842
41
2.04050691293954
42
2.98180630220895
0
ELLIPSE
5
94
100
AcDbEntity
8
1
62
256
6
ByLayer
370
-1
48
1
60
0
100
AcDbEllipse
10
41.665322
20
3.338463
30
0
11
-1.24524337261468
21
0.108944678434571
31
0
210
0
220
0
230
1
40
0.991842
41
-1.11689934404759
42
-0.110764302112851
0
ELLIPSE
5
95
100
AcDbEntity
8
1
62
256
6
ByLayer
370
-1
48
1
60
0
100
AcDbEllipse
10
41.495389
20
2.231204
30
0
11
-1.04600443299633
21
0.0915135298850399
31
0
210
0
220
0
230
1
40
0.991842
41
-1.10109608919627
42
-0.185678771189576
0
ELLIPSE
5
96
100
AcDbEntity
8
1
62
256
6
ByLayer
370
-1
48
1
60
0
100
AcDbEllipse
10
41.519276
20
2.504236
30
0
11
-1.04600443299633
21
0.0915135298850399
31
0
210
0
220
0
230
1
40
0.991842
41
-0.185678771189522
42
2.8763084666895
0
ELLIPSE
5
97
100
AcDbEntity
8
1
62
256
6
ByLayer
370
-1
48
1
60
0
100
AcDbEllipse
10
44.489391
20
5.477132
30
0
11
1.91523434805457
21
-0.167561293450278
31
0
210
0
220
0
230
1
40
0.991842
41
0
42
6.28318530717959
0
ELLIPSE
5
98
100
AcDbEntity
8
1
62
256
6
ByLayer
370
-1
48
1
60
0
100
AcDbEllipse
10
47.543012
20
8.506202
30
0
11
0.395489295142355
21
-0.0346008298708225
31
0
210
0
220
0
230
1
40
0.991842
41
0
42
1.74532925199424
0
ELLIPSE
5
99
100
AcDbEntity
8
1
62
256
6
ByLayer
370
-1
48
1
60
0
100
AcDbEllipse
10
44.481837
20
5.390781
30
0
11
1.86786505892202
21
-0.163417017651898
31
0
210
0
220
0
230
1
40
0.991842
41
-0.555801942410879
42
-9.5518269477074E-16
0
ELLIPSE
5
9A
100
AcDbEntity
8
1
62
256
6
ByLayer
370
-1
48
1
60
0
100
AcDbEllipse
10
44.481837
20
5.390781
30
0
11
1.86786505892202
21
-0.163417017651898
31
0
210
0
220
0
230
1
40
0.991842
41
0
42
0.0879803902571788
0
ELLIPSE
5
9B
100
AcDbEntity
8
1
62
256
6
ByLayer
370
-1
48
1
60
0
100
AcDbEllipse
10
44.481837
20
5.390781
30
0
11
1.86786505892202
21
-0.163417017651898
31
0
210
0
220
0
230
1
40
0.991842
41
0.0879804498927783
42
-2.58576144284296
0
ELLIPSE
5
9C
100
AcDbEntity
8
1
62
256
6
ByLayer
370
-1
48
1
60
0
100
AcDbEllipse
10
44.489481
20
5.478156
30
0
11
1.03111132225985
21
-0.090210551530984
31
0
210
0
220
0
230
1
40
0.991842
41
-0.654345815783911
42
0.349065706007173
0
ELLIPSE
5
9D
100
AcDbEntity
8
1
62
256
6
ByLayer
370
-1
48
1
60
0
100
AcDbEllipse
10
44.488793
20
5.470291
30
0
11
0.924240230422541
21
-0.0808605425365793
31
0
210
0
220
0
230
1
40
0.991842
41
-0.438269368701566
42
-0.436221541666216
0
ELLIPSE
5
9E
100
AcDbEntity
8
1
62
256
6
ByLayer
370
-1
48
1
60
0
100
AcDbEllipse
10
44.488793
20
5.470291
30
0
11
0.924240230422541
21
-0.0808605425365793
31
0
210
0
220
0
230
1
40
0.991842
41
1.13435324246389
42
1.13457478512863
0
ELLIPSE
5
9F
100
AcDbEntity
8
1
62
256
6
ByLayer
370
-1
48
1
60
0
100
AcDbEllipse
10
44.488793
20
5.470291
30
0
11
0.924240230422541
21
-0.0808605425365793
31
0
210
0
220
0
230
1
40
0.991842
41
1.65795201806221
42
1.65817356072695
0
ELLIPSE
5
A0
100
AcDbEntity
8
1
62
256
6
ByLayer
370
-1
48
1
60
0
100
AcDbEllipse
10
44.488793
20
5.470291
30
0
11
0.924240230422541
21
-0.0808605425365793
31
0
210
0
220
0
230
1
40
0.991842
41
2.18155079366059
42
2.1835986206959
0
ELLIPSE
5
A1
100
AcDbEntity
8
1
62
256
6
ByLayer
370
-1
48
1
60
0
100
AcDbEllipse
10
45.135593
20
4.837231
30
0
11
0.179012599368132
21
0.162993841109079
31
0
210
0
220
0
230
-1
40
0.500434
41
1.35782605572935
42
1.50980263282562
0
ELLIPSE
5
A2
100
AcDbEntity
8
1
62
256
6
ByLayer
370
-1
48
1
60
0
100
AcDbEllipse
10
44.488793
20
5.470291
30
0
11
0.924240230422541
21
-0.0808605425365793
31
0
210
0
220
0
230
1
40
0.991842
41
-2.00723941112577
42
-2.00701786846109
0
ELLIPSE
5
A3
100
AcDbEntity
8
1
62
256
6
ByLayer
370
-1
48
1
60
0
100
AcDbEllipse
10
44.488793
20
5.470291
30
0
11
0.924240230422541
21
-0.0808605425365793
31
0
210
0
220
0
230
1
40
0.991842
41
-1.48364063552752
42
-1.48341909286275
0
ELLIPSE
5
A4
100
AcDbEntity
8
1
62
256
6
ByLayer
370
-1
48
1
60
0
100
AcDbEllipse
10
43.843369
20
6.119081
30
0
11
0.165276170013201
21
0.176693502656067
31
0
210
0
220
0
230
-1
40
0.501081
41
-1.52055108190318
42
-1.3685744995859
0
ELLIPSE
5
A5
100
AcDbEntity
8
1
62
256
6
ByLayer
370
-1
48
1
60
0
100
AcDbEllipse
10
44.489481
20
5.478156
30
0
11
1.03111132225985
21
-0.090210551530984
31
0
210
0
220
0
230
1
40
0.991842
41
2.43511803875092
42
-2.7925266587992
0
ELLIPSE
5
A6
100
AcDbEntity
8
1
62
256
6
ByLayer
370
-1
48
1
60
0
100
AcDbEllipse
10
44.489481
20
5.478156
30
0
11
1.03111132225985
21
-0.090210551530984
31
0
210
0
220
0
230
1
40
0.991842
41
0.349065706007173
42
2.39967506778572
0
ELLIPSE
5
A7
100
AcDbEntity
8
1
62
256
6
ByLayer
370
-1
48
1
60
0
100
AcDbEllipse
10
44.478371
20
5.35117
30
0
11
-0.788189245130163
21
0.0689576236619438
31
0
210
0
220
0
230
1
40
0.991842
41
0.0879808831942977
42
0.548959853003905
0
ELLIPSE
5
A8
100
AcDbEntity
8
1
62
256
6
ByLayer
370
-1
48
1
60
0
100
AcDbEllipse
10
44.478371
20
5.35117
30
0
11
-0.788189245130163
21
0.0689576236619438
31
0
210
0
220
0
230
1
40
0.991842
41
1.04621360950164
42
1.67502343126338
0
ELLIPSE
5
A9
100
AcDbEntity
8
1
62
256
6
ByLayer
370
-1
48
1
60
0
100
AcDbEllipse
10
44.478371
20
5.35117
30
0
11
-0.788189245130163
21
0.0689576236619438
31
0
210
0
220
0
230
1
40
0.991842
41
2.23668164459221
42
2.95051036700628
0
ELLIPSE
5
AA
100
AcDbEntity
8
1
62
256
6
ByLayer
370
-1
48
1
60
0
100
AcDbEllipse
10
44.478371
20
5.35117
30
0
11
-0.788189245130163
21
0.0689576236619438
31
0
210
0
220
0
230
1
40
0.991842
41
3.14155830209598
42
0
0
ELLIPSE
5
AB
100
AcDbEntity
8
1
62
256
6
ByLayer
370
-1
48
1
60
0
100
AcDbEllipse
10
44.478371
20
5.35117
30
0
11
-0.788189245130163
21
0.0689576236619438
31
0
210
0
220
0
230
1
40
0.991842
41
0
42
0.0879807740853142
0
ELLIPSE
5
AC
100
AcDbEntity
8
1
62
256
6
ByLayer
370
-1
48
1
60
0
100
AcDbEllipse
10
44.489481
20
5.478156
30
0
11
1.03111132225985
21
-0.090210551530984
31
0
210
0
220
0
230
1
40
0.991842
41
-2.7925266587992
42
-0.689788786764122
0
ELLIPSE
5
AD
100
AcDbEntity
8
1
62
256
6
ByLayer
370
-1
48
1
60
0
100
AcDbEllipse
10
43.832259
20
5.992095
30
0
11
0.165276170319407
21
0.176693503321192
31
0
210
0
220
0
230
-1
40
0.501081
41
-2.25710381021394
42
0.210569228904863
0
ELLIPSE
5
AE
100
AcDbEntity
8
1
62
256
6
ByLayer
370
-1
48
1
60
0
100
AcDbEllipse
10
44.478371
20
5.35117
30
0
11
-0.924240230422542
21
0.080860542536559
31
0
210
0
220
0
230
1
40
0.991842
41
-0.960041859929166
42
-0.957994032893867
0
ELLIPSE
5
AF
100
AcDbEntity
8
1
62
256
6
ByLayer
370
-1
48
1
60
0
100
AcDbEllipse
10
44.24142
20
6.226232
30
0
11
0.234372293635367
21
0.0617495197341174
31
0
210
0
220
0
230
-1
40
0.47828
41
0.142550765595258
42
2.99251153247698
0
ELLIPSE
5
B0
100
AcDbEntity
8
1
62
256
6
ByLayer
370
-1
48
1
60
0
100
AcDbEllipse
10
44.478371
20
5.35117
30
0
11
-0.924240230422542
21
0.080860542536559
31
0
210
0
220
0
230
1
40
0.991842
41
-1.48364063552746
42
-1.48341909286278
0
ELLIPSE
5
B1
100
AcDbEntity
8
1
62
256
6
ByLayer
370
-1
48
1
60
0
100
AcDbEllipse
10
44.714072
20
6.225898
30
0
11
0.234415449983432
21
-0.0622531667921957
31
0
210
0
220
0
230
-1
40
0.477608
41
2.99751017983623
42
-0.313416099656796
0
ELLIPSE
5
B2
100
AcDbEntity
8
1
62
256
6
ByLayer
370
-1
48
1
60
0
100
AcDbEllipse
10
45.123568
20
5.99118
30
0
11
0.172068702209267
21
-0.169862112459811
31
0
210
0
220
0
230
-1
40
0.480592
41
0.126398366910856
42
3.00081797548276
0
ELLIPSE
5
B3
100
AcDbEntity
8
1
62
256
6
ByLayer
370
-1
48
1
60
0
100
AcDbEllipse
10
45.360184
20
5.584973
30
0
11
0.0633722597825932
21
-0.232367855466298
31
0
210
0
220
0
230
-1
40
0.505624
41
3.02864194284168
42
-1.14496571414362
0
ELLIPSE
5
B4
100
AcDbEntity
8
1
62
256
6
ByLayer
370
-1
48
1
60
0
100
AcDbEllipse
10
45.360519
20
5.116118
30
0
11
0.0628199564473032
21
0.232338272046411
31
0
210
0
220
0
230
-1
40
0.485017
41
-2.99755348926168
42
-1.92373328696865
0
ELLIPSE
5
B5
100
AcDbEntity
8
1
62
256
6
ByLayer
370
-1
48
1
60
0
100
AcDbEllipse
10
43.596558
20
5.117368
30
0
11
0.0633721558743643
21
-0.232367883217558
31
0
210
0
220
0
230
-1
40
0.505624
41
2.20121180830567
42
-3.02148870398242
0
ELLIPSE
5
B6
100
AcDbEntity
8
1
62
256
6
ByLayer
370
-1
48
1
60
0
100
AcDbEllipse
10
43.596223
20
5.586222
30
0
11
0.0628199564472416
21
0.232338272046361
31
0
210
0
220
0
230
-1
40
0.485017
41
1.21786340232516
42
3.01845877292693
0
ELLIPSE
5
B7
100
AcDbEntity
8
1
62
256
6
ByLayer
370
-1
48
1
60
0
100
AcDbEllipse
10
44.47726
20
5.338472
30
0
11
0.788189245130159
21
-0.0689576236619608
31
0
210
0
220
0
230
1
40
0.991842
41
0
42
0.0879170632338392
0
ELLIPSE
5
B8
100
AcDbEntity
8
1
62
256
6
ByLayer
370
-1
48
1
60
0
100
AcDbEllipse
10
44.47726
20
5.338472
30
0
11
0.788189245130159
21
-0.0689576236619608
31
0
210
0
220
0
230
1
40
0.991842
41
0.0879808831942808
42
3.14155830209597
0
ELLIPSE
5
B9
100
AcDbEntity
8
1
62
256
6
ByLayer
370
-1
48
1
60
0
100
AcDbEllipse
10
44.487549
20
5.45607
30
0
11
1.71843585420826
21
-0.150343656239746
31
0
210
0
220
0
230
1
40
0.991842
41
0
42
6.28318530717959
0
ELLIPSE
5
BA
100
AcDbEntity
8
1
62
256
6
ByLayer
370
-1
48
1
60
0
100
AcDbEllipse
10
44.479482
20
5.363869
30
0
11
1.71843585420825
21
-0.150343656239745
31
0
210
0
220
0
230
1
40
0.991842
41
3.14155863171454
42
0
0
ELLIPSE
5
BB
100
AcDbEntity
8
1
62
256
6
ByLayer
370
-1
48
1
60
0
100
AcDbEllipse
10
44.489481
20
5.478156
30
0
11
1.29505310751925
21
-0.113302465571981
31
0
210
0
220
0
230
1
40
0.991842
41
0
42
6.28318530717959
0
ELLIPSE
5
BC
100
AcDbEntity
8
1
62
256
6
ByLayer
370
-1
48
1
60
0
100
AcDbEllipse
10
47.055316
20
2.931808
30
0
11
0.395489295142384
21
-0.0346008298708251
31
0
210
0
220
0
230
1
40
0.991842
41
-1.39626340159542
42
-9.02250656269675E-14
0
ELLIPSE
5
BD
100
AcDbEntity
8
1
62
256
6
ByLayer
370
-1
48
1
60
0
100
AcDbEllipse
10
41.923467
20
8.022456
30
0
11
0.395489295142328
21
-0.0346008298708202
31
0
210
0
220
0
230
1
40
0.991842
41
1.74532925199418
42
3.1415926535897
0
ELLIPSE
5
BE
100
AcDbEntity
8
1
62
256
6
ByLayer
370
-1
48
1
60
0
100
AcDbEllipse
10
41.435771
20
2.448062
30
0
11
0.395489295142355
21
-0.0346008298708225
31
0
210
0
220
0
230
1
40
0.991842
41
3.1415926535896
42
-1.39626340159577
0
POINT
5
41
100
AcDbEntity
8
1
62
256
6
ByLayer
370
-1
48
1
60
0
100
AcDbPoint
10
-103.31
20
0
30
0
39
0
210
0
220
0
230
1
50
360
0
POINT
5
43
100
AcDbEntity
8
2
62
256
6
ByLayer
370
-1
48
1
60
0
100
AcDbPoint
10
47.94
20
8.9
30
0
39
0
210
0
220
0
230
1
50
360
0
POINT
5
45
100
AcDbEntity
8
80
62
256
6
ByLayer
370
-1
48
1
60
0
100
AcDbPoint
10
0
20
0
30
0
39
0
210
0
220
0
230
1
50
360
0
POINT
5
47
100
AcDbEntity
8
81
62
256
6
ByLayer
370
-1
48
1
60
0
100
AcDbPoint
10
47.94
20
8.9
30
0
39
0
210
0
220
0
230
1
50
360
0
SPLINE
5
BF
100
AcDbEntity
8
1
62
256
6
ByLayer
370
-1
48
1
60
0
100
AcDbSpline
70
4
71
3
72
8
73
4
40
0
40
0
40
0
40
0
40
1
40
1
40
1
40
1
41
1
10
34.2977475114168
20
5.73857844912447
30
0
41
1
10
34.2727468762494
20
5.76272859594354
30
0
41
1
10
34.2477467609836
20
5.78685932369021
30
0
41
1
10
34.2227475114169
20
5.81097002101086
30
0
0
SPLINE
5
C0
100
AcDbEntity
8
1
62
256
6
ByLayer
370
-1
48
1
60
0
100
AcDbSpline
70
4
71
3
72
8
73
4
40
0
40
0
40
0
40
0
40
1
40
1
40
1
40
1
41
1
10
34.2227475114169
20
-3.83331572192233
30
0
41
1
10
33.161987356413
20
-2.949149696729
30
0
41
1
10
32.3688138605344
20
-1.67232524305948
30
0
41
1
10
31.8332867170207
20
-0.205965906324195
30
0
0
SPLINE
5
C1
100
AcDbEntity
8
1
62
256
6
ByLayer
370
-1
48
1
60
0
100
AcDbSpline
70
2053
71
3
72
50
73
46
40
-0.0842845104217775
40
0
40
0
40
0
40
0.104610089996939
40
0.104610089996939
40
0.104610089996939
40
0.141563694930086
40
0.141563694930086
40
0.179015458372144
40
0.179015458372144
40
0.203654636109934
40
0.203654636109934
40
0.228503449277734
40
0.228503449277734
40
0.250802831079563
40
0.250802831079563
40
0.274027475641553
40
0.274027475641553
40
0.310961634177331
40
0.310961634177331
40
0.366707192880501
40
0.366707192880501
40
0.455734939494908
40
0.455734939494908
40
0.587012906826805
40
0.587012906826805
40
0.587012906826805
40
0.63754071794092
40
0.63754071794092
40
0.688573746189612
40
0.688573746189612
40
0.708776783061043
40
0.708776783061043
40
0.72152556027299
40
0.72152556027299
40
0.734450061027925
40
0.734450061027925
40
0.745548124699825
40
0.745548124699825
40
0.763925701614568
40
0.763925701614568
40
0.801045081063278
40
0.801045081063278
40
0.915715489578222
40
0.915715489578222
40
1
40
1
40
1
40
1.10461008999694
41
1
10
35.3556261506027
20
2.1948316105764
30
0
41
1
10
35.0886651368378
20
2.07076243654768
30
0
41
1
10
34.8044280631
20
1.98345921879653
30
0
41
1
10
34.5190400003365
20
1.98113515765499
30
0
41
1
10
34.4166513815182
20
1.98030135469901
30
0
41
1
10
34.3129459308164
20
1.99086801369057
30
0
41
1
10
34.1093459268868
20
2.04423373981931
30
0
41
1
10
34.0069703010429
20
2.08840029187206
30
0
41
1
10
33.8536324086264
20
2.19703914708484
30
0
41
1
10
33.795791819536
20
2.25068835321045
30
0
41
1
10
33.6970370961758
20
2.3747052800868
30
0
41
1
10
33.6550298316503
20
2.44707528205865
30
0
41
1
10
33.5980213265232
20
2.59055514255726
30
0
41
1
10
33.5799167042132
20
2.66274558609885
30
0
41
1
10
33.5616272625853
20
2.80731474369333
30
0
41
1
10
33.5618645714991
20
2.88120676382258
30
0
41
1
10
33.5824414201084
20
3.06244866042897
30
0
41
1
10
33.614473012843
20
3.16728101911173
30
0
41
1
10
33.7242759332927
20
3.40321082379151
30
0
41
1
10
33.8185518926165
20
3.52596577185974
30
0
41
1
10
34.0984629307923
20
3.79645679893892
30
0
41
1
10
34.3104654147883
20
3.92253784974153
30
0
41
1
10
34.8726077989804
20
4.15937724898365
30
0
41
1
10
35.2525322963818
20
4.24251531970305
30
0
41
1
10
35.6448627660639
20
4.2689904288753
30
0
41
1
10
35.7975304438292
20
4.27929269634686
30
0
41
1
10
35.9535583463649
20
4.28084541967584
30
0
41
1
10
36.2680514658061
20
4.2569130091735
30
0
41
1
10
36.4302899990986
20
4.23295341957228
30
0
41
1
10
36.6432134071649
20
4.15166100960255
30
0
41
1
10
36.7031497194757
20
4.12219759883007
30
0
41
1
10
36.7895139546784
20
4.05799380906512
30
0
41
1
10
36.8206050551295
20
4.02852078833885
30
0
41
1
10
36.8708287577173
20
3.96096962056316
30
0
41
1
10
36.8902063460517
20
3.92170294787417
30
0
41
1
10
36.910924738823
20
3.84622338803169
30
0
41
1
10
36.9148205631251
20
3.80958465673183
30
0
41
1
10
36.9130372438997
20
3.71469666396538
30
0
41
1
10
36.9000035553851
20
3.6562663683614
30
0
41
1
10
36.8438133219102
20
3.49058771601028
30
0
41
1
10
36.7837415493132
20
3.38909292471664
30
0
41
1
10
36.5162595928844
20
3.00754018585289
30
0
41
1
10
36.2529812613817
20
2.77152052997548
30
0
41
1
10
35.7827718610593
20
2.42379559355405
30
0
41
1
10
35.5723883826802
20
2.29557108079047
30
0
41
1
10
35.3556261506027
20
2.1948316105764
30
0
0
SPLINE
5
C2
100
AcDbEntity
8
1
62
256
6
ByLayer
370
-1
48
1
60
0
100
AcDbSpline
70
4
71
3
72
8
73
4
40
0
40
0
40
0
40
0
40
1
40
1
40
1
40
1
41
1
10
38.6276437142717
20
7.38066301578874
30
0
41
1
10
38.729528166181
20
7.43956732397999
30
0
41
1
10
38.831420205197
20
7.49845874146044
30
0
41
1
10
38.9333193
20
7.55733816079146
30
0
0
SPLINE
5
C3
100
AcDbEntity
8
1
62
256
6
ByLayer
370
-1
48
1
60
0
100
AcDbSpline
70
4
71
3
72
12
73
8
40
0
40
0
40
0
40
0
40
0.5
40
0.5
40
0.75
40
0.75
40
1
40
1
40
1
40
1
41
1
10
31.6915162287302
20
0.205965906324252
30
0
41
1
10
31.2345594467508
20
1.61897114326126
30
0
41
1
10
31.0260053264705
20
3.12258828432391
30
0
41
1
10
31.6409824225134
20
4.66350288334783
30
0
41
1
10
32.0117808595064
20
5.05326778638531
30
0
41
1
10
32.9817157102279
20
5.57418654330732
30
0
41
1
10
33.5739128141385
20
5.7196217665373
30
0
41
1
10
34.2227475114169
20
5.81097002101103
30
0
0
SPLINE
5
C4
100
AcDbEntity
8
1
62
256
6
ByLayer
370
-1
48
1
60
0
100
AcDbSpline
70
4
71
3
72
8
73
4
40
0
40
0
40
0
40
0
40
1
40
1
40
1
40
1
41
1
10
36.092843700849
20
-5.09212118926172
30
0
41
1
10
36.1479246041201
20
-5.06560186984811
30
0
41
1
10
36.205175396403
20
-5.03803783300293
30
0
41
1
10
36.2643420845529
20
-5.00955136657802
30
0
0
SPLINE
5
C5
100
AcDbEntity
8
1
62
256
6
ByLayer
370
-1
48
1
60
0
100
AcDbSpline
70
4
71
3
72
8
73
4
40
0
40
0
40
0
40
0
40
1
40
1
40
1
40
1
41
1
10
36.0928437008492
20
5.87663406868387
30
0
41
1
10
35.4708975639821
20
5.85442873714359
30
0
41
1
10
34.863140818399
20
5.8168899934891
30
0
41
1
10
34.2977475114168
20
5.73857844912445
30
0
0
SPLINE
5
C6
100
AcDbEntity
8
1
62
256
6
ByLayer
370
-1
48
1
60
0
100
AcDbSpline
70
4
71
3
72
8
73
4
40
0
40
0
40
0
40
0
40
1
40
1
40
1
40
1
41
1
10
41.5042376758916
20
7.78591946299423
30
0
41
1
10
40.6472582365699
20
7.70979815732255
30
0
41
1
10
39.7902852306606
20
7.6336066506048
30
0
41
1
10
38.9333193
20
7.55733816079146
30
0
0
SPLINE
5
C7
100
AcDbEntity
8
1
62
256
6
ByLayer
370
-1
48
1
60
0
100
AcDbSpline
70
4
71
3
72
8
73
4
40
0
40
0
40
0
40
0
40
1
40
1
40
1
40
1
41
1
10
34.2227475114169
20
-3.8333157219225
30
0
41
1
10
34.2476852833795
20
-3.82783663989701
30
0
41
1
10
34.2726868550381
20
-3.82204531716093
30
0
41
1
10
34.297747511417
20
-3.81594840437364
30
0
0
SPLINE
5
C8
100
AcDbEntity
8
1
62
256
6
ByLayer
370
-1
48
1
60
0
100
AcDbSpline
70
4
71
3
72
8
73
4
40
0
40
0
40
0
40
0
40
1
40
1
40
1
40
1
41
1
10
36.2643420845529
20
-5.00955136657799
30
0
41
1
10
36.2067843483775
20
-4.95544392243465
30
0
41
1
10
36.1496140850004
20
-4.90087773517018
30
0
41
1
10
36.0928437008491
20
-4.8458235464237
30
0
0
SPLINE
5
C9
100
AcDbEntity
8
1
62
256
6
ByLayer
370
-1
48
1
60
0
100
AcDbSpline
70
4
71
3
72
8
73
4
40
0
40
0
40
0
40
0
40
1
40
1
40
1
40
1
41
1
10
36.0928437008491
20
5.8766340686841
30
0
41
1
10
36.9016670568488
20
6.3873824551676
30
0
41
1
10
37.7541768084395
20
6.87566973318422
30
0
41
1
10
38.6276437142718
20
7.38066301578874
30
0
0
SPLINE
5
CA
100
AcDbEntity
8
1
62
256
6
ByLayer
370
-1
48
1
60
0
100
AcDbSpline
70
4
71
3
72
12
73
8
40
0
40
0
40
0
40
0
40
0.247508827024975
40
0.247508827024975
40
0.633277975051301
40
0.633277975051301
40
1
40
1
40
1
40
1
41
1
10
31.8332867170206
20
-0.205965906324224
30
0
41
1
10
31.8289583642934
20
-0.171723022075526
30
0
41
1
10
31.8223645329438
20
-0.136394242312946
30
0
41
1
10
31.8005377515406
20
-0.0463398698479693
30
0
41
1
10
31.7822493573389
20
0.0092136636160092
30
0
41
1
10
31.7403917849409
20
0.112139064218752
30
0
41
1
10
31.71680427481
20
0.160723212262241
30
0
41
1
10
31.6915162287302
20
0.205965906324252
30
0
0
SPLINE
5
CB
100
AcDbEntity
8
1
62
256
6
ByLayer
370
-1
48
1
60
0
100
AcDbSpline
70
4
71
3
72
8
73
4
40
0
40
0
40
0
40
0
40
1
40
1
40
1
40
1
41
1
10
34.2977475114168
20
-3.8159484043731
30
0
41
1
10
34.8417437674507
20
-4.25735695196991
30
0
41
1
10
35.4372627813325
20
-4.59031113383466
30
0
41
1
10
36.0928437008492
20
-4.8458235464235
30
0
0
SPLINE
5
CC
100
AcDbEntity
8
SK1
62
256
6
ByLayer
370
-1
48
1
60
0
100
AcDbSpline
70
4
71
3
72
24
73
20
40
0
40
0
40
0
40
0
40
0.250000000000021
40
0.250000000000021
40
0.375000000000035
40
0.375000000000035
40
0.437500000000043
40
0.437500000000043
40
0.50000000000005
40
0.50000000000005
40
0.53125000000005
40
0.53125000000005
40
0.562500000000051
40
0.562500000000051
40
0.625000000000044
40
0.625000000000044
40
0.750000000000029
40
0.750000000000029
40
1
40
1
40
1
40
1
41
1
10
-36.06
20
-0.205965906324167
30
0
41
1
10
-36.4686343160637
20
-0.205965906324167
30
0
41
1
10
-36.8771555453826
20
-0.198452469570327
30
0
41
1
10
-37.4894028804979
20
-0.169226931094073
30
0
41
1
10
-37.6931603208312
20
-0.156639601261418
30
0
41
1
10
-37.9976543175629
20
-0.127755978988347
30
0
41
1
10
-38.0989743184841
20
-0.116569291728922
30
0
41
1
10
-38.3006761329046
20
-0.0859785784400344
30
0
41
1
10
-38.4156960546351
20
-0.0885727857958045
30
0
41
1
10
-38.5368423438109
20
0.0124242265503085
30
0
41
1
10
-38.448845174621
20
0.0482532820548442
30
0
41
1
10
-38.3481780242785
20
0.0757348561222955
30
0
41
1
10
-38.2969166658135
20
0.0854113493555815
30
0
41
1
10
-38.1424015195539
20
0.111238405852816
30
0
41
1
10
-38.0387091696868
20
0.123262241085399
30
0
41
1
10
-37.7275189777037
20
0.15429910626429
30
0
41
1
10
-37.5194067051518
20
0.167490929837157
30
0
41
1
10
-36.894297633513
20
0.198188957833423
30
0
41
1
10
-36.4772192765597
20
0.205965906324138
30
0
41
1
10
-36.06
20
0.205965906324138
30
0
0
SPLINE
5
CD
100
AcDbEntity
8
1
62
256
6
ByLayer
370
-1
48
1
60
0
100
AcDbSpline
70
4
71
3
72
12
73
8
40
0
40
0
40
0
40
0
40
0.0947906298401862
40
0.0947906298401862
40
0.808263165170617
40
0.808263165170617
40
1
40
1
40
1
40
1
41
1
10
41.426599839285
20
2.04438201357704
30
0
41
1
10
41.4243779808886
20
2.04419072718187
30
0
41
1
10
41.4221514441068
20
2.04404864803209
30
0
41
1
10
41.4031514271923
20
2.04325770139903
30
0
41
1
10
41.3860227430952
20
2.0454224638645
30
0
41
1
10
41.3656377074179
20
2.05157387025514
30
0
41
1
10
41.3613645102157
20
2.05308030277084
30
0
41
1
10
41.3571607995265
20
2.05477788768832
30
0
0
SPLINE
5
CE
100
AcDbEntity
8
1
62
256
6
ByLayer
370
-1
48
1
60
0
100
AcDbSpline
70
4
71
3
72
22
73
18
40
0
40
0
40
0
40
0
40
0.16784278424251
40
0.16784278424251
40
0.335898034467368
40
0.335898034467368
40
0.454065247805892
40
0.454065247805892
40
0.642558083165287
40
0.642558083165287
40
0.755508761173823
40
0.755508761173823
40
0.87015141206335
40
0.87015141206335
40
0.9670129822701
40
0.9670129822701
40
1
40
1
40
1
40
1
41
1
10
43.789830525685
20
6.2356980159698
30
0
41
1
10
43.8016914704982
20
6.24600292473511
30
0
41
1
10
43.8140998799784
20
6.25569402727362
30
0
41
1
10
43.839917905374
20
6.27345836894418
30
0
41
1
10
43.8533849722048
20
6.28157352487631
30
0
41
1
10
43.8771361351344
20
6.29347068829344
30
0
41
1
10
43.8872203538846
20
6.29784174205489
30
0
41
1
10
43.9137855934461
20
6.30715045441517
30
0
41
1
10
43.9309155741249
20
6.31106444817036
30
0
41
1
10
43.9579298963766
20
6.31174957792913
30
0
41
1
10
43.968162985688
20
6.31070136328748
30
0
41
1
10
43.9872567129869
20
6.30510411429935
30
0
41
1
10
43.9963466800396
20
6.30035351131684
30
0
41
1
10
44.0100200150456
20
6.28854442957569
30
0
41
1
10
44.0152546298041
20
6.28182654031721
30
0
41
1
10
44.0205281540253
20
6.27197570351447
30
0
41
1
10
44.0217390982745
20
6.26936537220405
30
0
41
1
10
44.022812362403
20
6.26669599300845
30
0
0
SPLINE
5
CF
100
AcDbEntity
8
1
62
256
6
ByLayer
370
-1
48
1
60
0
100
AcDbSpline
70
4
71
3
72
24
73
20
40
0
40
0
40
0
40
0
40
0.157270274760608
40
0.157270274760608
40
0.348947819267765
40
0.348947819267765
40
0.444423884530708
40
0.444423884530708
40
0.539980602797758
40
0.539980602797758
40
0.635702979245864
40
0.635702979245864
40
0.713564009484092
40
0.713564009484092
40
0.838051308772203
40
0.838051308772203
40
0.924252902185745
40
0.924252902185745
40
1
40
1
40
1
40
1
41
1
10
45.4890107934245
20
5.74316963456889
30
0
41
1
10
45.4933425255441
20
5.72717248434881
30
0
41
1
10
45.4968462951555
20
5.71089577396035
30
0
41
1
10
45.5026210099883
20
5.67447549371829
30
0
41
1
10
45.5044800270257
20
5.65415969352824
30
0
41
1
10
45.5048259480504
20
5.62370667623668
30
0
41
1
10
45.5045328671872
20
5.61354320346936
30
0
41
1
10
45.5029897493862
20
5.59329757918422
30
0
41
1
10
45.5017375679834
20
5.58318623849129
30
0
41
1
10
45.4980673770024
20
5.56320914856593
30
0
41
1
10
45.4956396090128
20
5.55329596867372
30
0
41
1
10
45.4899117219263
20
5.5358553084653
30
0
41
1
10
45.4868421192886
20
5.52818449486011
30
0
41
1
10
45.4774230552467
20
5.50933845409378
30
0
41
1
10
45.4699959888167
20
5.49844340801312
30
0
41
1
10
45.4547866558549
20
5.48384191633488
30
0
41
1
10
45.4476468469877
20
5.47885191570469
30
0
41
1
10
45.4335052302412
20
5.47239400482366
30
0
41
1
10
45.4264573290666
20
5.47050727095592
30
0
41
1
10
45.4194628053633
20
5.46977563405713
30
0
0
SPLINE
5
D0
100
AcDbEntity
8
1
62
256
6
ByLayer
370
-1
48
1
60
0
100
AcDbSpline
70
4
71
3
72
22
73
18
40
0
40
0
40
0
40
0
40
0.099135488407402
40
0.099135488407402
40
0.206229847801848
40
0.206229847801848
40
0.367627630835641
40
0.367627630835641
40
0.507529288585659
40
0.507529288585659
40
0.647011593785676
40
0.647011593785676
40
0.786332448960896
40
0.786332448960896
40
0.892876682575355
40
0.892876682575355
40
1
40
1
40
1
40
1
41
1
10
44.9575131701544
20
4.66540544221107
30
0
41
1
10
44.9638623150405
20
4.65963427377946
30
0
41
1
10
44.9719173305527
20
4.6551217565397
30
0
41
1
10
44.9902051279427
20
4.64906853972141
30
0
41
1
10
45.0008011952301
20
4.64764781440951
30
0
41
1
10
45.0274710358805
20
4.64746892210007
30
0
41
1
10
45.0440930292411
20
4.6502920458648
30
0
41
1
10
45.0740797258692
20
4.65859286995766
30
0
41
1
10
45.0878437626416
20
4.66374673392551
30
0
41
1
10
45.1145126198231
20
4.67571627130721
30
0
41
1
10
45.127504366606
20
4.68257007104981
30
0
41
1
10
45.1526520958036
20
4.69753657955832
30
0
41
1
10
45.1648546772951
20
4.70567772444076
30
0
41
1
10
45.1856515069348
20
4.72096582936535
30
0
41
1
10
45.194436654007
20
4.72791077603583
30
0
41
1
10
45.2115417472426
20
4.74239206054088
30
0
41
1
10
45.2198707363275
20
4.74994150925642
30
0
41
1
10
45.2279206692753
20
4.75774946799018
30
0
0
SPLINE
5
D1
100
AcDbEntity
8
1
62
256
6
ByLayer
370
-1
48
1
60
0
100
AcDbSpline
70
4
71
3
72
42
73
38
40
0
40
0
40
0
40
0
40
0.0453868446055142
40
0.0453868446055142
40
0.0855289172227148
40
0.0855289172227148
40
0.136755260759457
40
0.136755260759457
40
0.176187381922977
40
0.176187381922977
40
0.232899104725418
40
0.232899104725418
40
0.289415721421801
40
0.289415721421801
40
0.345854377934077
40
0.345854377934077
40
0.459254087221984
40
0.459254087221984
40
0.515653380606
40
0.515653380606
40
0.572053913253337
40
0.572053913253337
40
0.659762760606351
40
0.659762760606351
40
0.726494882950606
40
0.726494882950606
40
0.77821944168024
40
0.77821944168024
40
0.861348933301042
40
0.861348933301042
40
0.909456127368896
40
0.909456127368896
40
0.950205311078153
40
0.950205311078153
40
0.991117202000477
40
0.991117202000477
40
1
40
1
40
1
40
1
41
1
10
44.025594333536
20
4.67360003370246
30
0
41
1
10
44.0212817467476
20
4.6672614595202
30
0
41
1
10
44.0183734654976
20
4.65989341391278
30
0
41
1
10
44.0165236869453
20
4.64533439093552
30
0
41
1
10
44.017134147316
20
4.63805210688366
30
0
41
1
10
44.0213512299504
20
4.62192086976935
30
0
41
1
10
44.025741366708
20
4.61294149698574
30
0
41
1
10
44.0355097837852
20
4.59813809308375
30
0
41
1
10
44.0404941096481
20
4.59194484981077
30
0
41
1
10
44.0536947064591
20
4.57765990013002
30
0
41
1
10
44.0624373587152
20
4.56983599329865
30
0
41
1
10
44.0808929277992
20
4.55537925405415
30
0
41
1
10
44.0906671628132
20
4.54869595169947
30
0
41
1
10
44.1108503886027
20
4.53632035989821
30
0
41
1
10
44.1212959092824
20
4.53060620519497
30
0
41
1
10
44.1533559398222
20
4.51474941268944
30
0
41
1
10
44.1757628564023
20
4.50584967068554
30
0
41
1
10
44.2099991095684
20
4.49488105369289
30
0
41
1
10
44.2215303014595
20
4.49161901794051
30
0
41
1
10
44.2447761148734
20
4.48588807974434
30
0
41
1
10
44.2565075459083
20
4.48341498802003
30
0
41
1
10
44.286615743444
20
4.4781679316402
30
0
41
1
10
44.305143320527
20
4.47596677132611
30
0
41
1
10
44.3377572619971
20
4.47419059662226
30
0
41
1
10
44.3518996497982
20
4.47411169391918
30
0
41
1
10
44.3767784813005
20
4.47550069704857
30
0
41
1
10
44.387604860064
20
4.47662782843855
30
0
41
1
10
44.4151821534115
20
4.48124485858528
30
0
41
1
10
44.4319838711965
20
4.48578581365967
30
0
41
1
10
44.4554971361602
20
4.49695573045645
30
0
41
1
10
44.4636116924672
20
4.50201777432275
30
0
41
1
10
44.4759953400834
20
4.5131200956254
30
0
41
1
10
44.4807532689355
20
4.51902115949662
30
0
41
1
10
44.4872529640697
20
4.53169017974838
30
0
41
1
10
44.4890522317257
20
4.53862054252093
30
0
41
1
10
44.4894183054537
20
4.54700145849549
30
0
41
1
10
44.4894155260187
20
4.54851755261049
30
0
41
1
10
44.4893471652913
20
4.55003115164422
30
0
0
SPLINE
5
D2
100
AcDbEntity
8
1
62
256
6
ByLayer
370
-1
48
1
60
0
100
AcDbSpline
70
4
71
3
72
36
73
32
40
0
40
0
40
0
40
0
40
0.0492962859145353
40
0.0492962859145353
40
0.128955121084836
40
0.128955121084836
40
0.193390858861263
40
0.193390858861263
40
0.257664558572347
40
0.257664558572347
40
0.321869855696814
40
0.321869855696814
40
0.386043638223501
40
0.386043638223501
40
0.490448583703332
40
0.490448583703332
40
0.594841290248073
40
0.594841290248073
40
0.692807648700271
40
0.692807648700271
40
0.776462598778721
40
0.776462598778721
40
0.842223390286445
40
0.842223390286445
40
0.892525018755348
40
0.892525018755348
40
0.931489584935812
40
0.931489584935812
40
0.988987173585806
40
0.988987173585806
40
1
40
1
40
1
40
1
41
1
10
45.2925958698634
20
5.0096801053387
30
0
41
1
10
45.2855731610335
20
5.01339643559149
30
0
41
1
10
45.2793645242953
20
5.0185421967185
30
0
41
1
10
45.2656128685651
20
5.03395213282391
30
0
41
1
10
45.2592462205797
20
5.04563187550377
30
0
41
1
10
45.2506416297661
20
5.06806167304305
30
0
41
1
10
45.2477870111289
20
5.07875202297484
30
0
41
1
10
45.243662067215
20
5.10067622040958
30
0
41
1
10
45.2423778312338
20
5.11198193341318
30
0
41
1
10
45.2410871353113
20
5.13491141290723
30
0
41
1
10
45.241078505588
20
5.14658407815111
30
0
41
1
10
45.2421577422922
20
5.17009591272779
30
0
41
1
10
45.2432477955908
20
5.18197361799454
30
0
41
1
10
45.2473987776528
20
5.21319452285979
30
0
41
1
10
45.2512788884638
20
5.23268873194226
30
0
41
1
10
45.2613558478366
20
5.27124302108277
30
0
41
1
10
45.2675883093817
20
5.29043944564816
30
0
41
1
10
45.2818416413541
20
5.32670259701129
30
0
41
1
10
45.2897744485019
20
5.34394897198601
30
0
41
1
10
45.3063965032008
20
5.37455760956058
30
0
41
1
10
45.3148551267682
20
5.38821281678815
30
0
41
1
10
45.3314678462212
20
5.41107437479377
30
0
41
1
10
45.3393458069671
20
5.42066915387107
30
0
41
1
10
45.3542907643328
20
5.43615502907824
30
0
41
1
10
45.3611525953971
20
5.44242437357542
30
0
41
1
10
45.3739858107509
20
5.45227358989109
30
0
41
1
10
45.3798432371299
20
5.45616396561783
30
0
41
1
10
45.394783283418
20
5.46423790507464
30
0
41
1
10
45.4043020210431
20
5.46779083750445
30
0
41
1
10
45.4157333079947
20
5.4694719054757
30
0
41
1
10
45.4175991228134
20
5.46966620715654
30
0
41
1
10
45.4194628053631
20
5.46977563406
30
0
0
SPLINE
5
D3
100
AcDbEntity
8
1
62
256
6
ByLayer
370
-1
48
1
60
0
100
AcDbSpline
70
4
71
3
72
24
73
20
40
0
40
0
40
0
40
0
40
0.15727027486133
40
0.15727027486133
40
0.348947819422636
40
0.348947819422636
40
0.44442388471251
40
0.44442388471251
40
0.539980603006543
40
0.539980603006543
40
0.635702979481819
40
0.635702979481819
40
0.713564009710941
40
0.713564009710941
40
0.838051309004139
40
0.838051309004139
40
0.92425290243424
40
0.92425290243424
40
1
40
1
40
1
40
1
41
1
10
43.4899511300075
20
5.21314209857505
30
0
41
1
10
43.4942828667841
20
5.19714494958268
30
0
41
1
10
43.4994505522478
20
5.18130940721983
30
0
41
1
10
43.5127487157553
20
5.14688388232202
30
0
41
1
10
43.5213114187321
20
5.12834548688056
30
0
41
1
10
43.5361871250016
20
5.10174487400204
30
0
41
1
10
43.5414932174052
20
5.09306595723061
30
0
41
1
10
43.5528616160913
20
5.07624367212523
30
0
41
1
10
43.5589402757595
20
5.06807601910722
30
0
41
1
10
43.5719415641362
20
5.05251917900574
30
0
41
1
10
43.578895972648
20
5.0450935746394
30
0
41
1
10
43.5923330765151
20
5.03273429000251
30
0
41
1
10
43.5986971397744
20
5.02756470374359
30
0
41
1
10
43.6158763479173
20
5.01577088704957
30
0
41
1
10
43.6274373638603
20
5.00991031127728
30
0
41
1
10
43.6472342420299
20
5.00459031138178
30
0
41
1
10
43.6555894482891
20
5.00370863470067
30
0
41
1
10
43.6704094921208
20
5.00492957297544
30
0
41
1
10
43.6771233093403
20
5.00669159948168
30
0
41
1
10
43.6832097821404
20
5.00942823741789
30
0
0
SPLINE
5
D4
100
AcDbEntity
8
1
62
256
6
ByLayer
370
-1
48
1
60
0
100
AcDbSpline
70
4
71
3
72
22
73
18
40
0
40
0
40
0
40
0
40
0.0991354884050623
40
0.0991354884050623
40
0.206229847796894
40
0.206229847796894
40
0.367627630826964
40
0.367627630826964
40
0.507529288573938
40
0.507529288573938
40
0.647011593770846
40
0.647011593770846
40
0.786332448942919
40
0.786332448942919
40
0.892876682563228
40
0.892876682563228
40
1
40
1
40
1
40
1
41
1
10
43.6767610534186
20
5.93587500142073
30
0
41
1
10
43.670353448315
20
5.94275816502161
30
0
41
1
10
43.6652321108468
20
5.95131621400952
30
0
41
1
10
43.6580833202694
20
5.97049536673444
30
0
41
1
10
43.6561698570299
20
5.9814837388013
30
0
41
1
10
43.6549642641272
20
6.00895648127448
30
0
41
1
10
43.6573306990429
20
6.02592071229731
30
0
41
1
10
43.6649750348496
20
6.05638452088465
30
0
41
1
10
43.6698984622524
20
6.07030801711949
30
0
41
1
10
43.6815101571921
20
6.09721382985575
30
0
41
1
10
43.6882356158
20
6.1102836086873
30
0
41
1
10
43.7030196630085
20
6.13553059404722
30
0
41
1
10
43.7111065064135
20
6.14775443368717
30
0
41
1
10
43.7263516046257
20
6.16854969779507
30
0
41
1
10
43.7332955190128
20
6.17732109475901
30
0
41
1
10
43.7478071556478
20
6.19437501422161
30
0
41
1
10
43.7553881933405
20
6.20266640937996
30
0
41
1
10
43.763243833909
20
6.21066710061189
30
0
0
SPLINE
5
D5
100
AcDbEntity
8
1
62
256
6
ByLayer
370
-1
48
1
60
0
100
AcDbSpline
70
4
71
3
72
36
73
32
40
0
40
0
40
0
40
0
40
0.0492962859085818
40
0.0492962859085818
40
0.128955121069256
40
0.128955121069256
40
0.193390858837914
40
0.193390858837914
40
0.257664558541242
40
0.257664558541242
40
0.321869855657958
40
0.321869855657958
40
0.386043638176908
40
0.386043638176908
40
0.490448583644007
40
0.490448583644007
40
0.594841290176032
40
0.594841290176032
40
0.692807648616196
40
0.692807648616196
40
0.776462598684362
40
0.776462598684362
40
0.842223390183986
40
0.842223390183986
40
0.892525018646666
40
0.892525018646666
40
0.931489584822327
40
0.931489584822327
40
0.988987173441995
40
0.988987173441995
40
1
40
1
40
1
40
1
41
1
10
44.0254162682323
20
4.67370209817599
30
0
41
1
10
44.0292180124775
20
4.68028840689766
30
0
41
1
10
44.0315916019521
20
4.68770964598869
30
0
41
1
10
44.0347219169074
20
4.7075956412578
30
0
41
1
10
44.0337620789784
20
4.72070893705481
30
0
41
1
10
44.0289587489924
20
4.7441465949131
30
0
41
1
10
44.0256506800366
20
4.75471671774045
30
0
41
1
10
44.0174633175167
20
4.77556381189342
30
0
41
1
10
44.0125574427931
20
4.78590928929526
30
0
41
1
10
44.0015511278326
20
4.80626278483368
30
0
41
1
10
43.9954267036122
20
4.81631391794062
30
0
41
1
10
43.98221644847
20
4.83603705911685
30
0
41
1
10
43.9751086083868
20
4.84574118782209
30
0
41
1
10
43.9554081679485
20
4.87063816402772
30
0
41
1
10
43.942088513856
20
4.8855720544872
30
0
41
1
10
43.9138559988602
20
4.91396902982848
30
0
41
1
10
43.8988433075562
20
4.92753254797165
30
0
41
1
10
43.8685248800565
20
4.95197801310945
30
0
41
1
10
43.8531942650449
20
4.9630563609104
30
0
41
1
10
43.8239553245054
20
4.98150548631565
30
0
41
1
10
43.8100782938408
20
4.98923865329897
30
0
41
1
10
43.7848672661792
20
5.00101112875493
30
0
41
1
10
43.7735554918885
20
5.00551797165704
30
0
41
1
10
43.7534863509321
20
5.01172026388846
30
0
41
1
10
43.7447020918309
20
5.01384122863988
30
0
41
1
10
43.7292275459506
20
5.01618496965079
30
0
41
1
10
43.7224722553131
20
5.01673122941901
30
0
41
1
10
43.7061788717325
20
5.01652398638845
30
0
41
1
10
43.6966039291547
20
5.01501445047086
30
0
41
1
10
43.6864114590902
20
5.01096222950591
30
0
41
1
10
43.684788307757
20
5.01023147218234
30
0
41
1
10
43.6832097821404
20
5.00942823741789
30
0
0
SPLINE
5
D6
100
AcDbEntity
8
1
62
256
6
ByLayer
370
-1
48
1
60
0
100
AcDbSpline
70
4
71
3
72
22
73
18
40
0
40
0
40
0
40
0
40
0.167842784247652
40
0.167842784247652
40
0.33589803447058
40
0.33589803447058
40
0.4540652478081
40
0.4540652478081
40
0.64255808316626
40
0.64255808316626
40
0.755508761175016
40
0.755508761175016
40
0.870151412064736
40
0.870151412064736
40
0.967012982272285
40
0.967012982272285
40
1
40
1
40
1
40
1
41
1
10
45.2531544698828
20
4.78412241280463
30
0
41
1
10
45.2635654281391
20
4.79586566686478
30
0
41
1
10
45.2733873213002
20
4.80812251979651
30
0
41
1
10
45.2914752093704
20
4.83355493714743
30
0
41
1
10
45.2997836069829
20
4.84678734576374
30
0
41
1
10
45.3120859548437
20
4.870041407087
30
0
41
1
10
45.3166472038506
20
4.87989108925996
30
0
41
1
10
45.3265265345072
20
4.90575174719433
30
0
41
1
10
45.3308727946154
20
4.92234682702804
30
0
41
1
10
45.3324562711915
20
4.94825863013963
30
0
41
1
10
45.3318004614251
20
4.95801189271637
30
0
41
1
10
45.327096112527
20
4.97602165634234
30
0
41
1
10
45.3228631979533
20
4.98448697182352
30
0
41
1
10
45.3120513485855
20
4.99696649440446
30
0
41
1
10
45.3058183753349
20
5.00162412527405
30
0
41
1
10
45.2966023775303
20
5.00614648092645
30
0
41
1
10
45.2941543305468
20
5.00716576452592
30
0
41
1
10
45.2916456347574
20
5.00804958737359
30
0
0
SPLINE
5
D7
100
AcDbEntity
8
1
62
256
6
ByLayer
370
-1
48
1
60
0
100
AcDbSpline
70
4
71
3
72
34
73
30
40
0
40
0
40
0
40
0
40
0.0484619167057257
40
0.0484619167057257
40
0.123250895849184
40
0.123250895849184
40
0.183570929309779
40
0.183570929309779
40
0.243735544402972
40
0.243735544402972
40
0.303833391333869
40
0.303833391333869
40
0.401539481582591
40
0.401539481582591
40
0.499173133035831
40
0.499173133035831
40
0.596804264320471
40
0.596804264320471
40
0.692486849042454
40
0.692486849042454
40
0.77326782940865
40
0.77326782940865
40
0.836555694129518
40
0.836555694129518
40
0.884954691232834
40
0.884954691232834
40
0.961866476551858
40
0.961866476551858
40
1
40
1
40
1
40
1
41
1
10
43.5581601148043
20
5.47123683625915
30
0
41
1
10
43.5663258020501
20
5.47051729488527
30
0
41
1
10
43.574570805727
20
5.47149295757254
30
0
41
1
10
43.5943896376966
20
5.47699963290484
30
0
41
1
10
43.6057467839129
20
5.48316530453582
30
0
41
1
10
43.624461424807
20
5.49686188545564
30
0
41
1
10
43.6323160497138
20
5.50401669295084
30
0
41
1
10
43.6469599289951
20
5.51957050966936
30
0
41
1
10
43.6537977024213
20
5.52801979408977
30
0
41
1
10
43.6665552469157
20
5.54582111561146
30
0
41
1
10
43.6725013218148
20
5.55521061950463
30
0
41
1
10
43.6870012816403
20
5.58074141600528
30
0
41
1
10
43.6949320459378
20
5.59754469524248
30
0
41
1
10
43.7087064352999
20
5.63228779117796
30
0
41
1
10
43.7145958804679
20
5.65034743973104
30
0
41
1
10
43.724252842213
20
5.68714828220416
30
0
41
1
10
43.7280514639477
20
5.70600712189204
30
0
41
1
10
43.733276590296
20
5.74357804054986
30
0
41
1
10
43.7347693601559
20
5.76241049165992
30
0
41
1
10
43.7351009519202
20
5.79689969318429
30
0
41
1
10
43.734319159318
20
5.81269789772784
30
0
41
1
10
43.7308329260587
20
5.8402944784734
30
0
41
1
10
43.7285711517568
20
5.85229247979478
30
0
41
1
10
43.7229517297758
20
5.87273143357834
30
0
41
1
10
43.7199606076197
20
5.88139641038595
30
0
41
1
10
43.7105339141369
20
5.90255042721506
30
0
41
1
10
43.7029064349541
20
5.91475429988327
30
0
41
1
10
43.6882385237039
20
5.92883160469898
30
0
41
1
10
43.6827154370532
20
5.9328775441642
30
0
41
1
10
43.6767610534186
20
5.93587500142075
30
0
0
SPLINE
5
D8
100
AcDbEntity
8
1
62
256
6
ByLayer
370
-1
48
1
60
0
100
AcDbSpline
70
4
71
3
72
42
73
38
40
0
40
0
40
0
40
0
40
0.0453868446055385
40
0.0453868446055385
40
0.0855289172227108
40
0.0855289172227108
40
0.136755260759474
40
0.136755260759474
40
0.176187381923041
40
0.176187381923041
40
0.23289910472555
40
0.23289910472555
40
0.28941572142208
40
0.28941572142208
40
0.34585437793443
40
0.34585437793443
40
0.459254087222516
40
0.459254087222516
40
0.515653380606613
40
0.515653380606613
40
0.572053913254021
40
0.572053913254021
40
0.659762760606906
40
0.659762760606906
40
0.726494882951069
40
0.726494882951069
40
0.778219441680611
40
0.778219441680611
40
0.861348933301301
40
0.861348933301301
40
0.909456127369085
40
0.909456127369085
40
0.950205311078327
40
0.950205311078327
40
0.991117202000665
40
0.991117202000665
40
1
40
1
40
1
40
1
41
1
10
44.4882384491199
20
6.39055047038443
30
0
41
1
10
44.4880019926916
20
6.39933910427874
30
0
41
1
10
44.489507073604
20
6.40834979091198
30
0
41
1
10
44.4957785254134
20
6.42393002518708
30
0
41
1
10
44.5002150787639
20
6.43084701827121
30
0
41
1
10
44.512471264597
20
6.44455025063903
30
0
41
1
10
44.5210255980634
20
6.45102491502314
30
0
41
1
10
44.5372810345615
20
6.46029593561326
30
0
41
1
10
44.5448452022169
20
6.46367692087381
30
0
41
1
10
44.5637454863797
20
6.47054447342538
30
0
41
1
10
44.5753872977066
20
6.47347983546817
30
0
41
1
10
44.5988678617541
20
6.47767170107187
30
0
41
1
10
44.6107858196167
20
6.47894411620496
30
0
41
1
10
44.6346424524883
20
6.48020115838969
30
0
41
1
10
44.6466239662172
20
6.48018733326526
30
0
41
1
10
44.6825142450063
20
6.4785452388023
30
0
41
1
10
44.7064509425036
20
6.4753227721063
30
0
41
1
10
44.7416516505832
20
6.46793341015857
30
0
41
1
10
44.7532817954235
20
6.4650386055105
30
0
41
1
10
44.776285774584
20
6.45841017956278
30
0
41
1
10
44.7876762690448
20
6.45467181464005
30
0
41
1
10
44.8163340743747
20
6.44404210786573
30
0
41
1
10
44.8334317850867
20
6.43653447199739
30
0
41
1
10
44.8624244134404
20
6.42131899281051
30
0
41
1
10
44.8746326995782
20
6.41406231223584
30
0
41
1
10
44.8952989113745
20
6.39981757227793
30
0
41
1
10
44.9040149261053
20
6.39311278637902
30
0
41
1
10
44.9252842000175
20
6.37431969120669
30
0
41
1
10
44.9373209384052
20
6.36117700310629
30
0
41
1
10
44.9515669002141
20
6.33795439298581
30
0
41
1
10
44.9558313653901
20
6.32872809852486
30
0
41
1
10
44.9605071542831
20
6.31122525452881
30
0
41
1
10
44.9614161816041
20
6.30284239487884
30
0
41
1
10
44.960152881407
20
6.28670162856923
30
0
41
1
10
44.9579418684979
20
6.27874916297398
30
0
41
1
10
44.9537006755044
20
6.27003173414579
30
0
41
1
10
44.9528736960842
20
6.26848908293772
30
0
41
1
10
44.9519912808752
20
6.26698158832625
30
0
0
SPLINE
5
D9
100
AcDbEntity
8
1
62
256
6
ByLayer
370
-1
48
1
60
0
100
AcDbSpline
70
4
71
3
72
22
73
18
40
0
40
0
40
0
40
0
40
0.098611353816747
40
0.098611353816747
40
0.183915555259599
40
0.183915555259599
40
0.299837676728821
40
0.299837676728821
40
0.483761977366535
40
0.483761977366535
40
0.582276243915127
40
0.582276243915127
40
0.774222172354463
40
0.774222172354463
40
0.965772861981498
40
0.965772861981498
40
1
40
1
40
1
40
1
41
1
10
45.2944138593899
20
5.93158442414901
30
0
41
1
10
45.3024119029641
20
5.93644846335908
30
0
41
1
10
45.3115243282564
20
5.93966585644782
30
0
41
1
10
45.3288824925201
20
5.94165470129576
30
0
41
1
10
45.3372781142826
20
5.94100943533707
30
0
41
1
10
45.3562994772408
20
5.93646488677464
30
0
41
1
10
45.3669610997006
20
5.93148199859027
30
0
41
1
10
45.3921940413842
20
5.91531664795045
30
0
41
1
10
45.4059989623098
20
5.90203103737724
30
0
41
1
10
45.4245874114256
20
5.87973082788827
30
0
41
1
10
45.4306659070801
20
5.87147181966671
30
0
41
1
10
45.4473554537839
20
5.84632304097118
30
0
41
1
10
45.4569094340814
20
5.8285528221605
30
0
41
1
10
45.4733757849265
20
5.79191864893275
30
0
41
1
10
45.4803392856438
20
5.77293363323201
30
0
41
1
10
45.4870826163165
20
5.75013112157063
30
0
41
1
10
45.4880666625612
20
5.74665632368794
30
0
41
1
10
45.4890107934245
20
5.74316963456889
30
0
0
SPLINE
5
DA
100
AcDbEntity
8
1
62
256
6
ByLayer
370
-1
48
1
60
0
100
AcDbSpline
70
4
71
3
72
34
73
30
40
0
40
0
40
0
40
0
40
0.0495805136006582
40
0.0495805136006582
40
0.12969863786296
40
0.12969863786296
40
0.194505892890842
40
0.194505892890842
40
0.259150175590205
40
0.259150175590205
40
0.323725661313995
40
0.323725661313995
40
0.42553419733546
40
0.42553419733546
40
0.527282435054559
40
0.527282435054559
40
0.629041292372076
40
0.629041292372076
40
0.724169483475236
40
0.724169483475236
40
0.802896330501585
40
0.802896330501585
40
0.863925138213286
40
0.863925138213286
40
0.910648821183622
40
0.910648821183622
40
0.947136701919316
40
0.947136701919316
40
1
40
1
40
1
40
1
41
1
10
44.4880329210687
20
6.39055061596503
30
0
41
1
10
44.4877040039782
20
6.38180734295116
30
0
41
1
10
44.4857177861334
20
6.37304860086732
30
0
41
1
10
44.4776658471549
20
6.35143536351251
30
0
41
1
10
44.4698008975004
20
6.33892262367405
30
0
41
1
10
44.4531469849582
20
6.31838076853393
30
0
41
1
10
44.4446759705929
20
6.30979032911324
30
0
41
1
10
44.4265786874224
20
6.29386003430704
30
0
41
1
10
44.4168931708283
20
6.28646745361988
30
0
41
1
10
44.3967132733827
20
6.27277623547209
30
0
41
1
10
44.3861755539951
20
6.2664488849685
30
0
41
1
10
44.3582978047557
20
6.25146641374613
30
0
41
1
10
44.3404168760102
20
6.2434994156113
30
0
41
1
10
44.3038707336071
20
6.22999625965477
30
0
41
1
10
44.2850786956797
20
6.22441463315175
30
0
41
1
10
44.2471816709639
20
6.21575172396211
30
0
41
1
10
44.2279506293663
20
6.21264091409716
30
0
41
1
10
44.1908988447762
20
6.20927576435002
30
0
41
1
10
44.1729469925656
20
6.20883466307882
30
0
41
1
10
44.140704264087
20
6.2106022755753
30
0
41
1
10
44.1262212361019
20
6.2123715028109
30
0
41
1
10
44.1012960479656
20
6.21763795658995
30
0
41
1
10
44.0906117836881
20
6.22067264997654
30
0
41
1
10
44.0725951033524
20
6.2276314422248
30
0
41
1
10
44.0650194032177
20
6.23120030056134
30
0
41
1
10
44.05236056843
20
6.23871411539494
30
0
41
1
10
44.0470640366216
20
6.24242687395798
30
0
41
1
10
44.0352182668888
20
6.25258577134557
30
0
41
1
10
44.0290229782843
20
6.25965696679049
30
0
41
1
10
44.0244560918622
20
6.26763858436101
30
0
0
SPLINE
5
DB
100
AcDbEntity
8
1
62
256
6
ByLayer
370
-1
48
1
60
0
100
AcDbSpline
70
4
71
3
72
34
73
30
40
0
40
0
40
0
40
0
40
0.0489352209447753
40
0.0489352209447753
40
0.117200042217453
40
0.117200042217453
40
0.171506955646216
40
0.171506955646216
40
0.225668649239221
40
0.225668649239221
40
0.279765320459377
40
0.279765320459377
40
0.373225321592586
40
0.373225321592586
40
0.466583477789752
40
0.466583477789752
40
0.559915867375193
40
0.559915867375193
40
0.653268378335587
40
0.653268378335587
40
0.744703146931352
40
0.744703146931352
40
0.818565955739585
40
0.818565955739585
40
0.875584577609768
40
0.875584577609768
40
0.965112275153934
40
0.965112275153934
40
1
40
1
40
1
40
1
41
1
10
44.9575131701544
20
4.66540544221104
30
0
41
1
10
44.954236024021
20
4.67234352263503
30
0
41
1
10
44.9492603883242
20
4.67857517374699
30
0
41
1
10
44.9350988973129
20
4.69113758686711
30
0
41
1
10
44.9248490314446
20
4.69683183549031
30
0
41
1
10
44.9051768199064
20
4.70467352589773
30
0
41
1
10
44.8958550813692
20
4.70737013602545
30
0
41
1
10
44.876718511234
20
4.71150988783543
30
0
41
1
10
44.8668419091012
20
4.71296801730625
30
0
41
1
10
44.8468116681372
20
4.71489721126764
30
0
41
1
10
44.8366174354273
20
4.71537202361318
30
0
41
1
10
44.8086494523931
20
4.71554769683553
30
0
41
1
10
44.7906226290161
20
4.71444416194981
30
0
41
1
10
44.754684578021
20
4.71030455570011
30
0
41
1
10
44.7366526021697
20
4.7072526521911
30
0
41
1
10
44.7010568458587
20
4.69946136199312
30
0
41
1
10
44.683389237476
20
4.69469877684122
30
0
41
1
10
44.6488997611154
20
4.68358991560126
30
0
41
1
10
44.6319763353471
20
4.67721172859572
30
0
41
1
10
44.5997829403042
20
4.66300575777612
30
0
41
1
10
44.5843789138149
20
4.65516709520736
30
0
41
1
10
44.5582574956786
20
4.63947106501891
30
0
41
1
10
44.5471334719203
20
4.63186196761171
30
0
41
1
10
44.529079244622
20
4.61725381058804
30
0
41
1
10
44.5217251612791
20
4.61047207129431
30
0
41
1
10
44.5050698995549
20
4.59207810705544
30
0
41
1
10
44.4966403316974
20
4.57951928877139
30
0
41
1
10
44.4907345882071
20
4.56092511352028
30
0
41
1
10
44.4897141772572
20
4.55547571533521
30
0
41
1
10
44.4895526933429
20
4.55003100607925
30
0
0
SPLINE
5
DC
100
AcDbEntity
8
1
62
256
6
ByLayer
370
-1
48
1
60
0
100
AcDbSpline
70
4
71
3
72
34
73
30
40
0
40
0
40
0
40
0
40
0.0493619475591742
40
0.0493619475591742
40
0.125539901664604
40
0.125539901664604
40
0.18698019398101
40
0.18698019398101
40
0.248262181512498
40
0.248262181512498
40
0.340547871918748
40
0.340547871918748
40
0.432709445704634
40
0.432709445704634
40
0.524833165866777
40
0.524833165866777
40
0.616962251767054
40
0.616962251767054
40
0.709145696793945
40
0.709145696793945
40
0.791292482820712
40
0.791292482820712
40
0.854807499469291
40
0.854807499469291
40
0.903519774516279
40
0.903519774516279
40
0.980968575571253
40
0.980968575571253
40
1
40
1
40
1
40
1
41
1
10
45.2944138593902
20
5.93158442414841
30
0
41
1
10
45.2873028697495
20
5.92681444868506
30
0
41
1
10
45.2792625066007
20
5.92347223481838
30
0
41
1
10
45.2583400603547
20
5.9181768317039
30
0
41
1
10
45.2448317064278
20
5.91774970372413
30
0
41
1
10
45.2208007804169
20
5.92011279224587
30
0
41
1
10
45.2100104667875
20
5.92232411005401
30
0
41
1
10
45.1887929757158
20
5.92836969942408
30
0
41
1
10
45.1782960791723
20
5.93222289670504
30
0
41
1
10
45.1525160990427
20
5.94344215142056
30
0
41
1
10
45.1373729688402
20
5.95164571620799
30
0
41
1
10
45.1081847588299
20
5.97014489169257
30
0
41
1
10
45.094041299713
20
5.98050542232511
30
0
41
1
10
45.0670009227152
20
6.00291900310404
30
0
41
1
10
45.0540279079938
20
6.01503614795021
30
0
41
1
10
45.0295562386039
20
6.04068033689191
30
0
41
1
10
45.0179902924676
20
6.05427737892396
30
0
41
1
10
44.9966609895647
20
6.0826611127579
30
0
41
1
10
44.9868318125705
20
6.09753251376347
30
0
41
1
10
44.9704450512204
20
6.12659097244145
30
0
41
1
10
44.963595572441
20
6.14076354679699
30
0
41
1
10
44.9536699747208
20
6.16644108334987
30
0
41
1
10
44.9500650454896
20
6.17789112151067
30
0
41
1
10
44.9455138957652
20
6.19829324379592
30
0
41
1
10
44.9441345813499
20
6.20725789864687
30
0
41
1
10
44.9426885817206
20
6.23019913640428
30
0
41
1
10
44.9438385906655
20
6.24451574558097
30
0
41
1
10
44.9493361586025
20
6.26067708932624
30
0
41
1
10
44.9506447405267
20
6.26383976256747
30
0
41
1
10
44.952169346179
20
6.26687952385262
30
0
0
SPLINE
5
DD
100
AcDbEntity
8
1
62
256
6
ByLayer
370
-1
48
1
60
0
100
AcDbSpline
70
4
71
3
72
22
73
18
40
0
40
0
40
0
40
0
40
0.0986113538179765
40
0.0986113538179765
40
0.183915555260725
40
0.183915555260725
40
0.299837676736072
40
0.299837676736072
40
0.483761977387138
40
0.483761977387138
40
0.58227624394331
40
0.58227624394331
40
0.774222172395563
40
0.774222172395563
40
0.965772862035564
40
0.965772862035564
40
1
40
1
40
1
40
1
41
1
10
43.5581601148043
20
5.47123683625969
30
0
41
1
10
43.5492170476858
20
5.47160913601712
30
0
41
1
10
43.5401469765242
20
5.47000565058428
30
0
41
1
10
43.5248662096622
20
5.46334066055149
30
0
41
1
10
43.5182507670382
20
5.45871538458326
30
0
41
1
10
43.5047557424152
20
5.44554949214282
30
0
41
1
10
43.4983718463683
20
5.43604718198196
30
0
41
1
10
43.4853968609697
20
5.40975144162866
30
0
41
1
10
43.4804668616533
20
5.39149848375837
30
0
41
1
10
43.4760058343554
20
5.36308697233207
30
0
41
1
10
43.4750237750153
20
5.35295593965989
30
0
41
1
10
43.4735516979088
20
5.32299181658112
30
0
41
1
10
43.4743801538171
20
5.30290812595189
30
0
41
1
10
43.4787989264057
20
5.2630796767653
30
0
41
1
10
43.4824062982624
20
5.24320482233415
30
0
41
1
10
43.4881023676934
20
5.22012464147852
30
0
41
1
10
43.4890069981309
20
5.21662878741952
30
0
41
1
10
43.4899511300075
20
5.21314209857505
30
0
0
LINE
5
49
100
AcDbEntity
8
1
62
256
6
ByLayer
370
-1
48
1
60
0
100
AcDbLine
10
42.501823
20
2.135553
30
0
11
41.472222
21
2.046922
31
0
39
0
210
0
220
0
230
1
0
LINE
5
4A
100
AcDbEntity
8
80
62
256
6
ByLayer
370
-1
48
1
60
0
100
AcDbLine
10
0
20
0
30
0
11
-10
21
0
31
0
39
0
210
0
220
0
230
1
0
LINE
5
4B
100
AcDbEntity
8
81
62
256
6
ByLayer
370
-1
48
1
60
0
100
AcDbLine
10
47.94
20
8.9
30
0
11
57.94
21
8.9
31
0
39
0
210
0
220
0
230
1
0
LINE
5
4C
100
AcDbEntity
8
SK4
62
256
6
ByLayer
370
-1
48
0.05
60
0
100
AcDbLine
10
-108.31
20
0
30
0
11
52.29343
21
0
31
0
39
0
210
0
220
0
230
1
0
LINE
5
4E
100
AcDbEntity
8
4
62
256
6
ByLayer
370
-1
48
0.05
60
0
100
AcDbLine
10
0
20
0
30
0
11
52.29343
21
0
31
0
39
0
210
0
220
0
230
1
0
LINE
5
50
100
AcDbEntity
8
1
62
256
6
ByLayer
370
-1
48
1
60
0
100
AcDbLine
10
41.286164
20
2.083522
30
0
11
41.356902
21
2.054872
31
0
39
0
210
0
220
0
230
1
0
LINE
5
51
100
AcDbEntity
8
1
62
256
6
ByLayer
370
-1
48
1
60
0
100
AcDbLine
10
47.081792
20
2.534542
30
0
11
47.139347
21
2.546827
31
0
39
0
210
0
220
0
230
1
0
LINE
5
52
100
AcDbEntity
8
1
62
256
6
ByLayer
370
-1
48
1
60
0
100
AcDbLine
10
44.026025
20
4.615828
30
0
11
44.033468
21
4.7009
31
0
39
0
210
0
220
0
230
1
0
LINE
5
53
100
AcDbEntity
8
1
62
256
6
ByLayer
370
-1
48
1
60
0
100
AcDbLine
10
46.197918
20
5.213525
30
0
11
46.205984
21
5.305726
31
0
39
0
210
0
220
0
230
1
0
LINE
5
54
100
AcDbEntity
8
1
62
256
6
ByLayer
370
-1
48
1
60
0
100
AcDbLine
10
42.769113
20
5.606414
30
0
11
42.761046
21
5.514213
31
0
39
0
210
0
220
0
230
1
0
LINE
5
55
100
AcDbEntity
8
1
62
256
6
ByLayer
370
-1
48
1
60
0
100
AcDbLine
10
45.242719
20
5.174766
30
0
11
45.233063
21
5.064398
31
0
39
0
210
0
220
0
230
1
0
LINE
5
56
100
AcDbEntity
8
1
62
256
6
ByLayer
370
-1
48
1
60
0
100
AcDbLine
10
43.72368
20
5.637943
30
0
11
43.73334
21
5.748363
31
0
39
0
210
0
220
0
230
1
0
LINE
5
57
100
AcDbEntity
8
1
62
256
6
ByLayer
370
-1
48
1
60
0
100
AcDbLine
10
44.943745
20
6.235425
30
0
11
44.933509
21
6.118421
31
0
39
0
210
0
220
0
230
1
0
LINE
5
58
100
AcDbEntity
8
1
62
256
6
ByLayer
370
-1
48
1
60
0
100
AcDbLine
10
41.42204
20
2.044059
30
0
11
41.467662
21
2.046599
31
0
39
0
210
0
220
0
230
1
0
LINE
5
59
100
AcDbEntity
8
1
62
256
6
ByLayer
370
-1
48
1
60
0
100
AcDbLine
10
0
20
-5.9925
30
0
11
34.222748
21
-5.9925
31
0
39
0
210
0
220
0
230
1
0
LINE
5
5A
100
AcDbEntity
8
1
62
256
6
ByLayer
370
-1
48
1
60
0
100
AcDbLine
10
34.222748
20
5.9925
30
0
11
0
21
5.9925
31
0
39
0
210
0
220
0
230
1
0
LINE
5
5B
100
AcDbEntity
8
1
62
256
6
ByLayer
370
-1
48
1
60
0
100
AcDbLine
10
34.222748
20
-5.9925
30
0
11
34.297748
21
-5.9175
31
0
39
0
210
0
220
0
230
1
0
LINE
5
5C
100
AcDbEntity
8
1
62
256
6
ByLayer
370
-1
48
1
60
0
100
AcDbLine
10
34.297748
20
5.9175
30
0
11
34.222748
21
5.9925
31
0
39
0
210
0
220
0
230
1
0
LINE
5
5D
100
AcDbEntity
8
1
62
256
6
ByLayer
370
-1
48
1
60
0
100
AcDbLine
10
36.092844
20
5.9175
30
0
11
34.297748
21
5.9175
31
0
39
0
210
0
220
0
230
1
0
LINE
5
5E
100
AcDbEntity
8
1
62
256
6
ByLayer
370
-1
48
1
60
0
100
AcDbLine
10
34.297748
20
-5.9175
30
0
11
34.378523
21
-5.9175
31
0
39
0
210
0
220
0
230
1
0
LINE
5
5F
100
AcDbEntity
8
1
62
256
6
ByLayer
370
-1
48
1
60
0
100
AcDbLine
10
38.933319
20
7.557449
30
0
11
36.092844
21
5.9175
31
0
39
0
210
0
220
0
230
1
0
LINE
5
60
100
AcDbEntity
8
1
62
256
6
ByLayer
370
-1
48
1
60
0
100
AcDbLine
10
40.648632
20
7.709897
30
0
11
38.933319
21
7.557449
31
0
39
0
210
0
220
0
230
1
0
LINE
5
61
100
AcDbEntity
8
SK1
62
256
6
ByLayer
370
-1
48
1
60
0
100
AcDbLine
10
-102.81
20
-5.9925
30
0
11
0
21
-5.9925
31
0
39
0
210
0
220
0
230
1
0
LINE
5
63
100
AcDbEntity
8
SK1
62
256
6
ByLayer
370
-1
48
1
60
0
100
AcDbLine
10
0
20
5.9925
30
0
11
-102.81
21
5.9925
31
0
39
0
210
0
220
0
230
1
0
LINE
5
64
100
AcDbEntity
8
SK1
62
256
6
ByLayer
370
-1
48
1
60
0
100
AcDbLine
10
-102.81
20
5.9925
30
0
11
-103.31
21
5.4925
31
0
39
0
210
0
220
0
230
1
0
LINE
5
65
100
AcDbEntity
8
SK1
62
256
6
ByLayer
370
-1
48
1
60
0
100
AcDbLine
10
-103.31
20
-5.4925
30
0
11
-102.81
21
-5.9925
31
0
39
0
210
0
220
0
230
1
0
LINE
5
66
100
AcDbEntity
8
1
62
256
6
ByLayer
370
-1
48
1
60
0
100
AcDbLine
10
0
20
-5.9925
30
0
11
0
21
-0.205966
31
0
39
0
210
0
220
0
230
1
0
LINE
5
67
100
AcDbEntity
8
1
62
256
6
ByLayer
370
-1
48
1
60
0
100
AcDbLine
10
0
20
0.205966
30
0
11
0
21
5.9925
31
0
39
0
210
0
220
0
230
1
0
LINE
5
68
100
AcDbEntity
8
1
62
256
6
ByLayer
370
-1
48
1
60
0
100
AcDbLine
10
38.627644
20
7.380663
30
0
11
41.316425
21
-2.577169
31
0
39
0
210
0
220
0
230
1
0
LINE
5
69
100
AcDbEntity
8
1
62
256
6
ByLayer
370
-1
48
1
60
0
100
AcDbLine
10
0
20
-0.205966
30
0
11
31.833287
21
-0.205966
31
0
39
0
210
0
220
0
230
1
0
LINE
5
6A
100
AcDbEntity
8
1
62
256
6
ByLayer
370
-1
48
1
60
0
100
AcDbLine
10
34.378523
20
-5.9175
30
0
11
36.092844
21
-5.092121
31
0
39
0
210
0
220
0
230
1
0
LINE
5
6B
100
AcDbEntity
8
1
62
256
6
ByLayer
370
-1
48
1
60
0
100
AcDbLine
10
34.222748
20
-3.833316
30
0
11
34.222748
21
-5.9925
31
0
39
0
210
0
220
0
230
1
0
LINE
5
6C
100
AcDbEntity
8
1
62
256
6
ByLayer
370
-1
48
1
60
0
100
AcDbLine
10
40.484121
20
2.512676
30
0
11
40.508008
21
2.785708
31
0
39
0
210
0
220
0
230
1
0
LINE
5
6D
100
AcDbEntity
8
1
62
256
6
ByLayer
370
-1
48
1
60
0
100
AcDbLine
10
36.264342
20
-5.009551
30
0
11
41.316425
21
-2.577169
31
0
39
0
210
0
220
0
230
1
0
LINE
5
6E
100
AcDbEntity
8
1
62
256
6
ByLayer
370
-1
48
1
60
0
100
AcDbLine
10
31.691516
20
0.205966
30
0
11
0
21
0.205966
31
0
39
0
210
0
220
0
230
1
0
LINE
5
6F
100
AcDbEntity
8
1
62
256
6
ByLayer
370
-1
48
1
60
0
100
AcDbLine
10
34.297748
20
-3.815948
30
0
11
34.297748
21
-5.9175
31
0
39
0
210
0
220
0
230
1
0
LINE
5
70
100
AcDbEntity
8
1
62
256
6
ByLayer
370
-1
48
1
60
0
100
AcDbLine
10
34.297748
20
5.9175
30
0
11
34.297748
21
5.738578
31
0
39
0
210
0
220
0
230
1
0
LINE
5
71
100
AcDbEntity
8
1
62
256
6
ByLayer
370
-1
48
1
60
0
100
AcDbLine
10
36.092844
20
-4.845824
30
0
11
36.092844
21
-5.092121
31
0
39
0
210
0
220
0
230
1
0
LINE
5
72
100
AcDbEntity
8
1
62
256
6
ByLayer
370
-1
48
1
60
0
100
AcDbLine
10
0
20
-0.205966
30
0
11
0
21
0.205966
31
0
39
0
210
0
220
0
230
1
0
LINE
5
73
100
AcDbEntity
8
1
62
256
6
ByLayer
370
-1
48
1
60
0
100
AcDbLine
10
36.092844
20
5.9175
30
0
11
36.092844
21
5.876634
31
0
39
0
210
0
220
0
230
1
0
LINE
5
74
100
AcDbEntity
8
1
62
256
6
ByLayer
370
-1
48
1
60
0
100
AcDbLine
10
38.933319
20
7.557449
30
0
11
38.933319
21
2.949919
31
0
39
0
210
0
220
0
230
1
0
LINE
5
75
100
AcDbEntity
8
1
62
256
6
ByLayer
370
-1
48
1
60
0
100
AcDbLine
10
41.316425
20
-2.577169
30
0
11
46.868439
21
0.09591
31
0
39
0
210
0
220
0
230
1
0
LINE
5
76
100
AcDbEntity
8
1
62
256
6
ByLayer
370
-1
48
1
60
0
100
AcDbLine
10
34.222748
20
5.9925
30
0
11
34.222748
21
5.81097
31
0
39
0
210
0
220
0
230
1
0
LINE
5
77
100
AcDbEntity
8
1
62
256
6
ByLayer
370
-1
48
1
60
0
100
AcDbLine
10
40.44412
20
3.504314
30
0
11
40.508008
21
2.785708
31
0
39
0
210
0
220
0
230
1
0
LINE
5
78
100
AcDbEntity
8
SK1
62
256
6
ByLayer
370
-1
48
1
60
0
100
AcDbLine
10
0
20
-5.9925
30
0
11
0
21
-0.205966
31
0
39
0
210
0
220
0
230
1
0
LINE
5
79
100
AcDbEntity
8
SK1
62
256
6
ByLayer
370
-1
48
1
60
0
100
AcDbLine
10
0
20
0.205966
30
0
11
0
21
5.9925
31
0
39
0
210
0
220
0
230
1
0
LINE
5
7A
100
AcDbEntity
8
SK1
62
256
6
ByLayer
370
-1
48
1
60
0
100
AcDbLine
10
-103.31
20
-5.4925
30
0
11
-103.31
21
5.4925
31
0
39
0
210
0
220
0
230
1
0
LINE
5
7B
100
AcDbEntity
8
SK1
62
256
6
ByLayer
370
-1
48
1
60
0
100
AcDbLine
10
0
20
-0.205966
30
0
11
0
21
0.205966
31
0
39
0
210
0
220
0
230
1
0
LINE
5
7C
100
AcDbEntity
8
SK1
62
256
6
ByLayer
370
-1
48
1
60
0
100
AcDbLine
10
-36.06
20
-0.205966
30
0
11
0
21
-0.205966
31
0
39
0
210
0
220
0
230
1
0
LINE
5
7D
100
AcDbEntity
8
SK1
62
256
6
ByLayer
370
-1
48
1
60
0
100
AcDbLine
10
-102.81
20
-5.9925
30
0
11
-102.81
21
5.9925
31
0
39
0
210
0
220
0
230
1
0
LINE
5
7E
100
AcDbEntity
8
SK1
62
256
6
ByLayer
370
-1
48
1
60
0
100
AcDbLine
10
0
20
0.205966
30
0
11
-36.06
21
0.205966
31
0
39
0
210
0
220
0
230
1
0
LINE
5
7F
100
AcDbEntity
8
SK1
62
256
6
ByLayer
370
-1
48
1
60
0
100
AcDbLine
10
-36.06
20
-0.205966
30
0
11
-36.06
21
0.205966
31
0
39
0
210
0
220
0
230
1
0
LINE
5
80
100
AcDbEntity
8
1
62
256
6
ByLayer
370
-1
48
1
60
0
100
AcDbLine
10
41.4266
20
2.044382
30
0
11
41.472222
21
2.046922
31
0
39
0
210
0
220
0
230
1
0
LINE
5
81
100
AcDbEntity
8
1
62
256
6
ByLayer
370
-1
48
1
60
0
100
AcDbLine
10
41.467661
20
2.046599
30
0
11
41.472222
21
2.046922
31
0
39
0
210
0
220
0
230
1
0
LINE
5
82
100
AcDbEntity
8
1
62
256
6
ByLayer
370
-1
48
1
60
0
100
AcDbLine
10
43.54772
20
5.351901
30
0
11
43.55816
21
5.471237
31
0
39
0
210
0
220
0
230
1
0
LINE
5
83
100
AcDbEntity
8
1
62
256
6
ByLayer
370
-1
48
1
60
0
100
AcDbLine
10
44.021408
20
4.625753
30
0
11
44.025594
21
4.6736
31
0
39
0
210
0
220
0
230
1
0
LINE
5
84
100
AcDbEntity
8
1
62
256
6
ByLayer
370
-1
48
1
60
0
100
AcDbLine
10
45.281224
20
4.888929
30
0
11
45.291646
21
5.00805
31
0
39
0
210
0
220
0
230
1
0
LINE
5
85
100
AcDbEntity
8
1
62
256
6
ByLayer
370
-1
48
1
60
0
100
AcDbLine
10
45.283973
20
5.812249
30
0
11
45.294414
21
5.931584
31
0
39
0
210
0
220
0
230
1
0
LINE
5
86
100
AcDbEntity
8
1
62
256
6
ByLayer
370
-1
48
1
60
0
100
AcDbLine
10
44.951933
20
6.266312
30
0
11
44.951991
21
6.266982
31
0
39
0
210
0
220
0
230
1
0
LINE
5
87
100
AcDbEntity
8
1
62
256
6
ByLayer
370
-1
48
1
60
0
100
AcDbLine
10
44.477817
20
6.27143
30
0
11
44.488238
21
6.39055
31
0
39
0
210
0
220
0
230
1
0
LINE
5
88
100
AcDbEntity
8
1
62
256
6
ByLayer
370
-1
48
1
60
0
100
AcDbLine
10
44.477611
20
6.27143
30
0
11
44.488033
21
6.390551
31
0
39
0
210
0
220
0
230
1
0
LINE
5
89
100
AcDbEntity
8
1
62
256
6
ByLayer
370
-1
48
1
60
0
100
AcDbLine
10
44.014034
20
6.148518
30
0
11
44.024456
21
6.267639
31
0
39
0
210
0
220
0
230
1
0
LINE
5
8A
100
AcDbEntity
8
1
62
256
6
ByLayer
370
-1
48
1
60
0
100
AcDbLine
10
44.012391
20
6.147576
30
0
11
44.022812
21
6.266696
31
0
39
0
210
0
220
0
230
1
0
LINE
5
8B
100
AcDbEntity
8
1
62
256
6
ByLayer
370
-1
48
1
60
0
100
AcDbLine
10
47.082041
20
2.537391
30
0
11
47.090195
21
2.539496
31
0
39
0
210
0
220
0
230
1
0
LINE
5
8C
100
AcDbEntity
8
1
62
256
6
ByLayer
370
-1
48
1
60
0
100
AcDbLine
10
41.888588
20
8.414768
30
0
11
47.508133
21
8.898514
31
0
39
0
210
0
220
0
230
1
0
LINE
5
8D
100
AcDbEntity
8
1
62
256
6
ByLayer
370
-1
48
1
60
0
100
AcDbLine
10
41.4266
20
2.044382
30
0
11
41.470649
21
2.05575
31
0
39
0
210
0
220
0
230
1
0
LINE
5
8E
100
AcDbEntity
8
1
62
256
6
ByLayer
370
-1
48
1
60
0
100
AcDbLine
10
47.090195
20
2.539496
30
0
11
41.470649
21
2.05575
31
0
39
0
210
0
220
0
230
1
0
LINE
5
8F
100
AcDbEntity
8
1
62
256
6
ByLayer
370
-1
48
1
60
0
100
AcDbLine
10
47.938501
20
8.471601
30
0
11
47.450805
21
2.897207
31
0
39
0
210
0
220
0
230
1
0
LINE
5
90
100
AcDbEntity
8
1
62
256
6
ByLayer
370
-1
48
1
60
0
100
AcDbLine
10
41.040281
20
2.482663
30
0
11
41.527977
21
8.057056
31
0
39
0
210
0
220
0
230
1
0
LINE
5
91
100
AcDbEntity
8
2
62
256
6
ByLayer
370
-1
48
1
60
1
100
AcDbLine
10
47.94
20
0
30
0
11
47.941
21
0.001
31
0
39
0
210
0
220
0
230
1
0
MTEXT
5
DE
100
AcDbEntity
8
SK6
62
256
6
ByLayer
370
-1
48
1
60
0
100
AcDbMText
10
-24.31
20
-18.295052
30
0
210
0
220
0
230
1
1
\W00.743;\fsimplex.shx,bigfont.shx;A12M-SCLCR 06-R 
40
3.5
41
0
44
1.084337
50
0
71
7
72
5
7
DEFAULT
0
DIMENSION
5
111
100
AcDbEntity
8
2
62
256
6
ByLayer
370
-3
48
1
60
0
100
AcDbDimension
2
DimnDraft3D1
10
60.19
20
0
30
0
11
60.19
21
19.155
31
0
70
32
71
5
72
1
41
1
210
0
220
0
230
1
3
Standard
100
AcDbAlignedDimension
13
49.94
23
8.9
33
0
14
49.94
24
0
34
0
50
90
100
AcDbRotatedDimension
1001
ACAD
1000
DSTYLE
1002
{
1070
    74
1070
     0
1070
   279
1070
     0
1070
   172
1070
     1
1070
   173
1070
     1
1070
   340
1005
DF
1070
    77
1070
     1
1070
    73
1070
     0
1070
   171
1070
     4
1070
   274
1070
     4
1070
   177
1070
     2
1070
   176
1070
     2
1070
   178
1070
     7
1070
    78
1070
     8
1070
    41
1041
3.175
1070
   147
1041
2.25
1070
    42
1041
2.0
1070
    44
1041
2.0
1070
   140
1041
4.5
1070
   343
1005
112
1070
   344
1005
112
1002
}
0
DIMENSION
5
127
100
AcDbEntity
8
SK2
62
256
6
ByLayer
370
-3
48
1
60
0
100
AcDbDimension
2
DimnDraft3D2
10
-113.06
20
5.9925
30
0
11
-113.06
21
16.2475
31
0
70
32
71
5
72
1
41
1
210
0
220
0
230
1
3
Standard
100
AcDbAlignedDimension
13
-105.31
23
-5.9925
33
0
14
-105.31
24
5.9925
34
0
50
90
100
AcDbRotatedDimension
1001
ACAD
1000
DSTYLE
1002
{
1070
    74
1070
     0
1070
   279
1070
     0
1070
   172
1070
     1
1070
   173
1070
     1
1070
   340
1005
DF
1070
    77
1070
     1
1070
    73
1070
     0
1070
   171
1070
     4
1070
   274
1070
     4
1070
   177
1070
     2
1070
   176
1070
     2
1070
   178
1070
     7
1070
    78
1070
     8
1070
    41
1041
3.175
1070
   147
1041
2.25
1070
    42
1041
2.0
1070
    44
1041
2.0
1070
   140
1041
4.5
1070
   343
1005
112
1070
   344
1005
112
1002
}
0
DIMENSION
5
135
100
AcDbEntity
8
SK2
62
256
6
ByLayer
370
-3
48
1
60
0
100
AcDbDimension
2
DimnDraft3D3
10
-103.31
20
21.65
30
0
11
-33.937632
21
21.65
31
0
70
32
71
5
72
1
41
1
210
0
220
0
230
1
3
Standard
100
AcDbAlignedDimension
13
47.94
23
10.9
33
0
14
-103.31
24
7.9925
34
0
50
0
100
AcDbRotatedDimension
1001
ACAD
1000
DSTYLE
1002
{
1070
   279
1070
     0
1070
   172
1070
     1
1070
   173
1070
     1
1070
   340
1005
DF
1070
    77
1070
     1
1070
    73
1070
     0
1070
   171
1070
     4
1070
   274
1070
     4
1070
   177
1070
     2
1070
   176
1070
     2
1070
   178
1070
     7
1070
    78
1070
     8
1070
    41
1041
3.175
1070
   147
1041
2.25
1070
    42
1041
2.0
1070
    44
1041
2.0
1070
   140
1041
4.5
1070
   343
1005
112
1070
   344
1005
112
1002
}
0
DIMENSION
5
143
100
AcDbEntity
8
2
62
256
6
ByLayer
370
-3
48
1
60
0
100
AcDbDimension
2
DimnDraft3D4
10
96.087758
20
0
30
0
11
72.647061
21
-37.243123
31
0
70
34
71
5
72
1
41
1
210
0
220
0
230
1
3
Standard
100
AcDb2LineAngularDimension
13
47.242754
23
0.930442
33
0
14
42.897134
24
-48.740227
34
0
15
49.94
25
0
35
0
16
75.824216
26
-31.280028
36
0
40
0
0
ENDSEC
0
SECTION
2
OBJECTS
0
DICTIONARY
5
174
330
0
100
AcDbDictionary
280
0
281
1
3
ACAD_GROUP
350
175
3
ACAD_MLINESTYLE
350
176
0
DICTIONARY
5
175
330
0
100
AcDbDictionary
280
0
281
1
0
DICTIONARY
5
176
330
0
100
AcDbDictionary
280
0
281
1
3
Standard
350
18
0
MLINESTYLE
5
18
330
176
100
AcDbMlineStyle
2
Standard
70
0
3

62
256
51
90
52
90
71
2
49
-0.5
62
256
6
ByLayer
49
0.5
62
256
6
ByLayer
0
RASTERVARIABLES
5
162
330

100
AcDbRasterVariables
90
0
70
1
71
1
72
1
0
ENDSEC
0
EOF
